  0
SECTION
  2
HEADER
  9
$ACADVER
  1
AC1015
  9
$ACADMAINTVER
 70
               6
  9
$DWGCODEPAGE
  3
ANSI_932
  9
$INSBASE
 10
0.0
 20
0.0
 30
0.0
  9
$EXTMIN
 10
-975.00000000024124
 20
-1431.5255224711129
 30
-14.834305555555554
  9
$EXTMAX
 10
975.00000000024124
 20
1405.9972926412995
 30
14.834305555555554
  9
$LIMMIN
 10
0.0
 20
0.0
  9
$LIMMAX
 10
0.0
 20
0.0
  9
$ORTHOMODE
 70
               0
  9
$REGENMODE
 70
               1
  9
$FILLMODE
 70
               1
  9
$QTEXTMODE
 70
               0
  9
$MIRRTEXT
 70
               1
  9
$LTSCALE
 40
50.799999999999997
  9
$ATTMODE
 70
               1
  9
$TEXTSIZE
 40
0.2
  9
$TRACEWID
 40
1.0
  9
$TEXTSTYLE
  7
Standard
  9
$CLAYER
  8
FAN70-0304
  9
$CELTYPE
  6
Continuous
  9
$CECOLOR
 62
             256
  9
$CELTSCALE
 40
1.0
  9
$DISPSILH
 70
               0
  9
$DIMSCALE
 40
1.0
  9
$DIMASZ
 40
9.9993896484374982
  9
$DIMEXO
 40
24.999999999999996
  9
$DIMDLI
 40
0.9999999999999999
  9
$DIMRND
 40
0.0
  9
$DIMDLE
 40
0.0
  9
$DIMEXE
 40
0.0
  9
$DIMTP
 40
0.0
  9
$DIMTM
 40
0.0
  9
$DIMTXT
 40
24.432617187500004
  9
$DIMCEN
 40
0.0
  9
$DIMTSZ
 40
0.0
  9
$DIMTOL
 70
               0
  9
$DIMLIM
 70
               0
  9
$DIMTIH
 70
               0
  9
$DIMTOH
 70
               0
  9
$DIMSE1
 70
               0
  9
$DIMSE2
 70
               0
  9
$DIMTAD
 70
               1
  9
$DIMZIN
 70
              11
  9
$DIMBLK
  1
_DOT
  9
$DIMASO
 70
               1
  9
$DIMSHO
 70
               1
  9
$DIMPOST
  1
<>
  9
$DIMAPOST
  1
[]
  9
$DIMALT
 70
               0
  9
$DIMALTD
 70
               1
  9
$DIMALTF
 40
1.0
  9
$DIMLFAC
 40
1.0
  9
$DIMTOFL
 70
               0
  9
$DIMTVP
 40
0.0
  9
$DIMTIX
 70
               1
  9
$DIMSOXD
 70
               0
  9
$DIMSAH
 70
               0
  9
$DIMBLK1
  1

  9
$DIMBLK2
  1

  9
$DIMSTYLE
  2
tfrom線あり
  9
$DIMCLRD
 70
               0
  9
$DIMCLRE
 70
               0
  9
$DIMCLRT
 70
               0
  9
$DIMTFAC
 40
1.0
  9
$DIMGAP
 40
0.4999999999999999
  9
$DIMJUST
 70
               0
  9
$DIMSD1
 70
               0
  9
$DIMSD2
 70
               0
  9
$DIMTOLJ
 70
               1
  9
$DIMTZIN
 70
              11
  9
$DIMALTZ
 70
              11
  9
$DIMALTTZ
 70
              11
  9
$DIMUPT
 70
               0
  9
$DIMDEC
 70
               1
  9
$DIMTDEC
 70
               1
  9
$DIMALTU
 70
               2
  9
$DIMALTTD
 70
               2
  9
$DIMTXSTY
  7
ＭＳ ゴシック
  9
$DIMAUNIT
 70
               0
  9
$DIMADEC
 70
               2
  9
$DIMALTRND
 40
0.0
  9
$DIMAZIN
 70
               0
  9
$DIMDSEP
 70
              46
  9
$DIMATFIT
 70
               0
  9
$DIMFRAC
 70
               2
  9
$DIMLDRBLK
  1

  9
$DIMLUNIT
 70
               2
  9
$DIMLWD
 70
              -2
  9
$DIMLWE
 70
              -2
  9
$DIMTMOVE
 70
               0
  9
$LUNITS
 70
               2
  9
$LUPREC
 70
               4
  9
$SKETCHINC
 40
0.1
  9
$FILLETRAD
 40
0.0
  9
$AUNITS
 70
               0
  9
$AUPREC
 70
               0
  9
$MENU
  1
acad
  9
$ELEVATION
 40
0.0
  9
$PELEVATION
 40
0.0
  9
$THICKNESS
 40
0.0
  9
$LIMCHECK
 70
               0
  9
$CHAMFERA
 40
0.0
  9
$CHAMFERB
 40
0.0
  9
$CHAMFERC
 40
0.0
  9
$CHAMFERD
 40
0.0
  9
$SKPOLY
 70
               0
  9
$TDCREATE
 40
2456050.621666667
  9
$TDUCREATE
 40
0.000000000
  9
$TDUPDATE
 40
2456050.621666667
  9
$TDUUPDATE
 40
0.000000000
  9
$TDINDWG
 40
0.0000000000
  9
$TDUSRTIMER
 40
0.0000000000
  9
$USRTIMER
 70
               1
  9
$ANGBASE
 50
0.0
  9
$ANGDIR
 70
               0
  9
$PDMODE
 70
               1
  9
$PDSIZE
 40
-2.0
  9
$PLINEWID
 40
0.0
  9
$SPLFRAME
 70
               0
  9
$SPLINETYPE
 70
               6
  9
$SPLINESEGS
 70
               8
  9
$HANDSEED
  5
155
  9
$SURFTAB1
 70
               6
  9
$SURFTAB2
 70
               6
  9
$SURFTYPE
 70
               6
  9
$SURFU
 70
               6
  9
$SURFV
 70
               6
  9
$UCSBASE
  2

  9
$UCSNAME
  2

  9
$UCSORG
 10
0.0
 20
0.0
 30
0.0
  9
$UCSXDIR
 10
1.0
 20
0.0
 30
0.0
  9
$UCSYDIR
 10
0.0
 20
1.0
 30
0.0
  9
$UCSORTHOREF
  2

  9
$UCSORTHOVIEW
 70
               0
  9
$UCSORGTOP
 10
0.0
 20
0.0
 30
0.0
  9
$UCSORGBOTTOM
 10
0.0
 20
0.0
 30
0.0
  9
$UCSORGLEFT
 10
0.0
 20
0.0
 30
0.0
  9
$UCSORGRIGHT
 10
0.0
 20
0.0
 30
0.0
  9
$UCSORGFRONT
 10
0.0
 20
0.0
 30
0.0
  9
$UCSORGBACK
 10
0.0
 20
0.0
 30
0.0
  9
$PUCSBASE
  2

  9
$PUCSNAME
  2

  9
$PUCSORG
 10
0.0
 20
0.0
 30
0.0
  9
$PUCSXDIR
 10
1.0
 20
0.0
 30
0.0
  9
$PUCSYDIR
 10
0.0
 20
1.0
 30
0.0
  9
$PUCSORTHOREF
  2

  9
$PUCSORTHOVIEW
 70
               0
  9
$PUCSORGTOP
 10
0.0
 20
0.0
 30
0.0
  9
$PUCSORGBOTTOM
 10
0.0
 20
0.0
 30
0.0
  9
$PUCSORGLEFT
 10
0.0
 20
0.0
 30
0.0
  9
$PUCSORGRIGHT
 10
0.0
 20
0.0
 30
0.0
  9
$PUCSORGFRONT
 10
0.0
 20
0.0
 30
0.0
  9
$PUCSORGBACK
 10
0.0
 20
0.0
 30
0.0
  9
$USERI1
 70
               0
  9
$USERI2
 70
               0
  9
$USERI3
 70
               0
  9
$USERI4
 70
               0
  9
$USERI5
 70
               0
  9
$USERR1
 40
0.0
  9
$USERR2
 40
0.0
  9
$USERR3
 40
0.0
  9
$USERR4
 40
0.0
  9
$USERR5
 40
0.0
  9
$WORLDVIEW
 70
               1
  9
$SHADEDGE
 70
               3
  9
$SHADEDIF
 70
              70
  9
$TILEMODE
 70
               1
  9
$MAXACTVP
 70
              64
  9
$PINSBASE
 10
0.0
 20
0.0
 30
0.0
  9
$PLIMCHECK
 70
               0
  9
$PEXTMIN
 10
1.0000000000000000E+20
 20
1.0000000000000000E+20
 30
1.0000000000000000E+20
  9
$PEXTMAX
 10
-1.0000000000000000E+20
 20
-1.0000000000000000E+20
 30
-1.0000000000000000E+20
  9
$PLIMMIN
 10
0.0
 20
0.0
  9
$PLIMMAX
 10
12.0
 20
9.0
  9
$UNITMODE
 70
               0
  9
$VISRETAIN
 70
               0
  9
$PLINEGEN
 70
               1
  9
$PSLTSCALE
 70
               0
  9
$TREEDEPTH
 70
            3020
  9
$CMLSTYLE
  2
Standard
  9
$CMLJUST
 70
               0
  9
$CMLSCALE
 40
1.0
  9
$PROXYGRAPHICS
 70
               0
  9
$MEASUREMENT
 70
               1
  9
$CELWEIGHT
370
               0
  9
$ENDCAPS
280
               0
  9
$JOINSTYLE
280
               0
  9
$LWDISPLAY
290
               1
  9
$INSUNITS
 70
               4
  9
$HYPERLINKBASE
  1

  9
$STYLESHEET
  1

  9
$XEDIT
290
               1
  9
$CEPSNTYPE
380
               0
  9
$PSTYLEMODE
290
               1
  9
$FINGERPRINTGUID
  2

  9
$VERSIONGUID
  2

  9
$EXTNAMES
290
               1
  9
$PSVPSCALE
 40
0.0
  0
ENDSEC
  0
SECTION
  2
CLASSES
  0
CLASS
  1
LWPOLYLINE
  2
AcDbPolyline
  3
AutoCAD 2000
 90
        0
280
               0
281
               1
  0
CLASS
  1
IMAGE
  2
AcDbRasterImage
  3
ISM
 90
      127
280
               0
281
               1
  0
CLASS
  1
OLE2FRAME
  2
AcDbOle2Frame
  3
AutoCAD 2000
 90
        0
280
               0
281
               1
  0
CLASS
  1
HATCH
  2
AcDbHatch
  3
AutoCAD 2000
 90
        0
280
               0
281
               1
  0
CLASS
  1
DICTIONARYVAR
  2
AcDbDictionaryVar
  3
AutoCAD 2000
 90
        0
280
               0
281
               0
  0
CLASS
  1
RASTERVARIABLES
  2
AcDbRasterVariables
  3
ISM
 90
        0
280
               0
281
               0
  0
CLASS
  1
IMAGEDEF
  2
AcDbRasterImageDef
  3
ISM
 90
        0
280
               0
281
               0
  0
CLASS
  1
IMAGEDEF_REACTOR
  2
AcDbRasterImageDefReactor
  3
ISM
 90
        1
280
               0
281
               0
  0
CLASS
  1
IDBUFFER
  2
AcDbIdBuffer
  3
AutoCAD 2000
 90
        0
280
               0
281
               0
  0
CLASS
  1
SPATIAL_FILTER
  2
AcDbSpatialFilter
  3
AutoCAD 2000
 90
        0
280
               0
281
               0
  0
CLASS
  1
XRECORD
  2
AcDbXrecord
  3
AutoCAD 2000
 90
        0
280
               0
281
               0
  0
CLASS
  1
SORTENTSTABLE
  2
AcDbSortentsTable
  3
AutoCAD 2000
 90
        0
280
               0
281
               0
  0
CLASS
  1
LAYER_INDEX
  2
AcDbLayerIndex
  3
AutoCAD 2000
 90
        0
280
               0
281
               0
  0
CLASS
  1
SPATIAL_INDEX
  2
AcDbSpatialIndex
  3
AutoCAD 2000
 90
        0
280
               0
281
               0
  0
CLASS
  1
OBJECT_PTR
  2
CAseDLPNTableRecord
  3
"ASE-LPNTableRecord"
 90
        1
280
               0
281
               0
  0
CLASS
  1
LAYOUT
  2
AcDbLayout
  3
AutoCAD 2000
 90
        0
280
               0
281
               0
  0
CLASS
  1
PLOTSETTINGS
  2
AcDbPlotSettings
  3
AutoCAD 2000
 90
        0
280
               0
281
               0
  0
CLASS
  1
ACDBDICTIONARYWDFLT
  2
AcDbDictionaryWithDefault
  3
AutoCAD 2000
 90
        0
280
               0
281
               0
  0
CLASS
  1
ACDBPLACEHOLDER
  2
AcDbPlaceHolder
  3
AutoCAD 2000
 90
        0
280
               0
281
               0
  0
ENDSEC
  0
SECTION
  2
TABLES
  0
TABLE
  2
VPORT
  5
7
100
AcDbSymbolTable
 70
               1
  0
VPORT
  5
15
100
AcDbSymbolTableRecord
100
AcDbViewportTableRecord
  2
*ACTIVE
 70
               0
 10
0.0
 20
0.0
 11
1.0
 21
1.0
 12
0.0
 22
-12.764114914906713
 13
0.0
 23
0.0
 14
1.0
 24
1.0
 15
0.0
 25
0.0
 16
0.0
 26
0.0
 36
1.0
 17
0.0
 27
0.0
 37
0.0
 40
2837.5228151124124
 41
0.688564
 42
50.0
 43
0.0
 44
0.0
 50
0.0
 51
0.0
 71
               0
 72
            2000
 73
               1
 74
               1
 75
               0
 76
               0
 77
               0
 78
               0
281
               0
 65
               0
110
0.0
120
0.0
130
0.0
111
1.0
121
0.0
131
0.0
112
0.0
122
1.0
132
0.0
345
0
346
0
 79
               0
146
0.0
  0
ENDTAB
  0
TABLE
  2
LTYPE
  5
4
100
AcDbSymbolTable
 70
              17
  0
LTYPE
  5
11
100
AcDbSymbolTableRecord
100
AcDbLinetypeTableRecord
  2
ByBlock
 70
              64
  3

 72
              65
 73
               0
 40
0.0
  0
LTYPE
  5
12
100
AcDbSymbolTableRecord
100
AcDbLinetypeTableRecord
  2
ByLayer
 70
              64
  3

 72
              65
 73
               0
 40
0.0
  0
LTYPE
  5
13
100
AcDbSymbolTableRecord
100
AcDbLinetypeTableRecord
  2
Continuous
 70
              64
  3
Solid line
 72
              65
 73
               0
 40
0.0
  0
LTYPE
  5
2D
100
AcDbSymbolTableRecord
100
AcDbLinetypeTableRecord
  2
STYLE_01
 70
               0
  3

 72
              65
 73
               4
 40
0.3999999999999999
 49
0.25
 74
               0
 49
-0.05
 74
               0
 49
0.05
 74
               0
 49
-0.05
 74
               0
  0
LTYPE
  5
2E
100
AcDbSymbolTableRecord
100
AcDbLinetypeTableRecord
  2
STYLE_02
 70
               0
  3

 72
              65
 73
               2
 40
0.6944250000000001
 49
0.48607
 74
               0
 49
-0.2083550000000001
 74
               0
  0
LTYPE
  5
2F
100
AcDbSymbolTableRecord
100
AcDbLinetypeTableRecord
  2
STYLE_03
 70
               0
  3

 72
              65
 73
               2
 40
1.25
 49
1.0416400000000001
 74
               0
 49
-0.2083599999999999
 74
               0
  0
LTYPE
  5
30
100
AcDbSymbolTableRecord
100
AcDbLinetypeTableRecord
  2
STYLE_04
 70
               0
  3

 72
              65
 73
               2
 40
1.5277099999999999
 49
1.3194249999999998
 74
               0
 49
-0.208285
 74
               0
  0
LTYPE
  5
31
100
AcDbSymbolTableRecord
100
AcDbLinetypeTableRecord
  2
STYLE_05
 70
               0
  3

 72
              65
 73
               2
 40
0.20828
 49
0.069425
 74
               0
 49
-0.138855
 74
               0
  0
LTYPE
  5
32
100
AcDbSymbolTableRecord
100
AcDbLinetypeTableRecord
  2
STYLE_06
 70
               0
  3

 72
              65
 73
               4
 40
1.0416400000000001
 49
0.625
 74
               0
 49
-0.20828
 74
               0
 49
0.06943
 74
               0
 49
-0.13893
 74
               0
  0
LTYPE
  5
33
100
AcDbSymbolTableRecord
100
AcDbLinetypeTableRecord
  2
STYLE_07
 70
               0
  3

 72
              65
 73
               6
 40
1.875
 49
0.625
 74
               0
 49
-0.20828
 74
               0
 49
0.6250000000000001
 74
               0
 49
-0.2083599999999999
 74
               0
 49
0.06943
 74
               0
 49
-0.1389299999999999
 74
               0
  0
LTYPE
  5
34
100
AcDbSymbolTableRecord
100
AcDbLinetypeTableRecord
  2
STYLE_08
 70
               0
  3

 72
              65
 73
               6
 40
1.25
 49
0.625
 74
               0
 49
-0.20828
 74
               0
 49
0.06943
 74
               0
 49
-0.13893
 74
               0
 49
0.0694299999999999
 74
               0
 49
-0.13893
 74
               0
  0
LTYPE
  5
35
100
AcDbSymbolTableRecord
100
AcDbLinetypeTableRecord
  2
STYLE_09
 70
               0
  3

 72
              65
 73
               4
 40
5.0
 49
3.75
 74
               0
 49
-0.2777849999999998
 74
               0
 49
0.6944300000000003
 74
               0
 49
-0.2777849999999998
 74
               0
  0
LTYPE
  5
36
100
AcDbSymbolTableRecord
100
AcDbLinetypeTableRecord
  2
STYLE_10
 70
               0
  3

 72
              65
 73
               6
 40
5.9375
 49
3.75
 74
               0
 49
-0.2777849999999998
 74
               0
 49
0.6944300000000003
 74
               0
 49
-0.2777849999999998
 74
               0
 49
0.625
 74
               0
 49
-0.3125
 74
               0
  0
LTYPE
  5
37
100
AcDbSymbolTableRecord
100
AcDbLinetypeTableRecord
  2
STYLE_11
 70
               0
  3

 72
              65
 73
               2
 40
0.0694444881889764
 49
0.0347222440944882
 74
               0
 49
-0.0347222440944882
 74
               0
  0
LTYPE
  5
38
100
AcDbSymbolTableRecord
100
AcDbLinetypeTableRecord
  2
STYLE_12
 70
               0
  3

 72
              65
 73
               2
 40
0.3937007874015748
 49
0.1968503937007874
 74
               0
 49
-0.1968503937007874
 74
               0
  0
LTYPE
  5
39
100
AcDbSymbolTableRecord
100
AcDbLinetypeTableRecord
  2
STYLE_13
 70
               0
  3

 72
              65
 73
               2
 40
0.5905511811023622
 49
0.2952755905511811
 74
               0
 49
-0.2952755905511811
 74
               0
  0
LTYPE
  5
3A
100
AcDbSymbolTableRecord
100
AcDbLinetypeTableRecord
  2
STYLE_14
 70
               0
  3

 72
              65
 73
               2
 40
1.9685039370078738
 49
0.9842519685039369
 74
               0
 49
-0.9842519685039369
 74
               0
  0
ENDTAB
  0
TABLE
  2
LAYER
  5
2
100
AcDbSymbolTable
 70
               5
  0
LAYER
  5
14
100
AcDbSymbolTableRecord
100
AcDbLayerTableRecord
  2
0
 70
               0
 62
               7
  6
Continuous
290
               1
370
              -3
390
1D
  0
LAYER
  5
3B
100
AcDbSymbolTableRecord
100
AcDbLayerTableRecord
  2
Defpoints
 70
               0
 62
               7
  6
Continuous
290
               0
370
              -3
390
1D
  0
LAYER
  5
3C
100
AcDbSymbolTableRecord
100
AcDbLayerTableRecord
  2
template
 70
               0
 62
               7
  6
Continuous
290
               1
370
              -3
390
1D
  0
LAYER
  5
3D
100
AcDbSymbolTableRecord
100
AcDbLayerTableRecord
  2
notes
 70
               0
 62
               7
  6
Continuous
290
               1
370
              -3
390
1D
  0
LAYER
  5
3E
100
AcDbSymbolTableRecord
100
AcDbLayerTableRecord
  2
FAN70-0304
 70
               0
 62
               7
  6
Continuous
290
               1
370
              -3
390
1D
  0
ENDTAB
  0
TABLE
  2
STYLE
  5
3
100
AcDbSymbolTable
 70
               2
  0
STYLE
  5
17
100
AcDbSymbolTableRecord
100
AcDbTextStyleTableRecord
  2
Standard
 70
               0
 40
0.0
 41
1.0
 50
0.0
 71
               0
 42
0.0
  3
txt
  4
BIGFONT.SHX
  0
STYLE
  5
2C
100
AcDbSymbolTableRecord
100
AcDbTextStyleTableRecord
  2
ＭＳ ゴシック
 70
               0
 40
0.0
 41
1.0
 50
0.0
 71
               0
 42
0.0
  3

  4
ＭＳ ゴシック
1001
ACAD
1000
ＭＳ ゴシック
1071
        0
  0
ENDTAB
  0
TABLE
  2
VIEW
  5
5
100
AcDbSymbolTable
 70
               0
  0
ENDTAB
  0
TABLE
  2
UCS
  5
6
100
AcDbSymbolTable
 70
               0
  0
ENDTAB
  0
TABLE
  2
APPID
  5
8
100
AcDbSymbolTable
 70
               1
  0
APPID
  5
16
100
AcDbSymbolTableRecord
100
AcDbRegAppTableRecord
  2
ACAD
 70
               0
  0
ENDTAB
  0
TABLE
  2
DIMSTYLE
  5
9
100
AcDbSymbolTable
 70
               2
100
AcDbDimStyleTable
 71
               0
  0
DIMSTYLE
105
18
100
AcDbSymbolTableRecord
100
AcDbDimStyleTableRecord
  2
Standard
 70
               0
  3

  4

 40
1.0
 41
0.18
 42
0.0625
 43
0.38
 44
0.18
 45
0.0
 46
0.0
 47
0.0
 48
0.0
 71
               0
 72
               0
 73
               1
 74
               1
 75
               0
 76
               0
 77
               0
 78
               0
 79
               0
140
0.18
141
0.09
142
0.0
143
25.399999999999999
144
1.0
145
0.0
146
1.0
147
0.09
148
0.0
170
               0
171
               2
172
               0
173
               0
174
               0
175
               0
176
               0
177
               0
178
               0
179
               0
271
               4
272
               4
273
               2
274
               2
275
               0
276
               0
277
               2
278
              46
279
               0
280
               0
281
               0
282
               0
283
               1
284
               0
285
               0
286
               0
288
               0
289
               3
340
17
341
0
342
0
343
0
344
0
371
              -2
372
              -2
  0
DIMSTYLE
105
47
100
AcDbSymbolTableRecord
100
AcDbDimStyleTableRecord
  2
tfrom線あり
 70
               0
  3
<>
  4
[]
 40
1.0
 41
9.9993896484374982
 42
24.999999999999996
 43
0.9999999999999999
 44
0.0
 45
0.0
 46
0.0
 47
0.0
 48
0.0
 71
               0
 72
               0
 73
               0
 74
               0
 75
               0
 76
               0
 77
               1
 78
              11
 79
               0
140
24.432617187500004
141
0.0
142
0.0
143
1.0
144
1.0
145
0.0
146
1.0
147
0.4999999999999999
148
0.0
170
               0
171
               1
172
               0
173
               0
174
               1
175
               0
176
               0
177
               0
178
               0
179
               2
271
               1
272
               1
273
               2
274
               2
275
               0
276
               2
277
               2
278
              46
279
               0
280
               0
281
               0
282
               0
283
               1
284
              11
285
              11
286
              11
288
               0
289
               0
340
2C
341
3F
342
3F
343
0
344
0
371
              -2
372
              -2
  0
ENDTAB
  0
TABLE
  2
BLOCK_RECORD
  5
1
100
AcDbSymbolTable
 70
              10
  0
BLOCK_RECORD
  5
A
100
AcDbSymbolTableRecord
100
AcDbBlockTableRecord
  2
*MODEL_SPACE
340
20
  0
BLOCK_RECORD
  5
B
100
AcDbSymbolTableRecord
100
AcDbBlockTableRecord
  2
*PAPER_SPACE
340
21
  0
BLOCK_RECORD
  5
3F
100
AcDbSymbolTableRecord
100
AcDbBlockTableRecord
  2
_DOT
340
0
  0
BLOCK_RECORD
  5
23
100
AcDbSymbolTableRecord
100
AcDbBlockTableRecord
  2
グループ
340
0
102
{BLKREFS
331
BE
102
}
  0
BLOCK_RECORD
  5
24
100
AcDbSymbolTableRecord
100
AcDbBlockTableRecord
  2
*D2
340
0
  0
BLOCK_RECORD
  5
25
100
AcDbSymbolTableRecord
100
AcDbBlockTableRecord
  2
*D3
340
0
  0
BLOCK_RECORD
  5
26
100
AcDbSymbolTableRecord
100
AcDbBlockTableRecord
  2
*D4
340
0
  0
BLOCK_RECORD
  5
27
100
AcDbSymbolTableRecord
100
AcDbBlockTableRecord
  2
*D5
340
0
  0
BLOCK_RECORD
  5
28
100
AcDbSymbolTableRecord
100
AcDbBlockTableRecord
  2
*D6
340
0
  0
BLOCK_RECORD
  5
29
100
AcDbSymbolTableRecord
100
AcDbBlockTableRecord
  2
*D7
340
0
  0
BLOCK_RECORD
  5
2A
100
AcDbSymbolTableRecord
100
AcDbBlockTableRecord
  2
*D8
340
0
  0
BLOCK_RECORD
  5
2B
100
AcDbSymbolTableRecord
100
AcDbBlockTableRecord
  2
*D9
340
0
  0
ENDTAB
  0
ENDSEC
  0
SECTION
  2
BLOCKS
  0
BLOCK
  5
D
100
AcDbEntity
  8
0
390
0
100
AcDbBlockBegin
  2
*MODEL_SPACE
 70
               0
 10
0.0
 20
0.0
 30
0.0
  3
*MODEL_SPACE
  1

  0
ENDBLK
  5
E
100
AcDbEntity
  8
0
390
0
100
AcDbBlockEnd
  0
BLOCK
  5
F
100
AcDbEntity
 67
               1
  8
0
390
0
100
AcDbBlockBegin
  2
*PAPER_SPACE
 70
               0
 10
0.0
 20
0.0
 30
0.0
  3
*PAPER_SPACE
  1

  0
ENDBLK
  5
10
100
AcDbEntity
 67
               1
  8
0
390
0
100
AcDbBlockEnd
  0
BLOCK
  5
40
100
AcDbEntity
  8
0
390
0
100
AcDbBlockBegin
  2
_DOT
 70
               0
 10
0.0
 20
0.0
 30
0.0
  3
_DOT
  1

  0
POLYLINE
  5
41
100
AcDbEntity
  8
0
370
              -2
390
0
  6
ByBlock
 62
               0
100
AcDb2dPolyline
 66
               1
 10
0.0
 20
0.0
 30
0.0
 70
               1
 40
0.5
 41
0.5
  0
VERTEX
  5
42
100
AcDbEntity
  8
0
370
              -2
390
0
  6
ByBlock
 62
               0
100
AcDbVertex
100
AcDb2dVertex
 10
-0.25
 20
0.0
 30
0.0
 42
1.0
  0
VERTEX
  5
43
100
AcDbEntity
  8
0
370
              -2
390
0
  6
ByBlock
 62
               0
100
AcDbVertex
100
AcDb2dVertex
 10
0.25
 20
0.0
 30
0.0
 42
1.0
  0
SEQEND
  5
44
100
AcDbEntity
  8
0
390
0
  0
LINE
  5
45
100
AcDbEntity
  8
0
370
              -2
390
0
  6
ByBlock
 62
               0
100
AcDbLine
 10
-0.5
 20
0.0
 30
0.0
 11
-1.0
 21
0.0
 31
0.0
  0
ENDBLK
  5
46
100
AcDbEntity
  8
0
390
0
100
AcDbBlockEnd
  0
BLOCK
  5
48
100
AcDbEntity
  8
template
390
0
100
AcDbBlockBegin
  2
グループ
 70
               0
 10
0.0
 20
0.0
 30
0.0
  3
グループ
  1

  0
LWPOLYLINE
  5
49
100
AcDbEntity
  8
0
370
              15
390
0
  6
Continuous
 62
               7
100
AcDbPolyline
 90
        8
 70
             129
 10
887.42850780307481
 20
-1208.9597210236859
 10
887.42850780307481
 20
-1214.9571097172618
 10
877.92731088507151
 20
-1214.9571097172618
 10
877.92731088507151
 20
-1239.4080729807706
 10
869.57193362328871
 20
-1239.4080729807706
 10
869.57193362328871
 20
-1214.9571097172618
 10
860.23897667697929
 20
-1214.9571097172618
 10
860.23897667697929
 20
-1208.9597210236859
  0
LWPOLYLINE
  5
4A
100
AcDbEntity
  8
0
370
              15
390
0
  6
Continuous
 62
               7
100
AcDbPolyline
 90
      101
 70
             128
 10
900.15679963363175
 20
-1209.6879695166224
 10
900.17214966241681
 20
-1209.6836087599372
 42
-0.0222221607812283
 10
900.46215423908779
 20
-1209.6149842946927
 10
900.47794800308122
 20
-1209.6119808715957
 42
-0.0146883565586854
 10
900.74065070830557
 20
-1209.5699776846463
 42
-0.0127458844187406
 10
901.00528967545358
 20
-1209.5424407165742
 10
901.06774475377142
 20
-1209.5375472939857
 42
-0.0198099018566901
 10
901.45859386324832
 20
-1209.5224621365892
 10
901.51040533269202
 20
-1209.5225159122542
 42
-0.0147617382765114
 10
902.00502879366343
 20
-1209.5376359374989
 10
902.07772024853898
 20
-1209.5420085443866
 42
-0.0162624549004703
 10
902.46787387800578
 20
-1209.578241419659
 10
902.58940626927017
 20
-1209.5935279786561
 42
-0.0080020874660664
 10
902.73498530035658
 20
-1209.6142108259239
 10
902.77330477094858
 20
-1209.6202821037346
 42
-0.005382192967833
 10
902.84178887626638
 20
-1209.6318896275566
 10
902.11538317706777
 20
-1211.8128180832705
 42
0.0108667757394062
 10
902.04806610693299
 20
-1211.7996309680498
 10
902.01059808374748
 20
-1211.7931332254561
 42
0.017066320330763
 10
901.8673812968334
 20
-1211.7733036281645
 10
901.79950596414892
 20
-1211.7662564575769
 42
0.0220162375276641
 10
901.51912655629246
 20
-1211.7495740968068
 10
901.44127098924173
 20
-1211.7483747295403
 42
0.0282606915783738
 10
901.10563466566362
 20
-1211.7621780065092
 10
901.06172139189118
 20
-1211.766477996513
 42
0.0169677213690595
 10
900.8157968969324
 20
-1211.7990150460651
 42
0.0190576269865484
 10
900.57288893435555
 20
-1211.8491619181705
 10
900.56662974624146
 20
-1211.8507048922806
 42
0.0213685642844021
 10
900.3162452617612
 20
-1211.9239051773861
 10
900.3107553668475
 20
-1211.9257681734443
 42
0.0237595297591213
 10
900.05726048194606
 20
-1212.0254526953411
 10
900.05215840791914
 20
-1212.0277444708181
 42
0.0261857468810989
 10
899.79998763168908
 20
-1212.1572808081926
 10
899.78956144260292
 20
-1212.1633462826605
 42
0.0272553062019101
 10
899.55313166736369
 20
-1212.3187184886056
 10
899.51836865385121
 20
-1212.3443796367001
 42
0.0325996893180971
 10
899.36821331020269
 20
-1212.471127509669
 10
899.34450388107427
 20
-1212.4939455381871
 42
0.0138050960639914
 10
899.25262072486953
 20
-1212.5873951997337
 42
0.0125280103805281
 10
899.16577819203565
 20
-1212.685558526334
 10
899.14209774712765
 20
-1212.713717024521
 42
0.0205218024729119
 10
899.01699767161574
 20
-1212.8755103387475
 10
898.99453133112684
 20
-1212.907170068577
 42
0.0163110129581913
 10
898.83882095187528
 20
-1213.1425005036472
 10
898.83609705582455
 20
-1213.1469242656324
 42
0.0131897341896935
 10
898.68929653491978
 20
-1213.4000563579946
 10
898.68759643955218
 20
-1213.4031745971324
 42
0.0107895576059858
 10
898.54981973734516
 20
-1213.6693898067601
 10
898.5490868478164
 20
-1213.6708840394142
 42
0.0091371507219095
 10
898.42060689916514
 20
-1213.9454092371777
 10
898.3908612677576
 20
-1214.0121157443327
 42
0.0135418326351206
 10
898.21914732868856
 20
-1214.4270535295948
 10
898.1855425202524
 20
-1214.514919671881
 42
0.0092834542409608
 10
898.01431346033087
 20
-1214.9888181701881
 10
897.98869633261734
 20
-1215.0640592399693
 42
0.0054261043577207
 10
897.88105818432018
 20
-1215.3918232130463
 10
897.86353219811349
 20
-1215.4472113753691
 42
0.0008225090822076
 10
897.79486214631277
 20
-1215.6654801334257
 10
896.8101730143793
 20
-1218.6903714266823
 10
900.04279685445317
 20
-1218.6903714266823
 10
899.53860442459973
 20
-1220.5948497250347
 10
896.28254814261641
 20
-1220.5948497250347
 10
890.45339911026258
 20
-1239.4080727910396
 10
888.62830149995227
 20
-1239.4080727910396
 10
894.4629795354532
 20
-1220.5948497250347
 10
892.05786316641286
 20
-1220.5948497250347
 10
892.5620555962663
 20
-1218.6903714266823
 10
894.99060440721632
 20
-1218.6903714266823
 10
895.85075932540497
 20
-1216.0539584259834
 42
-0.0005863560650262
 10
895.88749400353095
 20
-1215.9371320059374
 10
895.96358183726886
 20
-1215.6961397063062
 42
-0.0087522378925693
 10
896.16304998072576
 20
-1215.1008636191596
 10
896.25531425613713
 20
-1214.8407234506524
 42
-0.0077400953830536
 10
896.51324791527031
 20
-1214.1477187730984
 10
896.52901288684689
 20
-1214.1072878897182
 42
-0.0082369946330518
 10
896.77609735746114
 20
-1213.5032088235166
 42
-0.0085725238363833
 10
897.0433434534657
 20
-1212.9077827842261
 10
897.14497305447333
 20
-1212.6913616822405
 42
-0.0168109410595879
 10
897.43191748320146
 20
-1212.1301541561402
 10
897.55776087367406
 20
-1211.9031901231181
 42
-0.0007817726859269
 10
897.61204522371713
 20
-1211.8056458781116
 10
897.61217352973449
 20
-1211.8054161693751
 42
-0.0036626142157143
 10
897.6670613937556
 20
-1211.7088182894067
 42
-0.0080221150679748
 10
897.72418564916165
 20
-1211.6135390546551
 10
897.75488560052349
 20
-1211.5641481055318
 42
-0.020213932556849
 10
897.88254134033025
 20
-1211.3761665048503
 10
897.93660880551784
 20
-1211.3030876406094
 42
-0.0249323791798447
 10
898.1957715992371
 20
-1210.9870423984548
 10
898.219911413364
 20
-1210.9604281255424
 42
-0.0242132121533685
 10
898.55959215490736
 20
-1210.6205446393371
 10
898.60750372765756
 20
-1210.5770355031516
 42
-0.025101752785879
 10
898.8914854282973
 20
-1210.3440427573878
 10
898.8929309051116
 20
-1210.3429734998085
 42
-0.0130868069040762
 10
899.19119155506837
 20
-1210.1341930312662
 10
899.19275337420993
 20
-1210.1331595909919
 42
-0.0290329526391372
 10
899.50386451560439
 20
-1209.952334089362
 10
899.53371007759586
 20
-1209.9372317065197
 42
-0.0160250190043653
 10
899.79961449135521
 20
-1209.813215596309
 42
-0.0267600374781006
 10
900.07489056882639
 20
-1209.7124672757598
 10
900.10162648834478
 20
-1209.7042747169348
 42
-0.0049981587670053
 10
900.15679963363175
 20
-1209.6879695166224
 42
-0.0049981587670053
  0
LWPOLYLINE
  5
4B
100
AcDbEntity
  8
0
370
              15
390
0
  6
Continuous
 62
               7
100
AcDbPolyline
 90
      118
 70
             128
 10
919.97116719807866
 20
-1218.7643547545097
 10
921.84628912257813
 20
-1218.7643547545097
 10
921.00825021697824
 20
-1221.4459212809097
 42
-0.0010587229211422
 10
921.03970603257619
 20
-1221.4090167475238
 10
921.09790012318217
 20
-1221.3410344913787
 42
-0.0071874740407281
 10
921.24827534128485
 20
-1221.1703937993445
 10
921.38999811454244
 20
-1221.0141576580363
 42
-0.0148118053512363
 10
921.84012740725746
 20
-1220.5465438120211
 10
921.92734974215796
 20
-1220.4611464911688
 42
-0.0086273358692412
 10
922.26289854316542
 20
-1220.1437708571534
 10
922.30673225939188
 20
-1220.1037212128199
 42
-0.0103138323110657
 10
922.56475596162477
 20
-1219.8775580754821
 10
922.61053036794067
 20
-1219.8390760282311
 42
-0.0060206748566775
 10
922.78337843206407
 20
-1219.6972813774673
 10
922.78540956294921
 20
-1219.6956556718367
 42
-0.0067069027288388
 10
922.95770237761258
 20
-1219.5615050380411
 10
922.96025114353938
 20
-1219.5595748681651
 42
-0.0076184352042701
 10
923.13115640940987
 20
-1219.434199992922
 42
-0.0089652861674684
 10
923.30611737214042
 20
-1219.3145667325923
 10
923.34246909229182
 20
-1219.290655519105
 42
-0.0156916245935726
 10
923.5384285894495
 20
-1219.1703930326321
 42
-0.002329901106332
 10
923.7386906333893
 20
-1219.0572150931137
 10
923.75407476580915
 20
-1219.0486150980266
 42
-0.0107669341484053
 10
923.98831159090878
 20
-1218.924214964678
 10
924.0105763919853
 20
-1218.9129982147272
 42
-0.0078058045895926
 10
924.29416650993699
 20
-1218.7756367590891
 10
924.30407359764718
 20
-1218.7710276312202
 42
-0.0181829330473932
 10
924.61438300225871
 20
-1218.6401638901261
 10
924.66843844483174
 20
-1218.6196487701802
 42
-0.0208411536025736
 10
925.01752341227984
 20
-1218.5035583076879
 10
925.03187951240682
 20
-1218.4994398627346
 42
-0.0222799817135775
 10
925.3605993063245
 20
-1218.4207982965941
 10
925.36948826956063
 20
-1218.4190862860091
 42
-0.0215509523883926
 10
925.68595923784142
 20
-1218.3721705974749
 10
925.72844119889146
 20
-1218.3677330706839
 42
-0.018254592487324
 10
925.96254997819551
 20
-1218.351889245293
 10
926.00195099454572
 20
-1218.3506647002137
 42
-0.0072962856529092
 10
926.15787387423256
 20
-1218.3480953716917
 10
926.18697354479764
 20
-1218.348040536288
 42
-0.0059227516312699
 10
926.2847230439495
 20
-1218.3490142480782
 10
926.31396526140736
 20
-1218.3496520146812
 42
-0.0011833111893351
 10
926.35321654515383
 20
-1218.3506010189917
 10
925.55782994954666
 20
-1220.8893349640907
 42
0.0143932051524636
 10
925.53142856719489
 20
-1220.8791359940449
 10
925.52415659477879
 20
-1220.8765647751879
 42
0.0234388603494022
 10
925.48232572884672
 20
-1220.8639455394728
 10
925.47364406593397
 20
-1220.8617645774677
 42
0.0199162742988474
 10
925.41335523185239
 20
-1220.8491478421324
 10
925.39254129404776
 20
-1220.8456506427042
 42
0.0293643550669223
 10
925.28946643528752
 20
-1220.8345005970509
 10
925.26478125456833
 20
-1220.8332889800324
 42
0.0214606686870228
 10
925.11164033861701
 20
-1220.8323504196151
 10
925.10226842779787
 20
-1220.8326953311594
 42
0.0167564054187993
 10
924.93074823669042
 20
-1220.8447723735273
 10
924.92228844393048
 20
-1220.8456537139546
 42
0.0137677553246399
 10
924.73493513066614
 20
-1220.8704030224978
 10
924.72758339115785
 20
-1220.8715809424659
 42
0.0118497261481205
 10
924.52708562705527
 20
-1220.9085982926551
 10
924.52093561980928
 20
-1220.9098851553752
 42
0.0106421143891936
 10
924.31005473252526
 20
-1220.9587175309498
 10
924.30514592413522
 20
-1220.959964873635
 42
0.0099746379706426
 10
924.08668745497073
 20
-1221.0201394019505
 10
924.02513941480242
 20
-1221.0384212805805
 42
0.0191613675860962
 10
923.68915495228782
 20
-1221.1523986608672
 10
923.60109517953936
 20
-1221.1860855711925
 42
0.0205274080147135
 10
923.21578840764073
 20
-1221.351913979018
 10
923.15813912565523
 20
-1221.379581943592
 42
0.0181256912193595
 10
922.89986218499178
 20
-1221.5152657625681
 10
922.84690680167512
 20
-1221.5455833757844
 42
0.0140709242412418
 10
922.7019518670495
 20
-1221.6340780492174
 10
922.6757029984326
 20
-1221.6511348679319
 42
0.0086667884399223
 10
922.58677683688848
 20
-1221.7111375358156
 42
0.003640819201488
 10
922.4993435988797
 20
-1221.7733183935902
 10
922.46411672438649
 20
-1221.7987593395208
 42
0.0052260781283436
 10
922.30788802698567
 20
-1221.9140917261623
 10
922.29168117073573
 20
-1221.926319836773
 42
0.0050024435892504
 10
922.1056778276743
 20
-1222.0696024050374
 10
922.09035967116176
 20
-1222.081648427481
 42
0.0136138710277092
 10
921.87991840283541
 20
-1222.2566149323955
 10
921.84625052704291
 20
-1222.2861939051086
 42
0.0172815186909998
 10
921.58184698538162
 20
-1222.5351905777306
 10
921.57928463953772
 20
-1222.5377763948791
 42
0.0189403857991616
 10
921.32870284095702
 20
-1222.8105816596853
 10
921.29607134742253
 20
-1222.8489255911809
 42
0.0185044199506342
 10
921.10411490844263
 20
-1223.0921741723037
 42
0.0088565243901835
 10
920.92565480181418
 20
-1223.3456905924536
 10
920.91647682216569
 20
-1223.3592319722136
 42
0.0157195347233255
 10
920.73325621582558
 20
-1223.6487541815395
 10
920.68717327389959
 20
-1223.726906378552
 42
0.009545187978228
 10
920.52208772376309
 20
-1224.0195010209068
 10
920.51093980483051
 20
-1224.0401716930442
 42
0.0100351706259463
 10
920.3788960556742
 20
-1224.2972272535294
 42
0.0086935915427105
 10
920.25656490388042
 20
-1224.5590603989333
 10
920.25324416246565
 20
-1224.5665027219056
 42
0.0072580174868562
 10
920.13289771051973
 20
-1224.8470947134911
 10
920.1296360772144
 20
-1224.8550147395067
 42
0.0060005122612748
 10
920.01043540887395
 20
-1225.1546244101057
 10
920.00722443053007
 20
-1225.1629859380164
 42
0.0049017786976095
 10
919.88832427167415
 20
-1225.4819149186167
 10
919.88515846528219
 20
-1225.4906678558514
 42
0.0039415167601332
 10
919.76572218722583
 20
-1225.8292099182636
 10
919.76259108457339
 20
-1225.8383131191406
 42
0.003103583876369
 10
919.64178629887749
 20
-1226.1967529809224
 10
919.63867625434989
 20
-1226.2061736022888
 42
0.0025070747152459
 10
919.51577490304032
 20
-1226.5848208192149
 10
919.47848100660917
 20
-1226.7017124844858
 42
0.0029081910285026
 10
919.28646270879403
 20
-1227.3158761427912
 10
919.24565954028128
 20
-1227.4490993850534
 42
0.000926645373586
 10
918.97724216595384
 20
-1228.3313238450189
 10
918.95635469337412
 20
-1228.4004357240533
 42
-0.0005809993666905
 10
918.67901801273479
 20
-1229.3142438308519
 10
918.61273621446674
 20
-1229.5317287629953
 42
-0.001201870816555
 10
918.46575190503268
 20
-1230.0098914275322
 10
918.41343205330679
 20
-1230.1786505689142
 42
-0.0002691059611808
 10
918.36986257229853
 20
-1230.3189181887399
 10
915.53690667400929
 20
-1239.4080727910396
 10
913.71891778203076
 20
-1239.4080727910396
 10
919.97116719807866
 20
-1218.7643547545097
  0
SPLINE
  5
4C
100
AcDbEntity
  8
0
370
              15
390
0
  6
Continuous
 62
               7
100
AcDbSpline
210
0.0
220
0.0
230
1.0
 70
              13
 71
               2
 72
             782
 73
             779
 74
               0
 42
0.000001
 43
0.000001
 40
0.0
 40
0.0
 40
0.0
 40
1.0
 40
1.0
 40
2.0
 40
2.0
 40
3.0
 40
3.0
 40
4.0
 40
4.0
 40
5.0
 40
5.0
 40
6.0
 40
6.0
 40
7.0
 40
7.0
 40
8.0
 40
8.0
 40
9.0
 40
9.0
 40
10.0
 40
10.0
 40
11.0
 40
11.0
 40
12.0
 40
12.0
 40
13.0
 40
13.0
 40
14.0
 40
14.0
 40
15.0
 40
15.0
 40
16.0
 40
16.0
 40
17.0
 40
17.0
 40
18.0
 40
18.0
 40
19.0
 40
19.0
 40
20.0
 40
20.0
 40
21.0
 40
21.0
 40
22.0
 40
22.0
 40
23.0
 40
23.0
 40
24.0
 40
24.0
 40
25.0
 40
25.0
 40
26.0
 40
26.0
 40
27.0
 40
27.0
 40
28.0
 40
28.0
 40
29.0
 40
29.0
 40
30.0
 40
30.0
 40
31.0
 40
31.0
 40
32.0
 40
32.0
 40
33.0
 40
33.0
 40
34.0
 40
34.0
 40
35.0
 40
35.0
 40
36.0
 40
36.0
 40
37.0
 40
37.0
 40
38.0
 40
38.0
 40
39.0
 40
39.0
 40
40.0
 40
40.0
 40
41.0
 40
41.0
 40
42.0
 40
42.0
 40
43.0
 40
43.0
 40
44.0
 40
44.0
 40
45.0
 40
45.0
 40
46.0
 40
46.0
 40
47.0
 40
47.0
 40
48.0
 40
48.0
 40
49.0
 40
49.0
 40
50.0
 40
50.0
 40
51.0
 40
51.0
 40
52.0
 40
52.0
 40
53.0
 40
53.0
 40
54.0
 40
54.0
 40
55.0
 40
55.0
 40
56.0
 40
56.0
 40
57.0
 40
57.0
 40
58.0
 40
58.0
 40
59.0
 40
59.0
 40
60.0
 40
60.0
 40
61.0
 40
61.0
 40
62.0
 40
62.0
 40
63.0
 40
63.0
 40
64.0
 40
64.0
 40
65.0
 40
65.0
 40
66.0
 40
66.0
 40
67.0
 40
67.0
 40
68.0
 40
68.0
 40
69.0
 40
69.0
 40
70.0
 40
70.0
 40
71.0
 40
71.0
 40
72.0
 40
72.0
 40
73.0
 40
73.0
 40
74.0
 40
74.0
 40
75.0
 40
75.0
 40
76.0
 40
76.0
 40
77.0
 40
77.0
 40
78.0
 40
78.0
 40
79.0
 40
79.0
 40
80.0
 40
80.0
 40
81.0
 40
81.0
 40
82.0
 40
82.0
 40
83.0
 40
83.0
 40
84.0
 40
84.0
 40
85.0
 40
85.0
 40
86.0
 40
86.0
 40
87.0
 40
87.0
 40
88.0
 40
88.0
 40
89.0
 40
89.0
 40
90.0
 40
90.0
 40
91.0
 40
91.0
 40
92.0
 40
92.0
 40
93.0
 40
93.0
 40
94.0
 40
94.0
 40
95.0
 40
95.0
 40
96.0
 40
96.0
 40
97.0
 40
97.0
 40
98.0
 40
98.0
 40
99.0
 40
99.0
 40
100.0
 40
100.0
 40
101.0
 40
101.0
 40
102.0
 40
102.0
 40
103.0
 40
103.0
 40
104.0
 40
104.0
 40
105.0
 40
105.0
 40
106.0
 40
106.0
 40
107.0
 40
107.0
 40
108.0
 40
108.0
 40
109.0
 40
109.0
 40
110.0
 40
110.0
 40
111.0
 40
111.0
 40
112.0
 40
112.0
 40
113.0
 40
113.0
 40
114.0
 40
114.0
 40
115.0
 40
115.0
 40
116.0
 40
116.0
 40
117.0
 40
117.0
 40
118.0
 40
118.0
 40
119.0
 40
119.0
 40
120.0
 40
120.0
 40
121.0
 40
121.0
 40
122.0
 40
122.0
 40
123.0
 40
123.0
 40
124.0
 40
124.0
 40
125.0
 40
125.0
 40
126.0
 40
126.0
 40
127.0
 40
127.0
 40
128.0
 40
128.0
 40
129.0
 40
129.0
 40
130.0
 40
130.0
 40
131.0
 40
131.0
 40
132.0
 40
132.0
 40
133.0
 40
133.0
 40
134.0
 40
134.0
 40
135.0
 40
135.0
 40
136.0
 40
136.0
 40
137.0
 40
137.0
 40
138.0
 40
138.0
 40
139.0
 40
139.0
 40
140.0
 40
140.0
 40
141.0
 40
141.0
 40
142.0
 40
142.0
 40
143.0
 40
143.0
 40
144.0
 40
144.0
 40
145.0
 40
145.0
 40
146.0
 40
146.0
 40
147.0
 40
147.0
 40
148.0
 40
148.0
 40
149.0
 40
149.0
 40
150.0
 40
150.0
 40
151.0
 40
151.0
 40
152.0
 40
152.0
 40
153.0
 40
153.0
 40
154.0
 40
154.0
 40
155.0
 40
155.0
 40
156.0
 40
156.0
 40
157.0
 40
157.0
 40
158.0
 40
158.0
 40
159.0
 40
159.0
 40
160.0
 40
160.0
 40
161.0
 40
161.0
 40
162.0
 40
162.0
 40
163.0
 40
163.0
 40
164.0
 40
164.0
 40
165.0
 40
165.0
 40
166.0
 40
166.0
 40
167.0
 40
167.0
 40
168.0
 40
168.0
 40
169.0
 40
169.0
 40
170.0
 40
170.0
 40
171.0
 40
171.0
 40
172.0
 40
172.0
 40
173.0
 40
173.0
 40
174.0
 40
174.0
 40
175.0
 40
175.0
 40
176.0
 40
176.0
 40
177.0
 40
177.0
 40
178.0
 40
178.0
 40
179.0
 40
179.0
 40
180.0
 40
180.0
 40
181.0
 40
181.0
 40
182.0
 40
182.0
 40
183.0
 40
183.0
 40
184.0
 40
184.0
 40
185.0
 40
185.0
 40
186.0
 40
186.0
 40
187.0
 40
187.0
 40
188.0
 40
188.0
 40
189.0
 40
189.0
 40
190.0
 40
190.0
 40
191.0
 40
191.0
 40
192.0
 40
192.0
 40
193.0
 40
193.0
 40
194.0
 40
194.0
 40
195.0
 40
195.0
 40
196.0
 40
196.0
 40
197.0
 40
197.0
 40
198.0
 40
198.0
 40
199.0
 40
199.0
 40
200.0
 40
200.0
 40
201.0
 40
201.0
 40
202.0
 40
202.0
 40
203.0
 40
203.0
 40
204.0
 40
204.0
 40
205.0
 40
205.0
 40
206.0
 40
206.0
 40
207.0
 40
207.0
 40
208.0
 40
208.0
 40
209.0
 40
209.0
 40
210.0
 40
210.0
 40
211.0
 40
211.0
 40
212.0
 40
212.0
 40
213.0
 40
213.0
 40
214.0
 40
214.0
 40
215.0
 40
215.0
 40
216.0
 40
216.0
 40
217.0
 40
217.0
 40
218.0
 40
218.0
 40
219.0
 40
219.0
 40
220.0
 40
220.0
 40
221.0
 40
221.0
 40
222.0
 40
222.0
 40
223.0
 40
223.0
 40
224.0
 40
224.0
 40
225.0
 40
225.0
 40
226.0
 40
226.0
 40
227.0
 40
227.0
 40
228.0
 40
228.0
 40
229.0
 40
229.0
 40
230.0
 40
230.0
 40
231.0
 40
231.0
 40
232.0
 40
232.0
 40
233.0
 40
233.0
 40
234.0
 40
234.0
 40
235.0
 40
235.0
 40
236.0
 40
236.0
 40
237.0
 40
237.0
 40
238.0
 40
238.0
 40
239.0
 40
239.0
 40
240.0
 40
240.0
 40
241.0
 40
241.0
 40
242.0
 40
242.0
 40
243.0
 40
243.0
 40
244.0
 40
244.0
 40
245.0
 40
245.0
 40
246.0
 40
246.0
 40
247.0
 40
247.0
 40
248.0
 40
248.0
 40
249.0
 40
249.0
 40
250.0
 40
250.0
 40
251.0
 40
251.0
 40
252.0
 40
252.0
 40
253.0
 40
253.0
 40
254.0
 40
254.0
 40
255.0
 40
255.0
 40
256.0
 40
256.0
 40
257.0
 40
257.0
 40
258.0
 40
258.0
 40
259.0
 40
259.0
 40
260.0
 40
260.0
 40
261.0
 40
261.0
 40
262.0
 40
262.0
 40
263.0
 40
263.0
 40
264.0
 40
264.0
 40
265.0
 40
265.0
 40
266.0
 40
266.0
 40
267.0
 40
267.0
 40
268.0
 40
268.0
 40
269.0
 40
269.0
 40
270.0
 40
270.0
 40
271.0
 40
271.0
 40
272.0
 40
272.0
 40
273.0
 40
273.0
 40
274.0
 40
274.0
 40
275.0
 40
275.0
 40
276.0
 40
276.0
 40
277.0
 40
277.0
 40
278.0
 40
278.0
 40
279.0
 40
279.0
 40
280.0
 40
280.0
 40
281.0
 40
281.0
 40
282.0
 40
282.0
 40
283.0
 40
283.0
 40
284.0
 40
284.0
 40
285.0
 40
285.0
 40
286.0
 40
286.0
 40
287.0
 40
287.0
 40
288.0
 40
288.0
 40
289.0
 40
289.0
 40
290.0
 40
290.0
 40
291.0
 40
291.0
 40
292.0
 40
292.0
 40
293.0
 40
293.0
 40
294.0
 40
294.0
 40
295.0
 40
295.0
 40
296.0
 40
296.0
 40
297.0
 40
297.0
 40
298.0
 40
298.0
 40
299.0
 40
299.0
 40
300.0
 40
300.0
 40
301.0
 40
301.0
 40
302.0
 40
302.0
 40
303.0
 40
303.0
 40
304.0
 40
304.0
 40
305.0
 40
305.0
 40
306.0
 40
306.0
 40
307.0
 40
307.0
 40
308.0
 40
308.0
 40
309.0
 40
309.0
 40
310.0
 40
310.0
 40
311.0
 40
311.0
 40
312.0
 40
312.0
 40
313.0
 40
313.0
 40
314.0
 40
314.0
 40
315.0
 40
315.0
 40
316.0
 40
316.0
 40
317.0
 40
317.0
 40
318.0
 40
318.0
 40
319.0
 40
319.0
 40
320.0
 40
320.0
 40
321.0
 40
321.0
 40
322.0
 40
322.0
 40
323.0
 40
323.0
 40
324.0
 40
324.0
 40
325.0
 40
325.0
 40
326.0
 40
326.0
 40
327.0
 40
327.0
 40
328.0
 40
328.0
 40
329.0
 40
329.0
 40
330.0
 40
330.0
 40
331.0
 40
331.0
 40
332.0
 40
332.0
 40
333.0
 40
333.0
 40
334.0
 40
334.0
 40
335.0
 40
335.0
 40
336.0
 40
336.0
 40
337.0
 40
337.0
 40
338.0
 40
338.0
 40
339.0
 40
339.0
 40
340.0
 40
340.0
 40
341.0
 40
341.0
 40
342.0
 40
342.0
 40
343.0
 40
343.0
 40
344.0
 40
344.0
 40
345.0
 40
345.0
 40
346.0
 40
346.0
 40
347.0
 40
347.0
 40
348.0
 40
348.0
 40
349.0
 40
349.0
 40
350.0
 40
350.0
 40
351.0
 40
351.0
 40
352.0
 40
352.0
 40
353.0
 40
353.0
 40
354.0
 40
354.0
 40
355.0
 40
355.0
 40
356.0
 40
356.0
 40
357.0
 40
357.0
 40
358.0
 40
358.0
 40
359.0
 40
359.0
 40
360.0
 40
360.0
 40
361.0
 40
361.0
 40
362.0
 40
362.0
 40
363.0
 40
363.0
 40
364.0
 40
364.0
 40
365.0
 40
365.0
 40
366.0
 40
366.0
 40
367.0
 40
367.0
 40
368.0
 40
368.0
 40
369.0
 40
369.0
 40
370.0
 40
370.0
 40
371.0
 40
371.0
 40
372.0
 40
372.0
 40
373.0
 40
373.0
 40
374.0
 40
374.0
 40
375.0
 40
375.0
 40
376.0
 40
376.0
 40
377.0
 40
377.0
 40
378.0
 40
378.0
 40
379.0
 40
379.0
 40
380.0
 40
380.0
 40
381.0
 40
381.0
 40
382.0
 40
382.0
 40
383.0
 40
383.0
 40
384.0
 40
384.0
 40
385.0
 40
385.0
 40
386.0
 40
386.0
 40
387.0
 40
387.0
 40
388.0
 40
388.0
 40
389.0
 40
389.0
 40
389.0
 10
930.29987164881129
 20
-1218.7534283911473
 30
0.0
 41
1.0
 10
931.11829575753177
 20
-1218.7534283911473
 30
0.0
 41
1.0
 10
931.93671986625225
 20
-1218.7534283911473
 30
0.0
 41
1.0
 10
931.52296613073554
 20
-1220.096054655397
 30
0.0
 41
1.0
 10
931.10921239521872
 20
-1221.4386809196467
 30
0.0
 41
1.0
 10
931.12755189036329
 20
-1221.409980146771
 30
0.0
 41
0.9999957264449635
 10
931.14605888718995
 20
-1221.3813870966269
 30
0.0
 41
1.0
 10
931.17648821134094
 20
-1221.3343742182299
 30
0.0
 41
1.0
 10
931.20691753549204
 20
-1221.2873613398328
 30
0.0
 41
1.0
 10
931.2862831805985
 20
-1221.1647425329286
 30
0.0
 41
0.9995394069080581
 10
931.3729415721516
 20
-1221.0471644711856
 30
0.0
 41
1.0
 10
931.40869843440998
 20
-1220.998649578594
 30
0.0
 41
1.0
 10
931.44445529666837
 20
-1220.9501346860025
 30
0.0
 41
1.0
 10
931.57818196448693
 20
-1220.768694410875
 30
0.0
 41
0.9994460617143366
 10
931.72368244577569
 20
-1220.5965520132245
 30
0.0
 41
1.0
 10
931.72807062675201
 20
-1220.5913603328404
 30
0.0
 41
1.0
 10
931.73245880772845
 20
-1220.5861686524561
 30
0.0
 41
1.0
 10
931.86918292706423
 20
-1220.4244096155742
 30
0.0
 41
0.9994359394934378
 10
932.01645715741506
 20
-1220.2721934144101
 30
0.0
 41
1.0
 10
932.0188405113704
 20
-1220.269730084035
 30
0.0
 41
1.0
 10
932.02122386532574
 20
-1220.2672667536597
 30
0.0
 41
1.0
 10
932.16373138776817
 20
-1220.1199772132438
 30
0.0
 41
0.9995293688567949
 10
932.31500306874864
 20
-1219.9817040010812
 30
0.0
 41
1.0
 10
932.33429682801216
 20
-1219.9640681154299
 30
0.0
 41
1.0
 10
932.35359058727568
 20
-1219.9464322297786
 30
0.0
 41
1.0
 10
932.46627474973195
 20
-1219.8434307889163
 30
0.0
 41
0.9997087614803569
 10
932.58379763868584
 20
-1219.7459865081194
 30
0.0
 41
1.0
 10
932.6029637118711
 20
-1219.7300949296032
 30
0.0
 41
1.0
 10
932.62212978505647
 20
-1219.7142033510872
 30
0.0
 41
1.0
 10
932.70132052764779
 20
-1219.6485422273158
 30
0.0
 41
0.9999595338701152
 10
932.78167979849604
 20
-1219.5843164966664
 30
0.0
 41
1.0
 10
932.86203906936078
 20
-1219.5200907660042
 30
0.0
 41
0.9999749417497325
 10
932.94329960370794
 20
-1219.4570092120548
 30
0.0
 41
1.0
 10
932.96428574986498
 20
-1219.4407179247573
 30
0.0
 41
1.0
 10
932.98527189602214
 20
-1219.4244266374599
 30
0.0
 41
1.0
 10
933.06983978132359
 20
-1219.3587776276192
 30
0.0
 41
0.9999792037126249
 10
933.15524738109707
 20
-1219.2942248459726
 30
0.0
 41
1.0
 10
933.17607220707259
 20
-1219.2784850236662
 30
0.0
 41
1.0
 10
933.19689703304812
 20
-1219.2627452013601
 30
0.0
 41
1.0
 10
933.2406549809275
 20
-1219.2296720642828
 30
0.0
 41
0.9999993373911212
 10
933.28433666700971
 20
-1219.1964982689049
 30
0.0
 41
1.0
 10
933.32801835315365
 20
-1219.1633244734803
 30
0.0
 41
0.9999160953814502
 10
933.37254476407406
 20
-1219.1312934082814
 30
0.0
 41
1.0
 10
933.40536665149284
 20
-1219.107682252697
 30
0.0
 41
1.0
 10
933.4381885389115
 20
-1219.0840710971129
 30
0.0
 41
1.0
 10
933.54835872467049
 20
-1219.0048177207445
 30
0.0
 41
0.9980964527231465
 10
933.66744771817071
 20
-1218.939730247889
 30
0.0
 41
1.0
 10
933.70448032510012
 20
-1218.9194902682952
 30
0.0
 41
1.0
 10
933.74151293202942
 20
-1218.8992502887013
 30
0.0
 41
1.0
 10
933.92083994530083
 20
-1218.801240038001
 30
0.0
 41
0.9984572810572661
 10
934.10992851165884
 20
-1218.7237177766551
 30
0.0
 41
1.0
 10
934.11357478105367
 20
-1218.7222228843175
 30
0.0
 41
1.0
 10
934.11722105044851
 20
-1218.7207279919801
 30
0.0
 41
1.0
 10
934.29901707801673
 20
-1218.646195515309
 30
0.0
 41
0.9987838528033862
 10
934.48726973657699
 20
-1218.5899298751428
 30
0.0
 41
1.0
 10
934.4915076857742
 20
-1218.5886632214531
 30
0.0
 41
1.0
 10
934.49574563497151
 20
-1218.5873965677633
 30
0.0
 41
1.0
 10
934.67552239513429
 20
-1218.5336642349776
 30
0.0
 41
0.9990652816207043
 10
934.85926832685209
 20
-1218.4956605554351
 30
0.0
 41
1.0
 10
934.86445672788182
 20
-1218.4945874523289
 30
0.0
 41
1.0
 10
934.86964512891166
 20
-1218.4935143492228
 30
0.0
 41
1.0
 10
935.04301425856613
 20
-1218.4576568758932
 30
0.0
 41
0.9992909934270049
 10
935.21859002502629
 20
-1218.4349464434265
 30
0.0
 41
1.0
 10
935.39416579148281
 20
-1218.41223601096
 30
0.0
 41
0.9994553539448754
 10
935.57085722457441
 20
-1218.4011567067539
 30
0.0
 41
1.0
 10
935.60629163237218
 20
-1218.398934818706
 30
0.0
 41
1.0
 10
935.64172604016983
 20
-1218.3967129306582
 30
0.0
 41
1.0
 10
935.80795180673897
 20
-1218.3862898682464
 30
0.0
 41
0.9990928098293184
 10
935.97446159864103
 20
-1218.3900495094808
 30
0.0
 41
1.0
 10
936.01302343391262
 20
-1218.3909202010138
 30
0.0
 41
1.0
 10
936.05158526918422
 20
-1218.3917908925469
 30
0.0
 41
1.0
 10
936.14097139054343
 20
-1218.3938091507155
 30
0.0
 41
0.9998382089206199
 10
936.23022707332984
 20
-1218.3990412772437
 30
0.0
 41
1.0
 10
936.23065697954962
 20
-1218.3990664781459
 30
0.0
 41
1.0
 10
936.2310868857694
 20
-1218.3990916790481
 30
0.0
 41
1.0
 10
936.31948275611592
 20
-1218.4042734037716
 30
0.0
 41
0.9997558016758341
 10
936.40756333331683
 20
-1218.4133559191382
 30
0.0
 41
1.0
 10
936.40803947174948
 20
-1218.4134050166213
 30
0.0
 41
1.0
 10
936.40851561018212
 20
-1218.4134541141041
 30
0.0
 41
1.0
 10
936.4956439105207
 20
-1218.422438434505
 30
0.0
 41
0.9996565144182291
 10
936.58218176385981
 20
-1218.4359757411935
 30
0.0
 41
1.0
 10
936.58264768923755
 20
-1218.4360486269247
 30
0.0
 41
1.0
 10
936.58311361461517
 20
-1218.4361215126562
 30
0.0
 41
1.0
 10
936.66871961720187
 20
-1218.4495130478826
 30
0.0
 41
0.9995321806867643
 10
936.75334669752976
 20
-1218.4681135363119
 30
0.0
 41
1.0
 10
936.75373589210108
 20
-1218.4681990787776
 30
0.0
 41
1.0
 10
936.7541250866725
 20
-1218.4682846212434
 30
0.0
 41
1.0
 10
936.83797377785731
 20
-1218.4867140247411
 30
0.0
 41
0.9993819199219232
 10
936.92032031205395
 20
-1218.5109894080019
 30
0.0
 41
1.0
 10
936.92055874555172
 20
-1218.5110596971112
 30
0.0
 41
1.0
 10
936.92079717904949
 20
-1218.5111299862206
 30
0.0
 41
1.0
 10
937.00266684624944
 20
-1218.5352647912621
 30
0.0
 41
0.9992088568504867
 10
937.0823593652384
 20
-1218.565830027057
 30
0.0
 41
1.0
 10
937.16204035611736
 20
-1218.5963896277901
 30
0.0
 41
0.9990226101773279
 10
937.23871102602459
 20
-1218.6338670594046
 30
0.0
 41
1.0
 10
937.31537016782215
 20
-1218.6713388559576
 30
0.0
 41
0.9988424273972592
 10
937.38807379503442
 20
-1218.7160036312107
 30
0.0
 41
1.0
 10
937.38834150341404
 20
-1218.7161680952831
 30
0.0
 41
1.0
 10
937.38860921179366
 20
-1218.7163325593556
 30
0.0
 41
1.0
 10
937.46184825576483
 20
-1218.7613262627531
 30
0.0
 41
0.9986928844490697
 10
937.53011112247441
 20
-1218.8135619970326
 30
0.0
 41
1.0
 10
937.53069241469711
 20
-1218.8140068102605
 30
0.0
 41
1.0
 10
937.53127370691982
 20
-1218.8144516234884
 30
0.0
 41
1.0
 10
937.6006991580748
 20
-1218.8675769842234
 30
0.0
 41
0.9986007262277985
 10
937.66412532784125
 20
-1218.9277377539167
 30
0.0
 41
1.0
 10
937.66501974329879
 20
-1218.9285861217522
 30
0.0
 41
1.0
 10
937.66591415875632
 20
-1218.9294344895875
 30
0.0
 41
1.0
 10
937.73112915943818
 20
-1218.9912919949518
 30
0.0
 41
0.9985581491381195
 10
937.78933677113935
 20
-1219.059784485223
 30
0.0
 41
1.0
 10
937.79859522473498
 20
-1219.0706788429247
 30
0.0
 41
1.0
 10
937.80785367833073
 20
-1219.0815732006263
 30
0.0
 41
1.0
 10
937.8845781972243
 20
-1219.1718544063017
 30
0.0
 41
0.9970460233520636
 10
937.9465700983842
 20
-1219.2728214904839
 30
0.0
 41
1.0
 10
937.96103946346375
 20
-1219.2963879495651
 30
0.0
 41
1.0
 10
937.9755088285433
 20
-1219.3199544086465
 30
0.0
 41
1.0
 10
938.01524552855506
 20
-1219.3846741326777
 30
0.0
 41
0.9988468816637008
 10
938.0485918993063
 20
-1219.4529065851048
 30
0.0
 41
1.0
 10
938.05562792179842
 20
-1219.4673035062433
 30
0.0
 41
1.0
 10
938.06266394429053
 20
-1219.4817004273821
 30
0.0
 41
1.0
 10
938.08193827005812
 20
-1219.5211390375332
 30
0.0
 41
0.9998431189996929
 10
938.09980359755286
 20
-1219.5612355919732
 30
0.0
 41
1.0
 10
938.11766892506489
 20
-1219.6013321464525
 30
0.0
 41
0.9999989989972418
 10
938.13564764850821
 20
-1219.6413779840836
 30
0.0
 41
1.0
 10
938.14181996008324
 20
-1219.6551262008534
 30
0.0
 41
1.0
 10
938.14799227165827
 20
-1219.6688744176231
 30
0.0
 41
1.0
 10
938.17831561826631
 20
-1219.736416688826
 30
0.0
 41
0.999879035632118
 10
938.20652349840441
 20
-1219.8048694407639
 30
0.0
 41
1.0
 10
938.21335867969003
 20
-1219.8214565421945
 30
0.0
 41
1.0
 10
938.22019386097566
 20
-1219.838043643625
 30
0.0
 41
1.0
 10
938.24375152335676
 20
-1219.8952115985126
 30
0.0
 41
0.9998227574560588
 10
938.26514027174494
 20
-1219.9532259067869
 30
0.0
 41
1.0
 10
938.28652902013471
 20
-1220.011240215066
 30
0.0
 41
0.9996797971041512
 10
938.30495530509313
 20
-1220.0702623341815
 30
0.0
 41
1.0
 10
938.30885910781876
 20
-1220.0827667923509
 30
0.0
 41
1.0
 10
938.31276291054451
 20
-1220.0952712505205
 30
0.0
 41
1.0
 10
938.33899680095487
 20
-1220.1793022859765
 30
0.0
 41
0.9979274938734355
 10
938.35422132443409
 20
-1220.2660066446369
 30
0.0
 41
1.0
 10
938.35644501169509
 20
-1220.2786706454572
 30
0.0
 41
1.0
 10
938.35866869895608
 20
-1220.2913346462772
 30
0.0
 41
1.0
 10
938.36959863865457
 20
-1220.3535811535683
 30
0.0
 41
0.999498598213714
 10
938.37656680383157
 20
-1220.4163946547114
 30
0.0
 41
1.0
 10
938.38353496900834
 20
-1220.4792081558487
 30
0.0
 41
0.9996372611201243
 10
938.38711083477608
 20
-1220.5423057345311
 30
0.0
 41
1.0
 10
938.38727941226557
 20
-1220.5452803516155
 30
0.0
 41
1.0
 10
938.38744798975495
 20
-1220.5482549686999
 30
0.0
 41
1.0
 10
938.39136101050144
 20
-1220.6173017815454
 30
0.0
 41
0.9997730630736228
 10
938.39232932398932
 20
-1220.6864526055786
 30
0.0
 41
1.0
 10
938.39238643040744
 20
-1220.6905307847212
 30
0.0
 41
1.0
 10
938.39244353682557
 20
-1220.6946089638639
 30
0.0
 41
1.0
 10
938.39352606314981
 20
-1220.7719161461866
 30
0.0
 41
0.999877261406976
 10
938.39218597641798
 20
-1220.8492192927554
 30
0.0
 41
1.0
 10
938.3920967132193
 20
-1220.8543684565857
 30
0.0
 41
1.0
 10
938.39200745002063
 20
-1220.859517620416
 30
0.0
 41
1.0
 10
938.39048883689168
 20
-1220.9471190946444
 30
0.0
 41
0.9999415567327246
 10
938.3870765266455
 20
-1221.0346672563239
 30
0.0
 41
1.0
 10
938.3868352059701
 20
-1221.0408587160618
 30
0.0
 41
1.0
 10
938.38659388529481
 20
-1221.0470501758
 30
0.0
 41
1.0
 10
938.38269893369886
 20
-1221.146981256941
 30
0.0
 41
0.9999716810429059
 10
938.37730035057996
 20
-1221.2468423951743
 30
0.0
 41
1.0
 10
938.37408755179115
 20
-1221.3062716448326
 30
0.0
 41
1.0
 10
938.37087475300234
 20
-1221.3657008944908
 30
0.0
 41
1.0
 10
938.36280084384907
 20
-1221.5150492957819
 30
0.0
 41
0.9999819129914191
 10
938.35293105223286
 20
-1221.6642897734855
 30
0.0
 41
1.0
 10
938.34306126061631
 20
-1221.8135302511969
 30
0.0
 41
1.0
 10
938.34062194005242
 20
-1221.8507232970462
 30
0.0
 41
1.0
 10
938.36332017385212
 20
-1221.8119822997692
 30
0.0
 41
0.9999982128158768
 10
938.38616473258503
 20
-1221.7733274058496
 30
0.0
 41
1.0
 10
938.41307429249673
 20
-1221.7277941917489
 30
0.0
 41
1.0
 10
938.43998385240855
 20
-1221.6822609776482
 30
0.0
 41
1.0
 10
938.51664753093371
 20
-1221.5525396555793
 30
0.0
 41
0.9998609190058981
 10
938.59759484379924
 20
-1221.4254472736443
 30
0.0
 41
1.0
 10
938.62724316527749
 20
-1221.3788975406926
 30
0.0
 41
1.0
 10
938.65689148675574
 20
-1221.3323478077409
 30
0.0
 41
1.0
 10
938.7391637069951
 20
-1221.203175237742
 30
0.0
 41
0.9999067609731702
 10
938.82493271646081
 20
-1221.0762975482985
 30
0.0
 41
1.0
 10
938.82733741966513
 20
-1221.0727402822386
 30
0.0
 41
1.0
 10
938.82974212286945
 20
-1221.0691830161788
 30
0.0
 41
1.0
 10
938.91070172592958
 20
-1220.9494198588504
 30
0.0
 41
0.9998784952151018
 10
938.99535533560618
 20
-1220.8322386421482
 30
0.0
 41
1.0
 10
939.08000894528914
 20
-1220.7150574254376
 30
0.0
 41
0.9998532968284247
 10
939.16862656611295
 20
-1220.6008445169657
 30
0.0
 41
1.0
 10
939.18858835510332
 20
-1220.5751171959464
 30
0.0
 41
1.0
 10
939.20855014409381
 20
-1220.5493898749271
 30
0.0
 41
1.0
 10
939.32703419385189
 20
-1220.3966842639597
 30
0.0
 41
0.9991551975795382
 10
939.45765864347482
 20
-1220.2542247018769
 30
0.0
 41
1.0
 10
939.46116825945796
 20
-1220.2503971002488
 30
0.0
 41
1.0
 10
939.46467787544111
 20
-1220.2465694986208
 30
0.0
 41
1.0
 10
939.58828309310161
 20
-1220.1117651397901
 30
0.0
 41
0.9997418144180776
 10
939.71788523279884
 20
-1219.9827157291809
 30
0.0
 41
1.0
 10
939.84748737249856
 20
-1219.8536663185691
 30
0.0
 41
0.9989238204632881
 10
939.98848992074863
 20
-1219.7371813565312
 30
0.0
 41
1.0
 10
940.03373759889155
 20
-1219.6998013649197
 30
0.0
 41
1.0
 10
940.07898527703435
 20
-1219.6624213733082
 30
0.0
 41
1.0
 10
940.21922533425413
 20
-1219.5465663200189
 30
0.0
 41
0.9990825084096954
 10
940.36886526685498
 20
-1219.4431373221882
 30
0.0
 41
1.0
 10
940.37891063091308
 20
-1219.4361941091079
 30
0.0
 41
1.0
 10
940.38895599497118
 20
-1219.4292508960275
 30
0.0
 41
1.0
 10
940.51850519945867
 20
-1219.3397083243553
 30
0.0
 41
0.9998164899825629
 10
940.65138940283521
 20
-1219.2551940828389
 30
0.0
 41
1.0
 10
940.66323496335917
 20
-1219.2476603163145
 30
0.0
 41
1.0
 10
940.67508052388314
 20
-1219.2401265497901
 30
0.0
 41
1.0
 10
940.78427360621083
 20
-1219.1706798413227
 30
0.0
 41
0.9997473449130689
 10
940.89647756346085
 20
-1219.1062108835067
 30
0.0
 41
1.0
 10
941.00868152070495
 20
-1219.0417419256939
 30
0.0
 41
0.999932786114679
 10
941.12235013146881
 20
-1218.9798919340124
 30
0.0
 41
1.0
 10
941.12290213403207
 20
-1218.9795915753318
 30
0.0
 41
1.0
 10
941.12345413659523
 20
-1218.9792912166513
 30
0.0
 41
1.0
 10
941.23822675248164
 20
-1218.9168405076109
 30
0.0
 41
0.9996956420484265
 10
941.35594007832333
 20
-1218.8601270406355
 30
0.0
 41
1.0
 10
941.38638048321604
 20
-1218.8454610639055
 30
0.0
 41
1.0
 10
941.41682088810865
 20
-1218.8307950871756
 30
0.0
 41
1.0
 10
941.51979799485105
 20
-1218.7811814287327
 30
0.0
 41
0.9998070570176726
 10
941.6246443837905
 20
-1218.7356508418325
 30
0.0
 41
1.0
 10
941.72949077272949
 20
-1218.690120254932
 30
0.0
 41
0.9997827436147982
 10
941.83614370933537
 20
-1218.6489990836219
 30
0.0
 41
1.0
 10
941.85536655896976
 20
-1218.6415875099883
 30
0.0
 41
1.0
 10
941.87458940860415
 20
-1218.6341759363547
 30
0.0
 41
1.0
 10
942.01968804447711
 20
-1218.5782316177779
 30
0.0
 41
0.9988031841976705
 10
942.16955840708192
 20
-1218.53673155361
 30
0.0
 41
1.0
 10
942.1944756554459
 20
-1218.529831807803
 30
0.0
 41
1.0
 10
942.21939290380988
 20
-1218.522932061996
 30
0.0
 41
1.0
 10
942.38666292945641
 20
-1218.4766139195895
 30
0.0
 41
0.9984748040550251
 10
942.55801983810409
 20
-1218.4490196873248
 30
0.0
 41
1.0
 10
942.56275897435319
 20
-1218.4482565268113
 30
0.0
 41
1.0
 10
942.56749811060229
 20
-1218.447493366298
 30
0.0
 41
1.0
 10
942.72937674675313
 20
-1218.42142545506
 30
0.0
 41
0.9984436495479865
 10
942.89315149047775
 20
-1218.4135475012413
 30
0.0
 41
1.0
 10
942.91484869860903
 20
-1218.4125038140417
 30
0.0
 41
1.0
 10
942.93654590674032
 20
-1218.411460126842
 30
0.0
 41
1.0
 10
943.05692623420248
 20
-1218.4056695474226
 30
0.0
 41
0.9987954789335237
 10
943.17729447911233
 20
-1218.4117060751648
 30
0.0
 41
1.0
 10
943.19725927160812
 20
-1218.4127073195036
 30
0.0
 41
1.0
 10
943.21722406410402
 20
-1218.4137085638422
 30
0.0
 41
1.0
 10
943.29766272402355
 20
-1218.4177426029073
 30
0.0
 41
0.9997941595876596
 10
943.37787150211659
 20
-1218.4250366688282
 30
0.0
 41
1.0
 10
943.45808028021474
 20
-1218.4323307347497
 30
0.0
 41
0.9998589466238764
 10
943.53799882707324
 20
-1218.4423145892001
 30
0.0
 41
1.0
 10
943.57040502887787
 20
-1218.4463629461188
 30
0.0
 41
1.0
 10
943.60281123068251
 20
-1218.4504113030378
 30
0.0
 41
1.0
 10
943.74754218115129
 20
-1218.4684918713258
 30
0.0
 41
0.9993495063249205
 10
943.8905934249143
 20
-1218.4969575810669
 30
0.0
 41
1.0
 10
943.9235271220673
 20
-1218.5035110442818
 30
0.0
 41
1.0
 10
943.9564608192203
 20
-1218.510064507497
 30
0.0
 41
1.0
 10
944.06575464242678
 20
-1218.5318128416325
 30
0.0
 41
0.9996788715560496
 10
944.17380621438463
 20
-1218.559070640996
 30
0.0
 41
1.0
 10
944.17586921692441
 20
-1218.559591067569
 30
0.0
 41
1.0
 10
944.1779322194642
 20
-1218.5601114941421
 30
0.0
 41
1.0
 10
944.28185778634236
 20
-1218.5863284403595
 30
0.0
 41
0.9995480654492276
 10
944.38402002157045
 20
-1218.6187433969835
 30
0.0
 41
1.0
 10
944.38570966369957
 20
-1218.6192795018974
 30
0.0
 41
1.0
 10
944.38739930582869
 20
-1218.6198156068115
 30
0.0
 41
1.0
 10
944.48618225680048
 20
-1218.651158353608
 30
0.0
 41
0.9993867959456048
 10
944.58252941524245
 20
-1218.6893377228976
 30
0.0
 41
1.0
 10
944.58377236432659
 20
-1218.6898302647935
 30
0.0
 41
1.0
 10
944.58501531341074
 20
-1218.6903228066894
 30
0.0
 41
1.0
 10
944.6788765736834
 20
-1218.7275170921866
 30
0.0
 41
0.9992050256521992
 10
944.76947624871832
 20
-1218.7720709914261
 30
0.0
 41
1.0
 10
944.77021093143162
 20
-1218.7724322838874
 30
0.0
 41
1.0
 10
944.77094561414503
 20
-1218.7727935763487
 30
0.0
 41
1.0
 10
944.86007592375188
 20
-1218.8166248906648
 30
0.0
 41
0.999022235074129
 10
944.94498598514542
 20
-1218.8681581583633
 30
0.0
 41
1.0
 10
944.94516987042812
 20
-1218.868269761268
 30
0.0
 41
1.0
 10
944.94535375571081
 20
-1218.8683813641728
 30
0.0
 41
1.0
 10
945.02989604653919
 20
-1218.9196914260615
 30
0.0
 41
0.9988642743805237
 10
945.10917058115797
 20
-1218.9788156135867
 30
0.0
 41
1.0
 10
945.18844511577709
 20
-1219.0379398011121
 30
0.0
 41
0.9987681233311242
 10
945.26146890005339
 20
-1219.1046304925128
 30
0.0
 41
1.0
 10
945.2617978280191
 20
-1219.1049308937268
 30
0.0
 41
1.0
 10
945.26212675598481
 20
-1219.1052312949409
 30
0.0
 41
1.0
 10
945.33580839619231
 20
-1219.17252278877
 30
0.0
 41
0.9987496570898801
 10
945.40240220151941
 20
-1219.2468356028567
 30
0.0
 41
1.0
 10
945.40317437127999
 20
-1219.2476972762147
 30
0.0
 41
1.0
 10
945.40394654104057
 20
-1219.2485589495727
 30
0.0
 41
1.0
 10
945.47208468588781
 20
-1219.3245951103738
 30
0.0
 41
0.9988147669826533
 10
945.53250694011274
 20
-1219.4068961172163
 30
0.0
 41
1.0
 10
945.53362626619094
 20
-1219.4084207485694
 30
0.0
 41
1.0
 10
945.53474559226913
 20
-1219.4099453799226
 30
0.0
 41
1.0
 10
945.59740649864955
 20
-1219.4952956494701
 30
0.0
 41
0.9989452636216141
 10
945.65197341161104
 20
-1219.586034338628
 30
0.0
 41
1.0
 10
945.6533221376967
 20
-1219.5882771196541
 30
0.0
 41
1.0
 10
945.65467086378226
 20
-1219.5905199006802
 30
0.0
 41
1.0
 10
945.71193522891485
 20
-1219.6857441518903
 30
0.0
 41
0.9991046436070412
 10
945.76094444223747
 20
-1219.7854685849177
 30
0.0
 41
1.0
 10
945.76240830382699
 20
-1219.7884472649894
 30
0.0
 41
1.0
 10
945.76387216541661
 20
-1219.7914259450608
 30
0.0
 41
1.0
 10
945.81580910191849
 20
-1219.8971077382323
 30
0.0
 41
0.9992763831101611
 10
945.85956223047424
 20
-1220.0064318001891
 30
0.0
 41
1.0
 10
945.86104150013716
 20
-1220.0101279877217
 30
0.0
 41
1.0
 10
945.86252076980008
 20
-1220.0138241752545
 30
0.0
 41
1.0
 10
945.90923243768168
 20
-1220.1305406122779
 30
0.0
 41
0.9994163472884043
 10
945.94786546887065
 20
-1220.2501742007389
 30
0.0
 41
1.0
 10
945.94910362111807
 20
-1220.2540083445238
 30
0.0
 41
1.0
 10
945.95034177336549
 20
-1220.2578424883086
 30
0.0
 41
1.0
 10
945.99022533438188
 20
-1220.381348549784
 30
0.0
 41
0.9997268055891129
 10
946.02429339029436
 20
-1220.5065835817363
 30
0.0
 41
1.0
 10
946.02522357056375
 20
-1220.5100029478444
 30
0.0
 41
1.0
 10
946.02615375083315
 20
-1220.5134223139528
 30
0.0
 41
1.0
 10
946.05836144620616
 20
-1220.6318186136862
 30
0.0
 41
0.9996701319000749
 10
946.08444706297678
 20
-1220.7517125669506
 30
0.0
 41
1.0
 10
946.11053267974785
 20
-1220.8716065202166
 30
0.0
 41
0.9995785451109355
 10
946.12961625708795
 20
-1220.9928122812512
 30
0.0
 41
1.0
 10
946.13383603926115
 20
-1221.0196134360131
 30
0.0
 41
1.0
 10
946.13805582143436
 20
-1221.0464145907747
 30
0.0
 41
1.0
 10
946.16463079737321
 20
-1221.2152005644793
 30
0.0
 41
0.9979925101216325
 10
946.16965638329941
 20
-1221.3859918925702
 30
0.0
 41
1.0
 10
946.17048119572405
 20
-1221.4140226160516
 30
0.0
 41
1.0
 10
946.17130600814869
 20
-1221.4420533395328
 30
0.0
 41
1.0
 10
946.17468196922584
 20
-1221.5567832206616
 30
0.0
 41
0.9995314902263194
 10
946.17103177708725
 20
-1221.671504704414
 30
0.0
 41
1.0
 10
946.16738158494866
 20
-1221.7862261881653
 30
0.0
 41
0.9996245486944176
 10
946.15745248981796
 20
-1221.9005754592899
 30
0.0
 41
1.0
 10
946.15728944182365
 20
-1221.9024532154251
 30
0.0
 41
1.0
 10
946.15712639382946
 20
-1221.9043309715603
 30
0.0
 41
1.0
 10
946.14687120270969
 20
-1222.0224357549569
 30
0.0
 41
0.9997286095000868
 10
946.13112587913815
 20
-1222.1399346638525
 30
0.0
 41
1.0
 10
946.13073238648803
 20
-1222.142871088553
 30
0.0
 41
1.0
 10
946.13033889383792
 20
-1222.1458075132532
 30
0.0
 41
1.0
 10
946.11380658496682
 20
-1222.2691792715457
 30
0.0
 41
0.9998265533969816
 10
946.09269112623417
 20
-1222.3918497463339
 30
0.0
 41
1.0
 10
946.09201458409643
 20
-1222.3957801248444
 30
0.0
 41
1.0
 10
946.09133804195881
 20
-1222.399710503355
 30
0.0
 41
1.0
 10
946.06886949895136
 20
-1222.5302417351613
 30
0.0
 41
0.9999022530851953
 10
946.0427600343412
 20
-1222.6600937038008
 30
0.0
 41
1.0
 10
946.04178139317628
 20
-1222.6649608461862
 30
0.0
 41
1.0
 10
946.04080275201125
 20
-1222.6698279885716
 30
0.0
 41
1.0
 10
946.01273600506806
 20
-1222.8094142419959
 30
0.0
 41
0.9999524761938338
 10
945.98195303623356
 20
-1222.9484267351595
 30
0.0
 41
1.0
 10
945.9806769290592
 20
-1222.9541894944568
 30
0.0
 41
1.0
 10
945.97940082188484
 20
-1222.9599522537542
 30
0.0
 41
1.0
 10
945.94606563869854
 20
-1223.1104902655254
 30
0.0
 41
0.999981358872056
 10
945.91089463790593
 20
-1223.2606099781683
 30
0.0
 41
1.0
 10
945.90934071244806
 20
-1223.267242568596
 30
0.0
 41
1.0
 10
945.9077867869903
 20
-1223.2738751590239
 30
0.0
 41
1.0
 10
945.86950793528104
 20
-1223.4372600525257
 30
0.0
 41
0.9999955237689477
 10
945.8302520572995
 20
-1223.6004129561368
 30
0.0
 41
1.0
 10
945.81797042166579
 20
-1223.6514571466569
 30
0.0
 41
1.0
 10
945.80568878603208
 20
-1223.7025013371772
 30
0.0
 41
1.0
 10
945.74186963678903
 20
-1223.9677426218032
 30
0.0
 41
0.9999993604774109
 10
945.67745068963688
 20
-1224.2328388724229
 30
0.0
 41
1.0
 10
945.67273185407885
 20
-1224.2522577805089
 30
0.0
 41
1.0
 10
945.66801301852081
 20
-1224.2716766885947
 30
0.0
 41
1.0
 10
945.5941564002577
 20
-1224.5756107553639
 30
0.0
 41
0.999965991473211
 10
945.51529680437352
 20
-1224.8782853019188
 30
0.0
 41
1.0
 10
945.51034411544367
 20
-1224.8972944390982
 30
0.0
 41
1.0
 10
945.50539142651382
 20
-1224.9163035762776
 30
0.0
 41
1.0
 10
945.41662645276972
 20
-1225.2569963971919
 30
0.0
 41
0.9999441976024407
 10
945.32068341980698
 20
-1225.5957378224887
 30
0.0
 41
1.0
 10
945.30398290138044
 20
-1225.6547015350197
 30
0.0
 41
1.0
 10
945.28728238295389
 20
-1225.713665247551
 30
0.0
 41
1.0
 10
945.15793831314215
 20
-1226.1703340978954
 30
0.0
 41
0.9999625120733445
 10
945.02070554581849
 20
-1226.6246946318927
 30
0.0
 41
1.0
 10
944.98491560272782
 20
-1226.7431906585452
 30
0.0
 41
1.0
 10
944.94912565963705
 20
-1226.8616866851976
 30
0.0
 41
1.0
 10
944.87460545560293
 20
-1227.1084137632765
 30
0.0
 41
0.9999793386319124
 10
944.79691943247121
 20
-1227.3541624024938
 30
0.0
 41
1.0
 10
944.7192334093337
 20
-1227.5999110417299
 30
0.0
 41
1.0
 10
944.708453850463
 20
-1227.6339289461046
 30
0.0
 41
1.0
 10
942.85808079719391
 20
-1233.5210008685722
 30
0.0
 41
1.0
 10
941.0077077439247
 20
-1239.4080727910396
 30
0.0
 41
1.0
 10
940.04645105390114
 20
-1239.4080727910396
 30
0.0
 41
1.0
 10
939.08519436387758
 20
-1239.4080727910396
 30
0.0
 41
1.0
 10
940.70413914255596
 20
-1234.2600442892501
 30
0.0
 41
1.0
 10
942.32308392123446
 20
-1229.1120157874607
 30
0.0
 41
1.0
 10
942.36824974441424
 20
-1228.9679845651733
 30
0.0
 41
1.0
 10
942.41341556759403
 20
-1228.8239533428859
 30
0.0
 41
1.0
 10
942.58371998495204
 20
-1228.2808623137389
 30
0.0
 41
0.9999911657882764
 10
942.74945279662597
 20
-1227.7363587823947
 30
0.0
 41
1.0
 10
942.77914874012822
 20
-1227.6387948423385
 30
0.0
 41
1.0
 10
942.80884468363047
 20
-1227.541230902282
 30
0.0
 41
1.0
 10
942.91518560830821
 20
-1227.1918552510247
 30
0.0
 41
0.9999952428193707
 10
943.01936919763125
 20
-1226.8418302266814
 30
0.0
 41
1.0
 10
943.02442866795548
 20
-1226.8248319524341
 30
0.0
 41
1.0
 10
943.0294881382797
 20
-1226.8078336781866
 30
0.0
 41
1.0
 10
943.12355278694929
 20
-1226.4918052023545
 30
0.0
 41
0.9999931687465478
 10
943.21527862482981
 20
-1226.1750899890615
 30
0.0
 41
1.0
 10
943.22021388928897
 20
-1226.1580492797916
 30
0.0
 41
1.0
 10
943.22514915374813
 20
-1226.1410085705218
 30
0.0
 41
1.0
 10
943.30700446270021
 20
-1225.8583747758025
 30
0.0
 41
0.9999893840818839
 10
943.3862516891603
 20
-1225.5749986465444
 30
0.0
 41
1.0
 10
943.46549891561563
 20
-1225.291622517303
 30
0.0
 41
0.9999833980071855
 10
943.54147515635339
 20
-1225.0073519342902
 30
0.0
 41
1.0
 10
943.55047909307996
 20
-1224.9736630557959
 30
0.0
 41
1.0
 10
943.55948302980642
 20
-1224.9399741773016
 30
0.0
 41
1.0
 10
943.62844757867265
 20
-1224.6819383450052
 30
0.0
 41
0.9999233658068563
 10
943.69100254989064
 20
-1224.4222741862914
 30
0.0
 41
1.0
 10
943.75355752111091
 20
-1224.1626100275689
 30
0.0
 41
1.0
 10
943.79304093996848
 20
-1223.9988033631428
 30
0.0
 41
1.0
 10
943.7980195439427
 20
-1223.9781484012847
 30
0.0
 41
1.0
 10
943.80299814791704
 20
-1223.9574934394266
 30
0.0
 41
1.0
 10
943.83252435882378
 20
-1223.8349966987262
 30
0.0
 41
0.9999868670871406
 10
943.86079344282223
 20
-1223.7122037530712
 30
0.0
 41
1.0
 10
943.86469092998459
 20
-1223.6952741656337
 30
0.0
 41
1.0
 10
943.86858841714707
 20
-1223.6783445781962
 30
0.0
 41
1.0
 10
943.8890625268225
 20
-1223.5894108074083
 30
0.0
 41
0.9999778173347331
 10
943.9083501249338
 20
-1223.5002121901953
 30
0.0
 41
1.0
 10
943.92763772305011
 20
-1223.4110135729616
 30
0.0
 41
0.9999602692855361
 10
943.94533208168241
 20
-1223.3214852845267
 30
0.0
 41
1.0
 10
943.94853591375886
 20
-1223.3052748296468
 30
0.0
 41
1.0
 10
943.95173974583531
 20
-1223.2890643747671
 30
0.0
 41
1.0
 10
943.97584176862176
 20
-1223.1671151765677
 30
0.0
 41
0.9995617985319965
 10
943.99268511584046
 20
-1223.0439534288603
 30
0.0
 41
1.0
 10
943.99514960574629
 20
-1223.0259326114974
 30
0.0
 41
1.0
 10
943.99761409565212
 20
-1223.0079117941345
 30
0.0
 41
1.0
 10
944.01789735670059
 20
-1222.8595967444323
 30
0.0
 41
0.9991121410639693
 10
944.0256227102891
 20
-1222.7101006456246
 30
0.0
 41
1.0
 10
944.02654150031367
 20
-1222.6923208090493
 30
0.0
 41
1.0
 10
944.02746029033813
 20
-1222.674540972474
 30
0.0
 41
1.0
 10
944.03334806387716
 20
-1222.5606045468205
 30
0.0
 41
0.998979249490619
 10
944.02892897176002
 20
-1222.4466017109203
 30
0.0
 41
1.0
 10
944.02828099989142
 20
-1222.4298854649951
 30
0.0
 41
1.0
 10
944.02763302802293
 20
-1222.4131692190701
 30
0.0
 41
1.0
 10
944.02450987964278
 20
-1222.3325988750209
 30
0.0
 41
0.999782029539269
 10
944.01802588226701
 20
-1222.2522291532778
 30
0.0
 41
1.0
 10
944.01154188489159
 20
-1222.1718594315362
 30
0.0
 41
0.9998335105972758
 10
944.00212968938013
 20
-1222.0917798150883
 30
0.0
 41
1.0
 10
944.0005347647035
 20
-1222.0782100846031
 30
0.0
 41
1.0
 10
943.99893984002688
 20
-1222.0646403541177
 30
0.0
 41
1.0
 10
943.98633779516274
 20
-1221.9574212767027
 30
0.0
 41
0.9996876457879326
 10
943.96839388236458
 20
-1221.8509658489882
 30
0.0
 41
1.0
 10
943.9661622192192
 20
-1221.8377261137457
 30
0.0
 41
1.0
 10
943.96393055607382
 20
-1221.824486378503
 30
0.0
 41
1.0
 10
943.95013473465247
 20
-1221.7426402345438
 30
0.0
 41
0.9995547496495519
 10
943.93148141275992
 20
-1221.6617627373523
 30
0.0
 41
1.0
 10
943.93110745588888
 20
-1221.660141326648
 30
0.0
 41
1.0
 10
943.93073349901783
 20
-1221.6585199159435
 30
0.0
 41
1.0
 10
943.91282809086761
 20
-1221.5808852401622
 30
0.0
 41
0.9994899427175379
 10
943.89000318218791
 20
-1221.5045519573268
 30
0.0
 41
1.0
 10
943.8895446554468
 20
-1221.503018507537
 30
0.0
 41
1.0
 10
943.88908612870569
 20
-1221.5014850577475
 30
0.0
 41
1.0
 10
943.86717827350833
 20
-1221.4282186744915
 30
0.0
 41
0.9993784877590231
 10
943.84016263840203
 20
-1221.3566779693333
 30
0.0
 41
1.0
 10
943.83963094742512
 20
-1221.3552699866127
 30
0.0
 41
1.0
 10
943.83909925644821
 20
-1221.3538620038921
 30
0.0
 41
1.0
 10
943.81314700329528
 20
-1221.2851372641737
 30
0.0
 41
0.9992430832254525
 10
943.78193046813612
 20
-1221.218638112106
 30
0.0
 41
1.0
 10
943.7813483520797
 20
-1221.2173980569892
 30
0.0
 41
1.0
 10
943.78076623602328
 20
-1221.2161580018721
 30
0.0
 41
1.0
 10
943.75071393297685
 20
-1221.1521389600382
 30
0.0
 41
0.9990789632799295
 10
943.71528330620004
 20
-1221.0909323482881
 30
0.0
 41
1.0
 10
943.71468760001767
 20
-1221.0899032624284
 30
0.0
 41
1.0
 10
943.71409189383542
 20
-1221.0888741765687
 30
0.0
 41
1.0
 10
943.67985267942231
 20
-1221.0297257365366
 30
0.0
 41
0.9988874801120632
 10
943.64019340339132
 20
-1220.9740660241205
 30
0.0
 41
1.0
 10
943.63963787732769
 20
-1220.9732863724466
 30
0.0
 41
1.0
 10
943.63908235126394
 20
-1220.9725067207726
 30
0.0
 41
1.0
 10
943.60053412736033
 20
-1220.9184063117041
 30
0.0
 41
0.998676206069311
 10
943.55663165608303
 20
-1220.8685525972637
 30
0.0
 41
1.0
 10
943.55618769575131
 20
-1220.8680484554475
 30
0.0
 41
1.0
 10
943.55574373541958
 20
-1220.8675443136315
 30
0.0
 41
1.0
 10
943.51272918480731
 20
-1220.8186988828249
 30
0.0
 41
0.9984621642488807
 10
943.46457162802903
 20
-1220.7749155823533
 30
0.0
 41
1.0
 10
943.46432499351272
 20
-1220.7746913501901
 30
0.0
 41
1.0
 10
943.46407835899629
 20
-1220.7744671180267
 30
0.0
 41
1.0
 10
943.41641407125087
 20
-1220.7311322818819
 30
0.0
 41
0.998272469385192
 10
943.36399543940979
 20
-1220.6936879313644
 30
0.0
 41
1.0
 10
943.31157680756894
 20
-1220.6562435808471
 30
0.0
 41
0.9981399180158652
 10
943.25499074417519
 20
-1220.6254570614035
 30
0.0
 41
1.0
 10
943.25494508209658
 20
-1220.6254322182463
 30
0.0
 41
1.0
 10
943.25489942001809
 20
-1220.625407375089
 30
0.0
 41
1.0
 10
943.19822203246781
 20
-1220.5945711693312
 30
0.0
 41
0.9980927086837029
 10
943.13817668140155
 20
-1220.5709543604787
 30
0.0
 41
1.0
 10
943.13773651168981
 20
-1220.5707812346036
 30
0.0
 41
1.0
 10
943.13729634197807
 20
-1220.5706081087287
 30
0.0
 41
1.0
 10
943.07637065148765
 20
-1220.546645048126
 30
0.0
 41
0.9981411356560805
 10
943.01298213008727
 20
-1220.5302724066203
 30
0.0
 41
1.0
 10
943.01210001338666
 20
-1220.530044564415
 30
0.0
 41
1.0
 10
943.01121789668605
 20
-1220.5298167222097
 30
0.0
 41
1.0
 10
942.9460651418832
 20
-1220.5129883962929
 30
0.0
 41
0.9983031812935216
 10
942.87939771288757
 20
-1220.5038490351167
 30
0.0
 41
1.0
 10
942.87052668748595
 20
-1220.5026329164457
 30
0.0
 41
1.0
 10
942.86165566208433
 20
-1220.5014167977747
 30
0.0
 41
1.0
 10
942.80730601957862
 20
-1220.4939660677835
 30
0.0
 41
0.9983887708263813
 10
942.75246217028428
 20
-1220.4927213941501
 30
0.0
 41
1.0
 10
942.74439876507051
 20
-1220.4925383962752
 30
0.0
 41
1.0
 10
942.73633535985675
 20
-1220.4923553984004
 30
0.0
 41
1.0
 10
942.69761832099516
 20
-1220.4914767205166
 30
0.0
 41
0.9998869563078238
 10
942.65889236778878
 20
-1220.4917625898763
 30
0.0
 41
1.0
 10
942.62016641454159
 20
-1220.4920484592362
 30
0.0
 41
0.9999972320166543
 10
942.58144223528654
 20
-1220.4925165587661
 30
0.0
 41
1.0
 10
942.562089218751
 20
-1220.492750498855
 30
0.0
 41
1.0
 10
942.54273620221534
 20
-1220.4929844389439
 30
0.0
 41
1.0
 10
942.46530598984361
 20
-1220.4939204186517
 30
0.0
 41
0.9997304945087522
 10
942.38800268360478
 20
-1220.4984495124377
 30
0.0
 41
1.0
 10
942.3789530419017
 20
-1220.4989797184276
 30
0.0
 41
1.0
 10
942.3699034001985
 20
-1220.4995099244175
 30
0.0
 41
1.0
 10
942.2745008105511
 20
-1220.5050994301835
 30
0.0
 41
0.9997888306415476
 10
942.17940847470788
 20
-1220.5146043946729
 30
0.0
 41
1.0
 10
942.17068741313608
 20
-1220.5154761093049
 30
0.0
 41
1.0
 10
942.16196635156427
 20
-1220.5163478239369
 30
0.0
 41
1.0
 10
942.0494318925754
 20
-1220.5275962176902
 30
0.0
 41
0.998417023819027
 10
941.93887274522331
 20
-1220.5514122996262
 30
0.0
 41
1.0
 10
941.90249161423731
 20
-1220.5592493354322
 30
0.0
 41
1.0
 10
941.86611048325142
 20
-1220.5670863712382
 30
0.0
 41
1.0
 10
941.75091941483038
 20
-1220.5919002377477
 30
0.0
 41
0.9976592854198687
 10
941.64019124842548
 20
-1220.6321989148951
 30
0.0
 41
1.0
 10
941.52946308201967
 20
-1220.6724975920424
 30
0.0
 41
0.9993255074351625
 10
941.42199128322716
 20
-1220.7208144905358
 30
0.0
 41
1.0
 10
941.41736610430507
 20
-1220.7228938667349
 30
0.0
 41
1.0
 10
941.4127409253831
 20
-1220.7249732429341
 30
0.0
 41
1.0
 10
941.29601876874528
 20
-1220.7774488938262
 30
0.0
 41
0.9976475078274926
 10
941.18757142443451
 20
-1220.8453968834847
 30
0.0
 41
1.0
 10
941.16922903030127
 20
-1220.8568893622983
 30
0.0
 41
1.0
 10
941.15088663616814
 20
-1220.8683818411116
 30
0.0
 41
1.0
 10
941.06668444461548
 20
-1220.9211389618804
 30
0.0
 41
0.9995131336406915
 10
940.98593672965615
 20
-1220.9790451738349
 30
0.0
 41
1.0
 10
940.9051890146992
 20
-1221.0369513857877
 30
0.0
 41
0.9995810107606254
 10
940.82792736697081
 20
-1221.0994330682533
 30
0.0
 41
1.0
 10
940.82495733576025
 20
-1221.1018349397182
 30
0.0
 41
1.0
 10
940.82198730454979
 20
-1221.104236811183
 30
0.0
 41
1.0
 10
940.73878559440129
 20
-1221.1715222365779
 30
0.0
 41
0.9996617837954557
 10
940.65919490726583
 20
-1221.2430426921378
 30
0.0
 41
1.0
 10
940.6470641563883
 20
-1221.2539434251289
 30
0.0
 41
1.0
 10
940.63493340551065
 20
-1221.2648441581202
 30
0.0
 41
1.0
 10
940.56665787811448
 20
-1221.3261967735921
 30
0.0
 41
0.9997267750052974
 10
940.5013243698304
 20
-1221.390673310118
 30
0.0
 41
1.0
 10
940.43599086154632
 20
-1221.4551498466435
 30
0.0
 41
0.9999667288965898
 10
940.37171791839887
 20
-1221.5206836535388
 30
0.0
 41
1.0
 10
940.30289047062433
 20
-1221.5908613122965
 30
0.0
 41
1.0
 10
940.2340630228498
 20
-1221.661038971054
 30
0.0
 41
1.0
 10
940.03213518415453
 20
-1221.8669280954632
 30
0.0
 41
0.998820533517514
 10
939.85112956717626
 20
-1222.0914323275222
 30
0.0
 41
1.0
 10
939.82048960227019
 20
-1222.1294355779537
 30
0.0
 41
1.0
 10
939.78984963736411
 20
-1222.1674388283855
 30
0.0
 41
1.0
 10
939.54756409057325
 20
-1222.4679495613084
 30
0.0
 41
0.9997077826754861
 10
939.32008613946687
 20
-1222.7798193555266
 30
0.0
 41
1.0
 10
939.31836272433793
 20
-1222.7821821389039
 30
0.0
 41
1.0
 10
939.31663930920899
 20
-1222.7845449222814
 30
0.0
 41
1.0
 10
939.08571452784452
 20
-1223.1011402832546
 30
0.0
 41
0.9989147567078999
 10
938.88525102496089
 20
-1223.4378497444391
 30
0.0
 41
1.0
 10
938.86050987965189
 20
-1223.4794063249951
 30
0.0
 41
1.0
 10
938.83576873434288
 20
-1223.520962905551
 30
0.0
 41
1.0
 10
938.68055743570767
 20
-1223.7816642900002
 30
0.0
 41
0.9997476598181253
 10
938.53721244819849
 20
-1224.0490740385817
 30
0.0
 41
1.0
 10
938.39386746068806
 20
-1224.3164837871657
 30
0.0
 41
0.9996258967109512
 10
938.26535920875733
 20
-1224.5913317237878
 30
0.0
 41
1.0
 10
938.25215929930755
 20
-1224.6195631238836
 30
0.0
 41
1.0
 10
938.23895938985777
 20
-1224.6477945239794
 30
0.0
 41
1.0
 10
938.09875066885945
 20
-1224.9476669219291
 30
0.0
 41
0.9998735413945121
 10
937.96814932213738
 20
-1225.2518465214007
 30
0.0
 41
1.0
 10
937.96470649407593
 20
-1225.2598651068674
 30
0.0
 41
1.0
 10
937.96126366601459
 20
-1225.2678836923342
 30
0.0
 41
1.0
 10
937.8375479754186
 20
-1225.5560261208648
 30
0.0
 41
0.9999377418864015
 10
937.72029317324223
 20
-1225.8468575885431
 30
0.0
 41
1.0
 10
937.60303837106551
 20
-1226.1376890562228
 30
0.0
 41
0.9999508299509609
 10
937.49157442768796
 20
-1226.4307887330453
 30
0.0
 41
1.0
 10
937.4884936590264
 20
-1226.438889759007
 30
0.0
 41
1.0
 10
937.48541289036484
 20
-1226.4469907849684
 30
0.0
 41
1.0
 10
937.3677874096644
 20
-1226.7562925137122
 30
0.0
 41
0.9999609228431653
 10
937.25564880679542
 20
-1227.067625529714
 30
0.0
 41
1.0
 10
937.25269279644226
 20
-1227.075832370133
 30
0.0
 41
1.0
 10
937.24973678608922
 20
-1227.084039210552
 30
0.0
 41
1.0
 10
937.13168616251278
 20
-1227.4117859073954
 30
0.0
 41
0.9999674607402643
 10
937.01893863644489
 20
-1227.74139452739
 30
0.0
 41
1.0
 10
936.96754024588472
 20
-1227.8916537230753
 30
0.0
 41
1.0
 10
936.91614185532444
 20
-1228.0419129187605
 30
0.0
 41
1.0
 10
936.80013124856566
 20
-1228.3810609012662
 30
0.0
 41
0.9999287532307414
 10
936.69224984459424
 20
-1228.7228816402439
 30
0.0
 41
1.0
 10
936.64577258847521
 20
-1228.870144184551
 30
0.0
 41
1.0
 10
936.59929533235606
 20
-1229.0174067288581
 30
0.0
 41
1.0
 10
936.5843684406691
 20
-1229.0647023790752
 30
0.0
 41
0.9999998223906256
 10
936.56949793189301
 20
-1229.1120157874607
 30
0.0
 41
1.0
 10
934.94884179509756
 20
-1234.2600442892501
 30
0.0
 41
1.0
 10
933.32818565830212
 20
-1239.4080727910396
 30
0.0
 41
1.0
 10
932.42287721441119
 20
-1239.4080727910396
 30
0.0
 41
1.0
 10
931.51756877052026
 20
-1239.4080727910396
 30
0.0
 41
1.0
 10
933.3696531819063
 20
-1233.5210008685722
 30
0.0
 41
1.0
 10
935.22173759329235
 20
-1227.6339289461046
 30
0.0
 41
1.0
 10
935.23185935159506
 20
-1227.6018857326549
 30
0.0
 41
1.0
 10
935.3044670204448
 20
-1227.371586190829
 30
0.0
 41
1.0
 10
935.37707468929659
 20
-1227.1412866489968
 30
0.0
 41
0.9999825681973988
 10
935.44695772851026
 20
-1226.9101457539243
 30
0.0
 41
1.0
 10
935.49524879066848
 20
-1226.7504211704368
 30
0.0
 41
1.0
 10
935.54353985282671
 20
-1226.5906965869494
 30
0.0
 41
1.0
 10
935.64069220614124
 20
-1226.2693613651822
 30
0.0
 41
0.9999672528966247
 10
935.7326310117669
 20
-1225.9464958195881
 30
0.0
 41
1.0
 10
935.73541989542923
 20
-1225.9367019742244
 30
0.0
 41
1.0
 10
935.73820877909145
 20
-1225.9269081288605
 30
0.0
 41
1.0
 10
935.82456981738642
 20
-1225.6236302740151
 30
0.0
 41
0.9999899749146598
 10
935.90821142692494
 20
-1225.3195911855496
 30
0.0
 41
1.0
 10
935.91831734594246
 20
-1225.2828559478712
 30
0.0
 41
1.0
 10
935.92842326495997
 20
-1225.2461207101928
 30
0.0
 41
1.0
 10
935.99185303645891
 20
-1225.0155520970993
 30
0.0
 41
0.999921420050221
 10
936.04948246483741
 20
-1224.7834657548879
 30
0.0
 41
1.0
 10
936.06224831702048
 20
-1224.7320548694815
 30
0.0
 41
1.0
 10
936.07501416920354
 20
-1224.6806439840752
 30
0.0
 41
1.0
 10
936.10711189321478
 20
-1224.5513794126796
 30
0.0
 41
0.9999828681660192
 10
936.1376941452105
 20
-1224.421747938211
 30
0.0
 41
1.0
 10
936.16827639720327
 20
-1224.2921164637542
 30
0.0
 41
0.9999389844483548
 10
936.19598738599063
 20
-1224.1618410078645
 30
0.0
 41
1.0
 10
936.20312512971304
 20
-1224.1282849040165
 30
0.0
 41
1.0
 10
936.21026287343557
 20
-1224.0947288001685
 30
0.0
 41
1.0
 10
936.25224934966684
 20
-1223.8973411365857
 30
0.0
 41
0.9998933699441034
 10
936.288453614069
 20
-1223.6988115288268
 30
0.0
 41
1.0
 10
936.28982643928452
 20
-1223.6912835081343
 30
0.0
 41
1.0
 10
936.29119926450016
 20
-1223.6837554874419
 30
0.0
 41
1.0
 10
936.33014917933508
 20
-1223.4701698382905
 30
0.0
 41
0.9996850305193759
 10
936.35833285559374
 20
-1223.2548988328542
 30
0.0
 41
1.0
 10
936.36032788896284
 20
-1223.2396604787336
 30
0.0
 41
1.0
 10
936.36232292233194
 20
-1223.2244221246131
 30
0.0
 41
1.0
 10
936.38973078479125
 20
-1223.0150768974565
 30
0.0
 41
0.999469793670707
 10
936.40345534401104
 20
-1222.8043917021241
 30
0.0
 41
1.0
 10
936.40393241326069
 20
-1222.7970682299133
 30
0.0
 41
1.0
 10
936.40440948251035
 20
-1222.7897447577025
 30
0.0
 41
1.0
 10
936.41717990323059
 20
-1222.593706506794
 30
0.0
 41
0.9991804893137241
 10
936.41405158695784
 20
-1222.3972776568201
 30
0.0
 41
1.0
 10
936.41396770813571
 20
-1222.3920108554075
 30
0.0
 41
1.0
 10
936.41388382931359
 20
-1222.3867440539948
 30
0.0
 41
1.0
 10
936.41092327068509
 20
-1222.2008488068466
 30
0.0
 41
0.9988448329321498
 10
936.39013172506134
 20
-1222.0160962170132
 30
0.0
 41
1.0
 10
936.38853765135832
 20
-1222.0019313612422
 30
0.0
 41
1.0
 10
936.3869435776553
 20
-1221.9877665054712
 30
0.0
 41
1.0
 10
936.36934017943759
 20
-1221.8313436271803
 30
0.0
 41
0.9985503209458699
 10
936.33502390713807
 20
-1221.6777194430906
 30
0.0
 41
1.0
 10
936.32743791506709
 20
-1221.6437591156919
 30
0.0
 41
1.0
 10
936.31985192299624
 20
-1221.6097987882929
 30
0.0
 41
1.0
 10
936.300707634839
 20
-1221.5240952590041
 30
0.0
 41
0.9991036781371003
 10
936.2743827731872
 20
-1221.4403181716764
 30
0.0
 41
1.0
 10
936.27040054773101
 20
-1221.4276450091652
 30
0.0
 41
1.0
 10
936.26641832227483
 20
-1221.414971846654
 30
0.0
 41
1.0
 10
936.24805791153574
 20
-1221.3565410843505
 30
0.0
 41
0.9998874504368696
 10
936.22795270385768
 20
-1221.2986874821281
 30
0.0
 41
1.0
 10
936.20784749617826
 20
-1221.2408338799028
 30
0.0
 41
0.9994041637544384
 10
936.18379888324409
 20
-1221.1845051760129
 30
0.0
 41
1.0
 10
936.17960209902037
 20
-1221.1746751115318
 30
0.0
 41
1.0
 10
936.17540531479665
 20
-1221.1648450470507
 30
0.0
 41
1.0
 10
936.14752648380215
 20
-1221.0995448810836
 30
0.0
 41
0.9991846840701656
 10
936.11447012710926
 20
-1221.0367068498037
 30
0.0
 41
1.0
 10
936.11333352071449
 20
-1221.0345462333496
 30
0.0
 41
1.0
 10
936.11219691431972
 20
-1221.0323856168955
 30
0.0
 41
1.0
 10
936.08141377041682
 20
-1220.9738688185248
 30
0.0
 41
0.9989253167923567
 10
936.04534434636116
 20
-1220.9184538901332
 30
0.0
 41
1.0
 10
936.04429022168711
 20
-1220.9168343953711
 30
0.0
 41
1.0
 10
936.04323609701316
 20
-1220.9152149006093
 30
0.0
 41
1.0
 10
936.00927492230687
 20
-1220.8630389617442
 30
0.0
 41
0.9986467172838246
 10
935.97007776966893
 20
-1220.8146729281134
 30
0.0
 41
1.0
 10
935.9692036409682
 20
-1220.8135943258353
 30
0.0
 41
1.0
 10
935.96832951226747
 20
-1220.812515723557
 30
0.0
 41
1.0
 10
935.93088061703133
 20
-1220.7663068944837
 30
0.0
 41
0.998400110426685
 10
935.8884538865143
 20
-1220.7246217871152
 30
0.0
 41
1.0
 10
935.88786674840503
 20
-1220.7240449122341
 30
0.0
 41
1.0
 10
935.88727961029588
 20
-1220.7234680373531
 30
0.0
 41
1.0
 10
935.84602715599783
 20
-1220.6829366797469
 30
0.0
 41
0.9982442159082329
 10
935.80027105466161
 20
-1220.6475681184861
 30
0.0
 41
1.0
 10
935.80005625919966
 20
-1220.6474020858427
 30
0.0
 41
1.0
 10
935.79984146373772
 20
-1220.6472360531993
 30
0.0
 41
1.0
 10
935.75451495332584
 20
-1220.6121995572259
 30
0.0
 41
0.9982450060837329
 10
935.70536397425417
 20
-1220.5827677741922
 30
0.0
 41
1.0
 10
935.65621299518284
 20
-1220.553335991159
 30
0.0
 41
0.9983922639635626
 10
935.60404668901776
 20
-1220.5296563565048
 30
0.0
 41
1.0
 10
935.60381981169326
 20
-1220.5295533710232
 30
0.0
 41
1.0
 10
935.60359293436863
 20
-1220.5294503855418
 30
0.0
 41
1.0
 10
935.55097287355466
 20
-1220.505564779925
 30
0.0
 41
0.9986517147149977
 10
935.49615990068673
 20
-1220.4872636608031
 30
0.0
 41
1.0
 10
935.49548197925901
 20
-1220.4870373143717
 30
0.0
 41
1.0
 10
935.49480405783129
 20
-1220.4868109679403
 30
0.0
 41
1.0
 10
935.43863524210735
 20
-1220.4680571559556
 30
0.0
 41
0.9989435598956645
 10
935.38098185495573
 20
-1220.4545394537211
 30
0.0
 41
1.0
 10
935.37990173537423
 20
-1220.4542862034682
 30
0.0
 41
1.0
 10
935.37882161579273
 20
-1220.4540329532151
 30
0.0
 41
1.0
 10
935.31900798947754
 20
-1220.4400087504746
 30
0.0
 41
0.9992249241240742
 10
935.25827648058032
 20
-1220.4307334077591
 30
0.0
 41
1.0
 10
935.25686279228944
 20
-1220.4305174993515
 30
0.0
 41
1.0
 10
935.25544910399856
 20
-1220.4303015909436
 30
0.0
 41
1.0
 10
935.19189021851855
 20
-1220.4205944314128
 30
0.0
 41
0.9994396597833952
 10
935.12782428198057
 20
-1220.415161509067
 30
0.0
 41
1.0
 10
935.10868361450355
 20
-1220.4135383413486
 30
0.0
 41
1.0
 10
935.08954294702653
 20
-1220.41191517363
 30
0.0
 41
1.0
 10
934.98719567553417
 20
-1220.4032359158468
 30
0.0
 41
0.998769340312155
 10
934.8844920519474
 20
-1220.4047389792993
 30
0.0
 41
1.0
 10
934.87423771771842
 20
-1220.4048890510735
 30
0.0
 41
1.0
 10
934.86398338348943
 20
-1220.4050391228477
 30
0.0
 41
1.0
 10
934.75442761731222
 20
-1220.4066424671353
 30
0.0
 41
0.9989753644966057
 10
934.64546561729708
 20
-1220.4181454740606
 30
0.0
 41
1.0
 10
934.53650361727944
 20
-1220.4296484809859
 30
0.0
 41
0.9983190067305373
 10
934.42960480631359
 20
-1220.4536834727728
 30
0.0
 41
1.0
 10
934.42070385470788
 20
-1220.4556847513354
 30
0.0
 41
1.0
 10
934.41180290310217
 20
-1220.4576860298978
 30
0.0
 41
1.0
 10
934.28710218892331
 20
-1220.4857235788099
 30
0.0
 41
0.9985539388302972
 10
934.16613243524512
 20
-1220.5269872548558
 30
0.0
 41
1.0
 10
934.16378700428515
 20
-1220.5277872986717
 30
0.0
 41
1.0
 10
934.16144157332519
 20
-1220.5285873424873
 30
0.0
 41
1.0
 10
934.03578095772764
 20
-1220.5714511061642
 30
0.0
 41
0.9988468746493737
 10
933.91481061542822
 20
-1220.6261691912259
 30
0.0
 41
1.0
 10
933.91162779343858
 20
-1220.6276088657864
 30
0.0
 41
1.0
 10
933.90844497144894
 20
-1220.6290485403467
 30
0.0
 41
1.0
 10
933.78110898517116
 20
-1220.686645974529
 30
0.0
 41
0.9991322885918755
 10
933.6590084011151
 20
-1220.7546413067107
 30
0.0
 41
1.0
 10
933.64140639006996
 20
-1220.7644435087011
 30
0.0
 41
1.0
 10
933.62380437902482
 20
-1220.7742457106915
 30
0.0
 41
1.0
 10
933.52162769796848
 20
-1220.8311458264716
 30
0.0
 41
0.9993860037849144
 10
933.423686693896
 20
-1220.8950618420597
 30
0.0
 41
1.0
 10
933.41806838104276
 20
-1220.8987283367551
 30
0.0
 41
1.0
 10
933.41245006818951
 20
-1220.9023948314507
 30
0.0
 41
1.0
 10
933.32574568982352
 20
-1220.9589778576476
 30
0.0
 41
0.9998821494955138
 10
933.24081931400974
 20
-1221.0181960877248
 30
0.0
 41
1.0
 10
933.15589293819244
 20
-1221.0774143178048
 30
0.0
 41
0.9997976482744052
 10
933.07341730778421
 20
-1221.1400007258503
 30
0.0
 41
1.0
 10
933.05878104298381
 20
-1221.1511074156267
 30
0.0
 41
1.0
 10
933.04414477818352
 20
-1221.1622141054031
 30
0.0
 41
1.0
 10
932.93239661817063
 20
-1221.2470138930041
 30
0.0
 41
0.9998091630799529
 10
932.82404634014642
 20
-1221.3361142437025
 30
0.0
 41
1.0
 10
932.81104058766709
 20
-1221.3468093441502
 30
0.0
 41
1.0
 10
932.79803483518776
 20
-1221.3575044445979
 30
0.0
 41
1.0
 10
932.66367305220615
 20
-1221.4679949961912
 30
0.0
 41
0.9995035112317322
 10
932.53653717444479
 20
-1221.5867288132038
 30
0.0
 41
1.0
 10
932.5268898640561
 20
-1221.5957385593629
 30
0.0
 41
1.0
 10
932.5172425536673
 20
-1221.6047483055222
 30
0.0
 41
1.0
 10
932.39381949090239
 20
-1221.720014677278
 30
0.0
 41
0.9994630424299369
 10
932.2782110851183
 20
-1221.8431174205132
 30
0.0
 41
1.0
 10
932.2745282463477
 20
-1221.8470390000252
 30
0.0
 41
1.0
 10
932.27084540757721
 20
-1221.8509605795373
 30
0.0
 41
1.0
 10
932.16260267933535
 20
-1221.966220163747
 30
0.0
 41
0.9995160693749906
 10
932.06173664980236
 20
-1222.0879875816208
 30
0.0
 41
1.0
 10
932.05980292972504
 20
-1222.0903220058249
 30
0.0
 41
1.0
 10
932.05786920964772
 20
-1222.0926564300289
 30
0.0
 41
1.0
 10
931.96087062027323
 20
-1222.2097549994901
 30
0.0
 41
0.9996561470514556
 10
931.87014440160453
 20
-1222.3317777619427
 30
0.0
 41
1.0
 10
931.86398673570034
 20
-1222.3400595509879
 30
0.0
 41
1.0
 10
931.85782906979614
 20
-1222.3483413400334
 30
0.0
 41
1.0
 10
931.77941818293448
 20
-1222.4538005243976
 30
0.0
 41
0.99983490551725
 10
931.70489090100637
 20
-1222.5620391080552
 30
0.0
 41
1.0
 10
931.63036361907075
 20
-1222.6702776917241
 30
0.0
 41
0.9999728109573848
 10
931.557440723166
 20
-1222.7796036172711
 30
0.0
 41
1.0
 10
931.55612550775322
 20
-1222.7815753867749
 30
0.0
 41
1.0
 10
931.55481029234056
 20
-1222.7835471562789
 30
0.0
 41
1.0
 10
931.47925696561629
 20
-1222.8968166208253
 30
0.0
 41
0.9999972147395209
 10
931.40423915525093
 20
-1223.0104414636476
 30
0.0
 41
1.0
 10
931.3992676126195
 20
-1223.0179715521335
 30
0.0
 41
1.0
 10
931.39429606998817
 20
-1223.0255016406195
 30
0.0
 41
1.0
 10
931.30933517437552
 20
-1223.1541866603907
 30
0.0
 41
0.9999371979007919
 10
931.22727982497349
 20
-1223.2847435741642
 30
0.0
 41
1.0
 10
931.22377094060732
 20
-1223.2903265022362
 30
0.0
 41
1.0
 10
931.22026205624115
 20
-1223.2959094303083
 30
0.0
 41
1.0
 10
931.13118893811179
 20
-1223.4376322002181
 30
0.0
 41
0.9998272025611418
 10
931.0474455472314
 20
-1223.5825680769576
 30
0.0
 41
1.0
 10
931.03223037520684
 20
-1223.608901191415
 30
0.0
 41
1.0
 10
931.01701520318238
 20
-1223.6352343058725
 30
0.0
 41
1.0
 10
930.90284146825195
 20
-1223.8328364115291
 30
0.0
 41
0.9995217214838064
 10
930.80110177869619
 20
-1224.0371187393914
 30
0.0
 41
1.0
 10
930.79345821606103
 20
-1224.0524661890945
 30
0.0
 41
1.0
 10
930.78581465342586
 20
-1224.0678136387978
 30
0.0
 41
1.0
 10
930.69890936083664
 20
-1224.2423100968781
 30
0.0
 41
0.9998269762607343
 10
930.6185548945648
 20
-1224.4199183836013
 30
0.0
 41
1.0
 10
930.53820042829329
 20
-1224.5975266703231
 30
0.0
 41
0.9998944747386324
 10
930.46303963372668
 20
-1224.7773943959573
 30
0.0
 41
1.0
 10
930.45808596413485
 20
-1224.7892490508766
 30
0.0
 41
1.0
 10
930.45313229454291
 20
-1224.8011037057956
 30
0.0
 41
1.0
 10
930.37248523399148
 20
-1224.9941006458107
 30
0.0
 41
0.999950673441408
 10
930.29568770508899
 20
-1225.1886614506643
 30
0.0
 41
1.0
 10
930.28108773981705
 20
-1225.2256493724731
 30
0.0
 41
1.0
 10
930.26648777454511
 20
-1225.2626372942816
 30
0.0
 41
1.0
 10
930.21889017618196
 20
-1225.3832222555288
 30
0.0
 41
0.9999912393922585
 10
930.17230373216285
 20
-1225.5042014582161
 30
0.0
 41
1.0
 10
930.12571728813487
 20
-1225.6251806609266
 30
0.0
 41
0.9999927113965598
 10
930.0800559937453
 20
-1225.7465120684165
 30
0.0
 41
1.0
 10
930.066087562348
 20
-1225.7836290504142
 30
0.0
 41
1.0
 10
930.05211913095081
 20
-1225.8207460324118
 30
0.0
 41
1.0
 10
929.97852097376051
 20
-1226.0163114039131
 30
0.0
 41
0.9999487550947976
 10
929.90889734878874
 20
-1226.2133267690961
 30
0.0
 41
1.0
 10
929.88530373885487
 20
-1226.2800900793804
 30
0.0
 41
1.0
 10
929.861710128921
 20
-1226.3468533896646
 30
0.0
 41
1.0
 10
929.7670244945482
 20
-1226.614787224496
 30
0.0
 41
0.9999808436942207
 10
929.67566290590366
 20
-1226.883872655769
 30
0.0
 41
1.0
 10
929.58430131726232
 20
-1227.1529580870333
 30
0.0
 41
0.9999873932890966
 10
929.49564660854458
 20
-1227.4229474420456
 30
0.0
 41
1.0
 10
929.47555425167502
 20
-1227.484136774799
 30
0.0
 41
1.0
 10
929.45546189480547
 20
-1227.5453261075527
 30
0.0
 41
1.0
 10
929.32662247234953
 20
-1227.9376941280686
 30
0.0
 41
0.999979488302439
 10
929.20281968739164
 20
-1228.3316803343462
 30
0.0
 41
1.0
 10
929.19166742795346
 20
-1228.3671709445853
 30
0.0
 41
1.0
 10
929.1805151685154
 20
-1228.4026615548244
 30
0.0
 41
1.0
 10
929.03795700461239
 20
-1228.8563343069279
 30
0.0
 41
0.9999982761701056
 10
928.89708456460289
 20
-1229.310533329033
 30
0.0
 41
1.0
 10
927.30894423203029
 20
-1234.3593030600364
 30
0.0
 41
1.0
 10
925.72080389945768
 20
-1239.4080727910396
 30
0.0
 41
1.0
 10
924.77205328798129
 20
-1239.4080727910396
 30
0.0
 41
1.0
 10
923.82330267650491
 20
-1239.4080727910396
 30
0.0
 41
1.0
 10
927.06158716265804
 20
-1229.0807505910934
 30
0.0
 41
1.0
 10
930.29987164881129
 20
-1218.7534283911473
 30
0.0
 41
1.0
  0
LWPOLYLINE
  5
4D
100
AcDbEntity
  8
0
370
              15
390
0
  6
Continuous
 62
               7
100
AcDbPolyline
 90
      232
 70
             128
 10
904.59632587498425
 20
-1219.8377712226625
 42
0.0004370800691959
 10
904.54344870091234
 20
-1219.9064378619184
 10
904.50416446978477
 20
-1219.9575449748154
 42
0.003048199217171
 10
904.37382575268362
 20
-1220.1292666671357
 10
904.33531408091517
 20
-1220.1806534509476
 42
0.0042058245764033
 10
904.131329030232
 20
-1220.4576591960397
 10
904.07892390774464
 20
-1220.5300920428022
 42
0.0120948898744094
 10
903.78287999098211
 20
-1220.9608416473527
 10
903.68668749186156
 20
-1221.1083223825754
 42
0.0141601263947062
 10
903.38304344493929
 20
-1221.6039917193114
 10
903.34350617750772
 20
-1221.6728356867527
 42
0.007113108130372
 10
903.13823385427486
 20
-1222.0423384855812
 42
0.0068458791003417
 10
902.9433543274306
 20
-1222.4174300490597
 10
902.93654246497408
 20
-1222.4309917627811
 42
0.0064120880289223
 10
902.73840021493447
 20
-1222.8384162376899
 10
902.73086552941277
 20
-1222.8544280944211
 42
0.0058857236448259
 10
902.52811013754138
 20
-1223.2988042054556
 10
902.51993521124712
 20
-1223.3172943590901
 42
0.0053189741896757
 10
902.31123089858136
 20
-1223.8032578330037
 10
902.30248309289823
 20
-1223.824239711204
 42
0.0047503650417849
 10
902.08650936674803
 20
-1224.3564391444122
 10
902.07724111839934
 20
-1224.3799155205215
 42
0.0042071762169229
 10
901.85269373467156
 20
-1224.9630091145916
 10
901.84294433232299
 20
-1224.988975289461
 42
0.003668008648511
 10
901.60848968901075
 20
-1225.6276106739931
 10
901.59828190916312
 20
-1225.656059208337
 42
0.0032573142627999
 10
901.35264962319297
 20
-1226.3549118681003
 10
901.28399910235282
 20
-1226.5543749521519
 42
0.0026133366650121
 10
900.93555390359779
 20
-1227.5842382358151
 10
900.87229711609712
 20
-1227.7744690712079
 42
0.0020592950739362
 10
900.65843404712996
 20
-1228.4265727238212
 10
900.65538225597163
 20
-1228.436009212216
 42
0.0025609928533873
 10
900.45356175448103
 20
-1229.0711544345968
 10
900.45097038735128
 20
-1229.0794567755472
 42
0.0031362356242951
 10
900.26147960167737
 20
-1229.7002196317169
 10
900.25934855875028
 20
-1229.707360937927
 42
0.0037229918030943
 10
900.08254817182365
 20
-1230.316346239902
 10
900.08086958261606
 20
-1230.3222931300807
 42
0.0043077623707331
 10
899.91712878055216
 20
-1230.9221118618457
 42
0.0047654161821928
 10
899.76430005803581
 20
-1231.524797950749
 10
899.72983544919703
 20
-1231.6663597278975
 42
0.0112969368443199
 10
899.53397109105424
 20
-1232.5580518885181
 10
899.50596470195683
 20
-1232.7008799346197
 42
0.0130056762570148
 10
899.30512745831015
 20
-1233.8878210062646
 10
899.28458770816292
 20
-1234.0318991197432
 42
0.0138721532145176
 10
899.18088470362522
 20
-1234.9387286055673
 10
899.16158921571719
 20
-1235.1622263274944
 42
0.0071254697009206
 10
899.12824256979479
 20
-1235.6254133363395
 10
899.12328159563219
 20
-1235.7114173308873
 42
0.0028881799202236
 10
899.10814330234166
 20
-1236.0031590407425
 42
0.0060297297130646
 10
899.09821110256632
 20
-1236.2951079768461
 10
899.09714882089895
 20
-1236.3435003487914
 42
0.0229523164157418
 10
899.10487984868473
 20
-1236.666255195074
 10
899.10910562220511
 20
-1236.7266587290894
 42
0.0123673300666928
 10
899.12818426872343
 20
-1236.927779454265
 42
0.0128577674467638
 10
899.15737965912933
 20
-1237.1276773041893
 10
899.16450553251673
 20
-1237.1690061187887
 42
0.0285717853763926
 10
899.22899953421245
 20
-1237.4471222701018
 10
899.24266805787886
 20
-1237.4937770395791
 42
0.0316283099153373
 10
899.35847863779304
 20
-1237.812791541405
 10
899.36152732954861
 20
-1237.8197779137306
 42
0.0338984824234845
 10
899.51095904051579
 20
-1238.1073438779197
 10
899.51326776988617
 20
-1238.1111349071964
 42
0.0350228718351254
 10
899.69562806055922
 20
-1238.3681868918725
 10
899.6965133123341
 20
-1238.3692659696364
 42
0.0347476747530243
 10
899.91093799957434
 20
-1238.5964510168565
 42
0.0331337701909162
 10
900.15418132532091
 20
-1238.7925796789343
 10
900.15528142383687
 20
-1238.7933523821066
 42
0.0305233319079248
 10
900.42382611941002
 20
-1238.9584805521977
 10
900.4270561639114
 20
-1238.9602045640604
 42
0.0273744481157507
 10
900.71960987548698
 20
-1239.0963427079514
 10
900.72471441062328
 20
-1239.0983862924206
 42
0.0240964406196282
 10
901.04019148626878
 20
-1239.2073700187018
 10
901.04677481547901
 20
-1239.2092947583769
 42
0.0209636179812975
 10
901.38417496813292
 20
-1239.2927629063095
 10
901.39180742858025
 20
-1239.2943148193106
 42
0.0181388704693399
 10
901.75012982057876
 20
-1239.3537309125245
 10
901.75841066895691
 20
-1239.3547970963416
 42
0.015608654758589
 10
902.13659803314567
 20
-1239.3915332829183
 10
902.17979328547915
 20
-1239.3943717853977
 42
0.0137148329026488
 10
902.50746643077161
 20
-1239.4068920406485
 10
902.55340262071343
 20
-1239.4073864737636
 42
0.0051057823887141
 10
902.78954820728984
 20
-1239.4075167281731
 42
0.0052256693311805
 10
903.02564549107444
 20
-1239.4027679037085
 10
903.09587227481791
 20
-1239.4006209376946
 42
0.0161507179048104
 10
903.47160935291924
 20
-1239.3769705673681
 10
903.49162231329228
 20
-1239.3750603720805
 42
0.0101216737832719
 10
903.90564953478167
 20
-1239.3270674417151
 10
903.93970282420969
 20
-1239.3224197449053
 42
0.0245291776397457
 10
904.41649247975909
 20
-1239.2333446668295
 10
904.50131579528295
 20
-1239.2131487464837
 42
0.014350921255892
 10
904.85794689922443
 20
-1239.1173441127044
 42
0.0156557857041937
 10
905.20816296395094
 20
-1239.0003328968858
 10
905.21566417844633
 20
-1238.9975627351314
 42
0.0170137333631318
 10
905.57226017412859
 20
-1238.85190512026
 10
905.57936409653519
 20
-1238.8487172846967
 42
0.0183105364409703
 10
905.93871376470281
 20
-1238.6713822428717
 10
905.94566052934022
 20
-1238.6676318080004
 42
0.0194899958149863
 10
906.30414127032441
 20
-1238.4556528261094
 10
906.31115514966086
 20
-1238.4511274838146
 42
0.0204869852950445
 10
906.66516945175624
 20
-1238.2016074687276
 10
906.67243506034185
 20
-1238.1960274033804
 42
0.0212516938555694
 10
907.01842499145016
 20
-1237.9061234064854
 10
907.0649416855241
 20
-1237.8636560963935
 42
0.0215248918250838
 10
907.32496785441322
 20
-1237.6048918173974
 10
907.36999758878915
 20
-1237.5560476960527
 42
0.0114578554953019
 10
907.52478974247106
 20
-1237.3802247625895
 10
907.53598427844099
 20
-1237.3669059990639
 42
0.0061531305117666
 10
907.66245892445215
 20
-1237.2126164657384
 42
0.0006325587120629
 10
907.78683740858332
 20
-1237.0566130900884
 10
907.80987754365538
 20
-1237.0276395694032
 42
0.0041897761554223
 10
907.97833294762052
 20
-1236.8121201933511
 10
908.0367950675203
 20
-1236.7360188463563
 42
0.0092993880039111
 10
908.31340699474765
 20
-1236.3617400824671
 10
908.39580148794039
 20
-1236.2458030789071
 42
0.0159321727087909
 10
908.7424079705853
 20
-1235.7236288581475
 10
908.7867641059712
 20
-1235.6519492939026
 42
0.0085547317020393
 10
909.02127587130008
 20
-1235.2580743446729
 42
0.0084601156889796
 10
909.24225204874233
 20
-1234.8564474956406
 10
909.25036752257256
 20
-1234.8410878133677
 42
0.0081429654285291
 10
909.47361679301139
 20
-1234.4013663008243
 10
909.48247695719408
 20
-1234.3831874588077
 42
0.0076574581328677
 10
909.70888446776098
 20
-1233.9000045835539
 10
909.71836410848448
 20
-1233.8789401052513
 42
0.0070682724199216
 10
909.94880901629006
 20
-1233.3469028004733
 10
909.95879930027297
 20
-1233.3229136114587
 42
0.0064559514449726
 10
910.19413250845673
 20
-1232.7366013449341
 10
910.20454186661959
 20
-1232.7096664194974
 42
0.0058311413906422
 10
910.44558860337986
 20
-1232.063634325121
 10
910.45634368076992
 20
-1232.0337499839534
 42
0.0052312425819601
 10
910.70392495881345
 20
-1231.3225475701106
 10
910.71496879519054
 20
-1231.2897208580489
 42
0.0046680544797109
 10
910.96989722292221
 20
-1230.5078945423031
 10
911.01188937296331
 20
-1230.3749113050189
 42
0.004166685644559
 10
911.21517538536364
 20
-1229.7119425299966
 10
911.25283782602673
 20
-1229.5853614223452
 42
0.0015170975158235
 10
911.37402440444043
 20
-1229.1734930708492
 42
-0.0004887993109788
 10
911.49436417760501
 20
-1228.7613746586655
 10
911.57084143505858
 20
-1228.5004172728661
 42
0.0002583378927851
 10
911.84405600512878
 20
-1227.566360569667
 10
911.92582885467425
 20
-1227.2862613101906
 42
0.0006636169672048
 10
912.11969661471085
 20
-1226.618908386517
 10
912.12479326907146
 20
-1226.6012768035901
 42
0.001058913132359
 10
912.30624196997451
 20
-1225.9685454605881
 10
912.31122404044811
 20
-1225.9510325535923
 42
0.0015655524461306
 10
912.47949424763783
 20
-1225.3524158743671
 10
912.48432444805621
 20
-1225.3350237154191
 42
0.0021640440476036
 10
912.63861442003872
 20
-1224.7699966974133
 10
912.64324863947218
 20
-1224.7527319674064
 42
0.0028763871852605
 10
912.78276435752173
 20
-1224.2207640165723
 10
912.78715022168842
 20
-1224.20364003842
 42
0.0037310511946031
 10
912.91110691352583
 20
-1223.7041924443938
 10
912.91518213381289
 20
-1223.6872321731564
 42
0.0047652197767401
 10
913.02280603432325
 20
-1223.2197544048433
 10
913.02649663364798
 20
-1223.202994849687
 42
0.0060276699306858
 10
913.11702673280024
 20
-1222.7669190545491
 10
913.12024542308689
 20
-1222.750417840253
 42
0.0075824337756349
 10
913.19293473250491
 20
-1222.3451506758138
 10
913.19558010988442
 20
-1222.3289957283682
 42
0.009513062460807
 10
913.24969534551633
 20
-1221.9539063752914
 10
913.25668156939889
 20
-1221.8979728171746
 42
0.0121054653234112
 10
913.28327289997685
 20
-1221.6330769887011
 10
913.28413938973688
 20
-1221.6216735457647
 42
0.0069050827395746
 10
913.29922820777415
 20
-1221.3787323189276
 10
913.30036350744228
 20
-1221.3552060618902
 42
0.016906397669626
 10
913.30319078642287
 20
-1221.1590133345821
 10
913.30202013489202
 20
-1221.0986775732492
 42
0.0052007732885467
 10
913.29976668629865
 20
-1221.023084183081
 42
0.0054038123292089
 10
913.27980317446122
 20
-1220.9030658870788
 10
913.27471731858941
 20
-1220.8744074004899
 42
0.0112050460458512
 10
913.23933295653046
 20
-1220.6980809621493
 10
913.22150799449014
 20
-1220.6185393754299
 42
0.024076446800975
 10
913.13061062834413
 20
-1220.2883023399293
 10
913.11205186553093
 20
-1220.2316821749359
 42
0.0256812331834053
 10
912.968688945341
 20
-1219.8599579686777
 10
912.96327951951946
 20
-1219.8478266336876
 42
0.0268360501217043
 10
912.79385227866976
 20
-1219.516833499667
 10
912.78831587103537
 20
-1219.5073138293558
 42
0.0274670231731511
 10
912.59611489462145
 20
-1219.2150264544375
 10
912.59073359465879
 20
-1219.2077473068962
 42
0.0275035967101781
 10
912.37916071509699
 20
-1218.952231416592
 10
912.37409121413066
 20
-1218.9467523289618
 42
0.0269557673526001
 10
912.14668767069088
 20
-1218.7261100429992
 10
912.14194461290776
 20
-1218.721980088538
 42
0.0259124802208897
 10
911.9023897814775
 20
-1218.5342895613862
 10
911.89785893629505
 20
-1218.5311040590555
 42
0.0245162153003859
 10
911.64994258320075
 20
-1218.3743710499452
 10
911.64541603687599
 20
-1218.3718108527441
 42
0.0229282588838199
 10
911.39299648004919
 20
-1218.2439426602455
 10
911.38821598621178
 20
-1218.2417903604833
 42
0.0212984135693725
 10
911.13517803375066
 20
-1218.1405914432412
 10
911.12987374878207
 20
-1218.1387278804816
 42
0.0197555462341033
 10
910.88009541105816
 20
-1218.0619124625164
 42
0.0183511896788373
 10
910.62516668559488
 20
-1218.0043295555511
 10
910.53880148887231
 20
-1217.988126765166
 42
0.0338057877150354
 10
910.25329413961174
 20
-1217.9543183600258
 10
910.16228873457555
 20
-1217.9497387047645
 42
0.0091990524488461
 10
910.0564416259358
 20
-1217.9463628488422
 42
0.0028333980777286
 10
909.9505277099438
 20
-1217.9455347413254
 10
909.94961225689349
 20
-1217.9455327715013
 42
-0.002361982781209
 10
909.84186624179131
 20
-1217.944791930423
 10
909.80546107161172
 20
-1217.94436962396
 42
0.0008824598485377
 10
909.62490508169446
 20
-1217.9425938457211
 10
909.58104364935593
 20
-1217.9422398841962
 42
0.0038132665768074
 10
909.31276075349149
 20
-1217.9421209481293
 10
909.29622709868363
 20
-1217.942239714273
 42
0.0060665569335557
 10
908.9949466070974
 20
-1217.9480600136937
 10
908.98069627506698
 20
-1217.9485083216614
 42
0.0080356953336912
 10
908.65123755872389
 20
-1217.9641760437285
 10
908.6391675436405
 20
-1217.9649446266687
 42
0.0098996399105945
 10
908.28640445898736
 20
-1217.9944298558671
 10
908.27635874961493
 20
-1217.9954701520651
 42
0.0117740981366489
 10
907.90520189126732
 20
-1218.0427623995947
 10
907.89697919478363
 20
-1218.0440075161657
 42
0.0137435215135065
 10
907.51239037529808
 20
-1218.1131044897274
 10
907.50573333617513
 20
-1218.1144903859608
 42
0.015835986938262
 10
907.11273624237356
 20
-1218.2093824744413
 10
907.1073230555055
 20
-1218.2108724153122
 42
0.018055412402713
 10
906.71100801089335
 20
-1218.3355104315508
 10
906.70645122280973
 20
-1218.3371264678171
 42
0.0203657431282945
 10
906.3119737049991
 20
-1218.4953868093328
 10
906.30783016599105
 20
-1218.497248430775
 42
0.022681968465513
 10
905.92039410978794
 20
-1218.6928910094455
 10
905.91619431876927
 20
-1218.6952566013656
 42
0.0248634984606092
 10
905.5410123775888
 20
-1218.9318832473125
 10
905.49281744880352
 20
-1218.9657402891391
 42
0.0267044190885524
 10
905.21852475188757
 20
-1219.1811806650067
 42
0.0139303002197481
 10
904.9623575859506
 20
-1219.418419505917
 10
904.95750420022785
 20
-1219.4231721687788
 42
0.0283460963442526
 10
904.71343160599974
 20
-1219.690902829225
 10
904.6737631008441
 20
-1219.739704406697
 42
0.0070695364826285
 10
904.59632587498425
 20
-1219.8377712226625
 42
0.0070695364826285
  0
LWPOLYLINE
  5
4E
100
AcDbEntity
  8
0
370
              15
390
0
  6
Continuous
 62
               7
100
AcDbPolyline
 90
      226
 70
             128
 10
901.06750543773785
 20
-1235.5593600288464
 42
-0.0026277636608668
 10
901.06742755393782
 20
-1235.4925881030817
 10
901.06764491216984
 20
-1235.4394328856602
 42
-0.0088680296719742
 10
901.07142152846313
 20
-1235.2664171032495
 10
901.07376788757529
 20
-1235.2071370778035
 42
-0.0077381705617092
 10
901.08981399833817
 20
-1234.9158765820091
 10
901.09068190951155
 20
-1234.9035883483202
 42
-0.006887253053131
 10
901.11731398925883
 20
-1234.5883665962608
 10
901.11851821344578
 20
-1234.5761256172327
 42
-0.0062130021484136
 10
901.15611193027439
 20
-1234.2372559259875
 10
901.15761583380868
 20
-1234.2250820540776
 42
-0.005672692966261
 10
901.20653769331216
 20
-1233.8628868319558
 10
901.20831113895542
 20
-1233.8507930317187
 42
-0.0052341884491334
 10
901.26892172521434
 20
-1233.465599776207
 10
901.27093971399199
 20
-1233.4535948462085
 42
-0.0049768450170808
 10
901.3436783954179
 20
-1233.045750278779
 10
901.36792741014017
 20
-1232.91720229577
 42
-0.0089029805624026
 10
901.5050082619357
 20
-1232.2554268483441
 10
901.53775363725345
 20
-1232.1103954178241
 42
-0.0080318257100647
 10
901.76730225159565
 20
-1231.1646857859646
 10
901.77928717804241
 20
-1231.1185551507801
 42
-0.0074265721319319
 10
902.06329871689195
 20
-1230.0884905724013
 10
902.08317826000621
 20
-1230.0203565118204
 42
-0.00697119227034
 10
902.41048283851569
 20
-1228.9540887714825
 10
902.47043478562171
 20
-1228.7680674131104
 42
-0.005207042289633
 10
902.69986001088046
 20
-1228.0807953360804
 10
902.71714120305626
 20
-1228.0307680554531
 42
-0.0009167004448166
 10
902.92023309034221
 20
-1227.4463122073093
 42
-0.0025162726947047
 10
903.12733072059621
 20
-1226.8632709431704
 10
903.16455533241003
 20
-1226.7601213972414
 42
-0.0028212681457016
 10
903.41273125137332
 20
-1226.0843907650701
 10
903.42256201412999
 20
-1226.0580833203771
 42
-0.00319649168192
 10
903.65885427178625
 20
-1225.4378785582664
 10
903.66848872578657
 20
-1225.4130685681196
 42
-0.0036281836450875
 10
903.89359468688644
 20
-1224.84562788723
 10
903.90303309704564
 20
-1224.822330455723
 42
-0.0041269166833236
 10
904.11765079370309
 20
-1224.304889559749
 10
904.15028375012298
 20
-1224.2280111133898
 42
-0.004747221305617
 10
904.30732855567749
 20
-1223.8675896455045
 10
904.31422263688773
 20
-1223.852169048168
 42
-0.0025651659996072
 10
904.46258067073586
 20
-1223.5248409924241
 42
-0.0057144634997853
 10
904.61633036450633
 20
-1223.2000313190631
 10
904.6443610699049
 20
-1223.1425229366746
 42
-0.0065388068375537
 10
904.82782809764819
 20
-1222.7782904400024
 10
904.83628655342488
 20
-1222.7620308606363
 42
-0.0074510843021667
 10
905.01246879930454
 20
-1222.4353425795102
 10
905.02064846983785
 20
-1222.4207018022373
 42
-0.0084648979862929
 10
905.19028232293567
 20
-1222.1287927912801
 10
905.19813844941734
 20
-1222.11578579964
 42
-0.0095638542813491
 10
905.36197389701795
 20
-1221.8558969276507
 10
905.36944884069146
 20
-1221.8445275661927
 42
-0.0107191626802504
 10
905.52825042107725
 20
-1221.6139163316511
 10
905.53526715480757
 20
-1221.6041802392874
 42
-0.0118458573901384
 10
905.68981525332083
 20
-1221.4001080439759
 42
-0.0129184518193446
 10
905.85426787692177
 20
-1221.2039475278063
 10
905.88441264928747
 20
-1221.1698214489038
 42
-0.02177425796298
 10
906.06102497162078
 20
-1220.9866146786558
 10
906.0717705160755
 20
-1220.9763978454582
 42
-0.0097266568651055
 10
906.23782813493699
 20
-1220.8245502710156
 42
-0.0187720905728109
 10
906.41217571082154
 20
-1220.6824814176302
 10
906.44288170149798
 20
-1220.6593223352322
 42
-0.017942820752072
 10
906.67530242149678
 20
-1220.4967701581186
 10
906.67895474841396
 20
-1220.49440622323
 42
-0.0170047877699502
 10
906.91471838594293
 20
-1220.3529457090794
 10
906.91850137469214
 20
-1220.3508474040416
 42
-0.0160190788367999
 10
907.15540992232479
 20
-1220.2291961020551
 42
-0.0151102861496382
 10
907.39944170477122
 20
-1220.1225133260004
 10
907.45182820698324
 20
-1220.1014731931057
 42
-0.0271945441887192
 10
907.81049076604165
 20
-1219.9796083823996
 10
907.87955556653117
 20
-1219.9602588411331
 42
-0.0237596594021696
 10
908.29535241355211
 20
-1219.8648081291517
 10
908.36341526728256
 20
-1219.8525534410251
 42
-0.0213715440554746
 10
908.64929019872784
 20
-1219.8136064095152
 10
908.70943736494155
 20
-1219.8080166948146
 42
-0.010146565581566
 10
908.87692989693994
 20
-1219.79587315155
 10
908.88627028313556
 20
-1219.795386236553
 42
-0.0100375910879793
 10
909.03542438370073
 20
-1219.7906104186277
 10
909.04568365337718
 20
-1219.7904879796133
 42
-0.0103625633384181
 10
909.17439164803591
 20
-1219.7916194131399
 10
909.19665729930318
 20
-1219.7922767716047
 42
-0.0115689250225718
 10
909.28070803683079
 20
-1219.7967062778498
 42
-0.0072438037433685
 10
909.36454631627089
 20
-1219.8042954775995
 10
909.38134682574275
 20
-1219.8060620203235
 42
-0.0217917313134732
 10
909.49791658905451
 20
-1219.8234819130441
 10
909.56351667962645
 20
-1219.8362285214596
 42
-0.0332943556749213
 10
909.7679088446514
 20
-1219.890268812766
 10
909.79808141320382
 20
-1219.9004368898852
 42
-0.0184824084788148
 10
909.93658646966696
 20
-1219.9528879052709
 42
-0.0198002050689465
 10
910.07066081016615
 20
-1220.0157719654703
 10
910.07254744754323
 20
-1220.0167497523503
 42
-0.0212242342982324
 10
910.20468638994589
 20
-1220.0925124911439
 10
910.20650168548855
 20
-1220.0936582933518
 42
-0.0226090605805313
 10
910.33500558671074
 20
-1220.1831379369166
 10
910.33685002844777
 20
-1220.1845501899038
 42
-0.0238457052245872
 10
910.4600321097405
 20
-1220.288546085766
 10
910.46198483829971
 20
-1220.2903609635323
 42
-0.0248160564157572
 10
910.57818634559987
 20
-1220.4096355647405
 10
910.58028997900237
 20
-1220.4120208984455
 42
-0.0254109591459934
 10
910.68789519686845
 20
-1220.5473092844099
 10
910.6901432187824
 20
-1220.5504508328104
 42
-0.0255528488285827
 10
910.78758989758001
 20
-1220.7024778870452
 10
910.78992099749576
 20
-1220.706559498652
 42
-0.0252146793219262
 10
910.87570202350503
 20
-1220.8760617446496
 10
910.87800426266244
 20
-1220.881243826562
 42
-0.0244265635947783
 10
910.95065895642415
 20
-1221.068990398609
 10
910.95990535789269
 20
-1221.0968558169475
 42
-0.0231319612902914
 10
911.00582813688436
 20
-1221.2601568637481
 42
-0.0112130424358419
 10
911.04046415942298
 20
-1221.426360463938
 10
911.04166668453513
 20
-1221.4328570508242
 42
-0.0210527881241506
 10
911.06735315990591
 20
-1221.6139126962657
 10
911.07086375472772
 20
-1221.6493182448125
 42
-0.0190029892425786
 10
911.08630522827229
 20
-1221.9028540910815
 10
911.08711520471638
 20
-1221.9383297054537
 42
-0.0137974553662238
 10
911.08556635188097
 20
-1222.2633611121837
 10
911.08472089692555
 20
-1222.2894798567715
 42
-0.0081336634217735
 10
911.06986156170274
 20
-1222.5948273243794
 42
-0.0073526923576519
 10
911.0455530283283
 20
-1222.8995755686633
 10
911.04429160454538
 20
-1222.9129122433305
 42
-0.0066886138696373
 10
911.00855601850117
 20
-1223.243498286809
 10
911.00689892902892
 20
-1223.2571199058193
 42
-0.0061359187361477
 10
910.95904832698011
 20
-1223.6138838859049
 10
910.95701082590517
 20
-1223.6277786887485
 42
-0.005669861006001
 10
910.89636049513717
 20
-1224.0110572575925
 10
910.89395506181518
 20
-1224.0252163768173
 42
-0.0052721077271153
 10
910.81982286101743
 20
-1224.4353437164852
 10
910.81705971217377
 20
-1224.4497603518812
 42
-0.0049289272177728
 10
910.72876559407416
 20
-1224.8870688630016
 10
910.72565309939114
 20
-1224.9017377158193
 42
-0.004741595671182
 10
910.62241510785884
 20
-1225.3665344732299
 10
910.5876468974991
 20
-1225.5163415686131
 42
-0.0084404470905304
 10
910.39763045392795
 20
-1226.2765655931416
 10
910.39150376594159
 20
-1226.2994297172977
 42
-0.0039635940257047
 10
910.17005008165768
 20
-1227.1004185815448
 10
910.15667328647805
 20
-1227.1473501981368
 42
-0.0072475040837385
 10
909.88922639861846
 20
-1228.0365699145161
 10
909.81901407179146
 20
-1228.2583102644874
 42
-0.0051345458829167
 10
909.5322546997287
 20
-1229.1326354523103
 10
909.51072843295651
 20
-1229.1960617194543
 42
-0.0019150016601091
 10
909.2551950260945
 20
-1229.9396108396663
 10
909.24872742170169
 20
-1229.9581983045775
 42
-0.0021524362752881
 10
909.00024937063449
 20
-1230.6625241262959
 10
908.99103894992834
 20
-1230.6882777046246
 42
-0.0024331286818218
 10
908.75478369090206
 20
-1231.3388770127153
 10
908.74573573834994
 20
-1231.3634203190741
 42
-0.0027449721789461
 10
908.52112116751607
 20
-1231.9625501979942
 10
908.51223116013296
 20
-1231.9858727878227
 42
-0.0031083229770231
 10
908.29868867351388
 20
-1232.5357968254261
 10
908.28995254183644
 20
-1232.5578865412886
 42
-0.0035311343283131
 10
908.08691135624645
 20
-1233.060869667014
 10
908.07832601709913
 20
-1233.0817123905235
 42
-0.0040245640948877
 10
907.88521421330438
 20
-1233.5400217131169
 10
907.87677809969796
 20
-1233.5596010811967
 42
-0.0046015135849637
 10
907.69302180653756
 20
-1233.975506110831
 10
907.6847356287127
 20
-1233.9938032502757
 42
-0.0052768638267054
 10
907.50975810975365
 20
-1234.3695761345534
 10
907.50162589912986
 20
-1234.38656947309
 42
-0.0060672675646069
 10
907.33484628636074
 20
-1234.7244850962109
 10
907.32687680588197
 20
-1234.7401503552026
 42
-0.0069904648875863
 10
907.16770841187781
 20
-1235.0424861618717
 10
907.15991701226267
 20
-1235.0567967111069
 42
-0.0080637022764263
 10
907.00776515192115
 20
-1235.3258320142522
 10
907.00017611929013
 20
-1235.3387598798527
 42
-0.0093006455662364
 10
906.85443544275836
 20
-1235.576774278356
 10
906.84708477601657
 20
-1235.5882922475262
 42
-0.0107060778059551
 10
906.7071362325762
 20
-1235.7975625649083
 10
906.70007446429724
 20
-1235.8076481074734
 42
-0.012272311141508
 10
906.56528074609855
 20
-1235.990441436963
 10
906.56495452253762
 20
-1235.9908618247814
 42
-0.0141836319627482
 10
906.42137291957033
 20
-1236.1654315826022
 10
906.41442516391794
 20
-1236.1734065828675
 42
-0.0175957477207174
 10
906.27451899588368
 20
-1236.3230274712719
 42
-0.0080466359680596
 10
906.12705523085583
 20
-1236.4653499994208
 10
906.08102068633605
 20
-1236.5083704375143
 42
-0.0269600260395902
 10
905.82774044035352
 20
-1236.7206936960231
 10
905.76117330405248
 20
-1236.7706451106501
 42
-0.0178362839751624
 10
905.52122881440027
 20
-1236.9376630368997
 10
905.51398384340109
 20
-1236.9423315491038
 42
-0.0174650732652146
 10
905.2776476459585
 20
-1237.0831925140637
 42
-0.0169240130163348
 10
905.03218140009903
 20
-1237.207484773842
 10
904.98619524454307
 20
-1237.2288467294084
 42
-0.03188830368418
 10
904.63584438892519
 20
-1237.3651850389178
 10
904.56747885375785
 20
-1237.386885659394
 42
-0.0284435909903825
 10
904.19142872746727
 20
-1237.4831030948685
 10
904.15627056696667
 20
-1237.4899966906974
 42
-0.0243909341014052
 10
903.84282710604975
 20
-1237.5357177217272
 10
903.79254637928307
 20
-1237.5405632686286
 42
-0.0196639292930916
 10
903.57695080175131
 20
-1237.5528115541424
 10
903.52512673058823
 20
-1237.5537148148792
 42
-0.0100501510681314
 10
903.41270344892359
 20
-1237.553414416526
 10
903.38104358754617
 20
-1237.5526933446399
 42
-0.0019752031102575
 10
903.33195125089821
 20
-1237.5513811844312
 10
903.32919094767999
 20
-1237.5512964926049
 42
0.0065378751991828
 10
903.28561437292137
 20
-1237.5505296013898
 42
-0.0167974694687804
 10
903.24208354999348
 20
-1237.5488697028638
 10
903.23800421072747
 20
-1237.5485766919687
 42
-0.0081283276280967
 10
903.18644441298738
 20
-1237.5440296983309
 10
903.17470483911029
 20
-1237.5428017807526
 42
-0.0126703440183889
 10
903.09998654331741
 20
-1237.5330669896812
 10
903.07719867564015
 20
-1237.5295087337659
 42
-0.0117852088426585
 10
902.95765968980265
 20
-1237.5079457386078
 10
902.90227923804468
 20
-1237.4966021983741
 42
-0.025177459229294
 10
902.67543519903802
 20
-1237.4381041889417
 10
902.63071600918363
 20
-1237.4241373696052
 42
-0.014652519988295
 10
902.44432302164728
 20
-1237.3598708424079
 42
-0.0166929435854634
 10
902.26234536552101
 20
-1237.2840637093534
 10
902.25768873424749
 20
-1237.2819388087391
 42
-0.0191684358438663
 10
902.07250510299923
 20
-1237.1887027249497
 10
902.06917251724121
 20
-1237.1868614773957
 42
-0.0221181781813434
 10
901.88586221333844
 20
-1237.0747279790246
 10
901.88351240933059
 20
-1237.073143681034
 42
-0.0254984685387022
 10
901.70722225894519
 20
-1236.9407325310642
 10
901.6847401112434
 20
-1236.9219802221282
 42
-0.0292492648806343
 10
901.55997117240031
 20
-1236.8048874224851
 42
-0.0159048957495093
 10
901.44613117495066
 20
-1236.6768674308867
 10
901.44481238437083
 20
-1236.6752858178661
 42
-0.0343813379558462
 10
901.34217512274461
 20
-1236.5334144920964
 10
901.31068359138294
 20
-1236.4829111000013
 42
-0.0369117275698362
 10
901.22479108948653
 20
-1236.319433859054
 42
-0.0191751379920098
 10
901.1575977039297
 20
-1236.1470292530482
 10
901.15583438017006
 20
-1236.1419359083732
 42
-0.0378178042228349
 10
901.10603966138569
 20
-1235.9529951322913
 10
901.10004436565589
 20
-1235.9204345140972
 42
-0.0184846046476622
 10
901.07932716636105
 20
-1235.77868169355
 42
-0.0179866351323981
 10
901.06899416128738
 20
-1235.6357908804669
 10
901.06893771884165
 20
-1235.6342331938563
 42
-0.0085497186109164
 10
901.06750543773785
 20
-1235.5593600288464
 42
-0.0085497186109164
  0
ENDBLK
  5
4F
100
AcDbEntity
  8
template
390
0
100
AcDbBlockEnd
  0
BLOCK
  5
50
100
AcDbEntity
  8
notes
390
0
100
AcDbBlockBegin
  2
*D2
 70
               1
 10
0.0
 20
0.0
 30
0.0
  3
*D2
  1

  0
LINE
  5
51
100
AcDbEntity
  8
0
370
              -2
390
0
  6
Continuous
 62
               0
100
AcDbLine
 10
-713.40351350967376
 20
567.5
 30
0.0
 11
-713.40351350967376
 21
867.52702270338773
 31
0.0
  0
LINE
  5
52
100
AcDbEntity
  8
0
370
              -2
390
0
  6
Continuous
 62
               0
100
AcDbLine
 10
-263.28346048537378
 20
567.5
 30
0.0
 11
-263.28346048537378
 21
867.52702270338773
 31
0.0
  0
LINE
  5
53
100
AcDbEntity
  8
0
370
              -2
390
0
  6
Continuous
 62
               0
100
AcDbLine
 10
-713.40351350967376
 20
867.52702270338773
 30
0.0
 11
-263.28346048537378
 21
867.52702270338773
 31
0.0
  0
CIRCLE
  5
54
102
{ACAD_REACTORS
330
55
102
}
100
AcDbEntity
  8
0
370
              -2
390
0
  6
Continuous
 62
               0
100
AcDbCircle
 10
-713.40351350967376
 20
867.52702270338773
 30
0.0
 40
4.99969482421875
  0
HATCH
  5
55
100
AcDbEntity
  8
0
370
              -2
390
0
  6
Continuous
 62
               0
100
AcDbHatch
 10
0.0
 20
0.0
 30
0.0
210
0.0
220
0.0
230
1.0
  2
SOLID
 70
               1
 71
               1
 91
        1
 92
        1
 93
        1
 72
               2
 10
-713.40351350967376
 20
867.52702270338773
 40
4.99969482421875
 50
0.0
 51
360.0
 73
               0
 97
        1
330
54
 75
               0
 76
               1
 98
        1
 10
0.0
 20
0.0
  0
CIRCLE
  5
56
102
{ACAD_REACTORS
330
57
102
}
100
AcDbEntity
  8
0
370
              -2
390
0
  6
Continuous
 62
               0
100
AcDbCircle
 10
-263.28346048537378
 20
867.52702270338773
 30
0.0
 40
4.99969482421875
  0
HATCH
  5
57
100
AcDbEntity
  8
0
370
              -2
390
0
  6
Continuous
 62
               0
100
AcDbHatch
 10
0.0
 20
0.0
 30
0.0
210
0.0
220
0.0
230
1.0
  2
SOLID
 70
               1
 71
               1
 91
        1
 92
        1
 93
        1
 72
               2
 10
-263.28346048537378
 20
867.52702270338773
 40
4.99969482421875
 50
0.0
 51
360.0
 73
               0
 97
        1
330
56
 75
               0
 76
               1
 98
        1
 10
0.0
 20
0.0
  0
MTEXT
  5
58
100
AcDbEntity
  8
0
390
0
 62
               0
100
AcDbMText
 10
-512.14416429214918
 20
901.40463989088767
 30
0.0
 40
24.432617187500004
 41
0.0
 71
               1
 72
               1
  1
450
  7
ＭＳ ゴシック
 73
               1
 44
0.7828267384257843
  0
POINT
  5
59
100
AcDbEntity
  8
Defpoints
370
               0
390
0
 62
               0
100
AcDbPoint
 10
-263.28346048537378
 20
542.5
 30
0.0
  0
POINT
  5
5A
100
AcDbEntity
  8
Defpoints
370
               0
390
0
 62
               0
100
AcDbPoint
 10
-713.40351350967376
 20
542.5
 30
0.0
  0
POINT
  5
5B
100
AcDbEntity
  8
Defpoints
370
               0
390
0
 62
               0
100
AcDbPoint
 10
-713.40351350967376
 20
867.52702270338773
 30
0.0
  0
ENDBLK
  5
5C
100
AcDbEntity
  8
notes
390
0
100
AcDbBlockEnd
  0
BLOCK
  5
5D
100
AcDbEntity
  8
notes
390
0
100
AcDbBlockBegin
  2
*D3
 70
               1
 10
0.0
 20
0.0
 30
0.0
  3
*D3
  1

  0
LINE
  5
5E
100
AcDbEntity
  8
0
370
              -2
390
0
  6
Continuous
 62
               0
100
AcDbLine
 10
602.79655882431803
 20
-450.5784464345308
 30
0.0
 11
681.37090173566844
 21
-450.5784464345308
 31
0.0
  0
LINE
  5
5F
100
AcDbEntity
  8
0
370
              -2
390
0
  6
Continuous
 62
               0
100
AcDbLine
 10
606.37563976471802
 20
-458.5784464345308
 30
0.0
 11
681.37090173566844
 21
-458.5784464345308
 31
0.0
  0
LINE
  5
60
100
AcDbEntity
  8
0
370
              -2
390
0
  6
Continuous
 62
               0
100
AcDbLine
 10
681.37090173566844
 20
-450.5784464345308
 30
0.0
 11
681.37090173566844
 21
-387.02912732650617
 31
0.0
  0
LINE
  5
61
100
AcDbEntity
  8
0
370
              -2
390
0
  6
Continuous
 62
               0
100
AcDbLine
 10
681.37090173566844
 20
-450.5784464345308
 30
0.0
 11
681.37090173566844
 21
-458.5784464345308
 31
0.0
  0
CIRCLE
  5
62
102
{ACAD_REACTORS
330
63
102
}
100
AcDbEntity
  8
0
370
              -2
390
0
  6
Continuous
 62
               0
100
AcDbCircle
 10
681.37090173566844
 20
-450.5784464345308
 30
0.0
 40
4.99969482421875
  0
HATCH
  5
63
100
AcDbEntity
  8
0
370
              -2
390
0
  6
Continuous
 62
               0
100
AcDbHatch
 10
0.0
 20
0.0
 30
0.0
210
0.0
220
0.0
230
1.0
  2
SOLID
 70
               1
 71
               1
 91
        1
 92
        1
 93
        1
 72
               2
 10
681.37090173566844
 20
-450.5784464345308
 40
4.99969482421875
 50
0.0
 51
360.0
 73
               0
 97
        1
330
62
 75
               0
 76
               1
 98
        1
 10
0.0
 20
0.0
  0
CIRCLE
  5
64
102
{ACAD_REACTORS
330
65
102
}
100
AcDbEntity
  8
0
370
              -2
390
0
  6
Continuous
 62
               0
100
AcDbCircle
 10
681.37090173566844
 20
-458.5784464345308
 30
0.0
 40
4.99969482421875
  0
HATCH
  5
65
100
AcDbEntity
  8
0
370
              -2
390
0
  6
Continuous
 62
               0
100
AcDbHatch
 10
0.0
 20
0.0
 30
0.0
210
0.0
220
0.0
230
1.0
  2
SOLID
 70
               1
 71
               1
 91
        1
 92
        1
 93
        1
 72
               2
 10
681.37090173566844
 20
-458.5784464345308
 40
4.99969482421875
 50
0.0
 51
360.0
 73
               0
 97
        1
330
64
 75
               0
 76
               1
 98
        1
 10
0.0
 20
0.0
  0
MTEXT
  5
66
100
AcDbEntity
  8
0
390
0
 62
               0
100
AcDbMText
 10
647.49328454816839
 20
-402.90412732650617
 30
0.0
 40
24.432617187500004
 41
0.0
 71
               1
 72
               1
  1
8
  7
ＭＳ ゴシック
 11
0.0
 21
1.0
 31
0.0
 73
               1
 44
0.7828267384257843
  0
POINT
  5
67
100
AcDbEntity
  8
Defpoints
370
               0
390
0
 62
               0
100
AcDbPoint
 10
581.37563976471802
 20
-458.5784464345308
 30
0.0
  0
POINT
  5
68
100
AcDbEntity
  8
Defpoints
370
               0
390
0
 62
               0
100
AcDbPoint
 10
577.79655882431803
 20
-450.5784464345308
 30
0.0
  0
POINT
  5
69
100
AcDbEntity
  8
Defpoints
370
               0
390
0
 62
               0
100
AcDbPoint
 10
681.37090173566844
 20
-450.5784464345308
 30
0.0
  0
ENDBLK
  5
6A
100
AcDbEntity
  8
notes
390
0
100
AcDbBlockEnd
  0
BLOCK
  5
6B
100
AcDbEntity
  8
notes
390
0
100
AcDbBlockBegin
  2
*D4
 70
               1
 10
0.0
 20
0.0
 30
0.0
  3
*D4
  1

  0
LINE
  5
6C
100
AcDbEntity
  8
0
370
              -2
390
0
  6
Continuous
 62
               0
100
AcDbLine
 10
-688.34348699747375
 20
414.2913979668985
 30
0.0
 11
-688.34348699747375
 21
217.43997348790003
 31
0.0
  0
LINE
  5
6D
100
AcDbEntity
  8
0
370
              -2
390
0
  6
Continuous
 62
               0
100
AcDbLine
 10
-288.34348699747375
 20
414.29139796689816
 30
0.0
 11
-288.34348699747375
 21
217.43997348790003
 31
0.0
  0
LINE
  5
6E
100
AcDbEntity
  8
0
370
              -2
390
0
  6
Continuous
 62
               0
100
AcDbLine
 10
-688.34348699747375
 20
217.43997348790003
 30
0.0
 11
-288.34348699747375
 21
217.43997348790003
 31
0.0
  0
CIRCLE
  5
6F
102
{ACAD_REACTORS
330
70
102
}
100
AcDbEntity
  8
0
370
              -2
390
0
  6
Continuous
 62
               0
100
AcDbCircle
 10
-688.34348699747375
 20
217.43997348790003
 30
0.0
 40
4.99969482421875
  0
HATCH
  5
70
100
AcDbEntity
  8
0
370
              -2
390
0
  6
Continuous
 62
               0
100
AcDbHatch
 10
0.0
 20
0.0
 30
0.0
210
0.0
220
0.0
230
1.0
  2
SOLID
 70
               1
 71
               1
 91
        1
 92
        1
 93
        1
 72
               2
 10
-688.34348699747375
 20
217.43997348790003
 40
4.99969482421875
 50
0.0
 51
360.0
 73
               0
 97
        1
330
6F
 75
               0
 76
               1
 98
        1
 10
0.0
 20
0.0
  0
CIRCLE
  5
71
102
{ACAD_REACTORS
330
72
102
}
100
AcDbEntity
  8
0
370
              -2
390
0
  6
Continuous
 62
               0
100
AcDbCircle
 10
-288.34348699747375
 20
217.43997348790003
 30
0.0
 40
4.99969482421875
  0
HATCH
  5
72
100
AcDbEntity
  8
0
370
              -2
390
0
  6
Continuous
 62
               0
100
AcDbHatch
 10
0.0
 20
0.0
 30
0.0
210
0.0
220
0.0
230
1.0
  2
SOLID
 70
               1
 71
               1
 91
        1
 92
        1
 93
        1
 72
               2
 10
-288.34348699747375
 20
217.43997348790003
 40
4.99969482421875
 50
0.0
 51
360.0
 73
               0
 97
        1
330
71
 75
               0
 76
               1
 98
        1
 10
0.0
 20
0.0
  0
MTEXT
  5
73
100
AcDbEntity
  8
0
390
0
 62
               0
100
AcDbMText
 10
-512.15598867964923
 20
251.31759067540003
 30
0.0
 40
24.432617187500004
 41
0.0
 71
               1
 72
               1
  1
400
  7
ＭＳ ゴシック
 73
               1
 44
0.7828267384257843
  0
POINT
  5
74
100
AcDbEntity
  8
Defpoints
370
               0
390
0
 62
               0
100
AcDbPoint
 10
-288.34348699747375
 20
439.29139796689816
 30
0.0
  0
POINT
  5
75
100
AcDbEntity
  8
Defpoints
370
               0
390
0
 62
               0
100
AcDbPoint
 10
-688.34348699747375
 20
439.2913979668985
 30
0.0
  0
POINT
  5
76
100
AcDbEntity
  8
Defpoints
370
               0
390
0
 62
               0
100
AcDbPoint
 10
-688.34348699747375
 20
217.43997348790003
 30
0.0
  0
ENDBLK
  5
77
100
AcDbEntity
  8
notes
390
0
100
AcDbBlockEnd
  0
BLOCK
  5
78
100
AcDbEntity
  8
notes
390
0
100
AcDbBlockBegin
  2
*D5
 70
               1
 10
0.0
 20
0.0
 30
0.0
  3
*D5
  1

  0
LINE
  5
79
100
AcDbEntity
  8
0
370
              -2
390
0
  6
Continuous
 62
               0
100
AcDbLine
 10
356.24590173566833
 20
-676.57844643453086
 30
0.0
 11
356.24590173566833
 21
-751.57844643453086
 31
0.0
  0
LINE
  5
7A
100
AcDbEntity
  8
0
370
              -2
390
0
  6
Continuous
 62
               0
100
AcDbLine
 10
131.23599916361795
 20
-481.09135086914
 30
0.0
 11
131.23599916361795
 21
-751.57844643453086
 31
0.0
  0
LINE
  5
7B
100
AcDbEntity
  8
0
370
              -2
390
0
  6
Continuous
 62
               0
100
AcDbLine
 10
356.24590173566833
 20
-751.57844643453086
 30
0.0
 11
131.23599916361795
 21
-751.57844643453086
 31
0.0
  0
CIRCLE
  5
7C
102
{ACAD_REACTORS
330
7D
102
}
100
AcDbEntity
  8
0
370
              -2
390
0
  6
Continuous
 62
               0
100
AcDbCircle
 10
356.24590173566833
 20
-751.57844643453086
 30
0.0
 40
4.99969482421875
  0
HATCH
  5
7D
100
AcDbEntity
  8
0
370
              -2
390
0
  6
Continuous
 62
               0
100
AcDbHatch
 10
0.0
 20
0.0
 30
0.0
210
0.0
220
0.0
230
1.0
  2
SOLID
 70
               1
 71
               1
 91
        1
 92
        1
 93
        1
 72
               2
 10
356.24590173566833
 20
-751.57844643453086
 40
4.99969482421875
 50
0.0
 51
360.0
 73
               0
 97
        1
330
7C
 75
               0
 76
               1
 98
        1
 10
0.0
 20
0.0
  0
CIRCLE
  5
7E
102
{ACAD_REACTORS
330
7F
102
}
100
AcDbEntity
  8
0
370
              -2
390
0
  6
Continuous
 62
               0
100
AcDbCircle
 10
131.23599916361795
 20
-751.57844643453086
 30
0.0
 40
4.99969482421875
  0
HATCH
  5
7F
100
AcDbEntity
  8
0
370
              -2
390
0
  6
Continuous
 62
               0
100
AcDbHatch
 10
0.0
 20
0.0
 30
0.0
210
0.0
220
0.0
230
1.0
  2
SOLID
 70
               1
 71
               1
 91
        1
 92
        1
 93
        1
 72
               2
 10
131.23599916361795
 20
-751.57844643453086
 40
4.99969482421875
 50
0.0
 51
360.0
 73
               0
 97
        1
330
7E
 75
               0
 76
               1
 98
        1
 10
0.0
 20
0.0
  0
MTEXT
  5
80
100
AcDbEntity
  8
0
390
0
 62
               0
100
AcDbMText
 10
219.92844876746761
 20
-717.7008292470307
 30
0.0
 40
24.432617187500004
 41
0.0
 71
               1
 72
               1
  1
225
  7
ＭＳ ゴシック
 73
               1
 44
0.7828267384257843
  0
POINT
  5
81
100
AcDbEntity
  8
Defpoints
370
               0
390
0
 62
               0
100
AcDbPoint
 10
131.23599916361795
 20
-456.09135086914
 30
0.0
  0
POINT
  5
82
100
AcDbEntity
  8
Defpoints
370
               0
390
0
 62
               0
100
AcDbPoint
 10
356.24590173566833
 20
-651.57844643453086
 30
0.0
  0
POINT
  5
83
100
AcDbEntity
  8
Defpoints
370
               0
390
0
 62
               0
100
AcDbPoint
 10
356.24590173566833
 20
-751.57844643453086
 30
0.0
  0
ENDBLK
  5
84
100
AcDbEntity
  8
notes
390
0
100
AcDbBlockEnd
  0
BLOCK
  5
85
100
AcDbEntity
  8
notes
390
0
100
AcDbBlockBegin
  2
*D6
 70
               1
 10
0.0
 20
0.0
 30
0.0
  3
*D6
  1

  0
LINE
  5
86
100
AcDbEntity
  8
0
370
              -2
390
0
  6
Continuous
 62
               0
100
AcDbLine
 10
331.23599924521795
 20
-450.5784464345308
 30
0.0
 11
351.24590173566833
 21
-450.5784464345308
 31
0.0
  0
LINE
  5
87
100
AcDbEntity
  8
0
370
              -2
390
0
  6
Continuous
 62
               0
100
AcDbLine
 10
331.23599924521795
 20
-604.57844643453086
 30
0.0
 11
351.24590173566833
 21
-604.57844643453086
 31
0.0
  0
LINE
  5
88
100
AcDbEntity
  8
0
370
              -2
390
0
  6
Continuous
 62
               0
100
AcDbLine
 10
351.24590173566833
 20
-450.5784464345308
 30
0.0
 11
351.24590173566833
 21
-285.19250314166254
 31
0.0
  0
LINE
  5
89
100
AcDbEntity
  8
0
370
              -2
390
0
  6
Continuous
 62
               0
100
AcDbLine
 10
351.24590173566833
 20
-450.5784464345308
 30
0.0
 11
351.24590173566833
 21
-604.57844643453086
 31
0.0
  0
CIRCLE
  5
8A
102
{ACAD_REACTORS
330
8B
102
}
100
AcDbEntity
  8
0
370
              -2
390
0
  6
Continuous
 62
               0
100
AcDbCircle
 10
351.24590173566833
 20
-450.5784464345308
 30
0.0
 40
4.99969482421875
  0
HATCH
  5
8B
100
AcDbEntity
  8
0
370
              -2
390
0
  6
Continuous
 62
               0
100
AcDbHatch
 10
0.0
 20
0.0
 30
0.0
210
0.0
220
0.0
230
1.0
  2
SOLID
 70
               1
 71
               1
 91
        1
 92
        1
 93
        1
 72
               2
 10
351.24590173566833
 20
-450.5784464345308
 40
4.99969482421875
 50
0.0
 51
360.0
 73
               0
 97
        1
330
8A
 75
               0
 76
               1
 98
        1
 10
0.0
 20
0.0
  0
CIRCLE
  5
8C
102
{ACAD_REACTORS
330
8D
102
}
100
AcDbEntity
  8
0
370
              -2
390
0
  6
Continuous
 62
               0
100
AcDbCircle
 10
351.24590173566833
 20
-604.57844643453086
 30
0.0
 40
4.99969482421875
  0
HATCH
  5
8D
100
AcDbEntity
  8
0
370
              -2
390
0
  6
Continuous
 62
               0
100
AcDbHatch
 10
0.0
 20
0.0
 30
0.0
210
0.0
220
0.0
230
1.0
  2
SOLID
 70
               1
 71
               1
 91
        1
 92
        1
 93
        1
 72
               2
 10
351.24590173566833
 20
-604.57844643453086
 40
4.99969482421875
 50
0.0
 51
360.0
 73
               0
 97
        1
330
8C
 75
               0
 76
               1
 98
        1
 10
0.0
 20
0.0
  0
MTEXT
  5
8E
100
AcDbEntity
  8
0
390
0
 62
               0
100
AcDbMText
 10
317.36828454816839
 20
-428.06750314166254
 30
0.0
 40
24.432617187500004
 41
0.0
 71
               1
 72
               1
  1
154(深さ)
  7
ＭＳ ゴシック
 11
0.0
 21
1.0
 31
0.0
 73
               1
 44
0.7828267384257843
  0
POINT
  5
8F
100
AcDbEntity
  8
Defpoints
370
               0
390
0
 62
               0
100
AcDbPoint
 10
356.23599924521795
 20
-604.57844643453086
 30
0.0
  0
POINT
  5
90
100
AcDbEntity
  8
Defpoints
370
               0
390
0
 62
               0
100
AcDbPoint
 10
356.23599924521795
 20
-450.5784464345308
 30
0.0
  0
POINT
  5
91
100
AcDbEntity
  8
Defpoints
370
               0
390
0
 62
               0
100
AcDbPoint
 10
351.24590173566833
 20
-450.5784464345308
 30
0.0
  0
ENDBLK
  5
92
100
AcDbEntity
  8
notes
390
0
100
AcDbBlockEnd
  0
BLOCK
  5
93
100
AcDbEntity
  8
notes
390
0
100
AcDbBlockBegin
  2
*D7
 70
               1
 10
0.0
 20
0.0
 30
0.0
  3
*D7
  1

  0
LINE
  5
94
100
AcDbEntity
  8
0
370
              -2
390
0
  6
Continuous
 62
               0
100
AcDbLine
 10
-241.78292741837376
 20
-450.5784464345308
 30
0.0
 11
-163.20384647807381
 21
-450.5784464345308
 31
0.0
  0
LINE
  5
95
100
AcDbEntity
  8
0
370
              -2
390
0
  6
Continuous
 62
               0
100
AcDbLine
 10
-428.3540982643317
 20
-651.57844643453086
 30
0.0
 11
-163.20384647807381
 21
-651.57844643453086
 31
0.0
  0
LINE
  5
96
100
AcDbEntity
  8
0
370
              -2
390
0
  6
Continuous
 62
               0
100
AcDbLine
 10
-163.20384647807381
 20
-450.5784464345308
 30
0.0
 11
-163.20384647807381
 21
-651.57844643453086
 31
0.0
  0
CIRCLE
  5
97
102
{ACAD_REACTORS
330
98
102
}
100
AcDbEntity
  8
0
370
              -2
390
0
  6
Continuous
 62
               0
100
AcDbCircle
 10
-163.20384647807381
 20
-450.5784464345308
 30
0.0
 40
4.99969482421875
  0
HATCH
  5
98
100
AcDbEntity
  8
0
370
              -2
390
0
  6
Continuous
 62
               0
100
AcDbHatch
 10
0.0
 20
0.0
 30
0.0
210
0.0
220
0.0
230
1.0
  2
SOLID
 70
               1
 71
               1
 91
        1
 92
        1
 93
        1
 72
               2
 10
-163.20384647807381
 20
-450.5784464345308
 40
4.99969482421875
 50
0.0
 51
360.0
 73
               0
 97
        1
330
97
 75
               0
 76
               1
 98
        1
 10
0.0
 20
0.0
  0
CIRCLE
  5
99
102
{ACAD_REACTORS
330
9A
102
}
100
AcDbEntity
  8
0
370
              -2
390
0
  6
Continuous
 62
               0
100
AcDbCircle
 10
-163.20384647807381
 20
-651.57844643453086
 30
0.0
 40
4.99969482421875
  0
HATCH
  5
9A
100
AcDbEntity
  8
0
370
              -2
390
0
  6
Continuous
 62
               0
100
AcDbHatch
 10
0.0
 20
0.0
 30
0.0
210
0.0
220
0.0
230
1.0
  2
SOLID
 70
               1
 71
               1
 91
        1
 92
        1
 93
        1
 72
               2
 10
-163.20384647807381
 20
-651.57844643453086
 40
4.99969482421875
 50
0.0
 51
360.0
 73
               0
 97
        1
330
99
 75
               0
 76
               1
 98
        1
 10
0.0
 20
0.0
  0
MTEXT
  5
9B
100
AcDbEntity
  8
0
390
0
 62
               0
100
AcDbMText
 10
-197.08146366557381
 20
-574.89094811670634
 30
0.0
 40
24.432617187500004
 41
0.0
 71
               1
 72
               1
  1
201
  7
ＭＳ ゴシック
 11
0.0
 21
1.0
 31
0.0
 73
               1
 44
0.7828267384257843
  0
POINT
  5
9C
100
AcDbEntity
  8
Defpoints
370
               0
390
0
 62
               0
100
AcDbPoint
 10
-453.3540982643317
 20
-651.57844643453086
 30
0.0
  0
POINT
  5
9D
100
AcDbEntity
  8
Defpoints
370
               0
390
0
 62
               0
100
AcDbPoint
 10
-266.78292741837379
 20
-450.5784464345308
 30
0.0
  0
POINT
  5
9E
100
AcDbEntity
  8
Defpoints
370
               0
390
0
 62
               0
100
AcDbPoint
 10
-163.20384647807381
 20
-450.5784464345308
 30
0.0
  0
ENDBLK
  5
9F
100
AcDbEntity
  8
notes
390
0
100
AcDbBlockEnd
  0
BLOCK
  5
A0
100
AcDbEntity
  8
notes
390
0
100
AcDbBlockBegin
  2
*D8
 70
               1
 10
0.0
 20
0.0
 30
0.0
  3
*D8
  1

  0
LINE
  5
A1
100
AcDbEntity
  8
0
370
              -2
390
0
  6
Continuous
 62
               0
100
AcDbLine
 10
-523.3540982643317
 20
-676.57844643453086
 30
0.0
 11
-523.3540982643317
 21
-751.57844643453086
 31
0.0
  0
LINE
  5
A2
100
AcDbEntity
  8
0
370
              -2
390
0
  6
Continuous
 62
               0
100
AcDbLine
 10
-453.3540982643317
 20
-676.57844643453086
 30
0.0
 11
-453.3540982643317
 21
-751.57844643453086
 31
0.0
  0
LINE
  5
A3
100
AcDbEntity
  8
0
370
              -2
390
0
  6
Continuous
 62
               0
100
AcDbLine
 10
-523.3540982643317
 20
-751.57844643453086
 30
0.0
 11
-453.3540982643317
 21
-751.57844643453086
 31
0.0
  0
CIRCLE
  5
A4
102
{ACAD_REACTORS
330
A5
102
}
100
AcDbEntity
  8
0
370
              -2
390
0
  6
Continuous
 62
               0
100
AcDbCircle
 10
-523.3540982643317
 20
-751.57844643453086
 30
0.0
 40
4.99969482421875
  0
HATCH
  5
A5
100
AcDbEntity
  8
0
370
              -2
390
0
  6
Continuous
 62
               0
100
AcDbHatch
 10
0.0
 20
0.0
 30
0.0
210
0.0
220
0.0
230
1.0
  2
SOLID
 70
               1
 71
               1
 91
        1
 92
        1
 93
        1
 72
               2
 10
-523.3540982643317
 20
-751.57844643453086
 40
4.99969482421875
 50
0.0
 51
360.0
 73
               0
 97
        1
330
A4
 75
               0
 76
               1
 98
        1
 10
0.0
 20
0.0
  0
CIRCLE
  5
A6
102
{ACAD_REACTORS
330
A7
102
}
100
AcDbEntity
  8
0
370
              -2
390
0
  6
Continuous
 62
               0
100
AcDbCircle
 10
-453.3540982643317
 20
-751.57844643453086
 30
0.0
 40
4.99969482421875
  0
HATCH
  5
A7
100
AcDbEntity
  8
0
370
              -2
390
0
  6
Continuous
 62
               0
100
AcDbHatch
 10
0.0
 20
0.0
 30
0.0
210
0.0
220
0.0
230
1.0
  2
SOLID
 70
               1
 71
               1
 91
        1
 92
        1
 93
        1
 72
               2
 10
-453.3540982643317
 20
-751.57844643453086
 40
4.99969482421875
 50
0.0
 51
360.0
 73
               0
 97
        1
330
A6
 75
               0
 76
               1
 98
        1
 10
0.0
 20
0.0
  0
MTEXT
  5
A8
100
AcDbEntity
  8
0
390
0
 62
               0
100
AcDbMText
 10
-504.2290982643317
 20
-717.7008292470307
 30
0.0
 40
24.432617187500004
 41
0.0
 71
               1
 72
               1
  1
70
  7
ＭＳ ゴシック
 73
               1
 44
0.7828267384257843
  0
POINT
  5
A9
100
AcDbEntity
  8
Defpoints
370
               0
390
0
 62
               0
100
AcDbPoint
 10
-453.3540982643317
 20
-651.57844643453086
 30
0.0
  0
POINT
  5
AA
100
AcDbEntity
  8
Defpoints
370
               0
390
0
 62
               0
100
AcDbPoint
 10
-523.3540982643317
 20
-651.57844643453086
 30
0.0
  0
POINT
  5
AB
100
AcDbEntity
  8
Defpoints
370
               0
390
0
 62
               0
100
AcDbPoint
 10
-523.3540982643317
 20
-751.57844643453086
 30
0.0
  0
ENDBLK
  5
AC
100
AcDbEntity
  8
notes
390
0
100
AcDbBlockEnd
  0
BLOCK
  5
AD
100
AcDbEntity
  8
notes
390
0
100
AcDbBlockBegin
  2
*D9
 70
               1
 10
0.0
 20
0.0
 30
0.0
  3
*D9
  1

  0
LINE
  5
AE
100
AcDbEntity
  8
0
370
              -2
390
0
  6
Continuous
 62
               0
100
AcDbLine
 10
502.97055883187693
 20
395.77534290379134
 30
0.0
 11
622.24590173566844
 21
276.49999999999994
 31
0.0
  0
CIRCLE
  5
AF
102
{ACAD_REACTORS
330
B0
102
}
100
AcDbEntity
  8
0
370
              -2
390
0
  6
Continuous
 62
               0
100
AcDbCircle
 10
502.97055883187693
 20
395.77534290379134
 30
0.0
 40
4.99969482421875
  0
HATCH
  5
B0
100
AcDbEntity
  8
0
370
              -2
390
0
  6
Continuous
 62
               0
100
AcDbHatch
 10
0.0
 20
0.0
 30
0.0
210
0.0
220
0.0
230
1.0
  2
SOLID
 70
               1
 71
               1
 91
        1
 92
        1
 93
        1
 72
               2
 10
502.97055883187693
 20
395.77534290379134
 40
4.99969482421875
 50
0.0
 51
360.0
 73
               0
 97
        1
330
AF
 75
               0
 76
               1
 98
        1
 10
0.0
 20
0.0
  0
LINE
  5
B1
100
AcDbEntity
  8
0
370
              -2
390
0
  6
Continuous
 62
               0
100
AcDbLine
 10
622.24590173566844
 20
276.49999999999994
 30
0.0
 11
761.62090173566844
 21
276.49999999999994
 31
0.0
  0
MTEXT
  5
B2
100
AcDbEntity
  8
0
390
0
 62
               0
100
AcDbMText
 10
682.24590173566844
 20
310.37761718749994
 30
0.0
 40
24.432617187500004
 41
0.0
 71
               1
 72
               1
  1
φ415
  7
ＭＳ ゴシック
 73
               1
 44
0.7828267384257843
  0
POINT
  5
B3
100
AcDbEntity
  8
Defpoints
370
               0
390
0
 62
               0
100
AcDbPoint
 10
209.52124463945975
 20
689.2246570962086
 30
0.0
  0
POINT
  5
B4
100
AcDbEntity
  8
Defpoints
370
               0
390
0
 62
               0
100
AcDbPoint
 10
502.97055883187693
 20
395.77534290379134
 30
0.0
  0
ENDBLK
  5
B5
100
AcDbEntity
  8
notes
390
0
100
AcDbBlockEnd
  0
ENDSEC
  0
SECTION
  2
ENTITIES
  0
MTEXT
  5
B6
100
AcDbEntity
  8
template
390
0
 62
               7
100
AcDbMText
 10
-967.99999999975921
 20
-1147.4176292337006
 30
0.0
 40
16.288411458333332
 41
0.0
 71
               1
 72
               1
  1
品名
  7
ＭＳ ゴシック
 73
               1
 44
0.7828267384257843
  0
MTEXT
  5
B7
100
AcDbEntity
  8
template
390
0
 62
               7
100
AcDbMText
 10
-967.99999999975921
 20
-1232.4176292337004
 30
0.0
 40
16.288411458333332
 41
0.0
 71
               1
 72
               1
  1
仕様
  7
ＭＳ ゴシック
 73
               1
 44
0.7828267384257843
  0
LINE
  5
B8
100
AcDbEntity
  8
template
370
               5
390
0
  6
Continuous
 62
               7
100
AcDbLine
 10
974.99999999975876
 20
-1224.0027073587005
 30
0.0
 11
-975.00000000024124
 21
-1224.0027073587005
 31
0.0
  0
LWPOLYLINE
  5
B9
100
AcDbEntity
  8
template
370
               5
390
0
  6
Continuous
 62
               7
100
AcDbPolyline
 90
        5
 70
             128
 10
975.00000000024124
 20
1405.9972926412995
 10
-974.99999999975921
 20
1405.9972926412995
 10
-974.99999999975921
 20
-1394.0027073587005
 10
975.00000000024124
 20
-1394.0027073587005
 10
975.00000000024124
 20
1405.9972926412995
  0
LINE
  5
BA
100
AcDbEntity
  8
template
370
               5
390
0
  6
Continuous
 62
               7
100
AcDbLine
 10
974.99999999975876
 20
-1139.0027073587005
 30
0.0
 11
-975.00000000024124
 21
-1139.0027073587005
 31
0.0
  0
LINE
  5
BB
100
AcDbEntity
  8
template
370
               5
390
0
  6
Continuous
 62
               7
100
AcDbLine
 10
975.00000000024124
 20
-1309.0027073587005
 30
0.0
 11
222.00000000024124
 21
-1309.0027073587005
 31
0.0
  0
MTEXT
  5
BC
100
AcDbEntity
  8
template
390
0
 62
               7
100
AcDbMText
 10
-974.99999999955594
 20
-1405.8565294155574
 30
0.0
 40
21.717881944444446
 41
0.0
 71
               1
 72
               1
  1
120413SH
  7
ＭＳ ゴシック
 73
               1
 44
0.7828267384257843
  0
MTEXT
  5
BD
100
AcDbEntity
  8
template
390
0
 62
               7
100
AcDbMText
 10
251.87140625250089
 20
-1338.9131018320081
 30
0.0
 40
24.432617187500004
 41
0.0
 71
               1
 72
               1
  1
大洋金物株式会社 ティーフォルム事業部
  7
ＭＳ ゴシック
 73
               1
 44
0.7828267384257843
  0
INSERT
  5
BE
100
AcDbEntity
  8
template
390
0
 62
               7
100
AcDbBlockReference
  2
グループ
 10
-0.0000000000000284
 20
-125.53000000000003
 30
0.0
  0
MTEXT
  5
BF
100
AcDbEntity
  8
template
390
0
 62
               7
100
AcDbMText
 10
784.00000000049999
 20
-1261.0000901712006
 30
0.0
 40
24.432617187500004
 41
0.0
 71
               1
 72
               1
  1
1:10
  7
ＭＳ ゴシック
 73
               1
 44
0.7828267384257843
  0
MTEXT
  5
C0
100
AcDbEntity
  8
template
390
0
 62
               7
100
AcDbMText
 10
731.00000000049999
 20
-1232.4176292337004
 30
0.0
 40
16.288411458333332
 41
0.0
 71
               1
 72
               1
  1
縮尺
  7
ＭＳ ゴシック
 73
               1
 44
0.7828267384257843
  0
LINE
  5
C1
100
AcDbEntity
  8
template
370
               5
390
0
  6
Continuous
 62
               7
100
AcDbLine
 10
724.00000000049999
 20
-1309.0027073587005
 30
0.0
 11
724.00000000049999
 21
-1224.0027073587005
 31
0.0
  0
MTEXT
  5
C2
100
AcDbEntity
  8
template
390
0
 62
               7
100
AcDbMText
 10
480.00000000049999
 20
-1232.4176292337004
 30
0.0
 40
16.288411458333332
 41
0.0
 71
               1
 72
               1
  1
容量
  7
ＭＳ ゴシック
 73
               1
 44
0.7828267384257843
  0
LINE
  5
C3
100
AcDbEntity
  8
template
370
               5
390
0
  6
Continuous
 62
               7
100
AcDbLine
 10
473.00000000049999
 20
-1309.0027073587005
 30
0.0
 11
473.00000000049999
 21
-1224.0027073587005
 31
0.0
  0
MTEXT
  5
C4
100
AcDbEntity
  8
template
390
0
 62
               7
100
AcDbMText
 10
229.00000000049999
 20
-1147.4176292337006
 30
0.0
 40
16.288411458333332
 41
0.0
 71
               1
 72
               1
  1
品番
  7
ＭＳ ゴシック
 73
               1
 44
0.7828267384257843
  0
MTEXT
  5
C5
100
AcDbEntity
  8
template
390
0
 62
               7
100
AcDbMText
 10
229.00000000049999
 20
-1232.4176292337004
 30
0.0
 40
16.288411458333332
 41
0.0
 71
               1
 72
               1
  1
重量
  7
ＭＳ ゴシック
 73
               1
 44
0.7828267384257843
  0
MTEXT
  5
C6
100
AcDbEntity
  8
template
390
0
 62
               7
100
AcDbMText
 10
282.00000000049999
 20
-1176.0000901712006
 30
0.0
 40
24.432617187500004
 41
0.0
 71
               1
 72
               1
  1
FAN70-0304
  7
ＭＳ ゴシック
 73
               1
 44
0.7828267384257843
  0
MTEXT
  5
C7
100
AcDbEntity
  8
template
390
0
 62
               7
100
AcDbMText
 10
282.00000000049999
 20
-1261.0000901712006
 30
0.0
 40
24.432617187500004
 41
0.0
 71
               1
 72
               1
  1
2.8kg
  7
ＭＳ ゴシック
 73
               1
 44
0.7828267384257843
  0
LINE
  5
C8
100
AcDbEntity
  8
template
370
               5
390
0
  6
Continuous
 62
               7
100
AcDbLine
 10
222.00000000049999
 20
-1394.0027073587005
 30
0.0
 11
222.00000000049999
 21
-1139.0027073587005
 31
0.0
  0
MTEXT
  5
C9
100
AcDbEntity
  8
template
390
0
 62
               7
100
AcDbMText
 10
-914.99999999975921
 20
-1176.0000901712006
 30
0.0
 40
24.432617187500004
 41
0.0
 71
               1
 72
               1
  1
洗面器 -ALAPE-
  7
ＭＳ ゴシック
 73
               1
 44
0.7828267384257843
  0
MTEXT
  5
CA
100
AcDbEntity
  8
template
390
0
 62
               7
100
AcDbMText
 10
-914.99999999975921
 20
-1261.0000901712001
 30
0.0
 40
24.432617187500004
 41
0.0
 71
               1
 72
               1
  1
オーバーカウンター,アンダーカウンタ ー/オーバーフロー付き/型 紙付属/\P鋼板ホーロー/ホワイト
  7
ＭＳ ゴシック
 73
               1
 44
1.1307497332816883
  0
DIMENSION
  5
CB
100
AcDbEntity
  8
notes
370
               5
390
0
  6
Continuous
 62
               7
100
AcDbDimension
  2
*D2
 10
-713.40351350967376
 20
867.52702270338773
 30
0.0
 11
-488.33166260997371
 21
872.52702270338773
 31
0.0
 70
             128
 71
               5
 72
               1
 41
1.0
 42
0.0
  3
tfrom線あり
100
AcDbAlignedDimension
 13
-263.28346048537378
 23
542.5
 33
0.0
 14
-713.40351350967376
 24
542.5
 34
0.0
100
AcDbRotatedDimension
1001
ACAD
1000
DSTYLE
1002
{
1070
             271
1070
               0
1070
             279
1070
               2
1070
             340
1005
2C
1070
             147
1040
5.0
1002
}
  0
DIMENSION
  5
CC
100
AcDbEntity
  8
notes
370
               5
390
0
  6
Continuous
 62
               7
100
AcDbDimension
  2
*D3
 10
681.37090173566844
 20
-450.5784464345308
 30
0.0
 11
686.37090173566844
 21
-402.90412732650617
 31
0.0
 70
             128
 71
               5
 72
               1
 41
1.0
 42
0.0
  3
tfrom線あり
100
AcDbAlignedDimension
 13
581.37563976471802
 23
-458.5784464345308
 33
0.0
 14
577.79655882431803
 24
-450.5784464345308
 34
0.0
 50
90.0
100
AcDbRotatedDimension
1001
ACAD
1000
DSTYLE
1002
{
1070
             279
1070
               2
1070
             340
1005
2C
1070
             174
1070
               0
1070
             147
1040
5.0
1002
}
  0
DIMENSION
  5
CD
100
AcDbEntity
  8
notes
370
               5
390
0
  6
Continuous
 62
               7
100
AcDbDimension
  2
*D4
 10
-688.34348699747375
 20
217.43997348790003
 30
0.0
 11
-488.34348699747375
 21
217.43997348790003
 31
0.0
 71
               5
 72
               1
 41
1.0
 42
0.0
  3
tfrom線あり
100
AcDbAlignedDimension
 13
-288.34348699747375
 23
439.29139796689816
 33
0.0
 14
-688.34348699747375
 24
439.2913979668985
 34
0.0
100
AcDbRotatedDimension
1001
ACAD
1000
DSTYLE
1002
{
1070
             279
1070
               2
1070
             340
1005
2C
1070
             147
1040
5.0
1002
}
  0
DIMENSION
  5
CE
100
AcDbEntity
  8
notes
370
               5
390
0
  6
Continuous
 62
               7
100
AcDbDimension
  2
*D5
 10
356.24590173566833
 20
-751.57844643453086
 30
0.0
 11
243.74095044964315
 21
-751.57844643453086
 31
0.0
 71
               5
 72
               1
 41
1.0
 42
0.0
  3
tfrom線あり
100
AcDbAlignedDimension
 13
131.23599916361795
 23
-456.09135086914
 33
0.0
 14
356.24590173566833
 24
-651.57844643453086
 34
0.0
100
AcDbRotatedDimension
1001
ACAD
1000
DSTYLE
1002
{
1070
             279
1070
               2
1070
             340
1005
2C
1070
             147
1040
5.0
1002
}
  0
DIMENSION
  5
CF
100
AcDbEntity
  8
notes
370
               5
390
0
  6
Continuous
 62
               7
100
AcDbDimension
  2
*D6
 10
351.24590173566833
 20
-450.5784464345308
 30
0.0
 11
346.24590173566833
 21
-428.06750314166254
 31
0.0
 70
             128
 71
               5
 72
               1
 41
1.0
 42
0.0
  3
tfrom線あり
100
AcDbAlignedDimension
 13
356.23599924521795
 23
-604.57844643453086
 33
0.0
 14
356.23599924521795
 24
-450.5784464345308
 34
0.0
 50
90.0
100
AcDbRotatedDimension
1001
ACAD
1000
DSTYLE
1002
{
1070
             279
1070
               2
1070
             340
1005
2C
1070
               3
1000
<>(深さ)
1070
             174
1070
               0
1070
             147
1040
5.0
1002
}
  0
DIMENSION
  5
D0
100
AcDbEntity
  8
notes
370
               5
390
0
  6
Continuous
 62
               7
100
AcDbDimension
  2
*D7
 10
-163.20384647807381
 20
-450.5784464345308
 30
0.0
 11
-163.20384647807381
 21
-551.07844643453086
 31
0.0
 71
               5
 72
               1
 41
1.0
 42
0.0
  3
tfrom線あり
100
AcDbAlignedDimension
 13
-453.3540982643317
 23
-651.57844643453086
 33
0.0
 14
-266.78292741837379
 24
-450.5784464345308
 34
0.0
 50
90.0
100
AcDbRotatedDimension
1001
ACAD
1000
DSTYLE
1002
{
1070
             279
1070
               2
1070
             340
1005
2C
1070
             147
1040
5.0
1002
}
  0
DIMENSION
  5
D1
100
AcDbEntity
  8
notes
370
               5
390
0
  6
Continuous
 62
               7
100
AcDbDimension
  2
*D8
 10
-523.3540982643317
 20
-751.57844643453086
 30
0.0
 11
-488.3540982643317
 21
-751.57844643453086
 31
0.0
 71
               5
 72
               1
 41
1.0
 42
0.0
  3
tfrom線あり
100
AcDbAlignedDimension
 13
-453.3540982643317
 23
-651.57844643453086
 33
0.0
 14
-523.3540982643317
 24
-651.57844643453086
 34
0.0
100
AcDbRotatedDimension
1001
ACAD
1000
DSTYLE
1002
{
1070
             279
1070
               2
1070
             340
1005
2C
1070
             147
1040
5.0
1002
}
  0
DIMENSION
  5
D2
100
AcDbEntity
  8
notes
370
               5
390
0
  6
Continuous
 62
               7
100
AcDbDimension
  2
*D9
 10
209.52124463945975
 20
689.2246570962086
 30
0.0
 11
682.24590173566844
 21
276.49999999999994
 31
0.0
 70
               3
 71
               5
 72
               1
 41
1.0
 42
0.0
  3
tfrom線あり
100
AcDbDiametricDimension
 15
502.97055883187693
 25
395.77534290379134
 35
0.0
 40
168.68080759124331
1001
ACAD
1000
DSTYLE
1002
{
1070
             289
1070
               0
1070
             342
1005
3F
1070
             340
1005
2C
1070
              75
1070
               1
1070
              76
1070
               1
1070
               3
1000

1070
             174
1070
               0
1070
             147
1040
5.0
1002
}
  0
MTEXT
  5
D3
100
AcDbEntity
  8
notes
390
0
 62
               7
100
AcDbMText
 10
213.37090173566835
 20
895.35615780233661
 30
0.0
 40
24.432617187500004
 41
0.0
 71
               1
 72
               1
  1
カウンター切込寸法
  7
ＭＳ ゴシック
 73
               1
 44
0.7828267384257843
  0
LINE
  5
D4
100
AcDbEntity
  8
FAN70-0304
370
              15
390
0
  6
STYLE_01
 62
               7
100
AcDbLine
 10
-242.6771170002738
 20
-582.93973245733082
 30
0.0
 11
-242.6771170002738
 21
-582.65494228543093
 31
0.0
  0
LINE
  5
D5
100
AcDbEntity
  8
FAN70-0304
370
              15
390
0
  6
Continuous
 62
               7
100
AcDbLine
 10
-263.20384647807384
 20
-458.5784464345308
 30
0.0
 11
-263.28346048537378
 21
-454.01736301203078
 31
0.0
  0
LINE
  5
D6
100
AcDbEntity
  8
FAN70-0304
370
              15
390
0
  6
Continuous
 62
               7
100
AcDbLine
 10
-713.40351350967376
 20
-454.01736301203078
 30
0.0
 11
-713.48312751697381
 21
-458.5784464345308
 31
0.0
  0
ARC
  5
D7
100
AcDbEntity
  8
FAN70-0304
370
              15
390
0
  6
Continuous
 62
               7
100
AcDbCircle
 10
-266.78292741837379
 20
-454.0784464345308
 30
0.0
 40
3.5000000000000395
100
AcDbArc
 50
1.0000000001004163
 51
90.0
  0
ARC
  5
D8
100
AcDbEntity
  8
FAN70-0304
370
              15
390
0
  6
Continuous
 62
               7
100
AcDbCircle
 10
-709.90404657657382
 20
-454.0784464345308
 30
0.0
 40
3.5
100
AcDbArc
 50
90.0
 51
179.00000000000009
  0
ARC
  5
D9
100
AcDbEntity
  8
FAN70-0304
370
              15
390
0
  6
Continuous
 62
               7
100
AcDbCircle
 10
-488.34348699747375
 20
-395.75295942163092
 30
0.0
 40
208.82548701300001
100
AcDbArc
 50
280.89158635337213
 51
342.49123916119993
  0
ARC
  5
DA
100
AcDbEntity
  8
FAN70-0304
370
              15
390
0
  6
Continuous
 62
               7
100
AcDbCircle
 10
-488.34348699747375
 20
-395.75295942163092
 30
0.0
 40
208.82548701300001
100
AcDbArc
 50
197.50876083880001
 51
258.93644896770002
  0
ARC
  5
DB
100
AcDbEntity
  8
FAN70-0304
370
              15
390
0
  6
Continuous
 62
               7
100
AcDbCircle
 10
-447.28615282867383
 20
-609.57898082223096
 30
0.0
 40
8.9099999999999735
100
AcDbArc
 50
100.34533142070008
 51
127.30000000000022
  0
ARC
  5
DC
100
AcDbEntity
  8
FAN70-0304
370
              15
390
0
  6
Continuous
 62
               7
100
AcDbCircle
 10
-529.4008211663737
 20
-609.57898082223096
 30
0.0
 40
8.9099999999999344
100
AcDbArc
 50
52.700000000000074
 51
83.676581055307878
  0
LINE
  5
DD
100
AcDbEntity
  8
FAN70-0304
370
              15
390
0
  6
Continuous
 62
               7
100
AcDbLine
 10
-524.00146451997375
 20
-602.49131210783094
 30
0.0
 11
-516.2058244075738
 21
-608.42999843043094
 31
0.0
  0
LINE
  5
DE
100
AcDbEntity
  8
FAN70-0304
370
              15
390
0
  6
Continuous
 62
               7
100
AcDbLine
 10
-460.48114958737381
 20
-608.42999843043094
 30
0.0
 11
-452.68550947497374
 21
-602.49131210783094
 31
0.0
  0
ARC
  5
DF
100
AcDbEntity
  8
FAN70-0304
370
              15
390
0
  6
Continuous
 62
               7
100
AcDbCircle
 10
-464.34348699747375
 20
-603.83844643453085
 30
0.0
 40
6.0
100
AcDbArc
 50
270.0
 51
310.06999042470034
  0
ARC
  5
E0
100
AcDbEntity
  8
FAN70-0304
370
              15
390
0
  6
Continuous
 62
               7
100
AcDbCircle
 10
-512.34348699747375
 20
-603.83844643453085
 30
0.0
 40
5.9999999999999867
100
AcDbArc
 50
229.93000957529966
 51
270.0
  0
LINE
  5
E1
100
AcDbEntity
  8
FAN70-0304
370
              15
390
0
  6
Continuous
 62
               7
100
AcDbLine
 10
-488.34348699747375
 20
-458.5784464345308
 30
0.0
 11
-263.20384647807384
 21
-458.5784464345308
 31
0.0
  0
LINE
  5
E2
100
AcDbEntity
  8
FAN70-0304
370
              15
390
0
  6
Continuous
 62
               7
100
AcDbLine
 10
-713.48312751697381
 20
-458.5784464345308
 30
0.0
 11
-488.34348699747375
 21
-458.5784464345308
 31
0.0
  0
LINE
  5
E3
100
AcDbEntity
  8
FAN70-0304
370
              15
390
0
  6
Continuous
 62
               7
100
AcDbLine
 10
-709.90404657657382
 20
-450.5784464345308
 30
0.0
 11
-266.78292741837379
 21
-450.5784464345308
 31
0.0
  0
LINE
  5
E4
100
AcDbEntity
  8
FAN70-0304
370
              15
390
0
  6
Continuous
 62
               7
100
AcDbLine
 10
-460.48114958737381
 20
-608.42999843043094
 30
0.0
 11
-516.2058244075738
 21
-608.42999843043094
 31
0.0
  0
LINE
  5
E5
100
AcDbEntity
  8
FAN70-0304
370
              15
390
0
  6
Continuous
 62
               7
100
AcDbLine
 10
-464.34348699747375
 20
-609.83844643453085
 30
0.0
 11
-512.34348699747375
 21
-609.83844643453085
 31
0.0
  0
CIRCLE
  5
E6
100
AcDbEntity
  8
FAN70-0304
370
              15
390
0
  6
Continuous
 62
               7
100
AcDbCircle
 10
-488.34348699747375
 20
542.5
 30
0.0
 40
225.0
  0
CIRCLE
  5
E7
100
AcDbEntity
  8
FAN70-0304
370
              15
390
0
  6
Continuous
 62
               7
100
AcDbCircle
 10
-488.34348699747375
 20
542.5
 30
0.0
 40
200.0
  0
POLYLINE
  5
E8
100
AcDbEntity
  8
FAN70-0304
370
              15
390
0
  6
Continuous
 62
               7
100
AcDb2dPolyline
 66
               1
 10
0.0
 20
0.0
 30
0.0
 75
               5
  0
VERTEX
  5
E9
100
AcDbEntity
  8
FAN70-0304
370
              15
390
0
  6
Continuous
 62
               7
100
AcDbVertex
100
AcDb2dVertex
 10
-488.34348699747375
 20
719.53844903359982
 30
0.0
  0
VERTEX
  5
EA
100
AcDbEntity
  8
FAN70-0304
370
              15
390
0
  6
Continuous
 62
               7
100
AcDbVertex
100
AcDb2dVertex
 10
-491.11722546037379
 20
719.61664979269995
 30
0.0
  0
VERTEX
  5
EB
100
AcDbEntity
  8
FAN70-0304
370
              15
390
0
  6
Continuous
 62
               7
100
AcDbVertex
100
AcDb2dVertex
 10
-493.84350448917382
 20
719.84991403339995
 30
0.0
  0
VERTEX
  5
EC
100
AcDbEntity
  8
FAN70-0304
370
              15
390
0
  6
Continuous
 62
               7
100
AcDbVertex
100
AcDb2dVertex
 10
-496.47567669377372
 20
720.23425053979986
 30
0.0
  0
VERTEX
  5
ED
100
AcDbEntity
  8
FAN70-0304
370
              15
390
0
  6
Continuous
 62
               7
100
AcDbVertex
100
AcDb2dVertex
 10
-498.96870487797378
 20
720.76308320780004
 30
0.0
  0
VERTEX
  5
EE
100
AcDbEntity
  8
FAN70-0304
370
              15
390
0
  6
Continuous
 62
               7
100
AcDbVertex
100
AcDb2dVertex
 10
-501.27993263837379
 20
721.42736356369983
 30
0.0
  0
VERTEX
  5
EF
100
AcDbEntity
  8
FAN70-0304
370
              15
390
0
  6
Continuous
 62
               7
100
AcDbVertex
100
AcDb2dVertex
 10
-503.36981422727376
 20
722.21572558649973
 30
0.0
  0
VERTEX
  5
F0
100
AcDbEntity
  8
FAN70-0304
370
              15
390
0
  6
Continuous
 62
               7
100
AcDbVertex
100
AcDb2dVertex
 10
-505.20259119107379
 20
723.11468018350001
 30
0.0
  0
VERTEX
  5
F1
100
AcDbEntity
  8
FAN70-0304
370
              15
390
0
  6
Continuous
 62
               7
100
AcDbVertex
100
AcDb2dVertex
 10
-506.74690420797378
 20
724.1088459921998
 30
0.0
  0
VERTEX
  5
F2
100
AcDbEntity
  8
FAN70-0304
370
              15
390
0
  6
Continuous
 62
               7
100
AcDbVertex
100
AcDb2dVertex
 10
-507.97632965397372
 20
725.18121256009977
 30
0.0
  0
VERTEX
  5
F3
100
AcDbEntity
  8
FAN70-0304
370
              15
390
0
  6
Continuous
 62
               7
100
AcDbVertex
100
AcDb2dVertex
 10
-508.86983171897373
 20
726.31343139770001
 30
0.0
  0
VERTEX
  5
F4
100
AcDbEntity
  8
FAN70-0304
370
              15
390
0
  6
Continuous
 62
               7
100
AcDbVertex
100
AcDb2dVertex
 10
-509.41212233467377
 20
727.48612992699987
 30
0.0
  0
VERTEX
  5
F5
100
AcDbEntity
  8
FAN70-0304
370
              15
390
0
  6
Continuous
 62
               7
100
AcDbVertex
100
AcDb2dVertex
 10
-509.59392275847381
 20
728.67924295089983
 30
0.0
  0
VERTEX
  5
F6
100
AcDbEntity
  8
FAN70-0304
370
              15
390
0
  6
Continuous
 62
               7
100
AcDbVertex
100
AcDb2dVertex
 10
-509.41212233467377
 20
729.8723559747998
 30
0.0
  0
VERTEX
  5
F7
100
AcDbEntity
  8
FAN70-0304
370
              15
390
0
  6
Continuous
 62
               7
100
AcDbVertex
100
AcDb2dVertex
 10
-508.86983171897373
 20
731.04505450409988
 30
0.0
  0
VERTEX
  5
F8
100
AcDbEntity
  8
FAN70-0304
370
              15
390
0
  6
Continuous
 62
               7
100
AcDbVertex
100
AcDb2dVertex
 10
-507.97632965397372
 20
732.1772733416999
 30
0.0
  0
VERTEX
  5
F9
100
AcDbEntity
  8
FAN70-0304
370
              15
390
0
  6
Continuous
 62
               7
100
AcDbVertex
100
AcDb2dVertex
 10
-506.74690420797378
 20
733.24963990959986
 30
0.0
  0
VERTEX
  5
FA
100
AcDbEntity
  8
FAN70-0304
370
              15
390
0
  6
Continuous
 62
               7
100
AcDbVertex
100
AcDb2dVertex
 10
-505.20259119107379
 20
734.24380571829988
 30
0.0
  0
VERTEX
  5
FB
100
AcDbEntity
  8
FAN70-0304
370
              15
390
0
  6
Continuous
 62
               7
100
AcDbVertex
100
AcDb2dVertex
 10
-503.36981422727376
 20
735.14276031529994
 30
0.0
  0
VERTEX
  5
FC
100
AcDbEntity
  8
FAN70-0304
370
              15
390
0
  6
Continuous
 62
               7
100
AcDbVertex
100
AcDb2dVertex
 10
-501.27993263837379
 20
735.93112233809984
 30
0.0
  0
VERTEX
  5
FD
100
AcDbEntity
  8
FAN70-0304
370
              15
390
0
  6
Continuous
 62
               7
100
AcDbVertex
100
AcDb2dVertex
 10
-498.96870487797378
 20
736.5954026940999
 30
0.0
  0
VERTEX
  5
FE
100
AcDbEntity
  8
FAN70-0304
370
              15
390
0
  6
Continuous
 62
               7
100
AcDbVertex
100
AcDb2dVertex
 10
-496.47567669377372
 20
737.12423536199981
 30
0.0
  0
VERTEX
  5
FF
100
AcDbEntity
  8
FAN70-0304
370
              15
390
0
  6
Continuous
 62
               7
100
AcDbVertex
100
AcDb2dVertex
 10
-493.84350448917382
 20
737.50857186839994
 30
0.0
  0
VERTEX
  5
100
100
AcDbEntity
  8
FAN70-0304
370
              15
390
0
  6
Continuous
 62
               7
100
AcDbVertex
100
AcDb2dVertex
 10
-491.11722546037379
 20
737.74183610909995
 30
0.0
  0
VERTEX
  5
101
100
AcDbEntity
  8
FAN70-0304
370
              15
390
0
  6
Continuous
 62
               7
100
AcDbVertex
100
AcDb2dVertex
 10
-488.34348699747375
 20
737.82003686819985
 30
0.0
  0
VERTEX
  5
102
100
AcDbEntity
  8
FAN70-0304
370
              15
390
0
  6
Continuous
 62
               7
100
AcDbVertex
100
AcDb2dVertex
 10
-485.56974853457382
 20
737.74183610909995
 30
0.0
  0
VERTEX
  5
103
100
AcDbEntity
  8
FAN70-0304
370
              15
390
0
  6
Continuous
 62
               7
100
AcDbVertex
100
AcDb2dVertex
 10
-482.84346950587371
 20
737.50857186839994
 30
0.0
  0
VERTEX
  5
104
100
AcDbEntity
  8
FAN70-0304
370
              15
390
0
  6
Continuous
 62
               7
100
AcDbVertex
100
AcDb2dVertex
 10
-480.21129730127382
 20
737.12423536199981
 30
0.0
  0
VERTEX
  5
105
100
AcDbEntity
  8
FAN70-0304
370
              15
390
0
  6
Continuous
 62
               7
100
AcDbVertex
100
AcDb2dVertex
 10
-477.71826911697372
 20
736.5954026940999
 30
0.0
  0
VERTEX
  5
106
100
AcDbEntity
  8
FAN70-0304
370
              15
390
0
  6
Continuous
 62
               7
100
AcDbVertex
100
AcDb2dVertex
 10
-475.4070413565737
 20
735.93112233809984
 30
0.0
  0
VERTEX
  5
107
100
AcDbEntity
  8
FAN70-0304
370
              15
390
0
  6
Continuous
 62
               7
100
AcDbVertex
100
AcDb2dVertex
 10
-473.31715976777377
 20
735.14276031529994
 30
0.0
  0
VERTEX
  5
108
100
AcDbEntity
  8
FAN70-0304
370
              15
390
0
  6
Continuous
 62
               7
100
AcDbVertex
100
AcDb2dVertex
 10
-471.4843828038737
 20
734.24380571829988
 30
0.0
  0
VERTEX
  5
109
100
AcDbEntity
  8
FAN70-0304
370
              15
390
0
  6
Continuous
 62
               7
100
AcDbVertex
100
AcDb2dVertex
 10
-469.94006978697371
 20
733.24963990959986
 30
0.0
  0
VERTEX
  5
10A
100
AcDbEntity
  8
FAN70-0304
370
              15
390
0
  6
Continuous
 62
               7
100
AcDbVertex
100
AcDb2dVertex
 10
-468.71064434097377
 20
732.1772733416999
 30
0.0
  0
VERTEX
  5
10B
100
AcDbEntity
  8
FAN70-0304
370
              15
390
0
  6
Continuous
 62
               7
100
AcDbVertex
100
AcDb2dVertex
 10
-467.81714227607381
 20
731.04505450409988
 30
0.0
  0
VERTEX
  5
10C
100
AcDbEntity
  8
FAN70-0304
370
              15
390
0
  6
Continuous
 62
               7
100
AcDbVertex
100
AcDb2dVertex
 10
-467.27485166037377
 20
729.8723559747998
 30
0.0
  0
VERTEX
  5
10D
100
AcDbEntity
  8
FAN70-0304
370
              15
390
0
  6
Continuous
 62
               7
100
AcDbVertex
100
AcDb2dVertex
 10
-467.09305123657373
 20
728.67924295089983
 30
0.0
  0
VERTEX
  5
10E
100
AcDbEntity
  8
FAN70-0304
370
              15
390
0
  6
Continuous
 62
               7
100
AcDbVertex
100
AcDb2dVertex
 10
-467.27485166037377
 20
727.48612992699987
 30
0.0
  0
VERTEX
  5
10F
100
AcDbEntity
  8
FAN70-0304
370
              15
390
0
  6
Continuous
 62
               7
100
AcDbVertex
100
AcDb2dVertex
 10
-467.81714227607381
 20
726.31343139770001
 30
0.0
  0
VERTEX
  5
110
100
AcDbEntity
  8
FAN70-0304
370
              15
390
0
  6
Continuous
 62
               7
100
AcDbVertex
100
AcDb2dVertex
 10
-468.71064434097377
 20
725.18121256009977
 30
0.0
  0
VERTEX
  5
111
100
AcDbEntity
  8
FAN70-0304
370
              15
390
0
  6
Continuous
 62
               7
100
AcDbVertex
100
AcDb2dVertex
 10
-469.94006978697371
 20
724.1088459921998
 30
0.0
  0
VERTEX
  5
112
100
AcDbEntity
  8
FAN70-0304
370
              15
390
0
  6
Continuous
 62
               7
100
AcDbVertex
100
AcDb2dVertex
 10
-471.4843828038737
 20
723.11468018350001
 30
0.0
  0
VERTEX
  5
113
100
AcDbEntity
  8
FAN70-0304
370
              15
390
0
  6
Continuous
 62
               7
100
AcDbVertex
100
AcDb2dVertex
 10
-473.31715976777377
 20
722.21572558649973
 30
0.0
  0
VERTEX
  5
114
100
AcDbEntity
  8
FAN70-0304
370
              15
390
0
  6
Continuous
 62
               7
100
AcDbVertex
100
AcDb2dVertex
 10
-475.4070413565737
 20
721.42736356369983
 30
0.0
  0
VERTEX
  5
115
100
AcDbEntity
  8
FAN70-0304
370
              15
390
0
  6
Continuous
 62
               7
100
AcDbVertex
100
AcDb2dVertex
 10
-477.71826911697372
 20
720.76308320780004
 30
0.0
  0
VERTEX
  5
116
100
AcDbEntity
  8
FAN70-0304
370
              15
390
0
  6
Continuous
 62
               7
100
AcDbVertex
100
AcDb2dVertex
 10
-480.21129730127382
 20
720.23425053979986
 30
0.0
  0
VERTEX
  5
117
100
AcDbEntity
  8
FAN70-0304
370
              15
390
0
  6
Continuous
 62
               7
100
AcDbVertex
100
AcDb2dVertex
 10
-482.84346950587371
 20
719.84991403339995
 30
0.0
  0
VERTEX
  5
118
100
AcDbEntity
  8
FAN70-0304
370
              15
390
0
  6
Continuous
 62
               7
100
AcDbVertex
100
AcDb2dVertex
 10
-485.56974853457382
 20
719.61664979269995
 30
0.0
  0
VERTEX
  5
119
100
AcDbEntity
  8
FAN70-0304
370
              15
390
0
  6
Continuous
 62
               7
100
AcDbVertex
100
AcDb2dVertex
 10
-488.34348699747375
 20
719.53844903359982
 30
0.0
  0
SEQEND
  5
11A
100
AcDbEntity
  8
FAN70-0304
370
              15
390
0
  6
Continuous
 62
               7
  0
CIRCLE
  5
11B
100
AcDbEntity
  8
FAN70-0304
370
              15
390
0
  6
Continuous
 62
               7
100
AcDbCircle
 10
-488.34348699747375
 20
542.5
 30
0.0
 40
34.748994922099996
  0
CIRCLE
  5
11C
100
AcDbEntity
  8
FAN70-0304
370
              15
390
0
  6
Continuous
 62
               7
100
AcDbCircle
 10
-488.34348699747375
 20
542.5
 30
0.0
 40
24.0
  0
LINE
  5
11D
100
AcDbEntity
  8
FAN70-0304
370
              15
390
0
  6
Continuous
 62
               7
100
AcDbLine
 10
581.37563976471802
 20
-458.5784464345308
 30
0.0
 11
581.29602575741796
 21
-454.01736301203078
 31
0.0
  0
LINE
  5
11E
100
AcDbEntity
  8
FAN70-0304
370
              15
390
0
  6
Continuous
 62
               7
100
AcDbLine
 10
131.17597273311796
 20
-454.01736301203078
 30
0.0
 11
131.09635872581791
 21
-458.5784464345308
 31
0.0
  0
ARC
  5
11F
100
AcDbEntity
  8
FAN70-0304
370
              15
390
0
  6
Continuous
 62
               7
100
AcDbCircle
 10
577.79655882431803
 20
-454.0784464345308
 30
0.0
 40
3.5000000000000311
100
AcDbArc
 50
1.000000000199071
 51
90.0
  0
ARC
  5
120
100
AcDbEntity
  8
FAN70-0304
370
              15
390
0
  6
Continuous
 62
               7
100
AcDbCircle
 10
134.67543966611797
 20
-454.0784464345308
 30
0.0
 40
3.5
100
AcDbArc
 50
90.0
 51
179.00000000000011
  0
ARC
  5
121
100
AcDbEntity
  8
FAN70-0304
370
              15
390
0
  6
Continuous
 62
               7
100
AcDbCircle
 10
356.23599924521807
 20
-395.75295942163092
 30
0.0
 40
208.82548701299996
100
AcDbArc
 50
281.06355103229998
 51
342.49123916119993
  0
ARC
  5
122
100
AcDbEntity
  8
FAN70-0304
370
              15
390
0
  6
Continuous
 62
               7
100
AcDbCircle
 10
356.23599924521807
 20
-395.75295942163092
 30
0.0
 40
208.82548701299999
100
AcDbArc
 50
211.45582552139996
 51
258.93644896770002
  0
ARC
  5
123
100
AcDbEntity
  8
FAN70-0304
370
              15
390
0
  6
Continuous
 62
               7
100
AcDbCircle
 10
356.23599924521807
 20
-395.75295942163092
 30
0.0
 40
208.82548701300001
100
AcDbArc
 50
197.50876083880001
 51
199.49785028029999
  0
ARC
  5
124
100
AcDbEntity
  8
FAN70-0304
370
              15
390
0
  6
Continuous
 62
               7
100
AcDbCircle
 10
397.29333341411802
 20
-609.57898082223096
 30
0.0
 40
8.9099999999999628
100
AcDbArc
 50
100.34533142069969
 51
127.29999999999997
  0
ARC
  5
125
100
AcDbEntity
  8
FAN70-0304
370
              15
390
0
  6
Continuous
 62
               7
100
AcDbCircle
 10
315.17866507641793
 20
-609.57898082223096
 30
0.0
 40
8.9099999999999344
100
AcDbArc
 50
52.700000000000074
 51
79.654668579300292
  0
LINE
  5
126
100
AcDbEntity
  8
FAN70-0304
370
              15
390
0
  6
Continuous
 62
               7
100
AcDbLine
 10
320.57802172281788
 20
-602.49131210783094
 30
0.0
 11
328.37366183511801
 21
-608.42999843043094
 31
0.0
  0
LINE
  5
127
100
AcDbEntity
  8
FAN70-0304
370
              15
390
0
  6
Continuous
 62
               7
100
AcDbLine
 10
384.09833665541805
 20
-608.42999843043094
 30
0.0
 11
391.89397676771796
 21
-602.49131210783094
 31
0.0
  0
ARC
  5
128
100
AcDbEntity
  8
FAN70-0304
370
              15
390
0
  6
Continuous
 62
               7
100
AcDbCircle
 10
380.23599924521807
 20
-603.83844643453085
 30
0.0
 40
6.0
100
AcDbArc
 50
270.0
 51
310.06999042470034
  0
ARC
  5
129
100
AcDbEntity
  8
FAN70-0304
370
              15
390
0
  6
Continuous
 62
               7
100
AcDbCircle
 10
332.23599924521807
 20
-603.83844643453085
 30
0.0
 40
5.9999999999999867
100
AcDbArc
 50
229.93000957529966
 51
270.0
  0
ARC
  5
12A
100
AcDbEntity
  8
FAN70-0304
370
              15
390
0
  6
Continuous
 62
               7
100
AcDbCircle
 10
206.51851626661798
 20
-448.76437909183079
 30
0.0
 40
50.000000000000021
100
AcDbArc
 50
199.49785028030001
 51
200.50406804659994
  0
ARC
  5
12B
100
AcDbEntity
  8
FAN70-0304
370
              15
390
0
  6
Continuous
 62
               7
100
AcDbCircle
 10
220.751068697318
 20
-478.63461553033079
 30
0.0
 40
49.999999999999972
100
AcDbArc
 50
210.44960775499996
 51
211.45582552139993
  0
ARC
  5
12C
100
AcDbEntity
  8
FAN70-0304
370
              15
390
0
  6
Continuous
 62
               7
100
AcDbCircle
 10
158.20624740401794
 20
-466.83150607293084
 30
0.0
 40
1.5799999999999836
100
AcDbArc
 50
329.4559467848984
 51
20.504068046499015
  0
ARC
  5
12D
100
AcDbEntity
  8
FAN70-0304
370
              15
390
0
  6
Continuous
 62
               7
100
AcDbCircle
 10
176.28522923661794
 20
-504.77434623013079
 30
0.0
 40
1.5799999999999932
100
AcDbArc
 50
30.449607755799967
 51
81.497729016799582
  0
ARC
  5
12E
100
AcDbEntity
  8
FAN70-0304
370
              15
390
0
  6
Continuous
 62
               7
100
AcDbCircle
 10
163.78485586101792
 20
-470.28212817493085
 30
0.0
 40
4.9800000000000688
100
AcDbArc
 50
147.88234133829985
 51
205.47683790080023
  0
ARC
  5
12F
100
AcDbEntity
  8
FAN70-0304
370
              15
390
0
  6
Continuous
 62
               7
100
AcDbCircle
 10
177.11958491411789
 20
-498.26807880473081
 30
0.0
 40
4.9799999999999631
100
AcDbArc
 50
205.47683790080023
 51
263.0713344634006
  0
LINE
  5
130
100
AcDbEntity
  8
FAN70-0304
370
              15
390
0
  6
Continuous
 62
               7
100
AcDbLine
 10
159.28911481191798
 20
-472.42425618683075
 30
0.0
 11
172.62384386501796
 21
-500.41020681663093
 31
0.0
  0
LINE
  5
131
100
AcDbEntity
  8
FAN70-0304
370
              15
390
0
  6
Continuous
 62
               7
100
AcDbLine
 10
131.09635872581791
 20
-458.5784464345308
 30
0.0
 11
581.37563976471802
 21
-458.5784464345308
 31
0.0
  0
LINE
  5
132
100
AcDbEntity
  8
FAN70-0304
370
              15
390
0
  6
Continuous
 62
               7
100
AcDbLine
 10
134.67543966611797
 20
-450.5784464345308
 30
0.0
 11
577.79655882431803
 21
-450.5784464345308
 31
0.0
  0
LINE
  5
133
100
AcDbEntity
  8
FAN70-0304
370
              15
390
0
  6
Continuous
 62
               7
100
AcDbLine
 10
384.09833665541805
 20
-608.42999843043094
 30
0.0
 11
328.37366183511801
 21
-608.42999843043094
 31
0.0
  0
LINE
  5
134
100
AcDbEntity
  8
FAN70-0304
370
              15
390
0
  6
Continuous
 62
               7
100
AcDbLine
 10
380.23599908201788
 20
-609.83844643453085
 30
0.0
 11
332.23599924521807
 21
-609.83844643453085
 31
0.0
  0
LINE
  5
135
100
AcDbEntity
  8
FAN70-0304
370
              15
390
0
  6
Continuous
 62
               7
100
AcDbLine
 10
159.56700450721789
 20
-467.6344631739309
 30
0.0
 11
176.518830043218
 21
-503.21171042383088
 31
0.0
  0
ARC
  5
136
100
AcDbEntity
  8
FAN70-0304
370
              15
390
0
  6
STYLE_12
 62
               7
100
AcDbCircle
 10
-488.34348699747375
 20
-395.75295942163092
 30
0.0
 40
206.30000000000001
100
AcDbArc
 50
280.89817839987535
 51
344.67571056254536
  0
ARC
  5
137
100
AcDbEntity
  8
FAN70-0304
370
              15
390
0
  6
Continuous
 62
               7
100
AcDbCircle
 10
-447.28615282857379
 20
-609.57898082223096
 30
0.0
 40
11.399999999999956
100
AcDbArc
 50
100.34533142069989
 51
127.29999999999973
  0
LINE
  5
138
100
AcDbEntity
  8
FAN70-0304
370
              15
390
0
  6
STYLE_12
 62
               7
100
AcDbLine
 10
-454.19442059160281
 20
-600.5105831404851
 30
0.0
 11
-466.06262653785461
 21
-609.83844643453085
 31
0.0
  0
ARC
  5
139
100
AcDbEntity
  8
FAN70-0304
370
              15
390
0
  6
STYLE_12
 62
               7
100
AcDbCircle
 10
-488.34348699747375
 20
-395.75295942163092
 30
0.0
 40
206.30000000000007
100
AcDbArc
 50
195.32428943745464
 51
259.10182160012465
  0
ARC
  5
13A
100
AcDbEntity
  8
FAN70-0304
370
              15
390
0
  6
Continuous
 62
               7
100
AcDbCircle
 10
-529.40082116637382
 20
-609.57898082223096
 30
0.0
 40
11.400000000000055
100
AcDbArc
 50
52.70000000000006
 51
79.654668579299539
  0
LINE
  5
13B
100
AcDbEntity
  8
FAN70-0304
370
              15
390
0
  6
STYLE_12
 62
               7
100
AcDbLine
 10
-522.49255340334469
 20
-600.5105831404851
 30
0.0
 11
-510.62434745709299
 21
-609.83844643453085
 31
0.0
  0
ARC
  5
13C
100
AcDbEntity
  8
FAN70-0304
370
              15
390
0
  6
STYLE_12
 62
               7
100
AcDbCircle
 10
356.23599924524615
 20
-395.75295942158073
 30
0.0
 40
206.29999999999998
100
AcDbArc
 50
195.3242894374614
 51
259.10182160013142
  0
ARC
  5
13D
100
AcDbEntity
  8
FAN70-0304
370
              15
390
0
  6
Continuous
 62
               7
100
AcDbCircle
 10
315.17866507637143
 20
-609.57898082218549
 30
0.0
 40
11.399999999999999
100
AcDbArc
 50
52.70000000000703
 51
79.654668579306787
  0
LINE
  5
13E
100
AcDbEntity
  8
FAN70-0304
370
              15
390
0
  6
STYLE_12
 62
               7
100
AcDbLine
 10
322.08693283939942
 20
-600.51058314043894
 30
0.0
 11
333.95513878565225
 21
-609.83844643448333
 31
0.0
  0
ARC
  5
13F
100
AcDbEntity
  8
FAN70-0304
370
              15
390
0
  6
STYLE_12
 62
               7
100
AcDbCircle
 10
356.23599924524615
 20
-395.75295942158073
 30
0.0
 40
206.30000000000004
100
AcDbArc
 50
280.89817839988211
 51
344.67571056255201
  0
ARC
  5
140
100
AcDbEntity
  8
FAN70-0304
370
              15
390
0
  6
Continuous
 62
               7
100
AcDbCircle
 10
397.29333341417146
 20
-609.57898082217594
 30
0.0
 40
11.399999999999968
100
AcDbArc
 50
100.34533142070656
 51
127.30000000000645
  0
LINE
  5
141
100
AcDbEntity
  8
FAN70-0304
370
              15
390
0
  6
STYLE_12
 62
               7
100
AcDbLine
 10
390.3850656511413
 20
-600.51058314043075
 30
0.0
 11
378.51685970489063
 21
-609.83844643447787
 31
0.0
  0
POLYLINE
  5
142
100
AcDbEntity
  8
FAN70-0304
370
              15
390
0
  6
Continuous
 62
               7
100
AcDb2dPolyline
 66
               1
 10
0.0
 20
0.0
 30
0.0
 70
               1
 75
               5
  0
VERTEX
  5
143
100
AcDbEntity
  8
FAN70-0304
370
              15
390
0
  6
Continuous
 62
               7
100
AcDbVertex
100
AcDb2dVertex
 10
321.24590173566833
 20
-604.57844643453086
 30
0.0
  0
VERTEX
  5
144
100
AcDbEntity
  8
FAN70-0304
370
              15
390
0
  6
Continuous
 62
               7
100
AcDbVertex
100
AcDb2dVertex
 10
391.24590173566833
 20
-604.57844643453086
 30
0.0
  0
VERTEX
  5
145
100
AcDbEntity
  8
FAN70-0304
370
              15
390
0
  6
Continuous
 62
               7
100
AcDbVertex
100
AcDb2dVertex
 10
391.24590173566833
 20
-651.57844643453086
 30
0.0
  0
VERTEX
  5
146
100
AcDbEntity
  8
FAN70-0304
370
              15
390
0
  6
Continuous
 62
               7
100
AcDbVertex
100
AcDb2dVertex
 10
321.24590173566833
 20
-651.57844643453086
 30
0.0
  0
SEQEND
  5
147
100
AcDbEntity
  8
FAN70-0304
370
              15
390
0
  6
Continuous
 62
               7
  0
POLYLINE
  5
148
100
AcDbEntity
  8
FAN70-0304
370
              15
390
0
  6
Continuous
 62
               7
100
AcDb2dPolyline
 66
               1
 10
0.0
 20
0.0
 30
0.0
 70
               1
 75
               5
  0
VERTEX
  5
149
100
AcDbEntity
  8
FAN70-0304
370
              15
390
0
  6
Continuous
 62
               7
100
AcDbVertex
100
AcDb2dVertex
 10
-523.3540982643317
 20
-604.57844643453086
 30
0.0
  0
VERTEX
  5
14A
100
AcDbEntity
  8
FAN70-0304
370
              15
390
0
  6
Continuous
 62
               7
100
AcDbVertex
100
AcDb2dVertex
 10
-453.3540982643317
 20
-604.57844643453086
 30
0.0
  0
VERTEX
  5
14B
100
AcDbEntity
  8
FAN70-0304
370
              15
390
0
  6
Continuous
 62
               7
100
AcDbVertex
100
AcDb2dVertex
 10
-453.3540982643317
 20
-651.57844643453086
 30
0.0
  0
VERTEX
  5
14C
100
AcDbEntity
  8
FAN70-0304
370
              15
390
0
  6
Continuous
 62
               7
100
AcDbVertex
100
AcDb2dVertex
 10
-523.3540982643317
 20
-651.57844643453086
 30
0.0
  0
SEQEND
  5
14D
100
AcDbEntity
  8
FAN70-0304
370
              15
390
0
  6
Continuous
 62
               7
  0
CIRCLE
  5
14E
100
AcDbEntity
  8
FAN70-0304
370
               5
390
0
  6
STYLE_12
 62
               7
100
AcDbCircle
 10
356.24590173566833
 20
542.5
 30
0.0
 40
225.00000000000006
  0
CIRCLE
  5
14F
100
AcDbEntity
  8
FAN70-0304
370
               5
390
0
  6
STYLE_12
 62
               7
100
AcDbCircle
 10
356.24590173566833
 20
542.5
 30
0.0
 40
24.0
  0
CIRCLE
  5
150
100
AcDbEntity
  8
FAN70-0304
370
              15
390
0
  6
Continuous
 62
               7
100
AcDbCircle
 10
356.24590173566833
 20
542.5
 30
0.0
 40
207.50000000000006
  0
MTEXT
  5
151
100
AcDbEntity
  8
FAN70-0304
390
0
 62
               7
100
AcDbMText
 10
570.0
 20
266.12761718749999
 30
0.0
 40
24.432617187500004
 41
0.0
 71
               1
 72
               1
  1
オーバーカウンター置き
  7
ＭＳ ゴシック
 73
               1
 44
0.7828267384257843
  0
MTEXT
  5
152
100
AcDbEntity
  8
FAN70-0304
390
0
 62
               7
100
AcDbMText
 10
70.0
 20
102.12761718749999
 30
0.0
 40
24.432617187500004
 41
0.0
 71
               1
 72
               1
  1
※カウンターの切込は、商品に付属する型紙を\P　ご参照の上、加工を行ってください。
  7
ＭＳ ゴシック
 73
               1
 44
1.1742401076386764
  0
LINE
  5
153
100
AcDbEntity
  8
FAN70-0304
370
              15
390
0
  6
Continuous
 62
               7
100
AcDbLine
 10
-523.3540982643317
 20
-616.12308061868248
 30
0.0
 11
-453.3540982643317
 21
-616.1034070950825
 31
0.0
  0
LINE
  5
154
100
AcDbEntity
  8
FAN70-0304
370
              15
390
0
  6
Continuous
 62
               7
100
AcDbLine
 10
321.65140022553214
 20
-616.12308061868248
 30
0.0
 11
391.65140022553214
 21
-616.1034070950825
 31
0.0
  0
ENDSEC
  0
SECTION
  2
OBJECTS
  0
DICTIONARY
  5
19
100
AcDbDictionary
280
               0
281
               1
  3
ACAD_GROUP
350
1A
  3
ACAD_MLINESTYLE
350
1B
  3
ACAD_LAYOUT
350
1E
  3
ACAD_PLOTSETTINGS
350
22
  3
ACAD_PLOTSTYLENAME
350
1F
  0
DICTIONARY
  5
1A
102
{ACAD_REACTORS
330
19
102
}
100
AcDbDictionary
280
               0
281
               1
  0
DICTIONARY
  5
1B
102
{ACAD_REACTORS
330
19
102
}
100
AcDbDictionary
280
               0
281
               1
  3
Standard
350
1C
  0
MLINESTYLE
  5
1C
102
{ACAD_REACTORS
330
1B
102
}
100
AcDbMlineStyle
  2
Standard
 70
               0
  3

 62
               0
 51
90.0
 52
90.0
 71
               2
 49
0.5
 62
             256
  6
ByLayer
 49
-0.5
 62
             256
  6
ByLayer
  0
ACDBDICTIONARYWDFLT
  5
1F
102
{ACAD_REACTORS
330
19
102
}
100
AcDbDictionary
281
               1
  3
Normal
350
1D
100
AcDbDictionaryWithDefault
340
1D
  0
ACDBPLACEHOLDER
  5
1D
102
{ACAD_REACTORS
330
1F
102
}
  0
LAYOUT
  5
20
102
{ACAD_REACTORS
330
1E
102
}
100
AcDbPlotSettings
  1

  2

  4

  6

 40
0.0
 41
0.0
 42
0.0
 43
0.0
 44
0.0
 45
0.0
 46
0.0
 47
0.0
 48
0.0
 49
0.0
140
0.0
141
0.0
142
1.0
143
1.0
 70
            1024
 72
               0
 73
               0
 74
               0
  7

 75
               0
147
1.0
148
0.0
149
0.0
100
AcDbLayout
  1
Model
 70
               0
 71
               0
 10
0.0
 20
0.0
 11
0.0
 21
0.0
 12
0.0
 22
0.0
 32
0.0
 14
0.0
 24
0.0
 34
0.0
 15
0.0
 25
0.0
 35
0.0
146
0.0
 13
0.0
 23
0.0
 33
0.0
 16
0.0
 26
0.0
 36
0.0
 17
0.0
 27
0.0
 37
0.0
 76
               0
330
A
331
0
345
0
346
0
  0
LAYOUT
  5
21
102
{ACAD_REACTORS
330
1E
102
}
100
AcDbPlotSettings
  1

  2

  4

  6

 40
0.0
 41
0.0
 42
0.0
 43
0.0
 44
0.0
 45
0.0
 46
0.0
 47
0.0
 48
0.0
 49
0.0
140
0.0
141
0.0
142
1.0
143
1.0
 70
               0
 72
               0
 73
               0
 74
               0
  7

 75
               0
147
1.0
148
0.0
149
0.0
100
AcDbLayout
  1
Layout1
 70
               0
 71
               0
 10
0.0
 20
0.0
 11
0.0
 21
0.0
 12
0.0
 22
0.0
 32
0.0
 14
0.0
 24
0.0
 34
0.0
 15
0.0
 25
0.0
 35
0.0
146
0.0
 13
0.0
 23
0.0
 33
0.0
 16
0.0
 26
0.0
 36
0.0
 17
0.0
 27
0.0
 37
0.0
 76
               0
330
B
331
0
345
0
346
0
  0
DICTIONARY
  5
1E
102
{ACAD_REACTORS
330
19
102
}
100
AcDbDictionary
280
               0
281
               1
  3
Layout1
350
21
  3
Model
350
20
  0
DICTIONARY
  5
22
102
{ACAD_REACTORS
330
19
102
}
100
AcDbDictionary
280
               0
281
               1
  0
ENDSEC
  0
EOF
