  0
SECTION
  2
HEADER
  9
$ACADVER
  1
AC1015
  9
$ACADMAINTVER
 70
               6
  9
$DWGCODEPAGE
  3
ANSI_932
  9
$INSBASE
 10
0.0
 20
0.0
 30
0.0
  9
$EXTMIN
 10
-975.00000000024124
 20
-1431.5255224711129
 30
-14.834305555555554
  9
$EXTMAX
 10
975.00000000024124
 20
1405.9972926412995
 30
14.834305555555554
  9
$LIMMIN
 10
0.0
 20
0.0
  9
$LIMMAX
 10
0.0
 20
0.0
  9
$ORTHOMODE
 70
               0
  9
$REGENMODE
 70
               1
  9
$FILLMODE
 70
               1
  9
$QTEXTMODE
 70
               0
  9
$MIRRTEXT
 70
               1
  9
$LTSCALE
 40
50.799999999999997
  9
$ATTMODE
 70
               1
  9
$TEXTSIZE
 40
0.2
  9
$TRACEWID
 40
1.0
  9
$TEXTSTYLE
  7
Standard
  9
$CLAYER
  8
template
  9
$CELTYPE
  6
Continuous
  9
$CECOLOR
 62
             256
  9
$CELTSCALE
 40
1.0
  9
$DISPSILH
 70
               0
  9
$DIMSCALE
 40
1.0
  9
$DIMASZ
 40
9.9993896484374982
  9
$DIMEXO
 40
24.999999999999996
  9
$DIMDLI
 40
0.9999999999999999
  9
$DIMRND
 40
0.0
  9
$DIMDLE
 40
0.0
  9
$DIMEXE
 40
0.0
  9
$DIMTP
 40
0.0
  9
$DIMTM
 40
0.0
  9
$DIMTXT
 40
24.432617187500004
  9
$DIMCEN
 40
0.0
  9
$DIMTSZ
 40
0.0
  9
$DIMTOL
 70
               0
  9
$DIMLIM
 70
               0
  9
$DIMTIH
 70
               0
  9
$DIMTOH
 70
               0
  9
$DIMSE1
 70
               0
  9
$DIMSE2
 70
               0
  9
$DIMTAD
 70
               1
  9
$DIMZIN
 70
              11
  9
$DIMBLK
  1
_DOT
  9
$DIMASO
 70
               1
  9
$DIMSHO
 70
               1
  9
$DIMPOST
  1
<>
  9
$DIMAPOST
  1
[]
  9
$DIMALT
 70
               0
  9
$DIMALTD
 70
               1
  9
$DIMALTF
 40
1.0
  9
$DIMLFAC
 40
1.0
  9
$DIMTOFL
 70
               0
  9
$DIMTVP
 40
0.0
  9
$DIMTIX
 70
               1
  9
$DIMSOXD
 70
               0
  9
$DIMSAH
 70
               0
  9
$DIMBLK1
  1

  9
$DIMBLK2
  1

  9
$DIMSTYLE
  2
tfrom線あり
  9
$DIMCLRD
 70
               0
  9
$DIMCLRE
 70
               0
  9
$DIMCLRT
 70
               0
  9
$DIMTFAC
 40
1.0
  9
$DIMGAP
 40
0.4999999999999999
  9
$DIMJUST
 70
               0
  9
$DIMSD1
 70
               0
  9
$DIMSD2
 70
               0
  9
$DIMTOLJ
 70
               1
  9
$DIMTZIN
 70
              11
  9
$DIMALTZ
 70
              11
  9
$DIMALTTZ
 70
              11
  9
$DIMUPT
 70
               0
  9
$DIMDEC
 70
               1
  9
$DIMTDEC
 70
               1
  9
$DIMALTU
 70
               2
  9
$DIMALTTD
 70
               2
  9
$DIMTXSTY
  7
ＭＳ ゴシック
  9
$DIMAUNIT
 70
               0
  9
$DIMADEC
 70
               2
  9
$DIMALTRND
 40
0.0
  9
$DIMAZIN
 70
               0
  9
$DIMDSEP
 70
              46
  9
$DIMATFIT
 70
               0
  9
$DIMFRAC
 70
               2
  9
$DIMLDRBLK
  1

  9
$DIMLUNIT
 70
               2
  9
$DIMLWD
 70
              -2
  9
$DIMLWE
 70
              -2
  9
$DIMTMOVE
 70
               0
  9
$LUNITS
 70
               2
  9
$LUPREC
 70
               4
  9
$SKETCHINC
 40
0.1
  9
$FILLETRAD
 40
0.0
  9
$AUNITS
 70
               0
  9
$AUPREC
 70
               0
  9
$MENU
  1
acad
  9
$ELEVATION
 40
0.0
  9
$PELEVATION
 40
0.0
  9
$THICKNESS
 40
0.0
  9
$LIMCHECK
 70
               0
  9
$CHAMFERA
 40
0.0
  9
$CHAMFERB
 40
0.0
  9
$CHAMFERC
 40
0.0
  9
$CHAMFERD
 40
0.0
  9
$SKPOLY
 70
               0
  9
$TDCREATE
 40
2456050.645462963
  9
$TDUCREATE
 40
0.000000000
  9
$TDUPDATE
 40
2456050.645462963
  9
$TDUUPDATE
 40
0.000000000
  9
$TDINDWG
 40
0.0000000000
  9
$TDUSRTIMER
 40
0.0000000000
  9
$USRTIMER
 70
               1
  9
$ANGBASE
 50
0.0
  9
$ANGDIR
 70
               0
  9
$PDMODE
 70
               1
  9
$PDSIZE
 40
-2.0
  9
$PLINEWID
 40
0.0
  9
$SPLFRAME
 70
               0
  9
$SPLINETYPE
 70
               6
  9
$SPLINESEGS
 70
               8
  9
$HANDSEED
  5
10A
  9
$SURFTAB1
 70
               6
  9
$SURFTAB2
 70
               6
  9
$SURFTYPE
 70
               6
  9
$SURFU
 70
               6
  9
$SURFV
 70
               6
  9
$UCSBASE
  2

  9
$UCSNAME
  2

  9
$UCSORG
 10
0.0
 20
0.0
 30
0.0
  9
$UCSXDIR
 10
1.0
 20
0.0
 30
0.0
  9
$UCSYDIR
 10
0.0
 20
1.0
 30
0.0
  9
$UCSORTHOREF
  2

  9
$UCSORTHOVIEW
 70
               0
  9
$UCSORGTOP
 10
0.0
 20
0.0
 30
0.0
  9
$UCSORGBOTTOM
 10
0.0
 20
0.0
 30
0.0
  9
$UCSORGLEFT
 10
0.0
 20
0.0
 30
0.0
  9
$UCSORGRIGHT
 10
0.0
 20
0.0
 30
0.0
  9
$UCSORGFRONT
 10
0.0
 20
0.0
 30
0.0
  9
$UCSORGBACK
 10
0.0
 20
0.0
 30
0.0
  9
$PUCSBASE
  2

  9
$PUCSNAME
  2

  9
$PUCSORG
 10
0.0
 20
0.0
 30
0.0
  9
$PUCSXDIR
 10
1.0
 20
0.0
 30
0.0
  9
$PUCSYDIR
 10
0.0
 20
1.0
 30
0.0
  9
$PUCSORTHOREF
  2

  9
$PUCSORTHOVIEW
 70
               0
  9
$PUCSORGTOP
 10
0.0
 20
0.0
 30
0.0
  9
$PUCSORGBOTTOM
 10
0.0
 20
0.0
 30
0.0
  9
$PUCSORGLEFT
 10
0.0
 20
0.0
 30
0.0
  9
$PUCSORGRIGHT
 10
0.0
 20
0.0
 30
0.0
  9
$PUCSORGFRONT
 10
0.0
 20
0.0
 30
0.0
  9
$PUCSORGBACK
 10
0.0
 20
0.0
 30
0.0
  9
$USERI1
 70
               0
  9
$USERI2
 70
               0
  9
$USERI3
 70
               0
  9
$USERI4
 70
               0
  9
$USERI5
 70
               0
  9
$USERR1
 40
0.0
  9
$USERR2
 40
0.0
  9
$USERR3
 40
0.0
  9
$USERR4
 40
0.0
  9
$USERR5
 40
0.0
  9
$WORLDVIEW
 70
               1
  9
$SHADEDGE
 70
               3
  9
$SHADEDIF
 70
              70
  9
$TILEMODE
 70
               1
  9
$MAXACTVP
 70
              64
  9
$PINSBASE
 10
0.0
 20
0.0
 30
0.0
  9
$PLIMCHECK
 70
               0
  9
$PEXTMIN
 10
1.0000000000000000E+20
 20
1.0000000000000000E+20
 30
1.0000000000000000E+20
  9
$PEXTMAX
 10
-1.0000000000000000E+20
 20
-1.0000000000000000E+20
 30
-1.0000000000000000E+20
  9
$PLIMMIN
 10
0.0
 20
0.0
  9
$PLIMMAX
 10
12.0
 20
9.0
  9
$UNITMODE
 70
               0
  9
$VISRETAIN
 70
               0
  9
$PLINEGEN
 70
               1
  9
$PSLTSCALE
 70
               0
  9
$TREEDEPTH
 70
            3020
  9
$CMLSTYLE
  2
Standard
  9
$CMLJUST
 70
               0
  9
$CMLSCALE
 40
1.0
  9
$PROXYGRAPHICS
 70
               0
  9
$MEASUREMENT
 70
               1
  9
$CELWEIGHT
370
               0
  9
$ENDCAPS
280
               0
  9
$JOINSTYLE
280
               0
  9
$LWDISPLAY
290
               1
  9
$INSUNITS
 70
               4
  9
$HYPERLINKBASE
  1

  9
$STYLESHEET
  1

  9
$XEDIT
290
               1
  9
$CEPSNTYPE
380
               0
  9
$PSTYLEMODE
290
               1
  9
$FINGERPRINTGUID
  2

  9
$VERSIONGUID
  2

  9
$EXTNAMES
290
               1
  9
$PSVPSCALE
 40
0.0
  0
ENDSEC
  0
SECTION
  2
CLASSES
  0
CLASS
  1
LWPOLYLINE
  2
AcDbPolyline
  3
AutoCAD 2000
 90
        0
280
               0
281
               1
  0
CLASS
  1
IMAGE
  2
AcDbRasterImage
  3
ISM
 90
      127
280
               0
281
               1
  0
CLASS
  1
OLE2FRAME
  2
AcDbOle2Frame
  3
AutoCAD 2000
 90
        0
280
               0
281
               1
  0
CLASS
  1
HATCH
  2
AcDbHatch
  3
AutoCAD 2000
 90
        0
280
               0
281
               1
  0
CLASS
  1
DICTIONARYVAR
  2
AcDbDictionaryVar
  3
AutoCAD 2000
 90
        0
280
               0
281
               0
  0
CLASS
  1
RASTERVARIABLES
  2
AcDbRasterVariables
  3
ISM
 90
        0
280
               0
281
               0
  0
CLASS
  1
IMAGEDEF
  2
AcDbRasterImageDef
  3
ISM
 90
        0
280
               0
281
               0
  0
CLASS
  1
IMAGEDEF_REACTOR
  2
AcDbRasterImageDefReactor
  3
ISM
 90
        1
280
               0
281
               0
  0
CLASS
  1
IDBUFFER
  2
AcDbIdBuffer
  3
AutoCAD 2000
 90
        0
280
               0
281
               0
  0
CLASS
  1
SPATIAL_FILTER
  2
AcDbSpatialFilter
  3
AutoCAD 2000
 90
        0
280
               0
281
               0
  0
CLASS
  1
XRECORD
  2
AcDbXrecord
  3
AutoCAD 2000
 90
        0
280
               0
281
               0
  0
CLASS
  1
SORTENTSTABLE
  2
AcDbSortentsTable
  3
AutoCAD 2000
 90
        0
280
               0
281
               0
  0
CLASS
  1
LAYER_INDEX
  2
AcDbLayerIndex
  3
AutoCAD 2000
 90
        0
280
               0
281
               0
  0
CLASS
  1
SPATIAL_INDEX
  2
AcDbSpatialIndex
  3
AutoCAD 2000
 90
        0
280
               0
281
               0
  0
CLASS
  1
OBJECT_PTR
  2
CAseDLPNTableRecord
  3
"ASE-LPNTableRecord"
 90
        1
280
               0
281
               0
  0
CLASS
  1
LAYOUT
  2
AcDbLayout
  3
AutoCAD 2000
 90
        0
280
               0
281
               0
  0
CLASS
  1
PLOTSETTINGS
  2
AcDbPlotSettings
  3
AutoCAD 2000
 90
        0
280
               0
281
               0
  0
CLASS
  1
ACDBDICTIONARYWDFLT
  2
AcDbDictionaryWithDefault
  3
AutoCAD 2000
 90
        0
280
               0
281
               0
  0
CLASS
  1
ACDBPLACEHOLDER
  2
AcDbPlaceHolder
  3
AutoCAD 2000
 90
        0
280
               0
281
               0
  0
ENDSEC
  0
SECTION
  2
TABLES
  0
TABLE
  2
VPORT
  5
7
100
AcDbSymbolTable
 70
               1
  0
VPORT
  5
15
100
AcDbSymbolTableRecord
100
AcDbViewportTableRecord
  2
*ACTIVE
 70
               0
 10
0.0
 20
0.0
 11
1.0
 21
1.0
 12
0.0
 22
-12.764114914906713
 13
0.0
 23
0.0
 14
1.0
 24
1.0
 15
0.0
 25
0.0
 16
0.0
 26
0.0
 36
1.0
 17
0.0
 27
0.0
 37
0.0
 40
2837.5228151124124
 41
0.688564
 42
50.0
 43
0.0
 44
0.0
 50
0.0
 51
0.0
 71
               0
 72
            2000
 73
               1
 74
               1
 75
               0
 76
               0
 77
               0
 78
               0
281
               0
 65
               0
110
0.0
120
0.0
130
0.0
111
1.0
121
0.0
131
0.0
112
0.0
122
1.0
132
0.0
345
0
346
0
 79
               0
146
0.0
  0
ENDTAB
  0
TABLE
  2
LTYPE
  5
4
100
AcDbSymbolTable
 70
              17
  0
LTYPE
  5
11
100
AcDbSymbolTableRecord
100
AcDbLinetypeTableRecord
  2
ByBlock
 70
              64
  3

 72
              65
 73
               0
 40
0.0
  0
LTYPE
  5
12
100
AcDbSymbolTableRecord
100
AcDbLinetypeTableRecord
  2
ByLayer
 70
              64
  3

 72
              65
 73
               0
 40
0.0
  0
LTYPE
  5
13
100
AcDbSymbolTableRecord
100
AcDbLinetypeTableRecord
  2
Continuous
 70
              64
  3
Solid line
 72
              65
 73
               0
 40
0.0
  0
LTYPE
  5
2D
100
AcDbSymbolTableRecord
100
AcDbLinetypeTableRecord
  2
STYLE_01
 70
               0
  3

 72
              65
 73
               4
 40
0.3999999999999999
 49
0.25
 74
               0
 49
-0.05
 74
               0
 49
0.05
 74
               0
 49
-0.05
 74
               0
  0
LTYPE
  5
2E
100
AcDbSymbolTableRecord
100
AcDbLinetypeTableRecord
  2
STYLE_02
 70
               0
  3

 72
              65
 73
               2
 40
0.6944250000000001
 49
0.48607
 74
               0
 49
-0.2083550000000001
 74
               0
  0
LTYPE
  5
2F
100
AcDbSymbolTableRecord
100
AcDbLinetypeTableRecord
  2
STYLE_03
 70
               0
  3

 72
              65
 73
               2
 40
1.25
 49
1.0416400000000001
 74
               0
 49
-0.2083599999999999
 74
               0
  0
LTYPE
  5
30
100
AcDbSymbolTableRecord
100
AcDbLinetypeTableRecord
  2
STYLE_04
 70
               0
  3

 72
              65
 73
               2
 40
1.5277099999999999
 49
1.3194249999999998
 74
               0
 49
-0.208285
 74
               0
  0
LTYPE
  5
31
100
AcDbSymbolTableRecord
100
AcDbLinetypeTableRecord
  2
STYLE_05
 70
               0
  3

 72
              65
 73
               2
 40
0.20828
 49
0.069425
 74
               0
 49
-0.138855
 74
               0
  0
LTYPE
  5
32
100
AcDbSymbolTableRecord
100
AcDbLinetypeTableRecord
  2
STYLE_06
 70
               0
  3

 72
              65
 73
               4
 40
1.0416400000000001
 49
0.625
 74
               0
 49
-0.20828
 74
               0
 49
0.06943
 74
               0
 49
-0.13893
 74
               0
  0
LTYPE
  5
33
100
AcDbSymbolTableRecord
100
AcDbLinetypeTableRecord
  2
STYLE_07
 70
               0
  3

 72
              65
 73
               6
 40
1.875
 49
0.625
 74
               0
 49
-0.20828
 74
               0
 49
0.6250000000000001
 74
               0
 49
-0.2083599999999999
 74
               0
 49
0.06943
 74
               0
 49
-0.1389299999999999
 74
               0
  0
LTYPE
  5
34
100
AcDbSymbolTableRecord
100
AcDbLinetypeTableRecord
  2
STYLE_08
 70
               0
  3

 72
              65
 73
               6
 40
1.25
 49
0.625
 74
               0
 49
-0.20828
 74
               0
 49
0.06943
 74
               0
 49
-0.13893
 74
               0
 49
0.0694299999999999
 74
               0
 49
-0.13893
 74
               0
  0
LTYPE
  5
35
100
AcDbSymbolTableRecord
100
AcDbLinetypeTableRecord
  2
STYLE_09
 70
               0
  3

 72
              65
 73
               4
 40
5.0
 49
3.75
 74
               0
 49
-0.2777849999999998
 74
               0
 49
0.6944300000000003
 74
               0
 49
-0.2777849999999998
 74
               0
  0
LTYPE
  5
36
100
AcDbSymbolTableRecord
100
AcDbLinetypeTableRecord
  2
STYLE_10
 70
               0
  3

 72
              65
 73
               6
 40
5.9375
 49
3.75
 74
               0
 49
-0.2777849999999998
 74
               0
 49
0.6944300000000003
 74
               0
 49
-0.2777849999999998
 74
               0
 49
0.625
 74
               0
 49
-0.3125
 74
               0
  0
LTYPE
  5
37
100
AcDbSymbolTableRecord
100
AcDbLinetypeTableRecord
  2
STYLE_11
 70
               0
  3

 72
              65
 73
               2
 40
0.0694444881889764
 49
0.0347222440944882
 74
               0
 49
-0.0347222440944882
 74
               0
  0
LTYPE
  5
38
100
AcDbSymbolTableRecord
100
AcDbLinetypeTableRecord
  2
STYLE_12
 70
               0
  3

 72
              65
 73
               2
 40
0.3937007874015748
 49
0.1968503937007874
 74
               0
 49
-0.1968503937007874
 74
               0
  0
LTYPE
  5
39
100
AcDbSymbolTableRecord
100
AcDbLinetypeTableRecord
  2
STYLE_13
 70
               0
  3

 72
              65
 73
               2
 40
0.5905511811023622
 49
0.2952755905511811
 74
               0
 49
-0.2952755905511811
 74
               0
  0
LTYPE
  5
3A
100
AcDbSymbolTableRecord
100
AcDbLinetypeTableRecord
  2
STYLE_14
 70
               0
  3

 72
              65
 73
               2
 40
1.9685039370078738
 49
0.9842519685039369
 74
               0
 49
-0.9842519685039369
 74
               0
  0
ENDTAB
  0
TABLE
  2
LAYER
  5
2
100
AcDbSymbolTable
 70
               5
  0
LAYER
  5
14
100
AcDbSymbolTableRecord
100
AcDbLayerTableRecord
  2
0
 70
               0
 62
               7
  6
Continuous
290
               1
370
              -3
390
1D
  0
LAYER
  5
3B
100
AcDbSymbolTableRecord
100
AcDbLayerTableRecord
  2
Defpoints
 70
               0
 62
               7
  6
Continuous
290
               0
370
              -3
390
1D
  0
LAYER
  5
3C
100
AcDbSymbolTableRecord
100
AcDbLayerTableRecord
  2
template
 70
               0
 62
               7
  6
Continuous
290
               1
370
              -3
390
1D
  0
LAYER
  5
3D
100
AcDbSymbolTableRecord
100
AcDbLayerTableRecord
  2
notes
 70
               0
 62
               7
  6
Continuous
290
               1
370
              -3
390
1D
  0
LAYER
  5
3E
100
AcDbSymbolTableRecord
100
AcDbLayerTableRecord
  2
FAN70-0306
 70
               0
 62
               7
  6
Continuous
290
               1
370
              -3
390
1D
  0
ENDTAB
  0
TABLE
  2
STYLE
  5
3
100
AcDbSymbolTable
 70
               2
  0
STYLE
  5
17
100
AcDbSymbolTableRecord
100
AcDbTextStyleTableRecord
  2
Standard
 70
               0
 40
0.0
 41
1.0
 50
0.0
 71
               0
 42
0.0
  3
txt
  4
BIGFONT.SHX
  0
STYLE
  5
2C
100
AcDbSymbolTableRecord
100
AcDbTextStyleTableRecord
  2
ＭＳ ゴシック
 70
               0
 40
0.0
 41
1.0
 50
0.0
 71
               0
 42
0.0
  3

  4
ＭＳ ゴシック
1001
ACAD
1000
ＭＳ ゴシック
1071
        0
  0
ENDTAB
  0
TABLE
  2
VIEW
  5
5
100
AcDbSymbolTable
 70
               0
  0
ENDTAB
  0
TABLE
  2
UCS
  5
6
100
AcDbSymbolTable
 70
               0
  0
ENDTAB
  0
TABLE
  2
APPID
  5
8
100
AcDbSymbolTable
 70
               1
  0
APPID
  5
16
100
AcDbSymbolTableRecord
100
AcDbRegAppTableRecord
  2
ACAD
 70
               0
  0
ENDTAB
  0
TABLE
  2
DIMSTYLE
  5
9
100
AcDbSymbolTable
 70
               2
100
AcDbDimStyleTable
 71
               0
  0
DIMSTYLE
105
18
100
AcDbSymbolTableRecord
100
AcDbDimStyleTableRecord
  2
Standard
 70
               0
  3

  4

 40
1.0
 41
0.18
 42
0.0625
 43
0.38
 44
0.18
 45
0.0
 46
0.0
 47
0.0
 48
0.0
 71
               0
 72
               0
 73
               1
 74
               1
 75
               0
 76
               0
 77
               0
 78
               0
 79
               0
140
0.18
141
0.09
142
0.0
143
25.399999999999999
144
1.0
145
0.0
146
1.0
147
0.09
148
0.0
170
               0
171
               2
172
               0
173
               0
174
               0
175
               0
176
               0
177
               0
178
               0
179
               0
271
               4
272
               4
273
               2
274
               2
275
               0
276
               0
277
               2
278
              46
279
               0
280
               0
281
               0
282
               0
283
               1
284
               0
285
               0
286
               0
288
               0
289
               3
340
17
341
0
342
0
343
0
344
0
371
              -2
372
              -2
  0
DIMSTYLE
105
47
100
AcDbSymbolTableRecord
100
AcDbDimStyleTableRecord
  2
tfrom線あり
 70
               0
  3
<>
  4
[]
 40
1.0
 41
9.9993896484374982
 42
24.999999999999996
 43
0.9999999999999999
 44
0.0
 45
0.0
 46
0.0
 47
0.0
 48
0.0
 71
               0
 72
               0
 73
               0
 74
               0
 75
               0
 76
               0
 77
               1
 78
              11
 79
               0
140
24.432617187500004
141
0.0
142
0.0
143
1.0
144
1.0
145
0.0
146
1.0
147
0.4999999999999999
148
0.0
170
               0
171
               1
172
               0
173
               0
174
               1
175
               0
176
               0
177
               0
178
               0
179
               2
271
               1
272
               1
273
               2
274
               2
275
               0
276
               2
277
               2
278
              46
279
               0
280
               0
281
               0
282
               0
283
               1
284
              11
285
              11
286
              11
288
               0
289
               0
340
2C
341
3F
342
3F
343
0
344
0
371
              -2
372
              -2
  0
ENDTAB
  0
TABLE
  2
BLOCK_RECORD
  5
1
100
AcDbSymbolTable
 70
              10
  0
BLOCK_RECORD
  5
A
100
AcDbSymbolTableRecord
100
AcDbBlockTableRecord
  2
*MODEL_SPACE
340
20
  0
BLOCK_RECORD
  5
B
100
AcDbSymbolTableRecord
100
AcDbBlockTableRecord
  2
*PAPER_SPACE
340
21
  0
BLOCK_RECORD
  5
3F
100
AcDbSymbolTableRecord
100
AcDbBlockTableRecord
  2
_DOT
340
0
  0
BLOCK_RECORD
  5
23
100
AcDbSymbolTableRecord
100
AcDbBlockTableRecord
  2
グループ
340
0
102
{BLKREFS
331
B7
102
}
  0
BLOCK_RECORD
  5
24
100
AcDbSymbolTableRecord
100
AcDbBlockTableRecord
  2
*D2
340
0
  0
BLOCK_RECORD
  5
25
100
AcDbSymbolTableRecord
100
AcDbBlockTableRecord
  2
*D3
340
0
  0
BLOCK_RECORD
  5
26
100
AcDbSymbolTableRecord
100
AcDbBlockTableRecord
  2
*D4
340
0
  0
BLOCK_RECORD
  5
27
100
AcDbSymbolTableRecord
100
AcDbBlockTableRecord
  2
*D5
340
0
  0
BLOCK_RECORD
  5
28
100
AcDbSymbolTableRecord
100
AcDbBlockTableRecord
  2
*D6
340
0
  0
BLOCK_RECORD
  5
29
100
AcDbSymbolTableRecord
100
AcDbBlockTableRecord
  2
*D7
340
0
  0
BLOCK_RECORD
  5
2A
100
AcDbSymbolTableRecord
100
AcDbBlockTableRecord
  2
グループ-1
340
0
102
{BLKREFS
331
CC
102
}
  0
BLOCK_RECORD
  5
2B
100
AcDbSymbolTableRecord
100
AcDbBlockTableRecord
  2
グループ-2
340
0
102
{BLKREFS
331
CD
102
}
  0
ENDTAB
  0
ENDSEC
  0
SECTION
  2
BLOCKS
  0
BLOCK
  5
D
100
AcDbEntity
  8
0
390
0
100
AcDbBlockBegin
  2
*MODEL_SPACE
 70
               0
 10
0.0
 20
0.0
 30
0.0
  3
*MODEL_SPACE
  1

  0
ENDBLK
  5
E
100
AcDbEntity
  8
0
390
0
100
AcDbBlockEnd
  0
BLOCK
  5
F
100
AcDbEntity
 67
               1
  8
0
390
0
100
AcDbBlockBegin
  2
*PAPER_SPACE
 70
               0
 10
0.0
 20
0.0
 30
0.0
  3
*PAPER_SPACE
  1

  0
ENDBLK
  5
10
100
AcDbEntity
 67
               1
  8
0
390
0
100
AcDbBlockEnd
  0
BLOCK
  5
40
100
AcDbEntity
  8
0
390
0
100
AcDbBlockBegin
  2
_DOT
 70
               0
 10
0.0
 20
0.0
 30
0.0
  3
_DOT
  1

  0
POLYLINE
  5
41
100
AcDbEntity
  8
0
370
              -2
390
0
  6
ByBlock
 62
               0
100
AcDb2dPolyline
 66
               1
 10
0.0
 20
0.0
 30
0.0
 70
               1
 40
0.5
 41
0.5
  0
VERTEX
  5
42
100
AcDbEntity
  8
0
370
              -2
390
0
  6
ByBlock
 62
               0
100
AcDbVertex
100
AcDb2dVertex
 10
-0.25
 20
0.0
 30
0.0
 42
1.0
  0
VERTEX
  5
43
100
AcDbEntity
  8
0
370
              -2
390
0
  6
ByBlock
 62
               0
100
AcDbVertex
100
AcDb2dVertex
 10
0.25
 20
0.0
 30
0.0
 42
1.0
  0
SEQEND
  5
44
100
AcDbEntity
  8
0
390
0
  0
LINE
  5
45
100
AcDbEntity
  8
0
370
              -2
390
0
  6
ByBlock
 62
               0
100
AcDbLine
 10
-0.5
 20
0.0
 30
0.0
 11
-1.0
 21
0.0
 31
0.0
  0
ENDBLK
  5
46
100
AcDbEntity
  8
0
390
0
100
AcDbBlockEnd
  0
BLOCK
  5
48
100
AcDbEntity
  8
template
390
0
100
AcDbBlockBegin
  2
グループ
 70
               0
 10
0.0
 20
0.0
 30
0.0
  3
グループ
  1

  0
LWPOLYLINE
  5
49
100
AcDbEntity
  8
0
370
              15
390
0
  6
Continuous
 62
               7
100
AcDbPolyline
 90
        8
 70
             129
 10
887.42850780307481
 20
-1241.6213247972707
 10
887.42850780307481
 20
-1247.6187134908466
 10
877.92731088507151
 20
-1247.6187134908466
 10
877.92731088507151
 20
-1272.0696767543554
 10
869.57193362328871
 20
-1272.0696767543554
 10
869.57193362328871
 20
-1247.6187134908466
 10
860.23897667697929
 20
-1247.6187134908466
 10
860.23897667697929
 20
-1241.6213247972707
  0
LWPOLYLINE
  5
4A
100
AcDbEntity
  8
0
370
              15
390
0
  6
Continuous
 62
               7
100
AcDbPolyline
 90
      101
 70
             128
 10
900.15679963363175
 20
-1242.3495732902072
 10
900.17214966241681
 20
-1242.345212533522
 42
-0.0222221607812283
 10
900.46215423908779
 20
-1242.2765880682775
 10
900.47794800308122
 20
-1242.2735846451806
 42
-0.0146883565586972
 10
900.74065070830557
 20
-1242.2315814582312
 42
-0.0127458844187455
 10
901.00528967545358
 20
-1242.204044490159
 10
901.06774475377142
 20
-1242.1991510675705
 42
-0.0198099018566943
 10
901.45859386324832
 20
-1242.184065910174
 10
901.51040533269202
 20
-1242.1841196858391
 42
-0.0147617382765128
 10
902.00502879366343
 20
-1242.1992397110837
 10
902.07772024853898
 20
-1242.2036123179714
 42
-0.0162624549004852
 10
902.46787387800578
 20
-1242.2398451932438
 10
902.58940626927017
 20
-1242.2551317522409
 42
-0.0080020874660664
 10
902.73498530035658
 20
-1242.2758145995087
 10
902.77330477094858
 20
-1242.2818858773194
 42
-0.0053821929678304
 10
902.84178887626638
 20
-1242.2934934011414
 10
902.11538317706777
 20
-1244.4744218568553
 42
0.0108667757395206
 10
902.04806610693299
 20
-1244.4612347416346
 10
902.01059808374748
 20
-1244.454736999041
 42
0.0170663203307695
 10
901.8673812968334
 20
-1244.4349074017493
 10
901.79950596414892
 20
-1244.4278602311617
 42
0.0220162375276329
 10
901.51912655629246
 20
-1244.4111778703916
 10
901.44127098924173
 20
-1244.4099785031251
 42
0.0282606915783826
 10
901.10563466566362
 20
-1244.423781780094
 10
901.06172139189118
 20
-1244.4280817700978
 42
0.0169677213690546
 10
900.8157968969324
 20
-1244.4606188196499
 42
0.0190576269865265
 10
900.57288893435555
 20
-1244.5107656917553
 10
900.56662974624146
 20
-1244.5123086658655
 42
0.0213685642844021
 10
900.3162452617612
 20
-1244.585508950971
 10
900.3107553668475
 20
-1244.5873719470292
 42
0.0237595297591213
 10
900.05726048194606
 20
-1244.6870564689259
 10
900.05215840791914
 20
-1244.6893482444029
 42
0.0261857468810989
 10
899.79998763168908
 20
-1244.8188845817774
 10
899.78956144260292
 20
-1244.8249500562454
 42
0.0272553062019101
 10
899.55313166736369
 20
-1244.9803222621904
 10
899.51836865385121
 20
-1245.0059834102849
 42
0.0325996893180971
 10
899.36821331020269
 20
-1245.1327312832539
 10
899.34450388107427
 20
-1245.1555493117719
 42
0.0138050960639914
 10
899.25262072486953
 20
-1245.2489989733185
 42
0.0125280103805281
 10
899.16577819203565
 20
-1245.3471622999189
 10
899.14209774712765
 20
-1245.3753207981058
 42
0.0205218024729119
 10
899.01699767161574
 20
-1245.5371141123323
 10
898.99453133112684
 20
-1245.5687738421618
 42
0.0163110129581913
 10
898.83882095187528
 20
-1245.804104277232
 10
898.83609705582455
 20
-1245.8085280392172
 42
0.0131897341896935
 10
898.68929653491978
 20
-1246.0616601315794
 10
898.68759643955218
 20
-1246.0647783707172
 42
0.0107895576059858
 10
898.54981973734516
 20
-1246.330993580345
 10
898.5490868478164
 20
-1246.332487812999
 42
0.0091371507219095
 10
898.42060689916514
 20
-1246.6070130107626
 10
898.3908612677576
 20
-1246.6737195179176
 42
0.0135418326351206
 10
898.21914732868856
 20
-1247.0886573031796
 10
898.1855425202524
 20
-1247.1765234454658
 42
0.0092834542409608
 10
898.01431346033087
 20
-1247.6504219437729
 10
897.98869633261734
 20
-1247.7256630135541
 42
0.0054261043577207
 10
897.88105818432018
 20
-1248.0534269866312
 10
897.86353219811349
 20
-1248.1088151489539
 42
0.0008225090822076
 10
897.79486214631277
 20
-1248.3270839070105
 10
896.8101730143793
 20
-1251.3519752002671
 10
900.04279685445317
 20
-1251.3519752002671
 10
899.53860442459973
 20
-1253.2564534986195
 10
896.28254814261641
 20
-1253.2564534986195
 10
890.45339911026258
 20
-1272.0696765646244
 10
888.62830149995227
 20
-1272.0696765646244
 10
894.4629795354532
 20
-1253.2564534986195
 10
892.05786316641286
 20
-1253.2564534986195
 10
892.5620555962663
 20
-1251.3519752002671
 10
894.99060440721632
 20
-1251.3519752002671
 10
895.85075932540497
 20
-1248.7155621995682
 42
-0.0005863560650262
 10
895.88749400353095
 20
-1248.5987357795223
 10
895.96358183726886
 20
-1248.357743479891
 42
-0.0087522378925693
 10
896.16304998072576
 20
-1247.7624673927444
 10
896.25531425613713
 20
-1247.5023272242372
 42
-0.0077400953830536
 10
896.51324791527031
 20
-1246.8093225466832
 10
896.52901288684689
 20
-1246.7688916633031
 42
-0.0082369946330518
 10
896.77609735746114
 20
-1246.1648125971014
 42
-0.0085725238363833
 10
897.0433434534657
 20
-1245.569386557811
 10
897.14497305447333
 20
-1245.3529654558254
 42
-0.0168109410595879
 10
897.43191748320146
 20
-1244.791757929725
 10
897.55776087367406
 20
-1244.5647938967029
 42
-0.0007817726859269
 10
897.61204522371713
 20
-1244.4672496516964
 10
897.61217352973449
 20
-1244.46701994296
 42
-0.0036626142157143
 10
897.6670613937556
 20
-1244.3704220629916
 42
-0.0080221150679748
 10
897.72418564916165
 20
-1244.27514282824
 10
897.75488560052349
 20
-1244.2257518791166
 42
-0.020213932556849
 10
897.88254134033025
 20
-1244.0377702784351
 10
897.93660880551784
 20
-1243.9646914141942
 42
-0.0249323791798447
 10
898.1957715992371
 20
-1243.6486461720397
 10
898.219911413364
 20
-1243.6220318991273
 42
-0.0242132121536684
 10
898.55959215490498
 20
-1243.2821484129242
 10
898.60750372765756
 20
-1243.2386392767364
 42
-0.025101752785879
 10
898.8914854282973
 20
-1243.0056465309726
 10
898.8929309051116
 20
-1243.0045772733934
 42
-0.0130868069040762
 10
899.19119155506837
 20
-1242.7957968048511
 10
899.19275337420993
 20
-1242.7947633645767
 42
-0.0290329526391372
 10
899.50386451560439
 20
-1242.6139378629468
 10
899.53371007759586
 20
-1242.5988354801045
 42
-0.0160250190043653
 10
899.79961449135521
 20
-1242.4748193698938
 42
-0.0267600374781006
 10
900.07489056882639
 20
-1242.3740710493446
 10
900.10162648834478
 20
-1242.3658784905197
 42
-0.0049981587670053
 10
900.15679963363175
 20
-1242.3495732902072
 42
-0.0049981587670053
  0
LWPOLYLINE
  5
4B
100
AcDbEntity
  8
0
370
              15
390
0
  6
Continuous
 62
               7
100
AcDbPolyline
 90
      118
 70
             128
 10
919.97116719807866
 20
-1251.4259585280945
 10
921.84628912257813
 20
-1251.4259585280945
 10
921.00825021697824
 20
-1254.1075250544945
 42
-0.0010587229211422
 10
921.03970603257619
 20
-1254.0706205211086
 10
921.09790012318217
 20
-1254.0026382649635
 42
-0.0071874740407281
 10
921.24827534128485
 20
-1253.8319975729294
 10
921.38999811454244
 20
-1253.6757614316211
 42
-0.0148118053512363
 10
921.84012740725746
 20
-1253.208147585606
 10
921.92734974215796
 20
-1253.1227502647537
 42
-0.0086273358692412
 10
922.26289854316542
 20
-1252.8053746307382
 10
922.30673225939188
 20
-1252.7653249864047
 42
-0.0103138323110657
 10
922.56475596162477
 20
-1252.5391618490669
 10
922.61053036794067
 20
-1252.500679801816
 42
-0.0060206748566775
 10
922.78337843206407
 20
-1252.3588851510522
 10
922.78540956294921
 20
-1252.3572594454215
 42
-0.0067069027288388
 10
922.95770237761258
 20
-1252.2231088116259
 10
922.96025114353938
 20
-1252.2211786417499
 42
-0.0076184352042701
 10
923.13115640940987
 20
-1252.0958037665068
 42
-0.0089652861674684
 10
923.30611737214042
 20
-1251.9761705061771
 10
923.34246909229182
 20
-1251.9522592926899
 42
-0.0156916245935726
 10
923.5384285894495
 20
-1251.8319968062169
 42
-0.002329901106332
 10
923.7386906333893
 20
-1251.7188188666985
 10
923.75407476580915
 20
-1251.7102188716115
 42
-0.0107669341484053
 10
923.98831159090878
 20
-1251.5858187382628
 10
924.0105763919853
 20
-1251.574601988312
 42
-0.0078058045895926
 10
924.29416650993699
 20
-1251.437240532674
 10
924.30407359764718
 20
-1251.4326314048051
 42
-0.0181829330473932
 10
924.61438300225871
 20
-1251.301767663711
 10
924.66843844483174
 20
-1251.281252543765
 42
-0.0208411536025736
 10
925.01752341227984
 20
-1251.1651620812727
 10
925.03187951240682
 20
-1251.1610436363194
 42
-0.0222799817135775
 10
925.3605993063245
 20
-1251.0824020701789
 10
925.36948826956063
 20
-1251.080690059594
 42
-0.0215509523883926
 10
925.68595923784142
 20
-1251.0337743710597
 10
925.72844119889146
 20
-1251.0293368442688
 42
-0.0182545924873293
 10
925.96254997819551
 20
-1251.0134930188779
 10
926.00195099454572
 20
-1251.0122684737985
 42
-0.0072962856529054
 10
926.15787387423256
 20
-1251.0096991452765
 10
926.18697354479764
 20
-1251.0096443098728
 42
-0.005922751631277
 10
926.2847230439495
 20
-1251.010618021663
 10
926.31396526140736
 20
-1251.011255788266
 42
-0.0011833111893293
 10
926.35321654515383
 20
-1251.0122047925765
 10
925.55782994954666
 20
-1253.5509387376756
 42
0.0143932051524636
 10
925.53142856719489
 20
-1253.5407397676297
 10
925.52415659477879
 20
-1253.5381685487728
 42
0.0234388603494022
 10
925.48232572884672
 20
-1253.5255493130576
 10
925.47364406593397
 20
-1253.5233683510526
 42
0.0199162742989678
 10
925.41335523185239
 20
-1253.5107516157173
 10
925.39254129404776
 20
-1253.507254416289
 42
0.029364355067075
 10
925.28946643528752
 20
-1253.4961043706357
 10
925.26478125456833
 20
-1253.4948927536173
 42
0.0214606686870338
 10
925.11164033861701
 20
-1253.4939541931999
 10
925.10226842779787
 20
-1253.4942991047442
 42
0.0167564054187931
 10
924.93074823669042
 20
-1253.5063761471122
 10
924.92228844393048
 20
-1253.5072574875394
 42
0.0137677553246253
 10
924.73493513066614
 20
-1253.5320067960827
 10
924.72758339115785
 20
-1253.5331847160508
 42
0.0118497261481205
 10
924.52708562705527
 20
-1253.57020206624
 10
924.52093561980928
 20
-1253.57148892896
 42
0.0106421143891936
 10
924.31005473252526
 20
-1253.6203213045346
 10
924.30514592413522
 20
-1253.6215686472199
 42
0.0099746379706426
 10
924.08668745497073
 20
-1253.6817431755353
 10
924.02513941480242
 20
-1253.7000250541653
 42
0.0191613675860962
 10
923.68915495228782
 20
-1253.814002434452
 10
923.60109517953936
 20
-1253.8476893447773
 42
0.0205274080147135
 10
923.21578840764073
 20
-1254.0135177526029
 10
923.15813912565523
 20
-1254.0411857171769
 42
0.0181256912193595
 10
922.89986218499178
 20
-1254.1768695361529
 10
922.84690680167512
 20
-1254.2071871493692
 42
0.0140709242412418
 10
922.7019518670495
 20
-1254.2956818228022
 10
922.6757029984326
 20
-1254.3127386415167
 42
0.0086667884399223
 10
922.58677683688848
 20
-1254.3727413094005
 42
0.003640819201488
 10
922.4993435988797
 20
-1254.434922167175
 10
922.46411672438649
 20
-1254.4603631131056
 42
0.0052260781283436
 10
922.30788802698567
 20
-1254.5756954997471
 10
922.29168117073573
 20
-1254.5879236103578
 42
0.0050024435892504
 10
922.1056778276743
 20
-1254.7312061786222
 10
922.09035967116176
 20
-1254.7432522010658
 42
0.0136138710277092
 10
921.87991840283541
 20
-1254.9182187059803
 10
921.84625052704291
 20
-1254.9477976786934
 42
0.0172815186909998
 10
921.58184698538162
 20
-1255.1967943513155
 10
921.57928463953772
 20
-1255.1993801684639
 42
0.0189403857991616
 10
921.32870284095702
 20
-1255.4721854332702
 10
921.29607134742253
 20
-1255.5105293647657
 42
0.0185044199506342
 10
921.10411490844263
 20
-1255.7537779458885
 42
0.0088565243901835
 10
920.92565480181418
 20
-1256.0072943660384
 10
920.91647682216569
 20
-1256.0208357457984
 42
0.0157195347233255
 10
920.73325621582558
 20
-1256.3103579551243
 10
920.68717327389959
 20
-1256.3885101521369
 42
0.009545187978228
 10
920.52208772376309
 20
-1256.6811047944916
 10
920.51093980483051
 20
-1256.701775466629
 42
0.0100351706259463
 10
920.3788960556742
 20
-1256.9588310271142
 42
0.0086935915427105
 10
920.25656490388042
 20
-1257.2206641725181
 10
920.25324416246565
 20
-1257.2281064954905
 42
0.0072580174868562
 10
920.13289771051973
 20
-1257.5086984870759
 10
920.1296360772144
 20
-1257.5166185130915
 42
0.0060005122612748
 10
920.01043540887395
 20
-1257.8162281836906
 10
920.00722443053007
 20
-1257.8245897116012
 42
0.0049017786976095
 10
919.88832427167415
 20
-1258.1435186922015
 10
919.88515846528219
 20
-1258.1522716294362
 42
0.0039415167601332
 10
919.76572218722583
 20
-1258.4908136918484
 10
919.76259108457339
 20
-1258.4999168927254
 42
0.003103583876369
 10
919.64178629887749
 20
-1258.8583567545072
 10
919.63867625434989
 20
-1258.8677773758736
 42
0.0025070747152459
 10
919.51577490304032
 20
-1259.2464245927997
 10
919.47848100660917
 20
-1259.3633162580707
 42
0.0029081910285026
 10
919.28646270879403
 20
-1259.9774799163761
 10
919.24565954028128
 20
-1260.1107031586382
 42
0.000926645373586
 10
918.97724216595384
 20
-1260.9929276186037
 10
918.95635469330819
 20
-1261.0620394978564
 42
-0.0005809993665233
 10
918.67901801273479
 20
-1261.9758476044367
 10
918.61273621449902
 20
-1262.1933325364746
 42
-0.0012018708166935
 10
918.46575190503268
 20
-1262.6714952011171
 10
918.41343205360374
 20
-1262.840254341542
 42
-0.0002691059621864
 10
918.36986257229853
 20
-1262.9805219623247
 10
915.53690667400929
 20
-1272.0696765646244
 10
913.71891778203076
 20
-1272.0696765646244
 10
919.97116719807866
 20
-1251.4259585280945
  0
SPLINE
  5
4C
100
AcDbEntity
  8
0
370
              15
390
0
  6
Continuous
 62
               7
100
AcDbSpline
210
0.0
220
0.0
230
1.0
 70
              13
 71
               2
 72
             782
 73
             779
 74
               0
 42
0.000001
 43
0.000001
 40
0.0
 40
0.0
 40
0.0
 40
1.0
 40
1.0
 40
2.0
 40
2.0
 40
3.0
 40
3.0
 40
4.0
 40
4.0
 40
5.0
 40
5.0
 40
6.0
 40
6.0
 40
7.0
 40
7.0
 40
8.0
 40
8.0
 40
9.0
 40
9.0
 40
10.0
 40
10.0
 40
11.0
 40
11.0
 40
12.0
 40
12.0
 40
13.0
 40
13.0
 40
14.0
 40
14.0
 40
15.0
 40
15.0
 40
16.0
 40
16.0
 40
17.0
 40
17.0
 40
18.0
 40
18.0
 40
19.0
 40
19.0
 40
20.0
 40
20.0
 40
21.0
 40
21.0
 40
22.0
 40
22.0
 40
23.0
 40
23.0
 40
24.0
 40
24.0
 40
25.0
 40
25.0
 40
26.0
 40
26.0
 40
27.0
 40
27.0
 40
28.0
 40
28.0
 40
29.0
 40
29.0
 40
30.0
 40
30.0
 40
31.0
 40
31.0
 40
32.0
 40
32.0
 40
33.0
 40
33.0
 40
34.0
 40
34.0
 40
35.0
 40
35.0
 40
36.0
 40
36.0
 40
37.0
 40
37.0
 40
38.0
 40
38.0
 40
39.0
 40
39.0
 40
40.0
 40
40.0
 40
41.0
 40
41.0
 40
42.0
 40
42.0
 40
43.0
 40
43.0
 40
44.0
 40
44.0
 40
45.0
 40
45.0
 40
46.0
 40
46.0
 40
47.0
 40
47.0
 40
48.0
 40
48.0
 40
49.0
 40
49.0
 40
50.0
 40
50.0
 40
51.0
 40
51.0
 40
52.0
 40
52.0
 40
53.0
 40
53.0
 40
54.0
 40
54.0
 40
55.0
 40
55.0
 40
56.0
 40
56.0
 40
57.0
 40
57.0
 40
58.0
 40
58.0
 40
59.0
 40
59.0
 40
60.0
 40
60.0
 40
61.0
 40
61.0
 40
62.0
 40
62.0
 40
63.0
 40
63.0
 40
64.0
 40
64.0
 40
65.0
 40
65.0
 40
66.0
 40
66.0
 40
67.0
 40
67.0
 40
68.0
 40
68.0
 40
69.0
 40
69.0
 40
70.0
 40
70.0
 40
71.0
 40
71.0
 40
72.0
 40
72.0
 40
73.0
 40
73.0
 40
74.0
 40
74.0
 40
75.0
 40
75.0
 40
76.0
 40
76.0
 40
77.0
 40
77.0
 40
78.0
 40
78.0
 40
79.0
 40
79.0
 40
80.0
 40
80.0
 40
81.0
 40
81.0
 40
82.0
 40
82.0
 40
83.0
 40
83.0
 40
84.0
 40
84.0
 40
85.0
 40
85.0
 40
86.0
 40
86.0
 40
87.0
 40
87.0
 40
88.0
 40
88.0
 40
89.0
 40
89.0
 40
90.0
 40
90.0
 40
91.0
 40
91.0
 40
92.0
 40
92.0
 40
93.0
 40
93.0
 40
94.0
 40
94.0
 40
95.0
 40
95.0
 40
96.0
 40
96.0
 40
97.0
 40
97.0
 40
98.0
 40
98.0
 40
99.0
 40
99.0
 40
100.0
 40
100.0
 40
101.0
 40
101.0
 40
102.0
 40
102.0
 40
103.0
 40
103.0
 40
104.0
 40
104.0
 40
105.0
 40
105.0
 40
106.0
 40
106.0
 40
107.0
 40
107.0
 40
108.0
 40
108.0
 40
109.0
 40
109.0
 40
110.0
 40
110.0
 40
111.0
 40
111.0
 40
112.0
 40
112.0
 40
113.0
 40
113.0
 40
114.0
 40
114.0
 40
115.0
 40
115.0
 40
116.0
 40
116.0
 40
117.0
 40
117.0
 40
118.0
 40
118.0
 40
119.0
 40
119.0
 40
120.0
 40
120.0
 40
121.0
 40
121.0
 40
122.0
 40
122.0
 40
123.0
 40
123.0
 40
124.0
 40
124.0
 40
125.0
 40
125.0
 40
126.0
 40
126.0
 40
127.0
 40
127.0
 40
128.0
 40
128.0
 40
129.0
 40
129.0
 40
130.0
 40
130.0
 40
131.0
 40
131.0
 40
132.0
 40
132.0
 40
133.0
 40
133.0
 40
134.0
 40
134.0
 40
135.0
 40
135.0
 40
136.0
 40
136.0
 40
137.0
 40
137.0
 40
138.0
 40
138.0
 40
139.0
 40
139.0
 40
140.0
 40
140.0
 40
141.0
 40
141.0
 40
142.0
 40
142.0
 40
143.0
 40
143.0
 40
144.0
 40
144.0
 40
145.0
 40
145.0
 40
146.0
 40
146.0
 40
147.0
 40
147.0
 40
148.0
 40
148.0
 40
149.0
 40
149.0
 40
150.0
 40
150.0
 40
151.0
 40
151.0
 40
152.0
 40
152.0
 40
153.0
 40
153.0
 40
154.0
 40
154.0
 40
155.0
 40
155.0
 40
156.0
 40
156.0
 40
157.0
 40
157.0
 40
158.0
 40
158.0
 40
159.0
 40
159.0
 40
160.0
 40
160.0
 40
161.0
 40
161.0
 40
162.0
 40
162.0
 40
163.0
 40
163.0
 40
164.0
 40
164.0
 40
165.0
 40
165.0
 40
166.0
 40
166.0
 40
167.0
 40
167.0
 40
168.0
 40
168.0
 40
169.0
 40
169.0
 40
170.0
 40
170.0
 40
171.0
 40
171.0
 40
172.0
 40
172.0
 40
173.0
 40
173.0
 40
174.0
 40
174.0
 40
175.0
 40
175.0
 40
176.0
 40
176.0
 40
177.0
 40
177.0
 40
178.0
 40
178.0
 40
179.0
 40
179.0
 40
180.0
 40
180.0
 40
181.0
 40
181.0
 40
182.0
 40
182.0
 40
183.0
 40
183.0
 40
184.0
 40
184.0
 40
185.0
 40
185.0
 40
186.0
 40
186.0
 40
187.0
 40
187.0
 40
188.0
 40
188.0
 40
189.0
 40
189.0
 40
190.0
 40
190.0
 40
191.0
 40
191.0
 40
192.0
 40
192.0
 40
193.0
 40
193.0
 40
194.0
 40
194.0
 40
195.0
 40
195.0
 40
196.0
 40
196.0
 40
197.0
 40
197.0
 40
198.0
 40
198.0
 40
199.0
 40
199.0
 40
200.0
 40
200.0
 40
201.0
 40
201.0
 40
202.0
 40
202.0
 40
203.0
 40
203.0
 40
204.0
 40
204.0
 40
205.0
 40
205.0
 40
206.0
 40
206.0
 40
207.0
 40
207.0
 40
208.0
 40
208.0
 40
209.0
 40
209.0
 40
210.0
 40
210.0
 40
211.0
 40
211.0
 40
212.0
 40
212.0
 40
213.0
 40
213.0
 40
214.0
 40
214.0
 40
215.0
 40
215.0
 40
216.0
 40
216.0
 40
217.0
 40
217.0
 40
218.0
 40
218.0
 40
219.0
 40
219.0
 40
220.0
 40
220.0
 40
221.0
 40
221.0
 40
222.0
 40
222.0
 40
223.0
 40
223.0
 40
224.0
 40
224.0
 40
225.0
 40
225.0
 40
226.0
 40
226.0
 40
227.0
 40
227.0
 40
228.0
 40
228.0
 40
229.0
 40
229.0
 40
230.0
 40
230.0
 40
231.0
 40
231.0
 40
232.0
 40
232.0
 40
233.0
 40
233.0
 40
234.0
 40
234.0
 40
235.0
 40
235.0
 40
236.0
 40
236.0
 40
237.0
 40
237.0
 40
238.0
 40
238.0
 40
239.0
 40
239.0
 40
240.0
 40
240.0
 40
241.0
 40
241.0
 40
242.0
 40
242.0
 40
243.0
 40
243.0
 40
244.0
 40
244.0
 40
245.0
 40
245.0
 40
246.0
 40
246.0
 40
247.0
 40
247.0
 40
248.0
 40
248.0
 40
249.0
 40
249.0
 40
250.0
 40
250.0
 40
251.0
 40
251.0
 40
252.0
 40
252.0
 40
253.0
 40
253.0
 40
254.0
 40
254.0
 40
255.0
 40
255.0
 40
256.0
 40
256.0
 40
257.0
 40
257.0
 40
258.0
 40
258.0
 40
259.0
 40
259.0
 40
260.0
 40
260.0
 40
261.0
 40
261.0
 40
262.0
 40
262.0
 40
263.0
 40
263.0
 40
264.0
 40
264.0
 40
265.0
 40
265.0
 40
266.0
 40
266.0
 40
267.0
 40
267.0
 40
268.0
 40
268.0
 40
269.0
 40
269.0
 40
270.0
 40
270.0
 40
271.0
 40
271.0
 40
272.0
 40
272.0
 40
273.0
 40
273.0
 40
274.0
 40
274.0
 40
275.0
 40
275.0
 40
276.0
 40
276.0
 40
277.0
 40
277.0
 40
278.0
 40
278.0
 40
279.0
 40
279.0
 40
280.0
 40
280.0
 40
281.0
 40
281.0
 40
282.0
 40
282.0
 40
283.0
 40
283.0
 40
284.0
 40
284.0
 40
285.0
 40
285.0
 40
286.0
 40
286.0
 40
287.0
 40
287.0
 40
288.0
 40
288.0
 40
289.0
 40
289.0
 40
290.0
 40
290.0
 40
291.0
 40
291.0
 40
292.0
 40
292.0
 40
293.0
 40
293.0
 40
294.0
 40
294.0
 40
295.0
 40
295.0
 40
296.0
 40
296.0
 40
297.0
 40
297.0
 40
298.0
 40
298.0
 40
299.0
 40
299.0
 40
300.0
 40
300.0
 40
301.0
 40
301.0
 40
302.0
 40
302.0
 40
303.0
 40
303.0
 40
304.0
 40
304.0
 40
305.0
 40
305.0
 40
306.0
 40
306.0
 40
307.0
 40
307.0
 40
308.0
 40
308.0
 40
309.0
 40
309.0
 40
310.0
 40
310.0
 40
311.0
 40
311.0
 40
312.0
 40
312.0
 40
313.0
 40
313.0
 40
314.0
 40
314.0
 40
315.0
 40
315.0
 40
316.0
 40
316.0
 40
317.0
 40
317.0
 40
318.0
 40
318.0
 40
319.0
 40
319.0
 40
320.0
 40
320.0
 40
321.0
 40
321.0
 40
322.0
 40
322.0
 40
323.0
 40
323.0
 40
324.0
 40
324.0
 40
325.0
 40
325.0
 40
326.0
 40
326.0
 40
327.0
 40
327.0
 40
328.0
 40
328.0
 40
329.0
 40
329.0
 40
330.0
 40
330.0
 40
331.0
 40
331.0
 40
332.0
 40
332.0
 40
333.0
 40
333.0
 40
334.0
 40
334.0
 40
335.0
 40
335.0
 40
336.0
 40
336.0
 40
337.0
 40
337.0
 40
338.0
 40
338.0
 40
339.0
 40
339.0
 40
340.0
 40
340.0
 40
341.0
 40
341.0
 40
342.0
 40
342.0
 40
343.0
 40
343.0
 40
344.0
 40
344.0
 40
345.0
 40
345.0
 40
346.0
 40
346.0
 40
347.0
 40
347.0
 40
348.0
 40
348.0
 40
349.0
 40
349.0
 40
350.0
 40
350.0
 40
351.0
 40
351.0
 40
352.0
 40
352.0
 40
353.0
 40
353.0
 40
354.0
 40
354.0
 40
355.0
 40
355.0
 40
356.0
 40
356.0
 40
357.0
 40
357.0
 40
358.0
 40
358.0
 40
359.0
 40
359.0
 40
360.0
 40
360.0
 40
361.0
 40
361.0
 40
362.0
 40
362.0
 40
363.0
 40
363.0
 40
364.0
 40
364.0
 40
365.0
 40
365.0
 40
366.0
 40
366.0
 40
367.0
 40
367.0
 40
368.0
 40
368.0
 40
369.0
 40
369.0
 40
370.0
 40
370.0
 40
371.0
 40
371.0
 40
372.0
 40
372.0
 40
373.0
 40
373.0
 40
374.0
 40
374.0
 40
375.0
 40
375.0
 40
376.0
 40
376.0
 40
377.0
 40
377.0
 40
378.0
 40
378.0
 40
379.0
 40
379.0
 40
380.0
 40
380.0
 40
381.0
 40
381.0
 40
382.0
 40
382.0
 40
383.0
 40
383.0
 40
384.0
 40
384.0
 40
385.0
 40
385.0
 40
386.0
 40
386.0
 40
387.0
 40
387.0
 40
388.0
 40
388.0
 40
389.0
 40
389.0
 40
389.0
 10
930.29987164881129
 20
-1251.4150321647321
 30
0.0
 41
1.0
 10
931.11829575753177
 20
-1251.4150321647321
 30
0.0
 41
1.0
 10
931.93671986625225
 20
-1251.4150321647321
 30
0.0
 41
1.0
 10
931.52296613073554
 20
-1252.7576584289818
 30
0.0
 41
1.0
 10
931.10921239521872
 20
-1254.1002846932315
 30
0.0
 41
1.0
 10
931.12755189036329
 20
-1254.0715839203558
 30
0.0
 41
0.9999957264449635
 10
931.14605888718995
 20
-1254.0429908702117
 30
0.0
 41
1.0
 10
931.17648821134094
 20
-1253.9959779918147
 30
0.0
 41
1.0
 10
931.20691753549204
 20
-1253.9489651134177
 30
0.0
 41
1.0
 10
931.2862831805985
 20
-1253.8263463065134
 30
0.0
 41
0.9995394069080581
 10
931.3729415721516
 20
-1253.7087682447705
 30
0.0
 41
1.0
 10
931.40869843440998
 20
-1253.6602533521789
 30
0.0
 41
1.0
 10
931.44445529666837
 20
-1253.6117384595873
 30
0.0
 41
1.0
 10
931.57818196448693
 20
-1253.4302981844598
 30
0.0
 41
0.9994460617143366
 10
931.72368244577569
 20
-1253.2581557868093
 30
0.0
 41
1.0
 10
931.72807062675201
 20
-1253.2529641064252
 30
0.0
 41
1.0
 10
931.73245880772845
 20
-1253.2477724260409
 30
0.0
 41
1.0
 10
931.86918292706423
 20
-1253.086013389159
 30
0.0
 41
0.9994359394934378
 10
932.01645715741506
 20
-1252.933797187995
 30
0.0
 41
1.0
 10
932.0188405113704
 20
-1252.9313338576198
 30
0.0
 41
1.0
 10
932.02122386532574
 20
-1252.9288705272445
 30
0.0
 41
1.0
 10
932.16373138776817
 20
-1252.7815809868287
 30
0.0
 41
0.9995293688567949
 10
932.31500306874864
 20
-1252.643307774666
 30
0.0
 41
1.0
 10
932.33429682801216
 20
-1252.6256718890147
 30
0.0
 41
1.0
 10
932.35359058727568
 20
-1252.6080360033634
 30
0.0
 41
1.0
 10
932.46627474973195
 20
-1252.5050345625011
 30
0.0
 41
0.9997087614803569
 10
932.58379763868584
 20
-1252.4075902817042
 30
0.0
 41
1.0
 10
932.6029637118711
 20
-1252.391698703188
 30
0.0
 41
1.0
 10
932.62212978505647
 20
-1252.3758071246721
 30
0.0
 41
1.0
 10
932.70132052764779
 20
-1252.3101460009007
 30
0.0
 41
0.9999595338701152
 10
932.78167979849604
 20
-1252.2459202702512
 30
0.0
 41
1.0
 10
932.86203906936078
 20
-1252.181694539589
 30
0.0
 41
0.9999749417497325
 10
932.94329960370794
 20
-1252.1186129856396
 30
0.0
 41
1.0
 10
932.96428574986498
 20
-1252.1023216983422
 30
0.0
 41
1.0
 10
932.98527189602214
 20
-1252.0860304110447
 30
0.0
 41
1.0
 10
933.06983978132359
 20
-1252.0203814012041
 30
0.0
 41
0.9999792037126249
 10
933.15524738109707
 20
-1251.9558286195575
 30
0.0
 41
1.0
 10
933.17607220707259
 20
-1251.9400887972511
 30
0.0
 41
1.0
 10
933.19689703304812
 20
-1251.9243489749449
 30
0.0
 41
1.0
 10
933.2406549809275
 20
-1251.8912758378676
 30
0.0
 41
0.9999993373911212
 10
933.28433666700971
 20
-1251.8581020424897
 30
0.0
 41
1.0
 10
933.32801835315365
 20
-1251.8249282470651
 30
0.0
 41
0.9999160953814502
 10
933.37254476407406
 20
-1251.7928971818662
 30
0.0
 41
1.0
 10
933.40536665149284
 20
-1251.7692860262819
 30
0.0
 41
1.0
 10
933.4381885389115
 20
-1251.7456748706977
 30
0.0
 41
1.0
 10
933.54835872467049
 20
-1251.6664214943294
 30
0.0
 41
0.9980964527231465
 10
933.66744771817071
 20
-1251.6013340214738
 30
0.0
 41
1.0
 10
933.70448032510012
 20
-1251.5810940418801
 30
0.0
 41
1.0
 10
933.74151293202942
 20
-1251.5608540622861
 30
0.0
 41
1.0
 10
933.92083994530083
 20
-1251.4628438115858
 30
0.0
 41
0.9984572810572661
 10
934.10992851165884
 20
-1251.38532155024
 30
0.0
 41
1.0
 10
934.11357478105367
 20
-1251.3838266579023
 30
0.0
 41
1.0
 10
934.11722105044851
 20
-1251.3823317655649
 30
0.0
 41
1.0
 10
934.29901707801673
 20
-1251.3077992888939
 30
0.0
 41
0.9987838528033862
 10
934.48726973657699
 20
-1251.2515336487277
 30
0.0
 41
1.0
 10
934.4915076857742
 20
-1251.2502669950379
 30
0.0
 41
1.0
 10
934.49574563497151
 20
-1251.2490003413482
 30
0.0
 41
1.0
 10
934.67552239513429
 20
-1251.1952680085624
 30
0.0
 41
0.9990652816207043
 10
934.85926832685209
 20
-1251.1572643290199
 30
0.0
 41
1.0
 10
934.86445672788182
 20
-1251.1561912259137
 30
0.0
 41
1.0
 10
934.86964512891166
 20
-1251.1551181228076
 30
0.0
 41
1.0
 10
935.04301425856613
 20
-1251.1192606494781
 30
0.0
 41
0.9992909934270049
 10
935.21859002502629
 20
-1251.0965502170113
 30
0.0
 41
1.0
 10
935.39416579148281
 20
-1251.0738397845448
 30
0.0
 41
0.9994553539448723
 10
935.57085722457441
 20
-1251.0627604803387
 30
0.0
 41
1.0
 10
935.60629163237218
 20
-1251.0605385922909
 30
0.0
 41
1.0
 10
935.64172604016983
 20
-1251.058316704243
 30
0.0
 41
1.0
 10
935.80795180673897
 20
-1251.0478936418313
 30
0.0
 41
0.9990928098292887
 10
935.97446159864103
 20
-1251.0516532830657
 30
0.0
 41
1.0
 10
936.01302343391262
 20
-1251.0525239745987
 30
0.0
 41
1.0
 10
936.05158526918422
 20
-1251.0533946661317
 30
0.0
 41
1.0
 10
936.14097139054343
 20
-1251.0554129243003
 30
0.0
 41
0.99983820892058
 10
936.23022707332984
 20
-1251.0606450508285
 30
0.0
 41
1.0
 10
936.23065697954962
 20
-1251.0606702517307
 30
0.0
 41
1.0
 10
936.2310868857694
 20
-1251.0606954526329
 30
0.0
 41
1.0
 10
936.3194827561158
 20
-1251.0658771773565
 30
0.0
 41
0.9997558016758273
 10
936.40756333331683
 20
-1251.074959692723
 30
0.0
 41
1.0
 10
936.40803947174948
 20
-1251.0750087902061
 30
0.0
 41
1.0
 10
936.40851561018212
 20
-1251.0750578876889
 30
0.0
 41
1.0
 10
936.49564391052058
 20
-1251.0840422080898
 30
0.0
 41
0.9996565144181721
 10
936.58218176385981
 20
-1251.0975795147783
 30
0.0
 41
1.0
 10
936.58264768923573
 20
-1251.0976524005096
 30
0.0
 41
1.0
 10
936.58311361461176
 20
-1251.0977252862406
 30
0.0
 41
1.0
 10
936.66871961720017
 20
-1251.111116821467
 30
0.0
 41
0.9995321806867199
 10
936.75334669752976
 20
-1251.1297173098967
 30
0.0
 41
1.0
 10
936.75373589210267
 20
-1251.1298028523629
 30
0.0
 41
1.0
 10
936.75412508667546
 20
-1251.1298883948289
 30
0.0
 41
1.0
 10
936.83797377785879
 20
-1251.1483177983264
 30
0.0
 41
0.9993819199219466
 10
936.92032031205395
 20
-1251.1725931815868
 30
0.0
 41
1.0
 10
936.92055874555172
 20
-1251.1726634706961
 30
0.0
 41
1.0
 10
936.92079717904949
 20
-1251.1727337598054
 30
0.0
 41
1.0
 10
937.00266684624944
 20
-1251.1968685648469
 30
0.0
 41
0.9992088568504867
 10
937.0823593652384
 20
-1251.2274338006418
 30
0.0
 41
1.0
 10
937.16204035611736
 20
-1251.257993401375
 30
0.0
 41
0.9990226101773279
 10
937.23871102602459
 20
-1251.2954708329894
 30
0.0
 41
1.0
 10
937.31537016782215
 20
-1251.3329426295425
 30
0.0
 41
0.9988424273972592
 10
937.38807379503442
 20
-1251.3776074047955
 30
0.0
 41
1.0
 10
937.38834150341404
 20
-1251.377771868868
 30
0.0
 41
1.0
 10
937.38860921179366
 20
-1251.3779363329404
 30
0.0
 41
1.0
 10
937.46184825576483
 20
-1251.4229300363379
 30
0.0
 41
0.9986928844490697
 10
937.53011112247441
 20
-1251.4751657706174
 30
0.0
 41
1.0
 10
937.53069241469711
 20
-1251.4756105838453
 30
0.0
 41
1.0
 10
937.53127370691982
 20
-1251.4760553970732
 30
0.0
 41
1.0
 10
937.6006991580748
 20
-1251.5291807578083
 30
0.0
 41
0.9986007262277985
 10
937.66412532784125
 20
-1251.5893415275016
 30
0.0
 41
1.0
 10
937.66501974329879
 20
-1251.5901898953371
 30
0.0
 41
1.0
 10
937.66591415875632
 20
-1251.5910382631723
 30
0.0
 41
1.0
 10
937.73112915943818
 20
-1251.6528957685366
 30
0.0
 41
0.9985581491381195
 10
937.78933677113935
 20
-1251.7213882588078
 30
0.0
 41
1.0
 10
937.79859522473498
 20
-1251.7322826165096
 30
0.0
 41
1.0
 10
937.80785367833073
 20
-1251.7431769742111
 30
0.0
 41
1.0
 10
937.8845781972243
 20
-1251.8334581798865
 30
0.0
 41
0.9970460233520636
 10
937.9465700983842
 20
-1251.9344252640688
 30
0.0
 41
1.0
 10
937.96103946346375
 20
-1251.9579917231499
 30
0.0
 41
1.0
 10
937.9755088285433
 20
-1251.9815581822313
 30
0.0
 41
1.0
 10
938.01524552855506
 20
-1252.0462779062625
 30
0.0
 41
0.9988468816637008
 10
938.0485918993063
 20
-1252.1145103586896
 30
0.0
 41
1.0
 10
938.05562792179842
 20
-1252.1289072798281
 30
0.0
 41
1.0
 10
938.06266394429053
 20
-1252.1433042009669
 30
0.0
 41
1.0
 10
938.08193827005812
 20
-1252.182742811118
 30
0.0
 41
0.9998431189996929
 10
938.09980359755286
 20
-1252.222839365558
 30
0.0
 41
1.0
 10
938.11766892506489
 20
-1252.2629359200373
 30
0.0
 41
0.9999989989972418
 10
938.13564764850821
 20
-1252.3029817576685
 30
0.0
 41
1.0
 10
938.14181996008324
 20
-1252.3167299744382
 30
0.0
 41
1.0
 10
938.14799227165827
 20
-1252.3304781912079
 30
0.0
 41
1.0
 10
938.17831561826631
 20
-1252.3980204624108
 30
0.0
 41
0.999879035632118
 10
938.20652349840441
 20
-1252.4664732143488
 30
0.0
 41
1.0
 10
938.21335867969003
 20
-1252.4830603157793
 30
0.0
 41
1.0
 10
938.22019386097566
 20
-1252.4996474172099
 30
0.0
 41
1.0
 10
938.24375152335676
 20
-1252.5568153720974
 30
0.0
 41
0.9998227574560588
 10
938.26514027174494
 20
-1252.6148296803717
 30
0.0
 41
1.0
 10
938.28652902013471
 20
-1252.6728439886508
 30
0.0
 41
0.9996797971041512
 10
938.30495530509313
 20
-1252.7318661077663
 30
0.0
 41
1.0
 10
938.30885910781876
 20
-1252.7443705659357
 30
0.0
 41
1.0
 10
938.31276291054451
 20
-1252.7568750241053
 30
0.0
 41
1.0
 10
938.33899680095487
 20
-1252.8409060595613
 30
0.0
 41
0.9979274938734355
 10
938.35422132443409
 20
-1252.9276104182218
 30
0.0
 41
1.0
 10
938.35644501169509
 20
-1252.940274419042
 30
0.0
 41
1.0
 10
938.35866869895608
 20
-1252.952938419862
 30
0.0
 41
1.0
 10
938.36959863865457
 20
-1253.0151849271531
 30
0.0
 41
0.999498598213714
 10
938.37656680383157
 20
-1253.0779984282963
 30
0.0
 41
1.0
 10
938.38353496900845
 20
-1253.1408119294358
 30
0.0
 41
0.9996372611201208
 10
938.38711083477585
 20
-1253.2039095081122
 30
0.0
 41
1.0
 10
938.38727941226534
 20
-1253.2068841251985
 30
0.0
 41
1.0
 10
938.38744798975495
 20
-1253.2098587422847
 30
0.0
 41
1.0
 10
938.39136101050144
 20
-1253.2789055551293
 30
0.0
 41
0.9997730630735874
 10
938.39232932398932
 20
-1253.3480563791616
 30
0.0
 41
1.0
 10
938.39238643040744
 20
-1253.3521345583051
 30
0.0
 41
1.0
 10
938.39244353682557
 20
-1253.3562127374487
 30
0.0
 41
1.0
 10
938.39352606314969
 20
-1253.4335199197701
 30
0.0
 41
0.9998772614070182
 10
938.39218597641809
 20
-1253.5108230663311
 30
0.0
 41
1.0
 10
938.39209671321942
 20
-1253.515972230166
 30
0.0
 41
1.0
 10
938.39200745002063
 20
-1253.5211213940008
 30
0.0
 41
1.0
 10
938.39048883689088
 20
-1253.6087228682497
 30
0.0
 41
0.9999415567324184
 10
938.38707652664482
 20
-1253.6962710299288
 30
0.0
 41
1.0
 10
938.38683520596987
 20
-1253.7024624896567
 30
0.0
 41
1.0
 10
938.38659388529481
 20
-1253.7086539493848
 30
0.0
 41
1.0
 10
938.38269893369761
 20
-1253.808585030547
 30
0.0
 41
0.9999716810425001
 10
938.37730035057848
 20
-1253.9084461687864
 30
0.0
 41
1.0
 10
938.37408755179035
 20
-1253.9678754184301
 30
0.0
 41
1.0
 10
938.37087475300234
 20
-1254.0273046680738
 30
0.0
 41
1.0
 10
938.36280084384907
 20
-1254.1766530693658
 30
0.0
 41
0.9999819129904685
 10
938.35293105223286
 20
-1254.3258935470703
 30
0.0
 41
1.0
 10
938.34306126061631
 20
-1254.4751340247817
 30
0.0
 41
1.0
 10
938.34062194005242
 20
-1254.512327070631
 30
0.0
 41
1.0
 10
938.36332017385212
 20
-1254.473586073354
 30
0.0
 41
0.9999982128158768
 10
938.38616473258503
 20
-1254.4349311794344
 30
0.0
 41
1.0
 10
938.41307429249673
 20
-1254.3893979653337
 30
0.0
 41
1.0
 10
938.43998385240855
 20
-1254.343864751233
 30
0.0
 41
1.0
 10
938.51664753093371
 20
-1254.2141434291641
 30
0.0
 41
0.9998609190058981
 10
938.59759484379924
 20
-1254.0870510472291
 30
0.0
 41
1.0
 10
938.62724316527749
 20
-1254.0405013142774
 30
0.0
 41
1.0
 10
938.65689148675574
 20
-1253.9939515813257
 30
0.0
 41
1.0
 10
938.7391637069951
 20
-1253.8647790113268
 30
0.0
 41
0.9999067609731702
 10
938.82493271646081
 20
-1253.7379013218833
 30
0.0
 41
1.0
 10
938.82733741966513
 20
-1253.7343440558234
 30
0.0
 41
1.0
 10
938.82974212286945
 20
-1253.7307867897637
 30
0.0
 41
1.0
 10
938.91070172592958
 20
-1253.6110236324353
 30
0.0
 41
0.9998784952151018
 10
938.99535533560618
 20
-1253.4938424157331
 30
0.0
 41
1.0
 10
939.08000894528914
 20
-1253.3766611990225
 30
0.0
 41
0.9998532968284247
 10
939.16862656611295
 20
-1253.2624482905505
 30
0.0
 41
1.0
 10
939.18858835510332
 20
-1253.2367209695312
 30
0.0
 41
1.0
 10
939.20855014409381
 20
-1253.2109936485119
 30
0.0
 41
1.0
 10
939.32703419385189
 20
-1253.0582880375446
 30
0.0
 41
0.9991551975795382
 10
939.45765864347482
 20
-1252.9158284754617
 30
0.0
 41
1.0
 10
939.46116825945796
 20
-1252.9120008738337
 30
0.0
 41
1.0
 10
939.46467787544111
 20
-1252.9081732722057
 30
0.0
 41
1.0
 10
939.58828309310161
 20
-1252.773368913375
 30
0.0
 41
0.9997418144180776
 10
939.71788523279884
 20
-1252.6443195027657
 30
0.0
 41
1.0
 10
939.84748737249856
 20
-1252.515270092154
 30
0.0
 41
0.9989238204632881
 10
939.98848992074863
 20
-1252.398785130116
 30
0.0
 41
1.0
 10
940.03373759889155
 20
-1252.3614051385046
 30
0.0
 41
1.0
 10
940.07898527703435
 20
-1252.3240251468931
 30
0.0
 41
1.0
 10
940.21922533425413
 20
-1252.2081700936037
 30
0.0
 41
0.9990825084096954
 10
940.36886526685498
 20
-1252.1047410957731
 30
0.0
 41
1.0
 10
940.37891063091308
 20
-1252.0977978826927
 30
0.0
 41
1.0
 10
940.38895599497118
 20
-1252.0908546696123
 30
0.0
 41
1.0
 10
940.51850519945867
 20
-1252.0013120979402
 30
0.0
 41
0.9998164899825629
 10
940.65138940283521
 20
-1251.9167978564237
 30
0.0
 41
1.0
 10
940.66323496335917
 20
-1251.9092640898994
 30
0.0
 41
1.0
 10
940.67508052388314
 20
-1251.901730323375
 30
0.0
 41
1.0
 10
940.78427360621083
 20
-1251.8322836149075
 30
0.0
 41
0.9997473449130689
 10
940.89647756346085
 20
-1251.7678146570915
 30
0.0
 41
1.0
 10
941.00868152070495
 20
-1251.7033456992788
 30
0.0
 41
0.999932786114679
 10
941.12235013146881
 20
-1251.6414957075972
 30
0.0
 41
1.0
 10
941.12290213403207
 20
-1251.6411953489167
 30
0.0
 41
1.0
 10
941.12345413659523
 20
-1251.6408949902361
 30
0.0
 41
1.0
 10
941.23822675248164
 20
-1251.5784442811957
 30
0.0
 41
0.9996956420484265
 10
941.35594007832333
 20
-1251.5217308142203
 30
0.0
 41
1.0
 10
941.38638048321604
 20
-1251.5070648374904
 30
0.0
 41
1.0
 10
941.41682088810865
 20
-1251.4923988607604
 30
0.0
 41
1.0
 10
941.51979799485105
 20
-1251.4427852023175
 30
0.0
 41
0.9998070570176726
 10
941.6246443837905
 20
-1251.3972546154173
 30
0.0
 41
1.0
 10
941.72949077272949
 20
-1251.3517240285169
 30
0.0
 41
0.9997827436147982
 10
941.83614370933537
 20
-1251.3106028572067
 30
0.0
 41
1.0
 10
941.85536655896976
 20
-1251.3031912835731
 30
0.0
 41
1.0
 10
941.87458940860415
 20
-1251.2957797099396
 30
0.0
 41
1.0
 10
942.01968804447711
 20
-1251.2398353913627
 30
0.0
 41
0.9988031841976705
 10
942.16955840708192
 20
-1251.1983353271949
 30
0.0
 41
1.0
 10
942.1944756554459
 20
-1251.1914355813879
 30
0.0
 41
1.0
 10
942.21939290380988
 20
-1251.1845358355808
 30
0.0
 41
1.0
 10
942.38666292945641
 20
-1251.1382176931743
 30
0.0
 41
0.9984748040550251
 10
942.55801983810409
 20
-1251.1106234609097
 30
0.0
 41
1.0
 10
942.56275897435319
 20
-1251.1098603003961
 30
0.0
 41
1.0
 10
942.56749811060229
 20
-1251.1090971398828
 30
0.0
 41
1.0
 10
942.72937674675313
 20
-1251.0830292286448
 30
0.0
 41
0.9984436495479865
 10
942.89315149047775
 20
-1251.0751512748261
 30
0.0
 41
1.0
 10
942.91484869860903
 20
-1251.0741075876265
 30
0.0
 41
1.0
 10
942.93654590674032
 20
-1251.0730639004269
 30
0.0
 41
1.0
 10
943.05692623420248
 20
-1251.0672733210074
 30
0.0
 41
0.9987954789335224
 10
943.17729447911233
 20
-1251.0733098487497
 30
0.0
 41
1.0
 10
943.19725927160812
 20
-1251.0743110930885
 30
0.0
 41
1.0
 10
943.21722406410402
 20
-1251.075312337427
 30
0.0
 41
1.0
 10
943.29766272402367
 20
-1251.0793463764921
 30
0.0
 41
0.9997941595876758
 10
943.37787150211659
 20
-1251.086640442413
 30
0.0
 41
1.0
 10
943.45808028021486
 20
-1251.0939345083345
 30
0.0
 41
0.999858946623812
 10
943.53799882707324
 20
-1251.103918362785
 30
0.0
 41
1.0
 10
943.57040502887787
 20
-1251.1079667197037
 30
0.0
 41
1.0
 10
943.60281123068251
 20
-1251.1120150766226
 30
0.0
 41
1.0
 10
943.74754218115129
 20
-1251.1300956449106
 30
0.0
 41
0.999349506324936
 10
943.8905934249143
 20
-1251.1585613546517
 30
0.0
 41
1.0
 10
943.9235271220673
 20
-1251.1651148178667
 30
0.0
 41
1.0
 10
943.9564608192203
 20
-1251.1716682810818
 30
0.0
 41
1.0
 10
944.06575464242678
 20
-1251.1934166152173
 30
0.0
 41
0.9996788715560496
 10
944.17380621438463
 20
-1251.2206744145808
 30
0.0
 41
1.0
 10
944.17586921692441
 20
-1251.2211948411539
 30
0.0
 41
1.0
 10
944.1779322194642
 20
-1251.2217152677269
 30
0.0
 41
1.0
 10
944.28185778634258
 20
-1251.2479322139443
 30
0.0
 41
0.9995480654492446
 10
944.38402002157045
 20
-1251.2803471705683
 30
0.0
 41
1.0
 10
944.38570966369957
 20
-1251.2808832754822
 30
0.0
 41
1.0
 10
944.38739930582869
 20
-1251.2814193803963
 30
0.0
 41
1.0
 10
944.48618225680048
 20
-1251.3127621271929
 30
0.0
 41
0.9993867959456048
 10
944.58252941524245
 20
-1251.3509414964824
 30
0.0
 41
1.0
 10
944.58377236432659
 20
-1251.3514340383783
 30
0.0
 41
1.0
 10
944.58501531341074
 20
-1251.3519265802743
 30
0.0
 41
1.0
 10
944.6788765736834
 20
-1251.3891208657715
 30
0.0
 41
0.9992050256521992
 10
944.76947624871832
 20
-1251.4336747650109
 30
0.0
 41
1.0
 10
944.77021093143162
 20
-1251.4340360574722
 30
0.0
 41
1.0
 10
944.77094561414503
 20
-1251.4343973499335
 30
0.0
 41
1.0
 10
944.86007592375188
 20
-1251.4782286642496
 30
0.0
 41
0.999022235074129
 10
944.94498598514542
 20
-1251.5297619319481
 30
0.0
 41
1.0
 10
944.94516987042812
 20
-1251.5298735348529
 30
0.0
 41
1.0
 10
944.94535375571081
 20
-1251.5299851377576
 30
0.0
 41
1.0
 10
945.02989604653919
 20
-1251.5812951996463
 30
0.0
 41
0.9988642743805237
 10
945.10917058115797
 20
-1251.6404193871715
 30
0.0
 41
1.0
 10
945.18844511577709
 20
-1251.6995435746969
 30
0.0
 41
0.9987681233311242
 10
945.26146890005339
 20
-1251.7662342660976
 30
0.0
 41
1.0
 10
945.2617978280191
 20
-1251.7665346673116
 30
0.0
 41
1.0
 10
945.26212675598481
 20
-1251.7668350685258
 30
0.0
 41
1.0
 10
945.33580839619231
 20
-1251.8341265623549
 30
0.0
 41
0.9987496570898801
 10
945.40240220151941
 20
-1251.9084393764415
 30
0.0
 41
1.0
 10
945.40317437127999
 20
-1251.9093010497995
 30
0.0
 41
1.0
 10
945.40394654104057
 20
-1251.9101627231576
 30
0.0
 41
1.0
 10
945.47208468588781
 20
-1251.9861988839587
 30
0.0
 41
0.9988147669826533
 10
945.53250694011274
 20
-1252.0684998908011
 30
0.0
 41
1.0
 10
945.53362626619094
 20
-1252.0700245221542
 30
0.0
 41
1.0
 10
945.53474559226913
 20
-1252.0715491535075
 30
0.0
 41
1.0
 10
945.59740649864955
 20
-1252.1568994230549
 30
0.0
 41
0.9989452636216141
 10
945.65197341161104
 20
-1252.2476381122128
 30
0.0
 41
1.0
 10
945.6533221376967
 20
-1252.2498808932389
 30
0.0
 41
1.0
 10
945.65467086378226
 20
-1252.252123674265
 30
0.0
 41
1.0
 10
945.71193522891485
 20
-1252.3473479254751
 30
0.0
 41
0.9991046436070412
 10
945.76094444223747
 20
-1252.4470723585025
 30
0.0
 41
1.0
 10
945.76240830382699
 20
-1252.4500510385742
 30
0.0
 41
1.0
 10
945.76387216541661
 20
-1252.4530297186457
 30
0.0
 41
1.0
 10
945.81580910191849
 20
-1252.5587115118171
 30
0.0
 41
0.9992763831101611
 10
945.85956223047424
 20
-1252.668035573774
 30
0.0
 41
1.0
 10
945.86104150013716
 20
-1252.6717317613065
 30
0.0
 41
1.0
 10
945.86252076980008
 20
-1252.6754279488393
 30
0.0
 41
1.0
 10
945.90923243768168
 20
-1252.7921443858627
 30
0.0
 41
0.9994163472884043
 10
945.94786546887065
 20
-1252.9117779743237
 30
0.0
 41
1.0
 10
945.94910362111807
 20
-1252.9156121181086
 30
0.0
 41
1.0
 10
945.95034177336549
 20
-1252.9194462618934
 30
0.0
 41
1.0
 10
945.99022533438188
 20
-1253.0429523233688
 30
0.0
 41
0.9997268055891129
 10
946.02429339029436
 20
-1253.1681873553212
 30
0.0
 41
1.0
 10
946.02522357056375
 20
-1253.1716067214293
 30
0.0
 41
1.0
 10
946.02615375083315
 20
-1253.1750260875376
 30
0.0
 41
1.0
 10
946.05836144620616
 20
-1253.293422387271
 30
0.0
 41
0.9996701319000749
 10
946.08444706297678
 20
-1253.4133163405354
 30
0.0
 41
1.0
 10
946.11053267974739
 20
-1253.5332102937987
 30
0.0
 41
0.9995785451108818
 10
946.12961625708704
 20
-1253.6544160548306
 30
0.0
 41
1.0
 10
946.1338360392607
 20
-1253.6812172095952
 30
0.0
 41
1.0
 10
946.13805582143436
 20
-1253.7080183643595
 30
0.0
 41
1.0
 10
946.16463079737321
 20
-1253.8768043380642
 30
0.0
 41
0.9979925101216325
 10
946.16965638329941
 20
-1254.0475956661551
 30
0.0
 41
1.0
 10
946.17048119572405
 20
-1254.0756263896355
 30
0.0
 41
1.0
 10
946.17130600814869
 20
-1254.1036571131158
 30
0.0
 41
1.0
 10
946.17468196922584
 20
-1254.2183869942453
 30
0.0
 41
0.9995314902262965
 10
946.17103177708725
 20
-1254.3331084779988
 30
0.0
 41
1.0
 10
946.16738158494877
 20
-1254.4478299617515
 30
0.0
 41
0.9996245486944184
 10
946.15745248981773
 20
-1254.5621792328766
 30
0.0
 41
1.0
 10
946.15728944182365
 20
-1254.5640569890109
 30
0.0
 41
1.0
 10
946.15712639382946
 20
-1254.5659347451451
 30
0.0
 41
1.0
 10
946.14687120271003
 20
-1254.6840395285396
 30
0.0
 41
0.9997286095000629
 10
946.1311258791394
 20
-1254.8015384374282
 30
0.0
 41
1.0
 10
946.13073238648872
 20
-1254.8044748621332
 30
0.0
 41
1.0
 10
946.13033889383792
 20
-1254.807411286838
 30
0.0
 41
1.0
 10
946.11380658496682
 20
-1254.9307830451301
 30
0.0
 41
0.99982655339696
 10
946.09269112623542
 20
-1255.0534535199115
 30
0.0
 41
1.0
 10
946.09201458409711
 20
-1255.0573838984255
 30
0.0
 41
1.0
 10
946.09133804195881
 20
-1255.0613142769398
 30
0.0
 41
1.0
 10
946.06886949895136
 20
-1255.1918455087462
 30
0.0
 41
0.9999022530851953
 10
946.0427600343412
 20
-1255.3216974773857
 30
0.0
 41
1.0
 10
946.04178139317628
 20
-1255.326564619771
 30
0.0
 41
1.0
 10
946.04080275201125
 20
-1255.3314317621564
 30
0.0
 41
1.0
 10
946.01273600507136
 20
-1255.4710180155662
 30
0.0
 41
0.9999524761941223
 10
945.98195303623754
 20
-1255.6100305087261
 30
0.0
 41
1.0
 10
945.98067692906125
 20
-1255.6157932680326
 30
0.0
 41
1.0
 10
945.97940082188484
 20
-1255.621556027339
 30
0.0
 41
1.0
 10
945.94606563869911
 20
-1255.7720940391089
 30
0.0
 41
0.999981358872146
 10
945.91089463789842
 20
-1255.922213751785
 30
0.0
 41
1.0
 10
945.90934071244442
 20
-1255.9288463421967
 30
0.0
 41
1.0
 10
945.9077867869903
 20
-1255.9354789326087
 30
0.0
 41
1.0
 10
945.86950793528104
 20
-1256.0988638261106
 30
0.0
 41
0.9999955237627469
 10
945.8302520572995
 20
-1256.2620167297216
 30
0.0
 41
1.0
 10
945.81797042166579
 20
-1256.3130609202417
 30
0.0
 41
1.0
 10
945.80568878603208
 20
-1256.364105110762
 30
0.0
 41
1.0
 10
945.74186963678494
 20
-1256.6293463954057
 30
0.0
 41
0.9999993604790496
 10
945.67745068959255
 20
-1256.8944426461906
 30
0.0
 41
1.0
 10
945.67273185405668
 20
-1256.9138615541851
 30
0.0
 41
1.0
 10
945.66801301852081
 20
-1256.9332804621795
 30
0.0
 41
1.0
 10
945.59415640025793
 20
-1257.2372145289476
 30
0.0
 41
0.9999659914728392
 10
945.51529680437397
 20
-1257.5398890755021
 30
0.0
 41
1.0
 10
945.5103441154439
 20
-1257.5588982126824
 30
0.0
 41
1.0
 10
945.50539142651382
 20
-1257.5779073498625
 30
0.0
 41
1.0
 10
945.41662645276688
 20
-1257.9186001707869
 30
0.0
 41
0.9999441976025539
 10
945.32068341980107
 20
-1258.2573415960944
 30
0.0
 41
1.0
 10
945.30398290137748
 20
-1258.316305308615
 30
0.0
 41
1.0
 10
945.28728238295389
 20
-1258.3752690211359
 30
0.0
 41
1.0
 10
945.15793831313613
 20
-1258.8319378715005
 30
0.0
 41
0.9999625120733935
 10
945.02070554580996
 20
-1259.2862984055057
 30
0.0
 41
1.0
 10
944.98491560272953
 20
-1259.4047944321246
 30
0.0
 41
1.0
 10
944.9491256596491
 20
-1259.5232904587433
 30
0.0
 41
1.0
 10
944.87460545560896
 20
-1259.770017536842
 30
0.0
 41
0.9999793386311562
 10
944.79691943247121
 20
-1260.0157661760786
 30
0.0
 41
1.0
 10
944.7192334093337
 20
-1260.2615148153147
 30
0.0
 41
1.0
 10
944.708453850463
 20
-1260.2955327196894
 30
0.0
 41
1.0
 10
942.85808079719391
 20
-1266.182604642157
 30
0.0
 41
1.0
 10
941.0077077439247
 20
-1272.0696765646244
 30
0.0
 41
1.0
 10
940.04645105390114
 20
-1272.0696765646244
 30
0.0
 41
1.0
 10
939.08519436387758
 20
-1272.0696765646244
 30
0.0
 41
1.0
 10
940.70413914255596
 20
-1266.9216480628349
 30
0.0
 41
1.0
 10
942.32308392123446
 20
-1261.7736195610455
 30
0.0
 41
1.0
 10
942.36824974440458
 20
-1261.6295883387891
 30
0.0
 41
1.0
 10
942.4134155675747
 20
-1261.4855571165326
 30
0.0
 41
1.0
 10
942.5837199849426
 20
-1260.9424660873533
 30
0.0
 41
0.9999911657893101
 10
942.74945279662597
 20
-1260.3979625559796
 30
0.0
 41
1.0
 10
942.77914874012822
 20
-1260.3003986159233
 30
0.0
 41
1.0
 10
942.80884468363047
 20
-1260.2028346758668
 30
0.0
 41
1.0
 10
942.91518560830821
 20
-1259.8534590246095
 30
0.0
 41
0.9999952428193707
 10
943.01936919763125
 20
-1259.5034340002662
 30
0.0
 41
1.0
 10
943.02442866796537
 20
-1259.4864357259858
 30
0.0
 41
1.0
 10
943.02948813829937
 20
-1259.4694374517051
 30
0.0
 41
1.0
 10
943.12355278696339
 20
-1259.1534089758925
 30
0.0
 41
0.9999931687566783
 10
943.21527862482981
 20
-1258.8366937626463
 30
0.0
 41
1.0
 10
943.22021388928147
 20
-1258.8196530534024
 30
0.0
 41
1.0
 10
943.22514915373313
 20
-1258.8026123441584
 30
0.0
 41
1.0
 10
943.30700446269236
 20
-1258.5199785494144
 30
0.0
 41
0.9999893840804685
 10
943.3862516891603
 20
-1258.2366024201292
 30
0.0
 41
1.0
 10
943.46549891562108
 20
-1257.9532262908683
 30
0.0
 41
0.9999833980078736
 10
943.5414751563643
 20
-1257.6689557078341
 30
0.0
 41
1.0
 10
943.55047909308519
 20
-1257.6352668293612
 30
0.0
 41
1.0
 10
943.55948302980596
 20
-1257.601577950888
 30
0.0
 41
1.0
 10
943.62844757867242
 20
-1257.3435421185909
 30
0.0
 41
0.9999233658068178
 10
943.69100254989064
 20
-1257.0838779598762
 30
0.0
 41
1.0
 10
943.75355752111091
 20
-1256.8242138011537
 30
0.0
 41
1.0
 10
943.79304093996848
 20
-1256.6604071367276
 30
0.0
 41
1.0
 10
943.79801954394736
 20
-1256.6397521748504
 30
0.0
 41
1.0
 10
943.80299814792625
 20
-1256.6190972129732
 30
0.0
 41
1.0
 10
943.83252435882582
 20
-1256.4966004723024
 30
0.0
 41
0.9999868670868187
 10
943.86079344282223
 20
-1256.373807526656
 30
0.0
 41
1.0
 10
943.864690929978
 20
-1256.3568779392476
 30
0.0
 41
1.0
 10
943.86858841713376
 20
-1256.339948351839
 30
0.0
 41
1.0
 10
943.88906252681397
 20
-1256.2510145810304
 30
0.0
 41
0.999977817334604
 10
943.9083501249338
 20
-1256.1618159637801
 30
0.0
 41
1.0
 10
943.92763772304932
 20
-1256.0726173465503
 30
0.0
 41
0.9999602692862193
 10
943.94533208167843
 20
-1255.9830890581316
 30
0.0
 41
1.0
 10
943.94853591375681
 20
-1255.9668786032416
 30
0.0
 41
1.0
 10
943.95173974583531
 20
-1255.950668148352
 30
0.0
 41
1.0
 10
943.97584176862176
 20
-1255.8287189501525
 30
0.0
 41
0.9995617985319965
 10
943.99268511584046
 20
-1255.7055572024451
 30
0.0
 41
1.0
 10
943.99514960574629
 20
-1255.6875363850822
 30
0.0
 41
1.0
 10
943.99761409565212
 20
-1255.6695155677194
 30
0.0
 41
1.0
 10
944.01789735670059
 20
-1255.5212005180172
 30
0.0
 41
0.9991121410639693
 10
944.0256227102891
 20
-1255.3717044192094
 30
0.0
 41
1.0
 10
944.02654150031367
 20
-1255.3539245826332
 30
0.0
 41
1.0
 10
944.02746029033824
 20
-1255.336144746057
 30
0.0
 41
1.0
 10
944.03334806387738
 20
-1255.2222083204033
 30
0.0
 41
0.9989792494905329
 10
944.02892897176002
 20
-1255.1082054845051
 30
0.0
 41
1.0
 10
944.02828099989119
 20
-1255.0914892385754
 30
0.0
 41
1.0
 10
944.02763302802248
 20
-1255.0747729926459
 30
0.0
 41
1.0
 10
944.02450987964255
 20
-1254.9942026486015
 30
0.0
 41
0.9997820295392715
 10
944.01802588226701
 20
-1254.9138329268626
 30
0.0
 41
1.0
 10
944.01154188489147
 20
-1254.8334632051192
 30
0.0
 41
0.9998335105974981
 10
944.00212968937967
 20
-1254.7533835886695
 30
0.0
 41
1.0
 10
944.00053476470327
 20
-1254.7398138581862
 30
0.0
 41
1.0
 10
943.99893984002688
 20
-1254.7262441277026
 30
0.0
 41
1.0
 10
943.98633779516229
 20
-1254.6190250502839
 30
0.0
 41
0.9996876457878846
 10
943.96839388236344
 20
-1254.5125696225657
 30
0.0
 41
1.0
 10
943.96616221921863
 20
-1254.4993298873269
 30
0.0
 41
1.0
 10
943.96393055607382
 20
-1254.4860901520879
 30
0.0
 41
1.0
 10
943.95013473465247
 20
-1254.4042440081287
 30
0.0
 41
0.9995547496495519
 10
943.93148141275992
 20
-1254.3233665109371
 30
0.0
 41
1.0
 10
943.93110745588888
 20
-1254.3217451002329
 30
0.0
 41
1.0
 10
943.93073349901783
 20
-1254.3201236895284
 30
0.0
 41
1.0
 10
943.91282809086761
 20
-1254.242489013747
 30
0.0
 41
0.9994899427175379
 10
943.89000318218791
 20
-1254.1661557309117
 30
0.0
 41
1.0
 10
943.8895446554468
 20
-1254.1646222811219
 30
0.0
 41
1.0
 10
943.88908612870569
 20
-1254.1630888313323
 30
0.0
 41
1.0
 10
943.86717827350833
 20
-1254.0898224480763
 30
0.0
 41
0.9993784877590231
 10
943.84016263840203
 20
-1254.0182817429181
 30
0.0
 41
1.0
 10
943.83963094742512
 20
-1254.0168737601975
 30
0.0
 41
1.0
 10
943.83909925644821
 20
-1254.0154657774769
 30
0.0
 41
1.0
 10
943.81314700329528
 20
-1253.9467410377586
 30
0.0
 41
0.9992430832254525
 10
943.78193046813612
 20
-1253.8802418856908
 30
0.0
 41
1.0
 10
943.7813483520797
 20
-1253.879001830574
 30
0.0
 41
1.0
 10
943.78076623602328
 20
-1253.877761775457
 30
0.0
 41
1.0
 10
943.75071393297685
 20
-1253.813742733623
 30
0.0
 41
0.9990789632799295
 10
943.71528330620004
 20
-1253.7525361218729
 30
0.0
 41
1.0
 10
943.71468760001767
 20
-1253.7515070360132
 30
0.0
 41
1.0
 10
943.71409189383542
 20
-1253.7504779501535
 30
0.0
 41
1.0
 10
943.67985267942231
 20
-1253.6913295101215
 30
0.0
 41
0.9988874801120632
 10
943.64019340339132
 20
-1253.6356697977053
 30
0.0
 41
1.0
 10
943.63963787732769
 20
-1253.6348901460315
 30
0.0
 41
1.0
 10
943.63908235126394
 20
-1253.6341104943574
 30
0.0
 41
1.0
 10
943.60053412736033
 20
-1253.5800100852889
 30
0.0
 41
0.998676206069311
 10
943.55663165608303
 20
-1253.5301563708485
 30
0.0
 41
1.0
 10
943.55618769575131
 20
-1253.5296522290323
 30
0.0
 41
1.0
 10
943.55574373541958
 20
-1253.5291480872163
 30
0.0
 41
1.0
 10
943.51272918480731
 20
-1253.4803026564098
 30
0.0
 41
0.9984621642488807
 10
943.46457162802903
 20
-1253.4365193559381
 30
0.0
 41
1.0
 10
943.46432499351272
 20
-1253.4362951237749
 30
0.0
 41
1.0
 10
943.46407835899629
 20
-1253.4360708916115
 30
0.0
 41
1.0
 10
943.41641407125087
 20
-1253.3927360554667
 30
0.0
 41
0.998272469385192
 10
943.36399543940979
 20
-1253.3552917049492
 30
0.0
 41
1.0
 10
943.31157680756894
 20
-1253.3178473544319
 30
0.0
 41
0.9981399180158652
 10
943.25499074417519
 20
-1253.2870608349883
 30
0.0
 41
1.0
 10
943.25494508209658
 20
-1253.2870359918311
 30
0.0
 41
1.0
 10
943.25489942001809
 20
-1253.2870111486739
 30
0.0
 41
1.0
 10
943.19822203246781
 20
-1253.256174942916
 30
0.0
 41
0.9980927086837029
 10
943.13817668140155
 20
-1253.2325581340635
 30
0.0
 41
1.0
 10
943.13773651168981
 20
-1253.2323850081884
 30
0.0
 41
1.0
 10
943.13729634197807
 20
-1253.2322118823135
 30
0.0
 41
1.0
 10
943.07637065148765
 20
-1253.2082488217109
 30
0.0
 41
0.9981411356560805
 10
943.01298213008727
 20
-1253.1918761802051
 30
0.0
 41
1.0
 10
943.01210001338666
 20
-1253.1916483379998
 30
0.0
 41
1.0
 10
943.01121789668605
 20
-1253.1914204957945
 30
0.0
 41
1.0
 10
942.9460651418832
 20
-1253.1745921698778
 30
0.0
 41
0.9983031812935216
 10
942.87939771288757
 20
-1253.1654528087015
 30
0.0
 41
1.0
 10
942.87052668748595
 20
-1253.1642366900305
 30
0.0
 41
1.0
 10
942.86165566208433
 20
-1253.1630205713595
 30
0.0
 41
1.0
 10
942.80730601957862
 20
-1253.1555698413683
 30
0.0
 41
0.998388770826388
 10
942.75246217028428
 20
-1253.1543251677349
 30
0.0
 41
1.0
 10
942.74439876507051
 20
-1253.1541421698601
 30
0.0
 41
1.0
 10
942.73633535985675
 20
-1253.1539591719852
 30
0.0
 41
1.0
 10
942.69761832099505
 20
-1253.1530804941015
 30
0.0
 41
0.9998869563078405
 10
942.65889236778878
 20
-1253.1533663634611
 30
0.0
 41
1.0
 10
942.62016641454215
 20
-1253.1536522328211
 30
0.0
 41
0.9999972320166541
 10
942.58144223528654
 20
-1253.1541203323509
 30
0.0
 41
1.0
 10
942.562089218751
 20
-1253.1543542724398
 30
0.0
 41
1.0
 10
942.54273620221534
 20
-1253.1545882125288
 30
0.0
 41
1.0
 10
942.46530598984361
 20
-1253.1555241922365
 30
0.0
 41
0.9997304945086883
 10
942.38800268360478
 20
-1253.1600532860225
 30
0.0
 41
1.0
 10
942.3789530419017
 20
-1253.1605834920124
 30
0.0
 41
1.0
 10
942.3699034001985
 20
-1253.1611136980023
 30
0.0
 41
1.0
 10
942.27450081055122
 20
-1253.1667032037683
 30
0.0
 41
0.9997888306414108
 10
942.17940847470788
 20
-1253.1762081682577
 30
0.0
 41
1.0
 10
942.17068741313608
 20
-1253.1770798828898
 30
0.0
 41
1.0
 10
942.16196635156427
 20
-1253.1779515975218
 30
0.0
 41
1.0
 10
942.04943189257529
 20
-1253.189199991275
 30
0.0
 41
0.9984170238190229
 10
941.93887274522331
 20
-1253.2130160732111
 30
0.0
 41
1.0
 10
941.90249161423731
 20
-1253.2208531090171
 30
0.0
 41
1.0
 10
941.86611048325142
 20
-1253.2286901448231
 30
0.0
 41
1.0
 10
941.75091941483038
 20
-1253.2535040113326
 30
0.0
 41
0.9976592854198687
 10
941.64019124842548
 20
-1253.2938026884799
 30
0.0
 41
1.0
 10
941.52946308201967
 20
-1253.3341013656272
 30
0.0
 41
0.9993255074351625
 10
941.42199128322716
 20
-1253.3824182641206
 30
0.0
 41
1.0
 10
941.41736610430507
 20
-1253.3844976403198
 30
0.0
 41
1.0
 10
941.4127409253831
 20
-1253.3865770165189
 30
0.0
 41
1.0
 10
941.29601876874528
 20
-1253.439052667411
 30
0.0
 41
0.9976475078274926
 10
941.18757142443451
 20
-1253.5070006570695
 30
0.0
 41
1.0
 10
941.16922903030127
 20
-1253.5184931358831
 30
0.0
 41
1.0
 10
941.15088663616814
 20
-1253.5299856146964
 30
0.0
 41
1.0
 10
941.06668444461548
 20
-1253.5827427354652
 30
0.0
 41
0.9995131336406915
 10
940.98593672965615
 20
-1253.6406489474198
 30
0.0
 41
1.0
 10
940.9051890146992
 20
-1253.6985551593725
 30
0.0
 41
0.9995810107606254
 10
940.82792736697081
 20
-1253.7610368418382
 30
0.0
 41
1.0
 10
940.82495733576025
 20
-1253.763438713303
 30
0.0
 41
1.0
 10
940.82198730454979
 20
-1253.7658405847678
 30
0.0
 41
1.0
 10
940.73878559440129
 20
-1253.8331260101627
 30
0.0
 41
0.9996617837954557
 10
940.65919490726583
 20
-1253.9046464657226
 30
0.0
 41
1.0
 10
940.6470641563883
 20
-1253.9155471987137
 30
0.0
 41
1.0
 10
940.63493340551065
 20
-1253.9264479317051
 30
0.0
 41
1.0
 10
940.56665787811448
 20
-1253.9878005471769
 30
0.0
 41
0.9997267750052974
 10
940.5013243698304
 20
-1254.0522770837028
 30
0.0
 41
1.0
 10
940.43599086154632
 20
-1254.1167536202283
 30
0.0
 41
0.9999667288965898
 10
940.37171791839887
 20
-1254.1822874271236
 30
0.0
 41
1.0
 10
940.30289047062433
 20
-1254.2524650858813
 30
0.0
 41
1.0
 10
940.2340630228498
 20
-1254.3226427446389
 30
0.0
 41
1.0
 10
940.03213518415453
 20
-1254.528531869048
 30
0.0
 41
0.998820533517514
 10
939.85112956717626
 20
-1254.753036101107
 30
0.0
 41
1.0
 10
939.82048960227019
 20
-1254.7910393515385
 30
0.0
 41
1.0
 10
939.78984963736411
 20
-1254.8290426019703
 30
0.0
 41
1.0
 10
939.54756409057325
 20
-1255.1295533348932
 30
0.0
 41
0.9997077826754861
 10
939.32008613946687
 20
-1255.4414231291114
 30
0.0
 41
1.0
 10
939.31836272433793
 20
-1255.4437859124887
 30
0.0
 41
1.0
 10
939.31663930920899
 20
-1255.4461486958662
 30
0.0
 41
1.0
 10
939.08571452784452
 20
-1255.7627440568394
 30
0.0
 41
0.9989147567078999
 10
938.88525102496089
 20
-1256.0994535180239
 30
0.0
 41
1.0
 10
938.86050987965189
 20
-1256.14101009858
 30
0.0
 41
1.0
 10
938.83576873434288
 20
-1256.1825666791358
 30
0.0
 41
1.0
 10
938.68055743570767
 20
-1256.443268063585
 30
0.0
 41
0.9997476598181253
 10
938.53721244819849
 20
-1256.7106778121665
 30
0.0
 41
1.0
 10
938.39386746068806
 20
-1256.9780875607505
 30
0.0
 41
0.9996258967109512
 10
938.26535920875733
 20
-1257.2529354973726
 30
0.0
 41
1.0
 10
938.25215929930755
 20
-1257.2811668974684
 30
0.0
 41
1.0
 10
938.23895938985777
 20
-1257.3093982975643
 30
0.0
 41
1.0
 10
938.09875066885945
 20
-1257.6092706955139
 30
0.0
 41
0.9998735413945121
 10
937.96814932213738
 20
-1257.9134502949855
 30
0.0
 41
1.0
 10
937.96470649407593
 20
-1257.9214688804523
 30
0.0
 41
1.0
 10
937.96126366601459
 20
-1257.929487465919
 30
0.0
 41
1.0
 10
937.8375479754186
 20
-1258.2176298944496
 30
0.0
 41
0.9999377418864015
 10
937.72029317324223
 20
-1258.5084613621279
 30
0.0
 41
1.0
 10
937.60303837106551
 20
-1258.7992928298077
 30
0.0
 41
0.9999508299509609
 10
937.49157442768796
 20
-1259.0923925066302
 30
0.0
 41
1.0
 10
937.4884936590264
 20
-1259.1004935325918
 30
0.0
 41
1.0
 10
937.48541289036484
 20
-1259.1085945585532
 30
0.0
 41
1.0
 10
937.3677874096644
 20
-1259.417896287297
 30
0.0
 41
0.9999609228431653
 10
937.25564880679542
 20
-1259.7292293032988
 30
0.0
 41
1.0
 10
937.25269279644226
 20
-1259.7374361437178
 30
0.0
 41
1.0
 10
937.24973678608922
 20
-1259.7456429841368
 30
0.0
 41
1.0
 10
937.13168616251278
 20
-1260.0733896809802
 30
0.0
 41
0.9999674607402643
 10
937.01893863644489
 20
-1260.4029983009748
 30
0.0
 41
1.0
 10
936.96754024588472
 20
-1260.5532574966601
 30
0.0
 41
1.0
 10
936.91614185532444
 20
-1260.7035166923454
 30
0.0
 41
1.0
 10
936.80013124856566
 20
-1261.042664674851
 30
0.0
 41
0.9999287532307414
 10
936.69224984459424
 20
-1261.3844854138288
 30
0.0
 41
1.0
 10
936.6457725884062
 20
-1261.531747958355
 30
0.0
 41
1.0
 10
936.59929533221816
 20
-1261.6790105028811
 30
0.0
 41
1.0
 10
936.5843684405736
 20
-1261.7263061529632
 30
0.0
 41
0.9999998224215818
 10
936.56949793189301
 20
-1261.7736195610455
 30
0.0
 41
1.0
 10
934.94884179509756
 20
-1266.9216480628349
 30
0.0
 41
1.0
 10
933.32818565830212
 20
-1272.0696765646244
 30
0.0
 41
1.0
 10
932.42287721441119
 20
-1272.0696765646244
 30
0.0
 41
1.0
 10
931.51756877052026
 20
-1272.0696765646244
 30
0.0
 41
1.0
 10
933.3696531819063
 20
-1266.182604642157
 30
0.0
 41
1.0
 10
935.22173759329235
 20
-1260.2955327196894
 30
0.0
 41
1.0
 10
935.23185935159506
 20
-1260.2634895062397
 30
0.0
 41
1.0
 10
935.3044670204448
 20
-1260.0331899644139
 30
0.0
 41
1.0
 10
935.37707468928738
 20
-1259.8028904226107
 30
0.0
 41
0.9999825681969425
 10
935.44695772849741
 20
-1259.571749527551
 30
0.0
 41
1.0
 10
935.49524879066212
 20
-1259.4120249440425
 30
0.0
 41
1.0
 10
935.54353985282671
 20
-1259.2523003605343
 30
0.0
 41
1.0
 10
935.64069220614124
 20
-1258.9309651387671
 30
0.0
 41
0.9999672528966247
 10
935.7326310117669
 20
-1258.6080995931729
 30
0.0
 41
1.0
 10
935.73541989544401
 20
-1258.598305747757
 30
0.0
 41
1.0
 10
935.73820877912124
 20
-1258.588511902341
 30
0.0
 41
1.0
 10
935.82456981739472
 20
-1258.2852340475711
 30
0.0
 41
0.9999899749180831
 10
935.90821142692494
 20
-1257.9811949591344
 30
0.0
 41
1.0
 10
935.91831734594484
 20
-1257.9444597214469
 30
0.0
 41
1.0
 10
935.92842326496486
 20
-1257.9077244837595
 30
0.0
 41
1.0
 10
935.99185303646266
 20
-1257.6771558706707
 30
0.0
 41
0.9999214200504394
 10
936.04948246483741
 20
-1257.4450695284727
 30
0.0
 41
1.0
 10
936.06224831701616
 20
-1257.3936586430837
 30
0.0
 41
1.0
 10
936.07501416919501
 20
-1257.3422477576946
 30
0.0
 41
1.0
 10
936.10711189321273
 20
-1257.2129831862721
 30
0.0
 41
0.9999828681668646
 10
936.1376941452105
 20
-1257.0833517117958
 30
0.0
 41
1.0
 10
936.16827639720873
 20
-1256.9537202373162
 30
0.0
 41
0.9999389844478467
 10
936.19598738599825
 20
-1256.8234447814139
 30
0.0
 41
1.0
 10
936.20312512971691
 20
-1256.7898886775836
 30
0.0
 41
1.0
 10
936.21026287343557
 20
-1256.7563325737533
 30
0.0
 41
1.0
 10
936.2522493496657
 20
-1256.558944910176
 30
0.0
 41
0.9998933699442024
 10
936.28845361406695
 20
-1256.3604153024228
 30
0.0
 41
1.0
 10
936.28982643928362
 20
-1256.3528872817246
 30
0.0
 41
1.0
 10
936.29119926450016
 20
-1256.3453592610267
 30
0.0
 41
1.0
 10
936.33014917933576
 20
-1256.1317736118713
 30
0.0
 41
0.9996850305193353
 10
936.35833285559431
 20
-1255.9165026064352
 30
0.0
 41
1.0
 10
936.36032788896352
 20
-1255.9012642523139
 30
0.0
 41
1.0
 10
936.36232292233274
 20
-1255.8860258981927
 30
0.0
 41
1.0
 10
936.38973078479194
 20
-1255.6766806710368
 30
0.0
 41
0.9994697936706555
 10
936.40345534401104
 20
-1255.465995475709
 30
0.0
 41
1.0
 10
936.40393241326069
 20
-1255.4586720034972
 30
0.0
 41
1.0
 10
936.40440948251046
 20
-1255.4513485312855
 30
0.0
 41
1.0
 10
936.41717990323082
 20
-1255.2553102803765
 30
0.0
 41
0.9991804893136594
 10
936.41405158695784
 20
-1255.0588814304049
 30
0.0
 41
1.0
 10
936.41396770813571
 20
-1255.0536146289924
 30
0.0
 41
1.0
 10
936.41388382931359
 20
-1255.0483478275796
 30
0.0
 41
1.0
 10
936.41092327068509
 20
-1254.8624525804314
 30
0.0
 41
0.9988448329321498
 10
936.39013172506134
 20
-1254.6776999905981
 30
0.0
 41
1.0
 10
936.38853765135832
 20
-1254.663535134827
 30
0.0
 41
1.0
 10
936.3869435776553
 20
-1254.649370279056
 30
0.0
 41
1.0
 10
936.36934017943759
 20
-1254.4929474007652
 30
0.0
 41
0.9985503209458699
 10
936.33502390713807
 20
-1254.3393232166754
 30
0.0
 41
1.0
 10
936.32743791506709
 20
-1254.3053628892767
 30
0.0
 41
1.0
 10
936.31985192299624
 20
-1254.2714025618777
 30
0.0
 41
1.0
 10
936.300707634839
 20
-1254.1856990325889
 30
0.0
 41
0.9991036781371003
 10
936.2743827731872
 20
-1254.1019219452612
 30
0.0
 41
1.0
 10
936.27040054773101
 20
-1254.08924878275
 30
0.0
 41
1.0
 10
936.26641832227483
 20
-1254.0765756202388
 30
0.0
 41
1.0
 10
936.24805791153574
 20
-1254.0181448579353
 30
0.0
 41
0.9998874504368696
 10
936.22795270385768
 20
-1253.9602912557129
 30
0.0
 41
1.0
 10
936.20784749617826
 20
-1253.9024376534876
 30
0.0
 41
0.9994041637544384
 10
936.18379888324409
 20
-1253.8461089495977
 30
0.0
 41
1.0
 10
936.17960209902037
 20
-1253.8362788851166
 30
0.0
 41
1.0
 10
936.17540531479665
 20
-1253.8264488206355
 30
0.0
 41
1.0
 10
936.14752648380215
 20
-1253.7611486546684
 30
0.0
 41
0.9991846840701656
 10
936.11447012710926
 20
-1253.6983106233886
 30
0.0
 41
1.0
 10
936.11333352071449
 20
-1253.6961500069344
 30
0.0
 41
1.0
 10
936.11219691431972
 20
-1253.6939893904803
 30
0.0
 41
1.0
 10
936.08141377041682
 20
-1253.6354725921096
 30
0.0
 41
0.9989253167923567
 10
936.04534434636116
 20
-1253.580057663718
 30
0.0
 41
1.0
 10
936.04429022168711
 20
-1253.5784381689559
 30
0.0
 41
1.0
 10
936.04323609701316
 20
-1253.5768186741941
 30
0.0
 41
1.0
 10
936.00927492230687
 20
-1253.5246427353291
 30
0.0
 41
0.9986467172838246
 10
935.97007776966893
 20
-1253.4762767016982
 30
0.0
 41
1.0
 10
935.9692036409682
 20
-1253.4751980994201
 30
0.0
 41
1.0
 10
935.96832951226747
 20
-1253.4741194971418
 30
0.0
 41
1.0
 10
935.93088061703133
 20
-1253.4279106680685
 30
0.0
 41
0.998400110426685
 10
935.8884538865143
 20
-1253.3862255607
 30
0.0
 41
1.0
 10
935.88786674840503
 20
-1253.385648685819
 30
0.0
 41
1.0
 10
935.88727961029588
 20
-1253.3850718109379
 30
0.0
 41
1.0
 10
935.84602715599783
 20
-1253.3445404533318
 30
0.0
 41
0.9982442159082329
 10
935.80027105466161
 20
-1253.3091718920709
 30
0.0
 41
1.0
 10
935.80005625919966
 20
-1253.3090058594275
 30
0.0
 41
1.0
 10
935.79984146373772
 20
-1253.3088398267842
 30
0.0
 41
1.0
 10
935.75451495332584
 20
-1253.2738033308108
 30
0.0
 41
0.9982450060837329
 10
935.70536397425417
 20
-1253.2443715477771
 30
0.0
 41
1.0
 10
935.65621299518284
 20
-1253.2149397647438
 30
0.0
 41
0.9983922639635626
 10
935.60404668901776
 20
-1253.1912601300896
 30
0.0
 41
1.0
 10
935.60381981169326
 20
-1253.191157144608
 30
0.0
 41
1.0
 10
935.60359293436863
 20
-1253.1910541591267
 30
0.0
 41
1.0
 10
935.55097287355466
 20
-1253.1671685535098
 30
0.0
 41
0.9986517147149977
 10
935.49615990068673
 20
-1253.148867434388
 30
0.0
 41
1.0
 10
935.49548197925901
 20
-1253.1486410879565
 30
0.0
 41
1.0
 10
935.49480405783129
 20
-1253.1484147415251
 30
0.0
 41
1.0
 10
935.43863524210735
 20
-1253.1296609295405
 30
0.0
 41
0.9989435598956645
 10
935.38098185495573
 20
-1253.1161432273059
 30
0.0
 41
1.0
 10
935.37990173537423
 20
-1253.115889977053
 30
0.0
 41
1.0
 10
935.37882161579273
 20
-1253.1156367267999
 30
0.0
 41
1.0
 10
935.31900798947754
 20
-1253.1016125240594
 30
0.0
 41
0.9992249241240742
 10
935.25827648058032
 20
-1253.092337181344
 30
0.0
 41
1.0
 10
935.25686279228944
 20
-1253.0921212729363
 30
0.0
 41
1.0
 10
935.25544910399856
 20
-1253.0919053645284
 30
0.0
 41
1.0
 10
935.19189021851844
 20
-1253.0821982049974
 30
0.0
 41
0.9994396597833296
 10
935.12782428198057
 20
-1253.0767652826519
 30
0.0
 41
1.0
 10
935.10868361450355
 20
-1253.0751421149334
 30
0.0
 41
1.0
 10
935.08954294702653
 20
-1253.0735189472148
 30
0.0
 41
1.0
 10
934.98719567553417
 20
-1253.0648396894317
 30
0.0
 41
0.9987693403121676
 10
934.8844920519474
 20
-1253.0663427528841
 30
0.0
 41
1.0
 10
934.87423771771842
 20
-1253.0664928246583
 30
0.0
 41
1.0
 10
934.86398338348943
 20
-1253.0666428964325
 30
0.0
 41
1.0
 10
934.7544276173121
 20
-1253.0682462407201
 30
0.0
 41
0.9989753644966194
 10
934.64546561729708
 20
-1253.0797492476454
 30
0.0
 41
1.0
 10
934.53650361727955
 20
-1253.0912522545707
 30
0.0
 41
0.9983190067305613
 10
934.42960480631359
 20
-1253.1152872463576
 30
0.0
 41
1.0
 10
934.42070385470788
 20
-1253.1172885249202
 30
0.0
 41
1.0
 10
934.41180290310217
 20
-1253.1192898034826
 30
0.0
 41
1.0
 10
934.28710218892331
 20
-1253.1473273523948
 30
0.0
 41
0.9985539388302972
 10
934.16613243524512
 20
-1253.1885910284407
 30
0.0
 41
1.0
 10
934.16378700428515
 20
-1253.1893910722565
 30
0.0
 41
1.0
 10
934.16144157332519
 20
-1253.1901911160721
 30
0.0
 41
1.0
 10
934.03578095772764
 20
-1253.233054879749
 30
0.0
 41
0.9988468746493737
 10
933.91481061542822
 20
-1253.2877729648108
 30
0.0
 41
1.0
 10
933.91162779343858
 20
-1253.2892126393713
 30
0.0
 41
1.0
 10
933.90844497144894
 20
-1253.2906523139316
 30
0.0
 41
1.0
 10
933.78110898517116
 20
-1253.3482497481139
 30
0.0
 41
0.9991322885918755
 10
933.6590084011151
 20
-1253.4162450802955
 30
0.0
 41
1.0
 10
933.64140639006996
 20
-1253.4260472822859
 30
0.0
 41
1.0
 10
933.62380437902482
 20
-1253.4358494842763
 30
0.0
 41
1.0
 10
933.52162769796848
 20
-1253.4927496000564
 30
0.0
 41
0.9993860037849144
 10
933.423686693896
 20
-1253.5566656156445
 30
0.0
 41
1.0
 10
933.41806838104276
 20
-1253.5603321103399
 30
0.0
 41
1.0
 10
933.41245006818951
 20
-1253.5639986050355
 30
0.0
 41
1.0
 10
933.32574568982352
 20
-1253.6205816312324
 30
0.0
 41
0.9998821494955138
 10
933.24081931400974
 20
-1253.6797998613097
 30
0.0
 41
1.0
 10
933.15589293819244
 20
-1253.7390180913897
 30
0.0
 41
0.9997976482744052
 10
933.07341730778421
 20
-1253.8016044994351
 30
0.0
 41
1.0
 10
933.05878104298381
 20
-1253.8127111892115
 30
0.0
 41
1.0
 10
933.04414477818352
 20
-1253.8238178789879
 30
0.0
 41
1.0
 10
932.93239661817063
 20
-1253.908617666589
 30
0.0
 41
0.9998091630799529
 10
932.82404634014642
 20
-1253.9977180172873
 30
0.0
 41
1.0
 10
932.81104058766709
 20
-1254.008413117735
 30
0.0
 41
1.0
 10
932.79803483518776
 20
-1254.0191082181827
 30
0.0
 41
1.0
 10
932.66367305220615
 20
-1254.1295987697761
 30
0.0
 41
0.9995035112317322
 10
932.53653717444479
 20
-1254.2483325867886
 30
0.0
 41
1.0
 10
932.5268898640561
 20
-1254.2573423329477
 30
0.0
 41
1.0
 10
932.5172425536673
 20
-1254.266352079107
 30
0.0
 41
1.0
 10
932.39381949090239
 20
-1254.3816184508628
 30
0.0
 41
0.9994630424299369
 10
932.2782110851183
 20
-1254.504721194098
 30
0.0
 41
1.0
 10
932.2745282463477
 20
-1254.5086427736101
 30
0.0
 41
1.0
 10
932.27084540757721
 20
-1254.5125643531221
 30
0.0
 41
1.0
 10
932.16260267933535
 20
-1254.6278239373319
 30
0.0
 41
0.9995160693749906
 10
932.06173664980236
 20
-1254.7495913552057
 30
0.0
 41
1.0
 10
932.05980292972504
 20
-1254.7519257794097
 30
0.0
 41
1.0
 10
932.05786920964772
 20
-1254.7542602036137
 30
0.0
 41
1.0
 10
931.96087062027323
 20
-1254.8713587730749
 30
0.0
 41
0.9996561470514556
 10
931.87014440160453
 20
-1254.9933815355275
 30
0.0
 41
1.0
 10
931.86398673570034
 20
-1255.0016633245727
 30
0.0
 41
1.0
 10
931.85782906979614
 20
-1255.0099451136182
 30
0.0
 41
1.0
 10
931.77941818293448
 20
-1255.1154042979824
 30
0.0
 41
0.99983490551725
 10
931.70489090100637
 20
-1255.22364288164
 30
0.0
 41
1.0
 10
931.63036361907075
 20
-1255.3318814653089
 30
0.0
 41
0.9999728109573848
 10
931.557440723166
 20
-1255.4412073908559
 30
0.0
 41
1.0
 10
931.55612550775322
 20
-1255.4431791603597
 30
0.0
 41
1.0
 10
931.55481029234056
 20
-1255.4451509298638
 30
0.0
 41
1.0
 10
931.47925696561629
 20
-1255.5584203944102
 30
0.0
 41
0.9999972147395209
 10
931.40423915525093
 20
-1255.6720452372324
 30
0.0
 41
1.0
 10
931.3992676126195
 20
-1255.6795753257184
 30
0.0
 41
1.0
 10
931.39429606998817
 20
-1255.6871054142043
 30
0.0
 41
1.0
 10
931.30933517437552
 20
-1255.8157904339755
 30
0.0
 41
0.9999371979007919
 10
931.22727982497349
 20
-1255.946347347749
 30
0.0
 41
1.0
 10
931.22377094060732
 20
-1255.951930275821
 30
0.0
 41
1.0
 10
931.22026205624115
 20
-1255.9575132038931
 30
0.0
 41
1.0
 10
931.13118893811179
 20
-1256.0992359738029
 30
0.0
 41
0.9998272025611418
 10
931.0474455472314
 20
-1256.2441718505424
 30
0.0
 41
1.0
 10
931.03223037520684
 20
-1256.2705049649999
 30
0.0
 41
1.0
 10
931.01701520318238
 20
-1256.2968380794573
 30
0.0
 41
1.0
 10
930.90284146825195
 20
-1256.4944401851139
 30
0.0
 41
0.9995217214838064
 10
930.80110177869619
 20
-1256.6987225129762
 30
0.0
 41
1.0
 10
930.79345821606103
 20
-1256.7140699626793
 30
0.0
 41
1.0
 10
930.78581465342586
 20
-1256.7294174123826
 30
0.0
 41
1.0
 10
930.69890936083664
 20
-1256.9039138704629
 30
0.0
 41
0.9998269762607343
 10
930.6185548945648
 20
-1257.0815221571861
 30
0.0
 41
1.0
 10
930.53820042829329
 20
-1257.2591304439079
 30
0.0
 41
0.9998944747386324
 10
930.46303963372668
 20
-1257.4389981695422
 30
0.0
 41
1.0
 10
930.45808596413485
 20
-1257.4508528244614
 30
0.0
 41
1.0
 10
930.45313229454291
 20
-1257.4627074793805
 30
0.0
 41
1.0
 10
930.37248523399148
 20
-1257.6557044193955
 30
0.0
 41
0.999950673441408
 10
930.29568770508899
 20
-1257.8502652242491
 30
0.0
 41
1.0
 10
930.28108773981705
 20
-1257.8872531460579
 30
0.0
 41
1.0
 10
930.26648777454511
 20
-1257.9242410678664
 30
0.0
 41
1.0
 10
930.21889017618196
 20
-1258.0448260291137
 30
0.0
 41
0.9999912393922585
 10
930.17230373216285
 20
-1258.165805231801
 30
0.0
 41
1.0
 10
930.12571728813487
 20
-1258.2867844345114
 30
0.0
 41
0.9999927113965598
 10
930.0800559937453
 20
-1258.4081158420013
 30
0.0
 41
1.0
 10
930.066087562348
 20
-1258.445232823999
 30
0.0
 41
1.0
 10
930.05211913095081
 20
-1258.4823498059966
 30
0.0
 41
1.0
 10
929.97852097376051
 20
-1258.6779151774979
 30
0.0
 41
0.9999487550947976
 10
929.90889734878874
 20
-1258.8749305426809
 30
0.0
 41
1.0
 10
929.88530373885487
 20
-1258.9416938529653
 30
0.0
 41
1.0
 10
929.861710128921
 20
-1259.0084571632494
 30
0.0
 41
1.0
 10
929.7670244945482
 20
-1259.2763909980808
 30
0.0
 41
0.9999808436942207
 10
929.67566290590366
 20
-1259.5454764293538
 30
0.0
 41
1.0
 10
929.58430131726232
 20
-1259.8145618606181
 30
0.0
 41
0.9999873932890966
 10
929.49564660854458
 20
-1260.0845512156304
 30
0.0
 41
1.0
 10
929.47555425167502
 20
-1260.1457405483839
 30
0.0
 41
1.0
 10
929.45546189480547
 20
-1260.2069298811375
 30
0.0
 41
1.0
 10
929.32662247234293
 20
-1260.5992979016733
 30
0.0
 41
0.9999794883019504
 10
929.20281968737868
 20
-1260.9932841079722
 30
0.0
 41
1.0
 10
929.1916674279471
 20
-1261.0287747181906
 30
0.0
 41
1.0
 10
929.1805151685154
 20
-1261.0642653284092
 30
0.0
 41
1.0
 10
929.03795700461239
 20
-1261.5179380805127
 30
0.0
 41
0.9999982761701056
 10
928.89708456460289
 20
-1261.9721371026178
 30
0.0
 41
1.0
 10
927.30894423203029
 20
-1267.0209068336212
 30
0.0
 41
1.0
 10
925.72080389945768
 20
-1272.0696765646244
 30
0.0
 41
1.0
 10
924.77205328798129
 20
-1272.0696765646244
 30
0.0
 41
1.0
 10
923.82330267650491
 20
-1272.0696765646244
 30
0.0
 41
1.0
 10
927.06158716265804
 20
-1261.7423543646782
 30
0.0
 41
1.0
 10
930.29987164881129
 20
-1251.4150321647321
 30
0.0
 41
1.0
  0
LWPOLYLINE
  5
4D
100
AcDbEntity
  8
0
370
              15
390
0
  6
Continuous
 62
               7
100
AcDbPolyline
 90
      232
 70
             128
 10
904.59632587498425
 20
-1252.4993749962473
 42
0.0004370800691959
 10
904.54344870091234
 20
-1252.5680416355033
 10
904.50416446978477
 20
-1252.6191487484002
 42
0.003048199217171
 10
904.37382575268362
 20
-1252.7908704407205
 10
904.33531408091517
 20
-1252.8422572245324
 42
0.0042058245764033
 10
904.131329030232
 20
-1253.1192629696245
 10
904.07892390774464
 20
-1253.191695816387
 42
0.0120948898744094
 10
903.78287999098211
 20
-1253.6224454209375
 10
903.68668749186156
 20
-1253.7699261561602
 42
0.0141601263947062
 10
903.38304344493929
 20
-1254.2655954928962
 10
903.34350617750772
 20
-1254.3344394603375
 42
0.007113108130372
 10
903.13823385427486
 20
-1254.7039422591661
 42
0.0068458791003417
 10
902.9433543274306
 20
-1255.0790338226445
 10
902.93654246497408
 20
-1255.0925955363659
 42
0.0064120880289223
 10
902.73840021493447
 20
-1255.5000200112747
 10
902.73086552941277
 20
-1255.5160318680059
 42
0.0058857236448259
 10
902.52811013754138
 20
-1255.9604079790404
 10
902.51993521124712
 20
-1255.9788981326749
 42
0.0053189741896757
 10
902.31123089858136
 20
-1256.4648616065886
 10
902.30248309289823
 20
-1256.4858434847888
 42
0.0047503650417849
 10
902.08650936674803
 20
-1257.018042917997
 10
902.07724111839934
 20
-1257.0415192941064
 42
0.0042071762169229
 10
901.85269373467156
 20
-1257.6246128881764
 10
901.84294433232299
 20
-1257.6505790630458
 42
0.003668008648511
 10
901.60848968901075
 20
-1258.2892144475779
 10
901.59828190916312
 20
-1258.3176629819218
 42
0.0032573142627999
 10
901.35264962319297
 20
-1259.0165156416851
 10
901.28399910235282
 20
-1259.2159787257367
 42
0.0026133366650121
 10
900.93555390359779
 20
-1260.2458420093999
 10
900.87229711609712
 20
-1260.4360728447928
 42
0.0020592950739362
 10
900.65843404712996
 20
-1261.088176497406
 10
900.65538225597163
 20
-1261.0976129858009
 42
0.0025609928533873
 10
900.45356175448103
 20
-1261.7327582081816
 10
900.45097038735128
 20
-1261.741060549132
 42
0.0031362356242951
 10
900.26147960167737
 20
-1262.3618234053017
 10
900.25934855875028
 20
-1262.3689647115118
 42
0.0037229918030943
 10
900.08254817182365
 20
-1262.9779500134869
 10
900.08086958262322
 20
-1262.98389690364
 42
0.0043077623707911
 10
899.91712878055216
 20
-1263.5837156354305
 42
0.0047654161821928
 10
899.76430005803581
 20
-1264.1864017243338
 10
899.72983544919703
 20
-1264.3279635014824
 42
0.0112969368445546
 10
899.53397109105265
 20
-1265.2196556621111
 10
899.50596470195683
 20
-1265.3624837082045
 42
0.0130056762570148
 10
899.30512745831015
 20
-1266.5494247798495
 10
899.28458770816314
 20
-1266.6935028933262
 42
0.013872153214473
 10
899.18088470362522
 20
-1267.6003323791522
 10
899.1615892157173
 20
-1267.8238301010774
 42
0.0071254697007239
 10
899.12824256979479
 20
-1268.2870171099244
 10
899.12328159563049
 20
-1268.3730211045031
 42
0.0028881799208627
 10
899.10814330234166
 20
-1268.6647628143273
 42
0.0060297297133765
 10
899.09821110256621
 20
-1268.9567117504364
 10
899.09714882089895
 20
-1269.005104122378
 42
0.0229523164159378
 10
899.10487984868473
 20
-1269.3278589686588
 10
899.10910562220556
 20
-1269.3882625026815
 42
0.0123673300669903
 10
899.12818426872343
 20
-1269.5893832278498
 42
0.0128577674467638
 10
899.15737965912933
 20
-1269.7892810777741
 10
899.16450553251673
 20
-1269.8306098923736
 42
0.0285717853763926
 10
899.22899953421245
 20
-1270.1087260436866
 10
899.24266805787886
 20
-1270.1553808131639
 42
0.0316283099153373
 10
899.35847863779304
 20
-1270.4743953149898
 10
899.36152732954861
 20
-1270.4813816873154
 42
0.0338984824234845
 10
899.51095904051579
 20
-1270.7689476515045
 10
899.51326776988617
 20
-1270.7727386807812
 42
0.0350228718351254
 10
899.69562806055922
 20
-1271.0297906654573
 10
899.6965133123341
 20
-1271.0308697432213
 42
0.0347476747530243
 10
899.91093799957434
 20
-1271.2580547904413
 42
0.0331337701909162
 10
900.15418132532091
 20
-1271.4541834525191
 10
900.15528142383687
 20
-1271.4549561556914
 42
0.0305233319079248
 10
900.42382611941002
 20
-1271.6200843257825
 10
900.4270561639114
 20
-1271.6218083376452
 42
0.0273744481157507
 10
900.71960987548698
 20
-1271.7579464815362
 10
900.72471441062328
 20
-1271.7599900660055
 42
0.0240964406196282
 10
901.04019148626878
 20
-1271.8689737922866
 10
901.04677481547901
 20
-1271.8708985319618
 42
0.0209636179813283
 10
901.38417496813292
 20
-1271.9543666798943
 10
901.39180742858025
 20
-1271.9559185928954
 42
0.0181388704693533
 10
901.75012982057876
 20
-1272.0153346861093
 10
901.75841066895691
 20
-1272.0164008699264
 42
0.015608654758605
 10
902.13659803314567
 20
-1272.0531370565031
 10
902.17979328547915
 20
-1272.0559755589825
 42
0.0137148329026468
 10
902.50746643077161
 20
-1272.0684958142333
 10
902.55340262071343
 20
-1272.0689902473484
 42
0.0051057823887168
 10
902.78954820728984
 20
-1272.0691205017579
 42
0.0052256693311751
 10
903.02564549107444
 20
-1272.0643716772934
 10
903.09587227481791
 20
-1272.0622247112794
 42
0.0161507179048078
 10
903.47160935291924
 20
-1272.0385743409529
 10
903.49162231329228
 20
-1272.0366641456653
 42
0.010121673783274
 10
903.90564953478167
 20
-1271.9886712153
 10
903.93970282420969
 20
-1271.9840235184902
 42
0.0245291776397457
 10
904.41649247975909
 20
-1271.8949484404143
 10
904.50131579528295
 20
-1271.8747525200686
 42
0.014350921255892
 10
904.85794689922443
 20
-1271.7789478862892
 42
0.0156557857041937
 10
905.20816296395094
 20
-1271.6619366704706
 10
905.21566417844633
 20
-1271.6591665087162
 42
0.0170137333631318
 10
905.57226017412859
 20
-1271.5135088938448
 10
905.57936409653519
 20
-1271.5103210582815
 42
0.0183105364409703
 10
905.93871376470281
 20
-1271.3329860164565
 10
905.94566052934022
 20
-1271.3292355815852
 42
0.0194899958149863
 10
906.30414127032441
 20
-1271.1172565996942
 10
906.31115514966086
 20
-1271.1127312573994
 42
0.0204869852950445
 10
906.66516945175624
 20
-1270.8632112423124
 10
906.67243506034185
 20
-1270.8576311769652
 42
0.0212516938555694
 10
907.01842499145016
 20
-1270.5677271800703
 10
907.0649416855241
 20
-1270.5252598699783
 42
0.0215248918250838
 10
907.32496785441322
 20
-1270.2664955909822
 10
907.36999758878915
 20
-1270.2176514696375
 42
0.0114578554953019
 10
907.52478974247106
 20
-1270.0418285361743
 10
907.53598427844099
 20
-1270.0285097726487
 42
0.0061531305117666
 10
907.66245892445215
 20
-1269.8742202393232
 42
0.0006325587120629
 10
907.78683740858332
 20
-1269.7182168636732
 10
907.80987754365538
 20
-1269.689243342988
 42
0.0041897761554223
 10
907.97833294762052
 20
-1269.4737239669359
 10
908.0367950675203
 20
-1269.3976226199411
 42
0.0092993880039111
 10
908.31340699474765
 20
-1269.023343856052
 10
908.39580148794039
 20
-1268.9074068524919
 42
0.0159321727087909
 10
908.7424079705853
 20
-1268.3852326317324
 10
908.7867641059712
 20
-1268.3135530674874
 42
0.0085547317020393
 10
909.02127587130008
 20
-1267.9196781182577
 42
0.0084601156889796
 10
909.24225204874233
 20
-1267.5180512692255
 10
909.25036752257256
 20
-1267.5026915869526
 42
0.0081429654285291
 10
909.47361679301139
 20
-1267.0629700744091
 10
909.48247695719408
 20
-1267.0447912323925
 42
0.0076574581328677
 10
909.70888446776098
 20
-1266.5616083571388
 10
909.71836410848448
 20
-1266.5405438788362
 42
0.0070682724199216
 10
909.94880901629006
 20
-1266.0085065740582
 10
909.95879930027297
 20
-1265.9845173850435
 42
0.0064559514449726
 10
910.19413250845673
 20
-1265.3982051185189
 10
910.20454186661959
 20
-1265.3712701930822
 42
0.0058311413906422
 10
910.44558860337986
 20
-1264.7252380987059
 10
910.45634368076992
 20
-1264.6953537575382
 42
0.0052312425819601
 10
910.70392495881345
 20
-1263.9841513436954
 10
910.71496879519054
 20
-1263.9513246316337
 42
0.0046680544797109
 10
910.96989722292221
 20
-1263.1694983158879
 10
911.01188937298275
 20
-1263.0365150785419
 42
0.0041666856447805
 10
911.21517538536364
 20
-1262.3735463035814
 10
911.25283782602673
 20
-1262.24696519593
 42
0.0015170975158235
 10
911.37402440444043
 20
-1261.835096844434
 42
-0.0004887993114047
 10
911.49436417753168
 20
-1261.4229784325014
 10
911.57084143505858
 20
-1261.1620210464509
 42
0.0002583378927851
 10
911.84405600512878
 20
-1260.2279643432519
 10
911.92582885472802
 20
-1259.9478650835908
 42
0.0006636169673825
 10
912.11969661471085
 20
-1259.2805121601018
 10
912.12479326907146
 20
-1259.2628805771749
 42
0.001058913132359
 10
912.30624196997451
 20
-1258.6301492341729
 10
912.31122404044811
 20
-1258.6126363271771
 42
0.0015655524461306
 10
912.47949424763783
 20
-1258.014019647952
 10
912.48432444805621
 20
-1257.9966274890039
 42
0.0021640440476036
 10
912.63861442003872
 20
-1257.4316004709981
 10
912.64324863947218
 20
-1257.4143357409912
 42
0.0028763871852605
 10
912.78276435752173
 20
-1256.8823677901571
 10
912.78715022169536
 20
-1256.8652438119775
 42
0.003731051194962
 10
912.91110691352583
 20
-1256.3657962179786
 10
912.91518213381289
 20
-1256.3488359467412
 42
0.0047652197767401
 10
913.02280603432325
 20
-1255.8813581784282
 10
913.02649663364798
 20
-1255.8645986232718
 42
0.0060276699306858
 10
913.11702673280024
 20
-1255.428522828134
 10
913.12024542308689
 20
-1255.4120216138379
 42
0.0075824337756349
 10
913.19293473250491
 20
-1255.0067544493986
 10
913.19558010988521
 20
-1254.9905995019476
 42
0.0095130624606334
 10
913.24969534551633
 20
-1254.6155101488762
 10
913.25668156939878
 20
-1254.5595765907613
 42
0.0121054653224717
 10
913.28327289997685
 20
-1254.2946807622859
 10
913.2841393897362
 20
-1254.2832773193586
 42
0.0069050827379172
 10
913.29922820777415
 20
-1254.0403360925125
 10
913.3003635074424
 20
-1254.0168098354732
 42
0.0169063976700307
 10
913.30319078642287
 20
-1253.820617108167
 10
913.30202013489179
 20
-1253.760281346825
 42
0.0052007732894981
 10
913.29976668629865
 20
-1253.6846879566658
 42
0.0054038123292089
 10
913.27980317446122
 20
-1253.5646696606636
 10
913.27471731858941
 20
-1253.5360111740747
 42
0.0112050460458512
 10
913.23933295653046
 20
-1253.3596847357342
 10
913.22150799449014
 20
-1253.2801431490147
 42
0.024076446800975
 10
913.13061062834413
 20
-1252.9499061135141
 10
913.11205186553093
 20
-1252.8932859485208
 42
0.0256812331834053
 10
912.968688945341
 20
-1252.5215617422625
 10
912.96327951951946
 20
-1252.5094304072725
 42
0.0268360501217043
 10
912.79385227866976
 20
-1252.1784372732518
 10
912.78831587103537
 20
-1252.1689176029406
 42
0.0274670231731511
 10
912.59611489462145
 20
-1251.8766302280223
 10
912.59073359465879
 20
-1251.869351080481
 42
0.0275035967101781
 10
912.37916071509699
 20
-1251.6138351901768
 10
912.37409121413066
 20
-1251.6083561025466
 42
0.0269557673526001
 10
912.14668767069088
 20
-1251.387713816584
 10
912.14194461290776
 20
-1251.3835838621228
 42
0.0259124802208897
 10
911.9023897814775
 20
-1251.1958933349711
 10
911.89785893629505
 20
-1251.1927078326403
 42
0.0245162153003859
 10
911.64994258320075
 20
-1251.0359748235301
 10
911.64541603687599
 20
-1251.033414626329
 42
0.0229282588838199
 10
911.39299648004919
 20
-1250.9055464338303
 10
911.38821598621178
 20
-1250.9033941340681
 42
0.0212984135693725
 10
911.13517803375066
 20
-1250.802195216826
 10
911.12987374878207
 20
-1250.8003316540664
 42
0.0197555462340657
 10
910.88009541105816
 20
-1250.7235162361012
 42
0.018351189678804
 10
910.62516668559488
 20
-1250.6659333291359
 10
910.53880148887231
 20
-1250.6497305387509
 42
0.0338057877150065
 10
910.25329413961174
 20
-1250.6159221336106
 10
910.16228873457555
 20
-1250.6113424783493
 42
0.0091990524488378
 10
910.0564416259358
 20
-1250.6079666224271
 42
0.0028333980777335
 10
909.9505277099438
 20
-1250.6071385149103
 10
909.94961225689349
 20
-1250.6071365450862
 42
-0.0023619827812061
 10
909.84186624179131
 20
-1250.6063957040078
 10
909.80546107161172
 20
-1250.6059733975449
 42
0.0008824598485377
 10
909.62490508169446
 20
-1250.604197619306
 10
909.58104364935593
 20
-1250.603843657781
 42
0.003813266576811
 10
909.31276075349149
 20
-1250.6037247217141
 10
909.29622709868363
 20
-1250.6038434878578
 42
0.0060665569335511
 10
908.9949466070974
 20
-1250.6096637872786
 10
908.98069627506698
 20
-1250.6101120952462
 42
0.0080356953336834
 10
908.65123755872389
 20
-1250.6257798173133
 10
908.6391675436405
 20
-1250.6265484002536
 42
0.0098996399106022
 10
908.28640445898736
 20
-1250.6560336294519
 10
908.27635874961493
 20
-1250.6570739256499
 42
0.0117740981366413
 10
907.90520189126732
 20
-1250.7043661731796
 10
907.89697919478363
 20
-1250.7056112897505
 42
0.0137435215135065
 10
907.51239037529808
 20
-1250.7747082633123
 10
907.50573333617513
 20
-1250.7760941595457
 42
0.015835986938262
 10
907.11273624237356
 20
-1250.8709862480262
 10
907.1073230555055
 20
-1250.8724761888971
 42
0.018055412402713
 10
906.71100801089335
 20
-1250.9971142051356
 10
906.70645122280973
 20
-1250.998730241402
 42
0.0203657431282945
 10
906.3119737049991
 20
-1251.1569905829176
 10
906.30783016599105
 20
-1251.1588522043598
 42
0.022681968465513
 10
905.92039410978794
 20
-1251.3544947830303
 10
905.91619431876927
 20
-1251.3568603749504
 42
0.0248634984606092
 10
905.5410123775888
 20
-1251.5934870208973
 10
905.49281744880352
 20
-1251.627344062724
 42
0.0267044190885524
 10
905.21852475188757
 20
-1251.8427844385915
 42
0.0139303002197481
 10
904.9623575859506
 20
-1252.0800232795018
 10
904.95750420022785
 20
-1252.0847759423636
 42
0.0283460963442526
 10
904.71343160599974
 20
-1252.3525066028099
 10
904.6737631008441
 20
-1252.4013081802818
 42
0.0070695364826285
 10
904.59632587498425
 20
-1252.4993749962473
 42
0.0070695364826285
  0
LWPOLYLINE
  5
4E
100
AcDbEntity
  8
0
370
              15
390
0
  6
Continuous
 62
               7
100
AcDbPolyline
 90
      226
 70
             128
 10
901.06750543773785
 20
-1268.2209638024312
 42
-0.0026277636598977
 10
901.06742755393793
 20
-1268.1541918766284
 10
901.06764491216984
 20
-1268.101036659245
 42
-0.0088680296728798
 10
901.07142152846291
 20
-1267.9280208768398
 10
901.07376788757529
 20
-1267.8687408513883
 42
-0.0077381705618814
 10
901.0898139983376
 20
-1267.577480355603
 10
901.09068190951155
 20
-1267.5651921219051
 42
-0.0068872530535301
 10
901.11731398925895
 20
-1267.2499703698438
 10
901.11851821344578
 20
-1267.2377293908175
 42
-0.0062130021490124
 10
901.15611193027235
 20
-1266.8988596995887
 10
901.15761583380868
 20
-1266.8866858276624
 42
-0.005672692966962
 10
901.20653769331193
 20
-1266.5244906055425
 10
901.20831113895542
 20
-1266.5123968053035
 42
-0.0052341884491295
 10
901.2689217252165
 20
-1266.1272035497791
 10
901.27093971399199
 20
-1266.1151986197933
 42
-0.0049768450164519
 10
901.34367839542085
 20
-1265.7073540523475
 10
901.36792741014017
 20
-1265.5788060693549
 42
-0.0089029805624026
 10
901.5050082619357
 20
-1264.9170306219289
 10
901.53775363725345
 20
-1264.7719991914089
 42
-0.0080318257100258
 10
901.76730225159213
 20
-1263.8262895595631
 10
901.77928717804241
 20
-1263.780158924365
 42
-0.0074265721318571
 10
902.06329871689616
 20
-1262.7500943459715
 10
902.08317826000621
 20
-1262.6819602854052
 42
-0.00697119227034
 10
902.41048283851569
 20
-1261.6156925450673
 10
902.47043478562171
 20
-1261.4296711866953
 42
-0.005207042289633
 10
902.69986001088046
 20
-1260.7423991096653
 10
902.71714120305626
 20
-1260.6923718290379
 42
-0.0009167004448166
 10
902.92023309034221
 20
-1260.1079159808942
 42
-0.0025162726947047
 10
903.12733072059621
 20
-1259.5248747167552
 10
903.16455533241003
 20
-1259.4217251708262
 42
-0.0028212681457016
 10
903.41273125137332
 20
-1258.7459945386549
 10
903.42256201412999
 20
-1258.719687093962
 42
-0.00319649168192
 10
903.65885427178625
 20
-1258.0994823318513
 10
903.66848872578657
 20
-1258.0746723417044
 42
-0.0036281836450875
 10
903.89359468688644
 20
-1257.5072316608148
 10
903.90303309704564
 20
-1257.4839342293078
 42
-0.0041269166833236
 10
904.11765079370309
 20
-1256.9664933333338
 10
904.15028375012298
 20
-1256.8896148869746
 42
-0.004747221305617
 10
904.30732855567749
 20
-1256.5291934190893
 10
904.31422263688773
 20
-1256.5137728217528
 42
-0.0025651659996072
 10
904.46258067073586
 20
-1256.1864447660089
 42
-0.0057144634997853
 10
904.61633036450633
 20
-1255.8616350926479
 10
904.6443610699049
 20
-1255.8041267102594
 42
-0.0065388068375537
 10
904.82782809764819
 20
-1255.4398942135872
 10
904.83628655342488
 20
-1255.4236346342211
 42
-0.0074510843021667
 10
905.01246879930454
 20
-1255.0969463530951
 10
905.02064846983785
 20
-1255.0823055758221
 42
-0.0084648979862929
 10
905.19028232293567
 20
-1254.790396564865
 10
905.19813844941734
 20
-1254.7773895732248
 42
-0.0095638542813491
 10
905.36197389701795
 20
-1254.5175007012356
 10
905.36944884069146
 20
-1254.5061313397775
 42
-0.0107191626802504
 10
905.52825042107725
 20
-1254.275520105236
 10
905.53526715480757
 20
-1254.2657840128722
 42
-0.0118458573901384
 10
905.68981525332083
 20
-1254.0617118175608
 42
-0.0129184518193446
 10
905.85426787692177
 20
-1253.8655513013912
 10
905.88441264928747
 20
-1253.8314252224886
 42
-0.02177425796298
 10
906.06102497162078
 20
-1253.6482184522406
 10
906.0717705160755
 20
-1253.6380016190431
 42
-0.0097266568651055
 10
906.23782813493699
 20
-1253.4861540446004
 42
-0.0187720905728109
 10
906.41217571082154
 20
-1253.3440851912151
 10
906.44288170149798
 20
-1253.320926108817
 42
-0.017942820752072
 10
906.67530242149678
 20
-1253.1583739317034
 10
906.67895474841396
 20
-1253.1560099968149
 42
-0.0170047877699502
 10
906.91471838594293
 20
-1253.0145494826643
 10
906.91850137469214
 20
-1253.0124511776264
 42
-0.0160190788367999
 10
907.15540992232479
 20
-1252.8907998756399
 42
-0.0151102861496382
 10
907.39944170477122
 20
-1252.7841170995853
 10
907.45182820698324
 20
-1252.7630769666905
 42
-0.0271945441887192
 10
907.81049076604165
 20
-1252.6412121559845
 10
907.87955556653117
 20
-1252.6218626147179
 42
-0.0237596594021696
 10
908.29535241355211
 20
-1252.5264119027365
 10
908.36341526728256
 20
-1252.5141572146099
 42
-0.0213715440554859
 10
908.64929019872784
 20
-1252.4752101831
 10
908.70943736494155
 20
-1252.4696204683994
 42
-0.0101465655815687
 10
908.87692989693994
 20
-1252.4574769251349
 10
908.88627028313556
 20
-1252.4569900101378
 42
-0.0100375910879627
 10
909.03542438370073
 20
-1252.4522141922125
 10
909.04568365337718
 20
-1252.4520917531981
 42
-0.0103625633384208
 10
909.17439164803591
 20
-1252.4532231867247
 10
909.19665729930318
 20
-1252.4538805451896
 42
-0.0115689250225304
 10
909.28070803683079
 20
-1252.4583100514346
 42
-0.0072438037433455
 10
909.36454631627089
 20
-1252.4658992511843
 10
909.38134682574275
 20
-1252.4676657939083
 42
-0.0217917313134732
 10
909.49791658905451
 20
-1252.485085686629
 10
909.56351667962645
 20
-1252.4978322950444
 42
-0.0332943556749213
 10
909.7679088446514
 20
-1252.5518725863508
 10
909.79808141320382
 20
-1252.56204066347
 42
-0.0184824084788148
 10
909.93658646966696
 20
-1252.6144916788558
 42
-0.0198002050689465
 10
910.07066081016615
 20
-1252.6773757390552
 10
910.07254744754323
 20
-1252.6783535259351
 42
-0.0212242342982324
 10
910.20468638994589
 20
-1252.7541162647287
 10
910.20650168548855
 20
-1252.7552620669367
 42
-0.0226090605805313
 10
910.33500558671074
 20
-1252.8447417105015
 10
910.33685002844777
 20
-1252.8461539634886
 42
-0.0238457052245872
 10
910.4600321097405
 20
-1252.9501498593509
 10
910.46198483829971
 20
-1252.9519647371171
 42
-0.0248160564157572
 10
910.57818634559987
 20
-1253.0712393383253
 10
910.58028997900237
 20
-1253.0736246720303
 42
-0.0254109591459934
 10
910.68789519686845
 20
-1253.2089130579948
 10
910.6901432187824
 20
-1253.2120546063952
 42
-0.0255528488285827
 10
910.78758989758001
 20
-1253.3640816606301
 10
910.78992099749576
 20
-1253.3681632722369
 42
-0.0252146793219262
 10
910.87570202350503
 20
-1253.5376655182345
 10
910.87800426266244
 20
-1253.5428476001468
 42
-0.0244265635947783
 10
910.95065895642415
 20
-1253.7305941721938
 10
910.95990535789269
 20
-1253.7584595905323
 42
-0.0231319612902914
 10
911.00582813688436
 20
-1253.9217606373329
 42
-0.0112130424358419
 10
911.04046415942298
 20
-1254.0879642375228
 10
911.04166668453513
 20
-1254.094460824409
 42
-0.0210527881225694
 10
911.06735315990613
 20
-1254.2755164698524
 10
911.07086375472772
 20
-1254.3109220183974
 42
-0.0190029892425299
 10
911.08630522827229
 20
-1254.5644578646682
 10
911.08711520471638
 20
-1254.5999334790386
 42
-0.013797455366409
 10
911.08556635188097
 20
-1254.9249648857667
 10
911.08472089692543
 20
-1254.9510836303618
 42
-0.0081336634213357
 10
911.06986156170274
 20
-1255.2564310979642
 42
-0.0073526923572498
 10
911.04555302832841
 20
-1255.5611793422463
 10
911.04429160454538
 20
-1255.5745160169154
 42
-0.0066886138693862
 10
911.00855601849912
 20
-1255.9051020604102
 10
911.00689892902892
 20
-1255.9187236794041
 42
-0.006135918735727
 10
910.95904832697886
 20
-1256.2754876594988
 10
910.95701082590517
 20
-1256.2893824623334
 42
-0.0056698610065738
 10
910.89636049513933
 20
-1256.6726610311648
 10
910.89395506181518
 20
-1256.6868201504021
 42
-0.0052721077271153
 10
910.81982286101743
 20
-1257.0969474900701
 10
910.81705971217377
 20
-1257.111364125466
 42
-0.0049289272171828
 10
910.72876559406996
 20
-1257.5486726366062
 10
910.72565309939114
 20
-1257.5633414894041
 42
-0.0047415956711088
 10
910.62241510785918
 20
-1258.0281382468131
 10
910.5876468974991
 20
-1258.177945342198
 42
-0.0084404470905304
 10
910.39763045392795
 20
-1258.9381693667265
 10
910.39150376594159
 20
-1258.9610334908825
 42
-0.0039635940257047
 10
910.17005008165768
 20
-1259.7620223551296
 10
910.15667328647805
 20
-1259.8089539717216
 42
-0.0072475040837385
 10
909.88922639861846
 20
-1260.698173688101
 10
909.81901407179146
 20
-1260.9199140380722
 42
-0.0051345458829167
 10
909.5322546997287
 20
-1261.7942392258951
 10
909.51072843295651
 20
-1261.8576654930391
 42
-0.0019150016601091
 10
909.2551950260945
 20
-1262.6012146132512
 10
909.24872742170169
 20
-1262.6198020781624
 42
-0.0021524362752881
 10
909.00024937063449
 20
-1263.3241278998808
 10
908.99103894992834
 20
-1263.3498814782095
 42
-0.0024331286818218
 10
908.75478369090206
 20
-1264.0004807863002
 10
908.74573573834994
 20
-1264.0250240926589
 42
-0.0027449721789461
 10
908.52112116751607
 20
-1264.6241539715791
 10
908.51223116013296
 20
-1264.6474765614075
 42
-0.0031083229770231
 10
908.29868867351388
 20
-1265.197400599011
 10
908.28995254183644
 20
-1265.2194903148734
 42
-0.0035311343283131
 10
908.08691135624645
 20
-1265.7224734405988
 10
908.07832601709913
 20
-1265.7433161641084
 42
-0.0040245640948877
 10
907.88521421330438
 20
-1266.2016254867017
 10
907.87677809969796
 20
-1266.2212048547815
 42
-0.0046015135849637
 10
907.69302180653756
 20
-1266.6371098844158
 10
907.6847356287127
 20
-1266.6554070238606
 42
-0.0052768638267054
 10
907.50975810975365
 20
-1267.0311799081383
 10
907.50162589912986
 20
-1267.0481732466749
 42
-0.0060672675646069
 10
907.33484628636074
 20
-1267.3860888697957
 10
907.32687680588197
 20
-1267.4017541287874
 42
-0.0069904648875863
 10
907.16770841187781
 20
-1267.7040899354565
 10
907.15991701226267
 20
-1267.7184004846918
 42
-0.0080637022764263
 10
907.00776515192115
 20
-1267.9874357878371
 10
907.00017611929013
 20
-1268.0003636534375
 42
-0.0093006455662364
 10
906.85443544275836
 20
-1268.2383780519408
 10
906.84708477601657
 20
-1268.249896021111
 42
-0.0107060778059551
 10
906.7071362325762
 20
-1268.4591663384931
 10
906.70007446429724
 20
-1268.4692518810582
 42
-0.012272311141508
 10
906.56528074609855
 20
-1268.6520452105478
 10
906.56495452253762
 20
-1268.6524655983662
 42
-0.0141836319627482
 10
906.42137291957033
 20
-1268.827035356187
 10
906.41442516391794
 20
-1268.8350103564524
 42
-0.0175957477207174
 10
906.27451899588368
 20
-1268.9846312448567
 42
-0.0080466359680596
 10
906.12705523085583
 20
-1269.1269537730057
 10
906.08102068633605
 20
-1269.1699742110991
 42
-0.0269600260395902
 10
905.82774044035352
 20
-1269.3822974696079
 10
905.76117330405248
 20
-1269.4322488842349
 42
-0.0178362839751624
 10
905.52122881440027
 20
-1269.5992668104846
 10
905.51398384340109
 20
-1269.6039353226886
 42
-0.0174650732652146
 10
905.2776476459585
 20
-1269.7447962876486
 42
-0.0169240130163348
 10
905.03218140009903
 20
-1269.8690885474268
 10
904.98619524454307
 20
-1269.8904505029932
 42
-0.03188830368418
 10
904.63584438892519
 20
-1270.0267888125027
 10
904.56747885375785
 20
-1270.0484894329788
 42
-0.0284435909903825
 10
904.19142872746727
 20
-1270.1447068684533
 10
904.15627056696667
 20
-1270.1516004642822
 42
-0.0243909341014052
 10
903.84282710604975
 20
-1270.1973214953121
 10
903.79254637928307
 20
-1270.2021670422134
 42
-0.0196639292931241
 10
903.57695080175131
 20
-1270.2144153277272
 10
903.52512673058823
 20
-1270.215318588464
 42
-0.0100501510681418
 10
903.41270344892359
 20
-1270.2150181901109
 10
903.38104358754617
 20
-1270.2142971182247
 42
-0.0019752031102504
 10
903.33195125089821
 20
-1270.212984958016
 10
903.32919094767999
 20
-1270.2129002661898
 42
0.0065378751992147
 10
903.28561437292137
 20
-1270.2121333749747
 42
-0.016797469468756
 10
903.24208354999348
 20
-1270.2104734764487
 10
903.23800421072747
 20
-1270.2101804655535
 42
-0.0081283276281018
 10
903.18644441298738
 20
-1270.2056334719157
 10
903.17470483911029
 20
-1270.2044055543374
 42
-0.0126703440184212
 10
903.09998654331741
 20
-1270.194670763266
 10
903.07719867564015
 20
-1270.1911125073507
 42
-0.011785208842596
 10
902.95765968980265
 20
-1270.1695495121926
 10
902.90227923804468
 20
-1270.158205971959
 42
-0.025177459229346
 10
902.67543519903802
 20
-1270.0997079625265
 10
902.63071600918363
 20
-1270.08574114319
 42
-0.014652519988295
 10
902.44432302164728
 20
-1270.0214746159927
 42
-0.0166929435854634
 10
902.26234536552101
 20
-1269.9456674829382
 10
902.25768873424749
 20
-1269.943542582324
 42
-0.0191684358438663
 10
902.07250510299923
 20
-1269.8503064985346
 10
902.06917251724121
 20
-1269.8484652509806
 42
-0.0221181781813434
 10
901.88586221333844
 20
-1269.7363317526094
 10
901.88351240933059
 20
-1269.7347474546189
 42
-0.0254984685387022
 10
901.70722225894519
 20
-1269.602336304649
 10
901.6847401112434
 20
-1269.5835839957131
 42
-0.0292492648806343
 10
901.55997117240031
 20
-1269.4664911960699
 42
-0.0159048957495093
 10
901.44613117495066
 20
-1269.3384712044715
 10
901.44481238437083
 20
-1269.3368895914509
 42
-0.0343813379558462
 10
901.34217512274461
 20
-1269.1950182656813
 10
901.31068359138294
 20
-1269.1445148735861
 42
-0.0369117275698362
 10
901.22479108948653
 20
-1268.9810376326388
 42
-0.0191751379920098
 10
901.1575977039297
 20
-1268.8086330266331
 10
901.15583438017006
 20
-1268.803539681958
 42
-0.0378178042228349
 10
901.10603966138569
 20
-1268.6145989058762
 10
901.10004436565589
 20
-1268.5820382876821
 42
-0.0184846046476622
 10
901.07932716636105
 20
-1268.4402854671348
 42
-0.0179866351324356
 10
901.06899416128738
 20
-1268.2973946540535
 10
901.06893771884165
 20
-1268.2958369674411
 42
-0.0085497186109164
 10
901.06750543773785
 20
-1268.2209638024312
 42
-0.0085497186109164
  0
ENDBLK
  5
4F
100
AcDbEntity
  8
template
390
0
100
AcDbBlockEnd
  0
BLOCK
  5
50
100
AcDbEntity
  8
notes
390
0
100
AcDbBlockBegin
  2
*D2
 70
               1
 10
0.0
 20
0.0
 30
0.0
  3
*D2
  1

  0
LINE
  5
51
100
AcDbEntity
  8
0
370
              -2
390
0
  6
Continuous
 62
               0
100
AcDbLine
 10
394.40527439770636
 20
416.10493409582921
 30
0.0
 11
448.0185648765451
 21
358.77381281387943
 31
0.0
  0
CIRCLE
  5
52
102
{ACAD_REACTORS
330
53
102
}
100
AcDbEntity
  8
0
370
              -2
390
0
  6
Continuous
 62
               0
100
AcDbCircle
 10
394.40527439770636
 20
416.10493409582921
 30
0.0
 40
4.99969482421875
  0
HATCH
  5
53
100
AcDbEntity
  8
0
370
              -2
390
0
  6
Continuous
 62
               0
100
AcDbHatch
 10
0.0
 20
0.0
 30
0.0
210
0.0
220
0.0
230
1.0
  2
SOLID
 70
               1
 71
               1
 91
        1
 92
        1
 93
        1
 72
               2
 10
394.40527439770636
 20
416.10493409582921
 40
4.99969482421875
 50
0.0
 51
360.0
 73
               0
 97
        1
330
52
 75
               0
 76
               1
 98
        1
 10
0.0
 20
0.0
  0
LINE
  5
54
100
AcDbEntity
  8
0
370
              -2
390
0
  6
Continuous
 62
               0
100
AcDbLine
 10
448.0185648765451
 20
358.77381281387943
 30
0.0
 11
587.39356487654504
 21
358.77381281387943
 31
0.0
  0
MTEXT
  5
55
100
AcDbEntity
  8
0
390
0
 62
               0
100
AcDbMText
 10
508.01856487654504
 20
392.65143000137937
 30
0.0
 40
24.432617187500004
 41
0.0
 71
               1
 72
               1
  1
φ290
  7
ＭＳ ゴシック
 73
               1
 44
0.7828267384257843
  0
POINT
  5
56
100
AcDbEntity
  8
Defpoints
370
               0
390
0
 62
               0
100
AcDbPoint
 10
196.32724199300006
 20
627.91875111134027
 30
0.0
  0
POINT
  5
57
100
AcDbEntity
  8
Defpoints
370
               0
390
0
 62
               0
100
AcDbPoint
 10
394.40527439770636
 20
416.10493409582921
 30
0.0
  0
ENDBLK
  5
58
100
AcDbEntity
  8
notes
390
0
100
AcDbBlockEnd
  0
BLOCK
  5
59
100
AcDbEntity
  8
notes
390
0
100
AcDbBlockBegin
  2
*D3
 70
               1
 10
0.0
 20
0.0
 30
0.0
  3
*D3
  1

  0
LINE
  5
5A
100
AcDbEntity
  8
0
370
              -2
390
0
  6
Continuous
 62
               0
100
AcDbLine
 10
-683.07480120919854
 20
547.01184260358468
 30
0.0
 11
-683.07480120919854
 21
784.51184260358468
 31
0.0
  0
LINE
  5
5B
100
AcDbEntity
  8
0
370
              -2
390
0
  6
Continuous
 62
               0
100
AcDbLine
 10
-358.06684650399706
 20
547.01184260358468
 30
0.0
 11
-358.06684650399706
 21
784.51184260358468
 31
0.0
  0
LINE
  5
5C
100
AcDbEntity
  8
0
370
              -2
390
0
  6
Continuous
 62
               0
100
AcDbLine
 10
-683.07480120919854
 20
784.51184260358468
 30
0.0
 11
-358.06684650399706
 21
784.51184260358468
 31
0.0
  0
CIRCLE
  5
5D
102
{ACAD_REACTORS
330
5E
102
}
100
AcDbEntity
  8
0
370
              -2
390
0
  6
Continuous
 62
               0
100
AcDbCircle
 10
-683.07480120919854
 20
784.51184260358468
 30
0.0
 40
4.99969482421875
  0
HATCH
  5
5E
100
AcDbEntity
  8
0
370
              -2
390
0
  6
Continuous
 62
               0
100
AcDbHatch
 10
0.0
 20
0.0
 30
0.0
210
0.0
220
0.0
230
1.0
  2
SOLID
 70
               1
 71
               1
 91
        1
 92
        1
 93
        1
 72
               2
 10
-683.07480120919854
 20
784.51184260358468
 40
4.99969482421875
 50
0.0
 51
360.0
 73
               0
 97
        1
330
5D
 75
               0
 76
               1
 98
        1
 10
0.0
 20
0.0
  0
CIRCLE
  5
5F
102
{ACAD_REACTORS
330
60
102
}
100
AcDbEntity
  8
0
370
              -2
390
0
  6
Continuous
 62
               0
100
AcDbCircle
 10
-358.06684650399706
 20
784.51184260358468
 30
0.0
 40
4.99969482421875
  0
HATCH
  5
60
100
AcDbEntity
  8
0
370
              -2
390
0
  6
Continuous
 62
               0
100
AcDbHatch
 10
0.0
 20
0.0
 30
0.0
210
0.0
220
0.0
230
1.0
  2
SOLID
 70
               1
 71
               1
 91
        1
 92
        1
 93
        1
 72
               2
 10
-358.06684650399706
 20
784.51184260358468
 40
4.99969482421875
 50
0.0
 51
360.0
 73
               0
 97
        1
330
5F
 75
               0
 76
               1
 98
        1
 10
0.0
 20
0.0
  0
MTEXT
  5
61
100
AcDbEntity
  8
0
390
0
 62
               0
100
AcDbMText
 10
-544.38332553877331
 20
818.38945979108473
 30
0.0
 40
24.432617187500004
 41
0.0
 71
               1
 72
               1
  1
325
  7
ＭＳ ゴシック
 73
               1
 44
0.7828267384257843
  0
POINT
  5
62
100
AcDbEntity
  8
Defpoints
370
               0
390
0
 62
               0
100
AcDbPoint
 10
-358.06684650399706
 20
522.01184260358468
 30
0.0
  0
POINT
  5
63
100
AcDbEntity
  8
Defpoints
370
               0
390
0
 62
               0
100
AcDbPoint
 10
-683.07480120919854
 20
522.01184260358468
 30
0.0
  0
POINT
  5
64
100
AcDbEntity
  8
Defpoints
370
               0
390
0
 62
               0
100
AcDbPoint
 10
-683.07480120919854
 20
784.51184260358468
 30
0.0
  0
ENDBLK
  5
65
100
AcDbEntity
  8
notes
390
0
100
AcDbBlockEnd
  0
BLOCK
  5
66
100
AcDbEntity
  8
notes
390
0
100
AcDbBlockBegin
  2
*D4
 70
               1
 10
0.0
 20
0.0
 30
0.0
  3
*D4
  1

  0
LINE
  5
67
100
AcDbEntity
  8
0
370
              -2
390
0
  6
Continuous
 62
               0
100
AcDbLine
 10
-380.57082385659709
 20
414.51184260358468
 30
0.0
 11
-380.57082385659709
 21
259.50786525088472
 31
0.0
  0
LINE
  5
68
100
AcDbEntity
  8
0
370
              -2
390
0
  6
Continuous
 62
               0
100
AcDbLine
 10
-660.57082385659851
 20
414.51184260358468
 30
0.0
 11
-660.57082385659851
 21
259.50786525088472
 31
0.0
  0
LINE
  5
69
100
AcDbEntity
  8
0
370
              -2
390
0
  6
Continuous
 62
               0
100
AcDbLine
 10
-380.57082385659709
 20
259.50786525088472
 30
0.0
 11
-660.57082385659851
 21
259.50786525088472
 31
0.0
  0
CIRCLE
  5
6A
102
{ACAD_REACTORS
330
6B
102
}
100
AcDbEntity
  8
0
370
              -2
390
0
  6
Continuous
 62
               0
100
AcDbCircle
 10
-380.57082385659709
 20
259.50786525088472
 30
0.0
 40
4.99969482421875
  0
HATCH
  5
6B
100
AcDbEntity
  8
0
370
              -2
390
0
  6
Continuous
 62
               0
100
AcDbHatch
 10
0.0
 20
0.0
 30
0.0
210
0.0
220
0.0
230
1.0
  2
SOLID
 70
               1
 71
               1
 91
        1
 92
        1
 93
        1
 72
               2
 10
-380.57082385659709
 20
259.50786525088472
 40
4.99969482421875
 50
0.0
 51
360.0
 73
               0
 97
        1
330
6A
 75
               0
 76
               1
 98
        1
 10
0.0
 20
0.0
  0
CIRCLE
  5
6C
102
{ACAD_REACTORS
330
6D
102
}
100
AcDbEntity
  8
0
370
              -2
390
0
  6
Continuous
 62
               0
100
AcDbCircle
 10
-660.57082385659851
 20
259.50786525088472
 30
0.0
 40
4.99969482421875
  0
HATCH
  5
6D
100
AcDbEntity
  8
0
370
              -2
390
0
  6
Continuous
 62
               0
100
AcDbHatch
 10
0.0
 20
0.0
 30
0.0
210
0.0
220
0.0
230
1.0
  2
SOLID
 70
               1
 71
               1
 91
        1
 92
        1
 93
        1
 72
               2
 10
-660.57082385659851
 20
259.50786525088472
 40
4.99969482421875
 50
0.0
 51
360.0
 73
               0
 97
        1
330
6C
 75
               0
 76
               1
 98
        1
 10
0.0
 20
0.0
  0
MTEXT
  5
6E
100
AcDbEntity
  8
0
390
0
 62
               0
100
AcDbMText
 10
-544.38332553877331
 20
293.38548243838466
 30
0.0
 40
24.432617187500004
 41
0.0
 71
               1
 72
               1
  1
280
  7
ＭＳ ゴシック
 73
               1
 44
0.7828267384257843
  0
POINT
  5
6F
100
AcDbEntity
  8
Defpoints
370
               0
390
0
 62
               0
100
AcDbPoint
 10
-660.57082385659851
 20
439.51184260358468
 30
0.0
  0
POINT
  5
70
100
AcDbEntity
  8
Defpoints
370
               0
390
0
 62
               0
100
AcDbPoint
 10
-380.57082385659709
 20
439.51184260358468
 30
0.0
  0
POINT
  5
71
100
AcDbEntity
  8
Defpoints
370
               0
390
0
 62
               0
100
AcDbPoint
 10
-380.57082385659709
 20
259.50786525088472
 30
0.0
  0
ENDBLK
  5
72
100
AcDbEntity
  8
notes
390
0
100
AcDbBlockEnd
  0
BLOCK
  5
73
100
AcDbEntity
  8
notes
390
0
100
AcDbBlockBegin
  2
*D5
 70
               1
 10
0.0
 20
0.0
 30
0.0
  3
*D5
  1

  0
LINE
  5
74
100
AcDbEntity
  8
0
370
              -2
390
0
  6
Continuous
 62
               0
100
AcDbLine
 10
-495.57082385659726
 20
-535.27038327578259
 30
0.0
 11
-258.00055227003003
 21
-535.27038327578259
 31
0.0
  0
LINE
  5
75
100
AcDbEntity
  8
0
370
              -2
390
0
  6
Continuous
 62
               0
100
AcDbLine
 10
-495.57082385659726
 20
-691.27038327578259
 30
0.0
 11
-258.00055227003003
 21
-691.27038327578259
 31
0.0
  0
LINE
  5
76
100
AcDbEntity
  8
0
370
              -2
390
0
  6
Continuous
 62
               0
100
AcDbLine
 10
-258.00055227003003
 20
-535.27038327578259
 30
0.0
 11
-258.00055227003003
 21
-691.27038327578259
 31
0.0
  0
CIRCLE
  5
77
102
{ACAD_REACTORS
330
78
102
}
100
AcDbEntity
  8
0
370
              -2
390
0
  6
Continuous
 62
               0
100
AcDbCircle
 10
-258.00055227003003
 20
-535.27038327578259
 30
0.0
 40
4.99969482421875
  0
HATCH
  5
78
100
AcDbEntity
  8
0
370
              -2
390
0
  6
Continuous
 62
               0
100
AcDbHatch
 10
0.0
 20
0.0
 30
0.0
210
0.0
220
0.0
230
1.0
  2
SOLID
 70
               1
 71
               1
 91
        1
 92
        1
 93
        1
 72
               2
 10
-258.00055227003003
 20
-535.27038327578259
 40
4.99969482421875
 50
0.0
 51
360.0
 73
               0
 97
        1
330
77
 75
               0
 76
               1
 98
        1
 10
0.0
 20
0.0
  0
CIRCLE
  5
79
102
{ACAD_REACTORS
330
7A
102
}
100
AcDbEntity
  8
0
370
              -2
390
0
  6
Continuous
 62
               0
100
AcDbCircle
 10
-258.00055227003003
 20
-691.27038327578259
 30
0.0
 40
4.99969482421875
  0
HATCH
  5
7A
100
AcDbEntity
  8
0
370
              -2
390
0
  6
Continuous
 62
               0
100
AcDbHatch
 10
0.0
 20
0.0
 30
0.0
210
0.0
220
0.0
230
1.0
  2
SOLID
 70
               1
 71
               1
 91
        1
 92
        1
 93
        1
 72
               2
 10
-258.00055227003003
 20
-691.27038327578259
 40
4.99969482421875
 50
0.0
 51
360.0
 73
               0
 97
        1
330
79
 75
               0
 76
               1
 98
        1
 10
0.0
 20
0.0
  0
MTEXT
  5
7B
100
AcDbEntity
  8
0
390
0
 62
               0
100
AcDbMText
 10
-291.87816945753002
 20
-630.84887385461832
 30
0.0
 40
24.432617187500004
 41
0.0
 71
               1
 72
               1
  1
155
  7
ＭＳ ゴシック
 11
0.0
 21
1.0
 31
0.0
 73
               1
 44
0.7828267384257843
  0
POINT
  5
7C
100
AcDbEntity
  8
Defpoints
370
               0
390
0
 62
               0
100
AcDbPoint
 10
-520.57082385659726
 20
-691.27038327578259
 30
0.0
  0
POINT
  5
7D
100
AcDbEntity
  8
Defpoints
370
               0
390
0
 62
               0
100
AcDbPoint
 10
-520.57082385659726
 20
-535.27038327578259
 30
0.0
  0
POINT
  5
7E
100
AcDbEntity
  8
Defpoints
370
               0
390
0
 62
               0
100
AcDbPoint
 10
-258.00055227003003
 20
-535.27038327578259
 30
0.0
  0
ENDBLK
  5
7F
100
AcDbEntity
  8
notes
390
0
100
AcDbBlockEnd
  0
BLOCK
  5
80
100
AcDbEntity
  8
notes
390
0
100
AcDbBlockBegin
  2
*D6
 70
               1
 10
0.0
 20
0.0
 30
0.0
  3
*D6
  1

  0
LINE
  5
81
100
AcDbEntity
  8
0
370
              -2
390
0
  6
Continuous
 62
               0
100
AcDbLine
 10
479.37076869660302
 20
-535.27038327578259
 30
0.0
 11
543.3642632749561
 21
-535.27038327578259
 31
0.0
  0
LINE
  5
82
100
AcDbEntity
  8
0
370
              -2
390
0
  6
Continuous
 62
               0
100
AcDbLine
 10
482.18664409220298
 20
-543.27038327578259
 30
0.0
 11
543.3642632749561
 21
-543.27038327578259
 31
0.0
  0
LINE
  5
83
100
AcDbEntity
  8
0
370
              -2
390
0
  6
Continuous
 62
               0
100
AcDbLine
 10
543.3642632749561
 20
-535.27038327578259
 30
0.0
 11
543.3642632749561
 21
-480.139320877827
 31
0.0
  0
LINE
  5
84
100
AcDbEntity
  8
0
370
              -2
390
0
  6
Continuous
 62
               0
100
AcDbLine
 10
543.3642632749561
 20
-535.27038327578259
 30
0.0
 11
543.3642632749561
 21
-543.27038327578259
 31
0.0
  0
CIRCLE
  5
85
102
{ACAD_REACTORS
330
86
102
}
100
AcDbEntity
  8
0
370
              -2
390
0
  6
Continuous
 62
               0
100
AcDbCircle
 10
543.3642632749561
 20
-535.27038327578259
 30
0.0
 40
4.99969482421875
  0
HATCH
  5
86
100
AcDbEntity
  8
0
370
              -2
390
0
  6
Continuous
 62
               0
100
AcDbHatch
 10
0.0
 20
0.0
 30
0.0
210
0.0
220
0.0
230
1.0
  2
SOLID
 70
               1
 71
               1
 91
        1
 92
        1
 93
        1
 72
               2
 10
543.3642632749561
 20
-535.27038327578259
 40
4.99969482421875
 50
0.0
 51
360.0
 73
               0
 97
        1
330
85
 75
               0
 76
               1
 98
        1
 10
0.0
 20
0.0
  0
CIRCLE
  5
87
102
{ACAD_REACTORS
330
88
102
}
100
AcDbEntity
  8
0
370
              -2
390
0
  6
Continuous
 62
               0
100
AcDbCircle
 10
543.3642632749561
 20
-543.27038327578259
 30
0.0
 40
4.99969482421875
  0
HATCH
  5
88
100
AcDbEntity
  8
0
370
              -2
390
0
  6
Continuous
 62
               0
100
AcDbHatch
 10
0.0
 20
0.0
 30
0.0
210
0.0
220
0.0
230
1.0
  2
SOLID
 70
               1
 71
               1
 91
        1
 92
        1
 93
        1
 72
               2
 10
543.3642632749561
 20
-543.27038327578259
 40
4.99969482421875
 50
0.0
 51
360.0
 73
               0
 97
        1
330
87
 75
               0
 76
               1
 98
        1
 10
0.0
 20
0.0
  0
MTEXT
  5
89
100
AcDbEntity
  8
0
390
0
 62
               0
100
AcDbMText
 10
509.48664608745611
 20
-496.014320877827
 30
0.0
 40
24.432617187500004
 41
0.0
 71
               1
 72
               1
  1
8
  7
ＭＳ ゴシック
 11
0.0
 21
1.0
 31
0.0
 73
               1
 44
0.7828267384257843
  0
POINT
  5
8A
100
AcDbEntity
  8
Defpoints
370
               0
390
0
 62
               0
100
AcDbPoint
 10
457.18664409220298
 20
-543.27038327578259
 30
0.0
  0
POINT
  5
8B
100
AcDbEntity
  8
Defpoints
370
               0
390
0
 62
               0
100
AcDbPoint
 10
454.37076869660302
 20
-535.27038327578259
 30
0.0
  0
POINT
  5
8C
100
AcDbEntity
  8
Defpoints
370
               0
390
0
 62
               0
100
AcDbPoint
 10
543.3642632749561
 20
-535.27038327578259
 30
0.0
  0
ENDBLK
  5
8D
100
AcDbEntity
  8
notes
390
0
100
AcDbBlockEnd
  0
BLOCK
  5
8E
100
AcDbEntity
  8
notes
390
0
100
AcDbBlockBegin
  2
*D7
 70
               1
 10
0.0
 20
0.0
 30
0.0
  3
*D7
  1

  0
LINE
  5
8F
100
AcDbEntity
  8
0
370
              -2
390
0
  6
Continuous
 62
               0
100
AcDbLine
 10
272.23926327495661
 20
-535.27038327578259
 30
0.0
 11
296.91875519926788
 21
-535.27038327578259
 31
0.0
  0
LINE
  5
90
100
AcDbEntity
  8
0
370
              -2
390
0
  6
Continuous
 62
               0
100
AcDbLine
 10
272.23926327495661
 20
-640.27038327578259
 30
0.0
 11
296.91875519926788
 21
-640.27038327578259
 31
0.0
  0
LINE
  5
91
100
AcDbEntity
  8
0
370
              -2
390
0
  6
Continuous
 62
               0
100
AcDbLine
 10
296.91875519926788
 20
-535.27038327578259
 30
0.0
 11
296.91875519926788
 21
-382.39538327578259
 31
0.0
  0
LINE
  5
92
100
AcDbEntity
  8
0
370
              -2
390
0
  6
Continuous
 62
               0
100
AcDbLine
 10
296.91875519926788
 20
-535.27038327578259
 30
0.0
 11
296.91875519926788
 21
-640.27038327578259
 31
0.0
  0
CIRCLE
  5
93
102
{ACAD_REACTORS
330
94
102
}
100
AcDbEntity
  8
0
370
              -2
390
0
  6
Continuous
 62
               0
100
AcDbCircle
 10
296.91875519926788
 20
-535.27038327578259
 30
0.0
 40
4.99969482421875
  0
HATCH
  5
94
100
AcDbEntity
  8
0
370
              -2
390
0
  6
Continuous
 62
               0
100
AcDbHatch
 10
0.0
 20
0.0
 30
0.0
210
0.0
220
0.0
230
1.0
  2
SOLID
 70
               1
 71
               1
 91
        1
 92
        1
 93
        1
 72
               2
 10
296.91875519926788
 20
-535.27038327578259
 40
4.99969482421875
 50
0.0
 51
360.0
 73
               0
 97
        1
330
93
 75
               0
 76
               1
 98
        1
 10
0.0
 20
0.0
  0
CIRCLE
  5
95
102
{ACAD_REACTORS
330
96
102
}
100
AcDbEntity
  8
0
370
              -2
390
0
  6
Continuous
 62
               0
100
AcDbCircle
 10
296.91875519926788
 20
-640.27038327578259
 30
0.0
 40
4.99969482421875
  0
HATCH
  5
96
100
AcDbEntity
  8
0
370
              -2
390
0
  6
Continuous
 62
               0
100
AcDbHatch
 10
0.0
 20
0.0
 30
0.0
210
0.0
220
0.0
230
1.0
  2
SOLID
 70
               1
 71
               1
 91
        1
 92
        1
 93
        1
 72
               2
 10
296.91875519926788
 20
-640.27038327578259
 40
4.99969482421875
 50
0.0
 51
360.0
 73
               0
 97
        1
330
95
 75
               0
 76
               1
 98
        1
 10
0.0
 20
0.0
  0
MTEXT
  5
97
100
AcDbEntity
  8
0
390
0
 62
               0
100
AcDbMText
 10
263.04113801176788
 20
-525.27038327578259
 30
0.0
 40
24.432617187500004
 41
0.0
 71
               1
 72
               1
  1
105(深さ)
  7
ＭＳ ゴシック
 11
0.0
 21
1.0
 31
0.0
 73
               1
 44
0.7828267384257843
  0
POINT
  5
98
100
AcDbEntity
  8
Defpoints
370
               0
390
0
 62
               0
100
AcDbPoint
 10
297.23926327495661
 20
-640.27038327578259
 30
0.0
  0
POINT
  5
99
100
AcDbEntity
  8
Defpoints
370
               0
390
0
 62
               0
100
AcDbPoint
 10
297.23926327495661
 20
-535.27038327578259
 30
0.0
  0
POINT
  5
9A
100
AcDbEntity
  8
Defpoints
370
               0
390
0
 62
               0
100
AcDbPoint
 10
296.91875519926788
 20
-535.27038327578259
 30
0.0
  0
ENDBLK
  5
9B
100
AcDbEntity
  8
notes
390
0
100
AcDbBlockEnd
  0
BLOCK
  5
9C
100
AcDbEntity
  8
notes
390
0
100
AcDbBlockBegin
  2
グループ-1
 70
               0
 10
0.0
 20
0.0
 30
0.0
  3
グループ-1
  1

  0
POLYLINE
  5
9D
100
AcDbEntity
  8
0
370
              15
390
0
  6
Continuous
 62
               7
100
AcDb2dPolyline
 66
               1
 10
0.0
 20
0.0
 30
0.0
 70
               1
 75
               5
  0
VERTEX
  5
9E
100
AcDbEntity
  8
0
370
              15
390
0
  6
Continuous
 62
               7
100
AcDbVertex
100
AcDb2dVertex
 10
-555.0
 20
-545.30614161294034
 30
0.0
  0
VERTEX
  5
9F
100
AcDbEntity
  8
0
370
              15
390
0
  6
Continuous
 62
               7
100
AcDbVertex
100
AcDb2dVertex
 10
-485.01361902403403
 20
-545.30614161294034
 30
0.0
  0
VERTEX
  5
A0
100
AcDbEntity
  8
0
370
              15
390
0
  6
Continuous
 62
               7
100
AcDbVertex
100
AcDb2dVertex
 10
-485.01361902403403
 20
-598.40198704936745
 30
0.0
  0
VERTEX
  5
A1
100
AcDbEntity
  8
0
370
              15
390
0
  6
Continuous
 62
               7
100
AcDbVertex
100
AcDb2dVertex
 10
-555.0
 20
-598.40198704936745
 30
0.0
  0
SEQEND
  5
A2
100
AcDbEntity
  8
0
370
              15
390
0
  6
Continuous
 62
               7
  0
LINE
  5
A3
100
AcDbEntity
  8
0
370
              15
390
0
  6
Continuous
 62
               7
100
AcDbLine
 10
-485.01361902403403
 20
-559.90953686721684
 30
0.0
 11
-555.0
 21
-559.90953686721684
 31
0.0
  0
ENDBLK
  5
A4
100
AcDbEntity
  8
notes
390
0
100
AcDbBlockEnd
  0
BLOCK
  5
A5
100
AcDbEntity
  8
notes
390
0
100
AcDbBlockBegin
  2
グループ-2
 70
               0
 10
0.0
 20
0.0
 30
0.0
  3
グループ-2
  1

  0
POLYLINE
  5
A6
100
AcDbEntity
  8
0
370
              15
390
0
  6
Continuous
 62
               7
100
AcDb2dPolyline
 66
               1
 10
0.0
 20
0.0
 30
0.0
 70
               1
 75
               5
  0
VERTEX
  5
A7
100
AcDbEntity
  8
0
370
              15
390
0
  6
Continuous
 62
               7
100
AcDbVertex
100
AcDb2dVertex
 10
261.00680951201707
 20
-545.30614161294034
 30
0.0
  0
VERTEX
  5
A8
100
AcDbEntity
  8
0
370
              15
390
0
  6
Continuous
 62
               7
100
AcDbVertex
100
AcDb2dVertex
 10
330.99319048798304
 20
-545.30614161294034
 30
0.0
  0
VERTEX
  5
A9
100
AcDbEntity
  8
0
370
              15
390
0
  6
Continuous
 62
               7
100
AcDbVertex
100
AcDb2dVertex
 10
330.99319048798304
 20
-598.40198704936745
 30
0.0
  0
VERTEX
  5
AA
100
AcDbEntity
  8
0
370
              15
390
0
  6
Continuous
 62
               7
100
AcDbVertex
100
AcDb2dVertex
 10
261.00680951201707
 20
-598.40198704936745
 30
0.0
  0
SEQEND
  5
AB
100
AcDbEntity
  8
0
370
              15
390
0
  6
Continuous
 62
               7
  0
LINE
  5
AC
100
AcDbEntity
  8
0
370
              15
390
0
  6
Continuous
 62
               7
100
AcDbLine
 10
330.99319048798304
 20
-559.90953686721684
 30
0.0
 11
261.00680951201707
 21
-559.90953686721684
 31
0.0
  0
ENDBLK
  5
AD
100
AcDbEntity
  8
notes
390
0
100
AcDbBlockEnd
  0
ENDSEC
  0
SECTION
  2
ENTITIES
  0
MTEXT
  5
AE
100
AcDbEntity
  8
template
390
0
 62
               7
100
AcDbMText
 10
-967.99999999975921
 20
-1147.4176292337004
 30
0.0
 40
16.288411458333332
 41
0.0
 71
               1
 72
               1
  1
品名
  7
ＭＳ ゴシック
 73
               1
 44
0.7828267384257843
  0
MTEXT
  5
AF
100
AcDbEntity
  8
template
390
0
 62
               7
100
AcDbMText
 10
-967.99999999975921
 20
-1232.4176292337004
 30
0.0
 40
16.288411458333332
 41
0.0
 71
               1
 72
               1
  1
仕様
  7
ＭＳ ゴシック
 73
               1
 44
0.7828267384257843
  0
MTEXT
  5
B0
100
AcDbEntity
  8
template
390
0
 62
               7
100
AcDbMText
 10
-914.99999999975921
 20
-1176.0000901712006
 30
0.0
 40
24.432617187500004
 41
0.0
 71
               1
 72
               1
  1
手洗器 -ALAPE-
  7
ＭＳ ゴシック
 73
               1
 44
0.7828267384257843
  0
LINE
  5
B1
100
AcDbEntity
  8
template
370
               5
390
0
  6
Continuous
 62
               7
100
AcDbLine
 10
974.99999999975876
 20
-1224.0027073587005
 30
0.0
 11
-975.00000000024124
 21
-1224.0027073587005
 31
0.0
  0
LWPOLYLINE
  5
B2
100
AcDbEntity
  8
template
370
               5
390
0
  6
Continuous
 62
               7
100
AcDbPolyline
 90
        5
 70
             128
 10
975.00000000024124
 20
1405.9972926412995
 10
-974.99999999975921
 20
1405.9972926412995
 10
-974.99999999975921
 20
-1394.0027073587005
 10
975.00000000024124
 20
-1394.0027073587005
 10
975.00000000024124
 20
1405.9972926412995
  0
LINE
  5
B3
100
AcDbEntity
  8
template
370
               5
390
0
  6
Continuous
 62
               7
100
AcDbLine
 10
974.99999999975876
 20
-1139.0027073587005
 30
0.0
 11
-975.00000000024124
 21
-1139.0027073587005
 31
0.0
  0
LINE
  5
B4
100
AcDbEntity
  8
template
370
               5
390
0
  6
Continuous
 62
               7
100
AcDbLine
 10
975.00000000024124
 20
-1309.0027073587005
 30
0.0
 11
222.00000000024124
 21
-1309.0027073587005
 31
0.0
  0
MTEXT
  5
B5
100
AcDbEntity
  8
template
390
0
 62
               7
100
AcDbMText
 10
-974.99999999955594
 20
-1405.8565294155574
 30
0.0
 40
21.717881944444446
 41
0.0
 71
               1
 72
               1
  1
120413SH
  7
ＭＳ ゴシック
 73
               1
 44
0.7828267384257843
  0
MTEXT
  5
B6
100
AcDbEntity
  8
template
390
0
 62
               7
100
AcDbMText
 10
251.87140625250089
 20
-1338.9131018320081
 30
0.0
 40
24.432617187500004
 41
0.0
 71
               1
 72
               1
  1
大洋金物株式会社 ティーフォルム事業部
  7
ＭＳ ゴシック
 73
               1
 44
0.7828267384257843
  0
INSERT
  5
B7
100
AcDbEntity
  8
template
390
0
 62
               7
100
AcDbBlockReference
  2
グループ
 10
0.0
 20
-92.868396226415115
 30
0.0
  0
MTEXT
  5
B8
100
AcDbEntity
  8
template
390
0
 62
               7
100
AcDbMText
 10
784.00000000049999
 20
-1261.0000901712006
 30
0.0
 40
24.432617187500004
 41
0.0
 71
               1
 72
               1
  1
1:10
  7
ＭＳ ゴシック
 73
               1
 44
0.7828267384257843
  0
MTEXT
  5
B9
100
AcDbEntity
  8
template
390
0
 62
               7
100
AcDbMText
 10
731.00000000049999
 20
-1232.4176292337004
 30
0.0
 40
16.288411458333332
 41
0.0
 71
               1
 72
               1
  1
縮尺
  7
ＭＳ ゴシック
 73
               1
 44
0.7828267384257843
  0
LINE
  5
BA
100
AcDbEntity
  8
template
370
               5
390
0
  6
Continuous
 62
               7
100
AcDbLine
 10
724.00000000049999
 20
-1309.0027073587005
 30
0.0
 11
724.00000000049999
 21
-1224.0027073587005
 31
0.0
  0
MTEXT
  5
BB
100
AcDbEntity
  8
template
390
0
 62
               7
100
AcDbMText
 10
480.00000000049999
 20
-1232.4176292337004
 30
0.0
 40
16.288411458333332
 41
0.0
 71
               1
 72
               1
  1
容量
  7
ＭＳ ゴシック
 73
               1
 44
0.7828267384257843
  0
LINE
  5
BC
100
AcDbEntity
  8
template
370
               5
390
0
  6
Continuous
 62
               7
100
AcDbLine
 10
473.00000000049999
 20
-1309.0027073587005
 30
0.0
 11
473.00000000049999
 21
-1224.0027073587005
 31
0.0
  0
MTEXT
  5
BD
100
AcDbEntity
  8
template
390
0
 62
               7
100
AcDbMText
 10
229.00000000049999
 20
-1147.4176292337004
 30
0.0
 40
16.288411458333332
 41
0.0
 71
               1
 72
               1
  1
品番
  7
ＭＳ ゴシック
 73
               1
 44
0.7828267384257843
  0
MTEXT
  5
BE
100
AcDbEntity
  8
template
390
0
 62
               7
100
AcDbMText
 10
229.00000000049999
 20
-1232.4176292337004
 30
0.0
 40
16.288411458333332
 41
0.0
 71
               1
 72
               1
  1
重量
  7
ＭＳ ゴシック
 73
               1
 44
0.7828267384257843
  0
MTEXT
  5
BF
100
AcDbEntity
  8
template
390
0
 62
               7
100
AcDbMText
 10
282.00000000049999
 20
-1176.0000901712006
 30
0.0
 40
24.432617187500004
 41
0.0
 71
               1
 72
               1
  1
FAN70-0306
  7
ＭＳ ゴシック
 73
               1
 44
0.7828267384257843
  0
MTEXT
  5
C0
100
AcDbEntity
  8
template
390
0
 62
               7
100
AcDbMText
 10
282.00000000049999
 20
-1261.0000901712006
 30
0.0
 40
24.432617187500004
 41
0.0
 71
               1
 72
               1
  1
1.3kg
  7
ＭＳ ゴシック
 73
               1
 44
0.7828267384257843
  0
LINE
  5
C1
100
AcDbEntity
  8
template
370
               5
390
0
  6
Continuous
 62
               7
100
AcDbLine
 10
222.00000000049999
 20
-1394.0027073587005
 30
0.0
 11
222.00000000049999
 21
-1139.0027073587005
 31
0.0
  0
MTEXT
  5
C2
100
AcDbEntity
  8
template
390
0
 62
               7
100
AcDbMText
 10
-914.99999999975921
 20
-1261.0000901712001
 30
0.0
 40
24.432617187500004
 41
0.0
 71
               1
 72
               1
  1
オーバーカウンター,アンダーカウンタ ー/オーバーフローなし/型 紙付属/\P鋼板ホーロー/ホワイト
  7
ＭＳ ゴシック
 73
               1
 44
1.1307497332816883
  0
MTEXT
  5
C3
100
AcDbEntity
  8
notes
390
0
 62
               7
100
AcDbMText
 10
153.55428023719219
 20
827.12761718750028
 30
0.0
 40
24.432617187500004
 41
0.0
 71
               1
 72
               1
  1
カウンター切込寸法
  7
ＭＳ ゴシック
 73
               1
 44
0.7828267384257843
  0
DIMENSION
  5
C4
100
AcDbEntity
  8
notes
370
               5
390
0
  6
Continuous
 62
               7
100
AcDbDimension
  2
*D2
 10
196.32724199300006
 20
627.91875111134027
 30
0.0
 11
508.01856487654516
 21
358.77381281387943
 31
0.0
 70
               3
 71
               5
 72
               1
 41
1.0
 42
0.0
  3
tfrom線あり
100
AcDbDiametricDimension
 15
394.40527439770636
 25
416.10493409582921
 35
0.0
 40
78.493581797583815
1001
ACAD
1000
DSTYLE
1002
{
1070
             289
1070
               0
1070
             342
1005
3F
1070
             340
1005
2C
1070
              75
1070
               1
1070
              76
1070
               1
1070
               3
1000

1070
             174
1070
               0
1070
             147
1040
5.0
1002
}
  0
DIMENSION
  5
C5
100
AcDbEntity
  8
notes
370
               5
390
0
  6
Continuous
 62
               7
100
AcDbDimension
  2
*D3
 10
-683.07480120919854
 20
784.51184260358468
 30
0.0
 11
-520.57082385659783
 21
789.51184260358468
 31
0.0
 70
             128
 71
               5
 72
               1
 41
1.0
 42
0.0
  3
tfrom線あり
100
AcDbAlignedDimension
 13
-358.06684650399706
 23
522.01184260358468
 33
0.0
 14
-683.07480120919854
 24
522.01184260358468
 34
0.0
100
AcDbRotatedDimension
1001
ACAD
1000
DSTYLE
1002
{
1070
             271
1070
               0
1070
             279
1070
               2
1070
             340
1005
2C
1070
             147
1040
5.0
1002
}
  0
DIMENSION
  5
C6
100
AcDbEntity
  8
notes
370
               5
390
0
  6
Continuous
 62
               7
100
AcDbDimension
  2
*D4
 10
-380.57082385659709
 20
259.50786525088472
 30
0.0
 11
-520.57082385659783
 21
264.50786525088472
 31
0.0
 70
             128
 71
               5
 72
               1
 41
1.0
 42
0.0
  3
tfrom線あり
100
AcDbAlignedDimension
 13
-660.57082385659851
 23
439.51184260358468
 33
0.0
 14
-380.57082385659709
 24
439.51184260358468
 34
0.0
100
AcDbRotatedDimension
1001
ACAD
1000
DSTYLE
1002
{
1070
             279
1070
               2
1070
             340
1005
2C
1070
             147
1040
5.0
1002
}
  0
DIMENSION
  5
C7
100
AcDbEntity
  8
notes
370
               5
390
0
  6
Continuous
 62
               7
100
AcDbDimension
  2
*D5
 10
-258.00055227003003
 20
-535.27038327578259
 30
0.0
 11
-253.00055227003003
 21
-607.03637217244284
 31
0.0
 70
             128
 71
               5
 72
               1
 41
1.0
 42
0.0
  1
155
  3
tfrom線あり
100
AcDbAlignedDimension
 13
-520.57082385659726
 23
-691.27038327578259
 33
0.0
 14
-520.57082385659726
 24
-535.27038327578259
 34
0.0
 50
90.0
100
AcDbRotatedDimension
1001
ACAD
1000
DSTYLE
1002
{
1070
             271
1070
               2
1070
             279
1070
               2
1070
             340
1005
2C
1070
             147
1040
5.0
1002
}
  0
DIMENSION
  5
C8
100
AcDbEntity
  8
notes
370
               5
390
0
  6
Continuous
 62
               7
100
AcDbDimension
  2
*D6
 10
543.3642632749561
 20
-535.27038327578259
 30
0.0
 11
548.3642632749561
 21
-496.014320877827
 31
0.0
 70
             128
 71
               5
 72
               1
 41
1.0
 42
0.0
  3
tfrom線あり
100
AcDbAlignedDimension
 13
457.18664409220298
 23
-543.27038327578259
 33
0.0
 14
454.37076869660302
 24
-535.27038327578259
 34
0.0
 50
90.0
100
AcDbRotatedDimension
1001
ACAD
1000
DSTYLE
1002
{
1070
             279
1070
               2
1070
             340
1005
2C
1070
             174
1070
               0
1070
             147
1040
5.0
1002
}
  0
DIMENSION
  5
C9
100
AcDbEntity
  8
notes
370
               5
390
0
  6
Continuous
 62
               7
100
AcDbDimension
  2
*D7
 10
296.91875519926788
 20
-535.27038327578259
 30
0.0
 11
291.91875519926788
 21
-525.27038327578259
 31
0.0
 70
             128
 71
               5
 72
               1
 41
1.0
 42
0.0
  3
tfrom線あり
100
AcDbAlignedDimension
 13
297.23926327495661
 23
-640.27038327578259
 33
0.0
 14
297.23926327495661
 24
-535.27038327578259
 34
0.0
 50
90.0
100
AcDbRotatedDimension
1001
ACAD
1000
DSTYLE
1002
{
1070
             279
1070
               2
1070
             340
1005
2C
1070
               3
1000
<>(深さ)
1070
             174
1070
               0
1070
             147
1040
5.0
1002
}
  0
MTEXT
  5
CA
100
AcDbEntity
  8
notes
390
0
 62
               7
100
AcDbMText
 10
420.01856487654499
 20
349.12761718750005
 30
0.0
 40
24.432617187500004
 41
0.0
 71
               1
 72
               1
  1
オーバーカウンター置き
  7
ＭＳ ゴシック
 73
               1
 44
0.7828267384257843
  0
MTEXT
  5
CB
100
AcDbEntity
  8
notes
390
0
 62
               7
100
AcDbMText
 10
-18.356435123455427
 20
169.75261718750002
 30
0.0
 40
24.432617187500004
 41
0.0
 71
               1
 72
               1
  1
※カウンターの切込は、商品に付属する型紙を\P　ご参照の上、加工を行ってください。
  7
ＭＳ ゴシック
 73
               1
 44
1.1742401076386764
  0
INSERT
  5
CC
100
AcDbEntity
  8
notes
390
0
 62
               7
100
AcDbBlockReference
  2
グループ-1
 10
0.0
 20
0.0
 30
-92.868396226415115
 50
90.0
210
0.0
220
1.0
230
0.0
  0
INSERT
  5
CD
100
AcDbEntity
  8
notes
390
0
 62
               7
100
AcDbBlockReference
  2
グループ-2
 10
0.0
 20
0.0
 30
-92.868396226415115
 50
90.0
210
0.0
220
1.0
230
0.0
  0
ARC
  5
CE
100
AcDbEntity
  8
FAN70-0306
370
              15
390
0
  6
Continuous
 62
               7
100
AcDbCircle
 10
-682.39120967179838
 20
-542.52038327578259
 30
0.0
 40
0.7500000000000097
100
AcDbArc
 50
178.9999999995031
 51
270.0
  0
ARC
  5
CF
100
AcDbEntity
  8
FAN70-0306
370
              15
390
0
  6
Continuous
 62
               7
100
AcDbCircle
 10
-358.7504380413971
 20
-542.52038327578259
 30
0.0
 40
0.75
100
AcDbArc
 50
270.0
 51
1.000000000201567
  0
LINE
  5
D0
100
AcDbEntity
  8
FAN70-0306
370
              15
390
0
  6
Continuous
 62
               7
100
AcDbLine
 10
-358.00055227009705
 20
-542.50729397098257
 30
0.0
 11
-358.06684650399706
 21
-538.70929985328257
 31
0.0
  0
LINE
  5
D1
100
AcDbEntity
  8
FAN70-0306
370
              15
390
0
  6
Continuous
 62
               7
100
AcDbLine
 10
-683.07480120919854
 20
-538.70929985328257
 30
0.0
 11
-683.14109544309849
 21
-542.50729397098257
 31
0.0
  0
ARC
  5
D2
100
AcDbEntity
  8
FAN70-0306
370
              15
390
0
  6
Continuous
 62
               7
100
AcDbCircle
 10
-361.56631343699712
 20
-538.77038327578259
 30
0.0
 40
3.4999999999999889
100
AcDbArc
 50
0.9999999999999172
 51
90.0
  0
ARC
  5
D3
100
AcDbEntity
  8
FAN70-0306
370
              15
390
0
  6
Continuous
 62
               7
100
AcDbCircle
 10
-679.57533427619842
 20
-538.77038327578259
 30
0.0
 40
3.5
100
AcDbArc
 50
90.0
 51
179.00000000000011
  0
ARC
  5
D4
100
AcDbEntity
  8
FAN70-0306
370
              15
390
0
  6
Continuous
 62
               7
100
AcDbCircle
 10
-520.57082385659726
 20
-497.13359082298257
 30
0.0
 40
144.13679245280008
100
AcDbArc
 50
287.14872682470008
 51
341.33161267639997
  0
ARC
  5
D5
100
AcDbEntity
  8
FAN70-0306
370
              15
390
0
  6
Continuous
 62
               7
100
AcDbCircle
 10
-520.57082385659726
 20
-497.13359082298257
 30
0.0
 40
144.13679245280113
100
AcDbArc
 50
198.66838732359986
 51
252.85127317529978
  0
ARC
  5
D6
100
AcDbEntity
  8
FAN70-0306
370
              15
390
0
  6
Continuous
 62
               7
100
AcDbCircle
 10
-548.32734580829754
 20
-587.08530666238266
 30
0.0
 40
50.000000000000071
100
AcDbArc
 50
252.85127317529964
 51
256.95113856789982
  0
ARC
  5
D7
100
AcDbEntity
  8
FAN70-0306
370
              15
390
0
  6
Continuous
 62
               7
100
AcDbCircle
 10
-492.81430190489709
 20
-587.08530666238266
 30
0.0
 40
49.999999999999986
100
AcDbArc
 50
283.04886143209995
 51
287.14872682469996
  0
ARC
  5
D8
100
AcDbEntity
  8
FAN70-0306
370
              15
390
0
  6
Continuous
 62
               7
100
AcDbCircle
 10
-479.51348968769707
 20
-644.47412521058266
 30
0.0
 40
8.9100000000000037
100
AcDbArc
 50
103.0488614321001
 51
127.30000000000022
  0
ARC
  5
D9
100
AcDbEntity
  8
FAN70-0306
370
              15
390
0
  6
Continuous
 62
               7
100
AcDbCircle
 10
-561.62815802549778
 20
-644.47412521058266
 30
0.0
 40
8.9100000000000037
100
AcDbArc
 50
52.699999999999505
 51
76.951138567899577
  0
LINE
  5
DA
100
AcDbEntity
  8
FAN70-0306
370
              15
390
0
  6
Continuous
 62
               7
100
AcDbLine
 10
-556.22880137909772
 20
-637.38645649618263
 30
0.0
 11
-548.43316126669754
 21
-643.32514281878264
 31
0.0
  0
LINE
  5
DB
100
AcDbEntity
  8
FAN70-0306
370
              15
390
0
  6
Continuous
 62
               7
100
AcDbLine
 10
-492.70848644649709
 20
-643.32514281878264
 30
0.0
 11
-484.91284633409708
 21
-637.38645649618263
 31
0.0
  0
ARC
  5
DC
100
AcDbEntity
  8
FAN70-0306
370
              15
390
0
  6
Continuous
 62
               7
100
AcDbCircle
 10
-496.57082385659709
 20
-638.73359082298259
 30
0.0
 40
6.0
100
AcDbArc
 50
270.0
 51
310.06999042470034
  0
ARC
  5
DD
100
AcDbEntity
  8
FAN70-0306
370
              15
390
0
  6
Continuous
 62
               7
100
AcDbCircle
 10
-544.57082385659749
 20
-638.73359082298259
 30
0.0
 40
6.0000000000000604
100
AcDbArc
 50
229.93000957529887
 51
270.0
  0
LINE
  5
DE
100
AcDbEntity
  8
FAN70-0306
370
              15
390
0
  6
Continuous
 62
               7
100
AcDbLine
 10
-520.57082385659726
 20
-543.27038327578259
 30
0.0
 11
-682.39120967179838
 21
-543.27038327578259
 31
0.0
  0
LINE
  5
DF
100
AcDbEntity
  8
FAN70-0306
370
              15
390
0
  6
Continuous
 62
               7
100
AcDbLine
 10
-358.7504380413971
 20
-543.27038327578259
 30
0.0
 11
-520.57082385659726
 21
-543.27038327578259
 31
0.0
  0
LINE
  5
E0
100
AcDbEntity
  8
FAN70-0306
370
              15
390
0
  6
Continuous
 62
               7
100
AcDbLine
 10
-679.57533427619842
 20
-535.27038327578259
 30
0.0
 11
-361.56631343699712
 21
-535.27038327578259
 31
0.0
  0
LINE
  5
E1
100
AcDbEntity
  8
FAN70-0306
370
              15
390
0
  6
Continuous
 62
               7
100
AcDbLine
 10
-492.70848644649709
 20
-643.32514281878264
 30
0.0
 11
-548.43316126669754
 21
-643.32514281878264
 31
0.0
  0
LINE
  5
E2
100
AcDbEntity
  8
FAN70-0306
370
              15
390
0
  6
Continuous
 62
               7
100
AcDbLine
 10
-496.57082385659709
 20
-644.73359082298259
 30
0.0
 11
-544.57082385659749
 21
-644.73359082298259
 31
0.0
  0
CIRCLE
  5
E3
100
AcDbEntity
  8
FAN70-0306
370
              15
390
0
  6
Continuous
 62
               7
100
AcDbCircle
 10
-520.57082385659726
 20
522.01184260358468
 30
0.0
 40
162.50000000000017
  0
CIRCLE
  5
E4
100
AcDbEntity
  8
FAN70-0306
370
              15
390
0
  6
Continuous
 62
               7
100
AcDbCircle
 10
-520.57082385659726
 20
522.01184260358468
 30
0.0
 40
140.00000000000017
  0
CIRCLE
  5
E5
100
AcDbEntity
  8
FAN70-0306
370
              15
390
0
  6
Continuous
 62
               7
100
AcDbCircle
 10
-520.57082385659726
 20
522.01184260358468
 30
0.0
 40
34.748994922100167
  0
CIRCLE
  5
E6
100
AcDbEntity
  8
FAN70-0306
370
              15
390
0
  6
Continuous
 62
               7
100
AcDbCircle
 10
-520.57082385659726
 20
522.01184260358468
 30
0.0
 40
24.000000000000171
  0
ARC
  5
E7
100
AcDbEntity
  8
FAN70-0306
370
              15
390
0
  6
Continuous
 62
               7
100
AcDbCircle
 10
133.54587246180262
 20
-542.52038327578259
 30
0.0
 40
0.7500000000000097
100
AcDbArc
 50
178.9999999995031
 51
270.0
  0
ARC
  5
E8
100
AcDbEntity
  8
FAN70-0306
370
              15
390
0
  6
Continuous
 62
               7
100
AcDbCircle
 10
457.18664409220298
 20
-542.52038327578259
 30
0.0
 40
0.75
100
AcDbArc
 50
270.0
 51
1.0000000010008989
  0
LINE
  5
E9
100
AcDbEntity
  8
FAN70-0306
370
              15
390
0
  6
Continuous
 62
               7
100
AcDbLine
 10
457.93652986350281
 20
-542.50729397098257
 30
0.0
 11
457.87023562960286
 21
-538.70929985328257
 31
0.0
  0
LINE
  5
EA
100
AcDbEntity
  8
FAN70-0306
370
              15
390
0
  6
Continuous
 62
               7
100
AcDbLine
 10
132.8622809244028
 20
-538.70929985328257
 30
0.0
 11
132.79598669050273
 21
-542.50729397098257
 31
0.0
  0
ARC
  5
EB
100
AcDbEntity
  8
FAN70-0306
370
              15
390
0
  6
Continuous
 62
               7
100
AcDbCircle
 10
454.37076869660302
 20
-538.77038327578259
 30
0.0
 40
3.499999999999869
100
AcDbArc
 50
1.000000000100465
 51
90.0
  0
ARC
  5
EC
100
AcDbEntity
  8
FAN70-0306
370
              15
390
0
  6
Continuous
 62
               7
100
AcDbCircle
 10
136.36174785740269
 20
-538.77038327578259
 30
0.0
 40
3.5
100
AcDbArc
 50
90.0
 51
179.00000000000011
  0
ARC
  5
ED
100
AcDbEntity
  8
FAN70-0306
370
              15
390
0
  6
Continuous
 62
               7
100
AcDbCircle
 10
295.3662582770034
 20
-497.13359082298257
 30
0.0
 40
144.13679245280005
100
AcDbArc
 50
287.14872682470002
 51
341.33161267639991
  0
ARC
  5
EE
100
AcDbEntity
  8
FAN70-0306
370
              15
390
0
  6
Continuous
 62
               7
100
AcDbCircle
 10
295.3662582770034
 20
-497.13359082298257
 30
0.0
 40
144.13679245280071
100
AcDbArc
 50
198.66838732359992
 51
252.85127317529995
  0
ARC
  5
EF
100
AcDbEntity
  8
FAN70-0306
370
              15
390
0
  6
Continuous
 62
               7
100
AcDbCircle
 10
267.60973632530346
 20
-587.08530666238266
 30
0.0
 40
49.999999999999979
100
AcDbArc
 50
252.85127317529995
 51
256.9511385679001
  0
ARC
  5
F0
100
AcDbEntity
  8
FAN70-0306
370
              15
390
0
  6
Continuous
 62
               7
100
AcDbCircle
 10
323.12278022870333
 20
-587.08530666238266
 30
0.0
 40
50.0
100
AcDbArc
 50
283.04886143210007
 51
287.14872682470002
  0
ARC
  5
F1
100
AcDbEntity
  8
FAN70-0306
370
              15
390
0
  6
Continuous
 62
               7
100
AcDbCircle
 10
336.42359244590335
 20
-644.47412521058266
 30
0.0
 40
8.9099999999999895
100
AcDbArc
 50
103.04886143209973
 51
127.29999999999994
  0
ARC
  5
F2
100
AcDbEntity
  8
FAN70-0306
370
              15
390
0
  6
Continuous
 62
               7
100
AcDbCircle
 10
254.30892410810341
 20
-644.47412521058266
 30
0.0
 40
8.9099999999999522
100
AcDbArc
 50
52.699999999999932
 51
76.951138567900102
  0
LINE
  5
F3
100
AcDbEntity
  8
FAN70-0306
370
              15
390
0
  6
Continuous
 62
               7
100
AcDbLine
 10
259.70828075450339
 20
-637.38645649618263
 30
0.0
 11
267.50392086690346
 21
-643.32514281878264
 31
0.0
  0
LINE
  5
F4
100
AcDbEntity
  8
FAN70-0306
370
              15
390
0
  6
Continuous
 62
               7
100
AcDbLine
 10
323.22859568710334
 20
-643.32514281878264
 30
0.0
 11
331.0242357995034
 21
-637.38645649618263
 31
0.0
  0
ARC
  5
F5
100
AcDbEntity
  8
FAN70-0306
370
              15
390
0
  6
Continuous
 62
               7
100
AcDbCircle
 10
319.3662582770034
 20
-638.73359082298259
 30
0.0
 40
6.0
100
AcDbArc
 50
270.0
 51
310.06999042470034
  0
ARC
  5
F6
100
AcDbEntity
  8
FAN70-0306
370
              15
390
0
  6
Continuous
 62
               7
100
AcDbCircle
 10
271.3662582770034
 20
-638.73359082298259
 30
0.0
 40
5.9999999999999867
100
AcDbArc
 50
229.93000957529966
 51
270.0
  0
LINE
  5
F7
100
AcDbEntity
  8
FAN70-0306
370
              15
390
0
  6
Continuous
 62
               7
100
AcDbLine
 10
457.18664409220298
 20
-543.27038327578259
 30
0.0
 11
133.54587246520276
 21
-543.27038327578259
 31
0.0
  0
LINE
  5
F8
100
AcDbEntity
  8
FAN70-0306
370
              15
390
0
  6
Continuous
 62
               7
100
AcDbLine
 10
136.36174785740269
 20
-535.27038327578259
 30
0.0
 11
454.37076869650275
 21
-535.27038327578259
 31
0.0
  0
LINE
  5
F9
100
AcDbEntity
  8
FAN70-0306
370
              15
390
0
  6
Continuous
 62
               7
100
AcDbLine
 10
323.22859568710334
 20
-643.32514281878264
 30
0.0
 11
267.50392086690346
 21
-643.32514281878264
 31
0.0
  0
LINE
  5
FA
100
AcDbEntity
  8
FAN70-0306
370
              15
390
0
  6
Continuous
 62
               7
100
AcDbLine
 10
319.3662581137034
 20
-644.73359082298259
 30
0.0
 11
271.3662582770034
 21
-644.73359082298259
 31
0.0
  0
ARC
  5
FB
100
AcDbEntity
  8
FAN70-0306
370
              15
390
0
  6
STYLE_12
 62
               7
100
AcDbCircle
 10
-520.57082385659726
 20
-497.13359082298257
 30
0.0
 40
142.6000000000011
100
AcDbArc
 50
195.48742535345272
 51
253.78460857437764
  0
ARC
  5
FC
100
AcDbEntity
  8
FAN70-0306
370
              15
390
0
  6
STYLE_12
 62
               7
100
AcDbCircle
 10
-564.31353105660753
 20
-649.21042279934898
 30
0.0
 40
15.649031187148472
100
AcDbArc
 50
49.728419753551663
 51
75.486435725197325
  0
LINE
  5
FD
100
AcDbEntity
  8
FAN70-0306
370
              15
390
0
  6
STYLE_12
 62
               7
100
AcDbLine
 10
-554.1978188586445
 20
-637.27038327578259
 30
0.0
 11
-544.57082385659749
 21
-644.73359082298259
 31
0.0
  0
ARC
  5
FE
100
AcDbEntity
  8
FAN70-0306
370
              15
390
0
  6
STYLE_12
 62
               7
100
AcDbCircle
 10
-520.57082385659726
 20
-497.13359082298257
 30
0.0
 40
142.60000000000008
100
AcDbArc
 50
286.21539142562227
 51
344.51257464654725
  0
ARC
  5
FF
100
AcDbEntity
  8
FAN70-0306
370
              15
390
0
  6
STYLE_12
 62
               7
100
AcDbCircle
 10
-476.82811665658733
 20
-649.21042279934898
 30
0.0
 40
15.649031187148337
100
AcDbArc
 50
104.51356427480249
 51
130.2715802464482
  0
LINE
  5
100
100
AcDbEntity
  8
FAN70-0306
370
              15
390
0
  6
STYLE_12
 62
               7
100
AcDbLine
 10
-486.9438288545503
 20
-637.27038327578259
 30
0.0
 11
-496.57082385659709
 21
-644.73359082298259
 31
0.0
  0
ARC
  5
101
100
AcDbEntity
  8
FAN70-0306
370
              15
390
0
  6
STYLE_12
 62
               7
100
AcDbCircle
 10
295.3662582770034
 20
-497.13359082298257
 30
0.0
 40
142.60000000000068
100
AcDbArc
 50
195.48742535345278
 51
253.78460857437776
  0
ARC
  5
102
100
AcDbEntity
  8
FAN70-0306
370
              15
390
0
  6
STYLE_12
 62
               7
100
AcDbCircle
 10
251.62355107699358
 20
-649.21042279934898
 30
0.0
 40
15.649031187148472
100
AcDbArc
 50
49.728419753551663
 51
75.486435725197524
  0
LINE
  5
103
100
AcDbEntity
  8
FAN70-0306
370
              15
390
0
  6
STYLE_12
 62
               7
100
AcDbLine
 10
261.73926327495661
 20
-637.27038327578259
 30
0.0
 11
271.3662582770034
 21
-644.73359082298259
 31
0.0
  0
ARC
  5
104
100
AcDbEntity
  8
FAN70-0306
370
              15
390
0
  6
STYLE_12
 62
               7
100
AcDbCircle
 10
295.3662582770034
 20
-497.13359082298257
 30
0.0
 40
142.59999999999991
100
AcDbArc
 50
286.21539142562222
 51
344.51257464654708
  0
ARC
  5
105
100
AcDbEntity
  8
FAN70-0306
370
              15
390
0
  6
STYLE_12
 62
               7
100
AcDbCircle
 10
339.10896547701316
 20
-649.21042279934898
 30
0.0
 40
15.649031187148447
100
AcDbArc
 50
104.51356427480239
 51
130.2715802464482
  0
LINE
  5
106
100
AcDbEntity
  8
FAN70-0306
370
              15
390
0
  6
STYLE_12
 62
               7
100
AcDbLine
 10
328.99325327905018
 20
-637.27038327578259
 30
0.0
 11
319.3662582770034
 21
-644.73359082298259
 31
0.0
  0
CIRCLE
  5
107
100
AcDbEntity
  8
FAN70-0306
370
               5
390
0
  6
STYLE_12
 62
               7
100
AcDbCircle
 10
295.3662581953534
 20
522.01184260358468
 30
0.0
 40
162.49999999999932
  0
CIRCLE
  5
108
100
AcDbEntity
  8
FAN70-0306
370
               5
390
0
  6
Continuous
 62
               7
100
AcDbCircle
 10
295.3662581953534
 20
522.01184260358468
 30
0.0
 40
144.9999999999996
  0
CIRCLE
  5
109
100
AcDbEntity
  8
FAN70-0306
370
               5
390
0
  6
STYLE_12
 62
               7
100
AcDbCircle
 10
295.3662581953534
 20
522.01184260358468
 30
0.0
 40
26.522965659900024
  0
ENDSEC
  0
SECTION
  2
OBJECTS
  0
DICTIONARY
  5
19
100
AcDbDictionary
280
               0
281
               1
  3
ACAD_GROUP
350
1A
  3
ACAD_MLINESTYLE
350
1B
  3
ACAD_LAYOUT
350
1E
  3
ACAD_PLOTSETTINGS
350
22
  3
ACAD_PLOTSTYLENAME
350
1F
  0
DICTIONARY
  5
1A
102
{ACAD_REACTORS
330
19
102
}
100
AcDbDictionary
280
               0
281
               1
  0
DICTIONARY
  5
1B
102
{ACAD_REACTORS
330
19
102
}
100
AcDbDictionary
280
               0
281
               1
  3
Standard
350
1C
  0
MLINESTYLE
  5
1C
102
{ACAD_REACTORS
330
1B
102
}
100
AcDbMlineStyle
  2
Standard
 70
               0
  3

 62
               0
 51
90.0
 52
90.0
 71
               2
 49
0.5
 62
             256
  6
ByLayer
 49
-0.5
 62
             256
  6
ByLayer
  0
ACDBDICTIONARYWDFLT
  5
1F
102
{ACAD_REACTORS
330
19
102
}
100
AcDbDictionary
281
               1
  3
Normal
350
1D
100
AcDbDictionaryWithDefault
340
1D
  0
ACDBPLACEHOLDER
  5
1D
102
{ACAD_REACTORS
330
1F
102
}
  0
LAYOUT
  5
20
102
{ACAD_REACTORS
330
1E
102
}
100
AcDbPlotSettings
  1

  2

  4

  6

 40
0.0
 41
0.0
 42
0.0
 43
0.0
 44
0.0
 45
0.0
 46
0.0
 47
0.0
 48
0.0
 49
0.0
140
0.0
141
0.0
142
1.0
143
1.0
 70
            1024
 72
               0
 73
               0
 74
               0
  7

 75
               0
147
1.0
148
0.0
149
0.0
100
AcDbLayout
  1
Model
 70
               0
 71
               0
 10
0.0
 20
0.0
 11
0.0
 21
0.0
 12
0.0
 22
0.0
 32
0.0
 14
0.0
 24
0.0
 34
0.0
 15
0.0
 25
0.0
 35
0.0
146
0.0
 13
0.0
 23
0.0
 33
0.0
 16
0.0
 26
0.0
 36
0.0
 17
0.0
 27
0.0
 37
0.0
 76
               0
330
A
331
0
345
0
346
0
  0
LAYOUT
  5
21
102
{ACAD_REACTORS
330
1E
102
}
100
AcDbPlotSettings
  1

  2

  4

  6

 40
0.0
 41
0.0
 42
0.0
 43
0.0
 44
0.0
 45
0.0
 46
0.0
 47
0.0
 48
0.0
 49
0.0
140
0.0
141
0.0
142
1.0
143
1.0
 70
               0
 72
               0
 73
               0
 74
               0
  7

 75
               0
147
1.0
148
0.0
149
0.0
100
AcDbLayout
  1
Layout1
 70
               0
 71
               0
 10
0.0
 20
0.0
 11
0.0
 21
0.0
 12
0.0
 22
0.0
 32
0.0
 14
0.0
 24
0.0
 34
0.0
 15
0.0
 25
0.0
 35
0.0
146
0.0
 13
0.0
 23
0.0
 33
0.0
 16
0.0
 26
0.0
 36
0.0
 17
0.0
 27
0.0
 37
0.0
 76
               0
330
B
331
0
345
0
346
0
  0
DICTIONARY
  5
1E
102
{ACAD_REACTORS
330
19
102
}
100
AcDbDictionary
280
               0
281
               1
  3
Layout1
350
21
  3
Model
350
20
  0
DICTIONARY
  5
22
102
{ACAD_REACTORS
330
19
102
}
100
AcDbDictionary
280
               0
281
               1
  0
ENDSEC
  0
EOF
