  0
SECTION
  2
HEADER
  9
$ACADVER
  1
AC1015
  9
$ACADMAINTVER
 70
               6
  9
$DWGCODEPAGE
  3
ANSI_932
  9
$INSBASE
 10
0.0
 20
0.0
 30
0.0
  9
$EXTMIN
 10
-1049.9999999999998
 20
-1485.0
 30
-14.834305555555554
  9
$EXTMAX
 10
1049.9999999999998
 20
1485.0
 30
14.834305555555554
  9
$LIMMIN
 10
0.0
 20
0.0
  9
$LIMMAX
 10
0.0
 20
0.0
  9
$ORTHOMODE
 70
               0
  9
$REGENMODE
 70
               1
  9
$FILLMODE
 70
               1
  9
$QTEXTMODE
 70
               0
  9
$MIRRTEXT
 70
               1
  9
$LTSCALE
 40
50.799999999999997
  9
$ATTMODE
 70
               1
  9
$TEXTSIZE
 40
0.2
  9
$TRACEWID
 40
1.0
  9
$TEXTSTYLE
  7
Standard
  9
$CLAYER
  8
template
  9
$CELTYPE
  6
Continuous
  9
$CECOLOR
 62
             256
  9
$CELTSCALE
 40
1.0
  9
$DISPSILH
 70
               0
  9
$DIMSCALE
 40
1.0
  9
$DIMASZ
 40
9.9993896484374982
  9
$DIMEXO
 40
24.999999999999996
  9
$DIMDLI
 40
0.9999999999999999
  9
$DIMRND
 40
0.0
  9
$DIMDLE
 40
0.0
  9
$DIMEXE
 40
0.0
  9
$DIMTP
 40
0.0
  9
$DIMTM
 40
0.0
  9
$DIMTXT
 40
24.432617187500004
  9
$DIMCEN
 40
0.0
  9
$DIMTSZ
 40
0.0
  9
$DIMTOL
 70
               0
  9
$DIMLIM
 70
               0
  9
$DIMTIH
 70
               0
  9
$DIMTOH
 70
               0
  9
$DIMSE1
 70
               0
  9
$DIMSE2
 70
               0
  9
$DIMTAD
 70
               1
  9
$DIMZIN
 70
              11
  9
$DIMBLK
  1
_DOT
  9
$DIMASO
 70
               1
  9
$DIMSHO
 70
               1
  9
$DIMPOST
  1
<>
  9
$DIMAPOST
  1
[]
  9
$DIMALT
 70
               0
  9
$DIMALTD
 70
               1
  9
$DIMALTF
 40
1.0
  9
$DIMLFAC
 40
1.0
  9
$DIMTOFL
 70
               0
  9
$DIMTVP
 40
0.0
  9
$DIMTIX
 70
               1
  9
$DIMSOXD
 70
               0
  9
$DIMSAH
 70
               0
  9
$DIMBLK1
  1

  9
$DIMBLK2
  1

  9
$DIMSTYLE
  2
tfrom線あり
  9
$DIMCLRD
 70
               0
  9
$DIMCLRE
 70
               0
  9
$DIMCLRT
 70
               0
  9
$DIMTFAC
 40
1.0
  9
$DIMGAP
 40
0.4999999999999999
  9
$DIMJUST
 70
               0
  9
$DIMSD1
 70
               0
  9
$DIMSD2
 70
               0
  9
$DIMTOLJ
 70
               1
  9
$DIMTZIN
 70
              11
  9
$DIMALTZ
 70
              11
  9
$DIMALTTZ
 70
              11
  9
$DIMUPT
 70
               0
  9
$DIMDEC
 70
               1
  9
$DIMTDEC
 70
               1
  9
$DIMALTU
 70
               2
  9
$DIMALTTD
 70
               2
  9
$DIMTXSTY
  7
ＭＳ ゴシック
  9
$DIMAUNIT
 70
               0
  9
$DIMADEC
 70
               2
  9
$DIMALTRND
 40
0.0
  9
$DIMAZIN
 70
               0
  9
$DIMDSEP
 70
              46
  9
$DIMATFIT
 70
               0
  9
$DIMFRAC
 70
               2
  9
$DIMLDRBLK
  1

  9
$DIMLUNIT
 70
               2
  9
$DIMLWD
 70
              -2
  9
$DIMLWE
 70
              -2
  9
$DIMTMOVE
 70
               0
  9
$LUNITS
 70
               2
  9
$LUPREC
 70
               4
  9
$SKETCHINC
 40
0.1
  9
$FILLETRAD
 40
0.0
  9
$AUNITS
 70
               0
  9
$AUPREC
 70
               0
  9
$MENU
  1
acad
  9
$ELEVATION
 40
0.0
  9
$PELEVATION
 40
0.0
  9
$THICKNESS
 40
0.0
  9
$LIMCHECK
 70
               0
  9
$CHAMFERA
 40
0.0
  9
$CHAMFERB
 40
0.0
  9
$CHAMFERC
 40
0.0
  9
$CHAMFERD
 40
0.0
  9
$SKPOLY
 70
               0
  9
$TDCREATE
 40
2456050.650208334
  9
$TDUCREATE
 40
0.000000000
  9
$TDUPDATE
 40
2456050.650208334
  9
$TDUUPDATE
 40
0.000000000
  9
$TDINDWG
 40
0.0000000000
  9
$TDUSRTIMER
 40
0.0000000000
  9
$USRTIMER
 70
               1
  9
$ANGBASE
 50
0.0
  9
$ANGDIR
 70
               0
  9
$PDMODE
 70
               1
  9
$PDSIZE
 40
-2.0
  9
$PLINEWID
 40
0.0
  9
$SPLFRAME
 70
               0
  9
$SPLINETYPE
 70
               6
  9
$SPLINESEGS
 70
               8
  9
$HANDSEED
  5
3D5
  9
$SURFTAB1
 70
               6
  9
$SURFTAB2
 70
               6
  9
$SURFTYPE
 70
               6
  9
$SURFU
 70
               6
  9
$SURFV
 70
               6
  9
$UCSBASE
  2

  9
$UCSNAME
  2

  9
$UCSORG
 10
0.0
 20
0.0
 30
0.0
  9
$UCSXDIR
 10
1.0
 20
0.0
 30
0.0
  9
$UCSYDIR
 10
0.0
 20
1.0
 30
0.0
  9
$UCSORTHOREF
  2

  9
$UCSORTHOVIEW
 70
               0
  9
$UCSORGTOP
 10
0.0
 20
0.0
 30
0.0
  9
$UCSORGBOTTOM
 10
0.0
 20
0.0
 30
0.0
  9
$UCSORGLEFT
 10
0.0
 20
0.0
 30
0.0
  9
$UCSORGRIGHT
 10
0.0
 20
0.0
 30
0.0
  9
$UCSORGFRONT
 10
0.0
 20
0.0
 30
0.0
  9
$UCSORGBACK
 10
0.0
 20
0.0
 30
0.0
  9
$PUCSBASE
  2

  9
$PUCSNAME
  2

  9
$PUCSORG
 10
0.0
 20
0.0
 30
0.0
  9
$PUCSXDIR
 10
1.0
 20
0.0
 30
0.0
  9
$PUCSYDIR
 10
0.0
 20
1.0
 30
0.0
  9
$PUCSORTHOREF
  2

  9
$PUCSORTHOVIEW
 70
               0
  9
$PUCSORGTOP
 10
0.0
 20
0.0
 30
0.0
  9
$PUCSORGBOTTOM
 10
0.0
 20
0.0
 30
0.0
  9
$PUCSORGLEFT
 10
0.0
 20
0.0
 30
0.0
  9
$PUCSORGRIGHT
 10
0.0
 20
0.0
 30
0.0
  9
$PUCSORGFRONT
 10
0.0
 20
0.0
 30
0.0
  9
$PUCSORGBACK
 10
0.0
 20
0.0
 30
0.0
  9
$USERI1
 70
               0
  9
$USERI2
 70
               0
  9
$USERI3
 70
               0
  9
$USERI4
 70
               0
  9
$USERI5
 70
               0
  9
$USERR1
 40
0.0
  9
$USERR2
 40
0.0
  9
$USERR3
 40
0.0
  9
$USERR4
 40
0.0
  9
$USERR5
 40
0.0
  9
$WORLDVIEW
 70
               1
  9
$SHADEDGE
 70
               3
  9
$SHADEDIF
 70
              70
  9
$TILEMODE
 70
               1
  9
$MAXACTVP
 70
              64
  9
$PINSBASE
 10
0.0
 20
0.0
 30
0.0
  9
$PLIMCHECK
 70
               0
  9
$PEXTMIN
 10
1.0000000000000000E+20
 20
1.0000000000000000E+20
 30
1.0000000000000000E+20
  9
$PEXTMAX
 10
-1.0000000000000000E+20
 20
-1.0000000000000000E+20
 30
-1.0000000000000000E+20
  9
$PLIMMIN
 10
0.0
 20
0.0
  9
$PLIMMAX
 10
12.0
 20
9.0
  9
$UNITMODE
 70
               0
  9
$VISRETAIN
 70
               0
  9
$PLINEGEN
 70
               1
  9
$PSLTSCALE
 70
               0
  9
$TREEDEPTH
 70
            3020
  9
$CMLSTYLE
  2
Standard
  9
$CMLJUST
 70
               0
  9
$CMLSCALE
 40
1.0
  9
$PROXYGRAPHICS
 70
               0
  9
$MEASUREMENT
 70
               1
  9
$CELWEIGHT
370
               0
  9
$ENDCAPS
280
               0
  9
$JOINSTYLE
280
               0
  9
$LWDISPLAY
290
               1
  9
$INSUNITS
 70
               4
  9
$HYPERLINKBASE
  1

  9
$STYLESHEET
  1

  9
$XEDIT
290
               1
  9
$CEPSNTYPE
380
               0
  9
$PSTYLEMODE
290
               1
  9
$FINGERPRINTGUID
  2

  9
$VERSIONGUID
  2

  9
$EXTNAMES
290
               1
  9
$PSVPSCALE
 40
0.0
  0
ENDSEC
  0
SECTION
  2
CLASSES
  0
CLASS
  1
LWPOLYLINE
  2
AcDbPolyline
  3
AutoCAD 2000
 90
        0
280
               0
281
               1
  0
CLASS
  1
IMAGE
  2
AcDbRasterImage
  3
ISM
 90
      127
280
               0
281
               1
  0
CLASS
  1
OLE2FRAME
  2
AcDbOle2Frame
  3
AutoCAD 2000
 90
        0
280
               0
281
               1
  0
CLASS
  1
HATCH
  2
AcDbHatch
  3
AutoCAD 2000
 90
        0
280
               0
281
               1
  0
CLASS
  1
DICTIONARYVAR
  2
AcDbDictionaryVar
  3
AutoCAD 2000
 90
        0
280
               0
281
               0
  0
CLASS
  1
RASTERVARIABLES
  2
AcDbRasterVariables
  3
ISM
 90
        0
280
               0
281
               0
  0
CLASS
  1
IMAGEDEF
  2
AcDbRasterImageDef
  3
ISM
 90
        0
280
               0
281
               0
  0
CLASS
  1
IMAGEDEF_REACTOR
  2
AcDbRasterImageDefReactor
  3
ISM
 90
        1
280
               0
281
               0
  0
CLASS
  1
IDBUFFER
  2
AcDbIdBuffer
  3
AutoCAD 2000
 90
        0
280
               0
281
               0
  0
CLASS
  1
SPATIAL_FILTER
  2
AcDbSpatialFilter
  3
AutoCAD 2000
 90
        0
280
               0
281
               0
  0
CLASS
  1
XRECORD
  2
AcDbXrecord
  3
AutoCAD 2000
 90
        0
280
               0
281
               0
  0
CLASS
  1
SORTENTSTABLE
  2
AcDbSortentsTable
  3
AutoCAD 2000
 90
        0
280
               0
281
               0
  0
CLASS
  1
LAYER_INDEX
  2
AcDbLayerIndex
  3
AutoCAD 2000
 90
        0
280
               0
281
               0
  0
CLASS
  1
SPATIAL_INDEX
  2
AcDbSpatialIndex
  3
AutoCAD 2000
 90
        0
280
               0
281
               0
  0
CLASS
  1
OBJECT_PTR
  2
CAseDLPNTableRecord
  3
"ASE-LPNTableRecord"
 90
        1
280
               0
281
               0
  0
CLASS
  1
LAYOUT
  2
AcDbLayout
  3
AutoCAD 2000
 90
        0
280
               0
281
               0
  0
CLASS
  1
PLOTSETTINGS
  2
AcDbPlotSettings
  3
AutoCAD 2000
 90
        0
280
               0
281
               0
  0
CLASS
  1
ACDBDICTIONARYWDFLT
  2
AcDbDictionaryWithDefault
  3
AutoCAD 2000
 90
        0
280
               0
281
               0
  0
CLASS
  1
ACDBPLACEHOLDER
  2
AcDbPlaceHolder
  3
AutoCAD 2000
 90
        0
280
               0
281
               0
  0
ENDSEC
  0
SECTION
  2
TABLES
  0
TABLE
  2
VPORT
  5
7
100
AcDbSymbolTable
 70
               1
  0
VPORT
  5
15
100
AcDbSymbolTableRecord
100
AcDbViewportTableRecord
  2
*ACTIVE
 70
               0
 10
0.0
 20
0.0
 11
1.0
 21
1.0
 12
0.0
 22
0.0
 13
0.0
 23
0.0
 14
1.0
 24
1.0
 15
0.0
 25
0.0
 16
0.0
 26
0.0
 36
1.0
 17
0.0
 27
0.0
 37
0.0
 40
2970.0
 41
0.688564
 42
50.0
 43
0.0
 44
0.0
 50
0.0
 51
0.0
 71
               0
 72
            2000
 73
               1
 74
               1
 75
               0
 76
               0
 77
               0
 78
               0
281
               0
 65
               0
110
0.0
120
0.0
130
0.0
111
1.0
121
0.0
131
0.0
112
0.0
122
1.0
132
0.0
345
0
346
0
 79
               0
146
0.0
  0
ENDTAB
  0
TABLE
  2
LTYPE
  5
4
100
AcDbSymbolTable
 70
              17
  0
LTYPE
  5
11
100
AcDbSymbolTableRecord
100
AcDbLinetypeTableRecord
  2
ByBlock
 70
              64
  3

 72
              65
 73
               0
 40
0.0
  0
LTYPE
  5
12
100
AcDbSymbolTableRecord
100
AcDbLinetypeTableRecord
  2
ByLayer
 70
              64
  3

 72
              65
 73
               0
 40
0.0
  0
LTYPE
  5
13
100
AcDbSymbolTableRecord
100
AcDbLinetypeTableRecord
  2
Continuous
 70
              64
  3
Solid line
 72
              65
 73
               0
 40
0.0
  0
LTYPE
  5
32
100
AcDbSymbolTableRecord
100
AcDbLinetypeTableRecord
  2
STYLE_01
 70
               0
  3

 72
              65
 73
               4
 40
0.3999999999999999
 49
0.25
 74
               0
 49
-0.05
 74
               0
 49
0.05
 74
               0
 49
-0.05
 74
               0
  0
LTYPE
  5
33
100
AcDbSymbolTableRecord
100
AcDbLinetypeTableRecord
  2
STYLE_02
 70
               0
  3

 72
              65
 73
               2
 40
0.6944250000000001
 49
0.48607
 74
               0
 49
-0.2083550000000001
 74
               0
  0
LTYPE
  5
34
100
AcDbSymbolTableRecord
100
AcDbLinetypeTableRecord
  2
STYLE_03
 70
               0
  3

 72
              65
 73
               2
 40
1.25
 49
1.0416400000000001
 74
               0
 49
-0.2083599999999999
 74
               0
  0
LTYPE
  5
35
100
AcDbSymbolTableRecord
100
AcDbLinetypeTableRecord
  2
STYLE_04
 70
               0
  3

 72
              65
 73
               2
 40
1.5277099999999999
 49
1.3194249999999998
 74
               0
 49
-0.208285
 74
               0
  0
LTYPE
  5
36
100
AcDbSymbolTableRecord
100
AcDbLinetypeTableRecord
  2
STYLE_05
 70
               0
  3

 72
              65
 73
               2
 40
0.20828
 49
0.069425
 74
               0
 49
-0.138855
 74
               0
  0
LTYPE
  5
37
100
AcDbSymbolTableRecord
100
AcDbLinetypeTableRecord
  2
STYLE_06
 70
               0
  3

 72
              65
 73
               4
 40
1.0416400000000001
 49
0.625
 74
               0
 49
-0.20828
 74
               0
 49
0.06943
 74
               0
 49
-0.13893
 74
               0
  0
LTYPE
  5
38
100
AcDbSymbolTableRecord
100
AcDbLinetypeTableRecord
  2
STYLE_07
 70
               0
  3

 72
              65
 73
               6
 40
1.875
 49
0.625
 74
               0
 49
-0.20828
 74
               0
 49
0.6250000000000001
 74
               0
 49
-0.2083599999999999
 74
               0
 49
0.06943
 74
               0
 49
-0.1389299999999999
 74
               0
  0
LTYPE
  5
39
100
AcDbSymbolTableRecord
100
AcDbLinetypeTableRecord
  2
STYLE_08
 70
               0
  3

 72
              65
 73
               6
 40
1.25
 49
0.625
 74
               0
 49
-0.20828
 74
               0
 49
0.06943
 74
               0
 49
-0.13893
 74
               0
 49
0.0694299999999999
 74
               0
 49
-0.13893
 74
               0
  0
LTYPE
  5
3A
100
AcDbSymbolTableRecord
100
AcDbLinetypeTableRecord
  2
STYLE_09
 70
               0
  3

 72
              65
 73
               4
 40
5.0
 49
3.75
 74
               0
 49
-0.2777849999999998
 74
               0
 49
0.6944300000000003
 74
               0
 49
-0.2777849999999998
 74
               0
  0
LTYPE
  5
3B
100
AcDbSymbolTableRecord
100
AcDbLinetypeTableRecord
  2
STYLE_10
 70
               0
  3

 72
              65
 73
               6
 40
5.9375
 49
3.75
 74
               0
 49
-0.2777849999999998
 74
               0
 49
0.6944300000000003
 74
               0
 49
-0.2777849999999998
 74
               0
 49
0.625
 74
               0
 49
-0.3125
 74
               0
  0
LTYPE
  5
3C
100
AcDbSymbolTableRecord
100
AcDbLinetypeTableRecord
  2
STYLE_11
 70
               0
  3

 72
              65
 73
               2
 40
0.0694444881889764
 49
0.0347222440944882
 74
               0
 49
-0.0347222440944882
 74
               0
  0
LTYPE
  5
3D
100
AcDbSymbolTableRecord
100
AcDbLinetypeTableRecord
  2
STYLE_12
 70
               0
  3

 72
              65
 73
               2
 40
0.3937007874015748
 49
0.1968503937007874
 74
               0
 49
-0.1968503937007874
 74
               0
  0
LTYPE
  5
3E
100
AcDbSymbolTableRecord
100
AcDbLinetypeTableRecord
  2
STYLE_13
 70
               0
  3

 72
              65
 73
               2
 40
0.5905511811023622
 49
0.2952755905511811
 74
               0
 49
-0.2952755905511811
 74
               0
  0
LTYPE
  5
3F
100
AcDbSymbolTableRecord
100
AcDbLinetypeTableRecord
  2
STYLE_14
 70
               0
  3

 72
              65
 73
               2
 40
1.9685039370078738
 49
0.9842519685039369
 74
               0
 49
-0.9842519685039369
 74
               0
  0
ENDTAB
  0
TABLE
  2
LAYER
  5
2
100
AcDbSymbolTable
 70
               5
  0
LAYER
  5
14
100
AcDbSymbolTableRecord
100
AcDbLayerTableRecord
  2
0
 70
               0
 62
               7
  6
Continuous
290
               1
370
              -3
390
1D
  0
LAYER
  5
40
100
AcDbSymbolTableRecord
100
AcDbLayerTableRecord
  2
Defpoints
 70
               0
 62
               7
  6
Continuous
290
               0
370
              -3
390
1D
  0
LAYER
  5
41
100
AcDbSymbolTableRecord
100
AcDbLayerTableRecord
  2
template
 70
               0
 62
               7
  6
Continuous
290
               1
370
              -3
390
1D
  0
LAYER
  5
42
100
AcDbSymbolTableRecord
100
AcDbLayerTableRecord
  2
notes
 70
               0
 62
               7
  6
Continuous
290
               1
370
              -3
390
1D
  0
LAYER
  5
43
100
AcDbSymbolTableRecord
100
AcDbLayerTableRecord
  2
FAN70-0307
 70
               0
 62
               7
  6
Continuous
290
               1
370
              -3
390
1D
  0
ENDTAB
  0
TABLE
  2
STYLE
  5
3
100
AcDbSymbolTable
 70
               2
  0
STYLE
  5
17
100
AcDbSymbolTableRecord
100
AcDbTextStyleTableRecord
  2
Standard
 70
               0
 40
0.0
 41
1.0
 50
0.0
 71
               0
 42
0.0
  3
txt
  4
BIGFONT.SHX
  0
STYLE
  5
31
100
AcDbSymbolTableRecord
100
AcDbTextStyleTableRecord
  2
ＭＳ ゴシック
 70
               0
 40
0.0
 41
1.0
 50
0.0
 71
               0
 42
0.0
  3

  4
ＭＳ ゴシック
1001
ACAD
1000
ＭＳ ゴシック
1071
        0
  0
ENDTAB
  0
TABLE
  2
VIEW
  5
5
100
AcDbSymbolTable
 70
               0
  0
ENDTAB
  0
TABLE
  2
UCS
  5
6
100
AcDbSymbolTable
 70
               0
  0
ENDTAB
  0
TABLE
  2
APPID
  5
8
100
AcDbSymbolTable
 70
               1
  0
APPID
  5
16
100
AcDbSymbolTableRecord
100
AcDbRegAppTableRecord
  2
ACAD
 70
               0
  0
ENDTAB
  0
TABLE
  2
DIMSTYLE
  5
9
100
AcDbSymbolTable
 70
               2
100
AcDbDimStyleTable
 71
               0
  0
DIMSTYLE
105
18
100
AcDbSymbolTableRecord
100
AcDbDimStyleTableRecord
  2
Standard
 70
               0
  3

  4

 40
1.0
 41
0.18
 42
0.0625
 43
0.38
 44
0.18
 45
0.0
 46
0.0
 47
0.0
 48
0.0
 71
               0
 72
               0
 73
               1
 74
               1
 75
               0
 76
               0
 77
               0
 78
               0
 79
               0
140
0.18
141
0.09
142
0.0
143
25.399999999999999
144
1.0
145
0.0
146
1.0
147
0.09
148
0.0
170
               0
171
               2
172
               0
173
               0
174
               0
175
               0
176
               0
177
               0
178
               0
179
               0
271
               4
272
               4
273
               2
274
               2
275
               0
276
               0
277
               2
278
              46
279
               0
280
               0
281
               0
282
               0
283
               1
284
               0
285
               0
286
               0
288
               0
289
               3
340
17
341
0
342
0
343
0
344
0
371
              -2
372
              -2
  0
DIMSTYLE
105
4C
100
AcDbSymbolTableRecord
100
AcDbDimStyleTableRecord
  2
tfrom線あり
 70
               0
  3
<>
  4
[]
 40
1.0
 41
9.9993896484374982
 42
24.999999999999996
 43
0.9999999999999999
 44
0.0
 45
0.0
 46
0.0
 47
0.0
 48
0.0
 71
               0
 72
               0
 73
               0
 74
               0
 75
               0
 76
               0
 77
               1
 78
              11
 79
               0
140
24.432617187500004
141
0.0
142
0.0
143
1.0
144
1.0
145
0.0
146
1.0
147
0.4999999999999999
148
0.0
170
               0
171
               1
172
               0
173
               0
174
               1
175
               0
176
               0
177
               0
178
               0
179
               2
271
               1
272
               1
273
               2
274
               2
275
               0
276
               2
277
               2
278
              46
279
               0
280
               0
281
               0
282
               0
283
               1
284
              11
285
              11
286
              11
288
               0
289
               0
340
31
341
44
342
44
343
0
344
0
371
              -2
372
              -2
  0
ENDTAB
  0
TABLE
  2
BLOCK_RECORD
  5
1
100
AcDbSymbolTable
 70
              15
  0
BLOCK_RECORD
  5
A
100
AcDbSymbolTableRecord
100
AcDbBlockTableRecord
  2
*MODEL_SPACE
340
20
  0
BLOCK_RECORD
  5
B
100
AcDbSymbolTableRecord
100
AcDbBlockTableRecord
  2
*PAPER_SPACE
340
21
  0
BLOCK_RECORD
  5
44
100
AcDbSymbolTableRecord
100
AcDbBlockTableRecord
  2
_DOT
340
0
  0
BLOCK_RECORD
  5
23
100
AcDbSymbolTableRecord
100
AcDbBlockTableRecord
  2
グループ
340
0
102
{BLKREFS
331
101
102
}
  0
BLOCK_RECORD
  5
24
100
AcDbSymbolTableRecord
100
AcDbBlockTableRecord
  2
*D2
340
0
  0
BLOCK_RECORD
  5
25
100
AcDbSymbolTableRecord
100
AcDbBlockTableRecord
  2
*D3
340
0
  0
BLOCK_RECORD
  5
26
100
AcDbSymbolTableRecord
100
AcDbBlockTableRecord
  2
*D4
340
0
  0
BLOCK_RECORD
  5
27
100
AcDbSymbolTableRecord
100
AcDbBlockTableRecord
  2
*D5
340
0
  0
BLOCK_RECORD
  5
28
100
AcDbSymbolTableRecord
100
AcDbBlockTableRecord
  2
*D6
340
0
  0
BLOCK_RECORD
  5
29
100
AcDbSymbolTableRecord
100
AcDbBlockTableRecord
  2
*D7
340
0
  0
BLOCK_RECORD
  5
2A
100
AcDbSymbolTableRecord
100
AcDbBlockTableRecord
  2
*D8
340
0
  0
BLOCK_RECORD
  5
2B
100
AcDbSymbolTableRecord
100
AcDbBlockTableRecord
  2
*D9
340
0
  0
BLOCK_RECORD
  5
2C
100
AcDbSymbolTableRecord
100
AcDbBlockTableRecord
  2
*D10
340
0
  0
BLOCK_RECORD
  5
2D
100
AcDbSymbolTableRecord
100
AcDbBlockTableRecord
  2
*D11
340
0
  0
BLOCK_RECORD
  5
2E
100
AcDbSymbolTableRecord
100
AcDbBlockTableRecord
  2
*D12
340
0
  0
BLOCK_RECORD
  5
2F
100
AcDbSymbolTableRecord
100
AcDbBlockTableRecord
  2
*D13
340
0
  0
BLOCK_RECORD
  5
30
100
AcDbSymbolTableRecord
100
AcDbBlockTableRecord
  2
グループ-1
340
0
102
{BLKREFS
331
11A
102
}
  0
ENDTAB
  0
ENDSEC
  0
SECTION
  2
BLOCKS
  0
BLOCK
  5
D
100
AcDbEntity
  8
0
390
0
100
AcDbBlockBegin
  2
*MODEL_SPACE
 70
               0
 10
0.0
 20
0.0
 30
0.0
  3
*MODEL_SPACE
  1

  0
ENDBLK
  5
E
100
AcDbEntity
  8
0
390
0
100
AcDbBlockEnd
  0
BLOCK
  5
F
100
AcDbEntity
 67
               1
  8
0
390
0
100
AcDbBlockBegin
  2
*PAPER_SPACE
 70
               0
 10
0.0
 20
0.0
 30
0.0
  3
*PAPER_SPACE
  1

  0
ENDBLK
  5
10
100
AcDbEntity
 67
               1
  8
0
390
0
100
AcDbBlockEnd
  0
BLOCK
  5
45
100
AcDbEntity
  8
0
390
0
100
AcDbBlockBegin
  2
_DOT
 70
               0
 10
0.0
 20
0.0
 30
0.0
  3
_DOT
  1

  0
POLYLINE
  5
46
100
AcDbEntity
  8
0
370
              -2
390
0
  6
ByBlock
 62
               0
100
AcDb2dPolyline
 66
               1
 10
0.0
 20
0.0
 30
0.0
 70
               1
 40
0.5
 41
0.5
  0
VERTEX
  5
47
100
AcDbEntity
  8
0
370
              -2
390
0
  6
ByBlock
 62
               0
100
AcDbVertex
100
AcDb2dVertex
 10
-0.25
 20
0.0
 30
0.0
 42
1.0
  0
VERTEX
  5
48
100
AcDbEntity
  8
0
370
              -2
390
0
  6
ByBlock
 62
               0
100
AcDbVertex
100
AcDb2dVertex
 10
0.25
 20
0.0
 30
0.0
 42
1.0
  0
SEQEND
  5
49
100
AcDbEntity
  8
0
390
0
  0
LINE
  5
4A
100
AcDbEntity
  8
0
370
              -2
390
0
  6
ByBlock
 62
               0
100
AcDbLine
 10
-0.5
 20
0.0
 30
0.0
 11
-1.0
 21
0.0
 31
0.0
  0
ENDBLK
  5
4B
100
AcDbEntity
  8
0
390
0
100
AcDbBlockEnd
  0
BLOCK
  5
4D
100
AcDbEntity
  8
template
390
0
100
AcDbBlockBegin
  2
グループ
 70
               0
 10
0.0
 20
0.0
 30
0.0
  3
グループ
  1

  0
LWPOLYLINE
  5
4E
100
AcDbEntity
  8
0
370
              15
390
0
  6
Continuous
 62
               7
100
AcDbPolyline
 90
        8
 70
             129
 10
887.42850780307481
 20
-1259.8468918258677
 10
887.42850780307481
 20
-1265.8442805194436
 10
877.92731088507151
 20
-1265.8442805194436
 10
877.92731088507151
 20
-1290.2952437829524
 10
869.57193362328871
 20
-1290.2952437829524
 10
869.57193362328871
 20
-1265.8442805194436
 10
860.23897667697929
 20
-1265.8442805194436
 10
860.23897667697929
 20
-1259.8468918258677
  0
LWPOLYLINE
  5
4F
100
AcDbEntity
  8
0
370
              15
390
0
  6
Continuous
 62
               7
100
AcDbPolyline
 90
      101
 70
             128
 10
900.15679963363175
 20
-1260.5751403188042
 10
900.17214966241681
 20
-1260.570779562119
 42
-0.0222221607812452
 10
900.46215423908779
 20
-1260.5021550968745
 10
900.47794800307383
 20
-1260.4991516737789
 42
-0.0146883565588934
 10
900.74065070830557
 20
-1260.4571484868281
 42
-0.0127458844187232
 10
901.00528967545358
 20
-1260.429611518756
 10
901.06774475377142
 20
-1260.4247180961675
 42
-0.0198099018564273
 10
901.45859386324787
 20
-1260.4096329387708
 10
901.51040533269202
 20
-1260.4096867144358
 42
-0.0147617382763279
 10
902.00502879366297
 20
-1260.4248067396807
 10
902.07772024854614
 20
-1260.4291793465688
 42
-0.016262454900205
 10
902.46787387800578
 20
-1260.4654122218408
 10
902.58940626927017
 20
-1260.4806987808379
 42
-0.0080020874659527
 10
902.73498530035658
 20
-1260.5013816281057
 10
902.77330477094858
 20
-1260.5074529059164
 42
-0.0053821929678317
 10
902.84178887626638
 20
-1260.5190604297384
 10
902.11538317706777
 20
-1262.6999888854523
 42
0.01086677573739
 10
902.04806610694311
 20
-1262.6868017702334
 10
902.01059808374748
 20
-1262.6803040276379
 42
0.0170663203307642
 10
901.8673812968334
 20
-1262.6604744303463
 10
901.79950596414892
 20
-1262.6534272597587
 42
0.0220162375276787
 10
901.51912655629246
 20
-1262.6367448989886
 10
901.44127098924127
 20
-1262.6355455317221
 42
0.0282606915787711
 10
901.10563466566362
 20
-1262.6493488086912
 10
901.06172139189073
 20
-1262.653648798695
 42
0.0169677213689564
 10
900.8157968969324
 20
-1262.6861858482466
 42
0.0190576269861345
 10
900.57288893435577
 20
-1262.7363327203523
 10
900.56662974624146
 20
-1262.7378756944624
 42
0.0213685642848188
 10
900.31624526176222
 20
-1262.8110759795677
 10
900.3107553668475
 20
-1262.8129389756264
 42
0.0237595297595475
 10
900.05726048195015
 20
-1262.9126234975213
 10
900.05215840791914
 20
-1262.9149152730001
 42
0.0261857468820483
 10
899.79998763169021
 20
-1263.0444516103742
 10
899.78956144260201
 20
-1263.0505170848432
 42
0.0272553062022719
 10
899.55313166736369
 20
-1263.2058892907871
 10
899.51836865385451
 20
-1263.2315504388791
 42
0.03259968931689
 10
899.36821331020269
 20
-1263.3582983118508
 10
899.34450388107882
 20
-1263.3811163403643
 42
0.0138050960634597
 10
899.25262072486953
 20
-1263.4745660019153
 42
0.0125280103795566
 10
899.16577819203962
 20
-1263.5727293285111
 10
899.14209774712765
 20
-1263.6008878267028
 42
0.0205218024740018
 10
899.01699767161551
 20
-1263.7626811409298
 10
898.99453133112684
 20
-1263.7943408707588
 42
0.0163110129586428
 10
898.83882095187516
 20
-1264.0296713058294
 10
898.83609705582455
 20
-1264.0340950678142
 42
0.0131897341900631
 10
898.68929653491591
 20
-1264.2872271601839
 10
898.68759643955218
 20
-1264.2903453993144
 42
0.0107895576063121
 10
898.54981973734573
 20
-1264.5565606089408
 10
898.5490868478164
 20
-1264.558054841596
 42
0.0091371507222248
 10
898.4206068991648
 20
-1264.83258003936
 10
898.3908612677576
 20
-1264.8992865465143
 42
0.0135418326351088
 10
898.21914732868436
 20
-1265.3142243317873
 10
898.18554252025513
 20
-1265.4020904740553
 42
0.0092834542406019
 10
898.01431346033087
 20
-1265.8759889723697
 10
897.98869633261347
 20
-1265.9512300421623
 42
0.0054261043585329
 10
897.88105818432018
 20
-1266.2789940152284
 10
897.8635321980961
 20
-1266.3343821776059
 42
0.0008225090817352
 10
897.79486214631277
 20
-1266.5526509356075
 10
896.8101730143793
 20
-1269.5775422288641
 10
900.04279685445317
 20
-1269.5775422288641
 10
899.53860442459973
 20
-1271.4820205272165
 10
896.28254814261641
 20
-1271.4820205272165
 10
890.45339911026258
 20
-1290.2952435932214
 10
888.62830149995227
 20
-1290.2952435932214
 10
894.4629795354532
 20
-1271.4820205272165
 10
892.05786316641286
 20
-1271.4820205272165
 10
892.5620555962663
 20
-1269.5775422288641
 10
894.99060440721632
 20
-1269.5775422288641
 10
895.85075932540497
 20
-1266.9411292281652
 42
-0.0005863560644582
 10
895.88749400353106
 20
-1266.8243028081188
 10
895.96358183726886
 20
-1266.583310508488
 42
-0.0087522378926788
 10
896.16304998072587
 20
-1265.9880344213411
 10
896.25531425614099
 20
-1265.7278942528235
 42
-0.0077400953830428
 10
896.51324791527031
 20
-1265.0348895752804
 10
896.52901288684905
 20
-1264.9944586918948
 42
-0.0082369946330594
 10
896.77609735746114
 20
-1264.3903796256986
 42
-0.0085725238362489
 10
897.04334345346786
 20
-1263.7949535864032
 10
897.14497305447071
 20
-1263.578532484428
 42
-0.0168109410597172
 10
897.43191748320146
 20
-1263.017324958322
 10
897.55776087369225
 20
-1262.7903609252674
 42
-0.0007817726868056
 10
897.61204522371713
 20
-1262.6928166802936
 10
897.61217352972994
 20
-1262.6925869715651
 42
-0.0036626142161349
 10
897.6670613937556
 20
-1262.5959890915885
 42
-0.0080221150672844
 10
897.72418564916472
 20
-1262.5007098568317
 10
897.75488560052349
 20
-1262.4513189077134
 42
-0.0202139325568902
 10
897.88254134033173
 20
-1262.26333730703
 10
897.93660880551784
 20
-1262.1902584427912
 42
-0.0249323791798366
 10
898.19577159923824
 20
-1261.8742132006355
 10
898.219911413364
 20
-1261.8475989277244
 42
-0.0242132121540895
 10
898.55959215490702
 20
-1261.5077154415196
 10
898.60750372765358
 20
-1261.464206305337
 42
-0.0251017527859385
 10
898.8914854282973
 20
-1261.2312135595694
 10
898.89293090511035
 20
-1261.230144301991
 42
-0.0130868069035934
 10
899.19119155506837
 20
-1261.021363833448
 10
899.19275337421232
 20
-1261.0203303931723
 42
-0.0290329526388077
 10
899.50386451560439
 20
-1260.8395048915436
 10
899.53371007759426
 20
-1260.8244025087022
 42
-0.0160250190047949
 10
899.79961449135521
 20
-1260.700386398491
 42
-0.0267600374780309
 10
900.07489056882525
 20
-1260.5996380779418
 10
900.10162648834478
 20
-1260.5914455191166
 42
-0.0049981587669928
 10
900.15679963363175
 20
-1260.5751403188042
 42
-0.0049981587669928
  0
LWPOLYLINE
  5
50
100
AcDbEntity
  8
0
370
              15
390
0
  6
Continuous
 62
               7
100
AcDbPolyline
 90
      118
 70
             128
 10
919.97116719807866
 20
-1269.6515255566915
 10
921.84628912257813
 20
-1269.6515255566915
 10
921.00825021697824
 20
-1272.3330920830915
 42
-0.0010587229244717
 10
921.03970603257608
 20
-1272.2961875497058
 10
921.09790012318217
 20
-1272.2282052935604
 42
-0.0071874740413046
 10
921.24827534127417
 20
-1272.0575646015382
 10
921.38999811454244
 20
-1271.9013284602183
 42
-0.0148118053513779
 10
921.84012740725132
 20
-1271.4337146142091
 10
921.92734974215728
 20
-1271.3483172933513
 42
-0.0086273358692718
 10
922.26289854316542
 20
-1271.0309416593352
 10
922.30673225939165
 20
-1270.9908920150019
 42
-0.0103138323115429
 10
922.56475596162477
 20
-1270.7647288776639
 10
922.61053036796045
 20
-1270.7262468303963
 42
-0.0060206748564274
 10
922.78337843206407
 20
-1270.5844521796494
 10
922.78540956295512
 20
-1270.5828264740139
 42
-0.0067069027290416
 10
922.95770237761258
 20
-1270.4486758402231
 10
922.96025114354586
 20
-1270.4467456703424
 42
-0.0076184352049488
 10
923.13115640940987
 20
-1270.321370795104
 42
-0.0089652861668072
 10
923.30611737214338
 20
-1270.2017375347718
 10
923.34246909228841
 20
-1270.1778263212889
 42
-0.0156916245939222
 10
923.5384285894495
 20
-1270.0575638348141
 42
-0.0023299011069693
 10
923.73869063340589
 20
-1269.9443858952861
 10
923.75407476580915
 20
-1269.9357859002084
 42
-0.0107669341481016
 10
923.98831159091708
 20
-1269.8113857668554
 10
924.0105763919853
 20
-1269.800169016909
 42
-0.0078058045897393
 10
924.29416650993721
 20
-1269.6628075612709
 10
924.30407359764718
 20
-1269.658198433402
 42
-0.0181829330470019
 10
924.61438300226393
 20
-1269.5273346923059
 10
924.66843844482628
 20
-1269.5068195723641
 42
-0.0208411536031712
 10
925.01752341227984
 20
-1269.3907291098699
 10
925.03187951240784
 20
-1269.3866106649161
 42
-0.022279981713889
 10
925.3605993063245
 20
-1269.3079690987761
 10
925.369488269567
 20
-1269.30625708819
 42
-0.0215509523880639
 10
925.68595923784142
 20
-1269.2593413996565
 10
925.72844119889055
 20
-1269.2549038728657
 42
-0.0182545924872407
 10
925.96254997819551
 20
-1269.2390600474748
 10
926.00195099454572
 20
-1269.2378355023955
 42
-0.0072962856529064
 10
926.15787387423256
 20
-1269.2352661738735
 10
926.18697354480855
 20
-1269.2352113384698
 42
-0.0059227516318816
 10
926.2847230439495
 20
-1269.2361850502602
 10
926.31396526146034
 20
-1269.2368228168643
 42
-0.0011833111901795
 10
926.35321654515383
 20
-1269.2377718211735
 10
925.55782994954666
 20
-1271.7765057662725
 42
0.0143932051598805
 10
925.53142856719546
 20
-1271.7663067962271
 10
925.52415659477879
 20
-1271.76373557737
 42
0.0234388603530011
 10
925.48232572884706
 20
-1271.7511163416548
 10
925.47364406593397
 20
-1271.7489353796495
 42
0.0199162742983037
 10
925.41335523185228
 20
-1271.736318644314
 10
925.39254129404776
 20
-1271.732821444886
 42
0.0293643550665951
 10
925.28946643528752
 20
-1271.7216713992327
 10
925.26478125456833
 20
-1271.7204597822142
 42
0.0214606686863827
 10
925.11164033861519
 20
-1271.7195212217966
 10
925.10226842779787
 20
-1271.7198661333409
 42
0.0167564054174163
 10
924.93074823668678
 20
-1271.7319431757091
 10
924.92228844393048
 20
-1271.7328245161361
 42
0.0137677553240957
 10
924.73493513066455
 20
-1271.7575738246799
 10
924.72758339115785
 20
-1271.7587517446477
 42
0.0118497261482066
 10
924.52708562705527
 20
-1271.7957690948369
 10
924.52093561980928
 20
-1271.7970559575569
 42
0.0106421143889724
 10
924.31005473252526
 20
-1271.8458883331316
 10
924.30514592413522
 20
-1271.8471356758168
 42
0.0099746379706321
 10
924.08668745497073
 20
-1271.9073102041323
 10
924.02513941480242
 20
-1271.9255920827623
 42
0.0191613675859732
 10
923.68915495228691
 20
-1272.0395694630492
 10
923.60109517953742
 20
-1272.0732563733748
 42
0.0205274080144368
 10
923.21578840764073
 20
-1272.2390847811998
 10
923.15813912565829
 20
-1272.2667527457725
 42
0.0181256912196064
 10
922.89986218499178
 20
-1272.4024365647501
 10
922.84690680168444
 20
-1272.432754177961
 42
0.0140709242402873
 10
922.7019518670495
 20
-1272.5212488513992
 10
922.67570299843271
 20
-1272.5383056701135
 42
0.0086667884395987
 10
922.58677683688848
 20
-1272.5983083379974
 42
0.0036408192034625
 10
922.49934359883844
 20
-1272.6604891958018
 10
922.46411672438649
 20
-1272.6859301417026
 42
0.0052260781272892
 10
922.30788802701056
 20
-1272.8012625283254
 10
922.29168117073573
 20
-1272.813490638955
 42
0.0050024435898219
 10
922.10567782767976
 20
-1272.9567732072151
 10
922.09035967116176
 20
-1272.968819229663
 42
0.013613871027649
 10
921.87991840284246
 20
-1273.1437857345711
 10
921.84625052704291
 20
-1273.1733647072906
 42
0.017281518691684
 10
921.58184698537809
 20
-1273.4223613799163
 10
921.57928463953772
 20
-1273.4249471970611
 42
0.0189403857992159
 10
921.3287028409577
 20
-1273.6977524618662
 10
921.29607134742764
 20
-1273.7360963933565
 42
0.0185044199499275
 10
921.10411490844263
 20
-1273.9793449744852
 42
0.0088565243898951
 10
920.9256548018152
 20
-1274.232861394634
 10
920.91647682216569
 20
-1274.2464027743954
 42
0.0157195347234652
 10
920.73325621582853
 20
-1274.5359249837161
 10
920.687173273908
 20
-1274.6140771807195
 42
0.0095451879775554
 10
920.52208772376309
 20
-1274.9066718230883
 10
920.51093980483915
 20
-1274.9273424952098
 42
0.0100351706251944
 10
920.3788960556742
 20
-1275.1843980557112
 42
0.0086935915418291
 10
920.25656490388019
 20
-1275.4462312011153
 10
920.25324416246565
 20
-1275.4536735240874
 42
0.0072580174866602
 10
920.13289771052291
 20
-1275.7342655156651
 10
920.1296360772144
 20
-1275.7421855416883
 42
0.0060005122616345
 10
920.01043540887065
 20
-1276.0417952122964
 10
920.00722443053007
 20
-1276.0501567401984
 42
0.0049017786975175
 10
919.88832427167199
 20
-1276.3690857208042
 10
919.88515846528219
 20
-1276.3778386580329
 42
0.0039415167599449
 10
919.76572218723106
 20
-1276.7163807204304
 10
919.76259108457339
 20
-1276.7254839213224
 42
0.0031035838769682
 10
919.64178629887556
 20
-1277.0839237831103
 10
919.63867625434989
 20
-1277.0933444044708
 42
0.0025070747154479
 10
919.51577490303816
 20
-1277.4719916214033
 10
919.47848100660917
 20
-1277.5888832866676
 42
0.0029081910283976
 10
919.28646270879415
 20
-1278.2030469449726
 10
919.24565954028128
 20
-1278.3362701872352
 42
0.0009266453732116
 10
918.97724216596862
 20
-1279.2184946471521
 10
918.95635469334729
 20
-1279.287606526324
 42
-0.0005809993666308
 10
918.67901801273479
 20
-1280.2014146330334
 10
918.61273621446253
 20
-1280.4188995651905
 42
-0.0012018708168205
 10
918.46575190503268
 20
-1280.8970622297138
 10
918.41343205345208
 20
-1281.0658213706281
 42
-0.0002691059599173
 10
918.36986257229853
 20
-1281.2060889909217
 10
915.53690667400929
 20
-1290.2952435932214
 10
913.71891778203076
 20
-1290.2952435932214
 10
919.97116719807866
 20
-1269.6515255566915
  0
SPLINE
  5
51
100
AcDbEntity
  8
0
370
              15
390
0
  6
Continuous
 62
               7
100
AcDbSpline
210
0.0
220
0.0
230
1.0
 70
              13
 71
               2
 72
             782
 73
             779
 74
               0
 42
0.000001
 43
0.000001
 40
0.0
 40
0.0
 40
0.0
 40
1.0
 40
1.0
 40
2.0
 40
2.0
 40
3.0
 40
3.0
 40
4.0
 40
4.0
 40
5.0
 40
5.0
 40
6.0
 40
6.0
 40
7.0
 40
7.0
 40
8.0
 40
8.0
 40
9.0
 40
9.0
 40
10.0
 40
10.0
 40
11.0
 40
11.0
 40
12.0
 40
12.0
 40
13.0
 40
13.0
 40
14.0
 40
14.0
 40
15.0
 40
15.0
 40
16.0
 40
16.0
 40
17.0
 40
17.0
 40
18.0
 40
18.0
 40
19.0
 40
19.0
 40
20.0
 40
20.0
 40
21.0
 40
21.0
 40
22.0
 40
22.0
 40
23.0
 40
23.0
 40
24.0
 40
24.0
 40
25.0
 40
25.0
 40
26.0
 40
26.0
 40
27.0
 40
27.0
 40
28.0
 40
28.0
 40
29.0
 40
29.0
 40
30.0
 40
30.0
 40
31.0
 40
31.0
 40
32.0
 40
32.0
 40
33.0
 40
33.0
 40
34.0
 40
34.0
 40
35.0
 40
35.0
 40
36.0
 40
36.0
 40
37.0
 40
37.0
 40
38.0
 40
38.0
 40
39.0
 40
39.0
 40
40.0
 40
40.0
 40
41.0
 40
41.0
 40
42.0
 40
42.0
 40
43.0
 40
43.0
 40
44.0
 40
44.0
 40
45.0
 40
45.0
 40
46.0
 40
46.0
 40
47.0
 40
47.0
 40
48.0
 40
48.0
 40
49.0
 40
49.0
 40
50.0
 40
50.0
 40
51.0
 40
51.0
 40
52.0
 40
52.0
 40
53.0
 40
53.0
 40
54.0
 40
54.0
 40
55.0
 40
55.0
 40
56.0
 40
56.0
 40
57.0
 40
57.0
 40
58.0
 40
58.0
 40
59.0
 40
59.0
 40
60.0
 40
60.0
 40
61.0
 40
61.0
 40
62.0
 40
62.0
 40
63.0
 40
63.0
 40
64.0
 40
64.0
 40
65.0
 40
65.0
 40
66.0
 40
66.0
 40
67.0
 40
67.0
 40
68.0
 40
68.0
 40
69.0
 40
69.0
 40
70.0
 40
70.0
 40
71.0
 40
71.0
 40
72.0
 40
72.0
 40
73.0
 40
73.0
 40
74.0
 40
74.0
 40
75.0
 40
75.0
 40
76.0
 40
76.0
 40
77.0
 40
77.0
 40
78.0
 40
78.0
 40
79.0
 40
79.0
 40
80.0
 40
80.0
 40
81.0
 40
81.0
 40
82.0
 40
82.0
 40
83.0
 40
83.0
 40
84.0
 40
84.0
 40
85.0
 40
85.0
 40
86.0
 40
86.0
 40
87.0
 40
87.0
 40
88.0
 40
88.0
 40
89.0
 40
89.0
 40
90.0
 40
90.0
 40
91.0
 40
91.0
 40
92.0
 40
92.0
 40
93.0
 40
93.0
 40
94.0
 40
94.0
 40
95.0
 40
95.0
 40
96.0
 40
96.0
 40
97.0
 40
97.0
 40
98.0
 40
98.0
 40
99.0
 40
99.0
 40
100.0
 40
100.0
 40
101.0
 40
101.0
 40
102.0
 40
102.0
 40
103.0
 40
103.0
 40
104.0
 40
104.0
 40
105.0
 40
105.0
 40
106.0
 40
106.0
 40
107.0
 40
107.0
 40
108.0
 40
108.0
 40
109.0
 40
109.0
 40
110.0
 40
110.0
 40
111.0
 40
111.0
 40
112.0
 40
112.0
 40
113.0
 40
113.0
 40
114.0
 40
114.0
 40
115.0
 40
115.0
 40
116.0
 40
116.0
 40
117.0
 40
117.0
 40
118.0
 40
118.0
 40
119.0
 40
119.0
 40
120.0
 40
120.0
 40
121.0
 40
121.0
 40
122.0
 40
122.0
 40
123.0
 40
123.0
 40
124.0
 40
124.0
 40
125.0
 40
125.0
 40
126.0
 40
126.0
 40
127.0
 40
127.0
 40
128.0
 40
128.0
 40
129.0
 40
129.0
 40
130.0
 40
130.0
 40
131.0
 40
131.0
 40
132.0
 40
132.0
 40
133.0
 40
133.0
 40
134.0
 40
134.0
 40
135.0
 40
135.0
 40
136.0
 40
136.0
 40
137.0
 40
137.0
 40
138.0
 40
138.0
 40
139.0
 40
139.0
 40
140.0
 40
140.0
 40
141.0
 40
141.0
 40
142.0
 40
142.0
 40
143.0
 40
143.0
 40
144.0
 40
144.0
 40
145.0
 40
145.0
 40
146.0
 40
146.0
 40
147.0
 40
147.0
 40
148.0
 40
148.0
 40
149.0
 40
149.0
 40
150.0
 40
150.0
 40
151.0
 40
151.0
 40
152.0
 40
152.0
 40
153.0
 40
153.0
 40
154.0
 40
154.0
 40
155.0
 40
155.0
 40
156.0
 40
156.0
 40
157.0
 40
157.0
 40
158.0
 40
158.0
 40
159.0
 40
159.0
 40
160.0
 40
160.0
 40
161.0
 40
161.0
 40
162.0
 40
162.0
 40
163.0
 40
163.0
 40
164.0
 40
164.0
 40
165.0
 40
165.0
 40
166.0
 40
166.0
 40
167.0
 40
167.0
 40
168.0
 40
168.0
 40
169.0
 40
169.0
 40
170.0
 40
170.0
 40
171.0
 40
171.0
 40
172.0
 40
172.0
 40
173.0
 40
173.0
 40
174.0
 40
174.0
 40
175.0
 40
175.0
 40
176.0
 40
176.0
 40
177.0
 40
177.0
 40
178.0
 40
178.0
 40
179.0
 40
179.0
 40
180.0
 40
180.0
 40
181.0
 40
181.0
 40
182.0
 40
182.0
 40
183.0
 40
183.0
 40
184.0
 40
184.0
 40
185.0
 40
185.0
 40
186.0
 40
186.0
 40
187.0
 40
187.0
 40
188.0
 40
188.0
 40
189.0
 40
189.0
 40
190.0
 40
190.0
 40
191.0
 40
191.0
 40
192.0
 40
192.0
 40
193.0
 40
193.0
 40
194.0
 40
194.0
 40
195.0
 40
195.0
 40
196.0
 40
196.0
 40
197.0
 40
197.0
 40
198.0
 40
198.0
 40
199.0
 40
199.0
 40
200.0
 40
200.0
 40
201.0
 40
201.0
 40
202.0
 40
202.0
 40
203.0
 40
203.0
 40
204.0
 40
204.0
 40
205.0
 40
205.0
 40
206.0
 40
206.0
 40
207.0
 40
207.0
 40
208.0
 40
208.0
 40
209.0
 40
209.0
 40
210.0
 40
210.0
 40
211.0
 40
211.0
 40
212.0
 40
212.0
 40
213.0
 40
213.0
 40
214.0
 40
214.0
 40
215.0
 40
215.0
 40
216.0
 40
216.0
 40
217.0
 40
217.0
 40
218.0
 40
218.0
 40
219.0
 40
219.0
 40
220.0
 40
220.0
 40
221.0
 40
221.0
 40
222.0
 40
222.0
 40
223.0
 40
223.0
 40
224.0
 40
224.0
 40
225.0
 40
225.0
 40
226.0
 40
226.0
 40
227.0
 40
227.0
 40
228.0
 40
228.0
 40
229.0
 40
229.0
 40
230.0
 40
230.0
 40
231.0
 40
231.0
 40
232.0
 40
232.0
 40
233.0
 40
233.0
 40
234.0
 40
234.0
 40
235.0
 40
235.0
 40
236.0
 40
236.0
 40
237.0
 40
237.0
 40
238.0
 40
238.0
 40
239.0
 40
239.0
 40
240.0
 40
240.0
 40
241.0
 40
241.0
 40
242.0
 40
242.0
 40
243.0
 40
243.0
 40
244.0
 40
244.0
 40
245.0
 40
245.0
 40
246.0
 40
246.0
 40
247.0
 40
247.0
 40
248.0
 40
248.0
 40
249.0
 40
249.0
 40
250.0
 40
250.0
 40
251.0
 40
251.0
 40
252.0
 40
252.0
 40
253.0
 40
253.0
 40
254.0
 40
254.0
 40
255.0
 40
255.0
 40
256.0
 40
256.0
 40
257.0
 40
257.0
 40
258.0
 40
258.0
 40
259.0
 40
259.0
 40
260.0
 40
260.0
 40
261.0
 40
261.0
 40
262.0
 40
262.0
 40
263.0
 40
263.0
 40
264.0
 40
264.0
 40
265.0
 40
265.0
 40
266.0
 40
266.0
 40
267.0
 40
267.0
 40
268.0
 40
268.0
 40
269.0
 40
269.0
 40
270.0
 40
270.0
 40
271.0
 40
271.0
 40
272.0
 40
272.0
 40
273.0
 40
273.0
 40
274.0
 40
274.0
 40
275.0
 40
275.0
 40
276.0
 40
276.0
 40
277.0
 40
277.0
 40
278.0
 40
278.0
 40
279.0
 40
279.0
 40
280.0
 40
280.0
 40
281.0
 40
281.0
 40
282.0
 40
282.0
 40
283.0
 40
283.0
 40
284.0
 40
284.0
 40
285.0
 40
285.0
 40
286.0
 40
286.0
 40
287.0
 40
287.0
 40
288.0
 40
288.0
 40
289.0
 40
289.0
 40
290.0
 40
290.0
 40
291.0
 40
291.0
 40
292.0
 40
292.0
 40
293.0
 40
293.0
 40
294.0
 40
294.0
 40
295.0
 40
295.0
 40
296.0
 40
296.0
 40
297.0
 40
297.0
 40
298.0
 40
298.0
 40
299.0
 40
299.0
 40
300.0
 40
300.0
 40
301.0
 40
301.0
 40
302.0
 40
302.0
 40
303.0
 40
303.0
 40
304.0
 40
304.0
 40
305.0
 40
305.0
 40
306.0
 40
306.0
 40
307.0
 40
307.0
 40
308.0
 40
308.0
 40
309.0
 40
309.0
 40
310.0
 40
310.0
 40
311.0
 40
311.0
 40
312.0
 40
312.0
 40
313.0
 40
313.0
 40
314.0
 40
314.0
 40
315.0
 40
315.0
 40
316.0
 40
316.0
 40
317.0
 40
317.0
 40
318.0
 40
318.0
 40
319.0
 40
319.0
 40
320.0
 40
320.0
 40
321.0
 40
321.0
 40
322.0
 40
322.0
 40
323.0
 40
323.0
 40
324.0
 40
324.0
 40
325.0
 40
325.0
 40
326.0
 40
326.0
 40
327.0
 40
327.0
 40
328.0
 40
328.0
 40
329.0
 40
329.0
 40
330.0
 40
330.0
 40
331.0
 40
331.0
 40
332.0
 40
332.0
 40
333.0
 40
333.0
 40
334.0
 40
334.0
 40
335.0
 40
335.0
 40
336.0
 40
336.0
 40
337.0
 40
337.0
 40
338.0
 40
338.0
 40
339.0
 40
339.0
 40
340.0
 40
340.0
 40
341.0
 40
341.0
 40
342.0
 40
342.0
 40
343.0
 40
343.0
 40
344.0
 40
344.0
 40
345.0
 40
345.0
 40
346.0
 40
346.0
 40
347.0
 40
347.0
 40
348.0
 40
348.0
 40
349.0
 40
349.0
 40
350.0
 40
350.0
 40
351.0
 40
351.0
 40
352.0
 40
352.0
 40
353.0
 40
353.0
 40
354.0
 40
354.0
 40
355.0
 40
355.0
 40
356.0
 40
356.0
 40
357.0
 40
357.0
 40
358.0
 40
358.0
 40
359.0
 40
359.0
 40
360.0
 40
360.0
 40
361.0
 40
361.0
 40
362.0
 40
362.0
 40
363.0
 40
363.0
 40
364.0
 40
364.0
 40
365.0
 40
365.0
 40
366.0
 40
366.0
 40
367.0
 40
367.0
 40
368.0
 40
368.0
 40
369.0
 40
369.0
 40
370.0
 40
370.0
 40
371.0
 40
371.0
 40
372.0
 40
372.0
 40
373.0
 40
373.0
 40
374.0
 40
374.0
 40
375.0
 40
375.0
 40
376.0
 40
376.0
 40
377.0
 40
377.0
 40
378.0
 40
378.0
 40
379.0
 40
379.0
 40
380.0
 40
380.0
 40
381.0
 40
381.0
 40
382.0
 40
382.0
 40
383.0
 40
383.0
 40
384.0
 40
384.0
 40
385.0
 40
385.0
 40
386.0
 40
386.0
 40
387.0
 40
387.0
 40
388.0
 40
388.0
 40
389.0
 40
389.0
 40
389.0
 10
930.29987164881129
 20
-1269.6405991933291
 30
0.0
 41
1.0
 10
931.11829575753177
 20
-1269.6405991933291
 30
0.0
 41
1.0
 10
931.93671986625225
 20
-1269.6405991933291
 30
0.0
 41
1.0
 10
931.52296613073554
 20
-1270.9832254575788
 30
0.0
 41
1.0
 10
931.10921239521872
 20
-1272.3258517218285
 30
0.0
 41
1.0
 10
931.12755189037239
 20
-1272.2971509489389
 30
0.0
 41
0.9999957264353334
 10
931.14605888718984
 20
-1272.2685578988091
 30
0.0
 41
1.0
 10
931.17648821134094
 20
-1272.2215450204119
 30
0.0
 41
1.0
 10
931.20691753549204
 20
-1272.1745321420146
 30
0.0
 41
1.0
 10
931.28628318059964
 20
-1272.0519133351092
 30
0.0
 41
0.9995394069080855
 10
931.37294157215149
 20
-1271.9343352733677
 30
0.0
 41
1.0
 10
931.40869843441078
 20
-1271.8858203807747
 30
0.0
 41
1.0
 10
931.44445529667007
 20
-1271.8373054881818
 30
0.0
 41
1.0
 10
931.57818196448875
 20
-1271.6558652130545
 30
0.0
 41
0.9994460617143494
 10
931.72368244577569
 20
-1271.4837228154061
 30
0.0
 41
1.0
 10
931.72807062674997
 20
-1271.4785311350242
 30
0.0
 41
1.0
 10
931.73245880772436
 20
-1271.4733394546427
 30
0.0
 41
1.0
 10
931.86918292706207
 20
-1271.3115804177583
 30
0.0
 41
0.9994359394933763
 10
932.01645715741506
 20
-1271.1593642165919
 30
0.0
 41
1.0
 10
932.01884051137063
 20
-1271.1569008862166
 30
0.0
 41
1.0
 10
932.02122386532608
 20
-1271.154437555841
 30
0.0
 41
1.0
 10
932.1637313877693
 20
-1271.0071480154247
 30
0.0
 41
0.9995293688567944
 10
932.31500306874864
 20
-1270.8688748032632
 30
0.0
 41
1.0
 10
932.33429682801261
 20
-1270.8512389176115
 30
0.0
 41
1.0
 10
932.35359058727659
 20
-1270.8336030319597
 30
0.0
 41
1.0
 10
932.46627474973218
 20
-1270.7306015910979
 30
0.0
 41
0.999708761480295
 10
932.58379763868584
 20
-1270.6331573103012
 30
0.0
 41
1.0
 10
932.60296371186064
 20
-1270.6172657317939
 30
0.0
 41
1.0
 10
932.62212978503555
 20
-1270.6013741532863
 30
0.0
 41
1.0
 10
932.70132052763734
 20
-1270.535713029506
 30
0.0
 41
0.9999595338694274
 10
932.78167979849604
 20
-1270.4714872988484
 30
0.0
 41
1.0
 10
932.86203906935839
 20
-1270.4072615681876
 30
0.0
 41
0.9999749417504894
 10
932.94329960371101
 20
-1270.3441800142341
 30
0.0
 41
1.0
 10
932.96428574986476
 20
-1270.3278887269394
 30
0.0
 41
1.0
 10
932.9852718960185
 20
-1270.3115974396444
 30
0.0
 41
1.0
 10
933.06983978132166
 20
-1270.2459484298024
 30
0.0
 41
0.9999792037115057
 10
933.15524738109707
 20
-1270.1813956481542
 30
0.0
 41
1.0
 10
933.17607220695675
 20
-1270.1656558259356
 30
0.0
 41
1.0
 10
933.19689703281642
 20
-1270.1499160037172
 30
0.0
 41
1.0
 10
933.24065498081166
 20
-1270.1168428665521
 30
0.0
 41
0.9999993373798038
 10
933.28433666700971
 20
-1270.0836690710867
 30
0.0
 41
1.0
 10
933.3280183531507
 20
-1270.0504952756642
 30
0.0
 41
0.9999160953816699
 10
933.37254476406838
 20
-1270.0184642104673
 30
0.0
 41
1.0
 10
933.40536665148989
 20
-1269.9948530548809
 30
0.0
 41
1.0
 10
933.4381885389115
 20
-1269.9712418992945
 30
0.0
 41
1.0
 10
933.54835872466924
 20
-1269.891988522927
 30
0.0
 41
0.9980964527231613
 10
933.66744771817002
 20
-1269.826901050071
 30
0.0
 41
1.0
 10
933.70448032509717
 20
-1269.8066610704782
 30
0.0
 41
1.0
 10
933.74151293202442
 20
-1269.7864210908856
 30
0.0
 41
1.0
 10
933.92083994529833
 20
-1269.6884108401839
 30
0.0
 41
0.9984572810572789
 10
934.10992851165884
 20
-1269.6108885788367
 30
0.0
 41
1.0
 10
934.1135747810539
 20
-1269.6093936864991
 30
0.0
 41
1.0
 10
934.11722105044896
 20
-1269.6078987941614
 30
0.0
 41
1.0
 10
934.29901707801707
 20
-1269.5333663174906
 30
0.0
 41
0.9987838528033893
 10
934.48726973657699
 20
-1269.4771006773246
 30
0.0
 41
1.0
 10
934.49150768577658
 20
-1269.4758340236342
 30
0.0
 41
1.0
 10
934.49574563497617
 20
-1269.4745673699438
 30
0.0
 41
1.0
 10
934.67552239513714
 20
-1269.4208350371587
 30
0.0
 41
0.999065281620722
 10
934.85926832685209
 20
-1269.3828313576169
 30
0.0
 41
1.0
 10
934.86445672788182
 20
-1269.3817582545107
 30
0.0
 41
1.0
 10
934.86964512891166
 20
-1269.3806851514046
 30
0.0
 41
1.0
 10
935.04301425856659
 20
-1269.344827678075
 30
0.0
 41
0.9992909934269949
 10
935.21859002502629
 20
-1269.3221172456083
 30
0.0
 41
1.0
 10
935.39416579148269
 20
-1269.299406813142
 30
0.0
 41
0.9994553539448182
 10
935.57085722457441
 20
-1269.2883275089357
 30
0.0
 41
1.0
 10
935.60629163237172
 20
-1269.2861056208878
 30
0.0
 41
1.0
 10
935.64172604016903
 20
-1269.28388373284
 30
0.0
 41
1.0
 10
935.8079518067384
 20
-1269.2734606704282
 30
0.0
 41
0.9990928098292662
 10
935.97446159864103
 20
-1269.2772203116629
 30
0.0
 41
1.0
 10
936.01302343391387
 20
-1269.2780910031959
 30
0.0
 41
1.0
 10
936.05158526918672
 20
-1269.2789616947289
 30
0.0
 41
1.0
 10
936.14097139054456
 20
-1269.2809799528973
 30
0.0
 41
0.9998382089205743
 10
936.23022707332984
 20
-1269.2862120794252
 30
0.0
 41
1.0
 10
936.23065697954735
 20
-1269.2862372803274
 30
0.0
 41
1.0
 10
936.23108688576485
 20
-1269.2862624812294
 30
0.0
 41
1.0
 10
936.31948275611376
 20
-1269.2914442059532
 30
0.0
 41
0.9997558016759102
 10
936.40756333331683
 20
-1269.3005267213198
 30
0.0
 41
1.0
 10
936.40803947174277
 20
-1269.3005758188019
 30
0.0
 41
1.0
 10
936.40851561016859
 20
-1269.3006249162841
 30
0.0
 41
1.0
 10
936.49564391051342
 20
-1269.3096092366857
 30
0.0
 41
0.9996565144181508
 10
936.58218176385981
 20
-1269.3231465433755
 30
0.0
 41
1.0
 10
936.58264768923641
 20
-1269.3232194291068
 30
0.0
 41
1.0
 10
936.5831136146129
 20
-1269.323292314838
 30
0.0
 41
1.0
 10
936.66871961720074
 20
-1269.3366838500642
 30
0.0
 41
0.9995321806866592
 10
936.75334669752976
 20
-1269.3552843384937
 30
0.0
 41
1.0
 10
936.75373589210335
 20
-1269.3553698809601
 30
0.0
 41
1.0
 10
936.75412508667705
 20
-1269.3554554234263
 30
0.0
 41
1.0
 10
936.83797377785947
 20
-1269.3738848269236
 30
0.0
 41
0.9993819199219832
 10
936.92032031205395
 20
-1269.3981602101835
 30
0.0
 41
1.0
 10
936.92055874555149
 20
-1269.3982304992928
 30
0.0
 41
1.0
 10
936.92079717904892
 20
-1269.3983007884019
 30
0.0
 41
1.0
 10
937.00266684624955
 20
-1269.4224355934439
 30
0.0
 41
0.9992088568505697
 10
937.0823593652384
 20
-1269.4530008292386
 30
0.0
 41
1.0
 10
937.16204035611736
 20
-1269.4835604299719
 30
0.0
 41
0.9990226101773474
 10
937.23871102602459
 20
-1269.5210378615866
 30
0.0
 41
1.0
 10
937.31537016782215
 20
-1269.5585096581394
 30
0.0
 41
0.9988424273972117
 10
937.38807379503419
 20
-1269.6031744333923
 30
0.0
 41
1.0
 10
937.38834150341393
 20
-1269.6033388974647
 30
0.0
 41
1.0
 10
937.38860921179366
 20
-1269.6035033615372
 30
0.0
 41
1.0
 10
937.46184825576449
 20
-1269.6484970649346
 30
0.0
 41
0.9986928844491282
 10
937.53011112247418
 20
-1269.7007327992142
 30
0.0
 41
1.0
 10
937.530692414697
 20
-1269.7011776124421
 30
0.0
 41
1.0
 10
937.53127370691982
 20
-1269.7016224256699
 30
0.0
 41
1.0
 10
937.60069915807503
 20
-1269.7547477864055
 30
0.0
 41
0.998600726227902
 10
937.66412532784193
 20
-1269.814908556099
 30
0.0
 41
1.0
 10
937.66501974329913
 20
-1269.815756923934
 30
0.0
 41
1.0
 10
937.66591415875632
 20
-1269.8166052917691
 30
0.0
 41
1.0
 10
937.73112915943716
 20
-1269.8784627971327
 30
0.0
 41
0.9985581491382038
 10
937.78933677113901
 20
-1269.9469552874043
 30
0.0
 41
1.0
 10
937.79859522473487
 20
-1269.9578496451061
 30
0.0
 41
1.0
 10
937.80785367833073
 20
-1269.9687440028079
 30
0.0
 41
1.0
 10
937.8845781972235
 20
-1270.0590252084824
 30
0.0
 41
0.9970460233520153
 10
937.94657009838295
 20
-1270.1599922926641
 30
0.0
 41
1.0
 10
937.96103946346238
 20
-1270.1835587517453
 30
0.0
 41
1.0
 10
937.97550882854193
 20
-1270.2071252108262
 30
0.0
 41
1.0
 10
938.0152455285546
 20
-1270.2718449348586
 30
0.0
 41
0.9988468816636342
 10
938.0485918993063
 20
-1270.3400773872866
 30
0.0
 41
1.0
 10
938.05562792179842
 20
-1270.3544743084253
 30
0.0
 41
1.0
 10
938.06266394429053
 20
-1270.3688712295639
 30
0.0
 41
1.0
 10
938.08193827005812
 20
-1270.408309839715
 30
0.0
 41
0.9998431189996929
 10
938.09980359755286
 20
-1270.448406394155
 30
0.0
 41
1.0
 10
938.11766892508149
 20
-1270.4885029486711
 30
0.0
 41
0.9999989990028213
 10
938.13564764851083
 20
-1270.5285487862709
 30
0.0
 41
1.0
 10
938.1418199600846
 20
-1270.5422970030377
 30
0.0
 41
1.0
 10
938.14799227165827
 20
-1270.5560452198047
 30
0.0
 41
1.0
 10
938.17831561826858
 20
-1270.6235874910133
 30
0.0
 41
0.9998790356321278
 10
938.20652349840657
 20
-1270.692040242951
 30
0.0
 41
1.0
 10
938.2133586796906
 20
-1270.7086273443774
 30
0.0
 41
1.0
 10
938.22019386097452
 20
-1270.7252144458039
 30
0.0
 41
1.0
 10
938.24375152335631
 20
-1270.782382400693
 30
0.0
 41
0.9998227574561287
 10
938.26514027174494
 20
-1270.8403967089689
 30
0.0
 41
1.0
 10
938.28652902013437
 20
-1270.8984110172464
 30
0.0
 41
0.9996797971040683
 10
938.30495530509347
 20
-1270.9574331363644
 30
0.0
 41
1.0
 10
938.30885910781899
 20
-1270.9699375945333
 30
0.0
 41
1.0
 10
938.31276291054451
 20
-1270.9824420527023
 30
0.0
 41
1.0
 10
938.33899680095487
 20
-1271.0664730881583
 30
0.0
 41
0.9979274938734355
 10
938.35422132443409
 20
-1271.1531774468187
 30
0.0
 41
1.0
 10
938.35644501169486
 20
-1271.1658414476378
 30
0.0
 41
1.0
 10
938.35866869895574
 20
-1271.1785054484569
 30
0.0
 41
1.0
 10
938.36959863865468
 20
-1271.2407519557507
 30
0.0
 41
0.9994985982137418
 10
938.37656680383157
 20
-1271.303565456893
 30
0.0
 41
1.0
 10
938.38353496900834
 20
-1271.3663789580341
 30
0.0
 41
0.9996372611202241
 10
938.38711083477619
 20
-1271.4294765367163
 30
0.0
 41
1.0
 10
938.38727941226557
 20
-1271.4324511537989
 30
0.0
 41
1.0
 10
938.38744798975495
 20
-1271.4354257708817
 30
0.0
 41
1.0
 10
938.39136101050121
 20
-1271.5044725837272
 30
0.0
 41
0.9997730630737304
 10
938.39232932398932
 20
-1271.5736234077599
 30
0.0
 41
1.0
 10
938.39238643040744
 20
-1271.5777015869028
 30
0.0
 41
1.0
 10
938.39244353682557
 20
-1271.5817797660457
 30
0.0
 41
1.0
 10
938.39352606315003
 20
-1271.6590869483659
 30
0.0
 41
0.9998772614071205
 10
938.39218597641809
 20
-1271.7363900949258
 30
0.0
 41
1.0
 10
938.39209671321942
 20
-1271.7415392587618
 30
0.0
 41
1.0
 10
938.39200745002063
 20
-1271.7466884225978
 30
0.0
 41
1.0
 10
938.39048883689088
 20
-1271.8342898968456
 30
0.0
 41
0.9999415567328895
 10
938.38707652664482
 20
-1271.9218380585235
 30
0.0
 41
1.0
 10
938.38683520596987
 20
-1271.9280295182525
 30
0.0
 41
1.0
 10
938.38659388529481
 20
-1271.9342209779818
 30
0.0
 41
1.0
 10
938.38269893369829
 20
-1272.0341520591321
 30
0.0
 41
0.9999716810424969
 10
938.37730035057984
 20
-1272.1340131973593
 30
0.0
 41
1.0
 10
938.37408755179058
 20
-1272.1934424470248
 30
0.0
 41
1.0
 10
938.37087475300132
 20
-1272.2528716966904
 30
0.0
 41
1.0
 10
938.36280084384907
 20
-1272.4022200979639
 30
0.0
 41
0.999981912990807
 10
938.35293105223286
 20
-1272.5514605756673
 30
0.0
 41
1.0
 10
938.34306126061631
 20
-1272.7007010533787
 30
0.0
 41
1.0
 10
938.34062194005242
 20
-1272.737894099228
 30
0.0
 41
1.0
 10
938.36332017388281
 20
-1272.6991531018994
 30
0.0
 41
0.9999982127994569
 10
938.38616473264733
 20
-1272.6604982079261
 30
0.0
 41
1.0
 10
938.41307429252788
 20
-1272.6149649938779
 30
0.0
 41
1.0
 10
938.43998385240855
 20
-1272.56943177983
 30
0.0
 41
1.0
 10
938.51664753093405
 20
-1272.4397104577608
 30
0.0
 41
0.9998609190057378
 10
938.59759484379663
 20
-1272.3126180758304
 30
0.0
 41
1.0
 10
938.6272431652792
 20
-1272.2660683428717
 30
0.0
 41
1.0
 10
938.65689148676188
 20
-1272.2195186099132
 30
0.0
 41
1.0
 10
938.7391637069984
 20
-1272.090346039919
 30
0.0
 41
0.99990676097348
 10
938.82493271646081
 20
-1271.9634683504801
 30
0.0
 41
1.0
 10
938.82733741966047
 20
-1271.9599110844269
 30
0.0
 41
1.0
 10
938.82974212286013
 20
-1271.9563538183741
 30
0.0
 41
1.0
 10
938.91070172592117
 20
-1271.8365906610438
 30
0.0
 41
0.9998784952150989
 10
938.99535533560618
 20
-1271.7194094443303
 30
0.0
 41
1.0
 10
939.08000894528686
 20
-1271.6022282276222
 30
0.0
 41
0.9998532968284253
 10
939.16862656610863
 20
-1271.488015319153
 30
0.0
 41
1.0
 10
939.18858835510105
 20
-1271.4622879981312
 30
0.0
 41
1.0
 10
939.20855014409358
 20
-1271.4365606771091
 30
0.0
 41
1.0
 10
939.32703419385189
 20
-1271.2838550661415
 30
0.0
 41
0.9991551975795396
 10
939.45765864347482
 20
-1271.1413955040587
 30
0.0
 41
1.0
 10
939.46116825945319
 20
-1271.1375679024359
 30
0.0
 41
1.0
 10
939.46467787543156
 20
-1271.1337403008131
 30
0.0
 41
1.0
 10
939.58828309309649
 20
-1270.9989359419769
 30
0.0
 41
0.9997418144181018
 10
939.71788523279884
 20
-1270.8698865313627
 30
0.0
 41
1.0
 10
939.84748737249879
 20
-1270.7408371207507
 30
0.0
 41
0.9989238204633436
 10
939.98848992074886
 20
-1270.6243521587126
 30
0.0
 41
1.0
 10
940.03373759888882
 20
-1270.5869721671033
 30
0.0
 41
1.0
 10
940.07898527702889
 20
-1270.5495921754944
 30
0.0
 41
1.0
 10
940.21922533425129
 20
-1270.4337371222027
 30
0.0
 41
0.9990825084096853
 10
940.36886526685498
 20
-1270.3303081243698
 30
0.0
 41
1.0
 10
940.37891063090854
 20
-1270.3233649112926
 30
0.0
 41
1.0
 10
940.38895599496209
 20
-1270.3164216982154
 30
0.0
 41
1.0
 10
940.51850519945401
 20
-1270.2268791265401
 30
0.0
 41
0.9998164899825488
 10
940.65138940283521
 20
-1270.1423648850205
 30
0.0
 41
1.0
 10
940.6632349633619
 20
-1270.1348311184943
 30
0.0
 41
1.0
 10
940.67508052388871
 20
-1270.1272973519681
 30
0.0
 41
1.0
 10
940.78427360621254
 20
-1270.0578506435036
 30
0.0
 41
0.9997473449130691
 10
940.89647756346085
 20
-1269.9933816856885
 30
0.0
 41
1.0
 10
941.00868152070916
 20
-1269.9289127278735
 30
0.0
 41
0.9999327861147479
 10
941.12235013146881
 20
-1269.8670627361942
 30
0.0
 41
1.0
 10
941.12290213403207
 20
-1269.8667623775136
 30
0.0
 41
1.0
 10
941.12345413659523
 20
-1269.8664620188331
 30
0.0
 41
1.0
 10
941.23822675247948
 20
-1269.8040113097936
 30
0.0
 41
0.9996956420483157
 10
941.35594007832071
 20
-1269.7472978428182
 30
0.0
 41
1.0
 10
941.38638048321218
 20
-1269.7326318660889
 30
0.0
 41
1.0
 10
941.41682088810353
 20
-1269.7179658893597
 30
0.0
 41
1.0
 10
941.51979799484729
 20
-1269.6683522309161
 30
0.0
 41
0.9998070570175864
 10
941.6246443837905
 20
-1269.622821644014
 30
0.0
 41
1.0
 10
941.72949077273347
 20
-1269.5772910571125
 30
0.0
 41
0.9997827436147611
 10
941.83614370934311
 20
-1269.5361698858005
 30
0.0
 41
1.0
 10
941.85536655897363
 20
-1269.5287583121685
 30
0.0
 41
1.0
 10
941.87458940860415
 20
-1269.5213467385365
 30
0.0
 41
1.0
 10
942.01968804447756
 20
-1269.4654024199597
 30
0.0
 41
0.9988031841976367
 10
942.16955840708204
 20
-1269.4239023557921
 30
0.0
 41
1.0
 10
942.19447565544601
 20
-1269.417002609985
 30
0.0
 41
1.0
 10
942.2193929038101
 20
-1269.4101028641778
 30
0.0
 41
1.0
 10
942.38666292945641
 20
-1269.3637847217713
 30
0.0
 41
0.9984748040550027
 10
942.55801983810409
 20
-1269.3361904895066
 30
0.0
 41
1.0
 10
942.56275897435319
 20
-1269.3354273289933
 30
0.0
 41
1.0
 10
942.56749811060229
 20
-1269.3346641684798
 30
0.0
 41
1.0
 10
942.72937674675302
 20
-1269.3085962572418
 30
0.0
 41
0.998443649547984
 10
942.89315149047775
 20
-1269.3007183034231
 30
0.0
 41
1.0
 10
942.91484869860903
 20
-1269.2996746162235
 30
0.0
 41
1.0
 10
942.93654590674032
 20
-1269.2986309290238
 30
0.0
 41
1.0
 10
943.05692623420248
 20
-1269.2928403496044
 30
0.0
 41
0.9987954789335222
 10
943.17729447911233
 20
-1269.2988768773466
 30
0.0
 41
1.0
 10
943.19725927160812
 20
-1269.2998781216852
 30
0.0
 41
1.0
 10
943.21722406410402
 20
-1269.300879366024
 30
0.0
 41
1.0
 10
943.29766272402367
 20
-1269.3049134050891
 30
0.0
 41
0.9997941595877944
 10
943.37787150211659
 20
-1269.31220747101
 30
0.0
 41
1.0
 10
943.45808028021474
 20
-1269.3195015369315
 30
0.0
 41
0.9998589466237378
 10
943.53799882707324
 20
-1269.3294853913821
 30
0.0
 41
1.0
 10
943.57040502887787
 20
-1269.3335337483009
 30
0.0
 41
1.0
 10
943.60281123068251
 20
-1269.3375821052196
 30
0.0
 41
1.0
 10
943.74754218115311
 20
-1269.3556626735078
 30
0.0
 41
0.9993495063249657
 10
943.89059342491794
 20
-1269.3841283832494
 30
0.0
 41
1.0
 10
943.92352712207162
 20
-1269.3906818464645
 30
0.0
 41
1.0
 10
943.95646081922541
 20
-1269.3972353096797
 30
0.0
 41
1.0
 10
944.0657546424286
 20
-1269.4189836438147
 30
0.0
 41
0.9996788715561203
 10
944.17380621438463
 20
-1269.4462414431778
 30
0.0
 41
1.0
 10
944.17586921692418
 20
-1269.4467618697508
 30
0.0
 41
1.0
 10
944.17793221946386
 20
-1269.4472822963239
 30
0.0
 41
1.0
 10
944.28185778634179
 20
-1269.473499242541
 30
0.0
 41
0.9995480654492639
 10
944.38402002157045
 20
-1269.5059141991651
 30
0.0
 41
1.0
 10
944.38570966369957
 20
-1269.506450304079
 30
0.0
 41
1.0
 10
944.38739930582858
 20
-1269.506986408993
 30
0.0
 41
1.0
 10
944.48618225679979
 20
-1269.5383291557896
 30
0.0
 41
0.9993867959456058
 10
944.58252941524245
 20
-1269.5765085250794
 30
0.0
 41
1.0
 10
944.58377236432659
 20
-1269.5770010669753
 30
0.0
 41
1.0
 10
944.58501531341074
 20
-1269.5774936088712
 30
0.0
 41
1.0
 10
944.67887657368453
 20
-1269.6146878943689
 30
0.0
 41
0.9992050256521701
 10
944.76947624871832
 20
-1269.6592417936079
 30
0.0
 41
1.0
 10
944.77021093143173
 20
-1269.6596030860692
 30
0.0
 41
1.0
 10
944.77094561414515
 20
-1269.6599643785305
 30
0.0
 41
1.0
 10
944.86007592375256
 20
-1269.7037956928471
 30
0.0
 41
0.9990222350741896
 10
944.94498598514542
 20
-1269.7553289605448
 30
0.0
 41
1.0
 10
944.94516987042812
 20
-1269.7554405634496
 30
0.0
 41
1.0
 10
944.9453537557107
 20
-1269.7555521663544
 30
0.0
 41
1.0
 10
945.02989604653862
 20
-1269.8068622282428
 30
0.0
 41
0.9988642743805378
 10
945.10917058115797
 20
-1269.8659864157685
 30
0.0
 41
1.0
 10
945.18844511577777
 20
-1269.9251106032943
 30
0.0
 41
0.9987681233310948
 10
945.26146890005373
 20
-1269.9918012946951
 30
0.0
 41
1.0
 10
945.26179782801933
 20
-1269.992101695909
 30
0.0
 41
1.0
 10
945.26212675598481
 20
-1269.992402097123
 30
0.0
 41
1.0
 10
945.33580839619253
 20
-1270.0596935909521
 30
0.0
 41
0.9987496570898327
 10
945.40240220151964
 20
-1270.1340064050387
 30
0.0
 41
1.0
 10
945.4031743712801
 20
-1270.1348680783967
 30
0.0
 41
1.0
 10
945.40394654104057
 20
-1270.1357297517545
 30
0.0
 41
1.0
 10
945.47208468588769
 20
-1270.2117659125556
 30
0.0
 41
0.9988147669826568
 10
945.53250694011274
 20
-1270.2940669193981
 30
0.0
 41
1.0
 10
945.53362626619094
 20
-1270.2955915507514
 30
0.0
 41
1.0
 10
945.53474559226913
 20
-1270.2971161821044
 30
0.0
 41
1.0
 10
945.59740649865012
 20
-1270.382466451653
 30
0.0
 41
0.9989452636216534
 10
945.65197341161115
 20
-1270.4732051408103
 30
0.0
 41
1.0
 10
945.6533221376967
 20
-1270.4754479218363
 30
0.0
 41
1.0
 10
945.65467086378226
 20
-1270.4776907028622
 30
0.0
 41
1.0
 10
945.71193522891508
 20
-1270.5729149540723
 30
0.0
 41
0.9991046436070149
 10
945.76094444223668
 20
-1270.6726393870979
 30
0.0
 41
1.0
 10
945.76240830382665
 20
-1270.6756180671705
 30
0.0
 41
1.0
 10
945.76387216541661
 20
-1270.6785967472429
 30
0.0
 41
1.0
 10
945.81580910191849
 20
-1270.7842785404134
 30
0.0
 41
0.9992763831100686
 10
945.85956223047356
 20
-1270.8936026023694
 30
0.0
 41
1.0
 10
945.86104150013682
 20
-1270.8972987899028
 30
0.0
 41
1.0
 10
945.86252076980008
 20
-1270.9009949774363
 30
0.0
 41
1.0
 10
945.90923243768202
 20
-1271.0177114144599
 30
0.0
 41
0.9994163472883417
 10
945.94786546887065
 20
-1271.1373450029207
 30
0.0
 41
1.0
 10
945.94910362111762
 20
-1271.1411791467042
 30
0.0
 41
1.0
 10
945.95034177336458
 20
-1271.1450132904877
 30
0.0
 41
1.0
 10
945.99022533438279
 20
-1271.268519351969
 30
0.0
 41
0.9997268055890305
 10
946.02429339029436
 20
-1271.3937543839181
 30
0.0
 41
1.0
 10
946.02522357056341
 20
-1271.3971737500249
 30
0.0
 41
1.0
 10
946.02615375083235
 20
-1271.4005931161316
 30
0.0
 41
1.0
 10
946.05836144620537
 20
-1271.5189894158641
 30
0.0
 41
0.9996701318999964
 10
946.08444706297678
 20
-1271.6388833691321
 30
0.0
 41
1.0
 10
946.11053267974671
 20
-1271.7587773223918
 30
0.0
 41
0.9995785451109173
 10
946.12961625708647
 20
-1271.8799830834237
 30
0.0
 41
1.0
 10
946.13383603926025
 20
-1271.9067842381889
 30
0.0
 41
1.0
 10
946.13805582143402
 20
-1271.9335853929542
 30
0.0
 41
1.0
 10
946.16463079737298
 20
-1272.1023713666589
 30
0.0
 41
0.9979925101216671
 10
946.16965638329941
 20
-1272.273162694752
 30
0.0
 41
1.0
 10
946.17048119572405
 20
-1272.3011934182314
 30
0.0
 41
1.0
 10
946.17130600814869
 20
-1272.3292241417107
 30
0.0
 41
1.0
 10
946.17468196922596
 20
-1272.4439540228411
 30
0.0
 41
0.9995314902263015
 10
946.17103177708725
 20
-1272.5586755065956
 30
0.0
 41
1.0
 10
946.16738158494877
 20
-1272.6733969903476
 30
0.0
 41
0.9996245486944185
 10
946.1574524898183
 20
-1272.7877462614679
 30
0.0
 41
1.0
 10
946.15728944182388
 20
-1272.7896240176051
 30
0.0
 41
1.0
 10
946.15712639382946
 20
-1272.7915017737421
 30
0.0
 41
1.0
 10
946.14687120271014
 20
-1272.9096065571362
 30
0.0
 41
0.9997286095000849
 10
946.13112587913827
 20
-1273.0271054660338
 30
0.0
 41
1.0
 10
946.13073238648803
 20
-1273.0300418907345
 30
0.0
 41
1.0
 10
946.13033889383792
 20
-1273.032978315435
 30
0.0
 41
1.0
 10
946.11380658496614
 20
-1273.1563500737316
 30
0.0
 41
0.9998265533969516
 10
946.09269112623485
 20
-1273.2790205485117
 30
0.0
 41
1.0
 10
946.09201458409689
 20
-1273.2829509270243
 30
0.0
 41
1.0
 10
946.09133804195881
 20
-1273.286881305537
 30
0.0
 41
1.0
 10
946.06886949895306
 20
-1273.4174125373343
 30
0.0
 41
0.9999022530850203
 10
946.04276003434313
 20
-1273.5472645059729
 30
0.0
 41
1.0
 10
946.04178139317719
 20
-1273.5521316483632
 30
0.0
 41
1.0
 10
946.04080275201125
 20
-1273.5569987907534
 30
0.0
 41
1.0
 10
946.01273600507079
 20
-1273.6965850441657
 30
0.0
 41
0.9999524761940857
 10
945.9819530362364
 20
-1273.8355975373281
 30
0.0
 41
1.0
 10
945.98067692906056
 20
-1273.841360296632
 30
0.0
 41
1.0
 10
945.97940082188484
 20
-1273.8471230559358
 30
0.0
 41
1.0
 10
945.94606563870184
 20
-1273.9976610676936
 30
0.0
 41
0.9999813588723593
 10
945.91089463790831
 20
-1274.1477807803399
 30
0.0
 41
1.0
 10
945.90934071244931
 20
-1274.1544133707728
 30
0.0
 41
1.0
 10
945.9077867869903
 20
-1274.1610459612057
 30
0.0
 41
1.0
 10
945.86950793528536
 20
-1274.3244308546891
 30
0.0
 41
0.9999955237628675
 10
945.83025205729962
 20
-1274.4875837583181
 30
0.0
 41
1.0
 10
945.8179704216659
 20
-1274.5386279488384
 30
0.0
 41
1.0
 10
945.80568878603208
 20
-1274.589672139359
 30
0.0
 41
1.0
 10
945.74186963675652
 20
-1274.8549134241198
 30
0.0
 41
0.999999360428612
 10
945.67745068958686
 20
-1275.1200096748107
 30
0.0
 41
1.0
 10
945.67273185405384
 20
-1275.1394285827935
 30
0.0
 41
1.0
 10
945.66801301852081
 20
-1275.1588474907762
 30
0.0
 41
1.0
 10
945.59415640025759
 20
-1275.4627815575461
 30
0.0
 41
0.9999659914733561
 10
945.51529680436977
 20
-1275.7654561041149
 30
0.0
 41
1.0
 10
945.51034411544174
 20
-1275.7844652412873
 30
0.0
 41
1.0
 10
945.50539142651382
 20
-1275.8034743784594
 30
0.0
 41
1.0
 10
945.4166264527704
 20
-1276.1441671993714
 30
0.0
 41
0.9999441976024506
 10
945.32068341980812
 20
-1276.4829086246664
 30
0.0
 41
1.0
 10
945.303982901381
 20
-1276.5418723371997
 30
0.0
 41
1.0
 10
945.28728238295389
 20
-1276.6008360497331
 30
0.0
 41
1.0
 10
945.15793831313897
 20
-1277.0575049000881
 30
0.0
 41
0.9999625120735777
 10
945.02070554581542
 20
-1277.5118654340847
 30
0.0
 41
1.0
 10
944.98491560273226
 20
-1277.6303614607123
 30
0.0
 41
1.0
 10
944.9491256596491
 20
-1277.7488574873398
 30
0.0
 41
1.0
 10
944.87460545560907
 20
-1277.995584565439
 30
0.0
 41
0.9999793386305091
 10
944.79691943247121
 20
-1278.2413332046756
 30
0.0
 41
1.0
 10
944.7192334093337
 20
-1278.4870818439117
 30
0.0
 41
1.0
 10
944.708453850463
 20
-1278.5210997482864
 30
0.0
 41
1.0
 10
942.85808079719391
 20
-1284.4081716707537
 30
0.0
 41
1.0
 10
941.0077077439247
 20
-1290.2952435932214
 30
0.0
 41
1.0
 10
940.04645105390114
 20
-1290.2952435932214
 30
0.0
 41
1.0
 10
939.08519436387758
 20
-1290.2952435932214
 30
0.0
 41
1.0
 10
940.70413914255596
 20
-1285.1472150914319
 30
0.0
 41
1.0
 10
942.32308392123446
 20
-1279.9991865896425
 30
0.0
 41
1.0
 10
942.36824974440469
 20
-1279.8551553673858
 30
0.0
 41
1.0
 10
942.41341556757482
 20
-1279.7111241451291
 30
0.0
 41
1.0
 10
942.58371998493703
 20
-1279.1680331159678
 30
0.0
 41
0.9999911657933933
 10
942.74945279662597
 20
-1278.6235295845765
 30
0.0
 41
1.0
 10
942.77914874012708
 20
-1278.5259656445239
 30
0.0
 41
1.0
 10
942.80884468362819
 20
-1278.4284017044713
 30
0.0
 41
1.0
 10
942.91518560830661
 20
-1278.0790260532117
 30
0.0
 41
0.9999952428160223
 10
943.01936919763125
 20
-1277.7290010288634
 30
0.0
 41
1.0
 10
943.02442866796468
 20
-1277.7120027545848
 30
0.0
 41
1.0
 10
943.02948813829823
 20
-1277.6950044803061
 30
0.0
 41
1.0
 10
943.12355278695372
 20
-1277.3789760045217
 30
0.0
 41
0.9999931687505125
 10
943.21527862482981
 20
-1277.0622607912433
 30
0.0
 41
1.0
 10
943.22021388928897
 20
-1277.0452200819732
 30
0.0
 41
1.0
 10
943.22514915374825
 20
-1277.0281793727031
 30
0.0
 41
1.0
 10
943.3070044627035
 20
-1276.7455455779727
 30
0.0
 41
0.999989384079751
 10
943.3862516891603
 20
-1276.4621694487262
 30
0.0
 41
1.0
 10
943.46549891561517
 20
-1276.1787933194869
 30
0.0
 41
0.9999833980073779
 10
943.54147515635339
 20
-1275.8945227364716
 30
0.0
 41
1.0
 10
943.55047909307973
 20
-1275.8608338579779
 30
0.0
 41
1.0
 10
943.55948302980607
 20
-1275.8271449794845
 30
0.0
 41
1.0
 10
943.62844757867151
 20
-1275.5691091471917
 30
0.0
 41
0.9999233658069258
 10
943.69100254989064
 20
-1275.3094449884732
 30
0.0
 41
1.0
 10
943.75355752111091
 20
-1275.0497808297507
 30
0.0
 41
1.0
 10
943.79304093996848
 20
-1274.8859741653246
 30
0.0
 41
1.0
 10
943.7980195439427
 20
-1274.8653192034672
 30
0.0
 41
1.0
 10
943.80299814791681
 20
-1274.8446642416097
 30
0.0
 41
1.0
 10
943.83252435882366
 20
-1274.7221675009089
 30
0.0
 41
0.9999868670850119
 10
943.86079344282223
 20
-1274.599374555253
 30
0.0
 41
1.0
 10
943.86469092998141
 20
-1274.5824449678298
 30
0.0
 41
1.0
 10
943.86858841714059
 20
-1274.5655153804066
 30
0.0
 41
1.0
 10
943.88906252682125
 20
-1274.4765816095958
 30
0.0
 41
0.9999778173351102
 10
943.9083501249338
 20
-1274.3873829923771
 30
0.0
 41
1.0
 10
943.92763772305125
 20
-1274.2981843751368
 30
0.0
 41
0.9999602692864088
 10
943.94533208168252
 20
-1274.2086560867081
 30
0.0
 41
1.0
 10
943.94853591375886
 20
-1274.1924456318284
 30
0.0
 41
1.0
 10
943.95173974583531
 20
-1274.1762351769489
 30
0.0
 41
1.0
 10
943.97584176862085
 20
-1274.0542859787527
 30
0.0
 41
0.9995617985320739
 10
943.99268511583955
 20
-1273.9311242310489
 30
0.0
 41
1.0
 10
943.99514960574629
 20
-1273.9131034136794
 30
0.0
 41
1.0
 10
943.99761409565303
 20
-1273.8950825963102
 30
0.0
 41
1.0
 10
944.01789735670104
 20
-1273.7467675466112
 30
0.0
 41
0.9991121410639396
 10
944.0256227102891
 20
-1273.5972714478066
 30
0.0
 41
1.0
 10
944.02654150031356
 20
-1273.5794916112329
 30
0.0
 41
1.0
 10
944.02746029033801
 20
-1273.5617117746592
 30
0.0
 41
1.0
 10
944.03334806387727
 20
-1273.4477753490028
 30
0.0
 41
0.998979249490589
 10
944.02892897176002
 20
-1273.3337725131018
 30
0.0
 41
1.0
 10
944.02828099989131
 20
-1273.317056267173
 30
0.0
 41
1.0
 10
944.02763302802259
 20
-1273.3003400212442
 30
0.0
 41
1.0
 10
944.02450987964255
 20
-1273.2197696772018
 30
0.0
 41
0.9997820295394202
 10
944.01802588226701
 20
-1273.1393999554596
 30
0.0
 41
1.0
 10
944.01154188489147
 20
-1273.0590302337168
 30
0.0
 41
0.9998335105972239
 10
944.0021296893799
 20
-1272.9789506172679
 30
0.0
 41
1.0
 10
944.00053476470339
 20
-1272.9653808867836
 30
0.0
 41
1.0
 10
943.99893984002688
 20
-1272.9518111562993
 30
0.0
 41
1.0
 10
943.98633779516285
 20
-1272.8445920788859
 30
0.0
 41
0.9996876457879258
 10
943.96839388236424
 20
-1272.7381366511679
 30
0.0
 41
1.0
 10
943.96616221921852
 20
-1272.7248969159234
 30
0.0
 41
1.0
 10
943.9639305560728
 20
-1272.7116571806789
 30
0.0
 41
1.0
 10
943.95013473465178
 20
-1272.6298110367209
 30
0.0
 41
0.9995547496493844
 10
943.93148141275992
 20
-1272.5489335395341
 30
0.0
 41
1.0
 10
943.93110745588865
 20
-1272.5473121288285
 30
0.0
 41
1.0
 10
943.93073349901726
 20
-1272.5456907181228
 30
0.0
 41
1.0
 10
943.91282809086772
 20
-1272.4680560423446
 30
0.0
 41
0.9994899427175575
 10
943.89000318218791
 20
-1272.3917227595084
 30
0.0
 41
1.0
 10
943.88954465544703
 20
-1272.3901893097191
 30
0.0
 41
1.0
 10
943.88908612870603
 20
-1272.3886558599299
 30
0.0
 41
1.0
 10
943.8671782735089
 20
-1272.3153894766754
 30
0.0
 41
0.9993784877591198
 10
943.84016263840203
 20
-1272.2438487715151
 30
0.0
 41
1.0
 10
943.83963094742512
 20
-1272.2424407887945
 30
0.0
 41
1.0
 10
943.83909925644821
 20
-1272.2410328060739
 30
0.0
 41
1.0
 10
943.81314700329528
 20
-1272.1723080663555
 30
0.0
 41
0.9992430832254525
 10
943.78193046813612
 20
-1272.1058089142878
 30
0.0
 41
1.0
 10
943.7813483520797
 20
-1272.1045688591707
 30
0.0
 41
1.0
 10
943.78076623602328
 20
-1272.1033288040539
 30
0.0
 41
1.0
 10
943.75071393297708
 20
-1272.03930976222
 30
0.0
 41
0.9990789632797902
 10
943.71528330620004
 20
-1271.9781031504699
 30
0.0
 41
1.0
 10
943.7146876000179
 20
-1271.9770740646104
 30
0.0
 41
1.0
 10
943.71409189383576
 20
-1271.9760449787511
 30
0.0
 41
1.0
 10
943.67985267942322
 20
-1271.9168965387198
 30
0.0
 41
0.9988874801119577
 10
943.64019340339132
 20
-1271.8612368263025
 30
0.0
 41
1.0
 10
943.63963787732678
 20
-1271.8604571746273
 30
0.0
 41
1.0
 10
943.63908235126223
 20
-1271.8596775229523
 30
0.0
 41
1.0
 10
943.60053412735897
 20
-1271.8055771138843
 30
0.0
 41
0.9986762060692752
 10
943.55663165608303
 20
-1271.7557233994453
 30
0.0
 41
1.0
 10
943.55618769575119
 20
-1271.7552192576291
 30
0.0
 41
1.0
 10
943.55574373541936
 20
-1271.7547151158128
 30
0.0
 41
1.0
 10
943.5127291848072
 20
-1271.7058696850067
 30
0.0
 41
0.9984621642489411
 10
943.46457162802903
 20
-1271.6620863845351
 30
0.0
 41
1.0
 10
943.46432499351238
 20
-1271.6618621523717
 30
0.0
 41
1.0
 10
943.46407835899572
 20
-1271.661637920208
 30
0.0
 41
1.0
 10
943.41641407125121
 20
-1271.6183030840639
 30
0.0
 41
0.9982724693850277
 10
943.36399543940979
 20
-1271.5808587335464
 30
0.0
 41
1.0
 10
943.31157680756803
 20
-1271.543414383028
 30
0.0
 41
0.9981399180157394
 10
943.25499074417451
 20
-1271.5126278635848
 30
0.0
 41
1.0
 10
943.25494508209636
 20
-1271.5126030204278
 30
0.0
 41
1.0
 10
943.25489942001809
 20
-1271.5125781772708
 30
0.0
 41
1.0
 10
943.19822203246781
 20
-1271.481741971513
 30
0.0
 41
0.9980927086836943
 10
943.13817668140155
 20
-1271.4581251626605
 30
0.0
 41
1.0
 10
943.13773651168981
 20
-1271.4579520367856
 30
0.0
 41
1.0
 10
943.13729634197807
 20
-1271.4577789109105
 30
0.0
 41
1.0
 10
943.07637065148765
 20
-1271.4338158503078
 30
0.0
 41
0.99814113565616
 10
943.01298213008727
 20
-1271.4174432088021
 30
0.0
 41
1.0
 10
943.01210001338666
 20
-1271.4172153665968
 30
0.0
 41
1.0
 10
943.01121789668605
 20
-1271.4169875243915
 30
0.0
 41
1.0
 10
942.94606514188513
 20
-1271.4001591984754
 30
0.0
 41
0.9983031812935466
 10
942.87939771289132
 20
-1271.3910198372992
 30
0.0
 41
1.0
 10
942.87052668748538
 20
-1271.3898037186275
 30
0.0
 41
1.0
 10
942.86165566207933
 20
-1271.3885875999558
 30
0.0
 41
1.0
 10
942.80730601957634
 20
-1271.3811368699648
 30
0.0
 41
0.9983887708263683
 10
942.75246217028428
 20
-1271.3798921963316
 30
0.0
 41
1.0
 10
942.74439876506869
 20
-1271.3797091984568
 30
0.0
 41
1.0
 10
942.73633535985311
 20
-1271.3795262005819
 30
0.0
 41
1.0
 10
942.69761832099323
 20
-1271.3786475226984
 30
0.0
 41
0.9998869563078989
 10
942.65889236778878
 20
-1271.3789333920581
 30
0.0
 41
1.0
 10
942.62016641458081
 20
-1271.3792192614178
 30
0.0
 41
0.9999972320124224
 10
942.58144223536431
 20
-1271.3796873609469
 30
0.0
 41
1.0
 10
942.56208921878988
 20
-1271.3799213010361
 30
0.0
 41
1.0
 10
942.54273620221534
 20
-1271.3801552411255
 30
0.0
 41
1.0
 10
942.46530598984816
 20
-1271.3810912208335
 30
0.0
 41
0.9997304945086716
 10
942.38800268361433
 20
-1271.3856203146192
 30
0.0
 41
1.0
 10
942.37895304190647
 20
-1271.3861505206094
 30
0.0
 41
1.0
 10
942.3699034001985
 20
-1271.3866807265995
 30
0.0
 41
1.0
 10
942.27450081055338
 20
-1271.3922702323653
 30
0.0
 41
0.9997888306416475
 10
942.1794084747122
 20
-1271.401775196854
 30
0.0
 41
1.0
 10
942.17068741313824
 20
-1271.4026469114863
 30
0.0
 41
1.0
 10
942.16196635156427
 20
-1271.4035186261185
 30
0.0
 41
1.0
 10
942.04943189257585
 20
-1271.414767019872
 30
0.0
 41
0.9984170238191086
 10
941.93887274522422
 20
-1271.4385831018078
 30
0.0
 41
1.0
 10
941.90249161423799
 20
-1271.446420137614
 30
0.0
 41
1.0
 10
941.86611048325176
 20
-1271.45425717342
 30
0.0
 41
1.0
 10
941.75091941483049
 20
-1271.4790710399295
 30
0.0
 41
0.9976592854199005
 10
941.64019124842548
 20
-1271.5193697170766
 30
0.0
 41
1.0
 10
941.52946308202092
 20
-1271.5596683942238
 30
0.0
 41
0.9993255074352395
 10
941.42199128323045
 20
-1271.607985292716
 30
0.0
 41
1.0
 10
941.41736610430678
 20
-1271.6100646689158
 30
0.0
 41
1.0
 10
941.4127409253831
 20
-1271.6121440451157
 30
0.0
 41
1.0
 10
941.29601876874676
 20
-1271.6646196960073
 30
0.0
 41
0.9976475078275494
 10
941.18757142443644
 20
-1271.7325676856656
 30
0.0
 41
1.0
 10
941.16922903030184
 20
-1271.7440601644798
 30
0.0
 41
1.0
 10
941.15088663616723
 20
-1271.7555526432943
 30
0.0
 41
1.0
 10
941.06668444461513
 20
-1271.8083097640626
 30
0.0
 41
0.9995131336407198
 10
940.98593672965615
 20
-1271.8662159760167
 30
0.0
 41
1.0
 10
940.9051890147008
 20
-1271.9241221879686
 30
0.0
 41
0.9995810107606381
 10
940.82792736697183
 20
-1271.9866038704345
 30
0.0
 41
1.0
 10
940.82495733576081
 20
-1271.9890057418997
 30
0.0
 41
1.0
 10
940.82198730454979
 20
-1271.991407613365
 30
0.0
 41
1.0
 10
940.73878559439936
 20
-1272.0586930387612
 30
0.0
 41
0.9996617837954935
 10
940.65919490726219
 20
-1272.1302134943228
 30
0.0
 41
1.0
 10
940.64706415638625
 20
-1272.1411142273125
 30
0.0
 41
1.0
 10
940.63493340551031
 20
-1272.1520149603023
 30
0.0
 41
1.0
 10
940.56665787811323
 20
-1272.213367575775
 30
0.0
 41
0.9997267750052307
 10
940.5013243698304
 20
-1272.2778441122996
 30
0.0
 41
1.0
 10
940.43599086154472
 20
-1272.3423206488269
 30
0.0
 41
0.9999667288956335
 10
940.37171791838898
 20
-1272.4078544557306
 30
0.0
 41
1.0
 10
940.30289047061933
 20
-1272.4780321144833
 30
0.0
 41
1.0
 10
940.2340630228498
 20
-1272.5482097732361
 30
0.0
 41
1.0
 10
940.03213518415043
 20
-1272.7540988976493
 30
0.0
 41
0.9988205335174498
 10
939.85112956717023
 20
-1272.9786031297115
 30
0.0
 41
1.0
 10
939.82048960226712
 20
-1273.0166063801394
 30
0.0
 41
1.0
 10
939.78984963736411
 20
-1273.0546096305673
 30
0.0
 41
1.0
 10
939.54756409057325
 20
-1273.35512036349
 30
0.0
 41
0.9997077826755066
 10
939.32008613946664
 20
-1273.6669901577086
 30
0.0
 41
1.0
 10
939.31836272433782
 20
-1273.6693529410859
 30
0.0
 41
1.0
 10
939.31663930920899
 20
-1273.6717157244632
 30
0.0
 41
1.0
 10
939.08571452784224
 20
-1273.9883110854394
 30
0.0
 41
0.9989147567078731
 10
938.88525102495805
 20
-1274.3250205466256
 30
0.0
 41
1.0
 10
938.86050987965314
 20
-1274.3665771271747
 30
0.0
 41
1.0
 10
938.83576873434811
 20
-1274.4081337077237
 30
0.0
 41
1.0
 10
938.68055743570801
 20
-1274.6688350921813
 30
0.0
 41
0.9997476598181834
 10
938.53721244819849
 20
-1274.9362448407635
 30
0.0
 41
1.0
 10
938.39386746068885
 20
-1275.2036545893459
 30
0.0
 41
0.9996258967109621
 10
938.26535920875722
 20
-1275.47850252597
 30
0.0
 41
1.0
 10
938.25215929930528
 20
-1275.5067339260704
 30
0.0
 41
1.0
 10
938.23895938985345
 20
-1275.5349653261705
 30
0.0
 41
1.0
 10
938.09875066885752
 20
-1275.8348377241155
 30
0.0
 41
0.9998735413946722
 10
937.96814932213738
 20
-1276.1390173235823
 30
0.0
 41
1.0
 10
937.96470649407797
 20
-1276.1470359090445
 30
0.0
 41
1.0
 10
937.96126366601868
 20
-1276.1550544945064
 30
0.0
 41
1.0
 10
937.83754797541678
 20
-1276.4431969230504
 30
0.0
 41
0.9999377418858403
 10
937.72029317324223
 20
-1276.7340283907251
 30
0.0
 41
1.0
 10
937.60303837106585
 20
-1277.0248598584039
 30
0.0
 41
0.9999508299510196
 10
937.49157442768887
 20
-1277.3179595352246
 30
0.0
 41
1.0
 10
937.48849365902686
 20
-1277.3260605611872
 30
0.0
 41
1.0
 10
937.48541289036484
 20
-1277.33416158715
 30
0.0
 41
1.0
 10
937.3677874096627
 20
-1277.6434633158983
 30
0.0
 41
0.999960922843368
 10
937.2556488067878
 20
-1277.9547963319164
 30
0.0
 41
1.0
 10
937.25269279643851
 20
-1277.963003172325
 30
0.0
 41
1.0
 10
937.24973678608922
 20
-1277.9712100127335
 30
0.0
 41
1.0
 10
937.13168616252074
 20
-1278.2989567095551
 30
0.0
 41
0.9999674607398844
 10
937.01893863645125
 20
-1278.6285653295531
 30
0.0
 41
1.0
 10
936.96754024588631
 20
-1278.7788245252523
 30
0.0
 41
1.0
 10
936.91614185532126
 20
-1278.9290837209517
 30
0.0
 41
1.0
 10
936.80013124856396
 20
-1279.2682317034528
 30
0.0
 41
0.9999287532305496
 10
936.69224984459424
 20
-1279.610052442426
 30
0.0
 41
1.0
 10
936.64577258840859
 20
-1279.7573149869445
 30
0.0
 41
1.0
 10
936.59929533222282
 20
-1279.9045775314632
 30
0.0
 41
1.0
 10
936.58436844060225
 20
-1279.9518731814687
 30
0.0
 41
0.9999998222740031
 10
936.56949793189301
 20
-1279.9991865896425
 30
0.0
 41
1.0
 10
934.94884179509756
 20
-1285.1472150914319
 30
0.0
 41
1.0
 10
933.32818565830212
 20
-1290.2952435932214
 30
0.0
 41
1.0
 10
932.42287721441119
 20
-1290.2952435932214
 30
0.0
 41
1.0
 10
931.51756877052026
 20
-1290.2952435932214
 30
0.0
 41
1.0
 10
933.3696531819063
 20
-1284.4081716707537
 30
0.0
 41
1.0
 10
935.22173759329235
 20
-1278.5210997482864
 30
0.0
 41
1.0
 10
935.23185935159506
 20
-1278.4890565348367
 30
0.0
 41
1.0
 10
935.3044670204448
 20
-1278.2587569930108
 30
0.0
 41
1.0
 10
935.37707468928966
 20
-1278.0284574512007
 30
0.0
 41
0.9999825681973007
 10
935.44695772850241
 20
-1277.797316556132
 30
0.0
 41
1.0
 10
935.49524879066519
 20
-1277.6375919726295
 30
0.0
 41
1.0
 10
935.54353985282796
 20
-1277.4778673891269
 30
0.0
 41
1.0
 10
935.64069220614408
 20
-1277.1565321673552
 30
0.0
 41
0.9999672528959805
 10
935.7326310117669
 20
-1276.8336666217701
 30
0.0
 41
1.0
 10
935.73541989544242
 20
-1276.8238727763598
 30
0.0
 41
1.0
 10
935.73820877911794
 20
-1276.8140789309496
 30
0.0
 41
1.0
 10
935.82456981739676
 20
-1276.5108010761603
 30
0.0
 41
0.9999899749140881
 10
935.90821142692494
 20
-1276.2067619877312
 30
0.0
 41
1.0
 10
935.91831734594575
 20
-1276.170026750041
 30
0.0
 41
1.0
 10
935.92842326496645
 20
-1276.1332915123508
 30
0.0
 41
1.0
 10
935.99185303646118
 20
-1275.9027228992732
 30
0.0
 41
0.9999214200503117
 10
936.04948246483741
 20
-1275.6706365570694
 30
0.0
 41
1.0
 10
936.06224831701729
 20
-1275.6192256716763
 30
0.0
 41
1.0
 10
936.07501416919717
 20
-1275.567814786283
 30
0.0
 41
1.0
 10
936.1071118932116
 20
-1275.4385502148741
 30
0.0
 41
0.9999828681678958
 10
936.1376941452105
 20
-1275.3089187403928
 30
0.0
 41
1.0
 10
936.16827639720566
 20
-1275.1792872659271
 30
0.0
 41
0.9999389844479769
 10
936.1959873859945
 20
-1275.0490118100286
 30
0.0
 41
1.0
 10
936.20312512971509
 20
-1275.0154557061896
 30
0.0
 41
1.0
 10
936.21026287343557
 20
-1274.9818996023505
 30
0.0
 41
1.0
 10
936.25224934966468
 20
-1274.7845119387778
 30
0.0
 41
0.9998933699440634
 10
936.28845361406809
 20
-1274.5859823310136
 30
0.0
 41
1.0
 10
936.28982643928407
 20
-1274.5784543103186
 30
0.0
 41
1.0
 10
936.29119926450016
 20
-1274.5709262896237
 30
0.0
 41
1.0
 10
936.33014917933485
 20
-1274.3573406404732
 30
0.0
 41
0.9996850305194078
 10
936.35833285559409
 20
-1274.1420696350335
 30
0.0
 41
1.0
 10
936.36032788896307
 20
-1274.1268312809138
 30
0.0
 41
1.0
 10
936.36232292233205
 20
-1274.1115929267942
 30
0.0
 41
1.0
 10
936.3897307847916
 20
-1273.9022476996363
 30
0.0
 41
0.9994697936706172
 10
936.40345534401104
 20
-1273.6915625043061
 30
0.0
 41
1.0
 10
936.40393241326069
 20
-1273.6842390320949
 30
0.0
 41
1.0
 10
936.40440948251046
 20
-1273.6769155598838
 30
0.0
 41
1.0
 10
936.41717990323082
 20
-1273.480877308974
 30
0.0
 41
0.9991804893136589
 10
936.41405158695784
 20
-1273.2844484590019
 30
0.0
 41
1.0
 10
936.41396770813571
 20
-1273.2791816575891
 30
0.0
 41
1.0
 10
936.41388382931359
 20
-1273.2739148561761
 30
0.0
 41
1.0
 10
936.41092327068509
 20
-1273.0880196090282
 30
0.0
 41
0.9988448329321524
 10
936.39013172506134
 20
-1272.903267019195
 30
0.0
 41
1.0
 10
936.38853765135821
 20
-1272.8891021634229
 30
0.0
 41
1.0
 10
936.38694357765507
 20
-1272.8749373076507
 30
0.0
 41
1.0
 10
936.36934017943747
 20
-1272.718514429361
 30
0.0
 41
0.998550320945869
 10
936.33502390713807
 20
-1272.5648902452724
 30
0.0
 41
1.0
 10
936.32743791506732
 20
-1272.5309299178739
 30
0.0
 41
1.0
 10
936.31985192299646
 20
-1272.4969695904756
 30
0.0
 41
1.0
 10
936.30070763483911
 20
-1272.4112660611861
 30
0.0
 41
0.999103678137127
 10
936.2743827731872
 20
-1272.3274889738582
 30
0.0
 41
1.0
 10
936.27040054773101
 20
-1272.314815811347
 30
0.0
 41
1.0
 10
936.26641832227483
 20
-1272.3021426488358
 30
0.0
 41
1.0
 10
936.24805791153585
 20
-1272.2437118865325
 30
0.0
 41
0.9998874504367591
 10
936.22795270385768
 20
-1272.1858582843099
 30
0.0
 41
1.0
 10
936.2078474961794
 20
-1272.1280046820868
 30
0.0
 41
0.9994041637543277
 10
936.18379888324512
 20
-1272.0716759781974
 30
0.0
 41
1.0
 10
936.17960209902094
 20
-1272.0618459137149
 30
0.0
 41
1.0
 10
936.17540531479665
 20
-1272.0520158492325
 30
0.0
 41
1.0
 10
936.14752648380227
 20
-1271.9867156832656
 30
0.0
 41
0.999184684070209
 10
936.11447012710926
 20
-1271.9238776519855
 30
0.0
 41
1.0
 10
936.11333352071415
 20
-1271.9217170355309
 30
0.0
 41
1.0
 10
936.11219691431916
 20
-1271.9195564190761
 30
0.0
 41
1.0
 10
936.08141377041625
 20
-1271.8610396207052
 30
0.0
 41
0.9989253167921961
 10
936.04534434636116
 20
-1271.8056246923152
 30
0.0
 41
1.0
 10
936.04429022168654
 20
-1271.8040051975522
 30
0.0
 41
1.0
 10
936.04323609701191
 20
-1271.8023857027895
 30
0.0
 41
1.0
 10
936.00927492230596
 20
-1271.7502097639244
 30
0.0
 41
0.9986467172835135
 10
935.97007776966893
 20
-1271.7018437302954
 30
0.0
 41
1.0
 10
935.96920364096763
 20
-1271.7007651280164
 30
0.0
 41
1.0
 10
935.96832951226645
 20
-1271.6996865257377
 30
0.0
 41
1.0
 10
935.93088061703031
 20
-1271.6534776966644
 30
0.0
 41
0.9984001104267284
 10
935.8884538865143
 20
-1271.6117925892968
 30
0.0
 41
1.0
 10
935.8878667484048
 20
-1271.6112157144155
 30
0.0
 41
1.0
 10
935.88727961029542
 20
-1271.6106388395342
 30
0.0
 41
1.0
 10
935.84602715599658
 20
-1271.5701074819276
 30
0.0
 41
0.9982442159082056
 10
935.80027105466161
 20
-1271.5347389206679
 30
0.0
 41
1.0
 10
935.80005625919955
 20
-1271.5345728880245
 30
0.0
 41
1.0
 10
935.79984146373749
 20
-1271.5344068553811
 30
0.0
 41
1.0
 10
935.75451495332561
 20
-1271.4993703594075
 30
0.0
 41
0.9982450060835437
 10
935.70536397425417
 20
-1271.4699385763743
 30
0.0
 41
1.0
 10
935.65621299518295
 20
-1271.440506793341
 30
0.0
 41
0.998392263963522
 10
935.60404668901754
 20
-1271.4168271586864
 30
0.0
 41
1.0
 10
935.60381981169303
 20
-1271.416724173205
 30
0.0
 41
1.0
 10
935.60359293436863
 20
-1271.4166211877236
 30
0.0
 41
1.0
 10
935.55097287355488
 20
-1271.3927355821068
 30
0.0
 41
0.998651714715001
 10
935.49615990068673
 20
-1271.3744344629849
 30
0.0
 41
1.0
 10
935.49548197925901
 20
-1271.3742081165535
 30
0.0
 41
1.0
 10
935.49480405783129
 20
-1271.3739817701221
 30
0.0
 41
1.0
 10
935.43863524210747
 20
-1271.3552279581374
 30
0.0
 41
0.9989435598956137
 10
935.38098185495573
 20
-1271.3417102559029
 30
0.0
 41
1.0
 10
935.37990173537423
 20
-1271.3414570056498
 30
0.0
 41
1.0
 10
935.37882161579273
 20
-1271.3412037553969
 30
0.0
 41
1.0
 10
935.31900798947811
 20
-1271.3271795526564
 30
0.0
 41
0.9992249241239697
 10
935.25827648058089
 20
-1271.3179042099414
 30
0.0
 41
1.0
 10
935.25686279228967
 20
-1271.3176883015335
 30
0.0
 41
1.0
 10
935.25544910399856
 20
-1271.3174723931256
 30
0.0
 41
1.0
 10
935.1918902185206
 20
-1271.3077652335949
 30
0.0
 41
0.9994396597833583
 10
935.12782428198466
 20
-1271.3023323112491
 30
0.0
 41
1.0
 10
935.10868361450559
 20
-1271.3007091435302
 30
0.0
 41
1.0
 10
935.08954294702653
 20
-1271.2990859758115
 30
0.0
 41
1.0
 10
934.98719567553383
 20
-1271.2904067180286
 30
0.0
 41
0.9987693403121545
 10
934.88449205194672
 20
-1271.2919097814813
 30
0.0
 41
1.0
 10
934.87423771772069
 20
-1271.2920598532555
 30
0.0
 41
1.0
 10
934.86398338349477
 20
-1271.2922099250297
 30
0.0
 41
1.0
 10
934.75442761731483
 20
-1271.2938132693171
 30
0.0
 41
0.9989753644966589
 10
934.64546561729708
 20
-1271.3053162762421
 30
0.0
 41
1.0
 10
934.53650361728069
 20
-1271.3168192831674
 30
0.0
 41
0.9983190067306083
 10
934.42960480631621
 20
-1271.3408542749542
 30
0.0
 41
1.0
 10
934.42070385470925
 20
-1271.342855553517
 30
0.0
 41
1.0
 10
934.41180290310217
 20
-1271.3448568320796
 30
0.0
 41
1.0
 10
934.28710218892525
 20
-1271.3728943809913
 30
0.0
 41
0.9985539388303673
 10
934.16613243524841
 20
-1271.4141580570363
 30
0.0
 41
1.0
 10
934.16378700428686
 20
-1271.4149581008526
 30
0.0
 41
1.0
 10
934.16144157332519
 20
-1271.4157581446689
 30
0.0
 41
1.0
 10
934.03578095772582
 20
-1271.4586219083465
 30
0.0
 41
0.9988468746493592
 10
933.91481061542436
 20
-1271.5133399934095
 30
0.0
 41
1.0
 10
933.91162779343665
 20
-1271.5147796679689
 30
0.0
 41
1.0
 10
933.90844497144894
 20
-1271.5162193425285
 30
0.0
 41
1.0
 10
933.7811089851715
 20
-1271.5738167767106
 30
0.0
 41
0.9991322885919013
 10
933.65900840111556
 20
-1271.6418121088921
 30
0.0
 41
1.0
 10
933.64140639007053
 20
-1271.6516143108825
 30
0.0
 41
1.0
 10
933.6238043790255
 20
-1271.6614165128728
 30
0.0
 41
1.0
 10
933.52162769796894
 20
-1271.7183166286532
 30
0.0
 41
0.9993860037849071
 10
933.423686693896
 20
-1271.7822326442415
 30
0.0
 41
1.0
 10
933.41806838104367
 20
-1271.7858991389364
 30
0.0
 41
1.0
 10
933.41245006819133
 20
-1271.7895656336314
 30
0.0
 41
1.0
 10
933.32574568982091
 20
-1271.8461486598312
 30
0.0
 41
0.9998821494952946
 10
933.24081931400974
 20
-1271.9053668899069
 30
0.0
 41
1.0
 10
933.15589293819937
 20
-1271.9645851199818
 30
0.0
 41
0.9997976482743735
 10
933.07341730780047
 20
-1272.0271715280198
 30
0.0
 41
1.0
 10
933.058781042992
 20
-1272.0382782178024
 30
0.0
 41
1.0
 10
933.04414477818352
 20
-1272.0493849075849
 30
0.0
 41
1.0
 10
932.93239661816938
 20
-1272.1341846951868
 30
0.0
 41
0.999809163080035
 10
932.82404634014154
 20
-1272.2232850458886
 30
0.0
 41
1.0
 10
932.81104058766459
 20
-1272.2339801463343
 30
0.0
 41
1.0
 10
932.79803483518776
 20
-1272.2446752467799
 30
0.0
 41
1.0
 10
932.66367305220547
 20
-1272.3551657983735
 30
0.0
 41
0.9995035112317203
 10
932.53653717444195
 20
-1272.4738996153885
 30
0.0
 41
1.0
 10
932.52688986405462
 20
-1272.4829093615463
 30
0.0
 41
1.0
 10
932.5172425536673
 20
-1272.4919191077042
 30
0.0
 41
1.0
 10
932.39381949090239
 20
-1272.6071854794598
 30
0.0
 41
0.9994630424299179
 10
932.2782110851183
 20
-1272.730288222695
 30
0.0
 41
1.0
 10
932.27452824634543
 20
-1272.7342098022095
 30
0.0
 41
1.0
 10
932.27084540757244
 20
-1272.7381313817243
 30
0.0
 41
1.0
 10
932.16260267933308
 20
-1272.8533909659316
 30
0.0
 41
0.9995160693750003
 10
932.06173664980236
 20
-1272.9751583838029
 30
0.0
 41
1.0
 10
932.05980292972254
 20
-1272.9774928080101
 30
0.0
 41
1.0
 10
932.0578692096426
 20
-1272.9798272322171
 30
0.0
 41
1.0
 10
931.96087062027175
 20
-1273.0969258016737
 30
0.0
 41
0.999656147051488
 10
931.87014440160453
 20
-1273.2189485641245
 30
0.0
 41
1.0
 10
931.8639867356992
 20
-1273.2272303531713
 30
0.0
 41
1.0
 10
931.85782906979398
 20
-1273.2355121422179
 30
0.0
 41
1.0
 10
931.77941818293493
 20
-1273.3409713265787
 30
0.0
 41
0.999834905517257
 10
931.70489090100637
 20
-1273.4492099102372
 30
0.0
 41
1.0
 10
931.63036361908121
 20
-1273.5574484938904
 30
0.0
 41
0.9999728109567746
 10
931.55744072317952
 20
-1273.6667744194324
 30
0.0
 41
1.0
 10
931.55612550776004
 20
-1273.6687461889464
 30
0.0
 41
1.0
 10
931.55481029234056
 20
-1273.6707179584607
 30
0.0
 41
1.0
 10
931.47925696559821
 20
-1273.783987423034
 30
0.0
 41
0.9999972147275646
 10
931.40423915521956
 20
-1273.8976122658771
 30
0.0
 41
1.0
 10
931.39926761260381
 20
-1273.9051423543392
 30
0.0
 41
1.0
 10
931.39429606998817
 20
-1273.9126724428015
 30
0.0
 41
1.0
 10
931.30933517437586
 20
-1274.041357462572
 30
0.0
 41
0.9999371979005065
 10
931.22727982497884
 20
-1274.1719143763376
 30
0.0
 41
1.0
 10
931.22377094060994
 20
-1274.1774973044139
 30
0.0
 41
1.0
 10
931.22026205624115
 20
-1274.1830802324901
 30
0.0
 41
1.0
 10
931.13118893810929
 20
-1274.324803002404
 30
0.0
 41
0.9998272025610072
 10
931.0474455472264
 20
-1274.4697388791481
 30
0.0
 41
1.0
 10
931.03223037520434
 20
-1274.4960719936012
 30
0.0
 41
1.0
 10
931.01701520318238
 20
-1274.5224051080545
 30
0.0
 41
1.0
 10
930.9028414682532
 20
-1274.7200072137091
 30
0.0
 41
0.9995217214838156
 10
930.80110177869676
 20
-1274.9242895415721
 30
0.0
 41
1.0
 10
930.79345821606125
 20
-1274.9396369912761
 30
0.0
 41
1.0
 10
930.78581465342575
 20
-1274.9549844409798
 30
0.0
 41
1.0
 10
930.69890936083539
 20
-1275.1294808990626
 30
0.0
 41
0.9998269762607489
 10
930.6185548945648
 20
-1275.3070891857831
 30
0.0
 41
1.0
 10
930.53820042829489
 20
-1275.4846974725021
 30
0.0
 41
0.9998944747388798
 10
930.4630396337318
 20
-1275.6645651981269
 30
0.0
 41
1.0
 10
930.45808596413849
 20
-1275.6764198530491
 30
0.0
 41
1.0
 10
930.4531322945453
 20
-1275.6882745079715
 30
0.0
 41
1.0
 10
930.37248523399069
 20
-1275.8812714479945
 30
0.0
 41
0.9999506734408782
 10
930.29568770508899
 20
-1276.0758322528459
 30
0.0
 41
1.0
 10
930.28108773981285
 20
-1276.1128201746651
 30
0.0
 41
1.0
 10
930.26648777453659
 20
-1276.1498080964845
 30
0.0
 41
1.0
 10
930.21889017618219
 20
-1276.2703930577109
 30
0.0
 41
0.9999912393946779
 10
930.17230373216285
 20
-1276.3913722603979
 30
0.0
 41
1.0
 10
930.12571728813919
 20
-1276.5123514630968
 30
0.0
 41
0.9999927113991551
 10
930.08005599374542
 20
-1276.6336828705978
 30
0.0
 41
1.0
 10
930.06608756234812
 20
-1276.6707998525958
 30
0.0
 41
1.0
 10
930.05211913095081
 20
-1276.7079168345936
 30
0.0
 41
1.0
 10
929.97852097376142
 20
-1276.9034822060923
 30
0.0
 41
0.9999487550950048
 10
929.90889734879408
 20
-1277.1004975712628
 30
0.0
 41
1.0
 10
929.88530373885351
 20
-1277.1672608815661
 30
0.0
 41
1.0
 10
929.86171012891282
 20
-1277.2340241918696
 30
0.0
 41
1.0
 10
929.76702449454433
 20
-1277.5019580266885
 30
0.0
 41
0.9999808436937928
 10
929.67566290590366
 20
-1277.7710434579508
 30
0.0
 41
1.0
 10
929.58430131725902
 20
-1278.0401288892249
 30
0.0
 41
0.999987393292162
 10
929.49564660854469
 20
-1278.3101182442269
 30
0.0
 41
1.0
 10
929.47555425167502
 20
-1278.3713075769806
 30
0.0
 41
1.0
 10
929.45546189480547
 20
-1278.4324969097345
 30
0.0
 41
1.0
 10
929.32662247234975
 20
-1278.8248649302502
 30
0.0
 41
0.9999794883025784
 10
929.20281968739141
 20
-1279.2188511365284
 30
0.0
 41
1.0
 10
929.19166742797586
 20
-1279.2543417466957
 30
0.0
 41
1.0
 10
929.18051516856031
 20
-1279.2898323568629
 30
0.0
 41
1.0
 10
929.03795700464468
 20
-1279.7435051090074
 30
0.0
 41
0.999998276183126
 10
928.89708456460289
 20
-1280.1977041312148
 30
0.0
 41
1.0
 10
927.30894423203029
 20
-1285.246473862218
 30
0.0
 41
1.0
 10
925.72080389945768
 20
-1290.2952435932214
 30
0.0
 41
1.0
 10
924.77205328798129
 20
-1290.2952435932214
 30
0.0
 41
1.0
 10
923.82330267650491
 20
-1290.2952435932214
 30
0.0
 41
1.0
 10
927.06158716265804
 20
-1279.9679213932752
 30
0.0
 41
1.0
 10
930.29987164881129
 20
-1269.6405991933291
 30
0.0
 41
1.0
  0
LWPOLYLINE
  5
52
100
AcDbEntity
  8
0
370
              15
390
0
  6
Continuous
 62
               7
100
AcDbPolyline
 90
      232
 70
             128
 10
904.59632587498425
 20
-1270.7249420248443
 42
0.000437080068672
 10
904.54344870090802
 20
-1270.7936086641057
 10
904.50416446978477
 20
-1270.844715776997
 42
0.0030481992175739
 10
904.37382575265565
 20
-1271.0164374693545
 10
904.33531408091517
 20
-1271.0678242531294
 42
0.0042058245754892
 10
904.13132903024484
 20
-1271.3448299982037
 10
904.07892390774464
 20
-1271.4172628449837
 42
0.0120948898743192
 10
903.78287999098518
 20
-1271.84801244953
 10
903.68668749185622
 20
-1271.9954931847656
 42
0.0141601263949725
 10
903.38304344493929
 20
-1272.4911625214932
 10
903.34350617751534
 20
-1272.5600064889215
 42
0.0071131081299427
 10
903.13823385427486
 20
-1272.929509287763
 42
0.0068458791003174
 10
902.94335432742503
 20
-1273.3046008512524
 10
902.93654246497408
 20
-1273.3181625649627
 42
0.0064120880286279
 10
902.73840021493595
 20
-1273.7255870398685
 10
902.73086552941277
 20
-1273.7415988966029
 42
0.0058857236449179
 10
902.52811013754115
 20
-1274.1859750076376
 10
902.51993521124712
 20
-1274.2044651612719
 42
0.0053189741894369
 10
902.31123089857567
 20
-1274.6904286351992
 10
902.30248309289823
 20
-1274.711410513386
 42
0.0047503650418229
 10
902.08650936674837
 20
-1275.2436099465933
 10
902.07724111839934
 20
-1275.2670863227036
 42
0.0042071762170169
 10
901.85269373467349
 20
-1275.8501799167682
 10
901.84294433232299
 20
-1275.876146091643
 42
0.0036680086484977
 10
901.60848968900757
 20
-1276.5147814761833
 10
901.59828190916312
 20
-1276.5432300105185
 42
0.0032573142626997
 10
901.35264962318979
 20
-1277.242082670291
 10
901.28399910235566
 20
-1277.441545754325
 42
0.0026133366648846
 10
900.93555390359779
 20
-1278.4714090379969
 10
900.8722971161078
 20
-1278.6616398733574
 42
0.0020592950738082
 10
900.65843404712996
 20
-1279.313743526003
 10
900.65538225597174
 20
-1279.3231800143974
 42
0.0025609928536041
 10
900.45356175448103
 20
-1279.9583252367786
 10
900.4509703873639
 20
-1279.9666275776885
 42
0.0031362356241624
 10
900.26147960167737
 20
-1280.5873904338987
 10
900.25934855875425
 20
-1280.5945317400954
 42
0.0037229918027867
 10
900.08254817182365
 20
-1281.2035170420841
 10
900.0808695826147
 20
-1281.2094639322675
 42
0.0043077623709328
 10
899.91712878055216
 20
-1281.8092826640273
 42
0.0047654161822263
 10
899.76430005804048
 20
-1282.4119687529123
 10
899.72983544919703
 20
-1282.5535305300796
 42
0.0112969368444821
 10
899.53397109105401
 20
-1283.445222690701
 10
899.50596470195683
 20
-1283.5880507368015
 42
0.0130056762572012
 10
899.30512745831015
 20
-1284.7749918084464
 10
899.28458770816292
 20
-1284.9190699219246
 42
0.013872153214471
 10
899.18088470362522
 20
-1285.8258994077491
 10
899.16158921571696
 20
-1286.0493971296792
 42
0.0071254697010132
 10
899.12824256979479
 20
-1286.5125841385216
 10
899.12328159562935
 20
-1286.5985881331198
 42
0.0028881799202645
 10
899.10814330234166
 20
-1286.8903298429241
 42
0.0060297297136654
 10
899.0982111025661
 20
-1287.1822787790386
 10
899.09714882089884
 20
-1287.2306711509766
 42
0.0229523164157418
 10
899.10487984868473
 20
-1287.5534259972555
 10
899.10910562220499
 20
-1287.613829531271
 42
0.0123673300673496
 10
899.12818426872343
 20
-1287.8149502564465
 42
0.0128577674471499
 10
899.15737965912945
 20
-1288.0148481063718
 10
899.16450553251673
 20
-1288.0561769209703
 42
0.028571785376387
 10
899.22899953421245
 20
-1288.3342930722838
 10
899.24266805787863
 20
-1288.38094784176
 42
0.031628309915651
 10
899.35847863779304
 20
-1288.6999623435868
 10
899.36152732954861
 20
-1288.7069487159124
 42
0.0338984824238197
 10
899.51095904051579
 20
-1288.9945146801015
 10
899.51326776988617
 20
-1288.9983057093782
 42
0.0350228718357741
 10
899.69562806055922
 20
-1289.2553576940543
 10
899.6965133123341
 20
-1289.2564367718182
 42
0.0347476747524966
 10
899.91093799957434
 20
-1289.4836218190385
 42
0.0331337701912438
 10
900.15418132532056
 20
-1289.6797504811154
 10
900.15528142383687
 20
-1289.6805231842882
 42
0.0305233319079946
 10
900.42382611940991
 20
-1289.8456513543795
 10
900.4270561639114
 20
-1289.8473753662424
 42
0.0273744481151985
 10
900.71960987548573
 20
-1289.9835135101328
 10
900.72471441062328
 20
-1289.9855570946024
 42
0.0240964406194192
 10
901.04019148626662
 20
-1290.0945408208831
 10
901.04677481547901
 20
-1290.096465560559
 42
0.0209636179811545
 10
901.38417496813429
 20
-1290.1799337084915
 10
901.39180742858025
 20
-1290.1814856214924
 42
0.0181388704692253
 10
901.75012982057876
 20
-1290.2409017147063
 10
901.75841066895691
 20
-1290.2419678985234
 42
0.0156086547585925
 10
902.13659803314579
 20
-1290.2787040851001
 10
902.17979328547779
 20
-1290.2815425875792
 42
0.0137148329024625
 10
902.50746643077161
 20
-1290.2940628428305
 10
902.55340262070911
 20
-1290.2945572759456
 42
0.0051057823885265
 10
902.78954820728984
 20
-1290.2946875303546
 42
0.0052256693316546
 10
903.02564549107444
 20
-1290.2899387058903
 10
903.09587227481791
 20
-1290.2877917398764
 42
0.016150717904825
 10
903.47160935291924
 20
-1290.2641413695499
 10
903.49162231329228
 20
-1290.2622311742623
 42
0.0101216737832246
 10
903.90564953478167
 20
-1290.2142382438969
 10
903.93970282420969
 20
-1290.2095905470871
 42
0.0245291776398438
 10
904.41649247976136
 20
-1290.1205154690108
 10
904.50131579528636
 20
-1290.1003195486646
 42
0.0143509212558649
 10
904.85794689922443
 20
-1290.0045149148864
 42
0.0156557857036023
 10
905.20816296395299
 20
-1289.8875036990671
 10
905.21566417844633
 20
-1289.8847335373134
 42
0.0170137333631044
 10
905.57226017413097
 20
-1289.7390759224406
 10
905.57936409653519
 20
-1289.7358880868785
 42
0.018310536441182
 10
905.93871376469951
 20
-1289.5585530450551
 10
905.94566052934022
 20
-1289.5548026101819
 42
0.0194899958151807
 10
906.30414127031997
 20
-1289.3428236282939
 10
906.31115514966086
 20
-1289.3382982859962
 42
0.020486985295494
 10
906.66516945175636
 20
-1289.0887782709092
 10
906.67243506034185
 20
-1289.083198205562
 42
0.0212516938556666
 10
907.018424991448
 20
-1288.7932942086693
 10
907.0649416855257
 20
-1288.7508268985737
 42
0.0215248918249256
 10
907.32496785441322
 20
-1288.4920626195794
 10
907.36999758879153
 20
-1288.443218498232
 42
0.0114578554954825
 10
907.52478974247106
 20
-1288.267395564771
 10
907.53598427846237
 20
-1288.25407680122
 42
0.0061531305135825
 10
907.66245892445215
 20
-1288.09978726792
 42
0.0006325587127649
 10
907.78683740863687
 20
-1287.9437838922026
 10
907.80987754365538
 20
-1287.914810371585
 42
0.0041897761555912
 10
907.97833294762904
 20
-1287.699290995522
 10
908.0367950675203
 20
-1287.6231896485378
 42
0.0092993880040216
 10
908.31340699475095
 20
-1287.2489108846444
 10
908.39580148794062
 20
-1287.1329738810887
 42
0.0159321727083017
 10
908.7424079705853
 20
-1286.6107996603293
 10
908.78676410597836
 20
-1286.5391200960728
 42
0.0085547317021975
 10
909.02127587130008
 20
-1286.1452451468547
 42
0.0084601156888836
 10
909.24225204873653
 20
-1285.7436182978333
 10
909.25036752257256
 20
-1285.7282586155495
 42
0.0081429654285546
 10
909.47361679301264
 20
-1285.2885371030034
 10
909.48247695719408
 20
-1285.2703582609893
 42
0.0076574581327635
 10
909.70888446776291
 20
-1284.7871753857319
 10
909.71836410848448
 20
-1284.7661109074334
 42
0.0070682724198872
 10
909.94880901629028
 20
-1284.2340736026545
 10
909.95879930027297
 20
-1284.2100844136403
 42
0.006455951444835
 10
910.1941325084548
 20
-1283.6237721471211
 10
910.20454186661959
 20
-1283.5968372216794
 42
0.0058311413908231
 10
910.44558860338225
 20
-1282.9508051272958
 10
910.45634368076992
 20
-1282.920920786135
 42
0.0052312425819428
 10
910.70392495881447
 20
-1282.2097183722894
 10
910.71496879519054
 20
-1282.1768916602309
 42
0.0046680544796336
 10
910.9698972229213
 20
-1281.3950653444879
 10
911.01188937296956
 20
-1281.2620821071812
 42
0.0041666856443958
 10
911.21517538536364
 20
-1280.5991133321784
 10
911.25283782602685
 20
-1280.4725322245265
 42
0.0015170975157229
 10
911.37402440444043
 20
-1280.060663873031
 42
-0.0004887993117879
 10
911.49436417753168
 20
-1279.6485454610979
 10
911.57084143505858
 20
-1279.3875880750479
 42
0.0002583378927851
 10
911.84405600498701
 20
-1278.4535313723341
 10
911.92582885470028
 20
-1278.1734321122829
 42
0.0006636169672884
 10
912.11969661471085
 20
-1277.5060791886988
 10
912.12479326907157
 20
-1277.4884476057714
 42
0.0010589131324638
 10
912.30624196997451
 20
-1276.8557162627699
 10
912.31122404044822
 20
-1276.8382033557737
 42
0.0015655524460597
 10
912.47949424763783
 20
-1276.2395866765489
 10
912.48432444805553
 20
-1276.2221945176034
 42
0.0021640440480076
 10
912.63861442003872
 20
-1275.6571674995948
 10
912.64324863946661
 20
-1275.6399027696086
 42
0.0028763871851085
 10
912.78276435752173
 20
-1275.1079348187541
 10
912.78715022169411
 20
-1275.0908108405793
 42
0.0037310511945807
 10
912.91110691352583
 20
-1274.5913632465758
 10
912.91518213381369
 20
-1274.574402975335
 42
0.0047652197770837
 10
913.02280603432325
 20
-1274.1069252070251
 10
913.02649663364775
 20
-1274.0901656518699
 42
0.0060276699299018
 10
913.11702673280024
 20
-1273.6540898567309
 10
913.1202454230887
 20
-1273.6375886424253
 42
0.0075824337758629
 10
913.19293473250491
 20
-1273.2323214779956
 10
913.19558010988533
 20
-1273.2161665305439
 42
0.0095130624610486
 10
913.24969534551633
 20
-1272.8410771774734
 10
913.25668156939855
 20
-1272.7851436193596
 42
0.0121054653229294
 10
913.28327289997685
 20
-1272.5202477908829
 10
913.28413938973722
 20
-1272.5088443479422
 42
0.0069050827389484
 10
913.29922820777415
 20
-1272.2659031211097
 10
913.30036350744251
 20
-1272.2423768640676
 42
0.0169063976693983
 10
913.30319078642287
 20
-1272.0461841367642
 10
913.30202013489156
 20
-1271.9858483754124
 42
0.0052007732904562
 10
913.29976668629865
 20
-1271.9102549852628
 42
0.0054038123306267
 10
913.27980317445883
 20
-1271.7902366892476
 10
913.27471731858941
 20
-1271.7615782026717
 42
0.011205046046723
 10
913.23933295653137
 20
-1271.585251764335
 10
913.22150799449014
 20
-1271.5057101776119
 42
0.0240764468009334
 10
913.13061062834436
 20
-1271.1754731421117
 10
913.11205186553093
 20
-1271.1188529771177
 42
0.0256812331834335
 10
912.968688945341
 20
-1270.7471287708595
 10
912.96327951951946
 20
-1270.7349974358694
 42
0.026836050121676
 10
912.79385227866976
 20
-1270.4040043018488
 10
912.78831587103434
 20
-1270.3944846315358
 42
0.0274670231729367
 10
912.59611489462145
 20
-1270.1021972566191
 10
912.59073359465924
 20
-1270.0949181090782
 42
0.0275035967098132
 10
912.37916071509699
 20
-1269.8394022187738
 10
912.37409121413134
 20
-1269.8339231311443
 42
0.0269557673522201
 10
912.14668767069088
 20
-1269.6132808451812
 10
912.1419446129089
 20
-1269.6091508907209
 42
0.02591248022068
 10
911.9023897814775
 20
-1269.4214603635678
 10
911.89785893629551
 20
-1269.4182748612375
 42
0.0245162153005956
 10
911.64994258320075
 20
-1269.2615418521273
 10
911.64541603687724
 20
-1269.2589816549269
 42
0.0229282588842563
 10
911.39299648004919
 20
-1269.1311134624275
 10
911.38821598621303
 20
-1269.1289611626657
 42
0.0212984135700765
 10
911.13517803375066
 20
-1269.0277622454232
 10
911.12987374878333
 20
-1269.0258986826641
 42
0.0197555462346982
 10
910.88009541105816
 20
-1268.9490832646984
 42
0.0183511896789339
 10
910.62516668559556
 20
-1268.8915003577329
 10
910.53880148887163
 20
-1268.8752975673476
 42
0.0338057877144022
 10
910.25329413961174
 20
-1268.8414891622074
 10
910.16228873457169
 20
-1268.8369095069461
 42
0.0091990524490732
 10
910.0564416259358
 20
-1268.833533651024
 42
0.0028333980789433
 10
909.95052770994016
 20
-1268.8327055435075
 10
909.94961225689349
 20
-1268.8327035736834
 42
-0.0023619827804951
 10
909.84186624179608
 20
-1268.8319627326048
 10
909.80546107161172
 20
-1268.8315404261416
 42
0.000882459847429
 10
909.62490508166582
 20
-1268.8297646479025
 10
909.58104364935593
 20
-1268.8294106863777
 42
0.0038132665763906
 10
909.31276075348512
 20
-1268.8292917503111
 10
909.29622709868363
 20
-1268.8294105164548
 42
0.0060665569335511
 10
908.9949466070974
 20
-1268.8352308158755
 10
908.98069627506698
 20
-1268.8356791238432
 42
0.0080356953336705
 10
908.65123755872389
 20
-1268.8513468459103
 10
908.6391675436405
 20
-1268.8521154288505
 42
0.0098996399105945
 10
908.28640445898736
 20
-1268.8816006580489
 10
908.27635874961493
 20
-1268.8826409542469
 42
0.0117740981366489
 10
907.90520189126732
 20
-1268.9299332017765
 10
907.89697919478363
 20
-1268.9311783183475
 42
0.013743521513845
 10
907.51239037529592
 20
-1269.0002752919099
 10
907.50573333617513
 20
-1269.0016611881429
 42
0.0158359869388291
 10
907.11273624237162
 20
-1269.0965532766238
 10
907.1073230555055
 20
-1269.098043217494
 42
0.0180554124029893
 10
906.71100801089278
 20
-1269.2226812337331
 10
906.70645122280973
 20
-1269.2242972699992
 42
0.0203657431285382
 10
906.31197370499672
 20
-1269.3825576115155
 10
906.30783016599105
 20
-1269.3844192329566
 42
0.0226819684657288
 10
905.92039410978555
 20
-1269.5800618116289
 10
905.91619431876927
 20
-1269.5824274035476
 42
0.024863498460645
 10
905.54101237758812
 20
-1269.8190540494945
 10
905.49281744880375
 20
-1269.8529110913205
 42
0.0267044190884283
 10
905.21852475188757
 20
-1270.0683514671887
 42
0.0139303002198896
 10
904.96235758595515
 20
-1270.3055903080945
 10
904.95750420022785
 20
-1270.3103429709606
 42
0.0283460963446713
 10
904.71343160599952
 20
-1270.5780736314071
 10
904.6737631008441
 20
-1270.6268752088788
 42
0.0070695364819168
 10
904.59632587498425
 20
-1270.7249420248443
 42
0.0070695364819168
  0
LWPOLYLINE
  5
53
100
AcDbEntity
  8
0
370
              15
390
0
  6
Continuous
 62
               7
100
AcDbPolyline
 90
      226
 70
             128
 10
901.06750543773785
 20
-1286.4465308310282
 42
-0.002627763656309
 10
901.06742755393793
 20
-1286.3797589052231
 10
901.06764491216984
 20
-1286.3266036878422
 42
-0.008868029673016
 10
901.07142152846279
 20
-1286.1535879054416
 10
901.07376788757529
 20
-1286.0943078799855
 42
-0.0077381705613369
 10
901.08981399833874
 20
-1285.8030473841829
 10
901.09068190951155
 20
-1285.7907591505023
 42
-0.0068872530526141
 10
901.1173139892602
 20
-1285.4755373984274
 10
901.11851821344578
 20
-1285.4632964194143
 42
-0.0062130021481009
 10
901.15611193027621
 20
-1285.1244267281545
 10
901.15761583380868
 20
-1285.1122528562594
 42
-0.005672692967214
 10
901.20653769330988
 20
-1284.7500576341536
 10
901.20831113895542
 20
-1284.7379638339007
 42
-0.0052341884495975
 10
901.26892172521445
 20
-1284.3527705783881
 10
901.27093971399199
 20
-1284.3407656483903
 42
-0.0049768450167629
 10
901.34367839541892
 20
-1283.9329210809549
 10
901.36792741014017
 20
-1283.8043730979516
 42
-0.0089029805623325
 10
901.5050082619357
 20
-1283.1425976505257
 10
901.53775363725345
 20
-1282.9975662200059
 42
-0.0080318257099221
 10
901.76730225159292
 20
-1282.0518565881569
 10
901.77928717804241
 20
-1282.0057259529622
 42
-0.00742657213203
 10
902.06329871689024
 20
-1280.9756613745888
 10
902.08317826000678
 20
-1280.9075273140002
 42
-0.0069711922702335
 10
902.41048283851569
 20
-1279.841259573664
 10
902.47043478561829
 20
-1279.6552382153025
 42
-0.0052070422891905
 10
902.69986001088046
 20
-1278.9679661382622
 10
902.71714120301669
 20
-1278.9179388577493
 42
-0.0009167004448999
 10
902.92023309034221
 20
-1278.3334830094909
 42
-0.0025162726942414
 10
903.1273307206061
 20
-1277.7504417453247
 10
903.16455533241526
 20
-1277.6472921994091
 42
-0.0028212681456475
 10
903.41273125137332
 20
-1276.9715615672521
 10
903.42256201412954
 20
-1276.9452541225603
 42
-0.0031964916822847
 10
903.65885427178625
 20
-1276.3250493604482
 10
903.66848872578259
 20
-1276.3002393703116
 42
-0.0036281836451334
 10
903.89359468688644
 20
-1275.732798689412
 10
903.90303309704245
 20
-1275.7095012579125
 42
-0.0041269166829688
 10
904.11765079370309
 20
-1275.1920603619308
 10
904.15028375012287
 20
-1275.1151819155721
 42
-0.0047472213055819
 10
904.30732855567749
 20
-1274.7547604476863
 10
904.31422263688762
 20
-1274.73933985035
 42
-0.0025651659997371
 10
904.46258067073586
 20
-1274.4120117946059
 42
-0.0057144634995036
 10
904.61633036450621
 20
-1274.0872021212454
 10
904.64436106990468
 20
-1274.0296937388566
 42
-0.0065388068374285
 10
904.82782809764819
 20
-1273.6654612421842
 10
904.8362865534267
 20
-1273.6492016628147
 42
-0.007451084301985
 10
905.01246879930454
 20
-1273.3225133816918
 10
905.02064846983956
 20
-1273.3078726044159
 42
-0.0084648979853902
 10
905.19028232293567
 20
-1273.0159635934619
 10
905.19813844942382
 20
-1273.0029566018111
 42
-0.0095638542805224
 10
905.36197389701795
 20
-1272.7430677298325
 10
905.36944884069226
 20
-1272.7316983683731
 42
-0.0107191626804486
 10
905.52825042107725
 20
-1272.5010871338332
 10
905.53526715480825
 20
-1272.4913510414685
 42
-0.0118458573903881
 10
905.68981525332083
 20
-1272.2872788461577
 42
-0.0129184518188581
 10
905.85426787692609
 20
-1272.0911183299831
 10
905.88441264928611
 20
-1272.0569922510872
 42
-0.0217742579635611
 10
906.06102497162078
 20
-1271.8737854808378
 10
906.07177051607789
 20
-1271.863568647638
 42
-0.0097266568654902
 10
906.23782813493699
 20
-1271.7117210731974
 42
-0.018772090571699
 10
906.41217571082905
 20
-1271.5696522198064
 10
906.44288170150253
 20
-1271.5464931374106
 42
-0.0179428207517514
 10
906.67530242149678
 20
-1271.3839409603004
 10
906.67895474840714
 20
-1271.3815770254162
 42
-0.0170047877699453
 10
906.91471838594293
 20
-1271.240116511261
 10
906.91850137469044
 20
-1271.2380182062243
 42
-0.0160190788363567
 10
907.15540992232479
 20
-1271.1163669042367
 42
-0.015110286149134
 10
907.39944170477168
 20
-1271.009684128182
 10
907.45182820698324
 20
-1270.9886439952875
 42
-0.027194544188635
 10
907.81049076604165
 20
-1270.8667791845814
 10
907.8795555665323
 20
-1270.8474296433144
 42
-0.0237596594021453
 10
908.29535241355211
 20
-1270.7519789313337
 10
908.3634152672787
 20
-1270.7397242432075
 42
-0.0213715440556853
 10
908.64929019872784
 20
-1270.700777211697
 10
908.70943736494382
 20
-1270.6951874969961
 42
-0.0101465655820503
 10
908.87692989693994
 20
-1270.6830439537321
 10
908.88627028313783
 20
-1270.6825570387348
 42
-0.0100375910882545
 10
909.03542438370073
 20
-1270.6777812208095
 10
909.04568365337718
 20
-1270.6776587817951
 42
-0.0103625633384121
 10
909.17439164803591
 20
-1270.6787902153217
 10
909.19665729930432
 20
-1270.6794475737865
 42
-0.0115689250234936
 10
909.28070803683079
 20
-1270.6838770800318
 42
-0.0072438037434797
 10
909.36454631627225
 20
-1270.6914662797813
 10
909.38134682574275
 20
-1270.6932328225053
 42
-0.0217917313139367
 10
909.49791658905451
 20
-1270.7106527152259
 10
909.56351667962474
 20
-1270.7233993236409
 42
-0.0332943556755175
 10
909.7679088446514
 20
-1270.777439614948
 10
909.7980814132012
 20
-1270.7876076920663
 42
-0.0184824084806604
 10
909.93658646966696
 20
-1270.840058707453
 42
-0.0198002050700385
 10
910.07066081016603
 20
-1270.9029427676521
 10
910.07254744754323
 20
-1270.9039205545321
 42
-0.0212242342969898
 10
910.20468638994623
 20
-1270.9796832933257
 10
910.20650168548855
 20
-1270.9808290955334
 42
-0.0226090605795186
 10
910.33500558671119
 20
-1271.0703087390987
 10
910.33685002844777
 20
-1271.0717209920854
 42
-0.0238457052221405
 10
910.46003210974118
 20
-1271.1757168879481
 10
910.46198483829971
 20
-1271.1775317657139
 42
-0.0248160564147562
 10
910.57818634559999
 20
-1271.2968063669223
 10
910.58028997900237
 20
-1271.299191700627
 42
-0.0254109591447604
 10
910.68789519686857
 20
-1271.4344800865915
 10
910.6901432187824
 20
-1271.437621634992
 42
-0.0255528488295252
 10
910.78758989757898
 20
-1271.5896486892254
 10
910.78992099749576
 20
-1271.5937303008341
 42
-0.0252146793224302
 10
910.87570202350514
 20
-1271.7632325468317
 10
910.87800426266244
 20
-1271.7684146287438
 42
-0.0244265635952732
 10
910.95065895642369
 20
-1271.9561612007899
 10
910.95990535789247
 20
-1271.9840266191288
 42
-0.0231319612898874
 10
911.00582813688436
 20
-1272.1473276659299
 42
-0.0112130424360945
 10
911.04046415942207
 20
-1272.3135312661148
 10
911.04166668453513
 20
-1272.3200278530057
 42
-0.0210527881240268
 10
911.06735315990591
 20
-1272.5010834984473
 10
911.07086375472772
 20
-1272.5364890469943
 42
-0.0190029892425339
 10
911.08630522827229
 20
-1272.7900248932647
 10
911.08711520471638
 20
-1272.8255005076358
 42
-0.0137974553656405
 10
911.08556635188063
 20
-1273.1505319143757
 10
911.08472089692532
 20
-1273.1766506589602
 42
-0.0081336634216045
 10
911.06986156170274
 20
-1273.4819981265612
 42
-0.0073526923570101
 10
911.0455530283283
 20
-1273.7867463708446
 10
911.04429160454538
 20
-1273.8000830455123
 42
-0.0066886138696145
 10
911.00855601850026
 20
-1274.1306690889976
 10
911.00689892902892
 20
-1274.1442907080009
 42
-0.0061359187360708
 10
910.95904832697966
 20
-1274.5010546880901
 10
910.95701082590517
 20
-1274.5149494909301
 42
-0.0056698610060989
 10
910.89636049513717
 20
-1274.8982280597741
 10
910.89395506181518
 20
-1274.9123871789989
 42
-0.0052721077272061
 10
910.81982286101675
 20
-1275.3225145186702
 10
910.81705971217377
 20
-1275.3369311540628
 42
-0.0049289272182416
 10
910.72876559407382
 20
-1275.7742396651847
 10
910.72565309939114
 20
-1275.7889085180011
 42
-0.0047415956715274
 10
910.62241510785896
 20
-1276.2537052754112
 10
910.5876468974991
 20
-1276.4035123707949
 42
-0.0084404470902943
 10
910.39763045392806
 20
-1277.1637363953232
 10
910.39150376594159
 20
-1277.1866005194795
 42
-0.003963594025745
 10
910.17005008165881
 20
-1277.9875893837225
 10
910.15667328647805
 20
-1278.0345210003188
 42
-0.0072475040835154
 10
909.88922639861187
 20
-1278.9237407167188
 10
909.8190140717843
 20
-1279.1454810666914
 42
-0.0051345458825504
 10
909.5322546997287
 20
-1280.0198062544921
 10
909.5107284329689
 20
-1280.0832325215993
 42
-0.0019150016603337
 10
909.2551950260945
 20
-1280.8267816418481
 10
909.24872742168634
 20
-1280.8453691068037
 42
-0.0021524362752236
 10
909.00024937063449
 20
-1281.5496949284775
 10
908.99103894993755
 20
-1281.5754485067803
 42
-0.0024331286818731
 10
908.75478369090206
 20
-1282.2260478148974
 10
908.74573573835244
 20
-1282.250591121249
 42
-0.0027449721786554
 10
908.52112116751607
 20
-1282.849721000176
 10
908.51223116012341
 20
-1282.8730435900295
 42
-0.0031083229768958
 10
908.29868867351388
 20
-1283.4229676276079
 10
908.28995254184531
 20
-1283.4450573434481
 42
-0.0035311343282267
 10
908.08691135624645
 20
-1283.9480404691958
 10
908.07832601710413
 20
-1283.9688831926933
 42
-0.0040245640950515
 10
907.88521421330438
 20
-1284.4271925152984
 10
907.87677809970262
 20
-1284.4467718833675
 42
-0.0046015135852397
 10
907.69302180653756
 20
-1284.8626769130128
 10
907.68473562870508
 20
-1284.8809740524744
 42
-0.0052768638270867
 10
907.50975810975365
 20
-1285.2567469367352
 10
907.50162589913009
 20
-1285.2737402752714
 42
-0.0060672675643335
 10
907.33484628636074
 20
-1285.6116558983927
 10
907.32687680587821
 20
-1285.6273211573919
 42
-0.0069904648870204
 10
907.16770841187781
 20
-1285.9296569640537
 10
907.15991701227256
 20
-1285.9439675132708
 42
-0.0080637022769591
 10
907.00776515192115
 20
-1286.213002816434
 10
907.00017611928638
 20
-1286.2259306820408
 42
-0.0093006455659528
 10
906.85443544275836
 20
-1286.463945080538
 10
906.84708477601259
 20
-1286.4754630497143
 42
-0.0107060778045797
 10
906.7071362325762
 20
-1286.6847333670901
 10
906.70007446429338
 20
-1286.6948189096606
 42
-0.0122723111405004
 10
906.56528074609855
 20
-1286.877612239145
 10
906.56495452254558
 20
-1286.8780326269532
 42
-0.0141836319628715
 10
906.42137291957033
 20
-1287.0526023847842
 10
906.41442516391783
 20
-1287.0605773850496
 42
-0.0175957477207675
 10
906.27451899588368
 20
-1287.2101982734537
 42
-0.0080466359667425
 10
906.12705523084094
 20
-1287.3525208016167
 10
906.08102068633605
 20
-1287.3955412396961
 42
-0.0269600260398421
 10
905.82774044035625
 20
-1287.6078644982028
 10
905.76117330406089
 20
-1287.6578159128255
 42
-0.0178362839758901
 10
905.52122881440027
 20
-1287.8248338390815
 10
905.51398384339655
 20
-1287.8295023512885
 42
-0.0174650732648243
 10
905.2776476459585
 20
-1287.9703633162455
 42
-0.0169240130160951
 10
905.03218140009892
 20
-1288.094655576024
 10
904.98619524454307
 20
-1288.1160175315902
 42
-0.0318883036841081
 10
904.63584438892201
 20
-1288.2523558411006
 10
904.56747885375717
 20
-1288.274056461576
 42
-0.0284435909899725
 10
904.19142872746727
 20
-1288.3702738970505
 10
904.15627056696576
 20
-1288.3771674928796
 42
-0.0243909341009027
 10
903.84282710604975
 20
-1288.422888523909
 10
903.79254637928307
 20
-1288.4277340708104
 42
-0.019663929293129
 10
903.57695080175131
 20
-1288.4399823563242
 10
903.52512673058823
 20
-1288.440885617061
 42
-0.0100501510681639
 10
903.41270344892359
 20
-1288.4405852187078
 10
903.38104358759097
 20
-1288.4398641468226
 42
-0.0019752031155516
 10
903.33195125089821
 20
-1288.4385519866128
 10
903.32919094766658
 20
-1288.4384672947863
 42
0.0065378752007581
 10
903.28561437292137
 20
-1288.4377004035716
 42
-0.0167974694633206
 10
903.24208354998916
 20
-1288.4360405050456
 10
903.23800421072747
 20
-1288.4357474941507
 42
-0.0081283276273974
 10
903.18644441299239
 20
-1288.4312005005131
 10
903.17470483911029
 20
-1288.4299725829344
 42
-0.0126703440182234
 10
903.09998654331741
 20
-1288.420237791863
 10
903.07719867564015
 20
-1288.4166795359477
 42
-0.0117852088435569
 10
902.95765968980254
 20
-1288.3951165407893
 10
902.90227923804468
 20
-1288.3837730005559
 42
-0.0251774592302268
 10
902.67543519903836
 20
-1288.3252749911233
 10
902.63071600918681
 20
-1288.3113081717879
 42
-0.0146525199894823
 10
902.44432302164728
 20
-1288.2470416445894
 42
-0.0166929435859923
 10
902.26234536552317
 20
-1288.1712345115361
 10
902.25768873424749
 20
-1288.1691096109209
 42
-0.0191684358433512
 10
902.07250510299798
 20
-1288.0758735271309
 10
902.06917251724121
 20
-1288.0740322795778
 42
-0.0221181781806163
 10
901.8858622133373
 20
-1287.9618987812057
 10
901.88351240933059
 20
-1287.9603144832158
 42
-0.0254984685376553
 10
901.70722225894531
 20
-1287.8279033332465
 10
901.68474011124374
 20
-1287.8091510243105
 42
-0.0292492648804605
 10
901.55997117240031
 20
-1287.6920582246669
 42
-0.0159048957498429
 10
901.44613117494964
 20
-1287.5640382330671
 10
901.44481238437083
 20
-1287.5624566200477
 42
-0.0343813379558831
 10
901.34217512274449
 20
-1287.420585294278
 10
901.31068359138328
 20
-1287.3700819021833
 42
-0.0369117275701862
 10
901.22479108948653
 20
-1287.2066046612358
 42
-0.0191751379902623
 10
901.1575977039297
 20
-1287.03420005523
 10
901.15583438017006
 20
-1287.029106710555
 42
-0.0378178042228332
 10
901.10603966138569
 20
-1286.8401659344731
 10
901.100044365656
 20
-1286.8076053162795
 42
-0.0184846046466747
 10
901.07932716636105
 20
-1286.6658524957318
 42
-0.0179866351308685
 10
901.06899416128738
 20
-1286.52296168265
 10
901.06893771884165
 20
-1286.5214039960381
 42
-0.0085497186138666
 10
901.06750543773785
 20
-1286.4465308310282
 42
-0.0085497186138666
  0
ENDBLK
  5
54
100
AcDbEntity
  8
template
390
0
100
AcDbBlockEnd
  0
BLOCK
  5
55
100
AcDbEntity
  8
notes
390
0
100
AcDbBlockBegin
  2
*D2
 70
               1
 10
0.0
 20
0.0
 30
0.0
  3
*D2
  1

  0
LINE
  5
56
100
AcDbEntity
  8
0
370
              -2
390
0
  6
Continuous
 62
               0
100
AcDbLine
 10
-132.20688305831553
 20
567.21196123342372
 30
0.0
 11
-132.20688305831553
 21
892.1181864266747
 31
0.0
  0
LINE
  5
57
100
AcDbEntity
  8
0
370
              -2
390
0
  6
Continuous
 62
               0
100
AcDbLine
 10
-732.20688305831573
 20
567.21196123342372
 30
0.0
 11
-732.20688305831573
 21
892.1181864266747
 31
0.0
  0
LINE
  5
58
100
AcDbEntity
  8
0
370
              -2
390
0
  6
Continuous
 62
               0
100
AcDbLine
 10
-132.20688305831553
 20
892.1181864266747
 30
0.0
 11
-732.20688305831573
 21
892.1181864266747
 31
0.0
  0
CIRCLE
  5
59
102
{ACAD_REACTORS
330
5A
102
}
100
AcDbEntity
  8
0
370
              -2
390
0
  6
Continuous
 62
               0
100
AcDbCircle
 10
-132.20688305831553
 20
892.1181864266747
 30
0.0
 40
4.99969482421875
  0
HATCH
  5
5A
100
AcDbEntity
  8
0
370
              -2
390
0
  6
Continuous
 62
               0
100
AcDbHatch
 10
0.0
 20
0.0
 30
0.0
210
0.0
220
0.0
230
1.0
  2
SOLID
 70
               1
 71
               1
 91
        1
 92
        1
 93
        1
 72
               2
 10
-132.20688305831553
 20
892.1181864266747
 40
4.99969482421875
 50
0.0
 51
360.0
 73
               0
 97
        1
330
59
 75
               0
 76
               1
 98
        1
 10
0.0
 20
0.0
  0
CIRCLE
  5
5B
102
{ACAD_REACTORS
330
5C
102
}
100
AcDbEntity
  8
0
370
              -2
390
0
  6
Continuous
 62
               0
100
AcDbCircle
 10
-732.20688305831573
 20
892.1181864266747
 30
0.0
 40
4.99969482421875
  0
HATCH
  5
5C
100
AcDbEntity
  8
0
370
              -2
390
0
  6
Continuous
 62
               0
100
AcDbHatch
 10
0.0
 20
0.0
 30
0.0
210
0.0
220
0.0
230
1.0
  2
SOLID
 70
               1
 71
               1
 91
        1
 92
        1
 93
        1
 72
               2
 10
-732.20688305831573
 20
892.1181864266747
 40
4.99969482421875
 50
0.0
 51
360.0
 73
               0
 97
        1
330
5B
 75
               0
 76
               1
 98
        1
 10
0.0
 20
0.0
  0
MTEXT
  5
5D
100
AcDbEntity
  8
0
390
0
 62
               0
100
AcDbMText
 10
-454.31367853769109
 20
925.99580361417475
 30
0.0
 40
24.432617187500004
 41
0.0
 71
               1
 72
               1
  1
600
  7
ＭＳ ゴシック
 73
               1
 44
0.7828267384257843
  0
POINT
  5
5E
100
AcDbEntity
  8
Defpoints
370
               0
390
0
 62
               0
100
AcDbPoint
 10
-732.20688305831573
 20
542.21196123342372
 30
0.0
  0
POINT
  5
5F
100
AcDbEntity
  8
Defpoints
370
               0
390
0
 62
               0
100
AcDbPoint
 10
-132.20688305831553
 20
542.21196123342372
 30
0.0
  0
POINT
  5
60
100
AcDbEntity
  8
Defpoints
370
               0
390
0
 62
               0
100
AcDbPoint
 10
-132.20688305831553
 20
892.1181864266747
 30
0.0
  0
ENDBLK
  5
61
100
AcDbEntity
  8
notes
390
0
100
AcDbBlockEnd
  0
BLOCK
  5
62
100
AcDbEntity
  8
notes
390
0
100
AcDbBlockBegin
  2
*D3
 70
               1
 10
0.0
 20
0.0
 30
0.0
  3
*D3
  1

  0
LINE
  5
63
100
AcDbEntity
  8
0
370
              -2
390
0
  6
Continuous
 62
               0
100
AcDbLine
 10
-407.20688305831538
 20
792.21196123342372
 30
0.0
 11
-32.206883058315469
 21
792.21196123342372
 31
0.0
  0
LINE
  5
64
100
AcDbEntity
  8
0
370
              -2
390
0
  6
Continuous
 62
               0
100
AcDbLine
 10
-407.20688305831538
 20
292.21196123342486
 30
0.0
 11
-32.206883058315469
 21
292.21196123342486
 31
0.0
  0
LINE
  5
65
100
AcDbEntity
  8
0
370
              -2
390
0
  6
Continuous
 62
               0
100
AcDbLine
 10
-32.206883058315469
 20
792.21196123342372
 30
0.0
 11
-32.206883058315469
 21
292.21196123342486
 31
0.0
  0
CIRCLE
  5
66
102
{ACAD_REACTORS
330
67
102
}
100
AcDbEntity
  8
0
370
              -2
390
0
  6
Continuous
 62
               0
100
AcDbCircle
 10
-32.206883058315469
 20
792.21196123342372
 30
0.0
 40
4.99969482421875
  0
HATCH
  5
67
100
AcDbEntity
  8
0
370
              -2
390
0
  6
Continuous
 62
               0
100
AcDbHatch
 10
0.0
 20
0.0
 30
0.0
210
0.0
220
0.0
230
1.0
  2
SOLID
 70
               1
 71
               1
 91
        1
 92
        1
 93
        1
 72
               2
 10
-32.206883058315469
 20
792.21196123342372
 40
4.99969482421875
 50
0.0
 51
360.0
 73
               0
 97
        1
330
66
 75
               0
 76
               1
 98
        1
 10
0.0
 20
0.0
  0
CIRCLE
  5
68
102
{ACAD_REACTORS
330
69
102
}
100
AcDbEntity
  8
0
370
              -2
390
0
  6
Continuous
 62
               0
100
AcDbCircle
 10
-32.206883058315469
 20
292.21196123342486
 30
0.0
 40
4.99969482421875
  0
HATCH
  5
69
100
AcDbEntity
  8
0
370
              -2
390
0
  6
Continuous
 62
               0
100
AcDbHatch
 10
0.0
 20
0.0
 30
0.0
210
0.0
220
0.0
230
1.0
  2
SOLID
 70
               1
 71
               1
 91
        1
 92
        1
 93
        1
 72
               2
 10
-32.206883058315469
 20
292.21196123342486
 40
4.99969482421875
 50
0.0
 51
360.0
 73
               0
 97
        1
330
68
 75
               0
 76
               1
 98
        1
 10
0.0
 20
0.0
  0
MTEXT
  5
6A
100
AcDbEntity
  8
0
390
0
 62
               0
100
AcDbMText
 10
-66.084500245815477
 20
516.57722293454879
 30
0.0
 40
24.432617187500004
 41
0.0
 71
               1
 72
               1
  1
500
  7
ＭＳ ゴシック
 11
0.0
 21
1.0
 31
0.0
 73
               1
 44
0.7828267384257843
  0
POINT
  5
6B
100
AcDbEntity
  8
Defpoints
370
               0
390
0
 62
               0
100
AcDbPoint
 10
-432.20688305831538
 20
292.21196123342486
 30
0.0
  0
POINT
  5
6C
100
AcDbEntity
  8
Defpoints
370
               0
390
0
 62
               0
100
AcDbPoint
 10
-432.20688305831538
 20
792.21196123342372
 30
0.0
  0
POINT
  5
6D
100
AcDbEntity
  8
Defpoints
370
               0
390
0
 62
               0
100
AcDbPoint
 10
-32.206883058315469
 20
792.21196123342372
 30
0.0
  0
ENDBLK
  5
6E
100
AcDbEntity
  8
notes
390
0
100
AcDbBlockEnd
  0
BLOCK
  5
6F
100
AcDbEntity
  8
notes
390
0
100
AcDbBlockBegin
  2
*D4
 70
               1
 10
0.0
 20
0.0
 30
0.0
  3
*D4
  1

  0
LINE
  5
70
100
AcDbEntity
  8
0
370
              -2
390
0
  6
Continuous
 62
               0
100
AcDbLine
 10
-418.85372755974197
 20
754.23038112957067
 30
0.0
 11
-328.35083690581553
 21
836.03884584725472
 31
0.0
  0
CIRCLE
  5
71
102
{ACAD_REACTORS
330
72
102
}
100
AcDbEntity
  8
0
370
              -2
390
0
  6
Continuous
 62
               0
100
AcDbCircle
 10
-418.85372755974197
 20
754.23038112957067
 30
0.0
 40
4.99969482421875
  0
HATCH
  5
72
100
AcDbEntity
  8
0
370
              -2
390
0
  6
Continuous
 62
               0
100
AcDbHatch
 10
0.0
 20
0.0
 30
0.0
210
0.0
220
0.0
230
1.0
  2
SOLID
 70
               1
 71
               1
 91
        1
 92
        1
 93
        1
 72
               2
 10
-418.85372755974197
 20
754.23038112957067
 40
4.99969482421875
 50
0.0
 51
360.0
 73
               0
 97
        1
330
71
 75
               0
 76
               1
 98
        1
 10
0.0
 20
0.0
  0
LINE
  5
73
100
AcDbEntity
  8
0
370
              -2
390
0
  6
Continuous
 62
               0
100
AcDbLine
 10
-328.35083690581553
 20
836.03884584725472
 30
0.0
 11
-204.8508369058155
 21
836.03884584725472
 31
0.0
  0
MTEXT
  5
74
100
AcDbEntity
  8
0
390
0
 62
               0
100
AcDbMText
 10
-268.35083690581553
 20
869.91646303475477
 30
0.0
 40
24.432617187500004
 41
0.0
 71
               1
 72
               1
  1
φ36
  7
ＭＳ ゴシック
 73
               1
 44
0.7828267384257843
  0
POINT
  5
75
100
AcDbEntity
  8
Defpoints
370
               0
390
0
 62
               0
100
AcDbPoint
 10
-445.5600385568888
 20
730.08969031667687
 30
0.0
  0
POINT
  5
76
100
AcDbEntity
  8
Defpoints
370
               0
390
0
 62
               0
100
AcDbPoint
 10
-418.85372755974197
 20
754.23038112957067
 30
0.0
  0
ENDBLK
  5
77
100
AcDbEntity
  8
notes
390
0
100
AcDbBlockEnd
  0
BLOCK
  5
78
100
AcDbEntity
  8
notes
390
0
100
AcDbBlockBegin
  2
*D5
 70
               1
 10
0.0
 20
0.0
 30
0.0
  3
*D5
  1

  0
LINE
  5
79
100
AcDbEntity
  8
0
370
              -2
390
0
  6
Continuous
 62
               0
100
AcDbLine
 10
-697.11389001413909
 20
692.12345885612331
 30
0.0
 11
-832.20688305831561
 21
692.12345885612331
 31
0.0
  0
LINE
  5
7A
100
AcDbEntity
  8
0
370
              -2
390
0
  6
Continuous
 62
               0
100
AcDbLine
 10
-458.49447789391536
 20
792.1181864266747
 30
0.0
 11
-832.20688305831561
 21
792.1181864266747
 31
0.0
  0
LINE
  5
7B
100
AcDbEntity
  8
0
370
              -2
390
0
  6
Continuous
 62
               0
100
AcDbLine
 10
-832.20688305831561
 20
692.12345885612331
 30
0.0
 11
-832.20688305831561
 21
792.1181864266747
 31
0.0
  0
CIRCLE
  5
7C
102
{ACAD_REACTORS
330
7D
102
}
100
AcDbEntity
  8
0
370
              -2
390
0
  6
Continuous
 62
               0
100
AcDbCircle
 10
-832.20688305831561
 20
692.12345885612331
 30
0.0
 40
4.99969482421875
  0
HATCH
  5
7D
100
AcDbEntity
  8
0
370
              -2
390
0
  6
Continuous
 62
               0
100
AcDbHatch
 10
0.0
 20
0.0
 30
0.0
210
0.0
220
0.0
230
1.0
  2
SOLID
 70
               1
 71
               1
 91
        1
 92
        1
 93
        1
 72
               2
 10
-832.20688305831561
 20
692.12345885612331
 40
4.99969482421875
 50
0.0
 51
360.0
 73
               0
 97
        1
330
7C
 75
               0
 76
               1
 98
        1
 10
0.0
 20
0.0
  0
CIRCLE
  5
7E
102
{ACAD_REACTORS
330
7F
102
}
100
AcDbEntity
  8
0
370
              -2
390
0
  6
Continuous
 62
               0
100
AcDbCircle
 10
-832.20688305831561
 20
792.1181864266747
 30
0.0
 40
4.99969482421875
  0
HATCH
  5
7F
100
AcDbEntity
  8
0
370
              -2
390
0
  6
Continuous
 62
               0
100
AcDbHatch
 10
0.0
 20
0.0
 30
0.0
210
0.0
220
0.0
230
1.0
  2
SOLID
 70
               1
 71
               1
 91
        1
 92
        1
 93
        1
 72
               2
 10
-832.20688305831561
 20
792.1181864266747
 40
4.99969482421875
 50
0.0
 51
360.0
 73
               0
 97
        1
330
7E
 75
               0
 76
               1
 98
        1
 10
0.0
 20
0.0
  0
MTEXT
  5
80
100
AcDbEntity
  8
0
390
0
 62
               0
100
AcDbMText
 10
-866.08450024581566
 20
718.30832095922358
 30
0.0
 40
24.432617187500004
 41
0.0
 71
               1
 72
               1
  1
100
  7
ＭＳ ゴシック
 11
0.0
 21
1.0
 31
0.0
 73
               1
 44
0.7828267384257843
  0
POINT
  5
81
100
AcDbEntity
  8
Defpoints
370
               0
390
0
 62
               0
100
AcDbPoint
 10
-433.49447789391536
 20
792.1181864266747
 30
0.0
  0
POINT
  5
82
100
AcDbEntity
  8
Defpoints
370
               0
390
0
 62
               0
100
AcDbPoint
 10
-672.11389001413909
 20
692.12345885612331
 30
0.0
  0
POINT
  5
83
100
AcDbEntity
  8
Defpoints
370
               0
390
0
 62
               0
100
AcDbPoint
 10
-832.20688305831561
 20
692.12345885612331
 30
0.0
  0
ENDBLK
  5
84
100
AcDbEntity
  8
notes
390
0
100
AcDbBlockEnd
  0
BLOCK
  5
85
100
AcDbEntity
  8
notes
390
0
100
AcDbBlockBegin
  2
*D6
 70
               1
 10
0.0
 20
0.0
 30
0.0
  3
*D6
  1

  0
LINE
  5
86
100
AcDbEntity
  8
0
370
              -2
390
0
  6
Continuous
 62
               0
100
AcDbLine
 10
-697.11389001413909
 20
692.12345885612331
 30
0.0
 11
-832.20688305831561
 21
692.12345885612331
 31
0.0
  0
LINE
  5
87
100
AcDbEntity
  8
0
370
              -2
390
0
  6
Continuous
 62
               0
100
AcDbLine
 10
-587.97048110776586
 20
317.12345885612444
 30
0.0
 11
-832.20688305831561
 21
317.12345885612444
 31
0.0
  0
LINE
  5
88
100
AcDbEntity
  8
0
370
              -2
390
0
  6
Continuous
 62
               0
100
AcDbLine
 10
-832.20688305831561
 20
692.12345885612331
 30
0.0
 11
-832.20688305831561
 21
317.12345885612444
 31
0.0
  0
CIRCLE
  5
89
102
{ACAD_REACTORS
330
8A
102
}
100
AcDbEntity
  8
0
370
              -2
390
0
  6
Continuous
 62
               0
100
AcDbCircle
 10
-832.20688305831561
 20
692.12345885612331
 30
0.0
 40
4.99969482421875
  0
HATCH
  5
8A
100
AcDbEntity
  8
0
370
              -2
390
0
  6
Continuous
 62
               0
100
AcDbHatch
 10
0.0
 20
0.0
 30
0.0
210
0.0
220
0.0
230
1.0
  2
SOLID
 70
               1
 71
               1
 91
        1
 92
        1
 93
        1
 72
               2
 10
-832.20688305831561
 20
692.12345885612331
 40
4.99969482421875
 50
0.0
 51
360.0
 73
               0
 97
        1
330
89
 75
               0
 76
               1
 98
        1
 10
0.0
 20
0.0
  0
CIRCLE
  5
8B
102
{ACAD_REACTORS
330
8C
102
}
100
AcDbEntity
  8
0
370
              -2
390
0
  6
Continuous
 62
               0
100
AcDbCircle
 10
-832.20688305831561
 20
317.12345885612444
 30
0.0
 40
4.99969482421875
  0
HATCH
  5
8C
100
AcDbEntity
  8
0
370
              -2
390
0
  6
Continuous
 62
               0
100
AcDbHatch
 10
0.0
 20
0.0
 30
0.0
210
0.0
220
0.0
230
1.0
  2
SOLID
 70
               1
 71
               1
 91
        1
 92
        1
 93
        1
 72
               2
 10
-832.20688305831561
 20
317.12345885612444
 40
4.99969482421875
 50
0.0
 51
360.0
 73
               0
 97
        1
330
8B
 75
               0
 76
               1
 98
        1
 10
0.0
 20
0.0
  0
MTEXT
  5
8D
100
AcDbEntity
  8
0
390
0
 62
               0
100
AcDbMText
 10
-866.08450024581566
 20
480.81095717394834
 30
0.0
 40
24.432617187500004
 41
0.0
 71
               1
 72
               1
  1
375
  7
ＭＳ ゴシック
 11
0.0
 21
1.0
 31
0.0
 73
               1
 44
0.7828267384257843
  0
POINT
  5
8E
100
AcDbEntity
  8
Defpoints
370
               0
390
0
 62
               0
100
AcDbPoint
 10
-562.97048110776586
 20
317.12345885612444
 30
0.0
  0
POINT
  5
8F
100
AcDbEntity
  8
Defpoints
370
               0
390
0
 62
               0
100
AcDbPoint
 10
-672.11389001413909
 20
692.12345885612331
 30
0.0
  0
POINT
  5
90
100
AcDbEntity
  8
Defpoints
370
               0
390
0
 62
               0
100
AcDbPoint
 10
-832.20688305831561
 20
692.12345885612331
 30
0.0
  0
ENDBLK
  5
91
100
AcDbEntity
  8
notes
390
0
100
AcDbBlockEnd
  0
BLOCK
  5
92
100
AcDbEntity
  8
notes
390
0
100
AcDbBlockBegin
  2
*D7
 70
               1
 10
0.0
 20
0.0
 30
0.0
  3
*D7
  1

  0
LINE
  5
93
100
AcDbEntity
  8
0
370
              -2
390
0
  6
Continuous
 62
               0
100
AcDbLine
 10
-587.97048110776586
 20
317.12345885612444
 30
0.0
 11
-832.20688305831573
 21
317.12345885612444
 31
0.0
  0
LINE
  5
94
100
AcDbEntity
  8
0
370
              -2
390
0
  6
Continuous
 62
               0
100
AcDbLine
 10
-457.20688305831538
 20
292.15210470432487
 30
0.0
 11
-832.20688305831573
 21
292.15210470432487
 31
0.0
  0
LINE
  5
95
100
AcDbEntity
  8
0
370
              -2
390
0
  6
Continuous
 62
               0
100
AcDbLine
 10
-832.20688305831573
 20
317.12345885612444
 30
0.0
 11
-832.20688305831573
 21
292.15210470432487
 31
0.0
  0
CIRCLE
  5
96
102
{ACAD_REACTORS
330
97
102
}
100
AcDbEntity
  8
0
370
              -2
390
0
  6
Continuous
 62
               0
100
AcDbCircle
 10
-832.20688305831573
 20
317.12345885612444
 30
0.0
 40
4.99969482421875
  0
HATCH
  5
97
100
AcDbEntity
  8
0
370
              -2
390
0
  6
Continuous
 62
               0
100
AcDbHatch
 10
0.0
 20
0.0
 30
0.0
210
0.0
220
0.0
230
1.0
  2
SOLID
 70
               1
 71
               1
 91
        1
 92
        1
 93
        1
 72
               2
 10
-832.20688305831573
 20
317.12345885612444
 40
4.99969482421875
 50
0.0
 51
360.0
 73
               0
 97
        1
330
96
 75
               0
 76
               1
 98
        1
 10
0.0
 20
0.0
  0
CIRCLE
  5
98
102
{ACAD_REACTORS
330
99
102
}
100
AcDbEntity
  8
0
370
              -2
390
0
  6
Continuous
 62
               0
100
AcDbCircle
 10
-832.20688305831573
 20
292.15210470432487
 30
0.0
 40
4.99969482421875
  0
HATCH
  5
99
100
AcDbEntity
  8
0
370
              -2
390
0
  6
Continuous
 62
               0
100
AcDbHatch
 10
0.0
 20
0.0
 30
0.0
210
0.0
220
0.0
230
1.0
  2
SOLID
 70
               1
 71
               1
 91
        1
 92
        1
 93
        1
 72
               2
 10
-832.20688305831573
 20
292.15210470432487
 40
4.99969482421875
 50
0.0
 51
360.0
 73
               0
 97
        1
330
98
 75
               0
 76
               1
 98
        1
 10
0.0
 20
0.0
  0
MTEXT
  5
9A
100
AcDbEntity
  8
0
390
0
 62
               0
100
AcDbMText
 10
-866.08450024581578
 20
288.76278178022466
 30
0.0
 40
24.432617187500004
 41
0.0
 71
               1
 72
               1
  1
25
  7
ＭＳ ゴシック
 11
0.0
 21
1.0
 31
0.0
 73
               1
 44
0.7828267384257843
  0
POINT
  5
9B
100
AcDbEntity
  8
Defpoints
370
               0
390
0
 62
               0
100
AcDbPoint
 10
-432.20688305831538
 20
292.15210470432487
 30
0.0
  0
POINT
  5
9C
100
AcDbEntity
  8
Defpoints
370
               0
390
0
 62
               0
100
AcDbPoint
 10
-562.97048110776586
 20
317.12345885612444
 30
0.0
  0
POINT
  5
9D
100
AcDbEntity
  8
Defpoints
370
               0
390
0
 62
               0
100
AcDbPoint
 10
-832.20688305831573
 20
317.12345885612444
 30
0.0
  0
ENDBLK
  5
9E
100
AcDbEntity
  8
notes
390
0
100
AcDbBlockEnd
  0
BLOCK
  5
9F
100
AcDbEntity
  8
notes
390
0
100
AcDbBlockBegin
  2
*D8
 70
               1
 10
0.0
 20
0.0
 30
0.0
  3
*D8
  1

  0
LINE
  5
A0
100
AcDbEntity
  8
0
370
              -2
390
0
  6
Continuous
 62
               0
100
AcDbLine
 10
-669.72660379036574
 20
364.47657518302356
 30
0.0
 11
-669.72660379036574
 21
114.73321537554263
 31
0.0
  0
LINE
  5
A1
100
AcDbEntity
  8
0
370
              -2
390
0
  6
Continuous
 62
               0
100
AcDbLine
 10
-194.70688305831553
 20
364.50857728045827
 30
0.0
 11
-194.70688305831553
 21
114.73321537554263
 31
0.0
  0
LINE
  5
A2
100
AcDbEntity
  8
0
370
              -2
390
0
  6
Continuous
 62
               0
100
AcDbLine
 10
-669.72660379036574
 20
114.73321537554263
 30
0.0
 11
-194.70688305831553
 21
114.73321537554263
 31
0.0
  0
CIRCLE
  5
A3
102
{ACAD_REACTORS
330
A4
102
}
100
AcDbEntity
  8
0
370
              -2
390
0
  6
Continuous
 62
               0
100
AcDbCircle
 10
-669.72660379036574
 20
114.73321537554263
 30
0.0
 40
4.99969482421875
  0
HATCH
  5
A4
100
AcDbEntity
  8
0
370
              -2
390
0
  6
Continuous
 62
               0
100
AcDbHatch
 10
0.0
 20
0.0
 30
0.0
210
0.0
220
0.0
230
1.0
  2
SOLID
 70
               1
 71
               1
 91
        1
 92
        1
 93
        1
 72
               2
 10
-669.72660379036574
 20
114.73321537554263
 40
4.99969482421875
 50
0.0
 51
360.0
 73
               0
 97
        1
330
A3
 75
               0
 76
               1
 98
        1
 10
0.0
 20
0.0
  0
CIRCLE
  5
A5
102
{ACAD_REACTORS
330
A6
102
}
100
AcDbEntity
  8
0
370
              -2
390
0
  6
Continuous
 62
               0
100
AcDbCircle
 10
-194.70688305831553
 20
114.73321537554263
 30
0.0
 40
4.99969482421875
  0
HATCH
  5
A6
100
AcDbEntity
  8
0
370
              -2
390
0
  6
Continuous
 62
               0
100
AcDbHatch
 10
0.0
 20
0.0
 30
0.0
210
0.0
220
0.0
230
1.0
  2
SOLID
 70
               1
 71
               1
 91
        1
 92
        1
 93
        1
 72
               2
 10
-194.70688305831553
 20
114.73321537554263
 40
4.99969482421875
 50
0.0
 51
360.0
 73
               0
 97
        1
330
A5
 75
               0
 76
               1
 98
        1
 10
0.0
 20
0.0
  0
MTEXT
  5
A7
100
AcDbEntity
  8
0
390
0
 62
               0
100
AcDbMText
 10
-456.0292451065161
 20
148.61083256304261
 30
0.0
 40
24.432617187500004
 41
0.0
 71
               1
 72
               1
  1
475
  7
ＭＳ ゴシック
 73
               1
 44
0.7828267384257843
  0
POINT
  5
A8
100
AcDbEntity
  8
Defpoints
370
               0
390
0
 62
               0
100
AcDbPoint
 10
-194.70688305831553
 20
389.50857728045827
 30
0.0
  0
POINT
  5
A9
100
AcDbEntity
  8
Defpoints
370
               0
390
0
 62
               0
100
AcDbPoint
 10
-669.72660379036574
 20
389.47657518302356
 30
0.0
  0
POINT
  5
AA
100
AcDbEntity
  8
Defpoints
370
               0
390
0
 62
               0
100
AcDbPoint
 10
-669.72660379036574
 20
114.73321537554263
 30
0.0
  0
ENDBLK
  5
AB
100
AcDbEntity
  8
notes
390
0
100
AcDbBlockEnd
  0
BLOCK
  5
AC
100
AcDbEntity
  8
notes
390
0
100
AcDbBlockBegin
  2
*D9
 70
               1
 10
0.0
 20
0.0
 30
0.0
  3
*D9
  1

  0
LINE
  5
AD
100
AcDbEntity
  8
0
370
              -2
390
0
  6
Continuous
 62
               0
100
AcDbLine
 10
185.59261296045761
 20
-408.00195251634148
 30
0.0
 11
185.59261296045761
 21
-327.66403945269144
 31
0.0
  0
LINE
  5
AE
100
AcDbEntity
  8
0
370
              -2
390
0
  6
Continuous
 62
               0
100
AcDbLine
 10
235.59261296045761
 20
-402.66403945269144
 30
0.0
 11
235.59261296045761
 21
-327.66403945269144
 31
0.0
  0
LINE
  5
AF
100
AcDbEntity
  8
0
370
              -2
390
0
  6
Continuous
 62
               0
100
AcDbLine
 10
185.59261296045761
 20
-327.66403945269144
 30
0.0
 11
235.59261296045761
 21
-327.66403945269144
 31
0.0
  0
CIRCLE
  5
B0
102
{ACAD_REACTORS
330
B1
102
}
100
AcDbEntity
  8
0
370
              -2
390
0
  6
Continuous
 62
               0
100
AcDbCircle
 10
185.59261296045761
 20
-327.66403945269144
 30
0.0
 40
4.99969482421875
  0
HATCH
  5
B1
100
AcDbEntity
  8
0
370
              -2
390
0
  6
Continuous
 62
               0
100
AcDbHatch
 10
0.0
 20
0.0
 30
0.0
210
0.0
220
0.0
230
1.0
  2
SOLID
 70
               1
 71
               1
 91
        1
 92
        1
 93
        1
 72
               2
 10
185.59261296045761
 20
-327.66403945269144
 40
4.99969482421875
 50
0.0
 51
360.0
 73
               0
 97
        1
330
B0
 75
               0
 76
               1
 98
        1
 10
0.0
 20
0.0
  0
CIRCLE
  5
B2
102
{ACAD_REACTORS
330
B3
102
}
100
AcDbEntity
  8
0
370
              -2
390
0
  6
Continuous
 62
               0
100
AcDbCircle
 10
235.59261296045761
 20
-327.66403945269144
 30
0.0
 40
4.99969482421875
  0
HATCH
  5
B3
100
AcDbEntity
  8
0
370
              -2
390
0
  6
Continuous
 62
               0
100
AcDbHatch
 10
0.0
 20
0.0
 30
0.0
210
0.0
220
0.0
230
1.0
  2
SOLID
 70
               1
 71
               1
 91
        1
 92
        1
 93
        1
 72
               2
 10
235.59261296045761
 20
-327.66403945269144
 40
4.99969482421875
 50
0.0
 51
360.0
 73
               0
 97
        1
330
B2
 75
               0
 76
               1
 98
        1
 10
0.0
 20
0.0
  0
MTEXT
  5
B4
100
AcDbEntity
  8
0
390
0
 62
               0
100
AcDbMText
 10
194.71761296045761
 20
-293.78642226519145
 30
0.0
 40
24.432617187500004
 41
0.0
 71
               1
 72
               1
  1
50
  7
ＭＳ ゴシック
 73
               1
 44
0.7828267384257843
  0
POINT
  5
B5
100
AcDbEntity
  8
Defpoints
370
               0
390
0
 62
               0
100
AcDbPoint
 10
235.59261296045761
 20
-427.66403945269144
 30
0.0
  0
POINT
  5
B6
100
AcDbEntity
  8
Defpoints
370
               0
390
0
 62
               0
100
AcDbPoint
 10
185.59261296045761
 20
-433.00195251634148
 30
0.0
  0
POINT
  5
B7
100
AcDbEntity
  8
Defpoints
370
               0
390
0
 62
               0
100
AcDbPoint
 10
185.59261296045761
 20
-327.66403945269144
 30
0.0
  0
ENDBLK
  5
B8
100
AcDbEntity
  8
notes
390
0
100
AcDbBlockEnd
  0
BLOCK
  5
B9
100
AcDbEntity
  8
notes
390
0
100
AcDbBlockBegin
  2
*D10
 70
               1
 10
0.0
 20
0.0
 30
0.0
  3
*D10
  1

  0
LINE
  5
BA
100
AcDbEntity
  8
0
370
              -2
390
0
  6
Continuous
 62
               0
100
AcDbLine
 10
473.23771208985772
 20
-601.95641444267733
 30
0.0
 11
473.23771208985772
 21
-676.95913049379249
 31
0.0
  0
LINE
  5
BB
100
AcDbEntity
  8
0
370
              -2
390
0
  6
Continuous
 62
               0
100
AcDbLine
 10
185.63771208985756
 20
-460.24780552901791
 30
0.0
 11
185.63771208985756
 21
-676.95913049379249
 31
0.0
  0
LINE
  5
BC
100
AcDbEntity
  8
0
370
              -2
390
0
  6
Continuous
 62
               0
100
AcDbLine
 10
473.23771208985772
 20
-676.95913049379249
 30
0.0
 11
185.63771208985756
 21
-676.95913049379249
 31
0.0
  0
CIRCLE
  5
BD
102
{ACAD_REACTORS
330
BE
102
}
100
AcDbEntity
  8
0
370
              -2
390
0
  6
Continuous
 62
               0
100
AcDbCircle
 10
473.23771208985772
 20
-676.95913049379249
 30
0.0
 40
4.99969482421875
  0
HATCH
  5
BE
100
AcDbEntity
  8
0
370
              -2
390
0
  6
Continuous
 62
               0
100
AcDbHatch
 10
0.0
 20
0.0
 30
0.0
210
0.0
220
0.0
230
1.0
  2
SOLID
 70
               1
 71
               1
 91
        1
 92
        1
 93
        1
 72
               2
 10
473.23771208985772
 20
-676.95913049379249
 40
4.99969482421875
 50
0.0
 51
360.0
 73
               0
 97
        1
330
BD
 75
               0
 76
               1
 98
        1
 10
0.0
 20
0.0
  0
CIRCLE
  5
BF
102
{ACAD_REACTORS
330
C0
102
}
100
AcDbEntity
  8
0
370
              -2
390
0
  6
Continuous
 62
               0
100
AcDbCircle
 10
185.63771208985756
 20
-676.95913049379249
 30
0.0
 40
4.99969482421875
  0
HATCH
  5
C0
100
AcDbEntity
  8
0
370
              -2
390
0
  6
Continuous
 62
               0
100
AcDbHatch
 10
0.0
 20
0.0
 30
0.0
210
0.0
220
0.0
230
1.0
  2
SOLID
 70
               1
 71
               1
 91
        1
 92
        1
 93
        1
 72
               2
 10
185.63771208985756
 20
-676.95913049379249
 40
4.99969482421875
 50
0.0
 51
360.0
 73
               0
 97
        1
330
BF
 75
               0
 76
               1
 98
        1
 10
0.0
 20
0.0
  0
MTEXT
  5
C1
100
AcDbEntity
  8
0
390
0
 62
               0
100
AcDbMText
 10
289.75021208985765
 20
-643.08151330629244
 30
0.0
 40
24.432617187500004
 41
0.0
 71
               1
 72
               1
  1
287.6
  7
ＭＳ ゴシック
 73
               1
 44
0.7828267384257843
  0
POINT
  5
C2
100
AcDbEntity
  8
Defpoints
370
               0
390
0
 62
               0
100
AcDbPoint
 10
185.63771208985756
 20
-435.24780552901791
 30
0.0
  0
POINT
  5
C3
100
AcDbEntity
  8
Defpoints
370
               0
390
0
 62
               0
100
AcDbPoint
 10
473.23771208985772
 20
-576.95641444267744
 30
0.0
  0
POINT
  5
C4
100
AcDbEntity
  8
Defpoints
370
               0
390
0
 62
               0
100
AcDbPoint
 10
473.23771208985772
 20
-676.95913049379249
 30
0.0
  0
ENDBLK
  5
C5
100
AcDbEntity
  8
notes
390
0
100
AcDbBlockEnd
  0
BLOCK
  5
C6
100
AcDbEntity
  8
notes
390
0
100
AcDbBlockBegin
  2
*D11
 70
               1
 10
0.0
 20
0.0
 30
0.0
  3
*D11
  1

  0
LINE
  5
C7
100
AcDbEntity
  8
0
370
              -2
390
0
  6
Continuous
 62
               0
100
AcDbLine
 10
451.73730224636176
 20
-427.66403945269144
 30
0.0
 11
462.73730224636176
 21
-427.66403945269144
 31
0.0
  0
LINE
  5
C8
100
AcDbEntity
  8
0
370
              -2
390
0
  6
Continuous
 62
               0
100
AcDbLine
 10
451.73730224636176
 20
-566.66403945269144
 30
0.0
 11
462.73730224636176
 21
-566.66403945269144
 31
0.0
  0
LINE
  5
C9
100
AcDbEntity
  8
0
370
              -2
390
0
  6
Continuous
 62
               0
100
AcDbLine
 10
462.73730224636176
 20
-427.66403945269144
 30
0.0
 11
462.73730224636176
 21
-267.46853137700271
 31
0.0
  0
LINE
  5
CA
100
AcDbEntity
  8
0
370
              -2
390
0
  6
Continuous
 62
               0
100
AcDbLine
 10
462.73730224636176
 20
-427.66403945269144
 30
0.0
 11
462.73730224636176
 21
-566.66403945269144
 31
0.0
  0
CIRCLE
  5
CB
102
{ACAD_REACTORS
330
CC
102
}
100
AcDbEntity
  8
0
370
              -2
390
0
  6
Continuous
 62
               0
100
AcDbCircle
 10
462.73730224636176
 20
-427.66403945269144
 30
0.0
 40
4.99969482421875
  0
HATCH
  5
CC
100
AcDbEntity
  8
0
370
              -2
390
0
  6
Continuous
 62
               0
100
AcDbHatch
 10
0.0
 20
0.0
 30
0.0
210
0.0
220
0.0
230
1.0
  2
SOLID
 70
               1
 71
               1
 91
        1
 92
        1
 93
        1
 72
               2
 10
462.73730224636176
 20
-427.66403945269144
 40
4.99969482421875
 50
0.0
 51
360.0
 73
               0
 97
        1
330
CB
 75
               0
 76
               1
 98
        1
 10
0.0
 20
0.0
  0
CIRCLE
  5
CD
102
{ACAD_REACTORS
330
CE
102
}
100
AcDbEntity
  8
0
370
              -2
390
0
  6
Continuous
 62
               0
100
AcDbCircle
 10
462.73730224636176
 20
-566.66403945269144
 30
0.0
 40
4.99969482421875
  0
HATCH
  5
CE
100
AcDbEntity
  8
0
370
              -2
390
0
  6
Continuous
 62
               0
100
AcDbHatch
 10
0.0
 20
0.0
 30
0.0
210
0.0
220
0.0
230
1.0
  2
SOLID
 70
               1
 71
               1
 91
        1
 92
        1
 93
        1
 72
               2
 10
462.73730224636176
 20
-566.66403945269144
 40
4.99969482421875
 50
0.0
 51
360.0
 73
               0
 97
        1
330
CD
 75
               0
 76
               1
 98
        1
 10
0.0
 20
0.0
  0
MTEXT
  5
CF
100
AcDbEntity
  8
0
390
0
 62
               0
100
AcDbMText
 10
428.85968505886171
 20
-410.34353137700271
 30
0.0
 40
24.432617187500004
 41
0.0
 71
               1
 72
               1
  1
139(深さ)
  7
ＭＳ ゴシック
 11
0.0
 21
1.0
 31
0.0
 73
               1
 44
0.7828267384257843
  0
POINT
  5
D0
100
AcDbEntity
  8
Defpoints
370
               0
390
0
 62
               0
100
AcDbPoint
 10
476.73730224636176
 20
-566.66403945269144
 30
0.0
  0
POINT
  5
D1
100
AcDbEntity
  8
Defpoints
370
               0
390
0
 62
               0
100
AcDbPoint
 10
476.73730224636176
 20
-427.66403945269144
 30
0.0
  0
POINT
  5
D2
100
AcDbEntity
  8
Defpoints
370
               0
390
0
 62
               0
100
AcDbPoint
 10
462.73730224636176
 20
-427.66403945269144
 30
0.0
  0
ENDBLK
  5
D3
100
AcDbEntity
  8
notes
390
0
100
AcDbBlockEnd
  0
BLOCK
  5
D4
100
AcDbEntity
  8
notes
390
0
100
AcDbBlockBegin
  2
*D12
 70
               1
 10
0.0
 20
0.0
 30
0.0
  3
*D12
  1

  0
LINE
  5
D5
100
AcDbEntity
  8
0
370
              -2
390
0
  6
Continuous
 62
               0
100
AcDbLine
 10
-110.91875469796551
 20
-427.63037577244324
 30
0.0
 11
17.522959062734429
 21
-427.63037577244324
 31
0.0
  0
LINE
  5
D6
100
AcDbEntity
  8
0
370
              -2
390
0
  6
Continuous
 62
               0
100
AcDbLine
 10
-381.39702540356541
 20
-616.63037577244324
 30
0.0
 11
17.522959062734429
 21
-616.63037577244324
 31
0.0
  0
LINE
  5
D7
100
AcDbEntity
  8
0
370
              -2
390
0
  6
Continuous
 62
               0
100
AcDbLine
 10
17.522959062734429
 20
-427.63037577244324
 30
0.0
 11
17.522959062734429
 21
-616.63037577244324
 31
0.0
  0
CIRCLE
  5
D8
102
{ACAD_REACTORS
330
D9
102
}
100
AcDbEntity
  8
0
370
              -2
390
0
  6
Continuous
 62
               0
100
AcDbCircle
 10
17.522959062734429
 20
-427.63037577244324
 30
0.0
 40
4.99969482421875
  0
HATCH
  5
D9
100
AcDbEntity
  8
0
370
              -2
390
0
  6
Continuous
 62
               0
100
AcDbHatch
 10
0.0
 20
0.0
 30
0.0
210
0.0
220
0.0
230
1.0
  2
SOLID
 70
               1
 71
               1
 91
        1
 92
        1
 93
        1
 72
               2
 10
17.522959062734429
 20
-427.63037577244324
 40
4.99969482421875
 50
0.0
 51
360.0
 73
               0
 97
        1
330
D8
 75
               0
 76
               1
 98
        1
 10
0.0
 20
0.0
  0
CIRCLE
  5
DA
102
{ACAD_REACTORS
330
DB
102
}
100
AcDbEntity
  8
0
370
              -2
390
0
  6
Continuous
 62
               0
100
AcDbCircle
 10
17.522959062734429
 20
-616.63037577244324
 30
0.0
 40
4.99969482421875
  0
HATCH
  5
DB
100
AcDbEntity
  8
0
370
              -2
390
0
  6
Continuous
 62
               0
100
AcDbHatch
 10
0.0
 20
0.0
 30
0.0
210
0.0
220
0.0
230
1.0
  2
SOLID
 70
               1
 71
               1
 91
        1
 92
        1
 93
        1
 72
               2
 10
17.522959062734429
 20
-616.63037577244324
 40
4.99969482421875
 50
0.0
 51
360.0
 73
               0
 97
        1
330
DA
 75
               0
 76
               1
 98
        1
 10
0.0
 20
0.0
  0
MTEXT
  5
DC
100
AcDbEntity
  8
0
390
0
 62
               0
100
AcDbMText
 10
-16.354658124765578
 20
-545.94287745461884
 30
0.0
 40
24.432617187500004
 41
0.0
 71
               1
 72
               1
  1
189
  7
ＭＳ ゴシック
 11
0.0
 21
1.0
 31
0.0
 73
               1
 44
0.7828267384257843
  0
POINT
  5
DD
100
AcDbEntity
  8
Defpoints
370
               0
390
0
 62
               0
100
AcDbPoint
 10
-406.39702540356541
 20
-616.63037577244324
 30
0.0
  0
POINT
  5
DE
100
AcDbEntity
  8
Defpoints
370
               0
390
0
 62
               0
100
AcDbPoint
 10
-135.91875469796551
 20
-427.63037577244324
 30
0.0
  0
POINT
  5
DF
100
AcDbEntity
  8
Defpoints
370
               0
390
0
 62
               0
100
AcDbPoint
 10
17.522959062734429
 20
-427.63037577244324
 30
0.0
  0
ENDBLK
  5
E0
100
AcDbEntity
  8
notes
390
0
100
AcDbBlockEnd
  0
BLOCK
  5
E1
100
AcDbEntity
  8
notes
390
0
100
AcDbBlockBegin
  2
*D13
 70
               1
 10
0.0
 20
0.0
 30
0.0
  3
*D13
  1

  0
LINE
  5
E2
100
AcDbEntity
  8
0
370
              -2
390
0
  6
Continuous
 62
               0
100
AcDbLine
 10
707.15556761575738
 20
-427.66403945269144
 30
0.0
 11
785.93750519765729
 21
-427.66403945269144
 31
0.0
  0
LINE
  5
E3
100
AcDbEntity
  8
0
370
              -2
390
0
  6
Continuous
 62
               0
100
AcDbLine
 10
709.81077917951905
 20
-435.6640394526911
 30
0.0
 11
785.93750519765729
 21
-435.6640394526911
 31
0.0
  0
LINE
  5
E4
100
AcDbEntity
  8
0
370
              -2
390
0
  6
Continuous
 62
               0
100
AcDbLine
 10
785.93750519765729
 20
-427.66403945269144
 30
0.0
 11
785.93750519765729
 21
-363.99486550574284
 31
0.0
  0
LINE
  5
E5
100
AcDbEntity
  8
0
370
              -2
390
0
  6
Continuous
 62
               0
100
AcDbLine
 10
785.93750519765729
 20
-427.66403945269144
 30
0.0
 11
785.93750519765729
 21
-435.6640394526911
 31
0.0
  0
CIRCLE
  5
E6
102
{ACAD_REACTORS
330
E7
102
}
100
AcDbEntity
  8
0
370
              -2
390
0
  6
Continuous
 62
               0
100
AcDbCircle
 10
785.93750519765729
 20
-427.66403945269144
 30
0.0
 40
4.99969482421875
  0
HATCH
  5
E7
100
AcDbEntity
  8
0
370
              -2
390
0
  6
Continuous
 62
               0
100
AcDbHatch
 10
0.0
 20
0.0
 30
0.0
210
0.0
220
0.0
230
1.0
  2
SOLID
 70
               1
 71
               1
 91
        1
 92
        1
 93
        1
 72
               2
 10
785.93750519765729
 20
-427.66403945269144
 40
4.99969482421875
 50
0.0
 51
360.0
 73
               0
 97
        1
330
E6
 75
               0
 76
               1
 98
        1
 10
0.0
 20
0.0
  0
CIRCLE
  5
E8
102
{ACAD_REACTORS
330
E9
102
}
100
AcDbEntity
  8
0
370
              -2
390
0
  6
Continuous
 62
               0
100
AcDbCircle
 10
785.93750519765729
 20
-435.6640394526911
 30
0.0
 40
4.99969482421875
  0
HATCH
  5
E9
100
AcDbEntity
  8
0
370
              -2
390
0
  6
Continuous
 62
               0
100
AcDbHatch
 10
0.0
 20
0.0
 30
0.0
210
0.0
220
0.0
230
1.0
  2
SOLID
 70
               1
 71
               1
 91
        1
 92
        1
 93
        1
 72
               2
 10
785.93750519765729
 20
-435.6640394526911
 40
4.99969482421875
 50
0.0
 51
360.0
 73
               0
 97
        1
330
E8
 75
               0
 76
               1
 98
        1
 10
0.0
 20
0.0
  0
MTEXT
  5
EA
100
AcDbEntity
  8
0
390
0
 62
               0
100
AcDbMText
 10
752.05988801015724
 20
-379.86986550574284
 30
0.0
 40
24.432617187500004
 41
0.0
 71
               1
 72
               1
  1
8
  7
ＭＳ ゴシック
 11
0.0
 21
1.0
 31
0.0
 73
               1
 44
0.7828267384257843
  0
POINT
  5
EB
100
AcDbEntity
  8
Defpoints
370
               0
390
0
 62
               0
100
AcDbPoint
 10
684.81077917951905
 20
-435.6640394526911
 30
0.0
  0
POINT
  5
EC
100
AcDbEntity
  8
Defpoints
370
               0
390
0
 62
               0
100
AcDbPoint
 10
682.15556761575738
 20
-427.66403945269144
 30
0.0
  0
POINT
  5
ED
100
AcDbEntity
  8
Defpoints
370
               0
390
0
 62
               0
100
AcDbPoint
 10
785.93750519765729
 20
-427.66403945269144
 30
0.0
  0
ENDBLK
  5
EE
100
AcDbEntity
  8
notes
390
0
100
AcDbBlockEnd
  0
BLOCK
  5
EF
100
AcDbEntity
  8
notes
390
0
100
AcDbBlockBegin
  2
グループ-1
 70
               0
 10
0.0
 20
0.0
 30
0.0
  3
グループ-1
  1

  0
POLYLINE
  5
F0
100
AcDbEntity
  8
0
370
              15
390
0
  6
Continuous
 62
               7
100
AcDb2dPolyline
 66
               1
 10
0.0
 20
0.0
 30
0.0
 70
               1
 75
               5
  0
VERTEX
  5
F1
100
AcDbEntity
  8
0
370
              15
390
0
  6
Continuous
 62
               7
100
AcDbVertex
100
AcDb2dVertex
 10
-467.0
 20
-497.35717080218188
 30
0.0
  0
VERTEX
  5
F2
100
AcDbEntity
  8
0
370
              15
390
0
  6
Continuous
 62
               7
100
AcDbVertex
100
AcDb2dVertex
 10
-397.0
 20
-497.35717080218188
 30
0.0
  0
VERTEX
  5
F3
100
AcDbEntity
  8
0
370
              15
390
0
  6
Continuous
 62
               7
100
AcDbVertex
100
AcDb2dVertex
 10
-397.0
 20
-541.98754657462518
 30
0.0
  0
VERTEX
  5
F4
100
AcDbEntity
  8
0
370
              15
390
0
  6
Continuous
 62
               7
100
AcDbVertex
100
AcDb2dVertex
 10
-467.0
 20
-541.98754657462518
 30
0.0
  0
SEQEND
  5
F5
100
AcDbEntity
  8
0
370
              15
390
0
  6
Continuous
 62
               7
  0
LINE
  5
F6
100
AcDbEntity
  8
0
370
              15
390
0
  6
Continuous
 62
               7
100
AcDbLine
 10
-467.0
 20
-509.94674424565221
 30
0.0
 11
-397.0
 21
-509.94674424565221
 31
0.0
  0
ENDBLK
  5
F7
100
AcDbEntity
  8
notes
390
0
100
AcDbBlockEnd
  0
ENDSEC
  0
SECTION
  2
ENTITIES
  0
MTEXT
  5
F8
100
AcDbEntity
  8
template
390
0
 62
               7
100
AcDbMText
 10
-967.99999999975921
 20
-1147.4176292337004
 30
0.0
 40
16.288411458333332
 41
0.0
 71
               1
 72
               1
  1
品名
  7
ＭＳ ゴシック
 73
               1
 44
0.7828267384257843
  0
MTEXT
  5
F9
100
AcDbEntity
  8
template
390
0
 62
               7
100
AcDbMText
 10
-967.99999999975921
 20
-1232.4176292337004
 30
0.0
 40
16.288411458333332
 41
0.0
 71
               1
 72
               1
  1
仕様
  7
ＭＳ ゴシック
 73
               1
 44
0.7828267384257843
  0
MTEXT
  5
FA
100
AcDbEntity
  8
template
390
0
 62
               7
100
AcDbMText
 10
-914.99999999975921
 20
-1176.0000901712006
 30
0.0
 40
24.432617187500004
 41
0.0
 71
               1
 72
               1
  1
洗面器 -ALAPE-
  7
ＭＳ ゴシック
 73
               1
 44
0.7828267384257843
  0
LINE
  5
FB
100
AcDbEntity
  8
template
370
               5
390
0
  6
Continuous
 62
               7
100
AcDbLine
 10
974.99999999975876
 20
-1224.0027073587005
 30
0.0
 11
-975.00000000024124
 21
-1224.0027073587005
 31
0.0
  0
LWPOLYLINE
  5
FC
100
AcDbEntity
  8
template
370
               5
390
0
  6
Continuous
 62
               7
100
AcDbPolyline
 90
        5
 70
             128
 10
975.00000000024124
 20
1405.9972926412995
 10
-974.99999999975921
 20
1405.9972926412995
 10
-974.99999999975921
 20
-1394.0027073587005
 10
975.00000000024124
 20
-1394.0027073587005
 10
975.00000000024124
 20
1405.9972926412995
  0
LINE
  5
FD
100
AcDbEntity
  8
template
370
               5
390
0
  6
Continuous
 62
               7
100
AcDbLine
 10
974.99999999975876
 20
-1139.0027073587005
 30
0.0
 11
-975.00000000024124
 21
-1139.0027073587005
 31
0.0
  0
LINE
  5
FE
100
AcDbEntity
  8
template
370
               5
390
0
  6
Continuous
 62
               7
100
AcDbLine
 10
975.00000000024124
 20
-1309.0027073587005
 30
0.0
 11
222.00000000024124
 21
-1309.0027073587005
 31
0.0
  0
MTEXT
  5
FF
100
AcDbEntity
  8
template
390
0
 62
               7
100
AcDbMText
 10
-974.99999999955594
 20
-1405.8565294155574
 30
0.0
 40
21.717881944444446
 41
0.0
 71
               1
 72
               1
  1
120413SH
  7
ＭＳ ゴシック
 73
               1
 44
0.7828267384257843
  0
MTEXT
  5
100
100
AcDbEntity
  8
template
390
0
 62
               7
100
AcDbMText
 10
251.87140625250089
 20
-1338.9131018320081
 30
0.0
 40
24.432617187500004
 41
0.0
 71
               1
 72
               1
  1
大洋金物株式会社 ティーフォルム事業部
  7
ＭＳ ゴシック
 73
               1
 44
0.7828267384257843
  0
INSERT
  5
101
100
AcDbEntity
  8
template
390
0
 62
               7
100
AcDbBlockReference
  2
グループ
 10
0.0000000000000284
 20
-74.642829197818102
 30
0.0
  0
MTEXT
  5
102
100
AcDbEntity
  8
template
390
0
 62
               7
100
AcDbMText
 10
784.00000000049999
 20
-1261.0000901712006
 30
0.0
 40
24.432617187500004
 41
0.0
 71
               1
 72
               1
  1
1:10
  7
ＭＳ ゴシック
 73
               1
 44
0.7828267384257843
  0
MTEXT
  5
103
100
AcDbEntity
  8
template
390
0
 62
               7
100
AcDbMText
 10
731.00000000049999
 20
-1232.4176292337004
 30
0.0
 40
16.288411458333332
 41
0.0
 71
               1
 72
               1
  1
縮尺
  7
ＭＳ ゴシック
 73
               1
 44
0.7828267384257843
  0
LINE
  5
104
100
AcDbEntity
  8
template
370
               5
390
0
  6
Continuous
 62
               7
100
AcDbLine
 10
724.00000000049999
 20
-1309.0027073587005
 30
0.0
 11
724.00000000049999
 21
-1224.0027073587005
 31
0.0
  0
MTEXT
  5
105
100
AcDbEntity
  8
template
390
0
 62
               7
100
AcDbMText
 10
480.00000000049999
 20
-1232.4176292337004
 30
0.0
 40
16.288411458333332
 41
0.0
 71
               1
 72
               1
  1
容量
  7
ＭＳ ゴシック
 73
               1
 44
0.7828267384257843
  0
LINE
  5
106
100
AcDbEntity
  8
template
370
               5
390
0
  6
Continuous
 62
               7
100
AcDbLine
 10
473.00000000049999
 20
-1309.0027073587005
 30
0.0
 11
473.00000000049999
 21
-1224.0027073587005
 31
0.0
  0
MTEXT
  5
107
100
AcDbEntity
  8
template
390
0
 62
               7
100
AcDbMText
 10
229.00000000049999
 20
-1147.4176292337004
 30
0.0
 40
16.288411458333332
 41
0.0
 71
               1
 72
               1
  1
品番
  7
ＭＳ ゴシック
 73
               1
 44
0.7828267384257843
  0
MTEXT
  5
108
100
AcDbEntity
  8
template
390
0
 62
               7
100
AcDbMText
 10
229.00000000049999
 20
-1232.4176292337004
 30
0.0
 40
16.288411458333332
 41
0.0
 71
               1
 72
               1
  1
重量
  7
ＭＳ ゴシック
 73
               1
 44
0.7828267384257843
  0
MTEXT
  5
109
100
AcDbEntity
  8
template
390
0
 62
               7
100
AcDbMText
 10
282.00000000049999
 20
-1176.0000901712006
 30
0.0
 40
24.432617187500004
 41
0.0
 71
               1
 72
               1
  1
FAN70-0307
  7
ＭＳ ゴシック
 73
               1
 44
0.7828267384257843
  0
LINE
  5
10A
100
AcDbEntity
  8
template
370
               5
390
0
  6
Continuous
 62
               7
100
AcDbLine
 10
222.00000000049999
 20
-1394.0027073587005
 30
0.0
 11
222.00000000049999
 21
-1139.0027073587005
 31
0.0
  0
MTEXT
  5
10B
100
AcDbEntity
  8
template
390
0
 62
               7
100
AcDbMText
 10
-914.99999999975921
 20
-1261.0000901712001
 30
0.0
 40
24.432617187500004
 41
0.0
 71
               1
 72
               1
  1
オーバーカウンター/オーバーフロー付き/型紙付属/\P鋼板ホーロー/ホワイト
  7
ＭＳ ゴシック
 73
               1
 44
1.1307497332816883
  0
MTEXT
  5
10C
100
AcDbEntity
  8
template
390
0
 62
               7
100
AcDbMText
 10
282.00000000049999
 20
-1261.0000901712006
 30
0.0
 40
24.432617187500004
 41
0.0
 71
               1
 72
               1
  1
3.9kg
  7
ＭＳ ゴシック
 73
               1
 44
0.7828267384257843
  0
DIMENSION
  5
10D
100
AcDbEntity
  8
notes
370
               5
390
0
  6
Continuous
 62
               7
100
AcDbDimension
  2
*D2
 10
-132.20688305831553
 20
892.1181864266747
 30
0.0
 11
-430.50117685551561
 21
897.1181864266747
 31
0.0
 70
             128
 71
               5
 72
               1
 41
1.0
 42
0.0
  3
tfrom線あり
100
AcDbAlignedDimension
 13
-732.20688305831573
 23
542.21196123342372
 33
0.0
 14
-132.20688305831553
 24
542.21196123342372
 34
0.0
100
AcDbRotatedDimension
1001
ACAD
1000
DSTYLE
1002
{
1070
             271
1070
               2
1070
             279
1070
               2
1070
             340
1005
31
1070
             147
1040
5.0
1002
}
  0
DIMENSION
  5
10E
100
AcDbEntity
  8
notes
370
               5
390
0
  6
Continuous
 62
               7
100
AcDbDimension
  2
*D3
 10
-32.206883058315469
 20
792.21196123342372
 30
0.0
 11
-27.206883058315469
 21
540.38972461672427
 31
0.0
 70
             128
 71
               5
 72
               1
 41
1.0
 42
0.0
  3
tfrom線あり
100
AcDbAlignedDimension
 13
-432.20688305831538
 23
292.21196123342486
 33
0.0
 14
-432.20688305831538
 24
792.21196123342372
 34
0.0
 50
90.0
100
AcDbRotatedDimension
1001
ACAD
1000
DSTYLE
1002
{
1070
             271
1070
               2
1070
             279
1070
               2
1070
             340
1005
31
1070
             147
1040
5.0
1002
}
  0
DIMENSION
  5
10F
100
AcDbEntity
  8
notes
370
               5
390
0
  6
Continuous
 62
               7
100
AcDbDimension
  2
*D4
 10
-445.5600385568888
 20
730.08969031667687
 30
0.0
 11
-268.3508369058153
 21
836.03884584725461
 31
0.0
 70
               3
 71
               5
 72
               1
 41
1.0
 42
0.0
  3
tfrom線あり
100
AcDbDiametricDimension
 15
-418.85372755974197
 25
754.23038112957067
 35
0.0
 40
121.99753323809929
1001
ACAD
1000
DSTYLE
1002
{
1070
             289
1070
               0
1070
             342
1005
44
1070
             340
1005
31
1070
              75
1070
               1
1070
              76
1070
               1
1070
               3
1000

1070
             174
1070
               0
1070
             147
1040
5.0
1002
}
  0
DIMENSION
  5
110
100
AcDbEntity
  8
notes
370
               5
390
0
  6
Continuous
 62
               7
100
AcDbDimension
  2
*D5
 10
-832.20688305831561
 20
692.12345885612331
 30
0.0
 11
-832.20688305831561
 21
742.12082264139906
 31
0.0
 71
               5
 72
               1
 41
1.0
 42
0.0
  3
tfrom線あり
100
AcDbAlignedDimension
 13
-433.49447789391536
 23
792.1181864266747
 33
0.0
 14
-672.11389001413909
 24
692.12345885612331
 34
0.0
 50
90.0
100
AcDbRotatedDimension
1001
ACAD
1000
DSTYLE
1002
{
1070
             279
1070
               2
1070
             340
1005
31
1070
             147
1040
5.0
1002
}
  0
DIMENSION
  5
111
100
AcDbEntity
  8
notes
370
               5
390
0
  6
Continuous
 62
               7
100
AcDbDimension
  2
*D6
 10
-832.20688305831561
 20
692.12345885612331
 30
0.0
 11
-832.20688305831561
 21
504.62345885612382
 31
0.0
 71
               5
 72
               1
 41
1.0
 42
0.0
  3
tfrom線あり
100
AcDbAlignedDimension
 13
-562.97048110776586
 23
317.12345885612444
 33
0.0
 14
-672.11389001413909
 24
692.12345885612331
 34
0.0
 50
90.0
100
AcDbRotatedDimension
1001
ACAD
1000
DSTYLE
1002
{
1070
             279
1070
               2
1070
             340
1005
31
1070
             147
1040
5.0
1002
}
  0
DIMENSION
  5
112
100
AcDbEntity
  8
notes
370
               5
390
0
  6
Continuous
 62
               7
100
AcDbDimension
  2
*D7
 10
-832.20688305831573
 20
317.12345885612444
 30
0.0
 11
-832.20688305831573
 21
304.63778178022466
 31
0.0
 71
               5
 72
               1
 41
1.0
 42
0.0
  3
tfrom線あり
100
AcDbAlignedDimension
 13
-432.20688305831538
 23
292.15210470432487
 33
0.0
 14
-562.97048110776586
 24
317.12345885612444
 34
0.0
 50
90.0
100
AcDbRotatedDimension
1001
ACAD
1000
DSTYLE
1002
{
1070
             279
1070
               2
1070
             340
1005
31
1070
             147
1040
5.0
1002
}
  0
DIMENSION
  5
113
100
AcDbEntity
  8
notes
370
               5
390
0
  6
Continuous
 62
               7
100
AcDbDimension
  2
*D8
 10
-669.72660379036574
 20
114.73321537554263
 30
0.0
 11
-432.21674342434062
 21
114.73321537554263
 31
0.0
 71
               5
 72
               1
 41
1.0
 42
0.0
  3
tfrom線あり
100
AcDbAlignedDimension
 13
-194.70688305831553
 23
389.50857728045827
 33
0.0
 14
-669.72660379036574
 24
389.47657518302356
 34
0.0
100
AcDbRotatedDimension
1001
ACAD
1000
DSTYLE
1002
{
1070
             279
1070
               2
1070
             340
1005
31
1070
             147
1040
5.0
1002
}
  0
DIMENSION
  5
114
100
AcDbEntity
  8
notes
370
               5
390
0
  6
Continuous
 62
               7
100
AcDbDimension
  2
*D9
 10
185.59261296045761
 20
-327.66403945269144
 30
0.0
 11
210.59261296045761
 21
-322.66403945269144
 31
0.0
 70
             128
 71
               5
 72
               1
 41
1.0
 42
0.0
  3
tfrom線あり
100
AcDbAlignedDimension
 13
235.59261296045761
 23
-427.66403945269144
 33
0.0
 14
185.59261296045761
 24
-433.00195251634148
 34
0.0
100
AcDbRotatedDimension
1001
ACAD
1000
DSTYLE
1002
{
1070
             279
1070
               2
1070
             340
1005
31
1070
             147
1040
5.0
1002
}
  0
DIMENSION
  5
115
100
AcDbEntity
  8
notes
370
               5
390
0
  6
Continuous
 62
               7
100
AcDbDimension
  2
*D10
 10
473.23771208985772
 20
-676.95913049379249
 30
0.0
 11
329.43771208985765
 21
-676.95913049379249
 31
0.0
 71
               5
 72
               1
 41
1.0
 42
0.0
  3
tfrom線あり
100
AcDbAlignedDimension
 13
185.63771208985756
 23
-435.24780552901791
 33
0.0
 14
473.23771208985772
 24
-576.95641444267744
 34
0.0
100
AcDbRotatedDimension
1001
ACAD
1000
DSTYLE
1002
{
1070
             279
1070
               2
1070
             340
1005
31
1070
             147
1040
5.0
1002
}
  0
DIMENSION
  5
116
100
AcDbEntity
  8
notes
370
               5
390
0
  6
Continuous
 62
               7
100
AcDbDimension
  2
*D11
 10
462.73730224636176
 20
-427.66403945269144
 30
0.0
 11
457.73730224636176
 21
-410.34353137700271
 31
0.0
 70
             128
 71
               5
 72
               1
 41
1.0
 42
0.0
  3
tfrom線あり
100
AcDbAlignedDimension
 13
476.73730224636176
 23
-566.66403945269144
 33
0.0
 14
476.73730224636176
 24
-427.66403945269144
 34
0.0
 50
90.0
100
AcDbRotatedDimension
1001
ACAD
1000
DSTYLE
1002
{
1070
             279
1070
               2
1070
             340
1005
31
1070
               3
1000
<>(深さ)
1070
             174
1070
               0
1070
             147
1040
5.0
1002
}
  0
DIMENSION
  5
117
100
AcDbEntity
  8
notes
370
               5
390
0
  6
Continuous
 62
               7
100
AcDbDimension
  2
*D12
 10
17.522959062734429
 20
-427.63037577244324
 30
0.0
 11
17.522959062734429
 21
-522.13037577244324
 31
0.0
 71
               5
 72
               1
 41
1.0
 42
0.0
  3
tfrom線あり
100
AcDbAlignedDimension
 13
-406.39702540356541
 23
-616.63037577244324
 33
0.0
 14
-135.91875469796551
 24
-427.63037577244324
 34
0.0
 50
90.0
100
AcDbRotatedDimension
1001
ACAD
1000
DSTYLE
1002
{
1070
             279
1070
               2
1070
             340
1005
31
1070
             147
1040
5.0
1002
}
  0
DIMENSION
  5
118
100
AcDbEntity
  8
notes
370
               5
390
0
  6
Continuous
 62
               7
100
AcDbDimension
  2
*D13
 10
785.93750519765729
 20
-427.66403945269144
 30
0.0
 11
790.93750519765729
 21
-379.86986550574284
 31
0.0
 70
             128
 71
               5
 72
               1
 41
1.0
 42
0.0
  3
tfrom線あり
100
AcDbAlignedDimension
 13
684.81077917951905
 23
-435.6640394526911
 33
0.0
 14
682.15556761575738
 24
-427.66403945269144
 34
0.0
 50
90.0
100
AcDbRotatedDimension
1001
ACAD
1000
DSTYLE
1002
{
1070
             279
1070
               2
1070
             340
1005
31
1070
             174
1070
               0
1070
             147
1040
5.0
1002
}
  0
MTEXT
  5
119
100
AcDbEntity
  8
notes
390
0
 62
               7
100
AcDbMText
 10
267.375
 20
-1020.2473828124999
 30
0.0
 40
24.432617187500004
 41
0.0
 71
               1
 72
               1
  1
※カウンターの切込は、商品に付属する型紙を\P　ご参照の上、加工を行ってください。
  7
ＭＳ ゴシック
 73
               1
 44
1.1742401076386764
  0
INSERT
  5
11A
100
AcDbEntity
  8
notes
390
0
 62
               7
100
AcDbBlockReference
  2
グループ-1
 10
-0.0000000000000284
 20
43.095057530435547
 30
-60.945614830790731
 50
-135.0
210
0.0
220
0.8164965809277262
230
0.5773502691896258
  0
POLYLINE
  5
11B
100
AcDbEntity
  8
notes
370
              15
390
0
  6
Continuous
 62
               7
100
AcDb2dPolyline
 66
               1
 10
0.0
 20
0.0
 30
0.0
 70
               1
 75
               5
  0
VERTEX
  5
11C
100
AcDbEntity
  8
notes
370
              15
390
0
  6
Continuous
 62
               7
100
AcDbVertex
100
AcDb2dVertex
 10
435.85932511792657
 20
-569.0
 30
0.0
  0
VERTEX
  5
11D
100
AcDbEntity
  8
notes
370
              15
390
0
  6
Continuous
 62
               7
100
AcDbVertex
100
AcDb2dVertex
 10
511.0
 20
-569.0
 30
0.0
  0
VERTEX
  5
11E
100
AcDbEntity
  8
notes
370
              15
390
0
  6
Continuous
 62
               7
100
AcDbVertex
100
AcDb2dVertex
 10
511.0
 20
-616.63037577244324
 30
0.0
  0
VERTEX
  5
11F
100
AcDbEntity
  8
notes
370
              15
390
0
  6
Continuous
 62
               7
100
AcDbVertex
100
AcDb2dVertex
 10
435.85932511792657
 20
-616.63037577244324
 30
0.0
  0
SEQEND
  5
120
100
AcDbEntity
  8
notes
370
              15
390
0
  6
Continuous
 62
               7
  0
LINE
  5
121
100
AcDbEntity
  8
notes
370
              15
390
0
  6
Continuous
 62
               7
100
AcDbLine
 10
435.85932511792657
 20
-581.0
 30
0.0
 11
510.85932511792726
 21
-581.0
 31
0.0
  0
ARC
  5
122
100
AcDbEntity
  8
FAN70-0307
370
              15
390
0
  6
Continuous
 62
               7
100
AcDbCircle
 10
-133.10060635696553
 20
-434.88037544434326
 30
0.0
 40
0.7499999999999601
100
AcDbArc
 50
269.99993973749741
 51
2.4460371422985649
  0
POLYLINE
  5
123
100
AcDbEntity
  8
FAN70-0307
370
              15
390
0
  6
Continuous
 62
               7
100
AcDb2dPolyline
 66
               1
 10
0.0
 20
0.0
 30
0.0
 75
               5
  0
VERTEX
  5
124
100
AcDbEntity
  8
FAN70-0307
370
              15
390
0
  6
Continuous
 62
               7
100
AcDbVertex
100
AcDb2dVertex
 10
-732.60334749956564
 20
-434.86716599784324
 30
0.0
  0
VERTEX
  5
125
100
AcDbEntity
  8
FAN70-0307
370
              15
390
0
  6
Continuous
 62
               7
100
AcDbVertex
100
AcDb2dVertex
 10
-732.59120927156573
 20
-435.01540015214334
 30
0.0
  0
VERTEX
  5
126
100
AcDbEntity
  8
FAN70-0307
370
              15
390
0
  6
Continuous
 62
               7
100
AcDbVertex
100
AcDb2dVertex
 10
-732.55005869636557
 20
-435.1583243665433
 30
0.0
  0
VERTEX
  5
127
100
AcDbEntity
  8
FAN70-0307
370
              15
390
0
  6
Continuous
 62
               7
100
AcDbVertex
100
AcDb2dVertex
 10
-732.48151404876558
 20
-435.29031804754322
 30
0.0
  0
VERTEX
  5
128
100
AcDbEntity
  8
FAN70-0307
370
              15
390
0
  6
Continuous
 62
               7
100
AcDbVertex
100
AcDb2dVertex
 10
-732.38827089426559
 20
-435.4061904524433
 30
0.0
  0
VERTEX
  5
129
100
AcDbEntity
  8
FAN70-0307
370
              15
390
0
  6
Continuous
 62
               7
100
AcDbVertex
100
AcDb2dVertex
 10
-732.27399608446558
 20
-435.50138481894328
 30
0.0
  0
VERTEX
  5
12A
100
AcDbEntity
  8
FAN70-0307
370
              15
390
0
  6
Continuous
 62
               7
100
AcDbVertex
100
AcDb2dVertex
 10
-732.14318355516571
 20
-435.57215756274331
 30
0.0
  0
VERTEX
  5
12B
100
AcDbEntity
  8
FAN70-0307
370
              15
390
0
  6
Continuous
 62
               7
100
AcDbVertex
100
AcDb2dVertex
 10
-732.00097759946561
 20
-435.61572549684331
 30
0.0
  0
VERTEX
  5
12C
100
AcDbEntity
  8
FAN70-0307
370
              15
390
0
  6
Continuous
 62
               7
100
AcDbVertex
100
AcDb2dVertex
 10
-731.85343981246569
 20
-435.63037544394319
 30
0.0
  0
SEQEND
  5
12D
100
AcDbEntity
  8
FAN70-0307
370
              15
390
0
  6
Continuous
 62
               7
  0
POLYLINE
  5
12E
100
AcDbEntity
  8
FAN70-0307
370
              15
390
0
  6
Continuous
 62
               7
100
AcDb2dPolyline
 66
               1
 10
0.0
 20
0.0
 30
0.0
 75
               5
  0
VERTEX
  5
12F
100
AcDbEntity
  8
FAN70-0307
370
              15
390
0
  6
Continuous
 62
               7
100
AcDbVertex
100
AcDb2dVertex
 10
-135.91875469796551
 20
-427.63037577244324
 30
0.0
  0
VERTEX
  5
130
100
AcDbEntity
  8
FAN70-0307
370
              15
390
0
  6
Continuous
 62
               7
100
AcDbVertex
100
AcDb2dVertex
 10
-135.26942159486558
 20
-427.6908508583432
 30
0.0
  0
VERTEX
  5
131
100
AcDbEntity
  8
FAN70-0307
370
              15
390
0
  6
Continuous
 62
               7
100
AcDbVertex
100
AcDb2dVertex
 10
-134.61591401516549
 20
-427.88129243184335
 30
0.0
  0
VERTEX
  5
132
100
AcDbEntity
  8
FAN70-0307
370
              15
390
0
  6
Continuous
 62
               7
100
AcDbVertex
100
AcDb2dVertex
 10
-134.01162768506552
 20
-428.19462714834322
 30
0.0
  0
VERTEX
  5
133
100
AcDbEntity
  8
FAN70-0307
370
              15
390
0
  6
Continuous
 62
               7
100
AcDbVertex
100
AcDb2dVertex
 10
-133.47941909846546
 20
-428.61900345214326
 30
0.0
  0
VERTEX
  5
134
100
AcDbEntity
  8
FAN70-0307
370
              15
390
0
  6
Continuous
 62
               7
100
AcDbVertex
100
AcDb2dVertex
 10
-133.03941848476555
 20
-429.13836975654328
 30
0.0
  0
VERTEX
  5
135
100
AcDbEntity
  8
FAN70-0307
370
              15
390
0
  6
Continuous
 62
               7
100
AcDbVertex
100
AcDb2dVertex
 10
-132.70826840366547
 20
-429.73308157804331
 30
0.0
  0
VERTEX
  5
136
100
AcDbEntity
  8
FAN70-0307
370
              15
390
0
  6
Continuous
 62
               7
100
AcDbVertex
100
AcDb2dVertex
 10
-132.49849425826554
 20
-430.38064456844324
 30
0.0
  0
VERTEX
  5
137
100
AcDbEntity
  8
FAN70-0307
370
              15
390
0
  6
Continuous
 62
               7
100
AcDbVertex
100
AcDb2dVertex
 10
-132.41803053466552
 20
-431.05656533954323
 30
0.0
  0
SEQEND
  5
138
100
AcDbEntity
  8
FAN70-0307
370
              15
390
0
  6
Continuous
 62
               7
  0
ARC
  5
139
100
AcDbEntity
  8
FAN70-0307
370
              15
390
0
  6
Continuous
 62
               7
100
AcDbCircle
 10
-729.03759893296569
 20
-431.13037544434326
 30
0.0
 40
3.500000000000044
100
AcDbArc
 50
90.017751203199524
 51
178.74999168510067
  0
LINE
  5
13A
100
AcDbEntity
  8
FAN70-0307
370
              15
390
0
  6
Continuous
 62
               7
100
AcDbLine
 10
-132.3503223191656
 20
-434.89008021274333
 30
0.0
 11
-132.41741231706547
 21
-431.04649680324326
 31
0.0
  0
LINE
  5
13B
100
AcDbEntity
  8
FAN70-0307
370
              15
390
0
  6
Continuous
 62
               7
100
AcDbLine
 10
-732.53666955736571
 20
-431.04649680324326
 30
0.0
 11
-732.60375955536574
 21
-434.89008021274333
 31
0.0
  0
POLYLINE
  5
13C
100
AcDbEntity
  8
FAN70-0307
370
              15
390
0
  6
Continuous
 62
               7
100
AcDb2dPolyline
 66
               1
 10
0.0
 20
0.0
 30
0.0
 75
               5
  0
VERTEX
  5
13D
100
AcDbEntity
  8
FAN70-0307
370
              15
390
0
  6
Continuous
 62
               7
100
AcDbVertex
100
AcDb2dVertex
 10
-472.27418453186544
 20
-568.70460832424419
 30
0.0
  0
VERTEX
  5
13E
100
AcDbEntity
  8
FAN70-0307
370
              15
390
0
  6
Continuous
 62
               7
100
AcDbVertex
100
AcDb2dVertex
 10
-471.66265696496544
 20
-569.02147533034417
 30
0.0
  0
VERTEX
  5
13F
100
AcDbEntity
  8
FAN70-0307
370
              15
390
0
  6
Continuous
 62
               7
100
AcDbVertex
100
AcDb2dVertex
 10
-471.08456645586546
 20
-569.35488265294418
 30
0.0
  0
VERTEX
  5
140
100
AcDbEntity
  8
FAN70-0307
370
              15
390
0
  6
Continuous
 62
               7
100
AcDbVertex
100
AcDb2dVertex
 10
-470.54025822596543
 20
-569.70138861764417
 30
0.0
  0
VERTEX
  5
141
100
AcDbEntity
  8
FAN70-0307
370
              15
390
0
  6
Continuous
 62
               7
100
AcDbVertex
100
AcDb2dVertex
 10
-470.0296790500654
 20
-570.05760386064424
 30
0.0
  0
VERTEX
  5
142
100
AcDbEntity
  8
FAN70-0307
370
              15
390
0
  6
Continuous
 62
               7
100
AcDbVertex
100
AcDb2dVertex
 10
-469.07289367346539
 20
-570.7822837271442
 30
0.0
  0
VERTEX
  5
143
100
AcDbEntity
  8
FAN70-0307
370
              15
390
0
  6
Continuous
 62
               7
100
AcDbVertex
100
AcDb2dVertex
 10
-467.63968913066537
 20
-571.87409300694412
 30
0.0
  0
VERTEX
  5
144
100
AcDbEntity
  8
FAN70-0307
370
              15
390
0
  6
Continuous
 62
               7
100
AcDbVertex
100
AcDb2dVertex
 10
-466.26160783946534
 20
-572.92390962204422
 30
0.0
  0
VERTEX
  5
145
100
AcDbEntity
  8
FAN70-0307
370
              15
390
0
  6
Continuous
 62
               7
100
AcDbVertex
100
AcDb2dVertex
 10
-464.72351599836543
 20
-574.09562161094425
 30
0.0
  0
VERTEX
  5
146
100
AcDbEntity
  8
FAN70-0307
370
              15
390
0
  6
Continuous
 62
               7
100
AcDbVertex
100
AcDb2dVertex
 10
-463.2604530275654
 20
-575.21017691734426
 30
0.0
  0
VERTEX
  5
147
100
AcDbEntity
  8
FAN70-0307
370
              15
390
0
  6
Continuous
 62
               7
100
AcDbVertex
100
AcDb2dVertex
 10
-462.07830237726546
 20
-576.06635039154423
 30
0.0
  0
VERTEX
  5
148
100
AcDbEntity
  8
FAN70-0307
370
              15
390
0
  6
Continuous
 62
               7
100
AcDbVertex
100
AcDb2dVertex
 10
-460.45638881296543
 20
-576.74345400204425
 30
0.0
  0
VERTEX
  5
149
100
AcDbEntity
  8
FAN70-0307
370
              15
390
0
  6
Continuous
 62
               7
100
AcDbVertex
100
AcDb2dVertex
 10
-458.82739202676544
 20
-576.92577438414435
 30
0.0
  0
SEQEND
  5
14A
100
AcDbEntity
  8
FAN70-0307
370
              15
390
0
  6
Continuous
 62
               7
  0
POLYLINE
  5
14B
100
AcDbEntity
  8
FAN70-0307
370
              15
390
0
  6
Continuous
 62
               7
100
AcDb2dPolyline
 66
               1
 10
0.0
 20
0.0
 30
0.0
 75
               5
  0
VERTEX
  5
14C
100
AcDbEntity
  8
FAN70-0307
370
              15
390
0
  6
Continuous
 62
               7
100
AcDbVertex
100
AcDb2dVertex
 10
-458.82746144406542
 20
-576.92577615794426
 30
0.0
  0
VERTEX
  5
14D
100
AcDbEntity
  8
FAN70-0307
370
              15
390
0
  6
Continuous
 62
               7
100
AcDbVertex
100
AcDb2dVertex
 10
-458.50655301426536
 20
-576.90601575914434
 30
0.0
  0
VERTEX
  5
14E
100
AcDbEntity
  8
FAN70-0307
370
              15
390
0
  6
Continuous
 62
               7
100
AcDbVertex
100
AcDb2dVertex
 10
-457.7110140920654
 20
-576.86059703194428
 30
0.0
  0
VERTEX
  5
14F
100
AcDbEntity
  8
FAN70-0307
370
              15
390
0
  6
Continuous
 62
               7
100
AcDbVertex
100
AcDb2dVertex
 10
-456.51365123646542
 20
-576.80266576024428
 30
0.0
  0
VERTEX
  5
150
100
AcDbEntity
  8
FAN70-0307
370
              15
390
0
  6
Continuous
 62
               7
100
AcDbVertex
100
AcDb2dVertex
 10
-454.98490951356541
 20
-576.74082011774431
 30
0.0
  0
VERTEX
  5
151
100
AcDbEntity
  8
FAN70-0307
370
              15
390
0
  6
Continuous
 62
               7
100
AcDbVertex
100
AcDb2dVertex
 10
-453.1933367069654
 20
-576.68073785204433
 30
0.0
  0
VERTEX
  5
152
100
AcDbEntity
  8
FAN70-0307
370
              15
390
0
  6
Continuous
 62
               7
100
AcDbVertex
100
AcDb2dVertex
 10
-451.20387714486537
 20
-576.62644065514428
 30
0.0
  0
VERTEX
  5
153
100
AcDbEntity
  8
FAN70-0307
370
              15
390
0
  6
Continuous
 62
               7
100
AcDbVertex
100
AcDb2dVertex
 10
-446.86170095066541
 20
-576.54233533134436
 30
0.0
  0
VERTEX
  5
154
100
AcDbEntity
  8
FAN70-0307
370
              15
390
0
  6
Continuous
 62
               7
100
AcDbVertex
100
AcDb2dVertex
 10
-442.36157848976541
 20
-576.49275160484433
 30
0.0
  0
VERTEX
  5
155
100
AcDbEntity
  8
FAN70-0307
370
              15
390
0
  6
Continuous
 62
               7
100
AcDbVertex
100
AcDb2dVertex
 10
-438.00097572296545
 20
-576.47078166314429
 30
0.0
  0
VERTEX
  5
156
100
AcDbEntity
  8
FAN70-0307
370
              15
390
0
  6
Continuous
 62
               7
100
AcDbVertex
100
AcDb2dVertex
 10
-433.98267999156542
 20
-576.46530523104434
 30
0.0
  0
VERTEX
  5
157
100
AcDbEntity
  8
FAN70-0307
370
              15
390
0
  6
Continuous
 62
               7
100
AcDbVertex
100
AcDb2dVertex
 10
-430.43108612506535
 20
-576.46610763424428
 30
0.0
  0
VERTEX
  5
158
100
AcDbEntity
  8
FAN70-0307
370
              15
390
0
  6
Continuous
 62
               7
100
AcDbVertex
100
AcDb2dVertex
 10
-427.17555674676544
 20
-576.47142182094433
 30
0.0
  0
VERTEX
  5
159
100
AcDbEntity
  8
FAN70-0307
370
              15
390
0
  6
Continuous
 62
               7
100
AcDbVertex
100
AcDb2dVertex
 10
-423.62161215536537
 20
-576.48719200704431
 30
0.0
  0
VERTEX
  5
15A
100
AcDbEntity
  8
FAN70-0307
370
              15
390
0
  6
Continuous
 62
               7
100
AcDbVertex
100
AcDb2dVertex
 10
-419.84593697446542
 20
-576.52079447324434
 30
0.0
  0
VERTEX
  5
15B
100
AcDbEntity
  8
FAN70-0307
370
              15
390
0
  6
Continuous
 62
               7
100
AcDbVertex
100
AcDb2dVertex
 10
-416.02346952806545
 20
-576.57852335394432
 30
0.0
  0
VERTEX
  5
15C
100
AcDbEntity
  8
FAN70-0307
370
              15
390
0
  6
Continuous
 62
               7
100
AcDbVertex
100
AcDb2dVertex
 10
-412.39644905636533
 20
-576.66306765134425
 30
0.0
  0
VERTEX
  5
15D
100
AcDbEntity
  8
FAN70-0307
370
              15
390
0
  6
Continuous
 62
               7
100
AcDbVertex
100
AcDb2dVertex
 10
-409.27981372586544
 20
-576.76774079604434
 30
0.0
  0
VERTEX
  5
15E
100
AcDbEntity
  8
FAN70-0307
370
              15
390
0
  6
Continuous
 62
               7
100
AcDbVertex
100
AcDb2dVertex
 10
-408.02827410696545
 20
-576.82186708774429
 30
0.0
  0
VERTEX
  5
15F
100
AcDbEntity
  8
FAN70-0307
370
              15
390
0
  6
Continuous
 62
               7
100
AcDbVertex
100
AcDb2dVertex
 10
-407.04948665986547
 20
-576.87131211974429
 30
0.0
  0
VERTEX
  5
160
100
AcDbEntity
  8
FAN70-0307
370
              15
390
0
  6
Continuous
 62
               7
100
AcDbVertex
100
AcDb2dVertex
 10
-406.39702540356541
 20
-576.90937648594434
 30
0.0
  0
VERTEX
  5
161
100
AcDbEntity
  8
FAN70-0307
370
              15
390
0
  6
Continuous
 62
               7
100
AcDbVertex
100
AcDb2dVertex
 10
-406.12674539556542
 20
-576.92577296234424
 30
0.0
  0
SEQEND
  5
162
100
AcDbEntity
  8
FAN70-0307
370
              15
390
0
  6
Continuous
 62
               7
  0
LINE
  5
163
100
AcDbEntity
  8
FAN70-0307
370
              15
390
0
  6
Continuous
 62
               7
100
AcDbLine
 10
-458.82734899926538
 20
-576.92577328264429
 30
0.0
 11
-458.46992437876543
 21
-576.9039245654443
 31
0.0
  0
POLYLINE
  5
164
100
AcDbEntity
  8
FAN70-0307
370
              15
390
0
  6
Continuous
 62
               7
100
AcDb2dPolyline
 66
               1
 10
0.0
 20
0.0
 30
0.0
 75
               5
  0
VERTEX
  5
165
100
AcDbEntity
  8
FAN70-0307
370
              15
390
0
  6
Continuous
 62
               7
100
AcDbVertex
100
AcDb2dVertex
 10
-406.12668984756544
 20
-576.92577438394437
 30
0.0
  0
VERTEX
  5
166
100
AcDbEntity
  8
FAN70-0307
370
              15
390
0
  6
Continuous
 62
               7
100
AcDbVertex
100
AcDb2dVertex
 10
-404.49769306146538
 20
-576.74345400184427
 30
0.0
  0
VERTEX
  5
167
100
AcDbEntity
  8
FAN70-0307
370
              15
390
0
  6
Continuous
 62
               7
100
AcDbVertex
100
AcDb2dVertex
 10
-402.87577949706542
 20
-576.0663503914443
 30
0.0
  0
VERTEX
  5
168
100
AcDbEntity
  8
FAN70-0307
370
              15
390
0
  6
Continuous
 62
               7
100
AcDbVertex
100
AcDb2dVertex
 10
-401.69362884676536
 20
-575.21017691724421
 30
0.0
  0
VERTEX
  5
169
100
AcDbEntity
  8
FAN70-0307
370
              15
390
0
  6
Continuous
 62
               7
100
AcDbVertex
100
AcDb2dVertex
 10
-400.23056587596534
 20
-574.09562161084432
 30
0.0
  0
VERTEX
  5
16A
100
AcDbEntity
  8
FAN70-0307
370
              15
390
0
  6
Continuous
 62
               7
100
AcDbVertex
100
AcDb2dVertex
 10
-398.69247403486543
 20
-572.92390962204422
 30
0.0
  0
VERTEX
  5
16B
100
AcDbEntity
  8
FAN70-0307
370
              15
390
0
  6
Continuous
 62
               7
100
AcDbVertex
100
AcDb2dVertex
 10
-396.74772571676533
 20
-571.44240841474414
 30
0.0
  0
VERTEX
  5
16C
100
AcDbEntity
  8
FAN70-0307
370
              15
390
0
  6
Continuous
 62
               7
100
AcDbVertex
100
AcDb2dVertex
 10
-395.02249886596542
 20
-570.12972560674416
 30
0.0
  0
VERTEX
  5
16D
100
AcDbEntity
  8
FAN70-0307
370
              15
390
0
  6
Continuous
 62
               7
100
AcDbVertex
100
AcDb2dVertex
 10
-394.30766690996541
 20
-569.63120451324426
 30
0.0
  0
VERTEX
  5
16E
100
AcDbEntity
  8
FAN70-0307
370
              15
390
0
  6
Continuous
 62
               7
100
AcDbVertex
100
AcDb2dVertex
 10
-393.52670380846541
 20
-569.15304332084418
 30
0.0
  0
VERTEX
  5
16F
100
AcDbEntity
  8
FAN70-0307
370
              15
390
0
  6
Continuous
 62
               7
100
AcDbVertex
100
AcDb2dVertex
 10
-392.67989734256537
 20
-568.70460832424419
 30
0.0
  0
SEQEND
  5
170
100
AcDbEntity
  8
FAN70-0307
370
              15
390
0
  6
Continuous
 62
               7
  0
POLYLINE
  5
171
100
AcDbEntity
  8
FAN70-0307
370
              15
390
0
  6
Continuous
 62
               7
100
AcDb2dPolyline
 66
               1
 10
0.0
 20
0.0
 30
0.0
 75
               5
  0
VERTEX
  5
172
100
AcDbEntity
  8
FAN70-0307
370
              15
390
0
  6
Continuous
 62
               7
100
AcDbVertex
100
AcDb2dVertex
 10
-247.68758644136548
 20
-435.63037544434326
 30
0.0
  0
VERTEX
  5
173
100
AcDbEntity
  8
FAN70-0307
370
              15
390
0
  6
Continuous
 62
               7
100
AcDbVertex
100
AcDb2dVertex
 10
-247.50203096066545
 20
-435.63037544124336
 30
0.0
  0
VERTEX
  5
174
100
AcDbEntity
  8
FAN70-0307
370
              15
390
0
  6
Continuous
 62
               7
100
AcDbVertex
100
AcDb2dVertex
 10
-246.2485196658655
 20
-435.63037526674316
 30
0.0
  0
VERTEX
  5
175
100
AcDbEntity
  8
FAN70-0307
370
              15
390
0
  6
Continuous
 62
               7
100
AcDbVertex
100
AcDb2dVertex
 10
-241.27626078446556
 20
-435.63037233524324
 30
0.0
  0
VERTEX
  5
176
100
AcDbEntity
  8
FAN70-0307
370
              15
390
0
  6
Continuous
 62
               7
100
AcDbVertex
100
AcDb2dVertex
 10
-231.53302078676555
 20
-435.63036105034325
 30
0.0
  0
VERTEX
  5
177
100
AcDbEntity
  8
FAN70-0307
370
              15
390
0
  6
Continuous
 62
               7
100
AcDbVertex
100
AcDb2dVertex
 10
-222.09385115736555
 20
-435.63035110174326
 30
0.0
  0
VERTEX
  5
178
100
AcDbEntity
  8
FAN70-0307
370
              15
390
0
  6
Continuous
 62
               7
100
AcDbVertex
100
AcDb2dVertex
 10
-213.10523769096542
 20
-435.6303483209432
 30
0.0
  0
VERTEX
  5
179
100
AcDbEntity
  8
FAN70-0307
370
              15
390
0
  6
Continuous
 62
               7
100
AcDbVertex
100
AcDb2dVertex
 10
-211.99172791506547
 20
-435.63034842834327
 30
0.0
  0
VERTEX
  5
17A
100
AcDbEntity
  8
FAN70-0307
370
              15
390
0
  6
Continuous
 62
               7
100
AcDbVertex
100
AcDb2dVertex
 10
-207.59346353926551
 20
-435.6303499531432
 30
0.0
  0
VERTEX
  5
17B
100
AcDbEntity
  8
FAN70-0307
370
              15
390
0
  6
Continuous
 62
               7
100
AcDbVertex
100
AcDb2dVertex
 10
-199.06541423866557
 20
-435.63035800054331
 30
0.0
  0
VERTEX
  5
17C
100
AcDbEntity
  8
FAN70-0307
370
              15
390
0
  6
Continuous
 62
               7
100
AcDbVertex
100
AcDb2dVertex
 10
-190.9313354113655
 20
-435.63036895724326
 30
0.0
  0
VERTEX
  5
17D
100
AcDbEntity
  8
FAN70-0307
370
              15
390
0
  6
Continuous
 62
               7
100
AcDbVertex
100
AcDb2dVertex
 10
-183.34044060236559
 20
-435.63037544124336
 30
0.0
  0
VERTEX
  5
17E
100
AcDbEntity
  8
FAN70-0307
370
              15
390
0
  6
Continuous
 62
               7
100
AcDbVertex
100
AcDb2dVertex
 10
-183.20255982426548
 20
-435.63037544434326
 30
0.0
  0
SEQEND
  5
17F
100
AcDbEntity
  8
FAN70-0307
370
              15
390
0
  6
Continuous
 62
               7
  0
LINE
  5
180
100
AcDbEntity
  8
FAN70-0307
370
              15
390
0
  6
Continuous
 62
               7
100
AcDbLine
 10
-183.20255982426548
 20
-435.63037544434326
 30
0.0
 11
-198.0483072730656
 21
-435.63037544434326
 31
0.0
  0
POLYLINE
  5
181
100
AcDbEntity
  8
FAN70-0307
370
              15
390
0
  6
Continuous
 62
               7
100
AcDb2dPolyline
 66
               1
 10
0.0
 20
0.0
 30
0.0
 75
               5
  0
VERTEX
  5
182
100
AcDbEntity
  8
FAN70-0307
370
              15
390
0
  6
Continuous
 62
               7
100
AcDbVertex
100
AcDb2dVertex
 10
-666.91727062556561
 20
-435.63035938604332
 30
0.0
  0
VERTEX
  5
183
100
AcDbEntity
  8
FAN70-0307
370
              15
390
0
  6
Continuous
 62
               7
100
AcDbVertex
100
AcDb2dVertex
 10
-674.02274575156571
 20
-435.63036895724326
 30
0.0
  0
VERTEX
  5
184
100
AcDbEntity
  8
FAN70-0307
370
              15
390
0
  6
Continuous
 62
               7
100
AcDbVertex
100
AcDb2dVertex
 10
-681.61364052616568
 20
-435.63037544124336
 30
0.0
  0
VERTEX
  5
185
100
AcDbEntity
  8
FAN70-0307
370
              15
390
0
  6
Continuous
 62
               7
100
AcDbVertex
100
AcDb2dVertex
 10
-681.75152130826564
 20
-435.63037544434326
 30
0.0
  0
SEQEND
  5
186
100
AcDbEntity
  8
FAN70-0307
370
              15
390
0
  6
Continuous
 62
               7
  0
LINE
  5
187
100
AcDbEntity
  8
FAN70-0307
370
              15
390
0
  6
Continuous
 62
               7
100
AcDbLine
 10
-133.21419550226554
 20
-435.63037544434326
 30
0.0
 11
-183.20255982776544
 21
-435.63037544434326
 31
0.0
  0
LINE
  5
188
100
AcDbEntity
  8
FAN70-0307
370
              15
390
0
  6
Continuous
 62
               7
100
AcDbLine
 10
-247.68758644136548
 20
-435.63037544434326
 30
0.0
 11
-731.85343981246569
 21
-435.63037544394319
 31
0.0
  0
LINE
  5
189
100
AcDbEntity
  8
FAN70-0307
370
              15
390
0
  6
Continuous
 62
               7
100
AcDbLine
 10
-132.49107462786552
 20
-431.06929338864325
 30
0.0
 11
-132.49729019726558
 21
-431.06929343224328
 31
0.0
  0
LINE
  5
18A
100
AcDbEntity
  8
FAN70-0307
370
              15
390
0
  6
Continuous
 62
               7
100
AcDbLine
 10
-302.28117092736545
 20
-427.63037544434326
 30
0.0
 11
-135.99542182696555
 21
-427.63037544434326
 31
0.0
  0
LINE
  5
18B
100
AcDbEntity
  8
FAN70-0307
370
              15
390
0
  6
Continuous
 62
               7
100
AcDbLine
 10
-302.28117092736545
 20
-427.63037544434326
 30
0.0
 11
-728.99029208626575
 21
-427.63037544434326
 31
0.0
  0
POLYLINE
  5
18C
100
AcDbEntity
  8
FAN70-0307
370
              15
390
0
  6
Continuous
 62
               7
100
AcDb2dPolyline
 66
               1
 10
0.0
 20
0.0
 30
0.0
 75
               5
  0
VERTEX
  5
18D
100
AcDbEntity
  8
FAN70-0307
370
              15
390
0
  6
Continuous
 62
               7
100
AcDbVertex
100
AcDb2dVertex
 10
-472.22704093726543
 20
-568.72787626674415
 30
0.0
  0
VERTEX
  5
18E
100
AcDbEntity
  8
FAN70-0307
370
              15
390
0
  6
Continuous
 62
               7
100
AcDbVertex
100
AcDb2dVertex
 10
-471.89406450006538
 20
-568.69279757164418
 30
0.0
  0
VERTEX
  5
18F
100
AcDbEntity
  8
FAN70-0307
370
              15
390
0
  6
Continuous
 62
               7
100
AcDbVertex
100
AcDb2dVertex
 10
-470.8980657342654
 20
-568.6024005454442
 30
0.0
  0
VERTEX
  5
190
100
AcDbEntity
  8
FAN70-0307
370
              15
390
0
  6
Continuous
 62
               7
100
AcDbVertex
100
AcDb2dVertex
 10
-469.25463870456542
 20
-568.47678274004409
 30
0.0
  0
VERTEX
  5
191
100
AcDbEntity
  8
FAN70-0307
370
              15
390
0
  6
Continuous
 62
               7
100
AcDbVertex
100
AcDb2dVertex
 10
-466.98666827566547
 20
-568.33238002284418
 30
0.0
  0
VERTEX
  5
192
100
AcDbEntity
  8
FAN70-0307
370
              15
390
0
  6
Continuous
 62
               7
100
AcDbVertex
100
AcDb2dVertex
 10
-464.12725934656544
 20
-568.18331499554415
 30
0.0
  0
VERTEX
  5
193
100
AcDbEntity
  8
FAN70-0307
370
              15
390
0
  6
Continuous
 62
               7
100
AcDbVertex
100
AcDb2dVertex
 10
-460.72132424976542
 20
-568.04164931634421
 30
0.0
  0
VERTEX
  5
194
100
AcDbEntity
  8
FAN70-0307
370
              15
390
0
  6
Continuous
 62
               7
100
AcDbVertex
100
AcDb2dVertex
 10
-456.82153395916544
 20
-567.91689282694415
 30
0.0
  0
VERTEX
  5
195
100
AcDbEntity
  8
FAN70-0307
370
              15
390
0
  6
Continuous
 62
               7
100
AcDbVertex
100
AcDb2dVertex
 10
-452.49302254356542
 20
-567.81591541584419
 30
0.0
  0
VERTEX
  5
196
100
AcDbEntity
  8
FAN70-0307
370
              15
390
0
  6
Continuous
 62
               7
100
AcDbVertex
100
AcDb2dVertex
 10
-447.80969476486541
 20
-567.74241994684417
 30
0.0
  0
VERTEX
  5
197
100
AcDbEntity
  8
FAN70-0307
370
              15
390
0
  6
Continuous
 62
               7
100
AcDbVertex
100
AcDb2dVertex
 10
-442.85315787096545
 20
-567.69655344174419
 30
0.0
  0
VERTEX
  5
198
100
AcDbEntity
  8
FAN70-0307
370
              15
390
0
  6
Continuous
 62
               7
100
AcDbVertex
100
AcDb2dVertex
 10
-437.71186283906547
 20
-567.67477054124413
 30
0.0
  0
VERTEX
  5
199
100
AcDbEntity
  8
FAN70-0307
370
              15
390
0
  6
Continuous
 62
               7
100
AcDbVertex
100
AcDb2dVertex
 10
-432.47704093416542
 20
-567.66969393454417
 30
0.0
  0
SEQEND
  5
19A
100
AcDbEntity
  8
FAN70-0307
370
              15
390
0
  6
Continuous
 62
               7
  0
POLYLINE
  5
19B
100
AcDbEntity
  8
FAN70-0307
370
              15
390
0
  6
Continuous
 62
               7
100
AcDb2dPolyline
 66
               1
 10
0.0
 20
0.0
 30
0.0
 75
               5
  0
VERTEX
  5
19C
100
AcDbEntity
  8
FAN70-0307
370
              15
390
0
  6
Continuous
 62
               7
100
AcDbVertex
100
AcDb2dVertex
 10
-666.91726121536567
 20
-435.63037544434326
 30
0.0
  0
VERTEX
  5
19D
100
AcDbEntity
  8
FAN70-0307
370
              15
390
0
  6
Continuous
 62
               7
100
AcDbVertex
100
AcDb2dVertex
 10
-661.06976753566573
 20
-445.60896452254326
 30
0.0
  0
VERTEX
  5
19E
100
AcDbEntity
  8
FAN70-0307
370
              15
390
0
  6
Continuous
 62
               7
100
AcDbVertex
100
AcDb2dVertex
 10
-651.10811906066567
 20
-460.29773534604328
 30
0.0
  0
VERTEX
  5
19F
100
AcDbEntity
  8
FAN70-0307
370
              15
390
0
  6
Continuous
 62
               7
100
AcDbVertex
100
AcDb2dVertex
 10
-640.27567169016561
 20
-474.21377825684328
 30
0.0
  0
VERTEX
  5
1A0
100
AcDbEntity
  8
FAN70-0307
370
              15
390
0
  6
Continuous
 62
               7
100
AcDbVertex
100
AcDb2dVertex
 10
-628.61989093326565
 20
-487.32788371074332
 30
0.0
  0
VERTEX
  5
1A1
100
AcDbEntity
  8
FAN70-0307
370
              15
390
0
  6
Continuous
 62
               7
100
AcDbVertex
100
AcDb2dVertex
 10
-616.18824229886559
 20
-499.61084216384324
 30
0.0
  0
VERTEX
  5
1A2
100
AcDbEntity
  8
FAN70-0307
370
              15
390
0
  6
Continuous
 62
               7
100
AcDbVertex
100
AcDb2dVertex
 10
-603.02819129606564
 20
-511.03344407204344
 30
0.0
  0
VERTEX
  5
1A3
100
AcDbEntity
  8
FAN70-0307
370
              15
390
0
  6
Continuous
 62
               7
100
AcDbVertex
100
AcDb2dVertex
 10
-589.18720343386576
 20
-521.56647989144358
 30
0.0
  0
VERTEX
  5
1A4
100
AcDbEntity
  8
FAN70-0307
370
              15
390
0
  6
Continuous
 62
               7
100
AcDbVertex
100
AcDb2dVertex
 10
-574.71274422126567
 20
-531.1807400779436
 30
0.0
  0
VERTEX
  5
1A5
100
AcDbEntity
  8
FAN70-0307
370
              15
390
0
  6
Continuous
 62
               7
100
AcDbVertex
100
AcDb2dVertex
 10
-558.92130532976557
 20
-540.2355516745439
 30
0.0
  0
VERTEX
  5
1A6
100
AcDbEntity
  8
FAN70-0307
370
              15
390
0
  6
Continuous
 62
               7
100
AcDbVertex
100
AcDb2dVertex
 10
-542.54129602136572
 20
-548.21635997094381
 30
0.0
  0
VERTEX
  5
1A7
100
AcDbEntity
  8
FAN70-0307
370
              15
390
0
  6
Continuous
 62
               7
100
AcDbVertex
100
AcDb2dVertex
 10
-525.62729061196569
 20
-555.08958077284399
 30
0.0
  0
VERTEX
  5
1A8
100
AcDbEntity
  8
FAN70-0307
370
              15
390
0
  6
Continuous
 62
               7
100
AcDbVertex
100
AcDb2dVertex
 10
-508.23386341746561
 20
-560.82162988574407
 30
0.0
  0
VERTEX
  5
1A9
100
AcDbEntity
  8
FAN70-0307
370
              15
390
0
  6
Continuous
 62
               7
100
AcDbVertex
100
AcDb2dVertex
 10
-490.41558875386545
 20
-565.37892311524422
 30
0.0
  0
VERTEX
  5
1AA
100
AcDbEntity
  8
FAN70-0307
370
              15
390
0
  6
Continuous
 62
               7
100
AcDbVertex
100
AcDb2dVertex
 10
-472.22704093726543
 20
-568.72787626674415
 30
0.0
  0
SEQEND
  5
1AB
100
AcDbEntity
  8
FAN70-0307
370
              15
390
0
  6
Continuous
 62
               7
  0
POLYLINE
  5
1AC
100
AcDbEntity
  8
FAN70-0307
370
              15
390
0
  6
Continuous
 62
               7
100
AcDb2dPolyline
 66
               1
 10
0.0
 20
0.0
 30
0.0
 75
               5
  0
VERTEX
  5
1AD
100
AcDbEntity
  8
FAN70-0307
370
              15
390
0
  6
Continuous
 62
               7
100
AcDbVertex
100
AcDb2dVertex
 10
-432.47704093416542
 20
-567.66969393454417
 30
0.0
  0
VERTEX
  5
1AE
100
AcDbEntity
  8
FAN70-0307
370
              15
390
0
  6
Continuous
 62
               7
100
AcDbVertex
100
AcDb2dVertex
 10
-427.24222787976544
 20
-567.67477414544419
 30
0.0
  0
VERTEX
  5
1AF
100
AcDbEntity
  8
FAN70-0307
370
              15
390
0
  6
Continuous
 62
               7
100
AcDbVertex
100
AcDb2dVertex
 10
-422.10081640236535
 20
-567.69655500094416
 30
0.0
  0
VERTEX
  5
1B0
100
AcDbEntity
  8
FAN70-0307
370
              15
390
0
  6
Continuous
 62
               7
100
AcDbVertex
100
AcDb2dVertex
 10
-417.14433002006535
 20
-567.74242078114412
 30
0.0
  0
VERTEX
  5
1B1
100
AcDbEntity
  8
FAN70-0307
370
              15
390
0
  6
Continuous
 62
               7
100
AcDbVertex
100
AcDb2dVertex
 10
-412.46036642816534
 20
-567.81594125814422
 30
0.0
  0
VERTEX
  5
1B2
100
AcDbEntity
  8
FAN70-0307
370
              15
390
0
  6
Continuous
 62
               7
100
AcDbVertex
100
AcDb2dVertex
 10
-408.13212650086541
 20
-567.91689666334412
 30
0.0
  0
VERTEX
  5
1B3
100
AcDbEntity
  8
FAN70-0307
370
              15
390
0
  6
Continuous
 62
               7
100
AcDbVertex
100
AcDb2dVertex
 10
-404.23280185826536
 20
-568.0416498676442
 30
0.0
  0
VERTEX
  5
1B4
100
AcDbEntity
  8
FAN70-0307
370
              15
390
0
  6
Continuous
 62
               7
100
AcDbVertex
100
AcDb2dVertex
 10
-400.82604081956538
 20
-568.18335971064414
 30
0.0
  0
VERTEX
  5
1B5
100
AcDbEntity
  8
FAN70-0307
370
              15
390
0
  6
Continuous
 62
               7
100
AcDbVertex
100
AcDb2dVertex
 10
-397.96747885046545
 20
-568.33236398914414
 30
0.0
  0
VERTEX
  5
1B6
100
AcDbEntity
  8
FAN70-0307
370
              15
390
0
  6
Continuous
 62
               7
100
AcDbVertex
100
AcDb2dVertex
 10
-395.6995343531654
 20
-568.47677671734414
 30
0.0
  0
VERTEX
  5
1B7
100
AcDbEntity
  8
FAN70-0307
370
              15
390
0
  6
Continuous
 62
               7
100
AcDbVertex
100
AcDb2dVertex
 10
-394.05602611386541
 20
-568.6023989754442
 30
0.0
  0
VERTEX
  5
1B8
100
AcDbEntity
  8
FAN70-0307
370
              15
390
0
  6
Continuous
 62
               7
100
AcDbVertex
100
AcDb2dVertex
 10
-393.06007771996542
 20
-568.69278271704422
 30
0.0
  0
VERTEX
  5
1B9
100
AcDbEntity
  8
FAN70-0307
370
              15
390
0
  6
Continuous
 62
               7
100
AcDbVertex
100
AcDb2dVertex
 10
-392.72704093946538
 20
-568.72787626554418
 30
0.0
  0
VERTEX
  5
1BA
100
AcDbEntity
  8
FAN70-0307
370
              15
390
0
  6
Continuous
 62
               7
100
AcDbVertex
100
AcDb2dVertex
 10
-392.72704093726543
 20
-568.72787626674415
 30
0.0
  0
SEQEND
  5
1BB
100
AcDbEntity
  8
FAN70-0307
370
              15
390
0
  6
Continuous
 62
               7
  0
POLYLINE
  5
1BC
100
AcDbEntity
  8
FAN70-0307
370
              15
390
0
  6
Continuous
 62
               7
100
AcDb2dPolyline
 66
               1
 10
0.0
 20
0.0
 30
0.0
 75
               5
  0
VERTEX
  5
1BD
100
AcDbEntity
  8
FAN70-0307
370
              15
390
0
  6
Continuous
 62
               7
100
AcDbVertex
100
AcDb2dVertex
 10
-392.72704093726543
 20
-568.72787626674415
 30
0.0
  0
VERTEX
  5
1BE
100
AcDbEntity
  8
FAN70-0307
370
              15
390
0
  6
Continuous
 62
               7
100
AcDbVertex
100
AcDb2dVertex
 10
-375.35762509626545
 20
-565.55761614774417
 30
0.0
  0
VERTEX
  5
1BF
100
AcDbEntity
  8
FAN70-0307
370
              15
390
0
  6
Continuous
 62
               7
100
AcDbVertex
100
AcDb2dVertex
 10
-358.32332597756545
 20
-561.28497754784405
 30
0.0
  0
VERTEX
  5
1C0
100
AcDbEntity
  8
FAN70-0307
370
              15
390
0
  6
Continuous
 62
               7
100
AcDbVertex
100
AcDb2dVertex
 10
-341.67160909006543
 20
-555.93917001094394
 30
0.0
  0
VERTEX
  5
1C1
100
AcDbEntity
  8
FAN70-0307
370
              15
390
0
  6
Continuous
 62
               7
100
AcDbVertex
100
AcDb2dVertex
 10
-325.4499399428654
 20
-549.54940308114396
 30
0.0
  0
VERTEX
  5
1C2
100
AcDbEntity
  8
FAN70-0307
370
              15
390
0
  6
Continuous
 62
               7
100
AcDbVertex
100
AcDb2dVertex
 10
-309.70578404496541
 20
-542.14488630234382
 30
0.0
  0
VERTEX
  5
1C3
100
AcDbEntity
  8
FAN70-0307
370
              15
390
0
  6
Continuous
 62
               7
100
AcDbVertex
100
AcDb2dVertex
 10
-294.48660690536542
 20
-533.75482921874368
 30
0.0
  0
VERTEX
  5
1C4
100
AcDbEntity
  8
FAN70-0307
370
              15
390
0
  6
Continuous
 62
               7
100
AcDbVertex
100
AcDb2dVertex
 10
-279.83987403306548
 20
-524.40844137414365
 30
0.0
  0
VERTEX
  5
1C5
100
AcDbEntity
  8
FAN70-0307
370
              15
390
0
  6
Continuous
 62
               7
100
AcDbVertex
100
AcDb2dVertex
 10
-265.81305093716537
 20
-514.13493231274344
 30
0.0
  0
VERTEX
  5
1C6
100
AcDbEntity
  8
FAN70-0307
370
              15
390
0
  6
Continuous
 62
               7
100
AcDbVertex
100
AcDb2dVertex
 10
-251.83489358506546
 20
-502.40963955944329
 30
0.0
  0
VERTEX
  5
1C7
100
AcDbEntity
  8
FAN70-0307
370
              15
390
0
  6
Continuous
 62
               7
100
AcDbVertex
100
AcDb2dVertex
 10
-238.64375870796553
 20
-489.73246784924322
 30
0.0
  0
VERTEX
  5
1C8
100
AcDbEntity
  8
FAN70-0307
370
              15
390
0
  6
Continuous
 62
               7
100
AcDbVertex
100
AcDb2dVertex
 10
-226.2942206217655
 20
-476.13700137684327
 30
0.0
  0
VERTEX
  5
1C9
100
AcDbEntity
  8
FAN70-0307
370
              15
390
0
  6
Continuous
 62
               7
100
AcDbVertex
100
AcDb2dVertex
 10
-214.84085364246553
 20
-461.65682433664324
 30
0.0
  0
VERTEX
  5
1CA
100
AcDbEntity
  8
FAN70-0307
370
              15
390
0
  6
Continuous
 62
               7
100
AcDbVertex
100
AcDb2dVertex
 10
-204.33823208596553
 20
-446.32552092294327
 30
0.0
  0
VERTEX
  5
1CB
100
AcDbEntity
  8
FAN70-0307
370
              15
390
0
  6
Continuous
 62
               7
100
AcDbVertex
100
AcDb2dVertex
 10
-198.04829781986555
 20
-435.63035937054326
 30
0.0
  0
SEQEND
  5
1CC
100
AcDbEntity
  8
FAN70-0307
370
              15
390
0
  6
Continuous
 62
               7
  0
POLYLINE
  5
1CD
100
AcDbEntity
  8
FAN70-0307
370
              15
390
0
  6
Continuous
 62
               7
100
AcDb2dPolyline
 66
               1
 10
0.0
 20
0.0
 30
0.0
 75
               5
  0
VERTEX
  5
1CE
100
AcDbEntity
  8
FAN70-0307
370
              15
390
0
  6
Continuous
 62
               7
100
AcDbVertex
100
AcDb2dVertex
 10
-392.45688305831538
 20
504.66003572312405
 30
0.0
  0
VERTEX
  5
1CF
100
AcDbEntity
  8
FAN70-0307
370
              15
390
0
  6
Continuous
 62
               7
100
AcDbVertex
100
AcDb2dVertex
 10
-393.01945447241553
 20
511.30026049392387
 30
0.0
  0
VERTEX
  5
1D0
100
AcDbEntity
  8
FAN70-0307
370
              15
390
0
  6
Continuous
 62
               7
100
AcDbVertex
100
AcDb2dVertex
 10
-394.67548812231541
 20
517.75417444302389
 30
0.0
  0
VERTEX
  5
1D1
100
AcDbEntity
  8
FAN70-0307
370
              15
390
0
  6
Continuous
 62
               7
100
AcDbVertex
100
AcDb2dVertex
 10
-397.39968642141537
 20
523.8487632792237
 30
0.0
  0
VERTEX
  5
1D2
100
AcDbEntity
  8
FAN70-0307
370
              15
390
0
  6
Continuous
 62
               7
100
AcDbVertex
100
AcDb2dVertex
 10
-401.09875048121546
 20
529.40563600752364
 30
0.0
  0
VERTEX
  5
1D3
100
AcDbEntity
  8
FAN70-0307
370
              15
390
0
  6
Continuous
 62
               7
100
AcDbVertex
100
AcDb2dVertex
 10
-405.6992478089154
 20
534.2757068373237
 30
0.0
  0
VERTEX
  5
1D4
100
AcDbEntity
  8
FAN70-0307
370
              15
390
0
  6
Continuous
 62
               7
100
AcDbVertex
100
AcDb2dVertex
 10
-411.04820904351539
 20
538.31074124532381
 30
0.0
  0
VERTEX
  5
1D5
100
AcDbEntity
  8
FAN70-0307
370
              15
390
0
  6
Continuous
 62
               7
100
AcDbVertex
100
AcDb2dVertex
 10
-416.9996514455155
 20
541.38173104872374
 30
0.0
  0
VERTEX
  5
1D6
100
AcDbEntity
  8
FAN70-0307
370
              15
390
0
  6
Continuous
 62
               7
100
AcDbVertex
100
AcDb2dVertex
 10
-423.38030331531547
 20
543.41762950182363
 30
0.0
  0
VERTEX
  5
1D7
100
AcDbEntity
  8
FAN70-0307
370
              15
390
0
  6
Continuous
 62
               7
100
AcDbVertex
100
AcDb2dVertex
 10
-427.76586208561537
 20
544.16035505862374
 30
0.0
  0
VERTEX
  5
1D8
100
AcDbEntity
  8
FAN70-0307
370
              15
390
0
  6
Continuous
 62
               7
100
AcDbVertex
100
AcDb2dVertex
 10
-432.20688305831538
 20
544.41003572312377
 30
0.0
  0
SEQEND
  5
1D9
100
AcDbEntity
  8
FAN70-0307
370
              15
390
0
  6
Continuous
 62
               7
  0
POLYLINE
  5
1DA
100
AcDbEntity
  8
FAN70-0307
370
              15
390
0
  6
Continuous
 62
               7
100
AcDb2dPolyline
 66
               1
 10
0.0
 20
0.0
 30
0.0
 75
               5
  0
VERTEX
  5
1DB
100
AcDbEntity
  8
FAN70-0307
370
              15
390
0
  6
Continuous
 62
               7
100
AcDbVertex
100
AcDb2dVertex
 10
-432.20688305831538
 20
687.56563436612373
 30
0.0
  0
VERTEX
  5
1DC
100
AcDbEntity
  8
FAN70-0307
370
              15
390
0
  6
Continuous
 62
               7
100
AcDbVertex
100
AcDb2dVertex
 10
-428.12567618561536
 20
687.40226252972366
 30
0.0
  0
VERTEX
  5
1DD
100
AcDbEntity
  8
FAN70-0307
370
              15
390
0
  6
Continuous
 62
               7
100
AcDbVertex
100
AcDb2dVertex
 10
-424.20225772231549
 20
686.91668901432377
 30
0.0
  0
VERTEX
  5
1DE
100
AcDbEntity
  8
FAN70-0307
370
              15
390
0
  6
Continuous
 62
               7
100
AcDbVertex
100
AcDb2dVertex
 10
-420.5871612447155
 20
686.12240896102378
 30
0.0
  0
VERTEX
  5
1DF
100
AcDbEntity
  8
FAN70-0307
370
              15
390
0
  6
Continuous
 62
               7
100
AcDbVertex
100
AcDb2dVertex
 10
-417.42047212041541
 20
685.04290352702367
 30
0.0
  0
VERTEX
  5
1E0
100
AcDbEntity
  8
FAN70-0307
370
              15
390
0
  6
Continuous
 62
               7
100
AcDbVertex
100
AcDb2dVertex
 10
-414.82305762101544
 20
683.71158508132373
 30
0.0
  0
VERTEX
  5
1E1
100
AcDbEntity
  8
FAN70-0307
370
              15
390
0
  6
Continuous
 62
               7
100
AcDbVertex
100
AcDb2dVertex
 10
-412.89452388311531
 20
682.17293467142372
 30
0.0
  0
VERTEX
  5
1E2
100
AcDbEntity
  8
FAN70-0307
370
              15
390
0
  6
Continuous
 62
               7
100
AcDbVertex
100
AcDb2dVertex
 10
-411.70752698891545
 20
680.48070113282381
 30
0.0
  0
VERTEX
  5
1E3
100
AcDbEntity
  8
FAN70-0307
370
              15
390
0
  6
Continuous
 62
               7
100
AcDbVertex
100
AcDb2dVertex
 10
-411.3068830908154
 20
678.69707767872376
 30
0.0
  0
VERTEX
  5
1E4
100
AcDbEntity
  8
FAN70-0307
370
              15
390
0
  6
Continuous
 62
               7
100
AcDbVertex
100
AcDb2dVertex
 10
-411.7077332536154
 20
676.89126027112377
 30
0.0
  0
VERTEX
  5
1E5
100
AcDbEntity
  8
FAN70-0307
370
              15
390
0
  6
Continuous
 62
               7
100
AcDbVertex
100
AcDb2dVertex
 10
-412.8953540206154
 20
675.13467990852371
 30
0.0
  0
VERTEX
  5
1E6
100
AcDbEntity
  8
FAN70-0307
370
              15
390
0
  6
Continuous
 62
               7
100
AcDbVertex
100
AcDb2dVertex
 10
-414.82449284391544
 20
673.50016344002381
 30
0.0
  0
VERTEX
  5
1E7
100
AcDbEntity
  8
FAN70-0307
370
              15
390
0
  6
Continuous
 62
               7
100
AcDbVertex
100
AcDb2dVertex
 10
-417.42242798821542
 20
672.05587071692366
 30
0.0
  0
VERTEX
  5
1E8
100
AcDbEntity
  8
FAN70-0307
370
              15
390
0
  6
Continuous
 62
               7
100
AcDbVertex
100
AcDb2dVertex
 10
-420.58917436311538
 20
670.86349080872367
 30
0.0
  0
VERTEX
  5
1E9
100
AcDbEntity
  8
FAN70-0307
370
              15
390
0
  6
Continuous
 62
               7
100
AcDbVertex
100
AcDb2dVertex
 10
-424.20344037201551
 20
669.97369779182372
 30
0.0
  0
VERTEX
  5
1EA
100
AcDbEntity
  8
FAN70-0307
370
              15
390
0
  6
Continuous
 62
               7
100
AcDbVertex
100
AcDb2dVertex
 10
-428.12670989041555
 20
669.42433550762371
 30
0.0
  0
VERTEX
  5
1EB
100
AcDbEntity
  8
FAN70-0307
370
              15
390
0
  6
Continuous
 62
               7
100
AcDbVertex
100
AcDb2dVertex
 10
-432.20688156021549
 20
669.23870319942364
 30
0.0
  0
SEQEND
  5
1EC
100
AcDbEntity
  8
FAN70-0307
370
              15
390
0
  6
Continuous
 62
               7
  0
POLYLINE
  5
1ED
100
AcDbEntity
  8
FAN70-0307
370
              15
390
0
  6
Continuous
 62
               7
100
AcDb2dPolyline
 66
               1
 10
0.0
 20
0.0
 30
0.0
 75
               5
  0
VERTEX
  5
1EE
100
AcDbEntity
  8
FAN70-0307
370
              15
390
0
  6
Continuous
 62
               7
100
AcDbVertex
100
AcDb2dVertex
 10
-471.95688305831538
 20
504.66003572312405
 30
0.0
  0
VERTEX
  5
1EF
100
AcDbEntity
  8
FAN70-0307
370
              15
390
0
  6
Continuous
 62
               7
100
AcDbVertex
100
AcDb2dVertex
 10
-471.62390670441539
 20
499.52282675272403
 30
0.0
  0
VERTEX
  5
1F0
100
AcDbEntity
  8
FAN70-0307
370
              15
390
0
  6
Continuous
 62
               7
100
AcDbVertex
100
AcDb2dVertex
 10
-470.62790785811546
 20
494.46742775292415
 30
0.0
  0
VERTEX
  5
1F1
100
AcDbEntity
  8
FAN70-0307
370
              15
390
0
  6
Continuous
 62
               7
100
AcDbVertex
100
AcDb2dVertex
 10
-468.9844808282154
 20
489.57784295062407
 30
0.0
  0
VERTEX
  5
1F2
100
AcDbEntity
  8
FAN70-0307
370
              15
390
0
  6
Continuous
 62
               7
100
AcDbVertex
100
AcDb2dVertex
 10
-466.71651042841552
 20
484.93243759632418
 30
0.0
  0
VERTEX
  5
1F3
100
AcDbEntity
  8
FAN70-0307
370
              15
390
0
  6
Continuous
 62
               7
100
AcDbVertex
100
AcDb2dVertex
 10
-463.85710145431551
 20
480.61163951522423
 30
0.0
  0
VERTEX
  5
1F4
100
AcDbEntity
  8
FAN70-0307
370
              15
390
0
  6
Continuous
 62
               7
100
AcDbVertex
100
AcDb2dVertex
 10
-460.45116637371541
 20
476.6899104993243
 30
0.0
  0
VERTEX
  5
1F5
100
AcDbEntity
  8
FAN70-0307
370
              15
390
0
  6
Continuous
 62
               7
100
AcDbVertex
100
AcDb2dVertex
 10
-456.55137608641542
 20
473.23649920122438
 30
0.0
  0
VERTEX
  5
1F6
100
AcDbEntity
  8
FAN70-0307
370
              15
390
0
  6
Continuous
 62
               7
100
AcDbVertex
100
AcDb2dVertex
 10
-452.22286466451544
 20
470.31730713042447
 30
0.0
  0
VERTEX
  5
1F7
100
AcDbEntity
  8
FAN70-0307
370
              15
390
0
  6
Continuous
 62
               7
100
AcDbVertex
100
AcDb2dVertex
 10
-447.53953688571539
 20
467.98617252022444
 30
0.0
  0
VERTEX
  5
1F8
100
AcDbEntity
  8
FAN70-0307
370
              15
390
0
  6
Continuous
 62
               7
100
AcDbVertex
100
AcDb2dVertex
 10
-442.58299999201552
 20
466.28818617892438
 30
0.0
  0
VERTEX
  5
1F9
100
AcDbEntity
  8
FAN70-0307
370
              15
390
0
  6
Continuous
 62
               7
100
AcDbVertex
100
AcDb2dVertex
 10
-437.44170496091544
 20
465.25586736722443
 30
0.0
  0
VERTEX
  5
1FA
100
AcDbEntity
  8
FAN70-0307
370
              15
390
0
  6
Continuous
 62
               7
100
AcDbVertex
100
AcDb2dVertex
 10
-432.20688305521537
 20
464.91003572312451
 30
0.0
  0
SEQEND
  5
1FB
100
AcDbEntity
  8
FAN70-0307
370
              15
390
0
  6
Continuous
 62
               7
  0
LINE
  5
1FC
100
AcDbEntity
  8
FAN70-0307
370
              15
390
0
  6
Continuous
 62
               7
100
AcDbLine
 10
-432.53289904091537
 20
687.56460272222364
 30
0.0
 11
-432.20688305831538
 21
687.56563436612373
 31
0.0
  0
POLYLINE
  5
1FD
100
AcDbEntity
  8
FAN70-0307
370
              15
390
0
  6
Continuous
 62
               7
100
AcDb2dPolyline
 66
               1
 10
0.0
 20
0.0
 30
0.0
 75
               5
  0
VERTEX
  5
1FE
100
AcDbEntity
  8
FAN70-0307
370
              15
390
0
  6
Continuous
 62
               7
100
AcDbVertex
100
AcDb2dVertex
 10
-449.5064033480154
 20
683.76460152322375
 30
0.0
  0
VERTEX
  5
1FF
100
AcDbEntity
  8
FAN70-0307
370
              15
390
0
  6
Continuous
 62
               7
100
AcDbVertex
100
AcDb2dVertex
 10
-446.99299576701549
 20
685.04302092302362
 30
0.0
  0
VERTEX
  5
200
100
AcDbEntity
  8
FAN70-0307
370
              15
390
0
  6
Continuous
 62
               7
100
AcDbVertex
100
AcDb2dVertex
 10
-443.82632112351541
 20
686.12248049902371
 30
0.0
  0
VERTEX
  5
201
100
AcDbEntity
  8
FAN70-0307
370
              15
390
0
  6
Continuous
 62
               7
100
AcDbVertex
100
AcDb2dVertex
 10
-440.21176372981552
 20
686.91664995772373
 30
0.0
  0
VERTEX
  5
202
100
AcDbEntity
  8
FAN70-0307
370
              15
390
0
  6
Continuous
 62
               7
100
AcDbVertex
100
AcDb2dVertex
 10
-436.44764369031543
 20
687.38910002042383
 30
0.0
  0
VERTEX
  5
203
100
AcDbEntity
  8
FAN70-0307
370
              15
390
0
  6
Continuous
 62
               7
100
AcDbVertex
100
AcDb2dVertex
 10
-432.53289904091537
 20
687.56460272222364
 30
0.0
  0
SEQEND
  5
204
100
AcDbEntity
  8
FAN70-0307
370
              15
390
0
  6
Continuous
 62
               7
  0
POLYLINE
  5
205
100
AcDbEntity
  8
FAN70-0307
370
              15
390
0
  6
Continuous
 62
               7
100
AcDb2dPolyline
 66
               1
 10
0.0
 20
0.0
 30
0.0
 75
               5
  0
VERTEX
  5
206
100
AcDbEntity
  8
FAN70-0307
370
              15
390
0
  6
Continuous
 62
               7
100
AcDbVertex
100
AcDb2dVertex
 10
-447.08308697911536
 20
672.09810998962371
 30
0.0
  0
VERTEX
  5
207
100
AcDbEntity
  8
FAN70-0307
370
              15
390
0
  6
Continuous
 62
               7
100
AcDbVertex
100
AcDb2dVertex
 10
-449.62533081671552
 20
673.52480308202371
 30
0.0
  0
VERTEX
  5
208
100
AcDbEntity
  8
FAN70-0307
370
              15
390
0
  6
Continuous
 62
               7
100
AcDbVertex
100
AcDb2dVertex
 10
-451.51842290781553
 20
675.13467477712368
 30
0.0
  0
VERTEX
  5
209
100
AcDbEntity
  8
FAN70-0307
370
              15
390
0
  6
Continuous
 62
               7
100
AcDbVertex
100
AcDb2dVertex
 10
-452.70586561001539
 20
676.89090148182379
 30
0.0
  0
VERTEX
  5
20A
100
AcDbEntity
  8
FAN70-0307
370
              15
390
0
  6
Continuous
 62
               7
100
AcDbVertex
100
AcDb2dVertex
 10
-453.10688308131546
 20
678.69700270512374
 30
0.0
  0
VERTEX
  5
20B
100
AcDbEntity
  8
FAN70-0307
370
              15
390
0
  6
Continuous
 62
               7
100
AcDbVertex
100
AcDb2dVertex
 10
-452.70640615301556
 20
680.48035109302361
 30
0.0
  0
VERTEX
  5
20C
100
AcDbEntity
  8
FAN70-0307
370
              15
390
0
  6
Continuous
 62
               7
100
AcDbVertex
100
AcDb2dVertex
 10
-451.51923138771542
 20
682.1729264640237
 30
0.0
  0
VERTEX
  5
20D
100
AcDbEntity
  8
FAN70-0307
370
              15
390
0
  6
Continuous
 62
               7
100
AcDbVertex
100
AcDb2dVertex
 10
-449.5064033480154
 20
683.76460152322375
 30
0.0
  0
SEQEND
  5
20E
100
AcDbEntity
  8
FAN70-0307
370
              15
390
0
  6
Continuous
 62
               7
  0
POLYLINE
  5
20F
100
AcDbEntity
  8
FAN70-0307
370
              15
390
0
  6
Continuous
 62
               7
100
AcDb2dPolyline
 66
               1
 10
0.0
 20
0.0
 30
0.0
 75
               5
  0
VERTEX
  5
210
100
AcDbEntity
  8
FAN70-0307
370
              15
390
0
  6
Continuous
 62
               7
100
AcDbVertex
100
AcDb2dVertex
 10
-432.20688305831538
 20
669.23870319942364
 30
0.0
  0
VERTEX
  5
211
100
AcDbEntity
  8
FAN70-0307
370
              15
390
0
  6
Continuous
 62
               7
100
AcDbVertex
100
AcDb2dVertex
 10
-436.28726997201545
 20
669.42436145502381
 30
0.0
  0
VERTEX
  5
212
100
AcDbEntity
  8
FAN70-0307
370
              15
390
0
  6
Continuous
 62
               7
100
AcDbVertex
100
AcDb2dVertex
 10
-440.21006715891542
 20
669.97365312942372
 30
0.0
  0
VERTEX
  5
213
100
AcDbEntity
  8
FAN70-0307
370
              15
390
0
  6
Continuous
 62
               7
100
AcDbVertex
100
AcDb2dVertex
 10
-443.82487330291553
 20
670.86357113802376
 30
0.0
  0
VERTEX
  5
214
100
AcDbEntity
  8
FAN70-0307
370
              15
390
0
  6
Continuous
 62
               7
100
AcDbVertex
100
AcDb2dVertex
 10
-446.99163465891536
 20
672.05599947472376
 30
0.0
  0
VERTEX
  5
215
100
AcDbEntity
  8
FAN70-0307
370
              15
390
0
  6
Continuous
 62
               7
100
AcDbVertex
100
AcDb2dVertex
 10
-447.08308697911536
 20
672.09810998962371
 30
0.0
  0
SEQEND
  5
216
100
AcDbEntity
  8
FAN70-0307
370
              15
390
0
  6
Continuous
 62
               7
  0
POLYLINE
  5
217
100
AcDbEntity
  8
FAN70-0307
370
              15
390
0
  6
Continuous
 62
               7
100
AcDb2dPolyline
 66
               1
 10
0.0
 20
0.0
 30
0.0
 75
               5
  0
VERTEX
  5
218
100
AcDbEntity
  8
FAN70-0307
370
              15
390
0
  6
Continuous
 62
               7
100
AcDbVertex
100
AcDb2dVertex
 10
-432.20688305831538
 20
544.41003572312377
 30
0.0
  0
VERTEX
  5
219
100
AcDbEntity
  8
FAN70-0307
370
              15
390
0
  6
Continuous
 62
               7
100
AcDbVertex
100
AcDb2dVertex
 10
-437.44169611351538
 20
544.06420118372375
 30
0.0
  0
VERTEX
  5
21A
100
AcDbEntity
  8
FAN70-0307
370
              15
390
0
  6
Continuous
 62
               7
100
AcDbVertex
100
AcDb2dVertex
 10
-442.58310759041535
 20
543.03187647972379
 30
0.0
  0
VERTEX
  5
21B
100
AcDbEntity
  8
FAN70-0307
370
              15
390
0
  6
Continuous
 62
               7
100
AcDbVertex
100
AcDb2dVertex
 10
-447.5395939720155
 20
541.33387767212378
 30
0.0
  0
VERTEX
  5
21C
100
AcDbEntity
  8
FAN70-0307
370
              15
390
0
  6
Continuous
 62
               7
100
AcDbVertex
100
AcDb2dVertex
 10
-452.22355757231537
 20
539.0027523119237
 30
0.0
  0
VERTEX
  5
21D
100
AcDbEntity
  8
FAN70-0307
370
              15
390
0
  6
Continuous
 62
               7
100
AcDbVertex
100
AcDb2dVertex
 10
-456.55179748631542
 20
536.08274043102381
 30
0.0
  0
VERTEX
  5
21E
100
AcDbEntity
  8
FAN70-0307
370
              15
390
0
  6
Continuous
 62
               7
100
AcDbVertex
100
AcDb2dVertex
 10
-460.45112213781533
 20
532.63024588742371
 30
0.0
  0
VERTEX
  5
21F
100
AcDbEntity
  8
FAN70-0307
370
              15
390
0
  6
Continuous
 62
               7
100
AcDbVertex
100
AcDb2dVertex
 10
-463.85788319801543
 20
528.70796966992373
 30
0.0
  0
VERTEX
  5
220
100
AcDbEntity
  8
FAN70-0307
370
              15
390
0
  6
Continuous
 62
               7
100
AcDbVertex
100
AcDb2dVertex
 10
-466.71644514601542
 20
524.38699196672371
 30
0.0
  0
VERTEX
  5
221
100
AcDbEntity
  8
FAN70-0307
370
              15
390
0
  6
Continuous
 62
               7
100
AcDbVertex
100
AcDb2dVertex
 10
-468.98438964611535
 20
519.74242756762385
 30
0.0
  0
VERTEX
  5
222
100
AcDbEntity
  8
FAN70-0307
370
              15
390
0
  6
Continuous
 62
               7
100
AcDbVertex
100
AcDb2dVertex
 10
-470.62789788241537
 20
514.85258960842384
 30
0.0
  0
VERTEX
  5
223
100
AcDbEntity
  8
FAN70-0307
370
              15
390
0
  6
Continuous
 62
               7
100
AcDbVertex
100
AcDb2dVertex
 10
-471.62384633371551
 20
509.79773242272387
 30
0.0
  0
VERTEX
  5
224
100
AcDbEntity
  8
FAN70-0307
370
              15
390
0
  6
Continuous
 62
               7
100
AcDbVertex
100
AcDb2dVertex
 10
-471.9568830560155
 20
504.66039718722396
 30
0.0
  0
VERTEX
  5
225
100
AcDbEntity
  8
FAN70-0307
370
              15
390
0
  6
Continuous
 62
               7
100
AcDbVertex
100
AcDb2dVertex
 10
-471.95688305831538
 20
504.66003572312405
 30
0.0
  0
SEQEND
  5
226
100
AcDbEntity
  8
FAN70-0307
370
              15
390
0
  6
Continuous
 62
               7
  0
POLYLINE
  5
227
100
AcDbEntity
  8
FAN70-0307
370
              15
390
0
  6
Continuous
 62
               7
100
AcDb2dPolyline
 66
               1
 10
0.0
 20
0.0
 30
0.0
 75
               5
  0
VERTEX
  5
228
100
AcDbEntity
  8
FAN70-0307
370
              15
390
0
  6
Continuous
 62
               7
100
AcDbVertex
100
AcDb2dVertex
 10
-432.20688305521537
 20
464.91003572312451
 30
0.0
  0
VERTEX
  5
229
100
AcDbEntity
  8
FAN70-0307
370
              15
390
0
  6
Continuous
 62
               7
100
AcDbVertex
100
AcDb2dVertex
 10
-426.97207000001538
 20
465.25587026292447
 30
0.0
  0
VERTEX
  5
22A
100
AcDbEntity
  8
FAN70-0307
370
              15
390
0
  6
Continuous
 62
               7
100
AcDbVertex
100
AcDb2dVertex
 10
-421.8306585231154
 20
466.28819496732439
 30
0.0
  0
VERTEX
  5
22B
100
AcDbEntity
  8
FAN70-0307
370
              15
390
0
  6
Continuous
 62
               7
100
AcDbVertex
100
AcDb2dVertex
 10
-416.87417214171535
 20
467.98619377532447
 30
0.0
  0
VERTEX
  5
22C
100
AcDbEntity
  8
FAN70-0307
370
              15
390
0
  6
Continuous
 62
               7
100
AcDbVertex
100
AcDb2dVertex
 10
-412.19020854141547
 20
470.31731913592438
 30
0.0
  0
VERTEX
  5
22D
100
AcDbEntity
  8
FAN70-0307
370
              15
390
0
  6
Continuous
 62
               7
100
AcDbVertex
100
AcDb2dVertex
 10
-407.86196862811551
 20
473.23733101682438
 30
0.0
  0
VERTEX
  5
22E
100
AcDbEntity
  8
FAN70-0307
370
              15
390
0
  6
Continuous
 62
               7
100
AcDbVertex
100
AcDb2dVertex
 10
-403.96264397711536
 20
476.68982556042437
 30
0.0
  0
VERTEX
  5
22F
100
AcDbEntity
  8
FAN70-0307
370
              15
390
0
  6
Continuous
 62
               7
100
AcDbVertex
100
AcDb2dVertex
 10
-400.55588291701554
 20
480.6121017783243
 30
0.0
  0
VERTEX
  5
230
100
AcDbEntity
  8
FAN70-0307
370
              15
390
0
  6
Continuous
 62
               7
100
AcDbVertex
100
AcDb2dVertex
 10
-397.69732097121539
 20
484.93307947822422
 30
0.0
  0
VERTEX
  5
231
100
AcDbEntity
  8
FAN70-0307
370
              15
390
0
  6
Continuous
 62
               7
100
AcDbVertex
100
AcDb2dVertex
 10
-395.42937647151541
 20
489.57764387602407
 30
0.0
  0
VERTEX
  5
232
100
AcDbEntity
  8
FAN70-0307
370
              15
390
0
  6
Continuous
 62
               7
100
AcDbVertex
100
AcDb2dVertex
 10
-393.78586823481544
 20
494.46748183532412
 30
0.0
  0
VERTEX
  5
233
100
AcDbEntity
  8
FAN70-0307
370
              15
390
0
  6
Continuous
 62
               7
100
AcDbVertex
100
AcDb2dVertex
 10
-392.7899197832154
 20
499.52233902072402
 30
0.0
  0
VERTEX
  5
234
100
AcDbEntity
  8
FAN70-0307
370
              15
390
0
  6
Continuous
 62
               7
100
AcDbVertex
100
AcDb2dVertex
 10
-392.45688306051545
 20
504.65967425622404
 30
0.0
  0
VERTEX
  5
235
100
AcDbEntity
  8
FAN70-0307
370
              15
390
0
  6
Continuous
 62
               7
100
AcDbVertex
100
AcDb2dVertex
 10
-392.45688305831538
 20
504.66003572312405
 30
0.0
  0
SEQEND
  5
236
100
AcDbEntity
  8
FAN70-0307
370
              15
390
0
  6
Continuous
 62
               7
  0
POLYLINE
  5
237
100
AcDbEntity
  8
FAN70-0307
370
              15
390
0
  6
Continuous
 62
               7
100
AcDb2dPolyline
 66
               1
 10
0.0
 20
0.0
 30
0.0
 75
               5
  0
VERTEX
  5
238
100
AcDbEntity
  8
FAN70-0307
370
              15
390
0
  6
Continuous
 62
               7
100
AcDbVertex
100
AcDb2dVertex
 10
-300.69223354721555
 20
317.37418125674037
 30
0.0
  0
VERTEX
  5
239
100
AcDbEntity
  8
FAN70-0307
370
              15
390
0
  6
Continuous
 62
               7
100
AcDbVertex
100
AcDb2dVertex
 10
-319.22962090761541
 20
310.47342320907461
 30
0.0
  0
VERTEX
  5
23A
100
AcDbEntity
  8
FAN70-0307
370
              15
390
0
  6
Continuous
 62
               7
100
AcDbVertex
100
AcDb2dVertex
 10
-338.14277433401537
 20
304.67989098829588
 30
0.0
  0
VERTEX
  5
23B
100
AcDbEntity
  8
FAN70-0307
370
              15
390
0
  6
Continuous
 62
               7
100
AcDbVertex
100
AcDb2dVertex
 10
-357.09804348751538
 20
300.0424954574637
 30
0.0
  0
VERTEX
  5
23C
100
AcDbEntity
  8
FAN70-0307
370
              15
390
0
  6
Continuous
 62
               7
100
AcDbVertex
100
AcDb2dVertex
 10
-376.28192468291547
 20
296.46506872154782
 30
0.0
  0
VERTEX
  5
23D
100
AcDbEntity
  8
FAN70-0307
370
              15
390
0
  6
Continuous
 62
               7
100
AcDbVertex
100
AcDb2dVertex
 10
-397.13428040101542
 20
293.80045747931649
 30
0.0
  0
VERTEX
  5
23E
100
AcDbEntity
  8
FAN70-0307
370
              15
390
0
  6
Continuous
 62
               7
100
AcDbVertex
100
AcDb2dVertex
 10
-418.16176451751551
 20
292.36475217476237
 30
0.0
  0
VERTEX
  5
23F
100
AcDbEntity
  8
FAN70-0307
370
              15
390
0
  6
Continuous
 62
               7
100
AcDbVertex
100
AcDb2dVertex
 10
-439.25565878511554
 20
292.15877792352489
 30
0.0
  0
VERTEX
  5
240
100
AcDbEntity
  8
FAN70-0307
370
              15
390
0
  6
Continuous
 62
               7
100
AcDbVertex
100
AcDb2dVertex
 10
-460.3072449564155
 20
293.18335984064305
 30
0.0
  0
VERTEX
  5
241
100
AcDbEntity
  8
FAN70-0307
370
              15
390
0
  6
Continuous
 62
               7
100
AcDbVertex
100
AcDb2dVertex
 10
-481.20780478401559
 20
295.43932304155607
 30
0.0
  0
VERTEX
  5
242
100
AcDbEntity
  8
FAN70-0307
370
              15
390
0
  6
Continuous
 62
               7
100
AcDbVertex
100
AcDb2dVertex
 10
-498.34459206071551
 20
298.23343231889413
 30
0.0
  0
VERTEX
  5
243
100
AcDbEntity
  8
FAN70-0307
370
              15
390
0
  6
Continuous
 62
               7
100
AcDbVertex
100
AcDb2dVertex
 10
-515.33380197191582
 20
301.86680918402601
 30
0.0
  0
VERTEX
  5
244
100
AcDbEntity
  8
FAN70-0307
370
              15
390
0
  6
Continuous
 62
               7
100
AcDbVertex
100
AcDb2dVertex
 10
-532.11011564101591
 20
306.33981536760103
 30
0.0
  0
VERTEX
  5
245
100
AcDbEntity
  8
FAN70-0307
370
              15
390
0
  6
Continuous
 62
               7
100
AcDbVertex
100
AcDb2dVertex
 10
-548.65458827091584
 20
311.67110431393479
 30
0.0
  0
VERTEX
  5
246
100
AcDbEntity
  8
FAN70-0307
370
              15
390
0
  6
Continuous
 62
               7
100
AcDbVertex
100
AcDb2dVertex
 10
-564.9095039340159
 20
317.86195557683891
 30
0.0
  0
VERTEX
  5
247
100
AcDbEntity
  8
FAN70-0307
370
              15
390
0
  6
Continuous
 62
               7
100
AcDbVertex
100
AcDb2dVertex
 10
-580.80167104761586
 20
324.90144871781206
 30
0.0
  0
VERTEX
  5
248
100
AcDbEntity
  8
FAN70-0307
370
              15
390
0
  6
Continuous
 62
               7
100
AcDbVertex
100
AcDb2dVertex
 10
-596.3113430971157
 20
332.80383375745123
 30
0.0
  0
VERTEX
  5
249
100
AcDbEntity
  8
FAN70-0307
370
              15
390
0
  6
Continuous
 62
               7
100
AcDbVertex
100
AcDb2dVertex
 10
-611.37004525381576
 20
341.56099899321543
 30
0.0
  0
VERTEX
  5
24A
100
AcDbEntity
  8
FAN70-0307
370
              15
390
0
  6
Continuous
 62
               7
100
AcDbVertex
100
AcDb2dVertex
 10
-625.8910612369159
 20
351.15681078744711
 30
0.0
  0
VERTEX
  5
24B
100
AcDbEntity
  8
FAN70-0307
370
              15
390
0
  6
Continuous
 62
               7
100
AcDbVertex
100
AcDb2dVertex
 10
-636.31632242571573
 20
358.84814736816548
 30
0.0
  0
VERTEX
  5
24C
100
AcDbEntity
  8
FAN70-0307
370
              15
390
0
  6
Continuous
 62
               7
100
AcDbVertex
100
AcDb2dVertex
 10
-646.38643655151577
 20
367.00937690821195
 30
0.0
  0
VERTEX
  5
24D
100
AcDbEntity
  8
FAN70-0307
370
              15
390
0
  6
Continuous
 62
               7
100
AcDbVertex
100
AcDb2dVertex
 10
-656.05909411671564
 20
375.62708499940902
 30
0.0
  0
VERTEX
  5
24E
100
AcDbEntity
  8
FAN70-0307
370
              15
390
0
  6
Continuous
 62
               7
100
AcDbVertex
100
AcDb2dVertex
 10
-665.32046422481585
 20
384.7111896335436
 30
0.0
  0
VERTEX
  5
24F
100
AcDbEntity
  8
FAN70-0307
370
              15
390
0
  6
Continuous
 62
               7
100
AcDbVertex
100
AcDb2dVertex
 10
-674.13274335591586
 20
394.24196073250346
 30
0.0
  0
VERTEX
  5
250
100
AcDbEntity
  8
FAN70-0307
370
              15
390
0
  6
Continuous
 62
               7
100
AcDbVertex
100
AcDb2dVertex
 10
-682.45291718241583
 20
404.19446147071471
 30
0.0
  0
VERTEX
  5
251
100
AcDbEntity
  8
FAN70-0307
370
              15
390
0
  6
Continuous
 62
               7
100
AcDbVertex
100
AcDb2dVertex
 10
-690.84339312371594
 20
415.40561620806068
 30
0.0
  0
VERTEX
  5
252
100
AcDbEntity
  8
FAN70-0307
370
              15
390
0
  6
Continuous
 62
               7
100
AcDbVertex
100
AcDb2dVertex
 10
-698.59983224301573
 20
427.11031885390315
 30
0.0
  0
VERTEX
  5
253
100
AcDbEntity
  8
FAN70-0307
370
              15
390
0
  6
Continuous
 62
               7
100
AcDbVertex
100
AcDb2dVertex
 10
-705.66426593991582
 20
439.2558311936653
 30
0.0
  0
VERTEX
  5
254
100
AcDbEntity
  8
FAN70-0307
370
              15
390
0
  6
Continuous
 62
               7
100
AcDbVertex
100
AcDb2dVertex
 10
-711.97872561421582
 20
451.78941501307025
 30
0.0
  0
VERTEX
  5
255
100
AcDbEntity
  8
FAN70-0307
370
              15
390
0
  6
Continuous
 62
               7
100
AcDbVertex
100
AcDb2dVertex
 10
-717.48524266531581
 20
464.65833209754163
 30
0.0
  0
VERTEX
  5
256
100
AcDbEntity
  8
FAN70-0307
370
              15
390
0
  6
Continuous
 62
               7
100
AcDbVertex
100
AcDb2dVertex
 10
-721.40864426211579
 20
475.54286398960431
 30
0.0
  0
VERTEX
  5
257
100
AcDbEntity
  8
FAN70-0307
370
              15
390
0
  6
Continuous
 62
               7
100
AcDbVertex
100
AcDb2dVertex
 10
-724.75484102711562
 20
486.62686009700548
 30
0.0
  0
VERTEX
  5
258
100
AcDbEntity
  8
FAN70-0307
370
              15
390
0
  6
Continuous
 62
               7
100
AcDbVertex
100
AcDb2dVertex
 10
-727.50296890841582
 20
497.86547548586503
 30
0.0
  0
VERTEX
  5
259
100
AcDbEntity
  8
FAN70-0307
370
              15
390
0
  6
Continuous
 62
               7
100
AcDbVertex
100
AcDb2dVertex
 10
-729.99237005411578
 20
511.6091189170192
 30
0.0
  0
VERTEX
  5
25A
100
AcDbEntity
  8
FAN70-0307
370
              15
390
0
  6
Continuous
 62
               7
100
AcDbVertex
100
AcDb2dVertex
 10
-731.5673765757158
 20
525.53479021401506
 30
0.0
  0
VERTEX
  5
25B
100
AcDbEntity
  8
FAN70-0307
370
              15
390
0
  6
Continuous
 62
               7
100
AcDbVertex
100
AcDb2dVertex
 10
-732.21903925591573
 20
539.5492677960159
 30
0.0
  0
VERTEX
  5
25C
100
AcDbEntity
  8
FAN70-0307
370
              15
390
0
  6
Continuous
 62
               7
100
AcDbVertex
100
AcDb2dVertex
 10
-731.93840887731585
 20
553.55933008228453
 30
0.0
  0
VERTEX
  5
25D
100
AcDbEntity
  8
FAN70-0307
370
              15
390
0
  6
Continuous
 62
               7
100
AcDbVertex
100
AcDb2dVertex
 10
-730.71653622271583
 20
567.4717554920843
 30
0.0
  0
VERTEX
  5
25E
100
AcDbEntity
  8
FAN70-0307
370
              15
390
0
  6
Continuous
 62
               7
100
AcDbVertex
100
AcDb2dVertex
 10
-728.95178605501587
 20
579.14622172004431
 30
0.0
  0
VERTEX
  5
25F
100
AcDbEntity
  8
FAN70-0307
370
              15
390
0
  6
Continuous
 62
               7
100
AcDbVertex
100
AcDb2dVertex
 10
-726.54051143891593
 20
590.71390623427499
 30
0.0
  0
VERTEX
  5
260
100
AcDbEntity
  8
FAN70-0307
370
              15
390
0
  6
Continuous
 62
               7
100
AcDbVertex
100
AcDb2dVertex
 10
-723.50096101831582
 20
602.12345655491993
 30
0.0
  0
VERTEX
  5
261
100
AcDbEntity
  8
FAN70-0307
370
              15
390
0
  6
Continuous
 62
               7
100
AcDbVertex
100
AcDb2dVertex
 10
-719.12013018661582
 20
615.3558023671352
 30
0.0
  0
VERTEX
  5
262
100
AcDbEntity
  8
FAN70-0307
370
              15
390
0
  6
Continuous
 62
               7
100
AcDbVertex
100
AcDb2dVertex
 10
-713.90818202921582
 20
628.29861997940191
 30
0.0
  0
VERTEX
  5
263
100
AcDbEntity
  8
FAN70-0307
370
              15
390
0
  6
Continuous
 62
               7
100
AcDbVertex
100
AcDb2dVertex
 10
-707.90735666091587
 20
640.88021251306282
 30
0.0
  0
VERTEX
  5
264
100
AcDbEntity
  8
FAN70-0307
370
              15
390
0
  6
Continuous
 62
               7
100
AcDbVertex
100
AcDb2dVertex
 10
-699.23122176381594
 20
656.2240276265926
 30
0.0
  0
VERTEX
  5
265
100
AcDbEntity
  8
FAN70-0307
370
              15
390
0
  6
Continuous
 62
               7
100
AcDbVertex
100
AcDb2dVertex
 10
-689.40161961661579
 20
670.93341362583897
 30
0.0
  0
VERTEX
  5
266
100
AcDbEntity
  8
FAN70-0307
370
              15
390
0
  6
Continuous
 62
               7
100
AcDbVertex
100
AcDb2dVertex
 10
-678.53355879931587
 20
684.93152493892808
 30
0.0
  0
VERTEX
  5
267
100
AcDbEntity
  8
FAN70-0307
370
              15
390
0
  6
Continuous
 62
               7
100
AcDbVertex
100
AcDb2dVertex
 10
-666.74204789191572
 20
698.14151599418699
 30
0.0
  0
VERTEX
  5
268
100
AcDbEntity
  8
FAN70-0307
370
              15
390
0
  6
Continuous
 62
               7
100
AcDbVertex
100
AcDb2dVertex
 10
-654.14209547441578
 20
710.48654121984202
 30
0.0
  0
VERTEX
  5
269
100
AcDbEntity
  8
FAN70-0307
370
              15
390
0
  6
Continuous
 62
               7
100
AcDbVertex
100
AcDb2dVertex
 10
-642.25930380851582
 20
720.76737734468259
 30
0.0
  0
VERTEX
  5
26A
100
AcDbEntity
  8
FAN70-0307
370
              15
390
0
  6
Continuous
 62
               7
100
AcDbVertex
100
AcDb2dVertex
 10
-629.8092826162158
 20
730.37445480186545
 30
0.0
  0
VERTEX
  5
26B
100
AcDbEntity
  8
FAN70-0307
370
              15
390
0
  6
Continuous
 62
               7
100
AcDbVertex
100
AcDb2dVertex
 10
-616.86707679941583
 20
739.2877945519549
 30
0.0
  0
VERTEX
  5
26C
100
AcDbEntity
  8
FAN70-0307
370
              15
390
0
  6
Continuous
 62
               7
100
AcDbVertex
100
AcDb2dVertex
 10
-602.03311574461577
 20
748.34097004562148
 30
0.0
  0
VERTEX
  5
26D
100
AcDbEntity
  8
FAN70-0307
370
              15
390
0
  6
Continuous
 62
               7
100
AcDbVertex
100
AcDb2dVertex
 10
-586.70320218951565
 20
756.55607592527019
 30
0.0
  0
VERTEX
  5
26E
100
AcDbEntity
  8
FAN70-0307
370
              15
390
0
  6
Continuous
 62
               7
100
AcDbVertex
100
AcDb2dVertex
 10
-570.95967256091581
 20
763.91783375928605
 30
0.0
  0
VERTEX
  5
26F
100
AcDbEntity
  8
FAN70-0307
370
              15
390
0
  6
Continuous
 62
               7
100
AcDbVertex
100
AcDb2dVertex
 10
-554.86434161111583
 20
770.41807966937881
 30
0.0
  0
VERTEX
  5
270
100
AcDbEntity
  8
FAN70-0307
370
              15
390
0
  6
Continuous
 62
               7
100
AcDbVertex
100
AcDb2dVertex
 10
-538.43885794641574
 20
776.06963640758147
 30
0.0
  0
VERTEX
  5
271
100
AcDbEntity
  8
FAN70-0307
370
              15
390
0
  6
Continuous
 62
               7
100
AcDbVertex
100
AcDb2dVertex
 10
-521.7555823724158
 20
780.86682531839676
 30
0.0
  0
VERTEX
  5
272
100
AcDbEntity
  8
FAN70-0307
370
              15
390
0
  6
Continuous
 62
               7
100
AcDbVertex
100
AcDb2dVertex
 10
-502.4947432341155
 20
785.29489957663816
 30
0.0
  0
VERTEX
  5
273
100
AcDbEntity
  8
FAN70-0307
370
              15
390
0
  6
Continuous
 62
               7
100
AcDbVertex
100
AcDb2dVertex
 10
-482.95548647741555
 20
788.64189386121711
 30
0.0
  0
VERTEX
  5
274
100
AcDbEntity
  8
FAN70-0307
370
              15
390
0
  6
Continuous
 62
               7
100
AcDbVertex
100
AcDb2dVertex
 10
-463.22924247251547
 20
790.90404627731823
 30
0.0
  0
VERTEX
  5
275
100
AcDbEntity
  8
FAN70-0307
370
              15
390
0
  6
Continuous
 62
               7
100
AcDbVertex
100
AcDb2dVertex
 10
-443.40744158951532
 20
792.07759492982564
 30
0.0
  0
VERTEX
  5
276
100
AcDbEntity
  8
FAN70-0307
370
              15
390
0
  6
Continuous
 62
               7
100
AcDbVertex
100
AcDb2dVertex
 10
-423.5815141983154
 20
792.15877792352364
 30
0.0
  0
VERTEX
  5
277
100
AcDbEntity
  8
FAN70-0307
370
              15
390
0
  6
Continuous
 62
               7
100
AcDbVertex
100
AcDb2dVertex
 10
-403.84289066901545
 20
791.14383336359685
 30
0.0
  0
VERTEX
  5
278
100
AcDbEntity
  8
FAN70-0307
370
              15
390
0
  6
Continuous
 62
               7
100
AcDbVertex
100
AcDb2dVertex
 10
-385.34904926771549
 20
789.1892386068323
 30
0.0
  0
VERTEX
  5
279
100
AcDbEntity
  8
FAN70-0307
370
              15
390
0
  6
Continuous
 62
               7
100
AcDbVertex
100
AcDb2dVertex
 10
-366.98181677051537
 20
786.27633385823731
 30
0.0
  0
VERTEX
  5
27A
100
AcDbEntity
  8
FAN70-0307
370
              15
390
0
  6
Continuous
 62
               7
100
AcDbVertex
100
AcDb2dVertex
 10
-350.00384083221536
 20
782.69260715484984
 30
0.0
  0
VERTEX
  5
27B
100
AcDbEntity
  8
FAN70-0307
370
              15
390
0
  6
Continuous
 62
               7
100
AcDbVertex
100
AcDb2dVertex
 10
-333.21507014101542
 20
778.26567710936649
 30
0.0
  0
VERTEX
  5
27C
100
AcDbEntity
  8
FAN70-0307
370
              15
390
0
  6
Continuous
 62
               7
100
AcDbVertex
100
AcDb2dVertex
 10
-316.68434781321537
 20
772.99355939074565
 30
0.0
  0
VERTEX
  5
27D
100
AcDbEntity
  8
FAN70-0307
370
              15
390
0
  6
Continuous
 62
               7
100
AcDbVertex
100
AcDb2dVertex
 10
-298.92496837741544
 20
766.23695348411616
 30
0.0
  0
VERTEX
  5
27E
100
AcDbEntity
  8
FAN70-0307
370
              15
390
0
  6
Continuous
 62
               7
100
AcDbVertex
100
AcDb2dVertex
 10
-281.5399434931154
 20
758.43690552559849
 30
0.0
  0
VERTEX
  5
27F
100
AcDbEntity
  8
FAN70-0307
370
              15
390
0
  6
Continuous
 62
               7
100
AcDbVertex
100
AcDb2dVertex
 10
-264.63655704921541
 20
749.6137399382053
 30
0.0
  0
VERTEX
  5
280
100
AcDbEntity
  8
FAN70-0307
370
              15
390
0
  6
Continuous
 62
               7
100
AcDbVertex
100
AcDb2dVertex
 10
-248.32209293461548
 20
739.78778114494924
 30
0.0
  0
VERTEX
  5
281
100
AcDbEntity
  8
FAN70-0307
370
              15
390
0
  6
Continuous
 62
               7
100
AcDbVertex
100
AcDb2dVertex
 10
-232.70383503821566
 20
728.97935356894322
 30
0.0
  0
VERTEX
  5
282
100
AcDbEntity
  8
FAN70-0307
370
              15
390
0
  6
Continuous
 62
               7
100
AcDbVertex
100
AcDb2dVertex
 10
-220.34680331581561
 20
719.2771345982037
 30
0.0
  0
VERTEX
  5
283
100
AcDbEntity
  8
FAN70-0307
370
              15
390
0
  6
Continuous
 62
               7
100
AcDbVertex
100
AcDb2dVertex
 10
-208.54569202001565
 20
708.8874352659135
 30
0.0
  0
VERTEX
  5
284
100
AcDbEntity
  8
FAN70-0307
370
              15
390
0
  6
Continuous
 62
               7
100
AcDbVertex
100
AcDb2dVertex
 10
-197.37447837701555
 20
697.84248836003871
 30
0.0
  0
VERTEX
  5
285
100
AcDbEntity
  8
FAN70-0307
370
              15
390
0
  6
Continuous
 62
               7
100
AcDbVertex
100
AcDb2dVertex
 10
-188.88340873001542
 20
688.4951005102929
 30
0.0
  0
VERTEX
  5
286
100
AcDbEntity
  8
FAN70-0307
370
              15
390
0
  6
Continuous
 62
               7
100
AcDbVertex
100
AcDb2dVertex
 10
-180.85380221211543
 20
678.73885181013634
 30
0.0
  0
VERTEX
  5
287
100
AcDbEntity
  8
FAN70-0307
370
              15
390
0
  6
Continuous
 62
               7
100
AcDbVertex
100
AcDb2dVertex
 10
-173.32698752491549
 20
668.59973336084795
 30
0.0
  0
VERTEX
  5
288
100
AcDbEntity
  8
FAN70-0307
370
              15
390
0
  6
Continuous
 62
               7
100
AcDbVertex
100
AcDb2dVertex
 10
-165.41202107421557
 20
656.5912882270203
 30
0.0
  0
VERTEX
  5
289
100
AcDbEntity
  8
FAN70-0307
370
              15
390
0
  6
Continuous
 62
               7
100
AcDbVertex
100
AcDb2dVertex
 10
-158.22040090711542
 20
644.08584266765092
 30
0.0
  0
VERTEX
  5
28A
100
AcDbEntity
  8
FAN70-0307
370
              15
390
0
  6
Continuous
 62
               7
100
AcDbVertex
100
AcDb2dVertex
 10
-151.80920041591551
 20
631.15045769815697
 30
0.0
  0
VERTEX
  5
28B
100
AcDbEntity
  8
FAN70-0307
370
              15
390
0
  6
Continuous
 62
               7
100
AcDbVertex
100
AcDb2dVertex
 10
-146.23549299271579
 20
617.85219433385544
 30
0.0
  0
VERTEX
  5
28C
100
AcDbEntity
  8
FAN70-0307
370
              15
390
0
  6
Continuous
 62
               7
100
AcDbVertex
100
AcDb2dVertex
 10
-141.55635203001546
 20
604.25811359016359
 30
0.0
  0
VERTEX
  5
28D
100
AcDbEntity
  8
FAN70-0307
370
              15
390
0
  6
Continuous
 62
               7
100
AcDbVertex
100
AcDb2dVertex
 10
-138.38473043821548
 20
592.82099891351652
 30
0.0
  0
VERTEX
  5
28E
100
AcDbEntity
  8
FAN70-0307
370
              15
390
0
  6
Continuous
 62
               7
100
AcDbVertex
100
AcDb2dVertex
 10
-135.84493030111551
 20
581.21804506732349
 30
0.0
  0
VERTEX
  5
28F
100
AcDbEntity
  8
FAN70-0307
370
              15
390
0
  6
Continuous
 62
               7
100
AcDbVertex
100
AcDb2dVertex
 10
-133.95597642251553
 20
569.50099548614651
 30
0.0
  0
VERTEX
  5
290
100
AcDbEntity
  8
FAN70-0307
370
              15
390
0
  6
Continuous
 62
               7
100
AcDbVertex
100
AcDb2dVertex
 10
-132.7314274859157
 20
557.68100340026854
 30
0.0
  0
VERTEX
  5
291
100
AcDbEntity
  8
FAN70-0307
370
              15
390
0
  6
Continuous
 62
               7
100
AcDbVertex
100
AcDb2dVertex
 10
-132.18087467421563
 20
545.80089590614512
 30
0.0
  0
VERTEX
  5
292
100
AcDbEntity
  8
FAN70-0307
370
              15
390
0
  6
Continuous
 62
               7
100
AcDbVertex
100
AcDb2dVertex
 10
-132.31192736681558
 20
533.91867248196093
 30
0.0
  0
VERTEX
  5
293
100
AcDbEntity
  8
FAN70-0307
370
              15
390
0
  6
Continuous
 62
               7
100
AcDbVertex
100
AcDb2dVertex
 10
-133.42487916311555
 20
519.28462857109821
 30
0.0
  0
VERTEX
  5
294
100
AcDbEntity
  8
FAN70-0307
370
              15
390
0
  6
Continuous
 62
               7
100
AcDbVertex
100
AcDb2dVertex
 10
-135.56977418491559
 20
504.71378847837371
 30
0.0
  0
VERTEX
  5
295
100
AcDbEntity
  8
FAN70-0307
370
              15
390
0
  6
Continuous
 62
               7
100
AcDbVertex
100
AcDb2dVertex
 10
-138.71101116131538
 20
490.30424961206228
 30
0.0
  0
VERTEX
  5
296
100
AcDbEntity
  8
FAN70-0307
370
              15
390
0
  6
Continuous
 62
               7
100
AcDbVertex
100
AcDb2dVertex
 10
-142.81298882161562
 20
476.15410938013912
 30
0.0
  0
VERTEX
  5
297
100
AcDbEntity
  8
FAN70-0307
370
              15
390
0
  6
Continuous
 62
               7
100
AcDbVertex
100
AcDb2dVertex
 10
-147.84010589481548
 20
462.3614651906791
 30
0.0
  0
VERTEX
  5
298
100
AcDbEntity
  8
FAN70-0307
370
              15
390
0
  6
Continuous
 62
               7
100
AcDbVertex
100
AcDb2dVertex
 10
-152.89447925621565
 20
450.79157774623246
 30
0.0
  0
VERTEX
  5
299
100
AcDbEntity
  8
FAN70-0307
370
              15
390
0
  6
Continuous
 62
               7
100
AcDbVertex
100
AcDb2dVertex
 10
-158.59213542191563
 20
439.51322055918234
 30
0.0
  0
VERTEX
  5
29A
100
AcDbEntity
  8
FAN70-0307
370
              15
390
0
  6
Continuous
 62
               7
100
AcDbVertex
100
AcDb2dVertex
 10
-164.8929573314156
 20
428.57112657561549
 30
0.0
  0
VERTEX
  5
29B
100
AcDbEntity
  8
FAN70-0307
370
              15
390
0
  6
Continuous
 62
               7
100
AcDbVertex
100
AcDb2dVertex
 10
-171.96377867011554
 20
417.69837341121945
 30
0.0
  0
VERTEX
  5
29C
100
AcDbEntity
  8
FAN70-0307
370
              15
390
0
  6
Continuous
 62
               7
100
AcDbVertex
100
AcDb2dVertex
 10
-179.60667327041554
 20
407.20823353305929
 30
0.0
  0
VERTEX
  5
29D
100
AcDbEntity
  8
FAN70-0307
370
              15
390
0
  6
Continuous
 62
               7
100
AcDbVertex
100
AcDb2dVertex
 10
-187.7751008982157
 20
397.13281076022804
 30
0.0
  0
VERTEX
  5
29E
100
AcDbEntity
  8
FAN70-0307
370
              15
390
0
  6
Continuous
 62
               7
100
AcDbVertex
100
AcDb2dVertex
 10
-198.54311050761569
 20
385.28912936945488
 30
0.0
  0
VERTEX
  5
29F
100
AcDbEntity
  8
FAN70-0307
370
              15
390
0
  6
Continuous
 62
               7
100
AcDbVertex
100
AcDb2dVertex
 10
-210.03744010361564
 20
374.09220639710963
 30
0.0
  0
VERTEX
  5
2A0
100
AcDbEntity
  8
FAN70-0307
370
              15
390
0
  6
Continuous
 62
               7
100
AcDbVertex
100
AcDb2dVertex
 10
-222.17916178101567
 20
363.5737892546386
 30
0.0
  0
VERTEX
  5
2A1
100
AcDbEntity
  8
FAN70-0307
370
              15
390
0
  6
Continuous
 62
               7
100
AcDbVertex
100
AcDb2dVertex
 10
-234.88934763511568
 20
353.7656253537881
 30
0.0
  0
VERTEX
  5
2A2
100
AcDbEntity
  8
FAN70-0307
370
              15
390
0
  6
Continuous
 62
               7
100
AcDbVertex
100
AcDb2dVertex
 10
-248.08906976091541
 20
344.69946210590439
 30
0.0
  0
VERTEX
  5
2A3
100
AcDbEntity
  8
FAN70-0307
370
              15
390
0
  6
Continuous
 62
               7
100
AcDbVertex
100
AcDb2dVertex
 10
-265.05283345451528
 20
334.48644680484404
 30
0.0
  0
VERTEX
  5
2A4
100
AcDbEntity
  8
FAN70-0307
370
              15
390
0
  6
Continuous
 62
               7
100
AcDbVertex
100
AcDb2dVertex
 10
-282.63104182761538
 20
325.37005686543665
 30
0.0
  0
VERTEX
  5
2A5
100
AcDbEntity
  8
FAN70-0307
370
              15
390
0
  6
Continuous
 62
               7
100
AcDbVertex
100
AcDb2dVertex
 10
-300.69223354721555
 20
317.37418125674037
 30
0.0
  0
SEQEND
  5
2A6
100
AcDbEntity
  8
FAN70-0307
370
              15
390
0
  6
Continuous
 62
               7
  0
CIRCLE
  5
2A7
100
AcDbEntity
  8
FAN70-0307
370
              15
390
0
  6
Continuous
 62
               7
100
AcDbCircle
 10
-432.20688305831538
 20
742.16003572312377
 30
0.0
 40
18.0
  0
POLYLINE
  5
2A8
100
AcDbEntity
  8
FAN70-0307
370
              15
390
0
  6
Continuous
 62
               7
100
AcDb2dPolyline
 66
               1
 10
0.0
 20
0.0
 30
0.0
 75
               5
  0
VERTEX
  5
2A9
100
AcDbEntity
  8
FAN70-0307
370
              15
390
0
  6
Continuous
 62
               7
100
AcDbVertex
100
AcDb2dVertex
 10
-432.20688305831538
 20
528.66003572312377
 30
0.0
  0
VERTEX
  5
2AA
100
AcDbEntity
  8
FAN70-0307
370
              15
390
0
  6
Continuous
 62
               7
100
AcDbVertex
100
AcDb2dVertex
 10
-436.93016820091555
 20
528.19066541782365
 30
0.0
  0
VERTEX
  5
2AB
100
AcDbEntity
  8
FAN70-0307
370
              15
390
0
  6
Continuous
 62
               7
100
AcDbVertex
100
AcDb2dVertex
 10
-441.46436820241536
 20
526.80273122722372
 30
0.0
  0
VERTEX
  5
2AC
100
AcDbEntity
  8
FAN70-0307
370
              15
390
0
  6
Continuous
 62
               7
100
AcDbVertex
100
AcDb2dVertex
 10
-445.62891100501531
 20
524.55599112412369
 30
0.0
  0
VERTEX
  5
2AD
100
AcDbEntity
  8
FAN70-0307
370
              15
390
0
  6
Continuous
 62
               7
100
AcDbVertex
100
AcDb2dVertex
 10
-449.25995728081546
 20
521.54766110152377
 30
0.0
  0
VERTEX
  5
2AE
100
AcDbEntity
  8
FAN70-0307
370
              15
390
0
  6
Continuous
 62
               7
100
AcDbVertex
100
AcDb2dVertex
 10
-452.2229543757154
 20
517.90227075542384
 30
0.0
  0
VERTEX
  5
2AF
100
AcDbEntity
  8
FAN70-0307
370
              15
390
0
  6
Continuous
 62
               7
100
AcDbVertex
100
AcDb2dVertex
 10
-454.41215851311551
 20
513.76638076782399
 30
0.0
  0
VERTEX
  5
2B0
100
AcDbEntity
  8
FAN70-0307
370
              15
390
0
  6
Continuous
 62
               7
100
AcDbVertex
100
AcDb2dVertex
 10
-455.75456153091557
 20
509.29755733572387
 30
0.0
  0
VERTEX
  5
2B1
100
AcDbEntity
  8
FAN70-0307
370
              15
390
0
  6
Continuous
 62
               7
100
AcDbVertex
100
AcDb2dVertex
 10
-456.20688305751548
 20
504.66025396392405
 30
0.0
  0
VERTEX
  5
2B2
100
AcDbEntity
  8
FAN70-0307
370
              15
390
0
  6
Continuous
 62
               7
100
AcDbVertex
100
AcDb2dVertex
 10
-455.75459488451554
 20
500.02274369812397
 30
0.0
  0
VERTEX
  5
2B3
100
AcDbEntity
  8
FAN70-0307
370
              15
390
0
  6
Continuous
 62
               7
100
AcDbVertex
100
AcDb2dVertex
 10
-454.41221004531542
 20
495.55381297512412
 30
0.0
  0
VERTEX
  5
2B4
100
AcDbEntity
  8
FAN70-0307
370
              15
390
0
  6
Continuous
 62
               7
100
AcDbVertex
100
AcDb2dVertex
 10
-452.22254976891543
 20
491.41719550042404
 30
0.0
  0
VERTEX
  5
2B5
100
AcDbEntity
  8
FAN70-0307
370
              15
390
0
  6
Continuous
 62
               7
100
AcDbVertex
100
AcDb2dVertex
 10
-449.26000018901539
 20
487.77244937942424
 30
0.0
  0
VERTEX
  5
2B6
100
AcDbEntity
  8
FAN70-0307
370
              15
390
0
  6
Continuous
 62
               7
100
AcDbVertex
100
AcDb2dVertex
 10
-445.62832304811548
 20
484.76368543012421
 30
0.0
  0
VERTEX
  5
2B7
100
AcDbEntity
  8
FAN70-0307
370
              15
390
0
  6
Continuous
 62
               7
100
AcDbVertex
100
AcDb2dVertex
 10
-441.46433436861537
 20
482.51732596682422
 30
0.0
  0
VERTEX
  5
2B8
100
AcDbEntity
  8
FAN70-0307
370
              15
390
0
  6
Continuous
 62
               7
100
AcDbVertex
100
AcDb2dVertex
 10
-436.93015289541552
 20
481.12940218352418
 30
0.0
  0
VERTEX
  5
2B9
100
AcDbEntity
  8
FAN70-0307
370
              15
390
0
  6
Continuous
 62
               7
100
AcDbVertex
100
AcDb2dVertex
 10
-432.20688305641545
 20
480.66003572312428
 30
0.0
  0
VERTEX
  5
2BA
100
AcDbEntity
  8
FAN70-0307
370
              15
390
0
  6
Continuous
 62
               7
100
AcDbVertex
100
AcDb2dVertex
 10
-427.48359791381552
 20
481.12940602882423
 30
0.0
  0
VERTEX
  5
2BB
100
AcDbEntity
  8
FAN70-0307
370
              15
390
0
  6
Continuous
 62
               7
100
AcDbVertex
100
AcDb2dVertex
 10
-422.94939791251556
 20
482.51734021972419
 30
0.0
  0
VERTEX
  5
2BC
100
AcDbEntity
  8
FAN70-0307
370
              15
390
0
  6
Continuous
 62
               7
100
AcDbVertex
100
AcDb2dVertex
 10
-418.78485511021552
 20
484.76408032312423
 30
0.0
  0
VERTEX
  5
2BD
100
AcDbEntity
  8
FAN70-0307
370
              15
390
0
  6
Continuous
 62
               7
100
AcDbVertex
100
AcDb2dVertex
 10
-415.15380883471551
 20
487.77241034572415
 30
0.0
  0
VERTEX
  5
2BE
100
AcDbEntity
  8
FAN70-0307
370
              15
390
0
  6
Continuous
 62
               7
100
AcDbVertex
100
AcDb2dVertex
 10
-412.19081174011546
 20
491.41780069202406
 30
0.0
  0
VERTEX
  5
2BF
100
AcDbEntity
  8
FAN70-0307
370
              15
390
0
  6
Continuous
 62
               7
100
AcDbVertex
100
AcDb2dVertex
 10
-410.00160760401548
 20
495.55369067692419
 30
0.0
  0
VERTEX
  5
2C0
100
AcDbEntity
  8
FAN70-0307
370
              15
390
0
  6
Continuous
 62
               7
100
AcDbVertex
100
AcDb2dVertex
 10
-408.65920458591552
 20
500.02251410902403
 30
0.0
  0
VERTEX
  5
2C1
100
AcDbEntity
  8
FAN70-0307
370
              15
390
0
  6
Continuous
 62
               7
100
AcDbVertex
100
AcDb2dVertex
 10
-408.20688305901547
 20
504.65981748062399
 30
0.0
  0
VERTEX
  5
2C2
100
AcDbEntity
  8
FAN70-0307
370
              15
390
0
  6
Continuous
 62
               7
100
AcDbVertex
100
AcDb2dVertex
 10
-408.65917123191559
 20
509.29732774652388
 30
0.0
  0
VERTEX
  5
2C3
100
AcDbEntity
  8
FAN70-0307
370
              15
390
0
  6
Continuous
 62
               7
100
AcDbVertex
100
AcDb2dVertex
 10
-410.00155607071531
 20
513.76625846942397
 30
0.0
  0
VERTEX
  5
2C4
100
AcDbEntity
  8
FAN70-0307
370
              15
390
0
  6
Continuous
 62
               7
100
AcDbVertex
100
AcDb2dVertex
 10
-412.19121634651549
 20
517.90287594422387
 30
0.0
  0
VERTEX
  5
2C5
100
AcDbEntity
  8
FAN70-0307
370
              15
390
0
  6
Continuous
 62
               7
100
AcDbVertex
100
AcDb2dVertex
 10
-415.15376592621544
 20
521.54762206542387
 30
0.0
  0
VERTEX
  5
2C6
100
AcDbEntity
  8
FAN70-0307
370
              15
390
0
  6
Continuous
 62
               7
100
AcDbVertex
100
AcDb2dVertex
 10
-418.7854430667154
 20
524.55638601512373
 30
0.0
  0
VERTEX
  5
2C7
100
AcDbEntity
  8
FAN70-0307
370
              15
390
0
  6
Continuous
 62
               7
100
AcDbVertex
100
AcDb2dVertex
 10
-422.94943174621551
 20
526.80274547862371
 30
0.0
  0
VERTEX
  5
2C8
100
AcDbEntity
  8
FAN70-0307
370
              15
390
0
  6
Continuous
 62
               7
100
AcDbVertex
100
AcDb2dVertex
 10
-427.48361321931554
 20
528.19066926232369
 30
0.0
  0
VERTEX
  5
2C9
100
AcDbEntity
  8
FAN70-0307
370
              15
390
0
  6
Continuous
 62
               7
100
AcDbVertex
100
AcDb2dVertex
 10
-432.20688305831538
 20
528.66003572312377
 30
0.0
  0
SEQEND
  5
2CA
100
AcDbEntity
  8
FAN70-0307
370
              15
390
0
  6
Continuous
 62
               7
  0
ARC
  5
2CB
100
AcDbEntity
  8
FAN70-0307
370
              15
390
0
  6
Continuous
 62
               7
100
AcDbCircle
 10
684.81077991355744
 20
-434.91403945269144
 30
0.0
 40
0.7500000000000181
100
AcDbArc
 50
269.9999439235973
 51
270.00613270389778
  0
ARC
  5
2CC
100
AcDbEntity
  8
FAN70-0307
370
              15
390
0
  6
Continuous
 62
               7
100
AcDbCircle
 10
186.5607955347576
 20
-434.91403945269144
 30
0.0
 40
0.7500000000000083
100
AcDbArc
 50
269.98110812110292
 51
270.00040583569739
  0
ARC
  5
2CD
100
AcDbEntity
  8
FAN70-0307
370
              15
390
0
  6
Continuous
 62
               7
100
AcDbCircle
 10
186.30935202785767
 20
-434.91403945269144
 30
0.0
 40
0.7499999999999981
100
AcDbArc
 50
180.30753566870158
 51
269.9955720161974
  0
ARC
  5
2CE
100
AcDbEntity
  8
FAN70-0307
370
              15
390
0
  6
Continuous
 62
               7
100
AcDbCircle
 10
685.06221985485752
 20
-434.91403945269144
 30
0.0
 40
0.7499999999999435
100
AcDbArc
 50
270.00998976299923
 51
359.48252305509595
  0
POLYLINE
  5
2CF
100
AcDbEntity
  8
FAN70-0307
370
              15
390
0
  6
Continuous
 62
               7
100
AcDb2dPolyline
 66
               1
 10
0.0
 20
0.0
 30
0.0
 75
               5
  0
VERTEX
  5
2D0
100
AcDbEntity
  8
FAN70-0307
370
              15
390
0
  6
Continuous
 62
               7
100
AcDbVertex
100
AcDb2dVertex
 10
185.62546336525756
 20
-431.12625117099151
 30
0.0
  0
VERTEX
  5
2D1
100
AcDbEntity
  8
FAN70-0307
370
              15
390
0
  6
Continuous
 62
               7
100
AcDbVertex
100
AcDb2dVertex
 10
185.69859896385762
 20
-430.45129929329153
 30
0.0
  0
VERTEX
  5
2D2
100
AcDbEntity
  8
FAN70-0307
370
              15
390
0
  6
Continuous
 62
               7
100
AcDbVertex
100
AcDb2dVertex
 10
185.90066337645769
 20
-429.80316441559148
 30
0.0
  0
VERTEX
  5
2D3
100
AcDbEntity
  8
FAN70-0307
370
              15
390
0
  6
Continuous
 62
               7
100
AcDbVertex
100
AcDb2dVertex
 10
186.22405388665763
 20
-429.20623275039134
 30
0.0
  0
VERTEX
  5
2D4
100
AcDbEntity
  8
FAN70-0307
370
              15
390
0
  6
Continuous
 62
               7
100
AcDbVertex
100
AcDb2dVertex
 10
186.65660285765759
 20
-428.68296397859149
 30
0.0
  0
VERTEX
  5
2D5
100
AcDbEntity
  8
FAN70-0307
370
              15
390
0
  6
Continuous
 62
               7
100
AcDbVertex
100
AcDb2dVertex
 10
187.1820355425576
 20
-428.25304619889141
 30
0.0
  0
VERTEX
  5
2D6
100
AcDbEntity
  8
FAN70-0307
370
              15
390
0
  6
Continuous
 62
               7
100
AcDbVertex
100
AcDb2dVertex
 10
187.7805824249576
 20
-427.93265515919143
 30
0.0
  0
VERTEX
  5
2D7
100
AcDbEntity
  8
FAN70-0307
370
              15
390
0
  6
Continuous
 62
               7
100
AcDbVertex
100
AcDb2dVertex
 10
188.42972305105761
 20
-427.73384564039134
 30
0.0
  0
VERTEX
  5
2D8
100
AcDbEntity
  8
FAN70-0307
370
              15
390
0
  6
Continuous
 62
               7
100
AcDbVertex
100
AcDb2dVertex
 10
189.1050333669576
 20
-427.66409789289139
 30
0.0
  0
SEQEND
  5
2D9
100
AcDbEntity
  8
FAN70-0307
370
              15
390
0
  6
Continuous
 62
               7
  0
POLYLINE
  5
2DA
100
AcDbEntity
  8
FAN70-0307
370
              15
390
0
  6
Continuous
 62
               7
100
AcDb2dPolyline
 66
               1
 10
0.0
 20
0.0
 30
0.0
 75
               5
  0
VERTEX
  5
2DB
100
AcDbEntity
  8
FAN70-0307
370
              15
390
0
  6
Continuous
 62
               7
100
AcDbVertex
100
AcDb2dVertex
 10
685.74616794895735
 20
-431.1294732028914
 30
0.0
  0
VERTEX
  5
2DC
100
AcDbEntity
  8
FAN70-0307
370
              15
390
0
  6
Continuous
 62
               7
100
AcDbVertex
100
AcDb2dVertex
 10
685.67309022655729
 20
-430.45173783719144
 30
0.0
  0
VERTEX
  5
2DD
100
AcDbEntity
  8
FAN70-0307
370
              15
390
0
  6
Continuous
 62
               7
100
AcDbVertex
100
AcDb2dVertex
 10
685.47002936325737
 20
-429.80102141379155
 30
0.0
  0
VERTEX
  5
2DE
100
AcDbEntity
  8
FAN70-0307
370
              15
390
0
  6
Continuous
 62
               7
100
AcDbVertex
100
AcDb2dVertex
 10
685.14468784015742
 20
-429.2020068326915
 30
0.0
  0
VERTEX
  5
2DF
100
AcDbEntity
  8
FAN70-0307
370
              15
390
0
  6
Continuous
 62
               7
100
AcDbVertex
100
AcDb2dVertex
 10
684.70940647415739
 20
-428.67741584529142
 30
0.0
  0
VERTEX
  5
2E0
100
AcDbEntity
  8
FAN70-0307
370
              15
390
0
  6
Continuous
 62
               7
100
AcDbVertex
100
AcDb2dVertex
 10
684.18069630755747
 20
-428.24714717629149
 30
0.0
  0
VERTEX
  5
2E1
100
AcDbEntity
  8
FAN70-0307
370
              15
390
0
  6
Continuous
 62
               7
100
AcDbVertex
100
AcDb2dVertex
 10
683.57861231305753
 20
-427.92752172699147
 30
0.0
  0
VERTEX
  5
2E2
100
AcDbEntity
  8
FAN70-0307
370
              15
390
0
  6
Continuous
 62
               7
100
AcDbVertex
100
AcDb2dVertex
 10
682.9259926709575
 20
-427.73066349269152
 30
0.0
  0
VERTEX
  5
2E3
100
AcDbEntity
  8
FAN70-0307
370
              15
390
0
  6
Continuous
 62
               7
100
AcDbVertex
100
AcDb2dVertex
 10
682.24759247395752
 20
-427.66403967719145
 30
0.0
  0
SEQEND
  5
2E4
100
AcDbEntity
  8
FAN70-0307
370
              15
390
0
  6
Continuous
 62
               7
  0
LINE
  5
2E5
100
AcDbEntity
  8
FAN70-0307
370
              15
390
0
  6
Continuous
 62
               7
100
AcDbLine
 10
685.81250519765729
 20
-434.92374422109151
 30
0.0
 11
685.74541519965726
 21
-431.08016081159144
 31
0.0
  0
LINE
  5
2E6
100
AcDbEntity
  8
FAN70-0307
370
              15
390
0
  6
Continuous
 62
               7
100
AcDbLine
 10
185.62615795945757
 20
-431.08016081159144
 30
0.0
 11
185.55906796145766
 21
-434.92374422109151
 31
0.0
  0
POLYLINE
  5
2E7
100
AcDbEntity
  8
FAN70-0307
370
              15
390
0
  6
Continuous
 62
               7
100
AcDb2dPolyline
 66
               1
 10
0.0
 20
0.0
 30
0.0
 75
               5
  0
VERTEX
  5
2E8
100
AcDbEntity
  8
FAN70-0307
370
              15
390
0
  6
Continuous
 62
               7
100
AcDbVertex
100
AcDb2dVertex
 10
433.41226963895781
 20
-567.67533403649236
 30
0.0
  0
VERTEX
  5
2E9
100
AcDbEntity
  8
FAN70-0307
370
              15
390
0
  6
Continuous
 62
               7
100
AcDbVertex
100
AcDb2dVertex
 10
434.54759489915784
 20
-568.1439091947924
 30
0.0
  0
VERTEX
  5
2EA
100
AcDbEntity
  8
FAN70-0307
370
              15
390
0
  6
Continuous
 62
               7
100
AcDbVertex
100
AcDb2dVertex
 10
435.60345180575769
 20
-568.68253936259237
 30
0.0
  0
VERTEX
  5
2EB
100
AcDbEntity
  8
FAN70-0307
370
              15
390
0
  6
Continuous
 62
               7
100
AcDbVertex
100
AcDb2dVertex
 10
436.5745630802578
 20
-569.27687017089238
 30
0.0
  0
VERTEX
  5
2EC
100
AcDbEntity
  8
FAN70-0307
370
              15
390
0
  6
Continuous
 62
               7
100
AcDbVertex
100
AcDb2dVertex
 10
437.56945563215766
 20
-569.9963591991924
 30
0.0
  0
VERTEX
  5
2ED
100
AcDbEntity
  8
FAN70-0307
370
              15
390
0
  6
Continuous
 62
               7
100
AcDbVertex
100
AcDb2dVertex
 10
439.25558762905769
 20
-571.28084756499231
 30
0.0
  0
VERTEX
  5
2EE
100
AcDbEntity
  8
FAN70-0307
370
              15
390
0
  6
Continuous
 62
               7
100
AcDbVertex
100
AcDb2dVertex
 10
440.86870834055787
 20
-572.50971623619239
 30
0.0
  0
VERTEX
  5
2EF
100
AcDbEntity
  8
FAN70-0307
370
              15
390
0
  6
Continuous
 62
               7
100
AcDbVertex
100
AcDb2dVertex
 10
442.40680018175772
 20
-573.68142822499237
 30
0.0
  0
VERTEX
  5
2F0
100
AcDbEntity
  8
FAN70-0307
370
              15
390
0
  6
Continuous
 62
               7
100
AcDbVertex
100
AcDb2dVertex
 10
443.86986315265779
 20
-574.79598353149254
 30
0.0
  0
VERTEX
  5
2F1
100
AcDbEntity
  8
FAN70-0307
370
              15
390
0
  6
Continuous
 62
               7
100
AcDbVertex
100
AcDb2dVertex
 10
444.93121970355764
 20
-575.57737932529244
 30
0.0
  0
VERTEX
  5
2F2
100
AcDbEntity
  8
FAN70-0307
370
              15
390
0
  6
Continuous
 62
               7
100
AcDbVertex
100
AcDb2dVertex
 10
446.14965843635787
 20
-576.17043999369253
 30
0.0
  0
VERTEX
  5
2F3
100
AcDbEntity
  8
FAN70-0307
370
              15
390
0
  6
Continuous
 62
               7
100
AcDbVertex
100
AcDb2dVertex
 10
447.36797194445785
 20
-576.46242086399252
 30
0.0
  0
SEQEND
  5
2F4
100
AcDbEntity
  8
FAN70-0307
370
              15
390
0
  6
Continuous
 62
               7
  0
POLYLINE
  5
2F5
100
AcDbEntity
  8
FAN70-0307
370
              15
390
0
  6
Continuous
 62
               7
100
AcDb2dPolyline
 66
               1
 10
0.0
 20
0.0
 30
0.0
 75
               5
  0
VERTEX
  5
2F6
100
AcDbEntity
  8
FAN70-0307
370
              15
390
0
  6
Continuous
 62
               7
100
AcDbVertex
100
AcDb2dVertex
 10
447.36794835205774
 20
-576.46241776429247
 30
0.0
  0
VERTEX
  5
2F7
100
AcDbEntity
  8
FAN70-0307
370
              15
390
0
  6
Continuous
 62
               7
100
AcDbVertex
100
AcDb2dVertex
 10
447.92294450945781
 20
-576.47265074089239
 30
0.0
  0
VERTEX
  5
2F8
100
AcDbEntity
  8
FAN70-0307
370
              15
390
0
  6
Continuous
 62
               7
100
AcDbVertex
100
AcDb2dVertex
 10
449.28173846685775
 20
-576.50085859619253
 30
0.0
  0
VERTEX
  5
2F9
100
AcDbEntity
  8
FAN70-0307
370
              15
390
0
  6
Continuous
 62
               7
100
AcDbVertex
100
AcDb2dVertex
 10
451.11127094365781
 20
-576.54503425509245
 30
0.0
  0
VERTEX
  5
2FA
100
AcDbEntity
  8
FAN70-0307
370
              15
390
0
  6
Continuous
 62
               7
100
AcDbVertex
100
AcDb2dVertex
 10
453.13385308315776
 20
-576.59713658729254
 30
0.0
  0
VERTEX
  5
2FB
100
AcDbEntity
  8
FAN70-0307
370
              15
390
0
  6
Continuous
 62
               7
100
AcDbVertex
100
AcDb2dVertex
 10
455.1272500349578
 20
-576.64929605479256
 30
0.0
  0
VERTEX
  5
2FC
100
AcDbEntity
  8
FAN70-0307
370
              15
390
0
  6
Continuous
 62
               7
100
AcDbVertex
100
AcDb2dVertex
 10
456.92221818995779
 20
-576.69554499499247
 30
0.0
  0
VERTEX
  5
2FD
100
AcDbEntity
  8
FAN70-0307
370
              15
390
0
  6
Continuous
 62
               7
100
AcDbVertex
100
AcDb2dVertex
 10
458.3961457594578
 20
-576.73225827959243
 30
0.0
  0
VERTEX
  5
2FE
100
AcDbEntity
  8
FAN70-0307
370
              15
390
0
  6
Continuous
 62
               7
100
AcDbVertex
100
AcDb2dVertex
 10
459.46673322535776
 20
-576.7581150335925
 30
0.0
  0
VERTEX
  5
2FF
100
AcDbEntity
  8
FAN70-0307
370
              15
390
0
  6
Continuous
 62
               7
100
AcDbVertex
100
AcDb2dVertex
 10
460.57066902515771
 20
-576.78396604739248
 30
0.0
  0
VERTEX
  5
300
100
AcDbEntity
  8
FAN70-0307
370
              15
390
0
  6
Continuous
 62
               7
100
AcDbVertex
100
AcDb2dVertex
 10
462.06228101465774
 20
-576.81735805799246
 30
0.0
  0
VERTEX
  5
301
100
AcDbEntity
  8
FAN70-0307
370
              15
390
0
  6
Continuous
 62
               7
100
AcDbVertex
100
AcDb2dVertex
 10
464.00115110685772
 20
-576.85729992619247
 30
0.0
  0
VERTEX
  5
302
100
AcDbEntity
  8
FAN70-0307
370
              15
390
0
  6
Continuous
 62
               7
100
AcDbVertex
100
AcDb2dVertex
 10
466.41624317375772
 20
-576.90009800279245
 30
0.0
  0
VERTEX
  5
303
100
AcDbEntity
  8
FAN70-0307
370
              15
390
0
  6
Continuous
 62
               7
100
AcDbVertex
100
AcDb2dVertex
 10
469.32424469795774
 20
-576.93868262629246
 30
0.0
  0
VERTEX
  5
304
100
AcDbEntity
  8
FAN70-0307
370
              15
390
0
  6
Continuous
 62
               7
100
AcDbVertex
100
AcDb2dVertex
 10
472.40010689735777
 20
-576.95913049379249
 30
0.0
  0
VERTEX
  5
305
100
AcDbEntity
  8
FAN70-0307
370
              15
390
0
  6
Continuous
 62
               7
100
AcDbVertex
100
AcDb2dVertex
 10
476.39864466555787
 20
-576.94616467999242
 30
0.0
  0
VERTEX
  5
306
100
AcDbEntity
  8
FAN70-0307
370
              15
390
0
  6
Continuous
 62
               7
100
AcDbVertex
100
AcDb2dVertex
 10
479.57718404625768
 20
-576.90785082159255
 30
0.0
  0
VERTEX
  5
307
100
AcDbEntity
  8
FAN70-0307
370
              15
390
0
  6
Continuous
 62
               7
100
AcDbVertex
100
AcDb2dVertex
 10
481.23513673875777
 20
-576.88051398989251
 30
0.0
  0
VERTEX
  5
308
100
AcDbEntity
  8
FAN70-0307
370
              15
390
0
  6
Continuous
 62
               7
100
AcDbVertex
100
AcDb2dVertex
 10
482.66173947375773
 20
-576.85370722789253
 30
0.0
  0
VERTEX
  5
309
100
AcDbEntity
  8
FAN70-0307
370
              15
390
0
  6
Continuous
 62
               7
100
AcDbVertex
100
AcDb2dVertex
 10
484.61973844965769
 20
-576.81292345209249
 30
0.0
  0
VERTEX
  5
30A
100
AcDbEntity
  8
FAN70-0307
370
              15
390
0
  6
Continuous
 62
               7
100
AcDbVertex
100
AcDb2dVertex
 10
486.47144537285783
 20
-576.77057035349242
 30
0.0
  0
VERTEX
  5
30B
100
AcDbEntity
  8
FAN70-0307
370
              15
390
0
  6
Continuous
 62
               7
100
AcDbVertex
100
AcDb2dVertex
 10
488.58210586005782
 20
-576.71870266769247
 30
0.0
  0
VERTEX
  5
30C
100
AcDbEntity
  8
FAN70-0307
370
              15
390
0
  6
Continuous
 62
               7
100
AcDbVertex
100
AcDb2dVertex
 10
490.85919435075766
 20
-576.65987808329248
 30
0.0
  0
VERTEX
  5
30D
100
AcDbEntity
  8
FAN70-0307
370
              15
390
0
  6
Continuous
 62
               7
100
AcDbVertex
100
AcDb2dVertex
 10
493.17864199205781
 20
-576.59863049909256
 30
0.0
  0
VERTEX
  5
30E
100
AcDbEntity
  8
FAN70-0307
370
              15
390
0
  6
Continuous
 62
               7
100
AcDbVertex
100
AcDb2dVertex
 10
495.37786034415785
 20
-576.54146128749244
 30
0.0
  0
VERTEX
  5
30F
100
AcDbEntity
  8
FAN70-0307
370
              15
390
0
  6
Continuous
 62
               7
100
AcDbVertex
100
AcDb2dVertex
 10
497.25992607195781
 20
-576.49654050679248
 30
0.0
  0
VERTEX
  5
310
100
AcDbEntity
  8
FAN70-0307
370
              15
390
0
  6
Continuous
 62
               7
100
AcDbVertex
100
AcDb2dVertex
 10
498.59202111545767
 20
-576.47018596949249
 30
0.0
  0
VERTEX
  5
311
100
AcDbEntity
  8
FAN70-0307
370
              15
390
0
  6
Continuous
 62
               7
100
AcDbVertex
100
AcDb2dVertex
 10
499.10744071495787
 20
-576.46242237749243
 30
0.0
  0
SEQEND
  5
312
100
AcDbEntity
  8
FAN70-0307
370
              15
390
0
  6
Continuous
 62
               7
  0
POLYLINE
  5
313
100
AcDbEntity
  8
FAN70-0307
370
              15
390
0
  6
Continuous
 62
               7
100
AcDb2dPolyline
 66
               1
 10
0.0
 20
0.0
 30
0.0
 75
               5
  0
VERTEX
  5
314
100
AcDbEntity
  8
FAN70-0307
370
              15
390
0
  6
Continuous
 62
               7
100
AcDbVertex
100
AcDb2dVertex
 10
447.36799081155777
 20
-576.46242334269243
 30
0.0
  0
VERTEX
  5
315
100
AcDbEntity
  8
FAN70-0307
370
              15
390
0
  6
Continuous
 62
               7
100
AcDbVertex
100
AcDb2dVertex
 10
447.92297766785782
 20
-576.47265332299253
 30
0.0
  0
VERTEX
  5
316
100
AcDbEntity
  8
FAN70-0307
370
              15
390
0
  6
Continuous
 62
               7
100
AcDbVertex
100
AcDb2dVertex
 10
449.28174894155768
 20
-576.50086327539248
 30
0.0
  0
VERTEX
  5
317
100
AcDbEntity
  8
FAN70-0307
370
              15
390
0
  6
Continuous
 62
               7
100
AcDbVertex
100
AcDb2dVertex
 10
449.42714533995786
 20
-576.50436957209251
 30
0.0
  0
SEQEND
  5
318
100
AcDbEntity
  8
FAN70-0307
370
              15
390
0
  6
Continuous
 62
               7
  0
LINE
  5
319
100
AcDbEntity
  8
FAN70-0307
370
              15
390
0
  6
Continuous
 62
               7
100
AcDbLine
 10
498.63638039925775
 20
-576.46951780049255
 30
0.0
 11
499.10747582755778
 21
-576.46241776439251
 31
0.0
  0
POLYLINE
  5
31A
100
AcDbEntity
  8
FAN70-0307
370
              15
390
0
  6
Continuous
 62
               7
100
AcDb2dPolyline
 66
               1
 10
0.0
 20
0.0
 30
0.0
 75
               5
  0
VERTEX
  5
31B
100
AcDbEntity
  8
FAN70-0307
370
              15
390
0
  6
Continuous
 62
               7
100
AcDbVertex
100
AcDb2dVertex
 10
499.10745223515778
 20
-576.46242086409256
 30
0.0
  0
VERTEX
  5
31C
100
AcDbEntity
  8
FAN70-0307
370
              15
390
0
  6
Continuous
 62
               7
100
AcDbVertex
100
AcDb2dVertex
 10
500.32576574335781
 20
-576.17043999369253
 30
0.0
  0
VERTEX
  5
31D
100
AcDbEntity
  8
FAN70-0307
370
              15
390
0
  6
Continuous
 62
               7
100
AcDbVertex
100
AcDb2dVertex
 10
501.24606089735778
 20
-575.75497298709251
 30
0.0
  0
VERTEX
  5
31E
100
AcDbEntity
  8
FAN70-0307
370
              15
390
0
  6
Continuous
 62
               7
100
AcDbVertex
100
AcDb2dVertex
 10
502.25151854545777
 20
-575.06569162649248
 30
0.0
  0
VERTEX
  5
31F
100
AcDbEntity
  8
FAN70-0307
370
              15
390
0
  6
Continuous
 62
               7
100
AcDbVertex
100
AcDb2dVertex
 10
503.88163798535777
 20
-573.82387339439242
 30
0.0
  0
VERTEX
  5
320
100
AcDbEntity
  8
FAN70-0307
370
              15
390
0
  6
Continuous
 62
               7
100
AcDbVertex
100
AcDb2dVertex
 10
505.60671583925773
 20
-572.50971623619239
 30
0.0
  0
VERTEX
  5
321
100
AcDbEntity
  8
FAN70-0307
370
              15
390
0
  6
Continuous
 62
               7
100
AcDbVertex
100
AcDb2dVertex
 10
508.05453273285775
 20
-570.64497947339237
 30
0.0
  0
VERTEX
  5
322
100
AcDbEntity
  8
FAN70-0307
370
              15
390
0
  6
Continuous
 62
               7
100
AcDbVertex
100
AcDb2dVertex
 10
509.9008610995578
 20
-569.27687017079234
 30
0.0
  0
VERTEX
  5
323
100
AcDbEntity
  8
FAN70-0307
370
              15
390
0
  6
Continuous
 62
               7
100
AcDbVertex
100
AcDb2dVertex
 10
511.38956605785779
 20
-568.40534905859238
 30
0.0
  0
VERTEX
  5
324
100
AcDbEntity
  8
FAN70-0307
370
              15
390
0
  6
Continuous
 62
               7
100
AcDbVertex
100
AcDb2dVertex
 10
513.06315454065771
 20
-567.67533403649236
 30
0.0
  0
SEQEND
  5
325
100
AcDbEntity
  8
FAN70-0307
370
              15
390
0
  6
Continuous
 62
               7
  0
POLYLINE
  5
326
100
AcDbEntity
  8
FAN70-0307
370
              15
390
0
  6
Continuous
 62
               7
100
AcDb2dPolyline
 66
               1
 10
0.0
 20
0.0
 30
0.0
 75
               5
  0
VERTEX
  5
327
100
AcDbEntity
  8
FAN70-0307
370
              15
390
0
  6
Continuous
 62
               7
100
AcDbVertex
100
AcDb2dVertex
 10
288.97211258055779
 20
-442.60540111909154
 30
0.0
  0
VERTEX
  5
328
100
AcDbEntity
  8
FAN70-0307
370
              15
390
0
  6
Continuous
 62
               7
100
AcDbVertex
100
AcDb2dVertex
 10
289.04410247825774
 20
-443.08716775159144
 30
0.0
  0
VERTEX
  5
329
100
AcDbEntity
  8
FAN70-0307
370
              15
390
0
  6
Continuous
 62
               7
100
AcDbVertex
100
AcDb2dVertex
 10
288.96529120635785
 20
-443.57626545669143
 30
0.0
  0
VERTEX
  5
32A
100
AcDbEntity
  8
FAN70-0307
370
              15
390
0
  6
Continuous
 62
               7
100
AcDbVertex
100
AcDb2dVertex
 10
288.87206642295769
 20
-443.80202774829149
 30
0.0
  0
VERTEX
  5
32B
100
AcDbEntity
  8
FAN70-0307
370
              15
390
0
  6
Continuous
 62
               7
100
AcDbVertex
100
AcDb2dVertex
 10
288.84126529725779
 20
-443.85980905249141
 30
0.0
  0
VERTEX
  5
32C
100
AcDbEntity
  8
FAN70-0307
370
              15
390
0
  6
Continuous
 62
               7
100
AcDbVertex
100
AcDb2dVertex
 10
288.56653402475774
 20
-444.40613759499149
 30
0.0
  0
VERTEX
  5
32D
100
AcDbEntity
  8
FAN70-0307
370
              15
390
0
  6
Continuous
 62
               7
100
AcDbVertex
100
AcDb2dVertex
 10
288.16245967685768
 20
-446.28391432519152
 30
0.0
  0
SEQEND
  5
32E
100
AcDbEntity
  8
FAN70-0307
370
              15
390
0
  6
Continuous
 62
               7
  0
POLYLINE
  5
32F
100
AcDbEntity
  8
FAN70-0307
370
              15
390
0
  6
Continuous
 62
               7
100
AcDb2dPolyline
 66
               1
 10
0.0
 20
0.0
 30
0.0
 75
               5
  0
VERTEX
  5
330
100
AcDbEntity
  8
FAN70-0307
370
              15
390
0
  6
Continuous
 62
               7
100
AcDbVertex
100
AcDb2dVertex
 10
288.16244988125777
 20
-446.28444089249149
 30
0.0
  0
VERTEX
  5
331
100
AcDbEntity
  8
FAN70-0307
370
              15
390
0
  6
Continuous
 62
               7
100
AcDbVertex
100
AcDb2dVertex
 10
288.41518309165781
 20
-447.10246190559144
 30
0.0
  0
VERTEX
  5
332
100
AcDbEntity
  8
FAN70-0307
370
              15
390
0
  6
Continuous
 62
               7
100
AcDbVertex
100
AcDb2dVertex
 10
289.06991318305779
 20
-448.69228852139145
 30
0.0
  0
VERTEX
  5
333
100
AcDbEntity
  8
FAN70-0307
370
              15
390
0
  6
Continuous
 62
               7
100
AcDbVertex
100
AcDb2dVertex
 10
289.96452264815775
 20
-450.71695662099148
 30
0.0
  0
VERTEX
  5
334
100
AcDbEntity
  8
FAN70-0307
370
              15
390
0
  6
Continuous
 62
               7
100
AcDbVertex
100
AcDb2dVertex
 10
290.96424746055777
 20
-452.9032994099914
 30
0.0
  0
VERTEX
  5
335
100
AcDbEntity
  8
FAN70-0307
370
              15
390
0
  6
Continuous
 62
               7
100
AcDbVertex
100
AcDb2dVertex
 10
291.96656508535773
 20
-455.04828007809147
 30
0.0
  0
VERTEX
  5
336
100
AcDbEntity
  8
FAN70-0307
370
              15
390
0
  6
Continuous
 62
               7
100
AcDbVertex
100
AcDb2dVertex
 10
292.89945775335775
 20
-457.01378048349147
 30
0.0
  0
VERTEX
  5
337
100
AcDbEntity
  8
FAN70-0307
370
              15
390
0
  6
Continuous
 62
               7
100
AcDbVertex
100
AcDb2dVertex
 10
293.71703894735776
 20
-458.71366382519147
 30
0.0
  0
VERTEX
  5
338
100
AcDbEntity
  8
FAN70-0307
370
              15
390
0
  6
Continuous
 62
               7
100
AcDbVertex
100
AcDb2dVertex
 10
294.47919166755776
 20
-460.27718058359142
 30
0.0
  0
VERTEX
  5
339
100
AcDbEntity
  8
FAN70-0307
370
              15
390
0
  6
Continuous
 62
               7
100
AcDbVertex
100
AcDb2dVertex
 10
295.43025557585781
 20
-462.20931369059144
 30
0.0
  0
VERTEX
  5
33A
100
AcDbEntity
  8
FAN70-0307
370
              15
390
0
  6
Continuous
 62
               7
100
AcDbVertex
100
AcDb2dVertex
 10
296.58434578055778
 20
-464.53403239259137
 30
0.0
  0
VERTEX
  5
33B
100
AcDbEntity
  8
FAN70-0307
370
              15
390
0
  6
Continuous
 62
               7
100
AcDbVertex
100
AcDb2dVertex
 10
297.9203540734577
 20
-467.20054715269146
 30
0.0
  0
VERTEX
  5
33C
100
AcDbEntity
  8
FAN70-0307
370
              15
390
0
  6
Continuous
 62
               7
100
AcDbVertex
100
AcDb2dVertex
 10
299.38629970625777
 20
-470.09541842849148
 30
0.0
  0
VERTEX
  5
33D
100
AcDbEntity
  8
FAN70-0307
370
              15
390
0
  6
Continuous
 62
               7
100
AcDbVertex
100
AcDb2dVertex
 10
300.88860188285776
 20
-473.02168389399139
 30
0.0
  0
VERTEX
  5
33E
100
AcDbEntity
  8
FAN70-0307
370
              15
390
0
  6
Continuous
 62
               7
100
AcDbVertex
100
AcDb2dVertex
 10
302.28378907025785
 20
-475.68418533399142
 30
0.0
  0
VERTEX
  5
33F
100
AcDbEntity
  8
FAN70-0307
370
              15
390
0
  6
Continuous
 62
               7
100
AcDbVertex
100
AcDb2dVertex
 10
302.88212859685768
 20
-476.79695704399137
 30
0.0
  0
VERTEX
  5
340
100
AcDbEntity
  8
FAN70-0307
370
              15
390
0
  6
Continuous
 62
               7
100
AcDbVertex
100
AcDb2dVertex
 10
303.37706769955776
 20
-477.68898554479142
 30
0.0
  0
VERTEX
  5
341
100
AcDbEntity
  8
FAN70-0307
370
              15
390
0
  6
Continuous
 62
               7
100
AcDbVertex
100
AcDb2dVertex
 10
303.73853826525783
 20
-478.30074423739154
 30
0.0
  0
VERTEX
  5
342
100
AcDbEntity
  8
FAN70-0307
370
              15
390
0
  6
Continuous
 62
               7
100
AcDbVertex
100
AcDb2dVertex
 10
303.93594919025782
 20
-478.57104105459155
 30
0.0
  0
SEQEND
  5
343
100
AcDbEntity
  8
FAN70-0307
370
              15
390
0
  6
Continuous
 62
               7
  0
POLYLINE
  5
344
100
AcDbEntity
  8
FAN70-0307
370
              15
390
0
  6
Continuous
 62
               7
100
AcDb2dPolyline
 66
               1
 10
0.0
 20
0.0
 30
0.0
 75
               5
  0
VERTEX
  5
345
100
AcDbEntity
  8
FAN70-0307
370
              15
390
0
  6
Continuous
 62
               7
100
AcDbVertex
100
AcDb2dVertex
 10
303.93552475925776
 20
-478.57071908539137
 30
0.0
  0
VERTEX
  5
346
100
AcDbEntity
  8
FAN70-0307
370
              15
390
0
  6
Continuous
 62
               7
100
AcDbVertex
100
AcDb2dVertex
 10
305.65736729755781
 20
-479.4153981577914
 30
0.0
  0
VERTEX
  5
347
100
AcDbEntity
  8
FAN70-0307
370
              15
390
0
  6
Continuous
 62
               7
100
AcDbVertex
100
AcDb2dVertex
 10
306.10838508505776
 20
-479.51487658789142
 30
0.0
  0
VERTEX
  5
348
100
AcDbEntity
  8
FAN70-0307
370
              15
390
0
  6
Continuous
 62
               7
100
AcDbVertex
100
AcDb2dVertex
 10
306.2552916995578
 20
-479.53815186629151
 30
0.0
  0
VERTEX
  5
349
100
AcDbEntity
  8
FAN70-0307
370
              15
390
0
  6
Continuous
 62
               7
100
AcDbVertex
100
AcDb2dVertex
 10
306.55168247835786
 20
-479.61540260129152
 30
0.0
  0
VERTEX
  5
34A
100
AcDbEntity
  8
FAN70-0307
370
              15
390
0
  6
Continuous
 62
               7
100
AcDbVertex
100
AcDb2dVertex
 10
306.98056767485775
 20
-479.8524024766914
 30
0.0
  0
VERTEX
  5
34B
100
AcDbEntity
  8
FAN70-0307
370
              15
390
0
  6
Continuous
 62
               7
100
AcDbVertex
100
AcDb2dVertex
 10
307.31303471165779
 20
-480.20136521159145
 30
0.0
  0
SEQEND
  5
34C
100
AcDbEntity
  8
FAN70-0307
370
              15
390
0
  6
Continuous
 62
               7
  0
LINE
  5
34D
100
AcDbEntity
  8
FAN70-0307
370
              15
390
0
  6
Continuous
 62
               7
100
AcDbLine
 10
215.04699143765762
 20
-448.16403945269144
 30
0.0
 11
215.39428779305771
 21
-446.16403945269144
 31
0.0
  0
LINE
  5
34E
100
AcDbEntity
  8
FAN70-0307
370
              15
390
0
  6
Continuous
 62
               7
100
AcDbLine
 10
210.53213881835765
 20
-448.16403945269144
 30
0.0
 11
215.04699143765762
 21
-448.16403945269144
 31
0.0
  0
LINE
  5
34F
100
AcDbEntity
  8
FAN70-0307
370
              15
390
0
  6
Continuous
 62
               7
100
AcDbLine
 10
210.18484246305772
 20
-446.16403945269144
 30
0.0
 11
210.53213881835765
 21
-448.16403945269144
 31
0.0
  0
LINE
  5
350
100
AcDbEntity
  8
FAN70-0307
370
              15
390
0
  6
Continuous
 62
               7
100
AcDbLine
 10
210.18484246305772
 20
-435.66403945269144
 30
0.0
 11
210.18484246305772
 21
-446.16403945269144
 31
0.0
  0
LINE
  5
351
100
AcDbEntity
  8
FAN70-0307
370
              15
390
0
  6
Continuous
 62
               7
100
AcDbLine
 10
215.39428779305771
 20
-435.66403945269144
 30
0.0
 11
215.39428779305771
 21
-446.16403945269144
 31
0.0
  0
LINE
  5
352
100
AcDbEntity
  8
FAN70-0307
370
              15
390
0
  6
Continuous
 62
               7
100
AcDbLine
 10
212.09497241735764
 20
-444.16403945269144
 30
0.0
 11
212.09497241735764
 21
-438.16403945269144
 31
0.0
  0
LINE
  5
353
100
AcDbEntity
  8
FAN70-0307
370
              15
390
0
  6
Continuous
 62
               7
100
AcDbLine
 10
213.48415783865764
 20
-444.16403945269144
 30
0.0
 11
212.09497241735764
 21
-444.16403945269144
 31
0.0
  0
LINE
  5
354
100
AcDbEntity
  8
FAN70-0307
370
              15
390
0
  6
Continuous
 62
               7
100
AcDbLine
 10
213.48415783865764
 20
-438.16403945269144
 30
0.0
 11
213.48415783865764
 21
-444.16403945269144
 31
0.0
  0
LINE
  5
355
100
AcDbEntity
  8
FAN70-0307
370
              15
390
0
  6
Continuous
 62
               7
100
AcDbLine
 10
212.09497241735764
 20
-438.16403945269144
 30
0.0
 11
213.48415783865764
 21
-438.16403945269144
 31
0.0
  0
LINE
  5
356
100
AcDbEntity
  8
FAN70-0307
370
              15
390
0
  6
Continuous
 62
               7
100
AcDbLine
 10
216.0317991907576
 20
-448.16403945269144
 30
0.0
 11
215.04699143765762
 21
-448.16403945269144
 31
0.0
  0
LINE
  5
357
100
AcDbEntity
  8
FAN70-0307
370
              15
390
0
  6
Continuous
 62
               7
100
AcDbLine
 10
215.39428779305771
 20
-446.16403945269144
 30
0.0
 11
216.37909554605753
 21
-446.16403945269144
 31
0.0
  0
LINE
  5
358
100
AcDbEntity
  8
FAN70-0307
370
              15
390
0
  6
Continuous
 62
               7
100
AcDbLine
 10
216.37909554605753
 20
-446.16403945269144
 30
0.0
 11
216.0317991907576
 21
-448.16403945269144
 31
0.0
  0
LINE
  5
359
100
AcDbEntity
  8
FAN70-0307
370
              15
390
0
  6
Continuous
 62
               7
100
AcDbLine
 10
216.37909554605753
 20
-435.66403945269144
 30
0.0
 11
216.37909554605753
 21
-446.16403945269144
 31
0.0
  0
LINE
  5
35A
100
AcDbEntity
  8
FAN70-0307
370
              15
390
0
  6
Continuous
 62
               7
100
AcDbLine
 10
213.07978017035768
 20
-444.16403945269144
 30
0.0
 11
213.07978017035768
 21
-438.16403945269144
 31
0.0
  0
LINE
  5
35B
100
AcDbEntity
  8
FAN70-0307
370
              15
390
0
  6
Continuous
 62
               7
100
AcDbLine
 10
216.06323046155759
 20
-448.16403945269144
 30
0.0
 11
216.41052681685753
 21
-446.16403945269144
 31
0.0
  0
LINE
  5
35C
100
AcDbEntity
  8
FAN70-0307
370
              15
390
0
  6
Continuous
 62
               7
100
AcDbLine
 10
216.06323046155759
 20
-448.16403945269144
 30
0.0
 11
216.0317991907576
 21
-448.16403945269144
 31
0.0
  0
LINE
  5
35D
100
AcDbEntity
  8
FAN70-0307
370
              15
390
0
  6
Continuous
 62
               7
100
AcDbLine
 10
216.41052681685753
 20
-435.66403945269144
 30
0.0
 11
216.41052681685753
 21
-446.16403945269144
 31
0.0
  0
LINE
  5
35E
100
AcDbEntity
  8
FAN70-0307
370
              15
390
0
  6
Continuous
 62
               7
100
AcDbLine
 10
213.11121144115768
 20
-438.16403945269144
 30
0.0
 11
213.11121144115768
 21
-444.16403945269144
 31
0.0
  0
POLYLINE
  5
35F
100
AcDbEntity
  8
FAN70-0307
370
              15
390
0
  6
Continuous
 62
               7
100
AcDb2dPolyline
 66
               1
 10
0.0
 20
0.0
 30
0.0
 75
               5
  0
VERTEX
  5
360
100
AcDbEntity
  8
FAN70-0307
370
              15
390
0
  6
Continuous
 62
               7
100
AcDbVertex
100
AcDb2dVertex
 10
239.50111021805773
 20
-435.66403945269144
 30
0.0
  0
VERTEX
  5
361
100
AcDbEntity
  8
FAN70-0307
370
              15
390
0
  6
Continuous
 62
               7
100
AcDbVertex
100
AcDb2dVertex
 10
239.6222983368576
 20
-435.66403944959154
 30
0.0
  0
VERTEX
  5
362
100
AcDbEntity
  8
FAN70-0307
370
              15
390
0
  6
Continuous
 62
               7
100
AcDbVertex
100
AcDb2dVertex
 10
240.44614518745774
 20
-435.66403927509134
 30
0.0
  0
VERTEX
  5
363
100
AcDbEntity
  8
FAN70-0307
370
              15
390
0
  6
Continuous
 62
               7
100
AcDbVertex
100
AcDb2dVertex
 10
243.80476482895764
 20
-435.66403634359142
 30
0.0
  0
VERTEX
  5
364
100
AcDbEntity
  8
FAN70-0307
370
              15
390
0
  6
Continuous
 62
               7
100
AcDbVertex
100
AcDb2dVertex
 10
250.83224471435753
 20
-435.66402505869144
 30
0.0
  0
VERTEX
  5
365
100
AcDbEntity
  8
FAN70-0307
370
              15
390
0
  6
Continuous
 62
               7
100
AcDbVertex
100
AcDb2dVertex
 10
258.26280855365769
 20
-435.66401511009144
 30
0.0
  0
VERTEX
  5
366
100
AcDbEntity
  8
FAN70-0307
370
              15
390
0
  6
Continuous
 62
               7
100
AcDbVertex
100
AcDb2dVertex
 10
265.98647470895764
 20
-435.66401232929138
 30
0.0
  0
VERTEX
  5
367
100
AcDbEntity
  8
FAN70-0307
370
              15
390
0
  6
Continuous
 62
               7
100
AcDbVertex
100
AcDb2dVertex
 10
266.99151851755767
 20
-435.66401243669145
 30
0.0
  0
VERTEX
  5
368
100
AcDbEntity
  8
FAN70-0307
370
              15
390
0
  6
Continuous
 62
               7
100
AcDbVertex
100
AcDb2dVertex
 10
271.07314625095773
 20
-435.66401396149138
 30
0.0
  0
VERTEX
  5
369
100
AcDbEntity
  8
FAN70-0307
370
              15
390
0
  6
Continuous
 62
               7
100
AcDbVertex
100
AcDb2dVertex
 10
279.53742048735774
 20
-435.66402200889149
 30
0.0
  0
VERTEX
  5
36A
100
AcDbEntity
  8
FAN70-0307
370
              15
390
0
  6
Continuous
 62
               7
100
AcDbVertex
100
AcDb2dVertex
 10
288.38073466385788
 20
-435.66403296559145
 30
0.0
  0
VERTEX
  5
36B
100
AcDbEntity
  8
FAN70-0307
370
              15
390
0
  6
Continuous
 62
               7
100
AcDbVertex
100
AcDb2dVertex
 10
297.43856583835782
 20
-435.66403944959154
 30
0.0
  0
VERTEX
  5
36C
100
AcDbEntity
  8
FAN70-0307
370
              15
390
0
  6
Continuous
 62
               7
100
AcDbVertex
100
AcDb2dVertex
 10
297.61123036275785
 20
-435.66403945269144
 30
0.0
  0
SEQEND
  5
36D
100
AcDbEntity
  8
FAN70-0307
370
              15
390
0
  6
Continuous
 62
               7
  0
LINE
  5
36E
100
AcDbEntity
  8
FAN70-0307
370
              15
390
0
  6
Continuous
 62
               7
100
AcDbLine
 10
239.50111021805773
 20
-435.66403945269144
 30
0.0
 11
186.41136573585763
 21
-435.66403945269144
 31
0.0
  0
LINE
  5
36F
100
AcDbEntity
  8
FAN70-0307
370
              15
390
0
  6
Continuous
 62
               7
100
AcDbLine
 10
435.68578657955777
 20
-435.66403945269144
 30
0.0
 11
297.61123035785772
 21
-435.66403945269144
 31
0.0
  0
LINE
  5
370
100
AcDbEntity
  8
FAN70-0307
370
              15
390
0
  6
Continuous
 62
               7
100
AcDbLine
 10
435.68578657955777
 20
-435.66403945269144
 30
0.0
 11
684.97890226475749
 21
-435.66403945269144
 31
0.0
  0
LINE
  5
371
100
AcDbEntity
  8
FAN70-0307
370
              15
390
0
  6
Continuous
 62
               7
100
AcDbLine
 10
682.15556761575738
 20
-427.66403945269144
 30
0.0
 11
189.14665862415765
 21
-427.66403945269144
 31
0.0
  0
POLYLINE
  5
372
100
AcDbEntity
  8
FAN70-0307
370
              15
390
0
  6
Continuous
 62
               7
100
AcDb2dPolyline
 66
               1
 10
0.0
 20
0.0
 30
0.0
 75
               5
  0
VERTEX
  5
373
100
AcDbEntity
  8
FAN70-0307
370
              15
390
0
  6
Continuous
 62
               7
100
AcDbVertex
100
AcDb2dVertex
 10
433.48771208985772
 20
-567.70335794289235
 30
0.0
  0
VERTEX
  5
374
100
AcDbEntity
  8
FAN70-0307
370
              15
390
0
  6
Continuous
 62
               7
100
AcDbVertex
100
AcDb2dVertex
 10
433.83354663525779
 20
-567.70843815379237
 30
0.0
  0
VERTEX
  5
375
100
AcDbEntity
  8
FAN70-0307
370
              15
390
0
  6
Continuous
 62
               7
100
AcDbVertex
100
AcDb2dVertex
 10
434.86587133435773
 20
-567.73021900939239
 30
0.0
  0
VERTEX
  5
376
100
AcDbEntity
  8
FAN70-0307
370
              15
390
0
  6
Continuous
 62
               7
100
AcDbVertex
100
AcDb2dVertex
 10
436.56387013935773
 20
-567.77608478989237
 30
0.0
  0
VERTEX
  5
377
100
AcDbEntity
  8
FAN70-0307
370
              15
390
0
  6
Continuous
 62
               7
100
AcDbVertex
100
AcDb2dVertex
 10
438.89499551445783
 20
-567.84960526609234
 30
0.0
  0
VERTEX
  5
378
100
AcDbEntity
  8
FAN70-0307
370
              15
390
0
  6
Continuous
 62
               7
100
AcDbVertex
100
AcDb2dVertex
 10
441.81500737385784
 20
-567.95056067149233
 30
0.0
  0
VERTEX
  5
379
100
AcDbEntity
  8
FAN70-0307
370
              15
390
0
  6
Continuous
 62
               7
100
AcDbVertex
100
AcDb2dVertex
 10
445.26750192805787
 20
-568.07531387569236
 30
0.0
  0
VERTEX
  5
37A
100
AcDbEntity
  8
FAN70-0307
370
              15
390
0
  6
Continuous
 62
               7
100
AcDbVertex
100
AcDb2dVertex
 10
449.18977816095776
 20
-568.21702371949232
 30
0.0
  0
VERTEX
  5
37B
100
AcDbEntity
  8
FAN70-0307
370
              15
390
0
  6
Continuous
 62
               7
100
AcDbVertex
100
AcDb2dVertex
 10
453.51075584635782
 20
-568.3660279976923
 30
0.0
  0
VERTEX
  5
37C
100
AcDbEntity
  8
FAN70-0307
370
              15
390
0
  6
Continuous
 62
               7
100
AcDbVertex
100
AcDb2dVertex
 10
458.15532024635786
 20
-568.51044072489231
 30
0.0
  0
VERTEX
  5
37D
100
AcDbEntity
  8
FAN70-0307
370
              15
390
0
  6
Continuous
 62
               7
100
AcDbVertex
100
AcDb2dVertex
 10
463.0451582046577
 20
-568.63606298399236
 30
0.0
  0
VERTEX
  5
37E
100
AcDbEntity
  8
FAN70-0307
370
              15
390
0
  6
Continuous
 62
               7
100
AcDbVertex
100
AcDb2dVertex
 10
468.10001539775783
 20
-568.72644672539241
 30
0.0
  0
VERTEX
  5
37F
100
AcDbEntity
  8
FAN70-0307
370
              15
390
0
  6
Continuous
 62
               7
100
AcDbVertex
100
AcDb2dVertex
 10
473.23735062565777
 20
-568.76154027389236
 30
0.0
  0
VERTEX
  5
380
100
AcDbEntity
  8
FAN70-0307
370
              15
390
0
  6
Continuous
 62
               7
100
AcDbVertex
100
AcDb2dVertex
 10
473.23771208985772
 20
-568.76154027509233
 30
0.0
  0
SEQEND
  5
381
100
AcDbEntity
  8
FAN70-0307
370
              15
390
0
  6
Continuous
 62
               7
  0
POLYLINE
  5
382
100
AcDbEntity
  8
FAN70-0307
370
              15
390
0
  6
Continuous
 62
               7
100
AcDb2dPolyline
 66
               1
 10
0.0
 20
0.0
 30
0.0
 75
               5
  0
VERTEX
  5
383
100
AcDbEntity
  8
FAN70-0307
370
              15
390
0
  6
Continuous
 62
               7
100
AcDbVertex
100
AcDb2dVertex
 10
433.48771208985772
 20
-567.70335794289235
 30
0.0
  0
VERTEX
  5
384
100
AcDbEntity
  8
FAN70-0307
370
              15
390
0
  6
Continuous
 62
               7
100
AcDbVertex
100
AcDb2dVertex
 10
419.22182924695778
 20
-564.20484730359226
 30
0.0
  0
VERTEX
  5
385
100
AcDbEntity
  8
FAN70-0307
370
              15
390
0
  6
Continuous
 62
               7
100
AcDbVertex
100
AcDb2dVertex
 10
405.27725778695776
 20
-559.65343082949221
 30
0.0
  0
VERTEX
  5
386
100
AcDbEntity
  8
FAN70-0307
370
              15
390
0
  6
Continuous
 62
               7
100
AcDbVertex
100
AcDb2dVertex
 10
391.69844892915785
 20
-554.05835435429219
 30
0.0
  0
VERTEX
  5
387
100
AcDbEntity
  8
FAN70-0307
370
              15
390
0
  6
Continuous
 62
               7
100
AcDbVertex
100
AcDb2dVertex
 10
378.54104421055786
 20
-547.43752599689208
 30
0.0
  0
VERTEX
  5
388
100
AcDbEntity
  8
FAN70-0307
370
              15
390
0
  6
Continuous
 62
               7
100
AcDbVertex
100
AcDb2dVertex
 10
365.8900937171577
 20
-539.832453340092
 30
0.0
  0
VERTEX
  5
389
100
AcDbEntity
  8
FAN70-0307
370
              15
390
0
  6
Continuous
 62
               7
100
AcDbVertex
100
AcDb2dVertex
 10
353.83471331065778
 20
-531.28790662819176
 30
0.0
  0
VERTEX
  5
38A
100
AcDbEntity
  8
FAN70-0307
370
              15
390
0
  6
Continuous
 62
               7
100
AcDbVertex
100
AcDb2dVertex
 10
343.09156318695784
 20
-522.41418729899169
 30
0.0
  0
VERTEX
  5
38B
100
AcDbEntity
  8
FAN70-0307
370
              15
390
0
  6
Continuous
 62
               7
100
AcDbVertex
100
AcDb2dVertex
 10
333.01414743735779
 20
-512.80515072189155
 30
0.0
  0
VERTEX
  5
38C
100
AcDbEntity
  8
FAN70-0307
370
              15
390
0
  6
Continuous
 62
               7
100
AcDbVertex
100
AcDb2dVertex
 10
323.65685106255773
 20
-502.5242743761915
 30
0.0
  0
VERTEX
  5
38D
100
AcDbEntity
  8
FAN70-0307
370
              15
390
0
  6
Continuous
 62
               7
100
AcDbVertex
100
AcDb2dVertex
 10
315.0737721663578
 20
-491.63483290119143
 30
0.0
  0
VERTEX
  5
38E
100
AcDbEntity
  8
FAN70-0307
370
              15
390
0
  6
Continuous
 62
               7
100
AcDbVertex
100
AcDb2dVertex
 10
307.30391629525786
 20
-480.18858345089143
 30
0.0
  0
SEQEND
  5
38F
100
AcDbEntity
  8
FAN70-0307
370
              15
390
0
  6
Continuous
 62
               7
  0
POLYLINE
  5
390
100
AcDbEntity
  8
FAN70-0307
370
              15
390
0
  6
Continuous
 62
               7
100
AcDb2dPolyline
 66
               1
 10
0.0
 20
0.0
 30
0.0
 75
               5
  0
VERTEX
  5
391
100
AcDbEntity
  8
FAN70-0307
370
              15
390
0
  6
Continuous
 62
               7
100
AcDbVertex
100
AcDb2dVertex
 10
307.30391629525786
 20
-480.18858345089143
 30
0.0
  0
VERTEX
  5
392
100
AcDbEntity
  8
FAN70-0307
370
              15
390
0
  6
Continuous
 62
               7
100
AcDbVertex
100
AcDb2dVertex
 10
307.11837040795774
 20
-479.83162198009143
 30
0.0
  0
VERTEX
  5
393
100
AcDbEntity
  8
FAN70-0307
370
              15
390
0
  6
Continuous
 62
               7
100
AcDbVertex
100
AcDb2dVertex
 10
306.56941013275787
 20
-478.77445893449146
 30
0.0
  0
VERTEX
  5
394
100
AcDbEntity
  8
FAN70-0307
370
              15
390
0
  6
Continuous
 62
               7
100
AcDbVertex
100
AcDb2dVertex
 10
305.68001373705772
 20
-477.05695106279143
 30
0.0
  0
VERTEX
  5
395
100
AcDbEntity
  8
FAN70-0307
370
              15
390
0
  6
Continuous
 62
               7
100
AcDbVertex
100
AcDb2dVertex
 10
304.48823978065775
 20
-474.74443384999142
 30
0.0
  0
VERTEX
  5
396
100
AcDbEntity
  8
FAN70-0307
370
              15
390
0
  6
Continuous
 62
               7
100
AcDbVertex
100
AcDb2dVertex
 10
303.0446728087577
 20
-471.92369725829144
 30
0.0
  0
VERTEX
  5
397
100
AcDbEntity
  8
FAN70-0307
370
              15
390
0
  6
Continuous
 62
               7
100
AcDbVertex
100
AcDb2dVertex
 10
301.41092785035778
 20
-468.70179553179139
 30
0.0
  0
VERTEX
  5
398
100
AcDbEntity
  8
FAN70-0307
370
              15
390
0
  6
Continuous
 62
               7
100
AcDbVertex
100
AcDb2dVertex
 10
299.65521337985774
 20
-465.19945290549151
 30
0.0
  0
VERTEX
  5
399
100
AcDbEntity
  8
FAN70-0307
370
              15
390
0
  6
Continuous
 62
               7
100
AcDbVertex
100
AcDb2dVertex
 10
297.84938869525786
 20
-461.54797547799149
 30
0.0
  0
VERTEX
  5
39A
100
AcDbEntity
  8
FAN70-0307
370
              15
390
0
  6
Continuous
 62
               7
100
AcDbVertex
100
AcDb2dVertex
 10
296.06602003585783
 20
-457.88628873179141
 30
0.0
  0
VERTEX
  5
39B
100
AcDbEntity
  8
FAN70-0307
370
              15
390
0
  6
Continuous
 62
               7
100
AcDbVertex
100
AcDb2dVertex
 10
294.37311074225784
 20
-454.35245930899134
 30
0.0
  0
VERTEX
  5
39C
100
AcDbEntity
  8
FAN70-0307
370
              15
390
0
  6
Continuous
 62
               7
100
AcDbVertex
100
AcDb2dVertex
 10
292.83374015685774
 20
-451.08408153029143
 30
0.0
  0
VERTEX
  5
39D
100
AcDbEntity
  8
FAN70-0307
370
              15
390
0
  6
Continuous
 62
               7
100
AcDbVertex
100
AcDb2dVertex
 10
291.50160584905768
 20
-448.20847765629151
 30
0.0
  0
VERTEX
  5
39E
100
AcDbEntity
  8
FAN70-0307
370
              15
390
0
  6
Continuous
 62
               7
100
AcDbVertex
100
AcDb2dVertex
 10
290.42129056825775
 20
-445.84100710739153
 30
0.0
  0
VERTEX
  5
39F
100
AcDbEntity
  8
FAN70-0307
370
              15
390
0
  6
Continuous
 62
               7
100
AcDbVertex
100
AcDb2dVertex
 10
289.62636057355769
 20
-444.07697300589143
 30
0.0
  0
VERTEX
  5
3A0
100
AcDbEntity
  8
FAN70-0307
370
              15
390
0
  6
Continuous
 62
               7
100
AcDbVertex
100
AcDb2dVertex
 10
289.14020244385779
 20
-442.98843988009139
 30
0.0
  0
VERTEX
  5
3A1
100
AcDbEntity
  8
FAN70-0307
370
              15
390
0
  6
Continuous
 62
               7
100
AcDbVertex
100
AcDb2dVertex
 10
288.97666945095773
 20
-442.62059427109148
 30
0.0
  0
SEQEND
  5
3A2
100
AcDbEntity
  8
FAN70-0307
370
              15
390
0
  6
Continuous
 62
               7
  0
POLYLINE
  5
3A3
100
AcDbEntity
  8
FAN70-0307
370
              15
390
0
  6
Continuous
 62
               7
100
AcDb2dPolyline
 66
               1
 10
0.0
 20
0.0
 30
0.0
 75
               5
  0
VERTEX
  5
3A4
100
AcDbEntity
  8
FAN70-0307
370
              15
390
0
  6
Continuous
 62
               7
100
AcDbVertex
100
AcDb2dVertex
 10
288.97666945095773
 20
-442.62059427109148
 30
0.0
  0
VERTEX
  5
3A5
100
AcDbEntity
  8
FAN70-0307
370
              15
390
0
  6
Continuous
 62
               7
100
AcDbVertex
100
AcDb2dVertex
 10
286.69393056385786
 20
-435.9307318599914
 30
0.0
  0
VERTEX
  5
3A6
100
AcDbEntity
  8
FAN70-0307
370
              15
390
0
  6
Continuous
 62
               7
100
AcDbVertex
100
AcDb2dVertex
 10
286.61236251805781
 20
-435.66403945269144
 30
0.0
  0
SEQEND
  5
3A7
100
AcDbEntity
  8
FAN70-0307
370
              15
390
0
  6
Continuous
 62
               7
  0
POLYLINE
  5
3A8
100
AcDbEntity
  8
FAN70-0307
370
              15
390
0
  6
Continuous
 62
               7
100
AcDb2dPolyline
 66
               1
 10
0.0
 20
0.0
 30
0.0
 75
               5
  0
VERTEX
  5
3A9
100
AcDbEntity
  8
FAN70-0307
370
              15
390
0
  6
Continuous
 62
               7
100
AcDbVertex
100
AcDb2dVertex
 10
473.23771208985772
 20
-568.76154027509233
 30
0.0
  0
VERTEX
  5
3AA
100
AcDbEntity
  8
FAN70-0307
370
              15
390
0
  6
Continuous
 62
               7
100
AcDbVertex
100
AcDb2dVertex
 10
478.37492104945784
 20
-568.72646157999236
 30
0.0
  0
VERTEX
  5
3AB
100
AcDbEntity
  8
FAN70-0307
370
              15
390
0
  6
Continuous
 62
               7
100
AcDbVertex
100
AcDb2dVertex
 10
483.43032005925772
 20
-568.63606455379238
 30
0.0
  0
VERTEX
  5
3AC
100
AcDbEntity
  8
FAN70-0307
370
              15
390
0
  6
Continuous
 62
               7
100
AcDbVertex
100
AcDb2dVertex
 10
488.31990486115774
 20
-568.51044674839227
 30
0.0
  0
VERTEX
  5
3AD
100
AcDbEntity
  8
FAN70-0307
370
              15
390
0
  6
Continuous
 62
               7
100
AcDbVertex
100
AcDb2dVertex
 10
492.9653101984577
 20
-568.36604403119236
 30
0.0
  0
VERTEX
  5
3AE
100
AcDbEntity
  8
FAN70-0307
370
              15
390
0
  6
Continuous
 62
               7
100
AcDbVertex
100
AcDb2dVertex
 10
497.28610830785783
 20
-568.21697900389233
 30
0.0
  0
VERTEX
  5
3AF
100
AcDbEntity
  8
FAN70-0307
370
              15
390
0
  6
Continuous
 62
               7
100
AcDbVertex
100
AcDb2dVertex
 10
501.20783731015774
 20
-568.07531332469239
 30
0.0
  0
VERTEX
  5
3B0
100
AcDbEntity
  8
FAN70-0307
370
              15
390
0
  6
Continuous
 62
               7
100
AcDbVertex
100
AcDb2dVertex
 10
504.66124860375771
 20
-567.95055683529233
 30
0.0
  0
VERTEX
  5
3B1
100
AcDbEntity
  8
FAN70-0307
370
              15
390
0
  6
Continuous
 62
               7
100
AcDbVertex
100
AcDb2dVertex
 10
507.58044068275785
 20
-567.84957942419237
 30
0.0
  0
VERTEX
  5
3B2
100
AcDbEntity
  8
FAN70-0307
370
              15
390
0
  6
Continuous
 62
               7
100
AcDbVertex
100
AcDb2dVertex
 10
509.91157529305781
 20
-567.77608395519235
 30
0.0
  0
VERTEX
  5
3B3
100
AcDbEntity
  8
FAN70-0307
370
              15
390
0
  6
Continuous
 62
               7
100
AcDbVertex
100
AcDb2dVertex
 10
511.60956163395781
 20
-567.73021745009237
 30
0.0
  0
VERTEX
  5
3B4
100
AcDbEntity
  8
FAN70-0307
370
              15
390
0
  6
Continuous
 62
               7
100
AcDbVertex
100
AcDb2dVertex
 10
512.64188043955767
 20
-567.70843454959231
 30
0.0
  0
VERTEX
  5
3B5
100
AcDbEntity
  8
FAN70-0307
370
              15
390
0
  6
Continuous
 62
               7
100
AcDbVertex
100
AcDb2dVertex
 10
512.98771208985761
 20
-567.70335794289235
 30
0.0
  0
SEQEND
  5
3B6
100
AcDbEntity
  8
FAN70-0307
370
              15
390
0
  6
Continuous
 62
               7
  0
POLYLINE
  5
3B7
100
AcDbEntity
  8
FAN70-0307
370
              15
390
0
  6
Continuous
 62
               7
100
AcDb2dPolyline
 66
               1
 10
0.0
 20
0.0
 30
0.0
 75
               5
  0
VERTEX
  5
3B8
100
AcDbEntity
  8
FAN70-0307
370
              15
390
0
  6
Continuous
 62
               7
100
AcDbVertex
100
AcDb2dVertex
 10
659.73067734465747
 20
-435.66403945269144
 30
0.0
  0
VERTEX
  5
3B9
100
AcDbEntity
  8
FAN70-0307
370
              15
390
0
  6
Continuous
 62
               7
100
AcDbVertex
100
AcDb2dVertex
 10
656.70257765185727
 20
-444.78389457089145
 30
0.0
  0
VERTEX
  5
3BA
100
AcDbEntity
  8
FAN70-0307
370
              15
390
0
  6
Continuous
 62
               7
100
AcDbVertex
100
AcDb2dVertex
 10
650.95695702735736
 20
-458.50070414779145
 30
0.0
  0
VERTEX
  5
3BB
100
AcDbEntity
  8
FAN70-0307
370
              15
390
0
  6
Continuous
 62
               7
100
AcDbVertex
100
AcDb2dVertex
 10
644.20859551995761
 20
-471.70114811989151
 30
0.0
  0
VERTEX
  5
3BC
100
AcDbEntity
  8
FAN70-0307
370
              15
390
0
  6
Continuous
 62
               7
100
AcDbVertex
100
AcDb2dVertex
 10
636.49464058875731
 20
-484.33279046449138
 30
0.0
  0
VERTEX
  5
3BD
100
AcDbEntity
  8
FAN70-0307
370
              15
390
0
  6
Continuous
 62
               7
100
AcDbVertex
100
AcDb2dVertex
 10
627.83650412565737
 20
-496.35285262719151
 30
0.0
  0
VERTEX
  5
3BE
100
AcDbEntity
  8
FAN70-0307
370
              15
390
0
  6
Continuous
 62
               7
100
AcDbVertex
100
AcDb2dVertex
 10
618.26219854055751
 20
-507.71300845979147
 30
0.0
  0
VERTEX
  5
3BF
100
AcDbEntity
  8
FAN70-0307
370
              15
390
0
  6
Continuous
 62
               7
100
AcDbVertex
100
AcDb2dVertex
 10
607.83191390005743
 20
-518.3403762876917
 30
0.0
  0
VERTEX
  5
3C0
100
AcDbEntity
  8
FAN70-0307
370
              15
390
0
  6
Continuous
 62
               7
100
AcDbVertex
100
AcDb2dVertex
 10
596.6122871837573
 20
-528.15715464519178
 30
0.0
  0
VERTEX
  5
3C1
100
AcDbEntity
  8
FAN70-0307
370
              15
390
0
  6
Continuous
 62
               7
100
AcDbVertex
100
AcDb2dVertex
 10
584.08677440815745
 20
-537.4902779991919
 30
0.0
  0
VERTEX
  5
3C2
100
AcDbEntity
  8
FAN70-0307
370
              15
390
0
  6
Continuous
 62
               7
100
AcDbVertex
100
AcDb2dVertex
 10
570.86749461635759
 20
-545.78805274989202
 30
0.0
  0
VERTEX
  5
3C3
100
AcDbEntity
  8
FAN70-0307
370
              15
390
0
  6
Continuous
 62
               7
100
AcDbVertex
100
AcDb2dVertex
 10
557.05965158495769
 20
-552.99755274999211
 30
0.0
  0
VERTEX
  5
3C4
100
AcDbEntity
  8
FAN70-0307
370
              15
390
0
  6
Continuous
 62
               7
100
AcDbVertex
100
AcDb2dVertex
 10
542.76591660745771
 20
-559.06797011979234
 30
0.0
  0
VERTEX
  5
3C5
100
AcDbEntity
  8
FAN70-0307
370
              15
390
0
  6
Continuous
 62
               7
100
AcDbVertex
100
AcDb2dVertex
 10
528.05777367205758
 20
-563.97352384149224
 30
0.0
  0
VERTEX
  5
3C6
100
AcDbEntity
  8
FAN70-0307
370
              15
390
0
  6
Continuous
 62
               7
100
AcDbVertex
100
AcDb2dVertex
 10
512.98771208985761
 20
-567.70335794289235
 30
0.0
  0
SEQEND
  5
3C7
100
AcDbEntity
  8
FAN70-0307
370
              15
390
0
  6
Continuous
 62
               7
  0
SPLINE
  5
3C8
100
AcDbEntity
  8
FAN70-0307
370
              15
390
0
  6
Continuous
 62
               7
100
AcDbSpline
210
0.0
220
0.0
230
1.0
 70
               9
 71
               2
 72
              17
 73
              14
 74
               0
 42
0.000001
 43
0.000001
 40
0.0
 40
0.0
 40
0.0
 40
1.0
 40
2.0
 40
3.0
 40
4.0
 40
5.0
 40
6.0
 40
7.0
 40
8.0
 40
9.0
 40
10.0
 40
11.0
 40
12.0
 40
12.0
 40
12.0
 10
-550.95688305831573
 20
667.0032220657057
 30
0.0
 10
-495.84481626070726
 20
692.12345885612331
 30
0.0
 10
-368.56894985592396
 20
692.12345885612331
 30
0.0
 10
-258.34481626070715
 20
641.88298527528798
 30
0.0
 10
-194.70688305831553
 20
554.86393243695932
 30
0.0
 10
-194.70688305831553
 20
454.38298527528849
 30
0.0
 10
-258.34481626070715
 20
367.36393243695977
 30
0.0
 10
-368.56894985592396
 20
317.12345885612444
 30
0.0
 10
-495.84481626070726
 20
317.12345885612444
 30
0.0
 10
-606.06894985592407
 20
367.36393243695977
 30
0.0
 10
-669.70688305831573
 20
454.38298527528849
 30
0.0
 10
-669.70688305831573
 20
554.86393243695932
 30
0.0
 10
-606.06894985592407
 20
641.88298527528798
 30
0.0
 10
-550.95688305831573
 20
667.0032220657057
 30
0.0
  0
ARC
  5
3C9
100
AcDbEntity
  8
FAN70-0307
370
              15
390
0
  6
STYLE_12
 62
               7
100
AcDbCircle
 10
474.32904509005868
 20
-377.15975707766142
 30
0.0
 40
192.90000000000089
100
AcDbArc
 50
281.49228260502383
 51
344.64816436325827
  0
ARC
  5
3CA
100
AcDbEntity
  8
FAN70-0307
370
              15
390
0
  6
STYLE_12
 62
               7
100
AcDbCircle
 10
516.72711846257698
 20
-581.29861463558018
 30
0.0
 40
15.618010849918422
100
AcDbArc
 50
104.70859331637911
 51
129.76455929161045
  0
LINE
  5
3CB
100
AcDbEntity
  8
FAN70-0307
370
              15
390
0
  6
STYLE_12
 62
               7
100
AcDbLine
 10
506.73730224636176
 20
-569.29337266074231
 30
0.0
 11
497.25992607195781
 21
-576.49654050679248
 31
0.0
  0
ARC
  5
3CC
100
AcDbEntity
  8
FAN70-0307
370
              15
390
0
  6
STYLE_12
 62
               7
100
AcDbCircle
 10
472.14637908965676
 20
-377.15975707766142
 30
0.0
 40
192.90000000000001
100
AcDbArc
 50
195.1647819320292
 51
258.50771739497623
  0
ARC
  5
3CD
100
AcDbEntity
  8
FAN70-0307
370
              15
390
0
  6
STYLE_12
 62
               7
100
AcDbCircle
 10
429.74830571713835
 20
-581.29861463558018
 30
0.0
 40
15.618010849918415
100
AcDbArc
 50
50.235440708389383
 51
75.291406683620892
  0
LINE
  5
3CE
100
AcDbEntity
  8
FAN70-0307
370
              15
390
0
  6
STYLE_12
 62
               7
100
AcDbLine
 10
439.73812193335368
 20
-569.29337266074231
 30
0.0
 11
449.21549810775764
 21
-576.49654050679248
 31
0.0
  0
ARC
  5
3CF
100
AcDbEntity
  8
FAN70-0307
370
              15
390
0
  6
STYLE_12
 62
               7
100
AcDbCircle
 10
-432.04059077934937
 20
-302.26731811933649
 30
0.0
 40
267.80000000000081
100
AcDbArc
 50
278.40350561145817
 51
332.08754306460668
  0
ARC
  5
3D0
100
AcDbEntity
  8
FAN70-0307
370
              15
390
0
  6
STYLE_12
 62
               7
100
AcDbCircle
 10
-391.99602805818336
 20
-570.89888394456739
 30
0.0
 40
3.8162558754168474
100
AcDbArc
 50
103.75383539631557
 51
136.24616460367761
  0
LINE
  5
3D1
100
AcDbEntity
  8
FAN70-0307
370
              15
390
0
  6
STYLE_12
 62
               7
100
AcDbLine
 10
-394.75257711158952
 20
-568.25970865239412
 30
0.0
 11
-406.12668984756544
 21
-576.92577438394437
 31
0.0
  0
ARC
  5
3D2
100
AcDbEntity
  8
FAN70-0307
370
              15
390
0
  6
STYLE_12
 62
               7
100
AcDbCircle
 10
-432.91349109518137
 20
-302.26731811933649
 30
0.0
 40
267.80000000000024
100
AcDbArc
 50
207.89783377584777
 51
261.59649438854188
  0
ARC
  5
3D3
100
AcDbEntity
  8
FAN70-0307
370
              15
390
0
  6
STYLE_12
 62
               7
100
AcDbCircle
 10
-472.95805381634739
 20
-570.89888394456739
 30
0.0
 40
3.8162558754167062
100
AcDbArc
 50
43.75383539632297
 51
76.246164603685258
  0
LINE
  5
3D4
100
AcDbEntity
  8
FAN70-0307
370
              15
390
0
  6
STYLE_12
 62
               7
100
AcDbLine
 10
-470.20150476294123
 20
-568.25970865239412
 30
0.0
 11
-458.82739202696541
 21
-576.92577438394437
 31
0.0
  0
ENDSEC
  0
SECTION
  2
OBJECTS
  0
DICTIONARY
  5
19
100
AcDbDictionary
280
               0
281
               1
  3
ACAD_GROUP
350
1A
  3
ACAD_MLINESTYLE
350
1B
  3
ACAD_LAYOUT
350
1E
  3
ACAD_PLOTSETTINGS
350
22
  3
ACAD_PLOTSTYLENAME
350
1F
  0
DICTIONARY
  5
1A
102
{ACAD_REACTORS
330
19
102
}
100
AcDbDictionary
280
               0
281
               1
  0
DICTIONARY
  5
1B
102
{ACAD_REACTORS
330
19
102
}
100
AcDbDictionary
280
               0
281
               1
  3
Standard
350
1C
  0
MLINESTYLE
  5
1C
102
{ACAD_REACTORS
330
1B
102
}
100
AcDbMlineStyle
  2
Standard
 70
               0
  3

 62
               0
 51
90.0
 52
90.0
 71
               2
 49
0.5
 62
             256
  6
ByLayer
 49
-0.5
 62
             256
  6
ByLayer
  0
ACDBDICTIONARYWDFLT
  5
1F
102
{ACAD_REACTORS
330
19
102
}
100
AcDbDictionary
281
               1
  3
Normal
350
1D
100
AcDbDictionaryWithDefault
340
1D
  0
ACDBPLACEHOLDER
  5
1D
102
{ACAD_REACTORS
330
1F
102
}
  0
LAYOUT
  5
20
102
{ACAD_REACTORS
330
1E
102
}
100
AcDbPlotSettings
  1

  2

  4

  6

 40
0.0
 41
0.0
 42
0.0
 43
0.0
 44
0.0
 45
0.0
 46
0.0
 47
0.0
 48
0.0
 49
0.0
140
0.0
141
0.0
142
1.0
143
1.0
 70
            1024
 72
               0
 73
               0
 74
               0
  7

 75
               0
147
1.0
148
0.0
149
0.0
100
AcDbLayout
  1
Model
 70
               0
 71
               0
 10
0.0
 20
0.0
 11
0.0
 21
0.0
 12
0.0
 22
0.0
 32
0.0
 14
0.0
 24
0.0
 34
0.0
 15
0.0
 25
0.0
 35
0.0
146
0.0
 13
0.0
 23
0.0
 33
0.0
 16
0.0
 26
0.0
 36
0.0
 17
0.0
 27
0.0
 37
0.0
 76
               0
330
A
331
0
345
0
346
0
  0
LAYOUT
  5
21
102
{ACAD_REACTORS
330
1E
102
}
100
AcDbPlotSettings
  1

  2

  4

  6

 40
0.0
 41
0.0
 42
0.0
 43
0.0
 44
0.0
 45
0.0
 46
0.0
 47
0.0
 48
0.0
 49
0.0
140
0.0
141
0.0
142
1.0
143
1.0
 70
               0
 72
               0
 73
               0
 74
               0
  7

 75
               0
147
1.0
148
0.0
149
0.0
100
AcDbLayout
  1
Layout1
 70
               0
 71
               0
 10
0.0
 20
0.0
 11
0.0
 21
0.0
 12
0.0
 22
0.0
 32
0.0
 14
0.0
 24
0.0
 34
0.0
 15
0.0
 25
0.0
 35
0.0
146
0.0
 13
0.0
 23
0.0
 33
0.0
 16
0.0
 26
0.0
 36
0.0
 17
0.0
 27
0.0
 37
0.0
 76
               0
330
B
331
0
345
0
346
0
  0
DICTIONARY
  5
1E
102
{ACAD_REACTORS
330
19
102
}
100
AcDbDictionary
280
               0
281
               1
  3
Layout1
350
21
  3
Model
350
20
  0
DICTIONARY
  5
22
102
{ACAD_REACTORS
330
19
102
}
100
AcDbDictionary
280
               0
281
               1
  0
ENDSEC
  0
EOF
