  0
SECTION
  2
HEADER
  9
$ACADVER
  1
AC1015
  9
$ACADMAINTVER
 70
               6
  9
$DWGCODEPAGE
  3
ANSI_932
  9
$INSBASE
 10
0.0
 20
0.0
 30
0.0
  9
$EXTMIN
 10
-975.00000000024124
 20
-1431.5255224711129
 30
-14.834305555555554
  9
$EXTMAX
 10
1786.75
 20
1405.9972926412995
 30
14.834305555555554
  9
$LIMMIN
 10
0.0
 20
0.0
  9
$LIMMAX
 10
0.0
 20
0.0
  9
$ORTHOMODE
 70
               0
  9
$REGENMODE
 70
               1
  9
$FILLMODE
 70
               1
  9
$QTEXTMODE
 70
               0
  9
$MIRRTEXT
 70
               1
  9
$LTSCALE
 40
50.799999999999997
  9
$ATTMODE
 70
               1
  9
$TEXTSIZE
 40
0.2
  9
$TRACEWID
 40
1.0
  9
$TEXTSTYLE
  7
Standard
  9
$CLAYER
  8
notes
  9
$CELTYPE
  6
Continuous
  9
$CECOLOR
 62
             256
  9
$CELTSCALE
 40
1.0
  9
$DISPSILH
 70
               0
  9
$DIMSCALE
 40
1.0
  9
$DIMASZ
 40
9.9993896484374982
  9
$DIMEXO
 40
24.999999999999996
  9
$DIMDLI
 40
0.9999999999999999
  9
$DIMRND
 40
0.0
  9
$DIMDLE
 40
0.0
  9
$DIMEXE
 40
0.0
  9
$DIMTP
 40
0.0
  9
$DIMTM
 40
0.0
  9
$DIMTXT
 40
24.432617187500004
  9
$DIMCEN
 40
0.0
  9
$DIMTSZ
 40
0.0
  9
$DIMTOL
 70
               0
  9
$DIMLIM
 70
               0
  9
$DIMTIH
 70
               0
  9
$DIMTOH
 70
               0
  9
$DIMSE1
 70
               0
  9
$DIMSE2
 70
               0
  9
$DIMTAD
 70
               1
  9
$DIMZIN
 70
              11
  9
$DIMBLK
  1
_DOT
  9
$DIMASO
 70
               1
  9
$DIMSHO
 70
               1
  9
$DIMPOST
  1
<>
  9
$DIMAPOST
  1
[]
  9
$DIMALT
 70
               0
  9
$DIMALTD
 70
               1
  9
$DIMALTF
 40
1.0
  9
$DIMLFAC
 40
1.0
  9
$DIMTOFL
 70
               0
  9
$DIMTVP
 40
0.0
  9
$DIMTIX
 70
               1
  9
$DIMSOXD
 70
               0
  9
$DIMSAH
 70
               0
  9
$DIMBLK1
  1

  9
$DIMBLK2
  1

  9
$DIMSTYLE
  2
tfrom線あり
  9
$DIMCLRD
 70
               0
  9
$DIMCLRE
 70
               0
  9
$DIMCLRT
 70
               0
  9
$DIMTFAC
 40
1.0
  9
$DIMGAP
 40
0.4999999999999999
  9
$DIMJUST
 70
               0
  9
$DIMSD1
 70
               0
  9
$DIMSD2
 70
               0
  9
$DIMTOLJ
 70
               1
  9
$DIMTZIN
 70
              11
  9
$DIMALTZ
 70
              11
  9
$DIMALTTZ
 70
              11
  9
$DIMUPT
 70
               0
  9
$DIMDEC
 70
               1
  9
$DIMTDEC
 70
               1
  9
$DIMALTU
 70
               2
  9
$DIMALTTD
 70
               2
  9
$DIMTXSTY
  7
ＭＳ ゴシック
  9
$DIMAUNIT
 70
               0
  9
$DIMADEC
 70
               2
  9
$DIMALTRND
 40
0.0
  9
$DIMAZIN
 70
               0
  9
$DIMDSEP
 70
              46
  9
$DIMATFIT
 70
               0
  9
$DIMFRAC
 70
               2
  9
$DIMLDRBLK
  1

  9
$DIMLUNIT
 70
               2
  9
$DIMLWD
 70
              -2
  9
$DIMLWE
 70
              -2
  9
$DIMTMOVE
 70
               0
  9
$LUNITS
 70
               2
  9
$LUPREC
 70
               4
  9
$SKETCHINC
 40
0.1
  9
$FILLETRAD
 40
0.0
  9
$AUNITS
 70
               0
  9
$AUPREC
 70
               0
  9
$MENU
  1
acad
  9
$ELEVATION
 40
0.0
  9
$PELEVATION
 40
0.0
  9
$THICKNESS
 40
0.0
  9
$LIMCHECK
 70
               0
  9
$CHAMFERA
 40
0.0
  9
$CHAMFERB
 40
0.0
  9
$CHAMFERC
 40
0.0
  9
$CHAMFERD
 40
0.0
  9
$SKPOLY
 70
               0
  9
$TDCREATE
 40
2456050.651944445
  9
$TDUCREATE
 40
0.000000000
  9
$TDUPDATE
 40
2456050.651944445
  9
$TDUUPDATE
 40
0.000000000
  9
$TDINDWG
 40
0.0000000000
  9
$TDUSRTIMER
 40
0.0000000000
  9
$USRTIMER
 70
               1
  9
$ANGBASE
 50
0.0
  9
$ANGDIR
 70
               0
  9
$PDMODE
 70
               1
  9
$PDSIZE
 40
-2.0
  9
$PLINEWID
 40
0.0
  9
$SPLFRAME
 70
               0
  9
$SPLINETYPE
 70
               6
  9
$SPLINESEGS
 70
               8
  9
$HANDSEED
  5
3BF
  9
$SURFTAB1
 70
               6
  9
$SURFTAB2
 70
               6
  9
$SURFTYPE
 70
               6
  9
$SURFU
 70
               6
  9
$SURFV
 70
               6
  9
$UCSBASE
  2

  9
$UCSNAME
  2

  9
$UCSORG
 10
0.0
 20
0.0
 30
0.0
  9
$UCSXDIR
 10
1.0
 20
0.0
 30
0.0
  9
$UCSYDIR
 10
0.0
 20
1.0
 30
0.0
  9
$UCSORTHOREF
  2

  9
$UCSORTHOVIEW
 70
               0
  9
$UCSORGTOP
 10
0.0
 20
0.0
 30
0.0
  9
$UCSORGBOTTOM
 10
0.0
 20
0.0
 30
0.0
  9
$UCSORGLEFT
 10
0.0
 20
0.0
 30
0.0
  9
$UCSORGRIGHT
 10
0.0
 20
0.0
 30
0.0
  9
$UCSORGFRONT
 10
0.0
 20
0.0
 30
0.0
  9
$UCSORGBACK
 10
0.0
 20
0.0
 30
0.0
  9
$PUCSBASE
  2

  9
$PUCSNAME
  2

  9
$PUCSORG
 10
0.0
 20
0.0
 30
0.0
  9
$PUCSXDIR
 10
1.0
 20
0.0
 30
0.0
  9
$PUCSYDIR
 10
0.0
 20
1.0
 30
0.0
  9
$PUCSORTHOREF
  2

  9
$PUCSORTHOVIEW
 70
               0
  9
$PUCSORGTOP
 10
0.0
 20
0.0
 30
0.0
  9
$PUCSORGBOTTOM
 10
0.0
 20
0.0
 30
0.0
  9
$PUCSORGLEFT
 10
0.0
 20
0.0
 30
0.0
  9
$PUCSORGRIGHT
 10
0.0
 20
0.0
 30
0.0
  9
$PUCSORGFRONT
 10
0.0
 20
0.0
 30
0.0
  9
$PUCSORGBACK
 10
0.0
 20
0.0
 30
0.0
  9
$USERI1
 70
               0
  9
$USERI2
 70
               0
  9
$USERI3
 70
               0
  9
$USERI4
 70
               0
  9
$USERI5
 70
               0
  9
$USERR1
 40
0.0
  9
$USERR2
 40
0.0
  9
$USERR3
 40
0.0
  9
$USERR4
 40
0.0
  9
$USERR5
 40
0.0
  9
$WORLDVIEW
 70
               1
  9
$SHADEDGE
 70
               3
  9
$SHADEDIF
 70
              70
  9
$TILEMODE
 70
               1
  9
$MAXACTVP
 70
              64
  9
$PINSBASE
 10
0.0
 20
0.0
 30
0.0
  9
$PLIMCHECK
 70
               0
  9
$PEXTMIN
 10
1.0000000000000000E+20
 20
1.0000000000000000E+20
 30
1.0000000000000000E+20
  9
$PEXTMAX
 10
-1.0000000000000000E+20
 20
-1.0000000000000000E+20
 30
-1.0000000000000000E+20
  9
$PLIMMIN
 10
0.0
 20
0.0
  9
$PLIMMAX
 10
12.0
 20
9.0
  9
$UNITMODE
 70
               0
  9
$VISRETAIN
 70
               0
  9
$PLINEGEN
 70
               1
  9
$PSLTSCALE
 70
               0
  9
$TREEDEPTH
 70
            3020
  9
$CMLSTYLE
  2
Standard
  9
$CMLJUST
 70
               0
  9
$CMLSCALE
 40
1.0
  9
$PROXYGRAPHICS
 70
               0
  9
$MEASUREMENT
 70
               1
  9
$CELWEIGHT
370
               0
  9
$ENDCAPS
280
               0
  9
$JOINSTYLE
280
               0
  9
$LWDISPLAY
290
               1
  9
$INSUNITS
 70
               4
  9
$HYPERLINKBASE
  1

  9
$STYLESHEET
  1

  9
$XEDIT
290
               1
  9
$CEPSNTYPE
380
               0
  9
$PSTYLEMODE
290
               1
  9
$FINGERPRINTGUID
  2

  9
$VERSIONGUID
  2

  9
$EXTNAMES
290
               1
  9
$PSVPSCALE
 40
0.0
  0
ENDSEC
  0
SECTION
  2
CLASSES
  0
CLASS
  1
LWPOLYLINE
  2
AcDbPolyline
  3
AutoCAD 2000
 90
        0
280
               0
281
               1
  0
CLASS
  1
IMAGE
  2
AcDbRasterImage
  3
ISM
 90
      127
280
               0
281
               1
  0
CLASS
  1
OLE2FRAME
  2
AcDbOle2Frame
  3
AutoCAD 2000
 90
        0
280
               0
281
               1
  0
CLASS
  1
HATCH
  2
AcDbHatch
  3
AutoCAD 2000
 90
        0
280
               0
281
               1
  0
CLASS
  1
DICTIONARYVAR
  2
AcDbDictionaryVar
  3
AutoCAD 2000
 90
        0
280
               0
281
               0
  0
CLASS
  1
RASTERVARIABLES
  2
AcDbRasterVariables
  3
ISM
 90
        0
280
               0
281
               0
  0
CLASS
  1
IMAGEDEF
  2
AcDbRasterImageDef
  3
ISM
 90
        0
280
               0
281
               0
  0
CLASS
  1
IMAGEDEF_REACTOR
  2
AcDbRasterImageDefReactor
  3
ISM
 90
        1
280
               0
281
               0
  0
CLASS
  1
IDBUFFER
  2
AcDbIdBuffer
  3
AutoCAD 2000
 90
        0
280
               0
281
               0
  0
CLASS
  1
SPATIAL_FILTER
  2
AcDbSpatialFilter
  3
AutoCAD 2000
 90
        0
280
               0
281
               0
  0
CLASS
  1
XRECORD
  2
AcDbXrecord
  3
AutoCAD 2000
 90
        0
280
               0
281
               0
  0
CLASS
  1
SORTENTSTABLE
  2
AcDbSortentsTable
  3
AutoCAD 2000
 90
        0
280
               0
281
               0
  0
CLASS
  1
LAYER_INDEX
  2
AcDbLayerIndex
  3
AutoCAD 2000
 90
        0
280
               0
281
               0
  0
CLASS
  1
SPATIAL_INDEX
  2
AcDbSpatialIndex
  3
AutoCAD 2000
 90
        0
280
               0
281
               0
  0
CLASS
  1
OBJECT_PTR
  2
CAseDLPNTableRecord
  3
"ASE-LPNTableRecord"
 90
        1
280
               0
281
               0
  0
CLASS
  1
LAYOUT
  2
AcDbLayout
  3
AutoCAD 2000
 90
        0
280
               0
281
               0
  0
CLASS
  1
PLOTSETTINGS
  2
AcDbPlotSettings
  3
AutoCAD 2000
 90
        0
280
               0
281
               0
  0
CLASS
  1
ACDBDICTIONARYWDFLT
  2
AcDbDictionaryWithDefault
  3
AutoCAD 2000
 90
        0
280
               0
281
               0
  0
CLASS
  1
ACDBPLACEHOLDER
  2
AcDbPlaceHolder
  3
AutoCAD 2000
 90
        0
280
               0
281
               0
  0
ENDSEC
  0
SECTION
  2
TABLES
  0
TABLE
  2
VPORT
  5
7
100
AcDbSymbolTable
 70
               1
  0
VPORT
  5
15
100
AcDbSymbolTableRecord
100
AcDbViewportTableRecord
  2
*ACTIVE
 70
               0
 10
0.0
 20
0.0
 11
1.0
 21
1.0
 12
405.87499999987926
 22
-12.764114914906713
 13
0.0
 23
0.0
 14
1.0
 24
1.0
 15
0.0
 25
0.0
 16
0.0
 26
0.0
 36
1.0
 17
0.0
 27
0.0
 37
0.0
 40
2837.5228151124124
 41
0.688564
 42
50.0
 43
0.0
 44
0.0
 50
0.0
 51
0.0
 71
               0
 72
            2000
 73
               1
 74
               1
 75
               0
 76
               0
 77
               0
 78
               0
281
               0
 65
               0
110
0.0
120
0.0
130
0.0
111
1.0
121
0.0
131
0.0
112
0.0
122
1.0
132
0.0
345
0
346
0
 79
               0
146
0.0
  0
ENDTAB
  0
TABLE
  2
LTYPE
  5
4
100
AcDbSymbolTable
 70
              17
  0
LTYPE
  5
11
100
AcDbSymbolTableRecord
100
AcDbLinetypeTableRecord
  2
ByBlock
 70
              64
  3

 72
              65
 73
               0
 40
0.0
  0
LTYPE
  5
12
100
AcDbSymbolTableRecord
100
AcDbLinetypeTableRecord
  2
ByLayer
 70
              64
  3

 72
              65
 73
               0
 40
0.0
  0
LTYPE
  5
13
100
AcDbSymbolTableRecord
100
AcDbLinetypeTableRecord
  2
Continuous
 70
              64
  3
Solid line
 72
              65
 73
               0
 40
0.0
  0
LTYPE
  5
33
100
AcDbSymbolTableRecord
100
AcDbLinetypeTableRecord
  2
STYLE_01
 70
               0
  3

 72
              65
 73
               4
 40
0.3999999999999999
 49
0.25
 74
               0
 49
-0.05
 74
               0
 49
0.05
 74
               0
 49
-0.05
 74
               0
  0
LTYPE
  5
34
100
AcDbSymbolTableRecord
100
AcDbLinetypeTableRecord
  2
STYLE_02
 70
               0
  3

 72
              65
 73
               2
 40
0.6944250000000001
 49
0.48607
 74
               0
 49
-0.2083550000000001
 74
               0
  0
LTYPE
  5
35
100
AcDbSymbolTableRecord
100
AcDbLinetypeTableRecord
  2
STYLE_03
 70
               0
  3

 72
              65
 73
               2
 40
1.25
 49
1.0416400000000001
 74
               0
 49
-0.2083599999999999
 74
               0
  0
LTYPE
  5
36
100
AcDbSymbolTableRecord
100
AcDbLinetypeTableRecord
  2
STYLE_04
 70
               0
  3

 72
              65
 73
               2
 40
1.5277099999999999
 49
1.3194249999999998
 74
               0
 49
-0.208285
 74
               0
  0
LTYPE
  5
37
100
AcDbSymbolTableRecord
100
AcDbLinetypeTableRecord
  2
STYLE_05
 70
               0
  3

 72
              65
 73
               2
 40
0.20828
 49
0.069425
 74
               0
 49
-0.138855
 74
               0
  0
LTYPE
  5
38
100
AcDbSymbolTableRecord
100
AcDbLinetypeTableRecord
  2
STYLE_06
 70
               0
  3

 72
              65
 73
               4
 40
1.0416400000000001
 49
0.625
 74
               0
 49
-0.20828
 74
               0
 49
0.06943
 74
               0
 49
-0.13893
 74
               0
  0
LTYPE
  5
39
100
AcDbSymbolTableRecord
100
AcDbLinetypeTableRecord
  2
STYLE_07
 70
               0
  3

 72
              65
 73
               6
 40
1.875
 49
0.625
 74
               0
 49
-0.20828
 74
               0
 49
0.6250000000000001
 74
               0
 49
-0.2083599999999999
 74
               0
 49
0.06943
 74
               0
 49
-0.1389299999999999
 74
               0
  0
LTYPE
  5
3A
100
AcDbSymbolTableRecord
100
AcDbLinetypeTableRecord
  2
STYLE_08
 70
               0
  3

 72
              65
 73
               6
 40
1.25
 49
0.625
 74
               0
 49
-0.20828
 74
               0
 49
0.06943
 74
               0
 49
-0.13893
 74
               0
 49
0.0694299999999999
 74
               0
 49
-0.13893
 74
               0
  0
LTYPE
  5
3B
100
AcDbSymbolTableRecord
100
AcDbLinetypeTableRecord
  2
STYLE_09
 70
               0
  3

 72
              65
 73
               4
 40
5.0
 49
3.75
 74
               0
 49
-0.2777849999999998
 74
               0
 49
0.6944300000000003
 74
               0
 49
-0.2777849999999998
 74
               0
  0
LTYPE
  5
3C
100
AcDbSymbolTableRecord
100
AcDbLinetypeTableRecord
  2
STYLE_10
 70
               0
  3

 72
              65
 73
               6
 40
5.9375
 49
3.75
 74
               0
 49
-0.2777849999999998
 74
               0
 49
0.6944300000000003
 74
               0
 49
-0.2777849999999998
 74
               0
 49
0.625
 74
               0
 49
-0.3125
 74
               0
  0
LTYPE
  5
3D
100
AcDbSymbolTableRecord
100
AcDbLinetypeTableRecord
  2
STYLE_11
 70
               0
  3

 72
              65
 73
               2
 40
0.0694444881889764
 49
0.0347222440944882
 74
               0
 49
-0.0347222440944882
 74
               0
  0
LTYPE
  5
3E
100
AcDbSymbolTableRecord
100
AcDbLinetypeTableRecord
  2
STYLE_12
 70
               0
  3

 72
              65
 73
               2
 40
0.3937007874015748
 49
0.1968503937007874
 74
               0
 49
-0.1968503937007874
 74
               0
  0
LTYPE
  5
3F
100
AcDbSymbolTableRecord
100
AcDbLinetypeTableRecord
  2
STYLE_13
 70
               0
  3

 72
              65
 73
               2
 40
0.5905511811023622
 49
0.2952755905511811
 74
               0
 49
-0.2952755905511811
 74
               0
  0
LTYPE
  5
40
100
AcDbSymbolTableRecord
100
AcDbLinetypeTableRecord
  2
STYLE_14
 70
               0
  3

 72
              65
 73
               2
 40
1.9685039370078738
 49
0.9842519685039369
 74
               0
 49
-0.9842519685039369
 74
               0
  0
ENDTAB
  0
TABLE
  2
LAYER
  5
2
100
AcDbSymbolTable
 70
               5
  0
LAYER
  5
14
100
AcDbSymbolTableRecord
100
AcDbLayerTableRecord
  2
0
 70
               0
 62
               7
  6
Continuous
290
               1
370
              -3
390
1D
  0
LAYER
  5
41
100
AcDbSymbolTableRecord
100
AcDbLayerTableRecord
  2
Defpoints
 70
               0
 62
               7
  6
Continuous
290
               0
370
              -3
390
1D
  0
LAYER
  5
42
100
AcDbSymbolTableRecord
100
AcDbLayerTableRecord
  2
template
 70
               0
 62
               7
  6
Continuous
290
               1
370
              -3
390
1D
  0
LAYER
  5
43
100
AcDbSymbolTableRecord
100
AcDbLayerTableRecord
  2
notes
 70
               0
 62
               7
  6
Continuous
290
               1
370
              -3
390
1D
  0
LAYER
  5
44
100
AcDbSymbolTableRecord
100
AcDbLayerTableRecord
  2
FAN70-0308
 70
               0
 62
               7
  6
Continuous
290
               1
370
              -3
390
1D
  0
ENDTAB
  0
TABLE
  2
STYLE
  5
3
100
AcDbSymbolTable
 70
               2
  0
STYLE
  5
17
100
AcDbSymbolTableRecord
100
AcDbTextStyleTableRecord
  2
Standard
 70
               0
 40
0.0
 41
1.0
 50
0.0
 71
               0
 42
0.0
  3
txt
  4
BIGFONT.SHX
  0
STYLE
  5
32
100
AcDbSymbolTableRecord
100
AcDbTextStyleTableRecord
  2
ＭＳ ゴシック
 70
               0
 40
0.0
 41
1.0
 50
0.0
 71
               0
 42
0.0
  3

  4
ＭＳ ゴシック
1001
ACAD
1000
ＭＳ ゴシック
1071
        0
  0
ENDTAB
  0
TABLE
  2
VIEW
  5
5
100
AcDbSymbolTable
 70
               0
  0
ENDTAB
  0
TABLE
  2
UCS
  5
6
100
AcDbSymbolTable
 70
               0
  0
ENDTAB
  0
TABLE
  2
APPID
  5
8
100
AcDbSymbolTable
 70
               1
  0
APPID
  5
16
100
AcDbSymbolTableRecord
100
AcDbRegAppTableRecord
  2
ACAD
 70
               0
  0
ENDTAB
  0
TABLE
  2
DIMSTYLE
  5
9
100
AcDbSymbolTable
 70
               2
100
AcDbDimStyleTable
 71
               0
  0
DIMSTYLE
105
18
100
AcDbSymbolTableRecord
100
AcDbDimStyleTableRecord
  2
Standard
 70
               0
  3

  4

 40
1.0
 41
0.18
 42
0.0625
 43
0.38
 44
0.18
 45
0.0
 46
0.0
 47
0.0
 48
0.0
 71
               0
 72
               0
 73
               1
 74
               1
 75
               0
 76
               0
 77
               0
 78
               0
 79
               0
140
0.18
141
0.09
142
0.0
143
25.399999999999999
144
1.0
145
0.0
146
1.0
147
0.09
148
0.0
170
               0
171
               2
172
               0
173
               0
174
               0
175
               0
176
               0
177
               0
178
               0
179
               0
271
               4
272
               4
273
               2
274
               2
275
               0
276
               0
277
               2
278
              46
279
               0
280
               0
281
               0
282
               0
283
               1
284
               0
285
               0
286
               0
288
               0
289
               3
340
17
341
0
342
0
343
0
344
0
371
              -2
372
              -2
  0
DIMSTYLE
105
4D
100
AcDbSymbolTableRecord
100
AcDbDimStyleTableRecord
  2
tfrom線あり
 70
               0
  3
<>
  4
[]
 40
1.0
 41
9.9993896484374982
 42
24.999999999999996
 43
0.9999999999999999
 44
0.0
 45
0.0
 46
0.0
 47
0.0
 48
0.0
 71
               0
 72
               0
 73
               0
 74
               0
 75
               0
 76
               0
 77
               1
 78
              11
 79
               0
140
24.432617187500004
141
0.0
142
0.0
143
1.0
144
1.0
145
0.0
146
1.0
147
0.4999999999999999
148
0.0
170
               0
171
               1
172
               0
173
               0
174
               1
175
               0
176
               0
177
               0
178
               0
179
               2
271
               1
272
               1
273
               2
274
               2
275
               0
276
               2
277
               2
278
              46
279
               0
280
               0
281
               0
282
               0
283
               1
284
              11
285
              11
286
              11
288
               0
289
               0
340
32
341
45
342
45
343
0
344
0
371
              -2
372
              -2
  0
ENDTAB
  0
TABLE
  2
BLOCK_RECORD
  5
1
100
AcDbSymbolTable
 70
              16
  0
BLOCK_RECORD
  5
A
100
AcDbSymbolTableRecord
100
AcDbBlockTableRecord
  2
*MODEL_SPACE
340
20
  0
BLOCK_RECORD
  5
B
100
AcDbSymbolTableRecord
100
AcDbBlockTableRecord
  2
*PAPER_SPACE
340
21
  0
BLOCK_RECORD
  5
45
100
AcDbSymbolTableRecord
100
AcDbBlockTableRecord
  2
_DOT
340
0
  0
BLOCK_RECORD
  5
23
100
AcDbSymbolTableRecord
100
AcDbBlockTableRecord
  2
グループ
340
0
102
{BLKREFS
331
10A
102
}
  0
BLOCK_RECORD
  5
24
100
AcDbSymbolTableRecord
100
AcDbBlockTableRecord
  2
*D2
340
0
  0
BLOCK_RECORD
  5
25
100
AcDbSymbolTableRecord
100
AcDbBlockTableRecord
  2
*D3
340
0
  0
BLOCK_RECORD
  5
26
100
AcDbSymbolTableRecord
100
AcDbBlockTableRecord
  2
*D4
340
0
  0
BLOCK_RECORD
  5
27
100
AcDbSymbolTableRecord
100
AcDbBlockTableRecord
  2
*D5
340
0
  0
BLOCK_RECORD
  5
28
100
AcDbSymbolTableRecord
100
AcDbBlockTableRecord
  2
*D6
340
0
  0
BLOCK_RECORD
  5
29
100
AcDbSymbolTableRecord
100
AcDbBlockTableRecord
  2
*D7
340
0
  0
BLOCK_RECORD
  5
2A
100
AcDbSymbolTableRecord
100
AcDbBlockTableRecord
  2
*D8
340
0
  0
BLOCK_RECORD
  5
2B
100
AcDbSymbolTableRecord
100
AcDbBlockTableRecord
  2
*D9
340
0
  0
BLOCK_RECORD
  5
2C
100
AcDbSymbolTableRecord
100
AcDbBlockTableRecord
  2
*D10
340
0
  0
BLOCK_RECORD
  5
2D
100
AcDbSymbolTableRecord
100
AcDbBlockTableRecord
  2
*D11
340
0
  0
BLOCK_RECORD
  5
2E
100
AcDbSymbolTableRecord
100
AcDbBlockTableRecord
  2
*D12
340
0
  0
BLOCK_RECORD
  5
2F
100
AcDbSymbolTableRecord
100
AcDbBlockTableRecord
  2
*D13
340
0
  0
BLOCK_RECORD
  5
30
100
AcDbSymbolTableRecord
100
AcDbBlockTableRecord
  2
グループ-1
340
0
102
{BLKREFS
331
126
102
}
  0
BLOCK_RECORD
  5
31
100
AcDbSymbolTableRecord
100
AcDbBlockTableRecord
  2
グループ-2
340
0
102
{BLKREFS
331
127
102
}
  0
ENDTAB
  0
ENDSEC
  0
SECTION
  2
BLOCKS
  0
BLOCK
  5
D
100
AcDbEntity
  8
0
390
0
100
AcDbBlockBegin
  2
*MODEL_SPACE
 70
               0
 10
0.0
 20
0.0
 30
0.0
  3
*MODEL_SPACE
  1

  0
ENDBLK
  5
E
100
AcDbEntity
  8
0
390
0
100
AcDbBlockEnd
  0
BLOCK
  5
F
100
AcDbEntity
 67
               1
  8
0
390
0
100
AcDbBlockBegin
  2
*PAPER_SPACE
 70
               0
 10
0.0
 20
0.0
 30
0.0
  3
*PAPER_SPACE
  1

  0
ENDBLK
  5
10
100
AcDbEntity
 67
               1
  8
0
390
0
100
AcDbBlockEnd
  0
BLOCK
  5
46
100
AcDbEntity
  8
0
390
0
100
AcDbBlockBegin
  2
_DOT
 70
               0
 10
0.0
 20
0.0
 30
0.0
  3
_DOT
  1

  0
POLYLINE
  5
47
100
AcDbEntity
  8
0
370
              -2
390
0
  6
ByBlock
 62
               0
100
AcDb2dPolyline
 66
               1
 10
0.0
 20
0.0
 30
0.0
 70
               1
 40
0.5
 41
0.5
  0
VERTEX
  5
48
100
AcDbEntity
  8
0
370
              -2
390
0
  6
ByBlock
 62
               0
100
AcDbVertex
100
AcDb2dVertex
 10
-0.25
 20
0.0
 30
0.0
 42
1.0
  0
VERTEX
  5
49
100
AcDbEntity
  8
0
370
              -2
390
0
  6
ByBlock
 62
               0
100
AcDbVertex
100
AcDb2dVertex
 10
0.25
 20
0.0
 30
0.0
 42
1.0
  0
SEQEND
  5
4A
100
AcDbEntity
  8
0
390
0
  0
LINE
  5
4B
100
AcDbEntity
  8
0
370
              -2
390
0
  6
ByBlock
 62
               0
100
AcDbLine
 10
-0.5
 20
0.0
 30
0.0
 11
-1.0
 21
0.0
 31
0.0
  0
ENDBLK
  5
4C
100
AcDbEntity
  8
0
390
0
100
AcDbBlockEnd
  0
BLOCK
  5
4E
100
AcDbEntity
  8
template
390
0
100
AcDbBlockBegin
  2
グループ
 70
               0
 10
0.0
 20
0.0
 30
0.0
  3
グループ
  1

  0
LWPOLYLINE
  5
4F
100
AcDbEntity
  8
0
370
              15
390
0
  6
Continuous
 62
               7
100
AcDbPolyline
 90
        8
 70
             129
 10
887.42850780307481
 20
-1279.3286215831392
 10
887.42850780307481
 20
-1285.3260102767151
 10
877.92731088507151
 20
-1285.3260102767151
 10
877.92731088507151
 20
-1309.7769735402239
 10
869.57193362328871
 20
-1309.7769735402239
 10
869.57193362328871
 20
-1285.3260102767151
 10
860.23897667697929
 20
-1285.3260102767151
 10
860.23897667697929
 20
-1279.3286215831392
  0
LWPOLYLINE
  5
50
100
AcDbEntity
  8
0
370
              15
390
0
  6
Continuous
 62
               7
100
AcDbPolyline
 90
      101
 70
             128
 10
900.15679963363175
 20
-1280.0568700760757
 10
900.17214966241681
 20
-1280.0525093193905
 42
-0.0222221607812283
 10
900.46215423908779
 20
-1279.983884854146
 10
900.47794800308122
 20
-1279.9808814310491
 42
-0.0146883565586854
 10
900.74065070830557
 20
-1279.9388782440997
 42
-0.0127458844187406
 10
901.00528967545358
 20
-1279.9113412760275
 10
901.06774475377142
 20
-1279.906447853439
 42
-0.0198099018566901
 10
901.45859386324832
 20
-1279.8913626960425
 10
901.51040533269202
 20
-1279.8914164717075
 42
-0.0147617382765175
 10
902.00502879366343
 20
-1279.9065364969522
 10
902.07772024853898
 20
-1279.9109091038399
 42
-0.0162624549004703
 10
902.46787387800578
 20
-1279.9471419791123
 10
902.58940626927017
 20
-1279.9624285381094
 42
-0.0080020874660664
 10
902.73498530035658
 20
-1279.9831113853772
 10
902.77330477094858
 20
-1279.9891826631879
 42
-0.005382192967833
 10
902.84178887626638
 20
-1280.0007901870099
 10
902.11538317706777
 20
-1282.1817186427238
 42
0.0108667757394062
 10
902.04806610693299
 20
-1282.1685315275031
 10
902.01059808374748
 20
-1282.1620337849095
 42
0.017066320330763
 10
901.8673812968334
 20
-1282.1422041876178
 10
901.79950596414892
 20
-1282.1351570170302
 42
0.0220162375276641
 10
901.51912655629246
 20
-1282.1184746562601
 10
901.44127098924173
 20
-1282.1172752889936
 42
0.0282606915783738
 10
901.10563466566362
 20
-1282.1310785659625
 10
901.06172139189118
 20
-1282.1353785559663
 42
0.0169677213690595
 10
900.8157968969324
 20
-1282.1679156055184
 42
0.0190576269865484
 10
900.57288893435555
 20
-1282.2180624776238
 10
900.56662974624146
 20
-1282.219605451734
 42
0.0213685642844021
 10
900.3162452617612
 20
-1282.2928057368395
 10
900.3107553668475
 20
-1282.2946687328977
 42
0.0237595297591213
 10
900.05726048194606
 20
-1282.3943532547944
 10
900.05215840791914
 20
-1282.3966450302714
 42
0.0261857468810989
 10
899.79998763168908
 20
-1282.5261813676459
 10
899.78956144260292
 20
-1282.5322468421139
 42
0.0272553062019101
 10
899.55313166736369
 20
-1282.6876190480589
 10
899.51836865385121
 20
-1282.7132801961534
 42
0.0325996893180971
 10
899.36821331020269
 20
-1282.8400280691224
 10
899.34450388107427
 20
-1282.8628460976404
 42
0.0138050960639914
 10
899.25262072486953
 20
-1282.956295759187
 42
0.0125280103805281
 10
899.16577819203565
 20
-1283.0544590857874
 10
899.14209774712765
 20
-1283.0826175839743
 42
0.0205218024729119
 10
899.01699767161574
 20
-1283.2444108982008
 10
898.99453133112684
 20
-1283.2760706280303
 42
0.0163110129581913
 10
898.83882095187528
 20
-1283.5114010631005
 10
898.83609705582455
 20
-1283.5158248250857
 42
0.0131897341896935
 10
898.68929653491978
 20
-1283.7689569174479
 10
898.68759643955218
 20
-1283.7720751565857
 42
0.0107895576059858
 10
898.54981973734516
 20
-1284.0382903662135
 10
898.5490868478164
 20
-1284.0397845988675
 42
0.0091371507219095
 10
898.42060689916514
 20
-1284.3143097966311
 10
898.3908612677576
 20
-1284.3810163037861
 42
0.0135418326351206
 10
898.21914732868856
 20
-1284.7959540890481
 10
898.1855425202524
 20
-1284.8838202313343
 42
0.0092834542409608
 10
898.01431346033087
 20
-1285.3577187296414
 10
897.98869633261734
 20
-1285.4329597994226
 42
0.0054261043577207
 10
897.88105818432018
 20
-1285.7607237724997
 10
897.86353219811349
 20
-1285.8161119348224
 42
0.0008225090822076
 10
897.79486214631277
 20
-1286.034380692879
 10
896.8101730143793
 20
-1289.0592719861356
 10
900.04279685445317
 20
-1289.0592719861356
 10
899.53860442459973
 20
-1290.963750284488
 10
896.28254814261641
 20
-1290.963750284488
 10
890.45339911026258
 20
-1309.7769733504929
 10
888.62830149995227
 20
-1309.7769733504929
 10
894.4629795354532
 20
-1290.963750284488
 10
892.05786316641286
 20
-1290.963750284488
 10
892.5620555962663
 20
-1289.0592719861356
 10
894.99060440721632
 20
-1289.0592719861356
 10
895.85075932540497
 20
-1286.4228589854367
 42
-0.0005863560650262
 10
895.88749400353095
 20
-1286.3060325653908
 10
895.96358183726886
 20
-1286.0650402657595
 42
-0.0087522378925693
 10
896.16304998072576
 20
-1285.4697641786129
 10
896.25531425613713
 20
-1285.2096240101057
 42
-0.0077400953830536
 10
896.51324791527031
 20
-1284.5166193325517
 10
896.52901288684689
 20
-1284.4761884491716
 42
-0.0082369946330518
 10
896.77609735746114
 20
-1283.8721093829699
 42
-0.0085725238363833
 10
897.0433434534657
 20
-1283.2766833436795
 10
897.14497305447333
 20
-1283.0602622416939
 42
-0.0168109410595879
 10
897.43191748320146
 20
-1282.4990547155935
 10
897.55776087367406
 20
-1282.2720906825714
 42
-0.0007817726859269
 10
897.61204522371713
 20
-1282.1745464375649
 10
897.61217352973449
 20
-1282.1743167288284
 42
-0.0036626142157143
 10
897.6670613937556
 20
-1282.0777188488601
 42
-0.0080221150679748
 10
897.72418564916165
 20
-1281.9824396141084
 10
897.75488560052349
 20
-1281.9330486649851
 42
-0.020213932556849
 10
897.88254134033025
 20
-1281.7450670643036
 10
897.93660880551784
 20
-1281.6719882000627
 42
-0.0249323791798447
 10
898.1957715992371
 20
-1281.3559429579082
 10
898.219911413364
 20
-1281.3293286849957
 42
-0.0242132121536684
 10
898.55959215490498
 20
-1280.9894451987927
 10
898.60750372765756
 20
-1280.9459360626049
 42
-0.025101752785879
 10
898.8914854282973
 20
-1280.7129433168411
 10
898.8929309051116
 20
-1280.7118740592618
 42
-0.0130868069040762
 10
899.19119155506837
 20
-1280.5030935907196
 10
899.19275337420993
 20
-1280.5020601504452
 42
-0.0290329526391372
 10
899.50386451560439
 20
-1280.3212346488153
 10
899.53371007759586
 20
-1280.306132265973
 42
-0.0160250190043653
 10
899.79961449135521
 20
-1280.1821161557623
 42
-0.0267600374781006
 10
900.07489056882639
 20
-1280.0813678352131
 10
900.10162648834478
 20
-1280.0731752763882
 42
-0.0049981587670053
 10
900.15679963363175
 20
-1280.0568700760757
 42
-0.0049981587670053
  0
LWPOLYLINE
  5
51
100
AcDbEntity
  8
0
370
              15
390
0
  6
Continuous
 62
               7
100
AcDbPolyline
 90
      118
 70
             128
 10
919.97116719807866
 20
-1289.133255313963
 10
921.84628912257813
 20
-1289.133255313963
 10
921.00825021697824
 20
-1291.814821840363
 42
-0.0010587229211422
 10
921.03970603257619
 20
-1291.7779173069771
 10
921.09790012318217
 20
-1291.709935050832
 42
-0.0071874740407281
 10
921.24827534128485
 20
-1291.5392943587979
 10
921.38999811454244
 20
-1291.3830582174896
 42
-0.0148118053512363
 10
921.84012740725746
 20
-1290.9154443714745
 10
921.92734974215796
 20
-1290.8300470506222
 42
-0.0086273358692412
 10
922.26289854316542
 20
-1290.5126714166067
 10
922.30673225939188
 20
-1290.4726217722732
 42
-0.0103138323110657
 10
922.56475596162477
 20
-1290.2464586349354
 10
922.61053036794067
 20
-1290.2079765876845
 42
-0.0060206748566775
 10
922.78337843206407
 20
-1290.0661819369207
 10
922.78540956294921
 20
-1290.06455623129
 42
-0.0067069027288388
 10
922.95770237761258
 20
-1289.9304055974944
 10
922.96025114353938
 20
-1289.9284754276184
 42
-0.0076184352042701
 10
923.13115640940987
 20
-1289.8031005523753
 42
-0.0089652861674684
 10
923.30611737214042
 20
-1289.6834672920456
 10
923.34246909229182
 20
-1289.6595560785584
 42
-0.0156916245935726
 10
923.5384285894495
 20
-1289.5392935920854
 42
-0.002329901106332
 10
923.7386906333893
 20
-1289.426115652567
 10
923.75407476580915
 20
-1289.41751565748
 42
-0.0107669341484053
 10
923.98831159090878
 20
-1289.2931155241313
 10
924.0105763919853
 20
-1289.2818987741805
 42
-0.0078058045895926
 10
924.29416650993699
 20
-1289.1445373185425
 10
924.30407359764718
 20
-1289.1399281906736
 42
-0.0181829330473932
 10
924.61438300225871
 20
-1289.0090644495795
 10
924.66843844483174
 20
-1288.9885493296335
 42
-0.0208411536025736
 10
925.01752341227984
 20
-1288.8724588671412
 10
925.03187951240682
 20
-1288.8683404221879
 42
-0.0222799817135775
 10
925.3605993063245
 20
-1288.7896988560474
 10
925.36948826956063
 20
-1288.7879868454625
 42
-0.0215509523883926
 10
925.68595923784142
 20
-1288.7410711569282
 10
925.72844119889146
 20
-1288.7366336301372
 42
-0.018254592487324
 10
925.96254997819551
 20
-1288.7207898047463
 10
926.00195099454572
 20
-1288.719565259667
 42
-0.0072962856529054
 10
926.15787387423256
 20
-1288.716995931145
 10
926.18697354479764
 20
-1288.7169410957413
 42
-0.0059227516312746
 10
926.2847230439495
 20
-1288.7179148075315
 10
926.31396526140736
 20
-1288.7185525741345
 42
-0.0011833111893234
 10
926.35321654515383
 20
-1288.719501578445
 10
925.55782994954666
 20
-1291.258235523544
 42
0.0143932051524636
 10
925.53142856719489
 20
-1291.2480365534982
 10
925.52415659477879
 20
-1291.2454653346413
 42
0.0234388603494022
 10
925.48232572884672
 20
-1291.2328460989261
 10
925.47364406593397
 20
-1291.2306651369211
 42
0.0199162742988474
 10
925.41335523185239
 20
-1291.2180484015857
 10
925.39254129404776
 20
-1291.2145512021575
 42
0.0293643550669223
 10
925.28946643528752
 20
-1291.2034011565042
 10
925.26478125456833
 20
-1291.2021895394857
 42
0.0214606686870228
 10
925.11164033861701
 20
-1291.2012509790684
 10
925.10226842779787
 20
-1291.2015958906127
 42
0.0167564054187993
 10
924.93074823669042
 20
-1291.2136729329807
 10
924.92228844393048
 20
-1291.2145542734079
 42
0.0137677553246399
 10
924.73493513066614
 20
-1291.2393035819512
 10
924.72758339115785
 20
-1291.2404815019192
 42
0.0118497261481205
 10
924.52708562705527
 20
-1291.2774988521085
 10
924.52093561980928
 20
-1291.2787857148285
 42
0.0106421143891936
 10
924.31005473252526
 20
-1291.3276180904031
 10
924.30514592413522
 20
-1291.3288654330884
 42
0.0099746379706426
 10
924.08668745497073
 20
-1291.3890399614038
 10
924.02513941480242
 20
-1291.4073218400338
 42
0.0191613675860962
 10
923.68915495228782
 20
-1291.5212992203205
 10
923.60109517953936
 20
-1291.5549861306458
 42
0.0205274080147135
 10
923.21578840764073
 20
-1291.7208145384714
 10
923.15813912565523
 20
-1291.7484825030454
 42
0.0181256912193595
 10
922.89986218499178
 20
-1291.8841663220214
 10
922.84690680167512
 20
-1291.9144839352377
 42
0.0140709242412418
 10
922.7019518670495
 20
-1292.0029786086707
 10
922.6757029984326
 20
-1292.0200354273852
 42
0.0086667884399223
 10
922.58677683688848
 20
-1292.0800380952689
 42
0.003640819201488
 10
922.4993435988797
 20
-1292.1422189530435
 10
922.46411672438649
 20
-1292.1676598989741
 42
0.0052260781283436
 10
922.30788802698567
 20
-1292.2829922856156
 10
922.29168117073573
 20
-1292.2952203962263
 42
0.0050024435892504
 10
922.1056778276743
 20
-1292.4385029644907
 10
922.09035967116176
 20
-1292.4505489869343
 42
0.0136138710277092
 10
921.87991840283541
 20
-1292.6255154918488
 10
921.84625052704291
 20
-1292.6550944645619
 42
0.0172815186909998
 10
921.58184698538162
 20
-1292.904091137184
 10
921.57928463953772
 20
-1292.9066769543324
 42
0.0189403857991616
 10
921.32870284095702
 20
-1293.1794822191387
 10
921.29607134742253
 20
-1293.2178261506342
 42
0.0185044199506342
 10
921.10411490844263
 20
-1293.461074731757
 42
0.0088565243901835
 10
920.92565480181418
 20
-1293.7145911519069
 10
920.91647682216569
 20
-1293.7281325316669
 42
0.0157195347233255
 10
920.73325621582558
 20
-1294.0176547409928
 10
920.68717327389959
 20
-1294.0958069380054
 42
0.009545187978228
 10
920.52208772376309
 20
-1294.3884015803601
 10
920.51093980483051
 20
-1294.4090722524975
 42
0.0100351706259463
 10
920.3788960556742
 20
-1294.6661278129827
 42
0.0086935915427105
 10
920.25656490388042
 20
-1294.9279609583866
 10
920.25324416246565
 20
-1294.935403281359
 42
0.0072580174868562
 10
920.13289771051973
 20
-1295.2159952729444
 10
920.1296360772144
 20
-1295.22391529896
 42
0.0060005122612748
 10
920.01043540887395
 20
-1295.523524969559
 10
920.00722443053007
 20
-1295.5318864974697
 42
0.0049017786976095
 10
919.88832427167415
 20
-1295.85081547807
 10
919.88515846528219
 20
-1295.8595684153047
 42
0.0039415167601332
 10
919.76572218722583
 20
-1296.1981104777169
 10
919.76259108457339
 20
-1296.2072136785939
 42
0.003103583876369
 10
919.64178629887749
 20
-1296.5656535403757
 10
919.63867625434989
 20
-1296.5750741617421
 42
0.0025070747152459
 10
919.51577490304032
 20
-1296.9537213786682
 10
919.47848100660917
 20
-1297.0706130439391
 42
0.0029081910285026
 10
919.28646270879403
 20
-1297.6847767022446
 10
919.24565954028128
 20
-1297.8179999445067
 42
0.000926645373586
 10
918.97724216595384
 20
-1298.7002244044722
 10
918.95635469337412
 20
-1298.7693362835066
 42
-0.0005809993666905
 10
918.67901801273479
 20
-1299.6831443903052
 10
918.61273621446674
 20
-1299.9006293224486
 42
-0.001201870816555
 10
918.46575190503268
 20
-1300.3787919869856
 10
918.41343205330679
 20
-1300.5475511283676
 42
-0.0002691059611808
 10
918.36986257229853
 20
-1300.6878187481932
 10
915.53690667400929
 20
-1309.7769733504929
 10
913.71891778203076
 20
-1309.7769733504929
 10
919.97116719807866
 20
-1289.133255313963
  0
SPLINE
  5
52
100
AcDbEntity
  8
0
370
              15
390
0
  6
Continuous
 62
               7
100
AcDbSpline
210
0.0
220
0.0
230
1.0
 70
              13
 71
               2
 72
             782
 73
             779
 74
               0
 42
0.000001
 43
0.000001
 40
0.0
 40
0.0
 40
0.0
 40
1.0
 40
1.0
 40
2.0
 40
2.0
 40
3.0
 40
3.0
 40
4.0
 40
4.0
 40
5.0
 40
5.0
 40
6.0
 40
6.0
 40
7.0
 40
7.0
 40
8.0
 40
8.0
 40
9.0
 40
9.0
 40
10.0
 40
10.0
 40
11.0
 40
11.0
 40
12.0
 40
12.0
 40
13.0
 40
13.0
 40
14.0
 40
14.0
 40
15.0
 40
15.0
 40
16.0
 40
16.0
 40
17.0
 40
17.0
 40
18.0
 40
18.0
 40
19.0
 40
19.0
 40
20.0
 40
20.0
 40
21.0
 40
21.0
 40
22.0
 40
22.0
 40
23.0
 40
23.0
 40
24.0
 40
24.0
 40
25.0
 40
25.0
 40
26.0
 40
26.0
 40
27.0
 40
27.0
 40
28.0
 40
28.0
 40
29.0
 40
29.0
 40
30.0
 40
30.0
 40
31.0
 40
31.0
 40
32.0
 40
32.0
 40
33.0
 40
33.0
 40
34.0
 40
34.0
 40
35.0
 40
35.0
 40
36.0
 40
36.0
 40
37.0
 40
37.0
 40
38.0
 40
38.0
 40
39.0
 40
39.0
 40
40.0
 40
40.0
 40
41.0
 40
41.0
 40
42.0
 40
42.0
 40
43.0
 40
43.0
 40
44.0
 40
44.0
 40
45.0
 40
45.0
 40
46.0
 40
46.0
 40
47.0
 40
47.0
 40
48.0
 40
48.0
 40
49.0
 40
49.0
 40
50.0
 40
50.0
 40
51.0
 40
51.0
 40
52.0
 40
52.0
 40
53.0
 40
53.0
 40
54.0
 40
54.0
 40
55.0
 40
55.0
 40
56.0
 40
56.0
 40
57.0
 40
57.0
 40
58.0
 40
58.0
 40
59.0
 40
59.0
 40
60.0
 40
60.0
 40
61.0
 40
61.0
 40
62.0
 40
62.0
 40
63.0
 40
63.0
 40
64.0
 40
64.0
 40
65.0
 40
65.0
 40
66.0
 40
66.0
 40
67.0
 40
67.0
 40
68.0
 40
68.0
 40
69.0
 40
69.0
 40
70.0
 40
70.0
 40
71.0
 40
71.0
 40
72.0
 40
72.0
 40
73.0
 40
73.0
 40
74.0
 40
74.0
 40
75.0
 40
75.0
 40
76.0
 40
76.0
 40
77.0
 40
77.0
 40
78.0
 40
78.0
 40
79.0
 40
79.0
 40
80.0
 40
80.0
 40
81.0
 40
81.0
 40
82.0
 40
82.0
 40
83.0
 40
83.0
 40
84.0
 40
84.0
 40
85.0
 40
85.0
 40
86.0
 40
86.0
 40
87.0
 40
87.0
 40
88.0
 40
88.0
 40
89.0
 40
89.0
 40
90.0
 40
90.0
 40
91.0
 40
91.0
 40
92.0
 40
92.0
 40
93.0
 40
93.0
 40
94.0
 40
94.0
 40
95.0
 40
95.0
 40
96.0
 40
96.0
 40
97.0
 40
97.0
 40
98.0
 40
98.0
 40
99.0
 40
99.0
 40
100.0
 40
100.0
 40
101.0
 40
101.0
 40
102.0
 40
102.0
 40
103.0
 40
103.0
 40
104.0
 40
104.0
 40
105.0
 40
105.0
 40
106.0
 40
106.0
 40
107.0
 40
107.0
 40
108.0
 40
108.0
 40
109.0
 40
109.0
 40
110.0
 40
110.0
 40
111.0
 40
111.0
 40
112.0
 40
112.0
 40
113.0
 40
113.0
 40
114.0
 40
114.0
 40
115.0
 40
115.0
 40
116.0
 40
116.0
 40
117.0
 40
117.0
 40
118.0
 40
118.0
 40
119.0
 40
119.0
 40
120.0
 40
120.0
 40
121.0
 40
121.0
 40
122.0
 40
122.0
 40
123.0
 40
123.0
 40
124.0
 40
124.0
 40
125.0
 40
125.0
 40
126.0
 40
126.0
 40
127.0
 40
127.0
 40
128.0
 40
128.0
 40
129.0
 40
129.0
 40
130.0
 40
130.0
 40
131.0
 40
131.0
 40
132.0
 40
132.0
 40
133.0
 40
133.0
 40
134.0
 40
134.0
 40
135.0
 40
135.0
 40
136.0
 40
136.0
 40
137.0
 40
137.0
 40
138.0
 40
138.0
 40
139.0
 40
139.0
 40
140.0
 40
140.0
 40
141.0
 40
141.0
 40
142.0
 40
142.0
 40
143.0
 40
143.0
 40
144.0
 40
144.0
 40
145.0
 40
145.0
 40
146.0
 40
146.0
 40
147.0
 40
147.0
 40
148.0
 40
148.0
 40
149.0
 40
149.0
 40
150.0
 40
150.0
 40
151.0
 40
151.0
 40
152.0
 40
152.0
 40
153.0
 40
153.0
 40
154.0
 40
154.0
 40
155.0
 40
155.0
 40
156.0
 40
156.0
 40
157.0
 40
157.0
 40
158.0
 40
158.0
 40
159.0
 40
159.0
 40
160.0
 40
160.0
 40
161.0
 40
161.0
 40
162.0
 40
162.0
 40
163.0
 40
163.0
 40
164.0
 40
164.0
 40
165.0
 40
165.0
 40
166.0
 40
166.0
 40
167.0
 40
167.0
 40
168.0
 40
168.0
 40
169.0
 40
169.0
 40
170.0
 40
170.0
 40
171.0
 40
171.0
 40
172.0
 40
172.0
 40
173.0
 40
173.0
 40
174.0
 40
174.0
 40
175.0
 40
175.0
 40
176.0
 40
176.0
 40
177.0
 40
177.0
 40
178.0
 40
178.0
 40
179.0
 40
179.0
 40
180.0
 40
180.0
 40
181.0
 40
181.0
 40
182.0
 40
182.0
 40
183.0
 40
183.0
 40
184.0
 40
184.0
 40
185.0
 40
185.0
 40
186.0
 40
186.0
 40
187.0
 40
187.0
 40
188.0
 40
188.0
 40
189.0
 40
189.0
 40
190.0
 40
190.0
 40
191.0
 40
191.0
 40
192.0
 40
192.0
 40
193.0
 40
193.0
 40
194.0
 40
194.0
 40
195.0
 40
195.0
 40
196.0
 40
196.0
 40
197.0
 40
197.0
 40
198.0
 40
198.0
 40
199.0
 40
199.0
 40
200.0
 40
200.0
 40
201.0
 40
201.0
 40
202.0
 40
202.0
 40
203.0
 40
203.0
 40
204.0
 40
204.0
 40
205.0
 40
205.0
 40
206.0
 40
206.0
 40
207.0
 40
207.0
 40
208.0
 40
208.0
 40
209.0
 40
209.0
 40
210.0
 40
210.0
 40
211.0
 40
211.0
 40
212.0
 40
212.0
 40
213.0
 40
213.0
 40
214.0
 40
214.0
 40
215.0
 40
215.0
 40
216.0
 40
216.0
 40
217.0
 40
217.0
 40
218.0
 40
218.0
 40
219.0
 40
219.0
 40
220.0
 40
220.0
 40
221.0
 40
221.0
 40
222.0
 40
222.0
 40
223.0
 40
223.0
 40
224.0
 40
224.0
 40
225.0
 40
225.0
 40
226.0
 40
226.0
 40
227.0
 40
227.0
 40
228.0
 40
228.0
 40
229.0
 40
229.0
 40
230.0
 40
230.0
 40
231.0
 40
231.0
 40
232.0
 40
232.0
 40
233.0
 40
233.0
 40
234.0
 40
234.0
 40
235.0
 40
235.0
 40
236.0
 40
236.0
 40
237.0
 40
237.0
 40
238.0
 40
238.0
 40
239.0
 40
239.0
 40
240.0
 40
240.0
 40
241.0
 40
241.0
 40
242.0
 40
242.0
 40
243.0
 40
243.0
 40
244.0
 40
244.0
 40
245.0
 40
245.0
 40
246.0
 40
246.0
 40
247.0
 40
247.0
 40
248.0
 40
248.0
 40
249.0
 40
249.0
 40
250.0
 40
250.0
 40
251.0
 40
251.0
 40
252.0
 40
252.0
 40
253.0
 40
253.0
 40
254.0
 40
254.0
 40
255.0
 40
255.0
 40
256.0
 40
256.0
 40
257.0
 40
257.0
 40
258.0
 40
258.0
 40
259.0
 40
259.0
 40
260.0
 40
260.0
 40
261.0
 40
261.0
 40
262.0
 40
262.0
 40
263.0
 40
263.0
 40
264.0
 40
264.0
 40
265.0
 40
265.0
 40
266.0
 40
266.0
 40
267.0
 40
267.0
 40
268.0
 40
268.0
 40
269.0
 40
269.0
 40
270.0
 40
270.0
 40
271.0
 40
271.0
 40
272.0
 40
272.0
 40
273.0
 40
273.0
 40
274.0
 40
274.0
 40
275.0
 40
275.0
 40
276.0
 40
276.0
 40
277.0
 40
277.0
 40
278.0
 40
278.0
 40
279.0
 40
279.0
 40
280.0
 40
280.0
 40
281.0
 40
281.0
 40
282.0
 40
282.0
 40
283.0
 40
283.0
 40
284.0
 40
284.0
 40
285.0
 40
285.0
 40
286.0
 40
286.0
 40
287.0
 40
287.0
 40
288.0
 40
288.0
 40
289.0
 40
289.0
 40
290.0
 40
290.0
 40
291.0
 40
291.0
 40
292.0
 40
292.0
 40
293.0
 40
293.0
 40
294.0
 40
294.0
 40
295.0
 40
295.0
 40
296.0
 40
296.0
 40
297.0
 40
297.0
 40
298.0
 40
298.0
 40
299.0
 40
299.0
 40
300.0
 40
300.0
 40
301.0
 40
301.0
 40
302.0
 40
302.0
 40
303.0
 40
303.0
 40
304.0
 40
304.0
 40
305.0
 40
305.0
 40
306.0
 40
306.0
 40
307.0
 40
307.0
 40
308.0
 40
308.0
 40
309.0
 40
309.0
 40
310.0
 40
310.0
 40
311.0
 40
311.0
 40
312.0
 40
312.0
 40
313.0
 40
313.0
 40
314.0
 40
314.0
 40
315.0
 40
315.0
 40
316.0
 40
316.0
 40
317.0
 40
317.0
 40
318.0
 40
318.0
 40
319.0
 40
319.0
 40
320.0
 40
320.0
 40
321.0
 40
321.0
 40
322.0
 40
322.0
 40
323.0
 40
323.0
 40
324.0
 40
324.0
 40
325.0
 40
325.0
 40
326.0
 40
326.0
 40
327.0
 40
327.0
 40
328.0
 40
328.0
 40
329.0
 40
329.0
 40
330.0
 40
330.0
 40
331.0
 40
331.0
 40
332.0
 40
332.0
 40
333.0
 40
333.0
 40
334.0
 40
334.0
 40
335.0
 40
335.0
 40
336.0
 40
336.0
 40
337.0
 40
337.0
 40
338.0
 40
338.0
 40
339.0
 40
339.0
 40
340.0
 40
340.0
 40
341.0
 40
341.0
 40
342.0
 40
342.0
 40
343.0
 40
343.0
 40
344.0
 40
344.0
 40
345.0
 40
345.0
 40
346.0
 40
346.0
 40
347.0
 40
347.0
 40
348.0
 40
348.0
 40
349.0
 40
349.0
 40
350.0
 40
350.0
 40
351.0
 40
351.0
 40
352.0
 40
352.0
 40
353.0
 40
353.0
 40
354.0
 40
354.0
 40
355.0
 40
355.0
 40
356.0
 40
356.0
 40
357.0
 40
357.0
 40
358.0
 40
358.0
 40
359.0
 40
359.0
 40
360.0
 40
360.0
 40
361.0
 40
361.0
 40
362.0
 40
362.0
 40
363.0
 40
363.0
 40
364.0
 40
364.0
 40
365.0
 40
365.0
 40
366.0
 40
366.0
 40
367.0
 40
367.0
 40
368.0
 40
368.0
 40
369.0
 40
369.0
 40
370.0
 40
370.0
 40
371.0
 40
371.0
 40
372.0
 40
372.0
 40
373.0
 40
373.0
 40
374.0
 40
374.0
 40
375.0
 40
375.0
 40
376.0
 40
376.0
 40
377.0
 40
377.0
 40
378.0
 40
378.0
 40
379.0
 40
379.0
 40
380.0
 40
380.0
 40
381.0
 40
381.0
 40
382.0
 40
382.0
 40
383.0
 40
383.0
 40
384.0
 40
384.0
 40
385.0
 40
385.0
 40
386.0
 40
386.0
 40
387.0
 40
387.0
 40
388.0
 40
388.0
 40
389.0
 40
389.0
 40
389.0
 10
930.29987164881129
 20
-1289.1223289506006
 30
0.0
 41
1.0
 10
931.11829575753177
 20
-1289.1223289506006
 30
0.0
 41
1.0
 10
931.93671986625225
 20
-1289.1223289506006
 30
0.0
 41
1.0
 10
931.52296613073554
 20
-1290.4649552148503
 30
0.0
 41
1.0
 10
931.10921239521872
 20
-1291.8075814791
 30
0.0
 41
1.0
 10
931.12755189036329
 20
-1291.7788807062243
 30
0.0
 41
0.9999957264449635
 10
931.14605888718995
 20
-1291.7502876560802
 30
0.0
 41
1.0
 10
931.17648821134094
 20
-1291.7032747776832
 30
0.0
 41
1.0
 10
931.20691753549204
 20
-1291.6562618992862
 30
0.0
 41
1.0
 10
931.2862831805985
 20
-1291.5336430923819
 30
0.0
 41
0.9995394069080581
 10
931.3729415721516
 20
-1291.4160650306389
 30
0.0
 41
1.0
 10
931.40869843440998
 20
-1291.3675501380474
 30
0.0
 41
1.0
 10
931.44445529666837
 20
-1291.3190352454558
 30
0.0
 41
1.0
 10
931.57818196448693
 20
-1291.1375949703283
 30
0.0
 41
0.9994460617143366
 10
931.72368244577569
 20
-1290.9654525726778
 30
0.0
 41
1.0
 10
931.72807062675201
 20
-1290.9602608922937
 30
0.0
 41
1.0
 10
931.73245880772845
 20
-1290.9550692119094
 30
0.0
 41
1.0
 10
931.86918292706423
 20
-1290.7933101750275
 30
0.0
 41
0.9994359394934378
 10
932.01645715741506
 20
-1290.6410939738635
 30
0.0
 41
1.0
 10
932.0188405113704
 20
-1290.6386306434883
 30
0.0
 41
1.0
 10
932.02122386532574
 20
-1290.636167313113
 30
0.0
 41
1.0
 10
932.16373138776817
 20
-1290.4888777726972
 30
0.0
 41
0.9995293688567949
 10
932.31500306874864
 20
-1290.3506045605345
 30
0.0
 41
1.0
 10
932.33429682801216
 20
-1290.3329686748832
 30
0.0
 41
1.0
 10
932.35359058727568
 20
-1290.3153327892319
 30
0.0
 41
1.0
 10
932.46627474973195
 20
-1290.2123313483696
 30
0.0
 41
0.9997087614803569
 10
932.58379763868584
 20
-1290.1148870675727
 30
0.0
 41
1.0
 10
932.6029637118711
 20
-1290.0989954890565
 30
0.0
 41
1.0
 10
932.62212978505647
 20
-1290.0831039105406
 30
0.0
 41
1.0
 10
932.70132052764779
 20
-1290.0174427867692
 30
0.0
 41
0.9999595338701152
 10
932.78167979849604
 20
-1289.9532170561197
 30
0.0
 41
1.0
 10
932.86203906936078
 20
-1289.8889913254575
 30
0.0
 41
0.9999749417497325
 10
932.94329960370794
 20
-1289.8259097715081
 30
0.0
 41
1.0
 10
932.96428574986498
 20
-1289.8096184842107
 30
0.0
 41
1.0
 10
932.98527189602214
 20
-1289.7933271969132
 30
0.0
 41
1.0
 10
933.06983978132359
 20
-1289.7276781870726
 30
0.0
 41
0.9999792037126249
 10
933.15524738109707
 20
-1289.6631254054259
 30
0.0
 41
1.0
 10
933.17607220707259
 20
-1289.6473855831196
 30
0.0
 41
1.0
 10
933.19689703304812
 20
-1289.6316457608134
 30
0.0
 41
1.0
 10
933.2406549809275
 20
-1289.5985726237361
 30
0.0
 41
0.9999993373911212
 10
933.28433666700971
 20
-1289.5653988283582
 30
0.0
 41
1.0
 10
933.32801835315365
 20
-1289.5322250329336
 30
0.0
 41
0.9999160953814502
 10
933.37254476407406
 20
-1289.5001939677347
 30
0.0
 41
1.0
 10
933.40536665149284
 20
-1289.4765828121504
 30
0.0
 41
1.0
 10
933.4381885389115
 20
-1289.4529716565662
 30
0.0
 41
1.0
 10
933.54835872467049
 20
-1289.3737182801979
 30
0.0
 41
0.9980964527231465
 10
933.66744771817071
 20
-1289.3086308073423
 30
0.0
 41
1.0
 10
933.70448032510012
 20
-1289.2883908277486
 30
0.0
 41
1.0
 10
933.74151293202942
 20
-1289.2681508481546
 30
0.0
 41
1.0
 10
933.92083994530083
 20
-1289.1701405974543
 30
0.0
 41
0.9984572810572661
 10
934.10992851165884
 20
-1289.0926183361084
 30
0.0
 41
1.0
 10
934.11357478105367
 20
-1289.0911234437708
 30
0.0
 41
1.0
 10
934.11722105044851
 20
-1289.0896285514334
 30
0.0
 41
1.0
 10
934.29901707801673
 20
-1289.0150960747624
 30
0.0
 41
0.9987838528033862
 10
934.48726973657699
 20
-1288.9588304345962
 30
0.0
 41
1.0
 10
934.4915076857742
 20
-1288.9575637809064
 30
0.0
 41
1.0
 10
934.49574563497151
 20
-1288.9562971272167
 30
0.0
 41
1.0
 10
934.67552239513429
 20
-1288.9025647944309
 30
0.0
 41
0.9990652816207043
 10
934.85926832685209
 20
-1288.8645611148884
 30
0.0
 41
1.0
 10
934.86445672788182
 20
-1288.8634880117822
 30
0.0
 41
1.0
 10
934.86964512891166
 20
-1288.8624149086761
 30
0.0
 41
1.0
 10
935.04301425856613
 20
-1288.8265574353466
 30
0.0
 41
0.9992909934270049
 10
935.21859002502629
 20
-1288.8038470028798
 30
0.0
 41
1.0
 10
935.39416579148281
 20
-1288.7811365704133
 30
0.0
 41
0.9994553539448754
 10
935.57085722457441
 20
-1288.7700572662072
 30
0.0
 41
1.0
 10
935.60629163237218
 20
-1288.7678353781594
 30
0.0
 41
1.0
 10
935.64172604016983
 20
-1288.7656134901115
 30
0.0
 41
1.0
 10
935.80795180673897
 20
-1288.7551904276997
 30
0.0
 41
0.9990928098293119
 10
935.97446159864103
 20
-1288.7589500689342
 30
0.0
 41
1.0
 10
936.01302343391262
 20
-1288.7598207604672
 30
0.0
 41
1.0
 10
936.05158526918422
 20
-1288.7606914520002
 30
0.0
 41
1.0
 10
936.14097139054343
 20
-1288.7627097101688
 30
0.0
 41
0.9998382089205965
 10
936.23022707332984
 20
-1288.767941836697
 30
0.0
 41
1.0
 10
936.23065697954962
 20
-1288.7679670375992
 30
0.0
 41
1.0
 10
936.2310868857694
 20
-1288.7679922385014
 30
0.0
 41
1.0
 10
936.31948275611592
 20
-1288.773173963225
 30
0.0
 41
0.9997558016758341
 10
936.40756333331683
 20
-1288.7822564785915
 30
0.0
 41
1.0
 10
936.40803947174948
 20
-1288.7823055760746
 30
0.0
 41
1.0
 10
936.40851561018212
 20
-1288.7823546735574
 30
0.0
 41
1.0
 10
936.4956439105207
 20
-1288.7913389939583
 30
0.0
 41
0.9996565144182291
 10
936.58218176385981
 20
-1288.8048763006468
 30
0.0
 41
1.0
 10
936.58264768923573
 20
-1288.8049491863781
 30
0.0
 41
1.0
 10
936.58311361461176
 20
-1288.8050220721091
 30
0.0
 41
1.0
 10
936.66871961720017
 20
-1288.8184136073355
 30
0.0
 41
0.9995321806867199
 10
936.75334669752976
 20
-1288.8370140957652
 30
0.0
 41
1.0
 10
936.75373589210267
 20
-1288.8370996382314
 30
0.0
 41
1.0
 10
936.75412508667546
 20
-1288.8371851806974
 30
0.0
 41
1.0
 10
936.83797377785879
 20
-1288.8556145841949
 30
0.0
 41
0.9993819199219466
 10
936.92032031205395
 20
-1288.8798899674553
 30
0.0
 41
1.0
 10
936.92055874555172
 20
-1288.8799602565646
 30
0.0
 41
1.0
 10
936.92079717904949
 20
-1288.8800305456739
 30
0.0
 41
1.0
 10
937.00266684624944
 20
-1288.9041653507154
 30
0.0
 41
0.9992088568504867
 10
937.0823593652384
 20
-1288.9347305865103
 30
0.0
 41
1.0
 10
937.16204035611736
 20
-1288.9652901872435
 30
0.0
 41
0.9990226101773279
 10
937.23871102602459
 20
-1289.0027676188579
 30
0.0
 41
1.0
 10
937.31537016782215
 20
-1289.040239415411
 30
0.0
 41
0.9988424273972592
 10
937.38807379503442
 20
-1289.084904190664
 30
0.0
 41
1.0
 10
937.38834150341404
 20
-1289.0850686547365
 30
0.0
 41
1.0
 10
937.38860921179366
 20
-1289.0852331188089
 30
0.0
 41
1.0
 10
937.46184825576483
 20
-1289.1302268222064
 30
0.0
 41
0.9986928844490697
 10
937.53011112247441
 20
-1289.1824625564859
 30
0.0
 41
1.0
 10
937.53069241469711
 20
-1289.1829073697138
 30
0.0
 41
1.0
 10
937.53127370691982
 20
-1289.1833521829417
 30
0.0
 41
1.0
 10
937.6006991580748
 20
-1289.2364775436768
 30
0.0
 41
0.9986007262277985
 10
937.66412532784125
 20
-1289.2966383133701
 30
0.0
 41
1.0
 10
937.66501974329879
 20
-1289.2974866812056
 30
0.0
 41
1.0
 10
937.66591415875632
 20
-1289.2983350490408
 30
0.0
 41
1.0
 10
937.73112915943818
 20
-1289.3601925544051
 30
0.0
 41
0.9985581491381195
 10
937.78933677113935
 20
-1289.4286850446763
 30
0.0
 41
1.0
 10
937.79859522473498
 20
-1289.4395794023781
 30
0.0
 41
1.0
 10
937.80785367833073
 20
-1289.4504737600796
 30
0.0
 41
1.0
 10
937.8845781972243
 20
-1289.540754965755
 30
0.0
 41
0.9970460233520636
 10
937.9465700983842
 20
-1289.6417220499372
 30
0.0
 41
1.0
 10
937.96103946346375
 20
-1289.6652885090184
 30
0.0
 41
1.0
 10
937.9755088285433
 20
-1289.6888549680998
 30
0.0
 41
1.0
 10
938.01524552855506
 20
-1289.753574692131
 30
0.0
 41
0.9988468816637008
 10
938.0485918993063
 20
-1289.8218071445581
 30
0.0
 41
1.0
 10
938.05562792179842
 20
-1289.8362040656966
 30
0.0
 41
1.0
 10
938.06266394429053
 20
-1289.8506009868354
 30
0.0
 41
1.0
 10
938.08193827005812
 20
-1289.8900395969865
 30
0.0
 41
0.9998431189996929
 10
938.09980359755286
 20
-1289.9301361514265
 30
0.0
 41
1.0
 10
938.11766892506489
 20
-1289.9702327059058
 30
0.0
 41
0.9999989989972418
 10
938.13564764850821
 20
-1290.010278543537
 30
0.0
 41
1.0
 10
938.14181996008324
 20
-1290.0240267603067
 30
0.0
 41
1.0
 10
938.14799227165827
 20
-1290.0377749770764
 30
0.0
 41
1.0
 10
938.17831561826631
 20
-1290.1053172482793
 30
0.0
 41
0.999879035632118
 10
938.20652349840441
 20
-1290.1737700002172
 30
0.0
 41
1.0
 10
938.21335867969003
 20
-1290.1903571016478
 30
0.0
 41
1.0
 10
938.22019386097566
 20
-1290.2069442030784
 30
0.0
 41
1.0
 10
938.24375152335676
 20
-1290.2641121579659
 30
0.0
 41
0.9998227574560588
 10
938.26514027174494
 20
-1290.3221264662402
 30
0.0
 41
1.0
 10
938.28652902013471
 20
-1290.3801407745193
 30
0.0
 41
0.9996797971041512
 10
938.30495530509313
 20
-1290.4391628936348
 30
0.0
 41
1.0
 10
938.30885910781876
 20
-1290.4516673518042
 30
0.0
 41
1.0
 10
938.31276291054451
 20
-1290.4641718099738
 30
0.0
 41
1.0
 10
938.33899680095487
 20
-1290.5482028454298
 30
0.0
 41
0.9979274938734355
 10
938.35422132443409
 20
-1290.6349072040903
 30
0.0
 41
1.0
 10
938.35644501169509
 20
-1290.6475712049105
 30
0.0
 41
1.0
 10
938.35866869895608
 20
-1290.6602352057305
 30
0.0
 41
1.0
 10
938.36959863865457
 20
-1290.7224817130216
 30
0.0
 41
0.999498598213714
 10
938.37656680383157
 20
-1290.7852952141648
 30
0.0
 41
1.0
 10
938.38353496900834
 20
-1290.848108715302
 30
0.0
 41
0.9996372611201243
 10
938.38711083477608
 20
-1290.9112062939844
 30
0.0
 41
1.0
 10
938.38727941226557
 20
-1290.9141809110688
 30
0.0
 41
1.0
 10
938.38744798975495
 20
-1290.9171555281532
 30
0.0
 41
1.0
 10
938.39136101050144
 20
-1290.9862023409987
 30
0.0
 41
0.9997730630736228
 10
938.39232932398932
 20
-1291.0553531650319
 30
0.0
 41
1.0
 10
938.39238643040744
 20
-1291.0594313441745
 30
0.0
 41
1.0
 10
938.39244353682557
 20
-1291.0635095233172
 30
0.0
 41
1.0
 10
938.39352606314969
 20
-1291.1408167056397
 30
0.0
 41
0.9998772614072116
 10
938.39218597641809
 20
-1291.2181198522014
 30
0.0
 41
1.0
 10
938.39209671321942
 20
-1291.2232690160354
 30
0.0
 41
1.0
 10
938.39200745002063
 20
-1291.2284181798693
 30
0.0
 41
1.0
 10
938.39048883689111
 20
-1291.3160196541119
 30
0.0
 41
0.9999415567331412
 10
938.38707652664527
 20
-1291.4035678157845
 30
0.0
 41
1.0
 10
938.3868352059701
 20
-1291.4097592755188
 30
0.0
 41
1.0
 10
938.38659388529481
 20
-1291.4159507352533
 30
0.0
 41
1.0
 10
938.38269893369886
 20
-1291.5158818163943
 30
0.0
 41
0.9999716810429059
 10
938.37730035057996
 20
-1291.6157429546276
 30
0.0
 41
1.0
 10
938.37408755179115
 20
-1291.6751722042859
 30
0.0
 41
1.0
 10
938.37087475300234
 20
-1291.7346014539442
 30
0.0
 41
1.0
 10
938.36280084384907
 20
-1291.8839498552352
 30
0.0
 41
0.9999819129914191
 10
938.35293105223286
 20
-1292.0331903329388
 30
0.0
 41
1.0
 10
938.34306126061631
 20
-1292.1824308106502
 30
0.0
 41
1.0
 10
938.34062194005242
 20
-1292.2196238564995
 30
0.0
 41
1.0
 10
938.36332017385212
 20
-1292.1808828592225
 30
0.0
 41
0.9999982128158768
 10
938.38616473258503
 20
-1292.1422279653029
 30
0.0
 41
1.0
 10
938.41307429249673
 20
-1292.0966947512022
 30
0.0
 41
1.0
 10
938.43998385240855
 20
-1292.0511615371015
 30
0.0
 41
1.0
 10
938.51664753093371
 20
-1291.9214402150326
 30
0.0
 41
0.9998609190058981
 10
938.59759484379924
 20
-1291.7943478330976
 30
0.0
 41
1.0
 10
938.62724316527749
 20
-1291.7477981001459
 30
0.0
 41
1.0
 10
938.65689148675574
 20
-1291.7012483671942
 30
0.0
 41
1.0
 10
938.7391637069951
 20
-1291.5720757971953
 30
0.0
 41
0.9999067609731702
 10
938.82493271646081
 20
-1291.4451981077518
 30
0.0
 41
1.0
 10
938.82733741966513
 20
-1291.4416408416919
 30
0.0
 41
1.0
 10
938.82974212286945
 20
-1291.4380835756322
 30
0.0
 41
1.0
 10
938.91070172592958
 20
-1291.3183204183038
 30
0.0
 41
0.9998784952151018
 10
938.99535533560618
 20
-1291.2011392016016
 30
0.0
 41
1.0
 10
939.08000894528914
 20
-1291.083957984891
 30
0.0
 41
0.9998532968284247
 10
939.16862656611295
 20
-1290.969745076419
 30
0.0
 41
1.0
 10
939.18858835510332
 20
-1290.9440177553997
 30
0.0
 41
1.0
 10
939.20855014409381
 20
-1290.9182904343804
 30
0.0
 41
1.0
 10
939.32703419385189
 20
-1290.7655848234131
 30
0.0
 41
0.9991551975795382
 10
939.45765864347482
 20
-1290.6231252613302
 30
0.0
 41
1.0
 10
939.46116825945796
 20
-1290.6192976597022
 30
0.0
 41
1.0
 10
939.46467787544111
 20
-1290.6154700580742
 30
0.0
 41
1.0
 10
939.58828309310161
 20
-1290.4806656992434
 30
0.0
 41
0.9997418144180776
 10
939.71788523279884
 20
-1290.3516162886342
 30
0.0
 41
1.0
 10
939.84748737249856
 20
-1290.2225668780225
 30
0.0
 41
0.9989238204632881
 10
939.98848992074863
 20
-1290.1060819159845
 30
0.0
 41
1.0
 10
940.03373759889155
 20
-1290.068701924373
 30
0.0
 41
1.0
 10
940.07898527703435
 20
-1290.0313219327616
 30
0.0
 41
1.0
 10
940.21922533425413
 20
-1289.9154668794722
 30
0.0
 41
0.9990825084096954
 10
940.36886526685498
 20
-1289.8120378816416
 30
0.0
 41
1.0
 10
940.37891063091308
 20
-1289.8050946685612
 30
0.0
 41
1.0
 10
940.38895599497118
 20
-1289.7981514554808
 30
0.0
 41
1.0
 10
940.51850519945867
 20
-1289.7086088838087
 30
0.0
 41
0.9998164899825629
 10
940.65138940283521
 20
-1289.6240946422922
 30
0.0
 41
1.0
 10
940.66323496335917
 20
-1289.6165608757678
 30
0.0
 41
1.0
 10
940.67508052388314
 20
-1289.6090271092435
 30
0.0
 41
1.0
 10
940.78427360621083
 20
-1289.539580400776
 30
0.0
 41
0.9997473449130689
 10
940.89647756346085
 20
-1289.47511144296
 30
0.0
 41
1.0
 10
941.00868152070495
 20
-1289.4106424851473
 30
0.0
 41
0.999932786114679
 10
941.12235013146881
 20
-1289.3487924934657
 30
0.0
 41
1.0
 10
941.12290213403207
 20
-1289.3484921347851
 30
0.0
 41
1.0
 10
941.12345413659523
 20
-1289.3481917761046
 30
0.0
 41
1.0
 10
941.23822675248164
 20
-1289.2857410670642
 30
0.0
 41
0.9996956420484265
 10
941.35594007832333
 20
-1289.2290276000888
 30
0.0
 41
1.0
 10
941.38638048321604
 20
-1289.2143616233589
 30
0.0
 41
1.0
 10
941.41682088810865
 20
-1289.1996956466289
 30
0.0
 41
1.0
 10
941.51979799485105
 20
-1289.150081988186
 30
0.0
 41
0.9998070570176726
 10
941.6246443837905
 20
-1289.1045514012858
 30
0.0
 41
1.0
 10
941.72949077272949
 20
-1289.0590208143853
 30
0.0
 41
0.9997827436147982
 10
941.83614370933537
 20
-1289.0178996430752
 30
0.0
 41
1.0
 10
941.85536655896976
 20
-1289.0104880694416
 30
0.0
 41
1.0
 10
941.87458940860415
 20
-1289.003076495808
 30
0.0
 41
1.0
 10
942.01968804447711
 20
-1288.9471321772312
 30
0.0
 41
0.9988031841976705
 10
942.16955840708192
 20
-1288.9056321130633
 30
0.0
 41
1.0
 10
942.1944756554459
 20
-1288.8987323672563
 30
0.0
 41
1.0
 10
942.21939290380988
 20
-1288.8918326214493
 30
0.0
 41
1.0
 10
942.38666292945641
 20
-1288.8455144790428
 30
0.0
 41
0.9984748040550251
 10
942.55801983810409
 20
-1288.8179202467782
 30
0.0
 41
1.0
 10
942.56275897435319
 20
-1288.8171570862646
 30
0.0
 41
1.0
 10
942.56749811060229
 20
-1288.8163939257513
 30
0.0
 41
1.0
 10
942.72937674675313
 20
-1288.7903260145133
 30
0.0
 41
0.9984436495479865
 10
942.89315149047775
 20
-1288.7824480606946
 30
0.0
 41
1.0
 10
942.91484869860903
 20
-1288.781404373495
 30
0.0
 41
1.0
 10
942.93654590674032
 20
-1288.7803606862954
 30
0.0
 41
1.0
 10
943.05692623420248
 20
-1288.7745701068759
 30
0.0
 41
0.9987954789335237
 10
943.17729447911233
 20
-1288.7806066346182
 30
0.0
 41
1.0
 10
943.19725927160812
 20
-1288.7816078789569
 30
0.0
 41
1.0
 10
943.21722406410402
 20
-1288.7826091232955
 30
0.0
 41
1.0
 10
943.29766272402355
 20
-1288.7866431623606
 30
0.0
 41
0.9997941595876596
 10
943.37787150211659
 20
-1288.7939372282815
 30
0.0
 41
1.0
 10
943.45808028021474
 20
-1288.801231294203
 30
0.0
 41
0.9998589466238764
 10
943.53799882707324
 20
-1288.8112151486534
 30
0.0
 41
1.0
 10
943.57040502887787
 20
-1288.8152635055721
 30
0.0
 41
1.0
 10
943.60281123068251
 20
-1288.8193118624911
 30
0.0
 41
1.0
 10
943.74754218115129
 20
-1288.8373924307791
 30
0.0
 41
0.9993495063249205
 10
943.8905934249143
 20
-1288.8658581405202
 30
0.0
 41
1.0
 10
943.9235271220673
 20
-1288.8724116037351
 30
0.0
 41
1.0
 10
943.9564608192203
 20
-1288.8789650669503
 30
0.0
 41
1.0
 10
944.06575464242678
 20
-1288.9007134010858
 30
0.0
 41
0.9996788715560496
 10
944.17380621438463
 20
-1288.9279712004493
 30
0.0
 41
1.0
 10
944.17586921692441
 20
-1288.9284916270224
 30
0.0
 41
1.0
 10
944.1779322194642
 20
-1288.9290120535954
 30
0.0
 41
1.0
 10
944.28185778634236
 20
-1288.9552289998128
 30
0.0
 41
0.9995480654492276
 10
944.38402002157045
 20
-1288.9876439564368
 30
0.0
 41
1.0
 10
944.38570966369957
 20
-1288.9881800613507
 30
0.0
 41
1.0
 10
944.38739930582869
 20
-1288.9887161662648
 30
0.0
 41
1.0
 10
944.48618225680048
 20
-1289.0200589130613
 30
0.0
 41
0.9993867959456048
 10
944.58252941524245
 20
-1289.0582382823509
 30
0.0
 41
1.0
 10
944.58377236432659
 20
-1289.0587308242468
 30
0.0
 41
1.0
 10
944.58501531341074
 20
-1289.0592233661428
 30
0.0
 41
1.0
 10
944.6788765736834
 20
-1289.09641765164
 30
0.0
 41
0.9992050256521992
 10
944.76947624871832
 20
-1289.1409715508794
 30
0.0
 41
1.0
 10
944.77021093143162
 20
-1289.1413328433407
 30
0.0
 41
1.0
 10
944.77094561414503
 20
-1289.141694135802
 30
0.0
 41
1.0
 10
944.86007592375188
 20
-1289.1855254501181
 30
0.0
 41
0.999022235074129
 10
944.94498598514542
 20
-1289.2370587178166
 30
0.0
 41
1.0
 10
944.94516987042812
 20
-1289.2371703207214
 30
0.0
 41
1.0
 10
944.94535375571081
 20
-1289.2372819236261
 30
0.0
 41
1.0
 10
945.02989604653919
 20
-1289.2885919855148
 30
0.0
 41
0.9988642743805237
 10
945.10917058115797
 20
-1289.34771617304
 30
0.0
 41
1.0
 10
945.18844511577709
 20
-1289.4068403605654
 30
0.0
 41
0.9987681233311242
 10
945.26146890005339
 20
-1289.4735310519661
 30
0.0
 41
1.0
 10
945.2617978280191
 20
-1289.4738314531801
 30
0.0
 41
1.0
 10
945.26212675598481
 20
-1289.4741318543943
 30
0.0
 41
1.0
 10
945.33580839619231
 20
-1289.5414233482234
 30
0.0
 41
0.9987496570898801
 10
945.40240220151941
 20
-1289.61573616231
 30
0.0
 41
1.0
 10
945.40317437127999
 20
-1289.616597835668
 30
0.0
 41
1.0
 10
945.40394654104057
 20
-1289.617459509026
 30
0.0
 41
1.0
 10
945.47208468588781
 20
-1289.6934956698271
 30
0.0
 41
0.9988147669826533
 10
945.53250694011274
 20
-1289.7757966766696
 30
0.0
 41
1.0
 10
945.53362626619094
 20
-1289.7773213080227
 30
0.0
 41
1.0
 10
945.53474559226913
 20
-1289.778845939376
 30
0.0
 41
1.0
 10
945.59740649864955
 20
-1289.8641962089234
 30
0.0
 41
0.9989452636216141
 10
945.65197341161104
 20
-1289.9549348980813
 30
0.0
 41
1.0
 10
945.6533221376967
 20
-1289.9571776791074
 30
0.0
 41
1.0
 10
945.65467086378226
 20
-1289.9594204601335
 30
0.0
 41
1.0
 10
945.71193522891485
 20
-1290.0546447113436
 30
0.0
 41
0.9991046436070412
 10
945.76094444223747
 20
-1290.154369144371
 30
0.0
 41
1.0
 10
945.76240830382699
 20
-1290.1573478244427
 30
0.0
 41
1.0
 10
945.76387216541661
 20
-1290.1603265045142
 30
0.0
 41
1.0
 10
945.81580910191849
 20
-1290.2660082976856
 30
0.0
 41
0.9992763831101611
 10
945.85956223047424
 20
-1290.3753323596425
 30
0.0
 41
1.0
 10
945.86104150013716
 20
-1290.379028547175
 30
0.0
 41
1.0
 10
945.86252076980008
 20
-1290.3827247347078
 30
0.0
 41
1.0
 10
945.90923243768168
 20
-1290.4994411717312
 30
0.0
 41
0.9994163472884043
 10
945.94786546887065
 20
-1290.6190747601922
 30
0.0
 41
1.0
 10
945.94910362111807
 20
-1290.6229089039771
 30
0.0
 41
1.0
 10
945.95034177336549
 20
-1290.6267430477619
 30
0.0
 41
1.0
 10
945.99022533438188
 20
-1290.7502491092373
 30
0.0
 41
0.9997268055891129
 10
946.02429339029436
 20
-1290.8754841411896
 30
0.0
 41
1.0
 10
946.02522357056375
 20
-1290.8789035072978
 30
0.0
 41
1.0
 10
946.02615375083315
 20
-1290.8823228734061
 30
0.0
 41
1.0
 10
946.05836144620616
 20
-1291.0007191731395
 30
0.0
 41
0.9996701319000749
 10
946.08444706297678
 20
-1291.1206131264039
 30
0.0
 41
1.0
 10
946.11053267974785
 20
-1291.2405070796699
 30
0.0
 41
0.9995785451109355
 10
946.12961625708795
 20
-1291.3617128407045
 30
0.0
 41
1.0
 10
946.13383603926115
 20
-1291.3885139954664
 30
0.0
 41
1.0
 10
946.13805582143436
 20
-1291.415315150228
 30
0.0
 41
1.0
 10
946.16463079737321
 20
-1291.5841011239327
 30
0.0
 41
0.9979925101216325
 10
946.16965638329941
 20
-1291.7548924520236
 30
0.0
 41
1.0
 10
946.17048119572405
 20
-1291.7829231755049
 30
0.0
 41
1.0
 10
946.17130600814869
 20
-1291.8109538989861
 30
0.0
 41
1.0
 10
946.17468196922584
 20
-1291.9256837801149
 30
0.0
 41
0.9995314902263194
 10
946.17103177708725
 20
-1292.0404052638673
 30
0.0
 41
1.0
 10
946.16738158494866
 20
-1292.1551267476186
 30
0.0
 41
0.9996245486944176
 10
946.15745248981796
 20
-1292.2694760187433
 30
0.0
 41
1.0
 10
946.15728944182365
 20
-1292.2713537748784
 30
0.0
 41
1.0
 10
946.15712639382946
 20
-1292.2732315310136
 30
0.0
 41
1.0
 10
946.14687120270969
 20
-1292.3913363144102
 30
0.0
 41
0.9997286095000868
 10
946.13112587913815
 20
-1292.5088352233058
 30
0.0
 41
1.0
 10
946.13073238648803
 20
-1292.5117716480063
 30
0.0
 41
1.0
 10
946.13033889383792
 20
-1292.5147080727065
 30
0.0
 41
1.0
 10
946.11380658496682
 20
-1292.638079830999
 30
0.0
 41
0.9998265533969816
 10
946.09269112623417
 20
-1292.7607503057873
 30
0.0
 41
1.0
 10
946.09201458409643
 20
-1292.7646806842977
 30
0.0
 41
1.0
 10
946.09133804195881
 20
-1292.7686110628083
 30
0.0
 41
1.0
 10
946.06886949895136
 20
-1292.8991422946146
 30
0.0
 41
0.9999022530851953
 10
946.0427600343412
 20
-1293.0289942632542
 30
0.0
 41
1.0
 10
946.04178139317628
 20
-1293.0338614056395
 30
0.0
 41
1.0
 10
946.04080275201125
 20
-1293.0387285480249
 30
0.0
 41
1.0
 10
946.01273600506806
 20
-1293.1783148014492
 30
0.0
 41
0.9999524761938338
 10
945.98195303623356
 20
-1293.3173272946128
 30
0.0
 41
1.0
 10
945.9806769290592
 20
-1293.3230900539102
 30
0.0
 41
1.0
 10
945.97940082188484
 20
-1293.3288528132075
 30
0.0
 41
1.0
 10
945.94606563869854
 20
-1293.479390824979
 30
0.0
 41
0.9999813588717741
 10
945.91089463790593
 20
-1293.6295105376216
 30
0.0
 41
1.0
 10
945.90934071244806
 20
-1293.6361431280493
 30
0.0
 41
1.0
 10
945.9077867869903
 20
-1293.6427757184772
 30
0.0
 41
1.0
 10
945.86950793528104
 20
-1293.8061606119791
 30
0.0
 41
0.9999955237627469
 10
945.8302520572995
 20
-1293.9693135155901
 30
0.0
 41
1.0
 10
945.81797042166579
 20
-1294.0203577061102
 30
0.0
 41
1.0
 10
945.80568878603208
 20
-1294.0714018966305
 30
0.0
 41
1.0
 10
945.74186963678403
 20
-1294.3366431812779
 30
0.0
 41
0.9999993604774109
 10
945.67745068963688
 20
-1294.6017394318762
 30
0.0
 41
1.0
 10
945.67273185407885
 20
-1294.6211583399622
 30
0.0
 41
1.0
 10
945.66801301852081
 20
-1294.640577248048
 30
0.0
 41
1.0
 10
945.5941564002577
 20
-1294.9445113148172
 30
0.0
 41
0.9999659914736995
 10
945.51529680437352
 20
-1295.2471858613721
 30
0.0
 41
1.0
 10
945.51034411544367
 20
-1295.2661949985516
 30
0.0
 41
1.0
 10
945.50539142651382
 20
-1295.285204135731
 30
0.0
 41
1.0
 10
945.41662645276983
 20
-1295.6258969566452
 30
0.0
 41
0.9999441976030029
 10
945.32068341980698
 20
-1295.964638381942
 30
0.0
 41
1.0
 10
945.30398290138044
 20
-1296.0236020944731
 30
0.0
 41
1.0
 10
945.28728238295389
 20
-1296.0825658070044
 30
0.0
 41
1.0
 10
945.15793831314215
 20
-1296.5392346573487
 30
0.0
 41
0.9999625120733445
 10
945.02070554581849
 20
-1296.993595191346
 30
0.0
 41
1.0
 10
944.98491560272782
 20
-1297.1120912179986
 30
0.0
 41
1.0
 10
944.94912565963705
 20
-1297.2305872446509
 30
0.0
 41
1.0
 10
944.87460545560293
 20
-1297.4773143227299
 30
0.0
 41
0.9999793386319124
 10
944.79691943247121
 20
-1297.7230629619471
 30
0.0
 41
1.0
 10
944.7192334093337
 20
-1297.9688116011832
 30
0.0
 41
1.0
 10
944.708453850463
 20
-1298.0028295055579
 30
0.0
 41
1.0
 10
942.85808079719391
 20
-1303.8899014280255
 30
0.0
 41
1.0
 10
941.0077077439247
 20
-1309.7769733504929
 30
0.0
 41
1.0
 10
940.04645105390114
 20
-1309.7769733504929
 30
0.0
 41
1.0
 10
939.08519436387758
 20
-1309.7769733504929
 30
0.0
 41
1.0
 10
940.70413914255596
 20
-1304.6289448487034
 30
0.0
 41
1.0
 10
942.32308392123446
 20
-1299.480916346914
 30
0.0
 41
1.0
 10
942.36824974441424
 20
-1299.3368851246266
 30
0.0
 41
1.0
 10
942.41341556759403
 20
-1299.1928539023393
 30
0.0
 41
1.0
 10
942.58371998495204
 20
-1298.6497628731922
 30
0.0
 41
0.9999911657882764
 10
942.74945279662597
 20
-1298.1052593418481
 30
0.0
 41
1.0
 10
942.77914874012822
 20
-1298.0076954017918
 30
0.0
 41
1.0
 10
942.80884468363047
 20
-1297.9101314617353
 30
0.0
 41
1.0
 10
942.91518560830821
 20
-1297.560755810478
 30
0.0
 41
0.9999952428193707
 10
943.01936919763125
 20
-1297.2107307861347
 30
0.0
 41
1.0
 10
943.02442866795548
 20
-1297.1937325118874
 30
0.0
 41
1.0
 10
943.0294881382797
 20
-1297.1767342376399
 30
0.0
 41
1.0
 10
943.12355278694929
 20
-1296.8607057618078
 30
0.0
 41
0.9999931687465478
 10
943.21527862482981
 20
-1296.5439905485148
 30
0.0
 41
1.0
 10
943.22021388928897
 20
-1296.5269498392449
 30
0.0
 41
1.0
 10
943.22514915374813
 20
-1296.5099091299751
 30
0.0
 41
1.0
 10
943.30700446270043
 20
-1296.2272753352552
 30
0.0
 41
0.9999893840796624
 10
943.3862516891603
 20
-1295.9438992059977
 30
0.0
 41
1.0
 10
943.46549891561517
 20
-1295.6605230767584
 30
0.0
 41
0.9999833980091085
 10
943.54147515635339
 20
-1295.3762524937436
 30
0.0
 41
1.0
 10
943.55047909307996
 20
-1295.3425636152492
 30
0.0
 41
1.0
 10
943.55948302980642
 20
-1295.3088747367549
 30
0.0
 41
1.0
 10
943.62844757867265
 20
-1295.0508389044585
 30
0.0
 41
0.9999233658068563
 10
943.69100254989064
 20
-1294.7911747457447
 30
0.0
 41
1.0
 10
943.75355752111091
 20
-1294.5315105870222
 30
0.0
 41
1.0
 10
943.79304093996848
 20
-1294.3677039225961
 30
0.0
 41
1.0
 10
943.7980195439427
 20
-1294.347048960738
 30
0.0
 41
1.0
 10
943.80299814791704
 20
-1294.3263939988799
 30
0.0
 41
1.0
 10
943.83252435882378
 20
-1294.2038972581797
 30
0.0
 41
0.9999868670850101
 10
943.86079344282223
 20
-1294.0811043125245
 30
0.0
 41
1.0
 10
943.86469092998459
 20
-1294.064174725087
 30
0.0
 41
1.0
 10
943.86858841714707
 20
-1294.0472451376495
 30
0.0
 41
1.0
 10
943.8890625268225
 20
-1293.9583113668616
 30
0.0
 41
0.9999778173347331
 10
943.9083501249338
 20
-1293.8691127496486
 30
0.0
 41
1.0
 10
943.92763772305011
 20
-1293.7799141324151
 30
0.0
 41
0.9999602692868953
 10
943.94533208168241
 20
-1293.69038584398
 30
0.0
 41
1.0
 10
943.94853591375886
 20
-1293.6741753891001
 30
0.0
 41
1.0
 10
943.95173974583531
 20
-1293.6579649342204
 30
0.0
 41
1.0
 10
943.97584176862176
 20
-1293.536015736021
 30
0.0
 41
0.9995617985319965
 10
943.99268511584046
 20
-1293.4128539883136
 30
0.0
 41
1.0
 10
943.99514960574629
 20
-1293.3948331709507
 30
0.0
 41
1.0
 10
943.99761409565212
 20
-1293.3768123535879
 30
0.0
 41
1.0
 10
944.01789735670059
 20
-1293.2284973038857
 30
0.0
 41
0.9991121410639693
 10
944.0256227102891
 20
-1293.0790012050779
 30
0.0
 41
1.0
 10
944.02654150031367
 20
-1293.0612213685026
 30
0.0
 41
1.0
 10
944.02746029033813
 20
-1293.0434415319273
 30
0.0
 41
1.0
 10
944.03334806387716
 20
-1292.9295051062738
 30
0.0
 41
0.998979249490619
 10
944.02892897176002
 20
-1292.8155022703736
 30
0.0
 41
1.0
 10
944.02828099989142
 20
-1292.7987860244484
 30
0.0
 41
1.0
 10
944.02763302802293
 20
-1292.7820697785235
 30
0.0
 41
1.0
 10
944.02450987964278
 20
-1292.7014994344743
 30
0.0
 41
0.999782029539269
 10
944.01802588226701
 20
-1292.6211297127311
 30
0.0
 41
1.0
 10
944.01154188489159
 20
-1292.5407599909895
 30
0.0
 41
0.9998335105972758
 10
944.00212968938013
 20
-1292.4606803745417
 30
0.0
 41
1.0
 10
944.0005347647035
 20
-1292.4471106440565
 30
0.0
 41
1.0
 10
943.99893984002688
 20
-1292.4335409135711
 30
0.0
 41
1.0
 10
943.98633779516274
 20
-1292.326321836156
 30
0.0
 41
0.9996876457879326
 10
943.96839388236458
 20
-1292.2198664084415
 30
0.0
 41
1.0
 10
943.9661622192192
 20
-1292.206626673199
 30
0.0
 41
1.0
 10
943.96393055607382
 20
-1292.1933869379563
 30
0.0
 41
1.0
 10
943.95013473465247
 20
-1292.1115407939972
 30
0.0
 41
0.9995547496495519
 10
943.93148141275992
 20
-1292.0306632968056
 30
0.0
 41
1.0
 10
943.93110745588888
 20
-1292.0290418861014
 30
0.0
 41
1.0
 10
943.93073349901783
 20
-1292.0274204753969
 30
0.0
 41
1.0
 10
943.91282809086761
 20
-1291.9497857996155
 30
0.0
 41
0.9994899427175379
 10
943.89000318218791
 20
-1291.8734525167802
 30
0.0
 41
1.0
 10
943.8895446554468
 20
-1291.8719190669904
 30
0.0
 41
1.0
 10
943.88908612870569
 20
-1291.8703856172008
 30
0.0
 41
1.0
 10
943.86717827350833
 20
-1291.7971192339448
 30
0.0
 41
0.9993784877590231
 10
943.84016263840203
 20
-1291.7255785287866
 30
0.0
 41
1.0
 10
943.83963094742512
 20
-1291.724170546066
 30
0.0
 41
1.0
 10
943.83909925644821
 20
-1291.7227625633454
 30
0.0
 41
1.0
 10
943.81314700329528
 20
-1291.654037823627
 30
0.0
 41
0.9992430832254525
 10
943.78193046813612
 20
-1291.5875386715593
 30
0.0
 41
1.0
 10
943.7813483520797
 20
-1291.5862986164425
 30
0.0
 41
1.0
 10
943.78076623602328
 20
-1291.5850585613255
 30
0.0
 41
1.0
 10
943.75071393297685
 20
-1291.5210395194915
 30
0.0
 41
0.9990789632799295
 10
943.71528330620004
 20
-1291.4598329077414
 30
0.0
 41
1.0
 10
943.71468760001767
 20
-1291.4588038218817
 30
0.0
 41
1.0
 10
943.71409189383542
 20
-1291.457774736022
 30
0.0
 41
1.0
 10
943.67985267942231
 20
-1291.39862629599
 30
0.0
 41
0.9988874801120632
 10
943.64019340339132
 20
-1291.3429665835738
 30
0.0
 41
1.0
 10
943.63963787732769
 20
-1291.3421869319
 30
0.0
 41
1.0
 10
943.63908235126394
 20
-1291.3414072802259
 30
0.0
 41
1.0
 10
943.60053412736033
 20
-1291.2873068711574
 30
0.0
 41
0.998676206069311
 10
943.55663165608303
 20
-1291.237453156717
 30
0.0
 41
1.0
 10
943.55618769575131
 20
-1291.2369490149008
 30
0.0
 41
1.0
 10
943.55574373541958
 20
-1291.2364448730848
 30
0.0
 41
1.0
 10
943.51272918480731
 20
-1291.1875994422783
 30
0.0
 41
0.9984621642488807
 10
943.46457162802903
 20
-1291.1438161418066
 30
0.0
 41
1.0
 10
943.46432499351272
 20
-1291.1435919096434
 30
0.0
 41
1.0
 10
943.46407835899629
 20
-1291.14336767748
 30
0.0
 41
1.0
 10
943.41641407125087
 20
-1291.1000328413352
 30
0.0
 41
0.998272469385192
 10
943.36399543940979
 20
-1291.0625884908177
 30
0.0
 41
1.0
 10
943.31157680756894
 20
-1291.0251441403004
 30
0.0
 41
0.9981399180158652
 10
943.25499074417519
 20
-1290.9943576208568
 30
0.0
 41
1.0
 10
943.25494508209658
 20
-1290.9943327776996
 30
0.0
 41
1.0
 10
943.25489942001809
 20
-1290.9943079345423
 30
0.0
 41
1.0
 10
943.19822203246781
 20
-1290.9634717287845
 30
0.0
 41
0.9980927086837029
 10
943.13817668140155
 20
-1290.939854919932
 30
0.0
 41
1.0
 10
943.13773651168981
 20
-1290.9396817940569
 30
0.0
 41
1.0
 10
943.13729634197807
 20
-1290.939508668182
 30
0.0
 41
1.0
 10
943.07637065148765
 20
-1290.9155456075794
 30
0.0
 41
0.9981411356560805
 10
943.01298213008727
 20
-1290.8991729660736
 30
0.0
 41
1.0
 10
943.01210001338666
 20
-1290.8989451238683
 30
0.0
 41
1.0
 10
943.01121789668605
 20
-1290.898717281663
 30
0.0
 41
1.0
 10
942.9460651418832
 20
-1290.8818889557463
 30
0.0
 41
0.9983031812935216
 10
942.87939771288757
 20
-1290.87274959457
 30
0.0
 41
1.0
 10
942.87052668748595
 20
-1290.871533475899
 30
0.0
 41
1.0
 10
942.86165566208433
 20
-1290.870317357228
 30
0.0
 41
1.0
 10
942.80730601957862
 20
-1290.8628666272368
 30
0.0
 41
0.9983887708263813
 10
942.75246217028428
 20
-1290.8616219536034
 30
0.0
 41
1.0
 10
942.74439876507051
 20
-1290.8614389557285
 30
0.0
 41
1.0
 10
942.73633535985675
 20
-1290.8612559578537
 30
0.0
 41
1.0
 10
942.69761832099516
 20
-1290.86037727997
 30
0.0
 41
0.9998869563076511
 10
942.65889236778878
 20
-1290.8606631493296
 30
0.0
 41
1.0
 10
942.62016641454215
 20
-1290.8609490186896
 30
0.0
 41
0.9999972320166541
 10
942.58144223528654
 20
-1290.8614171182194
 30
0.0
 41
1.0
 10
942.562089218751
 20
-1290.8616510583083
 30
0.0
 41
1.0
 10
942.54273620221534
 20
-1290.8618849983973
 30
0.0
 41
1.0
 10
942.4653059898435
 20
-1290.862820978105
 30
0.0
 41
0.9997304945086707
 10
942.38800268360478
 20
-1290.867350071891
 30
0.0
 41
1.0
 10
942.3789530419017
 20
-1290.8678802778809
 30
0.0
 41
1.0
 10
942.3699034001985
 20
-1290.8684104838708
 30
0.0
 41
1.0
 10
942.2745008105511
 20
-1290.8739999896368
 30
0.0
 41
0.9997888306415476
 10
942.17940847470788
 20
-1290.8835049541262
 30
0.0
 41
1.0
 10
942.17068741313608
 20
-1290.8843766687583
 30
0.0
 41
1.0
 10
942.16196635156427
 20
-1290.8852483833903
 30
0.0
 41
1.0
 10
942.0494318925754
 20
-1290.8964967771435
 30
0.0
 41
0.998417023819027
 10
941.93887274522331
 20
-1290.9203128590796
 30
0.0
 41
1.0
 10
941.90249161423731
 20
-1290.9281498948856
 30
0.0
 41
1.0
 10
941.86611048325142
 20
-1290.9359869306916
 30
0.0
 41
1.0
 10
941.75091941483038
 20
-1290.960800797201
 30
0.0
 41
0.9976592854198687
 10
941.64019124842548
 20
-1291.0010994743484
 30
0.0
 41
1.0
 10
941.52946308201967
 20
-1291.0413981514957
 30
0.0
 41
0.9993255074351625
 10
941.42199128322716
 20
-1291.0897150499891
 30
0.0
 41
1.0
 10
941.41736610430507
 20
-1291.0917944261882
 30
0.0
 41
1.0
 10
941.4127409253831
 20
-1291.0938738023874
 30
0.0
 41
1.0
 10
941.29601876874528
 20
-1291.1463494532795
 30
0.0
 41
0.9976475078274926
 10
941.18757142443451
 20
-1291.214297442938
 30
0.0
 41
1.0
 10
941.16922903030127
 20
-1291.2257899217516
 30
0.0
 41
1.0
 10
941.15088663616814
 20
-1291.2372824005649
 30
0.0
 41
1.0
 10
941.06668444461548
 20
-1291.2900395213337
 30
0.0
 41
0.9995131336406915
 10
940.98593672965615
 20
-1291.3479457332883
 30
0.0
 41
1.0
 10
940.9051890146992
 20
-1291.405851945241
 30
0.0
 41
0.9995810107606254
 10
940.82792736697081
 20
-1291.4683336277067
 30
0.0
 41
1.0
 10
940.82495733576025
 20
-1291.4707354991715
 30
0.0
 41
1.0
 10
940.82198730454979
 20
-1291.4731373706363
 30
0.0
 41
1.0
 10
940.73878559440129
 20
-1291.5404227960312
 30
0.0
 41
0.9996617837954557
 10
940.65919490726583
 20
-1291.6119432515911
 30
0.0
 41
1.0
 10
940.6470641563883
 20
-1291.6228439845822
 30
0.0
 41
1.0
 10
940.63493340551065
 20
-1291.6337447175736
 30
0.0
 41
1.0
 10
940.56665787811448
 20
-1291.6950973330454
 30
0.0
 41
0.9997267750052974
 10
940.5013243698304
 20
-1291.7595738695713
 30
0.0
 41
1.0
 10
940.43599086154632
 20
-1291.8240504060968
 30
0.0
 41
0.9999667288965898
 10
940.37171791839887
 20
-1291.8895842129921
 30
0.0
 41
1.0
 10
940.30289047062433
 20
-1291.9597618717498
 30
0.0
 41
1.0
 10
940.2340630228498
 20
-1292.0299395305074
 30
0.0
 41
1.0
 10
940.03213518415453
 20
-1292.2358286549165
 30
0.0
 41
0.998820533517514
 10
939.85112956717626
 20
-1292.4603328869755
 30
0.0
 41
1.0
 10
939.82048960227019
 20
-1292.498336137407
 30
0.0
 41
1.0
 10
939.78984963736411
 20
-1292.5363393878388
 30
0.0
 41
1.0
 10
939.54756409057325
 20
-1292.8368501207617
 30
0.0
 41
0.9997077826754861
 10
939.32008613946687
 20
-1293.1487199149799
 30
0.0
 41
1.0
 10
939.31836272433793
 20
-1293.1510826983572
 30
0.0
 41
1.0
 10
939.31663930920899
 20
-1293.1534454817347
 30
0.0
 41
1.0
 10
939.08571452784452
 20
-1293.4700408427079
 30
0.0
 41
0.9989147567078999
 10
938.88525102496089
 20
-1293.8067503038924
 30
0.0
 41
1.0
 10
938.86050987965189
 20
-1293.8483068844484
 30
0.0
 41
1.0
 10
938.83576873434288
 20
-1293.8898634650043
 30
0.0
 41
1.0
 10
938.68055743570767
 20
-1294.1505648494535
 30
0.0
 41
0.9997476598181253
 10
938.53721244819849
 20
-1294.417974598035
 30
0.0
 41
1.0
 10
938.39386746068806
 20
-1294.685384346619
 30
0.0
 41
0.9996258967109512
 10
938.26535920875733
 20
-1294.9602322832411
 30
0.0
 41
1.0
 10
938.25215929930755
 20
-1294.9884636833369
 30
0.0
 41
1.0
 10
938.23895938985777
 20
-1295.0166950834328
 30
0.0
 41
1.0
 10
938.09875066885945
 20
-1295.3165674813824
 30
0.0
 41
0.9998735413945121
 10
937.96814932213738
 20
-1295.620747080854
 30
0.0
 41
1.0
 10
937.96470649407593
 20
-1295.6287656663208
 30
0.0
 41
1.0
 10
937.96126366601459
 20
-1295.6367842517875
 30
0.0
 41
1.0
 10
937.8375479754186
 20
-1295.9249266803181
 30
0.0
 41
0.9999377418864015
 10
937.72029317324223
 20
-1296.2157581479964
 30
0.0
 41
1.0
 10
937.60303837106551
 20
-1296.5065896156761
 30
0.0
 41
0.9999508299509609
 10
937.49157442768796
 20
-1296.7996892924987
 30
0.0
 41
1.0
 10
937.4884936590264
 20
-1296.8077903184603
 30
0.0
 41
1.0
 10
937.48541289036484
 20
-1296.8158913444217
 30
0.0
 41
1.0
 10
937.3677874096644
 20
-1297.1251930731655
 30
0.0
 41
0.9999609228431653
 10
937.25564880679542
 20
-1297.4365260891673
 30
0.0
 41
1.0
 10
937.25269279644226
 20
-1297.4447329295863
 30
0.0
 41
1.0
 10
937.24973678608922
 20
-1297.4529397700053
 30
0.0
 41
1.0
 10
937.13168616251278
 20
-1297.7806864668487
 30
0.0
 41
0.9999674607402643
 10
937.01893863644489
 20
-1298.1102950868433
 30
0.0
 41
1.0
 10
936.96754024588472
 20
-1298.2605542825286
 30
0.0
 41
1.0
 10
936.91614185532444
 20
-1298.4108134782139
 30
0.0
 41
1.0
 10
936.80013124856566
 20
-1298.7499614607195
 30
0.0
 41
0.9999287532307414
 10
936.69224984459424
 20
-1299.0917821996973
 30
0.0
 41
1.0
 10
936.64577258847521
 20
-1299.2390447440043
 30
0.0
 41
1.0
 10
936.59929533235606
 20
-1299.3863072883114
 30
0.0
 41
1.0
 10
936.5843684406691
 20
-1299.4336029385286
 30
0.0
 41
0.9999998223906256
 10
936.56949793189301
 20
-1299.480916346914
 30
0.0
 41
1.0
 10
934.94884179509756
 20
-1304.6289448487034
 30
0.0
 41
1.0
 10
933.32818565830212
 20
-1309.7769733504929
 30
0.0
 41
1.0
 10
932.42287721441119
 20
-1309.7769733504929
 30
0.0
 41
1.0
 10
931.51756877052026
 20
-1309.7769733504929
 30
0.0
 41
1.0
 10
933.3696531819063
 20
-1303.8899014280255
 30
0.0
 41
1.0
 10
935.22173759329235
 20
-1298.0028295055579
 30
0.0
 41
1.0
 10
935.23185935159506
 20
-1297.9707862921082
 30
0.0
 41
1.0
 10
935.3044670204448
 20
-1297.7404867502823
 30
0.0
 41
1.0
 10
935.37707468929659
 20
-1297.5101872084501
 30
0.0
 41
0.9999825681973988
 10
935.44695772851026
 20
-1297.2790463133776
 30
0.0
 41
1.0
 10
935.49524879066848
 20
-1297.1193217298901
 30
0.0
 41
1.0
 10
935.54353985282671
 20
-1296.9595971464028
 30
0.0
 41
1.0
 10
935.64069220614124
 20
-1296.6382619246356
 30
0.0
 41
0.9999672528966247
 10
935.7326310117669
 20
-1296.3153963790414
 30
0.0
 41
1.0
 10
935.73541989542923
 20
-1296.3056025336778
 30
0.0
 41
1.0
 10
935.73820877909145
 20
-1296.2958086883139
 30
0.0
 41
1.0
 10
935.82456981738642
 20
-1295.9925308334684
 30
0.0
 41
0.9999899749146598
 10
935.90821142692494
 20
-1295.6884917450029
 30
0.0
 41
1.0
 10
935.91831734594246
 20
-1295.6517565073245
 30
0.0
 41
1.0
 10
935.92842326495997
 20
-1295.6150212696461
 30
0.0
 41
1.0
 10
935.99185303645891
 20
-1295.3844526565526
 30
0.0
 41
0.999921420050221
 10
936.04948246483741
 20
-1295.1523663143412
 30
0.0
 41
1.0
 10
936.06224831702048
 20
-1295.1009554289349
 30
0.0
 41
1.0
 10
936.07501416920354
 20
-1295.0495445435286
 30
0.0
 41
1.0
 10
936.10711189321501
 20
-1294.9202799721322
 30
0.0
 41
0.9999828681675399
 10
936.1376941452105
 20
-1294.7906484976643
 30
0.0
 41
1.0
 10
936.16827639720327
 20
-1294.6610170232075
 30
0.0
 41
0.9999389844483548
 10
936.19598738599063
 20
-1294.5307415673178
 30
0.0
 41
1.0
 10
936.20312512971304
 20
-1294.4971854634698
 30
0.0
 41
1.0
 10
936.21026287343557
 20
-1294.4636293596218
 30
0.0
 41
1.0
 10
936.25224934966684
 20
-1294.2662416960391
 30
0.0
 41
0.9998933699441034
 10
936.288453614069
 20
-1294.0677120882801
 30
0.0
 41
1.0
 10
936.28982643928452
 20
-1294.0601840675877
 30
0.0
 41
1.0
 10
936.29119926450016
 20
-1294.0526560468952
 30
0.0
 41
1.0
 10
936.33014917933508
 20
-1293.8390703977439
 30
0.0
 41
0.9996850305193759
 10
936.35833285559374
 20
-1293.6237993923075
 30
0.0
 41
1.0
 10
936.36032788896284
 20
-1293.608561038187
 30
0.0
 41
1.0
 10
936.36232292233194
 20
-1293.5933226840664
 30
0.0
 41
1.0
 10
936.38973078479125
 20
-1293.3839774569099
 30
0.0
 41
0.999469793670707
 10
936.40345534401104
 20
-1293.1732922615774
 30
0.0
 41
1.0
 10
936.40393241326069
 20
-1293.1659687893666
 30
0.0
 41
1.0
 10
936.40440948251035
 20
-1293.1586453171558
 30
0.0
 41
1.0
 10
936.41717990323059
 20
-1292.9626070662473
 30
0.0
 41
0.9991804893137241
 10
936.41405158695784
 20
-1292.7661782162734
 30
0.0
 41
1.0
 10
936.41396770813571
 20
-1292.7609114148609
 30
0.0
 41
1.0
 10
936.41388382931359
 20
-1292.7556446134481
 30
0.0
 41
1.0
 10
936.41092327068509
 20
-1292.5697493662999
 30
0.0
 41
0.9988448329321498
 10
936.39013172506134
 20
-1292.3849967764666
 30
0.0
 41
1.0
 10
936.38853765135832
 20
-1292.3708319206955
 30
0.0
 41
1.0
 10
936.3869435776553
 20
-1292.3566670649245
 30
0.0
 41
1.0
 10
936.36934017943759
 20
-1292.2002441866337
 30
0.0
 41
0.9985503209458699
 10
936.33502390713807
 20
-1292.0466200025439
 30
0.0
 41
1.0
 10
936.32743791506709
 20
-1292.0126596751452
 30
0.0
 41
1.0
 10
936.31985192299624
 20
-1291.9786993477462
 30
0.0
 41
1.0
 10
936.300707634839
 20
-1291.8929958184574
 30
0.0
 41
0.9991036781371003
 10
936.2743827731872
 20
-1291.8092187311297
 30
0.0
 41
1.0
 10
936.27040054773101
 20
-1291.7965455686185
 30
0.0
 41
1.0
 10
936.26641832227483
 20
-1291.7838724061073
 30
0.0
 41
1.0
 10
936.24805791153574
 20
-1291.7254416438038
 30
0.0
 41
0.9998874504368696
 10
936.22795270385768
 20
-1291.6675880415814
 30
0.0
 41
1.0
 10
936.20784749617826
 20
-1291.6097344393561
 30
0.0
 41
0.9994041637544384
 10
936.18379888324409
 20
-1291.5534057354662
 30
0.0
 41
1.0
 10
936.17960209902037
 20
-1291.5435756709851
 30
0.0
 41
1.0
 10
936.17540531479665
 20
-1291.533745606504
 30
0.0
 41
1.0
 10
936.14752648380215
 20
-1291.4684454405369
 30
0.0
 41
0.9991846840701656
 10
936.11447012710926
 20
-1291.4056074092571
 30
0.0
 41
1.0
 10
936.11333352071449
 20
-1291.4034467928029
 30
0.0
 41
1.0
 10
936.11219691431972
 20
-1291.4012861763488
 30
0.0
 41
1.0
 10
936.08141377041682
 20
-1291.3427693779781
 30
0.0
 41
0.9989253167923567
 10
936.04534434636116
 20
-1291.2873544495865
 30
0.0
 41
1.0
 10
936.04429022168711
 20
-1291.2857349548244
 30
0.0
 41
1.0
 10
936.04323609701316
 20
-1291.2841154600626
 30
0.0
 41
1.0
 10
936.00927492230687
 20
-1291.2319395211975
 30
0.0
 41
0.9986467172838246
 10
935.97007776966893
 20
-1291.1835734875667
 30
0.0
 41
1.0
 10
935.9692036409682
 20
-1291.1824948852886
 30
0.0
 41
1.0
 10
935.96832951226747
 20
-1291.1814162830103
 30
0.0
 41
1.0
 10
935.93088061703133
 20
-1291.135207453937
 30
0.0
 41
0.998400110426685
 10
935.8884538865143
 20
-1291.0935223465685
 30
0.0
 41
1.0
 10
935.88786674840503
 20
-1291.0929454716875
 30
0.0
 41
1.0
 10
935.88727961029588
 20
-1291.0923685968064
 30
0.0
 41
1.0
 10
935.84602715599783
 20
-1291.0518372392003
 30
0.0
 41
0.9982442159082329
 10
935.80027105466161
 20
-1291.0164686779394
 30
0.0
 41
1.0
 10
935.80005625919966
 20
-1291.016302645296
 30
0.0
 41
1.0
 10
935.79984146373772
 20
-1291.0161366126526
 30
0.0
 41
1.0
 10
935.75451495332584
 20
-1290.9811001166793
 30
0.0
 41
0.9982450060837329
 10
935.70536397425417
 20
-1290.9516683336456
 30
0.0
 41
1.0
 10
935.65621299518284
 20
-1290.9222365506123
 30
0.0
 41
0.9983922639635626
 10
935.60404668901776
 20
-1290.8985569159581
 30
0.0
 41
1.0
 10
935.60381981169326
 20
-1290.8984539304765
 30
0.0
 41
1.0
 10
935.60359293436863
 20
-1290.8983509449952
 30
0.0
 41
1.0
 10
935.55097287355466
 20
-1290.8744653393783
 30
0.0
 41
0.9986517147149977
 10
935.49615990068673
 20
-1290.8561642202565
 30
0.0
 41
1.0
 10
935.49548197925901
 20
-1290.855937873825
 30
0.0
 41
1.0
 10
935.49480405783129
 20
-1290.8557115273936
 30
0.0
 41
1.0
 10
935.43863524210735
 20
-1290.836957715409
 30
0.0
 41
0.9989435598956645
 10
935.38098185495573
 20
-1290.8234400131744
 30
0.0
 41
1.0
 10
935.37990173537423
 20
-1290.8231867629215
 30
0.0
 41
1.0
 10
935.37882161579273
 20
-1290.8229335126684
 30
0.0
 41
1.0
 10
935.31900798947754
 20
-1290.8089093099279
 30
0.0
 41
0.9992249241240742
 10
935.25827648058032
 20
-1290.7996339672125
 30
0.0
 41
1.0
 10
935.25686279228944
 20
-1290.7994180588048
 30
0.0
 41
1.0
 10
935.25544910399856
 20
-1290.7992021503969
 30
0.0
 41
1.0
 10
935.19189021851855
 20
-1290.7894949908662
 30
0.0
 41
0.9994396597833952
 10
935.12782428198057
 20
-1290.7840620685204
 30
0.0
 41
1.0
 10
935.10868361450355
 20
-1290.7824389008019
 30
0.0
 41
1.0
 10
935.08954294702653
 20
-1290.7808157330833
 30
0.0
 41
1.0
 10
934.98719567553417
 20
-1290.7721364753002
 30
0.0
 41
0.998769340312155
 10
934.8844920519474
 20
-1290.7736395387526
 30
0.0
 41
1.0
 10
934.87423771771842
 20
-1290.7737896105268
 30
0.0
 41
1.0
 10
934.86398338348943
 20
-1290.773939682301
 30
0.0
 41
1.0
 10
934.75442761731222
 20
-1290.7755430265886
 30
0.0
 41
0.9989753644966141
 10
934.64546561729708
 20
-1290.7870460335139
 30
0.0
 41
1.0
 10
934.53650361727944
 20
-1290.7985490404392
 30
0.0
 41
0.9983190067305373
 10
934.42960480631359
 20
-1290.8225840322261
 30
0.0
 41
1.0
 10
934.42070385470788
 20
-1290.8245853107887
 30
0.0
 41
1.0
 10
934.41180290310217
 20
-1290.8265865893511
 30
0.0
 41
1.0
 10
934.28710218892331
 20
-1290.8546241382633
 30
0.0
 41
0.9985539388302972
 10
934.16613243524512
 20
-1290.8958878143092
 30
0.0
 41
1.0
 10
934.16378700428515
 20
-1290.896687858125
 30
0.0
 41
1.0
 10
934.16144157332519
 20
-1290.8974879019406
 30
0.0
 41
1.0
 10
934.03578095772764
 20
-1290.9403516656175
 30
0.0
 41
0.9988468746493737
 10
933.91481061542822
 20
-1290.9950697506792
 30
0.0
 41
1.0
 10
933.91162779343858
 20
-1290.9965094252398
 30
0.0
 41
1.0
 10
933.90844497144894
 20
-1290.9979490998001
 30
0.0
 41
1.0
 10
933.78110898517116
 20
-1291.0555465339824
 30
0.0
 41
0.9991322885918755
 10
933.6590084011151
 20
-1291.123541866164
 30
0.0
 41
1.0
 10
933.64140639006996
 20
-1291.1333440681544
 30
0.0
 41
1.0
 10
933.62380437902482
 20
-1291.1431462701448
 30
0.0
 41
1.0
 10
933.52162769796848
 20
-1291.2000463859249
 30
0.0
 41
0.9993860037849144
 10
933.423686693896
 20
-1291.263962401513
 30
0.0
 41
1.0
 10
933.41806838104276
 20
-1291.2676288962084
 30
0.0
 41
1.0
 10
933.41245006818951
 20
-1291.271295390904
 30
0.0
 41
1.0
 10
933.32574568982352
 20
-1291.3278784171009
 30
0.0
 41
0.9998821494955138
 10
933.24081931400974
 20
-1291.3870966471782
 30
0.0
 41
1.0
 10
933.15589293819244
 20
-1291.4463148772581
 30
0.0
 41
0.9997976482744052
 10
933.07341730778421
 20
-1291.5089012853036
 30
0.0
 41
1.0
 10
933.05878104298381
 20
-1291.52000797508
 30
0.0
 41
1.0
 10
933.04414477818352
 20
-1291.5311146648564
 30
0.0
 41
1.0
 10
932.93239661817563
 20
-1291.6159144524536
 30
0.0
 41
0.9998091630800557
 10
932.82404634015336
 20
-1291.7050148031501
 30
0.0
 41
1.0
 10
932.8110405876705
 20
-1291.7157099036008
 30
0.0
 41
1.0
 10
932.79803483518776
 20
-1291.7264050040512
 30
0.0
 41
1.0
 10
932.66367305220615
 20
-1291.8368955556446
 30
0.0
 41
0.9995035112317322
 10
932.53653717444479
 20
-1291.9556293726571
 30
0.0
 41
1.0
 10
932.5268898640561
 20
-1291.9646391188162
 30
0.0
 41
1.0
 10
932.5172425536673
 20
-1291.9736488649755
 30
0.0
 41
1.0
 10
932.39381949090239
 20
-1292.0889152367313
 30
0.0
 41
0.9994630424299369
 10
932.2782110851183
 20
-1292.2120179799665
 30
0.0
 41
1.0
 10
932.2745282463477
 20
-1292.2159395594786
 30
0.0
 41
1.0
 10
932.27084540757721
 20
-1292.2198611389906
 30
0.0
 41
1.0
 10
932.16260267933535
 20
-1292.3351207232004
 30
0.0
 41
0.9995160693749906
 10
932.06173664980236
 20
-1292.4568881410742
 30
0.0
 41
1.0
 10
932.05980292972504
 20
-1292.4592225652782
 30
0.0
 41
1.0
 10
932.05786920964772
 20
-1292.4615569894822
 30
0.0
 41
1.0
 10
931.96087062027323
 20
-1292.5786555589434
 30
0.0
 41
0.9996561470514556
 10
931.87014440160453
 20
-1292.700678321396
 30
0.0
 41
1.0
 10
931.86398673570034
 20
-1292.7089601104412
 30
0.0
 41
1.0
 10
931.85782906979614
 20
-1292.7172418994867
 30
0.0
 41
1.0
 10
931.77941818293448
 20
-1292.8227010838509
 30
0.0
 41
0.99983490551725
 10
931.70489090100637
 20
-1292.9309396675085
 30
0.0
 41
1.0
 10
931.63036361907075
 20
-1293.0391782511774
 30
0.0
 41
0.9999728109573848
 10
931.557440723166
 20
-1293.1485041767244
 30
0.0
 41
1.0
 10
931.55612550775322
 20
-1293.1504759462282
 30
0.0
 41
1.0
 10
931.55481029234056
 20
-1293.1524477157323
 30
0.0
 41
1.0
 10
931.47925696561629
 20
-1293.2657171802787
 30
0.0
 41
0.9999972147395209
 10
931.40423915525093
 20
-1293.3793420231009
 30
0.0
 41
1.0
 10
931.3992676126195
 20
-1293.3868721115869
 30
0.0
 41
1.0
 10
931.39429606998817
 20
-1293.3944022000728
 30
0.0
 41
1.0
 10
931.30933517437552
 20
-1293.523087219844
 30
0.0
 41
0.9999371979007919
 10
931.22727982497349
 20
-1293.6536441336175
 30
0.0
 41
1.0
 10
931.22377094060732
 20
-1293.6592270616895
 30
0.0
 41
1.0
 10
931.22026205624115
 20
-1293.6648099897616
 30
0.0
 41
1.0
 10
931.13118893811179
 20
-1293.8065327596714
 30
0.0
 41
0.9998272025611418
 10
931.0474455472314
 20
-1293.9514686364109
 30
0.0
 41
1.0
 10
931.03223037520684
 20
-1293.9778017508684
 30
0.0
 41
1.0
 10
931.01701520318238
 20
-1294.0041348653258
 30
0.0
 41
1.0
 10
930.90284146825195
 20
-1294.2017369709824
 30
0.0
 41
0.9995217214838064
 10
930.80110177869619
 20
-1294.4060192988447
 30
0.0
 41
1.0
 10
930.79345821606103
 20
-1294.4213667485478
 30
0.0
 41
1.0
 10
930.78581465342586
 20
-1294.4367141982511
 30
0.0
 41
1.0
 10
930.69890936083664
 20
-1294.6112106563314
 30
0.0
 41
0.9998269762607343
 10
930.6185548945648
 20
-1294.7888189430546
 30
0.0
 41
1.0
 10
930.53820042829329
 20
-1294.9664272297764
 30
0.0
 41
0.9998944747386324
 10
930.46303963372668
 20
-1295.1462949554107
 30
0.0
 41
1.0
 10
930.45808596413485
 20
-1295.1581496103299
 30
0.0
 41
1.0
 10
930.45313229454291
 20
-1295.170004265249
 30
0.0
 41
1.0
 10
930.37248523399148
 20
-1295.363001205264
 30
0.0
 41
0.999950673441408
 10
930.29568770508899
 20
-1295.5575620101176
 30
0.0
 41
1.0
 10
930.28108773981705
 20
-1295.5945499319264
 30
0.0
 41
1.0
 10
930.26648777454511
 20
-1295.6315378537349
 30
0.0
 41
1.0
 10
930.21889017618196
 20
-1295.7521228149822
 30
0.0
 41
0.9999912393922585
 10
930.17230373216285
 20
-1295.8731020176695
 30
0.0
 41
1.0
 10
930.12571728813487
 20
-1295.9940812203799
 30
0.0
 41
0.9999927113965598
 10
930.0800559937453
 20
-1296.1154126278698
 30
0.0
 41
1.0
 10
930.066087562348
 20
-1296.1525296098675
 30
0.0
 41
1.0
 10
930.05211913095081
 20
-1296.1896465918651
 30
0.0
 41
1.0
 10
929.97852097376051
 20
-1296.3852119633664
 30
0.0
 41
0.9999487550947976
 10
929.90889734878874
 20
-1296.5822273285494
 30
0.0
 41
1.0
 10
929.88530373885487
 20
-1296.6489906388338
 30
0.0
 41
1.0
 10
929.861710128921
 20
-1296.7157539491179
 30
0.0
 41
1.0
 10
929.7670244945482
 20
-1296.9836877839493
 30
0.0
 41
0.9999808436942207
 10
929.67566290590366
 20
-1297.2527732152223
 30
0.0
 41
1.0
 10
929.58430131726232
 20
-1297.5218586464866
 30
0.0
 41
0.9999873932890966
 10
929.49564660854458
 20
-1297.7918480014989
 30
0.0
 41
1.0
 10
929.47555425167502
 20
-1297.8530373342523
 30
0.0
 41
1.0
 10
929.45546189480547
 20
-1297.914226667006
 30
0.0
 41
1.0
 10
929.32662247234953
 20
-1298.306594687522
 30
0.0
 41
0.999979488302439
 10
929.20281968739164
 20
-1298.7005808937995
 30
0.0
 41
1.0
 10
929.19166742795346
 20
-1298.7360715040386
 30
0.0
 41
1.0
 10
929.1805151685154
 20
-1298.7715621142777
 30
0.0
 41
1.0
 10
929.03795700461239
 20
-1299.2252348663812
 30
0.0
 41
0.9999982761701056
 10
928.89708456460289
 20
-1299.6794338884863
 30
0.0
 41
1.0
 10
927.30894423203029
 20
-1304.7282036194897
 30
0.0
 41
1.0
 10
925.72080389945768
 20
-1309.7769733504929
 30
0.0
 41
1.0
 10
924.77205328798129
 20
-1309.7769733504929
 30
0.0
 41
1.0
 10
923.82330267650491
 20
-1309.7769733504929
 30
0.0
 41
1.0
 10
927.06158716265804
 20
-1299.4496511505467
 30
0.0
 41
1.0
 10
930.29987164881129
 20
-1289.1223289506006
 30
0.0
 41
1.0
  0
LWPOLYLINE
  5
53
100
AcDbEntity
  8
0
370
              15
390
0
  6
Continuous
 62
               7
100
AcDbPolyline
 90
      232
 70
             128
 10
904.59632587498425
 20
-1290.2066717821158
 42
0.0004370800691959
 10
904.54344870091234
 20
-1290.2753384213718
 10
904.50416446978477
 20
-1290.3264455342687
 42
0.003048199217171
 10
904.37382575268362
 20
-1290.498167226589
 10
904.33531408091517
 20
-1290.5495540104009
 42
0.0042058245764033
 10
904.131329030232
 20
-1290.826559755493
 10
904.07892390774464
 20
-1290.8989926022555
 42
0.0120948898744094
 10
903.78287999098211
 20
-1291.329742206806
 10
903.68668749186156
 20
-1291.4772229420287
 42
0.0141601263947062
 10
903.38304344493929
 20
-1291.9728922787647
 10
903.34350617750772
 20
-1292.041736246206
 42
0.007113108130372
 10
903.13823385427486
 20
-1292.4112390450346
 42
0.0068458791003417
 10
902.9433543274306
 20
-1292.786330608513
 10
902.93654246497408
 20
-1292.7998923222344
 42
0.0064120880289223
 10
902.73840021493447
 20
-1293.2073167971432
 10
902.73086552941277
 20
-1293.2233286538744
 42
0.0058857236448259
 10
902.52811013754138
 20
-1293.6677047649089
 10
902.51993521124712
 20
-1293.6861949185434
 42
0.0053189741896757
 10
902.31123089858136
 20
-1294.172158392457
 10
902.30248309289823
 20
-1294.1931402706573
 42
0.0047503650417849
 10
902.08650936674803
 20
-1294.7253397038655
 10
902.07724111839934
 20
-1294.7488160799749
 42
0.0042071762169229
 10
901.85269373467156
 20
-1295.3319096740449
 10
901.84294433232299
 20
-1295.3578758489143
 42
0.003668008648511
 10
901.60848968901075
 20
-1295.9965112334464
 10
901.59828190916312
 20
-1296.0249597677903
 42
0.0032573142627999
 10
901.35264962319297
 20
-1296.7238124275536
 10
901.28399910235282
 20
-1296.9232755116052
 42
0.0026133366650121
 10
900.93555390359779
 20
-1297.9531387952684
 10
900.87229711609712
 20
-1298.1433696306613
 42
0.0020592950739362
 10
900.65843404712996
 20
-1298.7954732832745
 10
900.65538225597163
 20
-1298.8049097716694
 42
0.0025609928533873
 10
900.45356175448103
 20
-1299.4400549940501
 10
900.45097038735128
 20
-1299.4483573350005
 42
0.0031362356242951
 10
900.26147960167737
 20
-1300.0691201911702
 10
900.25934855875028
 20
-1300.0762614973803
 42
0.0037229918030943
 10
900.08254817182365
 20
-1300.6852467993554
 10
900.08086958261606
 20
-1300.691193689534
 42
0.0043077623707283
 10
899.91712878055216
 20
-1301.291012421299
 42
0.0047654161821928
 10
899.76430005803581
 20
-1301.8936985102023
 10
899.72983544919703
 20
-1302.0352602873509
 42
0.0112969368443199
 10
899.53397109105424
 20
-1302.9269524479714
 10
899.50596470195683
 20
-1303.069780494073
 42
0.0130056762570148
 10
899.30512745831015
 20
-1304.256721565718
 10
899.28458770816292
 20
-1304.4007996791966
 42
0.0138721532145176
 10
899.18088470362522
 20
-1305.3076291650207
 10
899.16158921571719
 20
-1305.5311268869477
 42
0.0071254697009206
 10
899.12824256979479
 20
-1305.9943138957929
 10
899.12328159563219
 20
-1306.0803178903407
 42
0.0028881799202236
 10
899.10814330234166
 20
-1306.3720596001958
 42
0.0060297297134847
 10
899.09821110256621
 20
-1306.6640085363067
 10
899.09714882089884
 20
-1306.7124009082484
 42
0.0229523164157624
 10
899.10487984868473
 20
-1307.0351557545273
 10
899.10910562220511
 20
-1307.0955592885427
 42
0.0123673300666928
 10
899.12818426872343
 20
-1307.2966800137183
 42
0.0128577674467638
 10
899.15737965912933
 20
-1307.4965778636426
 10
899.16450553251673
 20
-1307.5379066782421
 42
0.0285717853763926
 10
899.22899953421245
 20
-1307.8160228295551
 10
899.24266805787886
 20
-1307.8626775990324
 42
0.0316283099153373
 10
899.35847863779304
 20
-1308.1816921008583
 10
899.36152732954861
 20
-1308.1886784731839
 42
0.0338984824234845
 10
899.51095904051579
 20
-1308.476244437373
 10
899.51326776988617
 20
-1308.4800354666497
 42
0.0350228718351254
 10
899.69562806055922
 20
-1308.7370874513258
 10
899.6965133123341
 20
-1308.7381665290898
 42
0.0347476747530243
 10
899.91093799957434
 20
-1308.9653515763098
 42
0.0331337701909162
 10
900.15418132532091
 20
-1309.1614802383876
 10
900.15528142383687
 20
-1309.1622529415599
 42
0.0305233319079248
 10
900.42382611941002
 20
-1309.327381111651
 10
900.4270561639114
 20
-1309.3291051235137
 42
0.0273744481157507
 10
900.71960987548698
 20
-1309.4652432674047
 10
900.72471441062328
 20
-1309.467286851874
 42
0.0240964406197849
 10
901.04019148627094
 20
-1309.5762705781558
 10
901.04677481547901
 20
-1309.5781953178303
 42
0.0209636179812975
 10
901.38417496813292
 20
-1309.6616634657628
 10
901.39180742858025
 20
-1309.6632153787639
 42
0.0181388704693399
 10
901.75012982057876
 20
-1309.7226314719778
 10
901.75841066895691
 20
-1309.7236976557949
 42
0.015608654758589
 10
902.13659803314567
 20
-1309.7604338423716
 10
902.17979328547915
 20
-1309.763272344851
 42
0.0137148329026488
 10
902.50746643077161
 20
-1309.7757926001018
 10
902.55340262071343
 20
-1309.7762870332169
 42
0.0051057823887168
 10
902.78954820728984
 20
-1309.7764172876264
 42
0.0052256693311858
 10
903.02564549107444
 20
-1309.7716684631619
 10
903.09587227481791
 20
-1309.7695214971479
 42
0.0161507179048104
 10
903.47160935291924
 20
-1309.7458711268214
 10
903.49162231329228
 20
-1309.7439609315338
 42
0.0101216737832719
 10
903.90564953478167
 20
-1309.6959680011685
 10
903.93970282420969
 20
-1309.6913203043587
 42
0.0245291776397457
 10
904.41649247975909
 20
-1309.6022452262828
 10
904.50131579528295
 20
-1309.5820493059371
 42
0.014350921255892
 10
904.85794689922443
 20
-1309.4862446721577
 42
0.0156557857041937
 10
905.20816296395094
 20
-1309.3692334563391
 10
905.21566417844633
 20
-1309.3664632945847
 42
0.0170137333631318
 10
905.57226017412859
 20
-1309.2208056797133
 10
905.57936409653519
 20
-1309.21761784415
 42
0.0183105364409703
 10
905.93871376470281
 20
-1309.040282802325
 10
905.94566052934022
 20
-1309.0365323674537
 42
0.0194899958149863
 10
906.30414127032441
 20
-1308.8245533855627
 10
906.31115514966086
 20
-1308.8200280432679
 42
0.0204869852950445
 10
906.66516945175624
 20
-1308.5705080281809
 10
906.67243506034185
 20
-1308.5649279628337
 42
0.0212516938555694
 10
907.01842499145016
 20
-1308.2750239659388
 10
907.0649416855241
 20
-1308.2325566558468
 42
0.0215248918250838
 10
907.32496785441322
 20
-1307.9737923768507
 10
907.36999758878915
 20
-1307.924948255506
 42
0.0114578554953019
 10
907.52478974247106
 20
-1307.7491253220428
 10
907.53598427844099
 20
-1307.7358065585172
 42
0.0061531305117666
 10
907.66245892445215
 20
-1307.5815170251917
 42
0.0006325587120629
 10
907.78683740858332
 20
-1307.4255136495417
 10
907.80987754365538
 20
-1307.3965401288565
 42
0.0041897761554223
 10
907.97833294762052
 20
-1307.1810207528044
 10
908.0367950675203
 20
-1307.1049194058096
 42
0.0092993880039111
 10
908.31340699474765
 20
-1306.7306406419204
 10
908.39580148794039
 20
-1306.6147036383604
 42
0.0159321727087909
 10
908.7424079705853
 20
-1306.0925294176009
 10
908.7867641059712
 20
-1306.0208498533559
 42
0.0085547317020393
 10
909.02127587130008
 20
-1305.6269749041262
 42
0.0084601156889796
 10
909.24225204874233
 20
-1305.2253480550939
 10
909.25036752257256
 20
-1305.209988372821
 42
0.0081429654285291
 10
909.47361679301139
 20
-1304.7702668602776
 10
909.48247695719408
 20
-1304.752088018261
 42
0.0076574581328677
 10
909.70888446776098
 20
-1304.2689051430073
 10
909.71836410848448
 20
-1304.2478406647047
 42
0.0070682724199216
 10
909.94880901629006
 20
-1303.7158033599267
 10
909.95879930027297
 20
-1303.691814170912
 42
0.0064559514449726
 10
910.19413250845673
 20
-1303.1055019043874
 10
910.20454186661959
 20
-1303.0785669789507
 42
0.0058311413906422
 10
910.44558860337986
 20
-1302.4325348845744
 10
910.45634368076992
 20
-1302.4026505434067
 42
0.0052312425819601
 10
910.70392495881345
 20
-1301.6914481295639
 10
910.71496879519054
 20
-1301.6586214175022
 42
0.0046680544797109
 10
910.96989722292221
 20
-1300.8767951017564
 10
911.01188937296331
 20
-1300.7438118644723
 42
0.004166685644559
 10
911.21517538536364
 20
-1300.0808430894499
 10
911.25283782602673
 20
-1299.9542619817985
 42
0.0015170975158235
 10
911.37402440444043
 20
-1299.5423936303025
 42
-0.0004887993109788
 10
911.49436417760501
 20
-1299.1302752181189
 10
911.57084143505858
 20
-1298.8693178323194
 42
0.0002583378927851
 10
911.84405600512878
 20
-1297.9352611291204
 10
911.92582885467425
 20
-1297.655161869644
 42
0.0006636169672048
 10
912.11969661471085
 20
-1296.9878089459703
 10
912.12479326907146
 20
-1296.9701773630434
 42
0.001058913132359
 10
912.30624196997451
 20
-1296.3374460200414
 10
912.31122404044811
 20
-1296.3199331130456
 42
0.0015655524461306
 10
912.47949424763783
 20
-1295.7213164338204
 10
912.48432444805621
 20
-1295.7039242748724
 42
0.0021640440476036
 10
912.63861442003872
 20
-1295.1388972568666
 10
912.64324863947218
 20
-1295.1216325268597
 42
0.0028763871852557
 10
912.78276435752173
 20
-1294.5896645760256
 10
912.78715022168842
 20
-1294.5725405978733
 42
0.0037310511946031
 10
912.91110691352583
 20
-1294.0730930038471
 10
912.91518213381289
 20
-1294.0561327326097
 42
0.0047652197767401
 10
913.02280603432325
 20
-1293.5886549642967
 10
913.02649663364798
 20
-1293.5718954091403
 42
0.0060276699306858
 10
913.11702673280024
 20
-1293.1358196140025
 10
913.12024542308689
 20
-1293.1193183997063
 42
0.0075824337756349
 10
913.19293473250491
 20
-1292.7140512352671
 10
913.19558010988442
 20
-1292.6978962878215
 42
0.009513062460807
 10
913.24969534551633
 20
-1292.3228069347447
 10
913.25668156939889
 20
-1292.2668733766279
 42
0.0121054653234112
 10
913.28327289997685
 20
-1292.0019775481544
 10
913.28413938973688
 20
-1291.990574105218
 42
0.0069050827395746
 10
913.29922820777415
 20
-1291.747632878381
 10
913.30036350744228
 20
-1291.7241066213435
 42
0.016906397669626
 10
913.30319078642287
 20
-1291.5279138940355
 10
913.30202013489156
 20
-1291.4675781326807
 42
0.0052007732902467
 10
913.29976668629865
 20
-1291.3919847425343
 42
0.0054038123292089
 10
913.27980317446122
 20
-1291.2719664465321
 10
913.27471731858941
 20
-1291.2433079599432
 42
0.0112050460458512
 10
913.23933295653046
 20
-1291.0669815216027
 10
913.22150799449014
 20
-1290.9874399348832
 42
0.024076446800975
 10
913.13061062834413
 20
-1290.6572028993826
 10
913.11205186553093
 20
-1290.6005827343893
 42
0.0256812331834053
 10
912.968688945341
 20
-1290.228858528131
 10
912.96327951951946
 20
-1290.216727193141
 42
0.0268360501217043
 10
912.79385227866976
 20
-1289.8857340591203
 10
912.78831587103537
 20
-1289.8762143888091
 42
0.0274670231731511
 10
912.59611489462145
 20
-1289.5839270138908
 10
912.59073359465879
 20
-1289.5766478663495
 42
0.0275035967101781
 10
912.37916071509699
 20
-1289.3211319760453
 10
912.37409121413066
 20
-1289.3156528884151
 42
0.0269557673526001
 10
912.14668767069088
 20
-1289.0950106024525
 10
912.14194461290776
 20
-1289.0908806479913
 42
0.0259124802208897
 10
911.9023897814775
 20
-1288.9031901208396
 10
911.89785893629505
 20
-1288.9000046185088
 42
0.0245162153003859
 10
911.64994258320075
 20
-1288.7432716093986
 10
911.64541603687599
 20
-1288.7407114121975
 42
0.0229282588838199
 10
911.39299648004919
 20
-1288.6128432196988
 10
911.38821598621178
 20
-1288.6106909199366
 42
0.0212984135693725
 10
911.13517803375066
 20
-1288.5094920026945
 10
911.12987374878207
 20
-1288.5076284399349
 42
0.0197555462341033
 10
910.88009541105816
 20
-1288.4308130219697
 42
0.0183511896788373
 10
910.62516668559488
 20
-1288.3732301150044
 10
910.53880148887231
 20
-1288.3570273246194
 42
0.0338057877150354
 10
910.25329413961174
 20
-1288.3232189194791
 10
910.16228873457555
 20
-1288.3186392642178
 42
0.0091990524488461
 10
910.0564416259358
 20
-1288.3152634082956
 42
0.0028333980777286
 10
909.9505277099438
 20
-1288.3144353007788
 10
909.94961225689349
 20
-1288.3144333309547
 42
-0.0023619827812061
 10
909.84186624179131
 20
-1288.3136924898763
 10
909.80546107161172
 20
-1288.3132701834134
 42
0.0008824598485377
 10
909.62490508169446
 20
-1288.3114944051745
 10
909.58104364935593
 20
-1288.3111404436495
 42
0.0038132665768128
 10
909.31276075349149
 20
-1288.3110215075826
 10
909.29622709868363
 20
-1288.3111402737263
 42
0.0060665569335511
 10
908.9949466070974
 20
-1288.3169605731471
 10
908.98069627506698
 20
-1288.3174088811147
 42
0.0080356953336912
 10
908.65123755872389
 20
-1288.3330766031818
 10
908.6391675436405
 20
-1288.3338451861221
 42
0.0098996399105945
 10
908.28640445898736
 20
-1288.3633304153204
 10
908.27635874961493
 20
-1288.3643707115184
 42
0.0117740981366489
 10
907.90520189126732
 20
-1288.411662959048
 10
907.89697919478363
 20
-1288.412908075619
 42
0.0137435215135065
 10
907.51239037529808
 20
-1288.4820050491808
 10
907.50573333617513
 20
-1288.4833909454142
 42
0.015835986938262
 10
907.11273624237356
 20
-1288.5782830338946
 10
907.1073230555055
 20
-1288.5797729747655
 42
0.018055412402713
 10
906.71100801089335
 20
-1288.7044109910041
 10
906.70645122280973
 20
-1288.7060270272705
 42
0.0203657431282945
 10
906.3119737049991
 20
-1288.8642873687861
 10
906.30783016599105
 20
-1288.8661489902283
 42
0.022681968465513
 10
905.92039410978794
 20
-1289.0617915688988
 10
905.91619431876927
 20
-1289.0641571608189
 42
0.0248634984606092
 10
905.5410123775888
 20
-1289.3007838067658
 10
905.49281744880352
 20
-1289.3346408485925
 42
0.0267044190885524
 10
905.21852475188757
 20
-1289.55008122446
 42
0.0139303002197481
 10
904.9623575859506
 20
-1289.7873200653703
 10
904.95750420022785
 20
-1289.7920727282321
 42
0.0283460963442526
 10
904.71343160599974
 20
-1290.0598033886783
 10
904.6737631008441
 20
-1290.1086049661503
 42
0.0070695364826285
 10
904.59632587498425
 20
-1290.2066717821158
 42
0.0070695364826285
  0
LWPOLYLINE
  5
54
100
AcDbEntity
  8
0
370
              15
390
0
  6
Continuous
 62
               7
100
AcDbPolyline
 90
      226
 70
             128
 10
901.06750543773785
 20
-1305.9282605882997
 42
-0.002627763660027
 10
901.06742755393793
 20
-1305.8614886624987
 10
901.06764491216984
 20
-1305.8083334451135
 42
-0.008868029673182
 10
901.07142152846291
 20
-1305.6353176627101
 10
901.07376788757529
 20
-1305.5760376372568
 42
-0.0077381705617092
 10
901.08981399833817
 20
-1305.2847771414624
 10
901.09068190951155
 20
-1305.2724889077735
 42
-0.006887253053131
 10
901.11731398925883
 20
-1304.9572671557141
 10
901.11851821344578
 20
-1304.945026176686
 42
-0.0062130021484136
 10
901.15611193027439
 20
-1304.6061564854408
 10
901.15761583380868
 20
-1304.5939826135309
 42
-0.005672692966261
 10
901.20653769331216
 20
-1304.2317873914092
 10
901.20831113895542
 20
-1304.219693591172
 42
-0.0052341884491334
 10
901.26892172521434
 20
-1303.8345003356603
 10
901.27093971399199
 20
-1303.8224954056618
 42
-0.0049768450170808
 10
901.3436783954179
 20
-1303.4146508382323
 10
901.36792741014017
 20
-1303.2861028552234
 42
-0.0089029805624026
 10
901.5050082619357
 20
-1302.6243274077974
 10
901.53775363725345
 20
-1302.4792959772774
 42
-0.0080318257100698
 10
901.76730225159565
 20
-1301.5335863454179
 10
901.77928717804241
 20
-1301.4874557102335
 42
-0.0074265721319319
 10
902.06329871689195
 20
-1300.4573911318546
 10
902.08317826000621
 20
-1300.3892570712737
 42
-0.00697119227034
 10
902.41048283851569
 20
-1299.3229893309358
 10
902.47043478562171
 20
-1299.1369679725638
 42
-0.005207042289633
 10
902.69986001088046
 20
-1298.4496958955338
 10
902.71714120305626
 20
-1298.3996686149064
 42
-0.0009167004448166
 10
902.92023309034221
 20
-1297.8152127667627
 42
-0.0025162726947047
 10
903.12733072059621
 20
-1297.2321715026237
 10
903.16455533241003
 20
-1297.1290219566947
 42
-0.0028212681457016
 10
903.41273125137332
 20
-1296.4532913245234
 10
903.42256201412999
 20
-1296.4269838798305
 42
-0.00319649168192
 10
903.65885427178625
 20
-1295.8067791177198
 10
903.66848872578657
 20
-1295.7819691275729
 42
-0.0036281836450875
 10
903.89359468688644
 20
-1295.2145284466833
 10
903.90303309704564
 20
-1295.1912310151763
 42
-0.0041269166833236
 10
904.11765079370309
 20
-1294.6737901192023
 10
904.15028375012298
 20
-1294.5969116728431
 42
-0.004747221305617
 10
904.30732855567749
 20
-1294.2364902049578
 10
904.31422263688773
 20
-1294.2210696076213
 42
-0.0025651659996072
 10
904.46258067073586
 20
-1293.8937415518774
 42
-0.0057144634997853
 10
904.61633036450633
 20
-1293.5689318785164
 10
904.6443610699049
 20
-1293.5114234961279
 42
-0.0065388068375537
 10
904.82782809764819
 20
-1293.1471909994557
 10
904.83628655342488
 20
-1293.1309314200896
 42
-0.0074510843021667
 10
905.01246879930454
 20
-1292.8042431389636
 10
905.02064846983785
 20
-1292.7896023616906
 42
-0.0084648979862929
 10
905.19028232293567
 20
-1292.4976933507335
 10
905.19813844941734
 20
-1292.4846863590933
 42
-0.0095638542813491
 10
905.36197389701795
 20
-1292.2247974871041
 10
905.36944884069146
 20
-1292.213428125646
 42
-0.0107191626802504
 10
905.52825042107725
 20
-1291.9828168911044
 10
905.53526715480757
 20
-1291.9730807987407
 42
-0.0118458573901384
 10
905.68981525332083
 20
-1291.7690086034293
 42
-0.0129184518193446
 10
905.85426787692177
 20
-1291.5728480872597
 10
905.88441264928747
 20
-1291.5387220083571
 42
-0.02177425796298
 10
906.06102497162078
 20
-1291.3555152381091
 10
906.0717705160755
 20
-1291.3452984049115
 42
-0.0097266568651055
 10
906.23782813493699
 20
-1291.1934508304689
 42
-0.0187720905728109
 10
906.41217571082154
 20
-1291.0513819770836
 10
906.44288170149798
 20
-1291.0282228946855
 42
-0.017942820752072
 10
906.67530242149678
 20
-1290.8656707175719
 10
906.67895474841396
 20
-1290.8633067826834
 42
-0.0170047877699502
 10
906.91471838594293
 20
-1290.7218462685328
 10
906.91850137469214
 20
-1290.7197479634949
 42
-0.0160190788367999
 10
907.15540992232479
 20
-1290.5980966615084
 42
-0.0151102861496382
 10
907.39944170477122
 20
-1290.4914138854538
 10
907.45182820698324
 20
-1290.470373752559
 42
-0.0271945441887192
 10
907.81049076604165
 20
-1290.348508941853
 10
907.87955556653117
 20
-1290.3291594005864
 42
-0.0237596594021696
 10
908.29535241355211
 20
-1290.233708688605
 10
908.36341526728256
 20
-1290.2214540004784
 42
-0.0213715440554746
 10
908.64929019872784
 20
-1290.1825069689685
 10
908.70943736494155
 20
-1290.1769172542679
 42
-0.010146565581566
 10
908.87692989693994
 20
-1290.1647737110034
 10
908.88627028313556
 20
-1290.1642867960063
 42
-0.0100375910879599
 10
909.03542438370073
 20
-1290.159510978081
 10
909.04568365337718
 20
-1290.1593885390666
 42
-0.0103625633384181
 10
909.17439164803591
 20
-1290.1605199725932
 10
909.19665729930318
 20
-1290.1611773310581
 42
-0.0115689250225718
 10
909.28070803683079
 20
-1290.1656068373031
 42
-0.0072438037433685
 10
909.36454631627089
 20
-1290.1731960370528
 10
909.38134682574275
 20
-1290.1749625797768
 42
-0.0217917313134732
 10
909.49791658905451
 20
-1290.1923824724975
 10
909.56351667962645
 20
-1290.2051290809129
 42
-0.0332943556749213
 10
909.7679088446514
 20
-1290.2591693722193
 10
909.79808141320382
 20
-1290.2693374493385
 42
-0.0184824084788148
 10
909.93658646966696
 20
-1290.3217884647242
 42
-0.0198002050689465
 10
910.07066081016615
 20
-1290.3846725249236
 10
910.07254744754323
 20
-1290.3856503118036
 42
-0.0212242342982324
 10
910.20468638994589
 20
-1290.4614130505972
 10
910.20650168548855
 20
-1290.4625588528052
 42
-0.0226090605805313
 10
910.33500558671074
 20
-1290.55203849637
 10
910.33685002844777
 20
-1290.5534507493571
 42
-0.0238457052245872
 10
910.4600321097405
 20
-1290.6574466452194
 10
910.46198483829971
 20
-1290.6592615229856
 42
-0.0248160564157572
 10
910.57818634559987
 20
-1290.7785361241938
 10
910.58028997900237
 20
-1290.7809214578988
 42
-0.0254109591459934
 10
910.68789519686845
 20
-1290.9162098438633
 10
910.6901432187824
 20
-1290.9193513922637
 42
-0.0255528488285827
 10
910.78758989758001
 20
-1291.0713784464986
 10
910.78992099749576
 20
-1291.0754600581054
 42
-0.0252146793219262
 10
910.87570202350503
 20
-1291.244962304103
 10
910.87800426266244
 20
-1291.2501443860153
 42
-0.0244265635947783
 10
910.95065895642415
 20
-1291.4378909580623
 10
910.95990535789269
 20
-1291.4657563764008
 42
-0.0231319612902914
 10
911.00582813688436
 20
-1291.6290574232014
 42
-0.0112130424358419
 10
911.04046415942298
 20
-1291.7952610233913
 10
911.04166668453513
 20
-1291.8017576102775
 42
-0.0210527881241506
 10
911.06735315990591
 20
-1291.9828132557191
 10
911.07086375472772
 20
-1292.0182188042659
 42
-0.0190029892420315
 10
911.08630522827241
 20
-1292.2717546505385
 10
911.08711520471638
 20
-1292.307230264907
 42
-0.0137974553662238
 10
911.08556635188097
 20
-1292.632261671637
 10
911.08472089692555
 20
-1292.6583804162249
 42
-0.0081336634217735
 10
911.06986156170274
 20
-1292.9637278838327
 42
-0.0073526923576519
 10
911.0455530283283
 20
-1293.2684761281166
 10
911.04429160454538
 20
-1293.2818128027839
 42
-0.0066886138696373
 10
911.00855601850117
 20
-1293.6123988462623
 10
911.00689892902892
 20
-1293.6260204652726
 42
-0.0061359187361477
 10
910.95904832698011
 20
-1293.9827844453582
 10
910.95701082590517
 20
-1293.9966792482019
 42
-0.005669861006001
 10
910.89636049513717
 20
-1294.3799578170458
 10
910.89395506181518
 20
-1294.3941169362706
 42
-0.0052721077271153
 10
910.81982286101743
 20
-1294.8042442759386
 10
910.81705971217377
 20
-1294.8186609113345
 42
-0.0049289272177728
 10
910.72876559407416
 20
-1295.2559694224549
 10
910.72565309939114
 20
-1295.2706382752726
 42
-0.0047415956711864
 10
910.62241510785884
 20
-1295.7354350326832
 10
910.5876468974991
 20
-1295.8852421280665
 42
-0.0084404470905287
 10
910.39763045392795
 20
-1296.645466152595
 10
910.39150376594159
 20
-1296.668330276751
 42
-0.0039635940257029
 10
910.17005008165768
 20
-1297.4693191409981
 10
910.15667328647805
 20
-1297.5162507575901
 42
-0.0072475040837385
 10
909.88922639861846
 20
-1298.4054704739694
 10
909.81901407179146
 20
-1298.6272108239407
 42
-0.0051345458829167
 10
909.5322546997287
 20
-1299.5015360117636
 10
909.51072843295651
 20
-1299.5649622789076
 42
-0.0019150016601091
 10
909.2551950260945
 20
-1300.3085113991197
 10
909.24872742170169
 20
-1300.3270988640309
 42
-0.0021524362752881
 10
909.00024937063449
 20
-1301.0314246857492
 10
908.99103894992834
 20
-1301.0571782640779
 42
-0.0024331286818218
 10
908.75478369090206
 20
-1301.7077775721687
 10
908.74573573834994
 20
-1301.7323208785274
 42
-0.0027449721789461
 10
908.52112116751607
 20
-1302.3314507574476
 10
908.51223116013296
 20
-1302.354773347276
 42
-0.0031083229770231
 10
908.29868867351388
 20
-1302.9046973848795
 10
908.28995254183644
 20
-1302.9267871007419
 42
-0.0035311343283131
 10
908.08691135624645
 20
-1303.4297702264673
 10
908.07832601709913
 20
-1303.4506129499769
 42
-0.0040245640948877
 10
907.88521421330438
 20
-1303.9089222725702
 10
907.87677809969796
 20
-1303.92850164065
 42
-0.0046015135849637
 10
907.69302180653756
 20
-1304.3444066702843
 10
907.6847356287127
 20
-1304.3627038097291
 42
-0.0052768638267054
 10
907.50975810975365
 20
-1304.7384766940067
 10
907.50162589912986
 20
-1304.7554700325434
 42
-0.0060672675646069
 10
907.33484628636074
 20
-1305.0933856556642
 10
907.32687680588197
 20
-1305.1090509146559
 42
-0.0069904648875863
 10
907.16770841187781
 20
-1305.411386721325
 10
907.15991701226267
 20
-1305.4256972705602
 42
-0.0080637022764263
 10
907.00776515192115
 20
-1305.6947325737056
 10
907.00017611929013
 20
-1305.707660439306
 42
-0.0093006455662364
 10
906.85443544275836
 20
-1305.9456748378093
 10
906.84708477601657
 20
-1305.9571928069795
 42
-0.0107060778059551
 10
906.7071362325762
 20
-1306.1664631243616
 10
906.70007446429724
 20
-1306.1765486669267
 42
-0.012272311141508
 10
906.56528074609855
 20
-1306.3593419964163
 10
906.56495452253762
 20
-1306.3597623842347
 42
-0.0141836319627482
 10
906.42137291957033
 20
-1306.5343321420555
 10
906.41442516391794
 20
-1306.5423071423209
 42
-0.0175957477207174
 10
906.27451899588368
 20
-1306.6919280307252
 42
-0.0080466359680596
 10
906.12705523085583
 20
-1306.8342505588741
 10
906.08102068633605
 20
-1306.8772709969676
 42
-0.0269600260395902
 10
905.82774044035352
 20
-1307.0895942554764
 10
905.76117330405248
 20
-1307.1395456701034
 42
-0.0178362839751624
 10
905.52122881440027
 20
-1307.306563596353
 10
905.51398384340109
 20
-1307.3112321085571
 42
-0.0174650732652146
 10
905.2776476459585
 20
-1307.4520930735171
 42
-0.0169240130163348
 10
905.03218140009903
 20
-1307.5763853332953
 10
904.98619524454307
 20
-1307.5977472888617
 42
-0.03188830368418
 10
904.63584438892519
 20
-1307.7340855983712
 10
904.56747885375785
 20
-1307.7557862188473
 42
-0.0284435909903825
 10
904.19142872746727
 20
-1307.8520036543218
 10
904.15627056696667
 20
-1307.8588972501507
 42
-0.0243909341014052
 10
903.84282710604975
 20
-1307.9046182811805
 10
903.79254637928307
 20
-1307.9094638280819
 42
-0.0196639292931181
 10
903.57695080175131
 20
-1307.9217121135957
 10
903.52512673058823
 20
-1307.9226153743325
 42
-0.010050151068119
 10
903.41270344892359
 20
-1307.9223149759794
 10
903.38104358754617
 20
-1307.9215939040932
 42
-0.0019752031102539
 10
903.33195125089821
 20
-1307.9202817438845
 10
903.32919094767999
 20
-1307.9201970520583
 42
0.0065378751992094
 10
903.28561437292137
 20
-1307.9194301608431
 42
-0.0167974694686865
 10
903.24208354999348
 20
-1307.9177702623172
 10
903.23800421072747
 20
-1307.917477251422
 42
-0.0081283276280967
 10
903.18644441298738
 20
-1307.9129302577842
 10
903.17470483911029
 20
-1307.9117023402059
 42
-0.0126703440183889
 10
903.09998654331741
 20
-1307.9019675491345
 10
903.07719867564015
 20
-1307.8984092932192
 42
-0.0117852088426585
 10
902.95765968980265
 20
-1307.8768462980611
 10
902.90227923804468
 20
-1307.8655027578275
 42
-0.025177459229294
 10
902.67543519903802
 20
-1307.807004748395
 10
902.63071600918363
 20
-1307.7930379290585
 42
-0.014652519988295
 10
902.44432302164728
 20
-1307.7287714018612
 42
-0.0166929435854634
 10
902.26234536552101
 20
-1307.6529642688067
 10
902.25768873424749
 20
-1307.6508393681925
 42
-0.0191684358438663
 10
902.07250510299923
 20
-1307.5576032844031
 10
902.06917251724121
 20
-1307.555762036849
 42
-0.0221181781813434
 10
901.88586221333844
 20
-1307.4436285384779
 10
901.88351240933059
 20
-1307.4420442404873
 42
-0.0254984685387022
 10
901.70722225894519
 20
-1307.3096330905175
 10
901.6847401112434
 20
-1307.2908807815816
 42
-0.0292492648806343
 10
901.55997117240031
 20
-1307.1737879819384
 42
-0.0159048957495093
 10
901.44613117495066
 20
-1307.04576799034
 10
901.44481238437083
 20
-1307.0441863773194
 42
-0.0343813379558462
 10
901.34217512274461
 20
-1306.9023150515497
 10
901.31068359138294
 20
-1306.8518116594546
 42
-0.0369117275698362
 10
901.22479108948653
 20
-1306.6883344185073
 42
-0.0191751379920098
 10
901.1575977039297
 20
-1306.5159298125016
 10
901.15583438017006
 20
-1306.5108364678265
 42
-0.0378178042228349
 10
901.10603966138569
 20
-1306.3218956917447
 10
901.10004436565589
 20
-1306.2893350735505
 42
-0.0184846046476622
 10
901.07932716636105
 20
-1306.1475822530033
 42
-0.0179866351323981
 10
901.06899416128738
 20
-1306.0046914399202
 10
901.06893771884165
 20
-1306.0031337533096
 42
-0.0085497186109164
 10
901.06750543773785
 20
-1305.9282605882997
 42
-0.0085497186109164
  0
ENDBLK
  5
55
100
AcDbEntity
  8
template
390
0
100
AcDbBlockEnd
  0
BLOCK
  5
56
100
AcDbEntity
  8
notes
390
0
100
AcDbBlockBegin
  2
*D2
 70
               1
 10
0.0
 20
0.0
 30
0.0
  3
*D2
  1

  0
LINE
  5
57
100
AcDbEntity
  8
0
370
              -2
390
0
  6
Continuous
 62
               0
100
AcDbLine
 10
-228.60648133158008
 20
549.09904766545128
 30
0.0
 11
-228.60648133158008
 21
824.1589637698512
 31
0.0
  0
LINE
  5
58
100
AcDbEntity
  8
0
370
              -2
390
0
  6
Continuous
 62
               0
100
AcDbLine
 10
-728.6064813315802
 20
549.09904766545128
 30
0.0
 11
-728.6064813315802
 21
824.1589637698512
 31
0.0
  0
LINE
  5
59
100
AcDbEntity
  8
0
370
              -2
390
0
  6
Continuous
 62
               0
100
AcDbLine
 10
-228.60648133158008
 20
824.1589637698512
 30
0.0
 11
-728.6064813315802
 21
824.1589637698512
 31
0.0
  0
CIRCLE
  5
5A
102
{ACAD_REACTORS
330
5B
102
}
100
AcDbEntity
  8
0
370
              -2
390
0
  6
Continuous
 62
               0
100
AcDbCircle
 10
-228.60648133158008
 20
824.1589637698512
 30
0.0
 40
4.99969482421875
  0
HATCH
  5
5B
100
AcDbEntity
  8
0
370
              -2
390
0
  6
Continuous
 62
               0
100
AcDbHatch
 10
0.0
 20
0.0
 30
0.0
210
0.0
220
0.0
230
1.0
  2
SOLID
 70
               1
 71
               1
 91
        1
 92
        1
 93
        1
 72
               2
 10
-228.60648133158008
 20
824.1589637698512
 40
4.99969482421875
 50
0.0
 51
360.0
 73
               0
 97
        1
330
5A
 75
               0
 76
               1
 98
        1
 10
0.0
 20
0.0
  0
CIRCLE
  5
5C
102
{ACAD_REACTORS
330
5D
102
}
100
AcDbEntity
  8
0
370
              -2
390
0
  6
Continuous
 62
               0
100
AcDbCircle
 10
-728.6064813315802
 20
824.1589637698512
 30
0.0
 40
4.99969482421875
  0
HATCH
  5
5D
100
AcDbEntity
  8
0
370
              -2
390
0
  6
Continuous
 62
               0
100
AcDbHatch
 10
0.0
 20
0.0
 30
0.0
210
0.0
220
0.0
230
1.0
  2
SOLID
 70
               1
 71
               1
 91
        1
 92
        1
 93
        1
 72
               2
 10
-728.6064813315802
 20
824.1589637698512
 40
4.99969482421875
 50
0.0
 51
360.0
 73
               0
 97
        1
330
5C
 75
               0
 76
               1
 98
        1
 10
0.0
 20
0.0
  0
MTEXT
  5
5E
100
AcDbEntity
  8
0
390
0
 62
               0
100
AcDbMText
 10
-501.84199141645576
 20
858.03658095735136
 30
0.0
 40
24.432617187500004
 41
0.0
 71
               1
 72
               1
  1
500
  7
ＭＳ ゴシック
 73
               1
 44
0.7828267384257843
  0
POINT
  5
5F
100
AcDbEntity
  8
Defpoints
370
               0
390
0
 62
               0
100
AcDbPoint
 10
-728.6064813315802
 20
524.09904766545128
 30
0.0
  0
POINT
  5
60
100
AcDbEntity
  8
Defpoints
370
               0
390
0
 62
               0
100
AcDbPoint
 10
-228.60648133158008
 20
524.09904766545128
 30
0.0
  0
POINT
  5
61
100
AcDbEntity
  8
Defpoints
370
               0
390
0
 62
               0
100
AcDbPoint
 10
-228.60648133158008
 20
824.1589637698512
 30
0.0
  0
ENDBLK
  5
62
100
AcDbEntity
  8
notes
390
0
100
AcDbBlockEnd
  0
BLOCK
  5
63
100
AcDbEntity
  8
notes
390
0
100
AcDbBlockBegin
  2
*D3
 70
               1
 10
0.0
 20
0.0
 30
0.0
  3
*D3
  1

  0
LINE
  5
64
100
AcDbEntity
  8
0
370
              -2
390
0
  6
Continuous
 62
               0
100
AcDbLine
 10
-453.60648133158008
 20
724.09904766545128
 30
0.0
 11
-128.60648133158008
 21
724.09904766545128
 31
0.0
  0
LINE
  5
65
100
AcDbEntity
  8
0
370
              -2
390
0
  6
Continuous
 62
               0
100
AcDbLine
 10
-453.60648133158008
 20
324.09904766545066
 30
0.0
 11
-128.60648133158008
 21
324.09904766545066
 31
0.0
  0
LINE
  5
66
100
AcDbEntity
  8
0
370
              -2
390
0
  6
Continuous
 62
               0
100
AcDbLine
 10
-128.60648133158008
 20
724.09904766545128
 30
0.0
 11
-128.60648133158008
 21
324.09904766545066
 31
0.0
  0
CIRCLE
  5
67
102
{ACAD_REACTORS
330
68
102
}
100
AcDbEntity
  8
0
370
              -2
390
0
  6
Continuous
 62
               0
100
AcDbCircle
 10
-128.60648133158008
 20
724.09904766545128
 30
0.0
 40
4.99969482421875
  0
HATCH
  5
68
100
AcDbEntity
  8
0
370
              -2
390
0
  6
Continuous
 62
               0
100
AcDbHatch
 10
0.0
 20
0.0
 30
0.0
210
0.0
220
0.0
230
1.0
  2
SOLID
 70
               1
 71
               1
 91
        1
 92
        1
 93
        1
 72
               2
 10
-128.60648133158008
 20
724.09904766545128
 40
4.99969482421875
 50
0.0
 51
360.0
 73
               0
 97
        1
330
67
 75
               0
 76
               1
 98
        1
 10
0.0
 20
0.0
  0
CIRCLE
  5
69
102
{ACAD_REACTORS
330
6A
102
}
100
AcDbEntity
  8
0
370
              -2
390
0
  6
Continuous
 62
               0
100
AcDbCircle
 10
-128.60648133158008
 20
324.09904766545066
 30
0.0
 40
4.99969482421875
  0
HATCH
  5
6A
100
AcDbEntity
  8
0
370
              -2
390
0
  6
Continuous
 62
               0
100
AcDbHatch
 10
0.0
 20
0.0
 30
0.0
210
0.0
220
0.0
230
1.0
  2
SOLID
 70
               1
 71
               1
 91
        1
 92
        1
 93
        1
 72
               2
 10
-128.60648133158008
 20
324.09904766545066
 40
4.99969482421875
 50
0.0
 51
360.0
 73
               0
 97
        1
330
69
 75
               0
 76
               1
 98
        1
 10
0.0
 20
0.0
  0
MTEXT
  5
6B
100
AcDbEntity
  8
0
390
0
 62
               0
100
AcDbMText
 10
-162.48409851908008
 20
511.02390060067188
 30
0.0
 40
24.432617187500004
 41
0.0
 71
               1
 72
               1
  1
400
  7
ＭＳ ゴシック
 11
0.0
 21
1.0
 31
0.0
 73
               1
 44
0.7828267384257843
  0
POINT
  5
6C
100
AcDbEntity
  8
Defpoints
370
               0
390
0
 62
               0
100
AcDbPoint
 10
-478.60648133158008
 20
324.09904766545066
 30
0.0
  0
POINT
  5
6D
100
AcDbEntity
  8
Defpoints
370
               0
390
0
 62
               0
100
AcDbPoint
 10
-478.60648133158008
 20
724.09904766545128
 30
0.0
  0
POINT
  5
6E
100
AcDbEntity
  8
Defpoints
370
               0
390
0
 62
               0
100
AcDbPoint
 10
-128.60648133158008
 20
724.09904766545128
 30
0.0
  0
ENDBLK
  5
6F
100
AcDbEntity
  8
notes
390
0
100
AcDbBlockEnd
  0
BLOCK
  5
70
100
AcDbEntity
  8
notes
390
0
100
AcDbBlockBegin
  2
*D4
 70
               1
 10
0.0
 20
0.0
 30
0.0
  3
*D4
  1

  0
LINE
  5
71
100
AcDbEntity
  8
0
370
              -2
390
0
  6
Continuous
 62
               0
100
AcDbLine
 10
293.25373260315331
 20
-475.92751022481826
 30
0.0
 11
293.25373260315331
 21
-395.0
 31
0.0
  0
LINE
  5
72
100
AcDbEntity
  8
0
370
              -2
390
0
  6
Continuous
 62
               0
100
AcDbLine
 10
343.25373260315331
 20
-470.58959810116829
 30
0.0
 11
343.25373260315331
 21
-395.0
 31
0.0
  0
LINE
  5
73
100
AcDbEntity
  8
0
370
              -2
390
0
  6
Continuous
 62
               0
100
AcDbLine
 10
293.25373260315331
 20
-395.0
 30
0.0
 11
343.25373260315331
 21
-395.0
 31
0.0
  0
CIRCLE
  5
74
102
{ACAD_REACTORS
330
75
102
}
100
AcDbEntity
  8
0
370
              -2
390
0
  6
Continuous
 62
               0
100
AcDbCircle
 10
293.25373260315331
 20
-395.0
 30
0.0
 40
4.99969482421875
  0
HATCH
  5
75
100
AcDbEntity
  8
0
370
              -2
390
0
  6
Continuous
 62
               0
100
AcDbHatch
 10
0.0
 20
0.0
 30
0.0
210
0.0
220
0.0
230
1.0
  2
SOLID
 70
               1
 71
               1
 91
        1
 92
        1
 93
        1
 72
               2
 10
293.25373260315331
 20
-395.0
 40
4.99969482421875
 50
0.0
 51
360.0
 73
               0
 97
        1
330
74
 75
               0
 76
               1
 98
        1
 10
0.0
 20
0.0
  0
CIRCLE
  5
76
102
{ACAD_REACTORS
330
77
102
}
100
AcDbEntity
  8
0
370
              -2
390
0
  6
Continuous
 62
               0
100
AcDbCircle
 10
343.25373260315331
 20
-395.0
 30
0.0
 40
4.99969482421875
  0
HATCH
  5
77
100
AcDbEntity
  8
0
370
              -2
390
0
  6
Continuous
 62
               0
100
AcDbHatch
 10
0.0
 20
0.0
 30
0.0
210
0.0
220
0.0
230
1.0
  2
SOLID
 70
               1
 71
               1
 91
        1
 92
        1
 93
        1
 72
               2
 10
343.25373260315331
 20
-395.0
 40
4.99969482421875
 50
0.0
 51
360.0
 73
               0
 97
        1
330
76
 75
               0
 76
               1
 98
        1
 10
0.0
 20
0.0
  0
MTEXT
  5
78
100
AcDbEntity
  8
0
390
0
 62
               0
100
AcDbMText
 10
305.125
 20
-361.12238281250001
 30
0.0
 40
24.432617187500004
 41
0.0
 71
               1
 72
               1
  1
50
  7
ＭＳ ゴシック
 73
               1
 44
0.7828267384257843
  0
POINT
  5
79
100
AcDbEntity
  8
Defpoints
370
               0
390
0
 62
               0
100
AcDbPoint
 10
343.25373260315331
 20
-495.58959810116829
 30
0.0
  0
POINT
  5
7A
100
AcDbEntity
  8
Defpoints
370
               0
390
0
 62
               0
100
AcDbPoint
 10
293.25373260315331
 20
-500.92751022481826
 30
0.0
  0
POINT
  5
7B
100
AcDbEntity
  8
Defpoints
370
               0
390
0
 62
               0
100
AcDbPoint
 10
293.25373260315331
 20
-395.0
 30
0.0
  0
ENDBLK
  5
7C
100
AcDbEntity
  8
notes
390
0
100
AcDbBlockEnd
  0
BLOCK
  5
7D
100
AcDbEntity
  8
notes
390
0
100
AcDbBlockBegin
  2
*D5
 70
               1
 10
0.0
 20
0.0
 30
0.0
  3
*D5
  1

  0
LINE
  5
7E
100
AcDbEntity
  8
0
370
              -2
390
0
  6
Continuous
 62
               0
100
AcDbLine
 10
530.89546946820315
 20
-630.98464521290907
 30
0.0
 11
530.89546946820315
 21
-705.98687736366765
 31
0.0
  0
LINE
  5
7F
100
AcDbEntity
  8
0
370
              -2
390
0
  6
Continuous
 62
               0
100
AcDbLine
 10
293.39546946820326
 20
-532.51632917007191
 30
0.0
 11
293.39546946820326
 21
-705.98687736366765
 31
0.0
  0
LINE
  5
80
100
AcDbEntity
  8
0
370
              -2
390
0
  6
Continuous
 62
               0
100
AcDbLine
 10
530.89546946820315
 20
-705.98687736366765
 30
0.0
 11
293.39546946820326
 21
-705.98687736366765
 31
0.0
  0
CIRCLE
  5
81
102
{ACAD_REACTORS
330
82
102
}
100
AcDbEntity
  8
0
370
              -2
390
0
  6
Continuous
 62
               0
100
AcDbCircle
 10
530.89546946820315
 20
-705.98687736366765
 30
0.0
 40
4.99969482421875
  0
HATCH
  5
82
100
AcDbEntity
  8
0
370
              -2
390
0
  6
Continuous
 62
               0
100
AcDbHatch
 10
0.0
 20
0.0
 30
0.0
210
0.0
220
0.0
230
1.0
  2
SOLID
 70
               1
 71
               1
 91
        1
 92
        1
 93
        1
 72
               2
 10
530.89546946820315
 20
-705.98687736366765
 40
4.99969482421875
 50
0.0
 51
360.0
 73
               0
 97
        1
330
81
 75
               0
 76
               1
 98
        1
 10
0.0
 20
0.0
  0
CIRCLE
  5
83
102
{ACAD_REACTORS
330
84
102
}
100
AcDbEntity
  8
0
370
              -2
390
0
  6
Continuous
 62
               0
100
AcDbCircle
 10
293.39546946820326
 20
-705.98687736366765
 30
0.0
 40
4.99969482421875
  0
HATCH
  5
84
100
AcDbEntity
  8
0
370
              -2
390
0
  6
Continuous
 62
               0
100
AcDbHatch
 10
0.0
 20
0.0
 30
0.0
210
0.0
220
0.0
230
1.0
  2
SOLID
 70
               1
 71
               1
 91
        1
 92
        1
 93
        1
 72
               2
 10
293.39546946820326
 20
-705.98687736366765
 40
4.99969482421875
 50
0.0
 51
360.0
 73
               0
 97
        1
330
83
 75
               0
 76
               1
 98
        1
 10
0.0
 20
0.0
  0
MTEXT
  5
85
100
AcDbEntity
  8
0
390
0
 62
               0
100
AcDbMText
 10
372.4579694682032
 20
-672.10926017616771
 30
0.0
 40
24.432617187500004
 41
0.0
 71
               1
 72
               1
  1
237.5
  7
ＭＳ ゴシック
 73
               1
 44
0.7828267384257843
  0
POINT
  5
86
100
AcDbEntity
  8
Defpoints
370
               0
390
0
 62
               0
100
AcDbPoint
 10
293.39546946820326
 20
-507.51632917007186
 30
0.0
  0
POINT
  5
87
100
AcDbEntity
  8
Defpoints
370
               0
390
0
 62
               0
100
AcDbPoint
 10
530.89546946820315
 20
-605.98464521290907
 30
0.0
  0
POINT
  5
88
100
AcDbEntity
  8
Defpoints
370
               0
390
0
 62
               0
100
AcDbPoint
 10
530.89546946820315
 20
-705.98687736366765
 30
0.0
  0
ENDBLK
  5
89
100
AcDbEntity
  8
notes
390
0
100
AcDbBlockEnd
  0
BLOCK
  5
8A
100
AcDbEntity
  8
notes
390
0
100
AcDbBlockBegin
  2
*D6
 70
               1
 10
0.0
 20
0.0
 30
0.0
  3
*D6
  1

  0
LINE
  5
8B
100
AcDbEntity
  8
0
370
              -2
390
0
  6
Continuous
 62
               0
100
AcDbLine
 10
-465.87855927022224
 20
686.77840277800919
 30
0.0
 11
-403.82055976538368
 21
748.83640228284776
 31
0.0
  0
CIRCLE
  5
8C
102
{ACAD_REACTORS
330
8D
102
}
100
AcDbEntity
  8
0
370
              -2
390
0
  6
Continuous
 62
               0
100
AcDbCircle
 10
-465.87855927022224
 20
686.77840277800919
 30
0.0
 40
4.99969482421875
  0
HATCH
  5
8D
100
AcDbEntity
  8
0
370
              -2
390
0
  6
Continuous
 62
               0
100
AcDbHatch
 10
0.0
 20
0.0
 30
0.0
210
0.0
220
0.0
230
1.0
  2
SOLID
 70
               1
 71
               1
 91
        1
 92
        1
 93
        1
 72
               2
 10
-465.87855927022224
 20
686.77840277800919
 40
4.99969482421875
 50
0.0
 51
360.0
 73
               0
 97
        1
330
8C
 75
               0
 76
               1
 98
        1
 10
0.0
 20
0.0
  0
LINE
  5
8E
100
AcDbEntity
  8
0
370
              -2
390
0
  6
Continuous
 62
               0
100
AcDbLine
 10
-403.82055976538368
 20
748.83640228284776
 30
0.0
 11
-280.32055976538368
 21
748.83640228284776
 31
0.0
  0
MTEXT
  5
8F
100
AcDbEntity
  8
0
390
0
 62
               0
100
AcDbMText
 10
-343.82055976538368
 20
782.71401947034769
 30
0.0
 40
24.432617187500004
 41
0.0
 71
               1
 72
               1
  1
φ36
  7
ＭＳ ゴシック
 73
               1
 44
0.7828267384257843
  0
POINT
  5
90
100
AcDbEntity
  8
Defpoints
370
               0
390
0
 62
               0
100
AcDbPoint
 10
-491.33440339293793
 20
661.32255865529351
 30
0.0
  0
POINT
  5
91
100
AcDbEntity
  8
Defpoints
370
               0
390
0
 62
               0
100
AcDbPoint
 10
-465.87855927022224
 20
686.77840277800919
 30
0.0
  0
ENDBLK
  5
92
100
AcDbEntity
  8
notes
390
0
100
AcDbBlockEnd
  0
BLOCK
  5
93
100
AcDbEntity
  8
notes
390
0
100
AcDbBlockBegin
  2
*D7
 70
               1
 10
0.0
 20
0.0
 30
0.0
  3
*D7
  1

  0
LINE
  5
94
100
AcDbEntity
  8
0
370
              -2
390
0
  6
Continuous
 62
               0
100
AcDbLine
 10
-720.00569555018456
 20
624.1589637698512
 30
0.0
 11
-828.6064813315802
 21
624.1589637698512
 31
0.0
  0
LINE
  5
95
100
AcDbEntity
  8
0
370
              -2
390
0
  6
Continuous
 62
               0
100
AcDbLine
 10
-503.56613448643697
 20
724.1589637698512
 30
0.0
 11
-828.6064813315802
 21
724.1589637698512
 31
0.0
  0
LINE
  5
96
100
AcDbEntity
  8
0
370
              -2
390
0
  6
Continuous
 62
               0
100
AcDbLine
 10
-828.6064813315802
 20
624.1589637698512
 30
0.0
 11
-828.6064813315802
 21
724.1589637698512
 31
0.0
  0
CIRCLE
  5
97
102
{ACAD_REACTORS
330
98
102
}
100
AcDbEntity
  8
0
370
              -2
390
0
  6
Continuous
 62
               0
100
AcDbCircle
 10
-828.6064813315802
 20
624.1589637698512
 30
0.0
 40
4.99969482421875
  0
HATCH
  5
98
100
AcDbEntity
  8
0
370
              -2
390
0
  6
Continuous
 62
               0
100
AcDbHatch
 10
0.0
 20
0.0
 30
0.0
210
0.0
220
0.0
230
1.0
  2
SOLID
 70
               1
 71
               1
 91
        1
 92
        1
 93
        1
 72
               2
 10
-828.6064813315802
 20
624.1589637698512
 40
4.99969482421875
 50
0.0
 51
360.0
 73
               0
 97
        1
330
97
 75
               0
 76
               1
 98
        1
 10
0.0
 20
0.0
  0
CIRCLE
  5
99
102
{ACAD_REACTORS
330
9A
102
}
100
AcDbEntity
  8
0
370
              -2
390
0
  6
Continuous
 62
               0
100
AcDbCircle
 10
-828.6064813315802
 20
724.1589637698512
 30
0.0
 40
4.99969482421875
  0
HATCH
  5
9A
100
AcDbEntity
  8
0
370
              -2
390
0
  6
Continuous
 62
               0
100
AcDbHatch
 10
0.0
 20
0.0
 30
0.0
210
0.0
220
0.0
230
1.0
  2
SOLID
 70
               1
 71
               1
 91
        1
 92
        1
 93
        1
 72
               2
 10
-828.6064813315802
 20
724.1589637698512
 40
4.99969482421875
 50
0.0
 51
360.0
 73
               0
 97
        1
330
99
 75
               0
 76
               1
 98
        1
 10
0.0
 20
0.0
  0
MTEXT
  5
9B
100
AcDbEntity
  8
0
390
0
 62
               0
100
AcDbMText
 10
-862.48409851908025
 20
651.02390060067228
 30
0.0
 40
24.432617187500004
 41
0.0
 71
               1
 72
               1
  1
100
  7
ＭＳ ゴシック
 11
0.0
 21
1.0
 31
0.0
 73
               1
 44
0.7828267384257843
  0
POINT
  5
9C
100
AcDbEntity
  8
Defpoints
370
               0
390
0
 62
               0
100
AcDbPoint
 10
-478.56613448643697
 20
724.1589637698512
 30
0.0
  0
POINT
  5
9D
100
AcDbEntity
  8
Defpoints
370
               0
390
0
 62
               0
100
AcDbPoint
 10
-695.00569555018456
 20
624.1589637698512
 30
0.0
  0
POINT
  5
9E
100
AcDbEntity
  8
Defpoints
370
               0
390
0
 62
               0
100
AcDbPoint
 10
-828.6064813315802
 20
624.1589637698512
 30
0.0
  0
ENDBLK
  5
9F
100
AcDbEntity
  8
notes
390
0
100
AcDbBlockEnd
  0
BLOCK
  5
A0
100
AcDbEntity
  8
notes
390
0
100
AcDbBlockBegin
  2
*D8
 70
               1
 10
0.0
 20
0.0
 30
0.0
  3
*D8
  1

  0
LINE
  5
A1
100
AcDbEntity
  8
0
370
              -2
390
0
  6
Continuous
 62
               0
100
AcDbLine
 10
-720.00569555018456
 20
624.1589637698512
 30
0.0
 11
-828.6064813315802
 21
624.1589637698512
 31
0.0
  0
LINE
  5
A2
100
AcDbEntity
  8
0
370
              -2
390
0
  6
Continuous
 62
               0
100
AcDbLine
 10
-624.64319249528717
 20
349.15896376985057
 30
0.0
 11
-828.6064813315802
 21
349.15896376985057
 31
0.0
  0
LINE
  5
A3
100
AcDbEntity
  8
0
370
              -2
390
0
  6
Continuous
 62
               0
100
AcDbLine
 10
-828.6064813315802
 20
624.1589637698512
 30
0.0
 11
-828.6064813315802
 21
349.15896376985057
 31
0.0
  0
CIRCLE
  5
A4
102
{ACAD_REACTORS
330
A5
102
}
100
AcDbEntity
  8
0
370
              -2
390
0
  6
Continuous
 62
               0
100
AcDbCircle
 10
-828.6064813315802
 20
624.1589637698512
 30
0.0
 40
4.99969482421875
  0
HATCH
  5
A5
100
AcDbEntity
  8
0
370
              -2
390
0
  6
Continuous
 62
               0
100
AcDbHatch
 10
0.0
 20
0.0
 30
0.0
210
0.0
220
0.0
230
1.0
  2
SOLID
 70
               1
 71
               1
 91
        1
 92
        1
 93
        1
 72
               2
 10
-828.6064813315802
 20
624.1589637698512
 40
4.99969482421875
 50
0.0
 51
360.0
 73
               0
 97
        1
330
A4
 75
               0
 76
               1
 98
        1
 10
0.0
 20
0.0
  0
CIRCLE
  5
A6
102
{ACAD_REACTORS
330
A7
102
}
100
AcDbEntity
  8
0
370
              -2
390
0
  6
Continuous
 62
               0
100
AcDbCircle
 10
-828.6064813315802
 20
349.15896376985057
 30
0.0
 40
4.99969482421875
  0
HATCH
  5
A7
100
AcDbEntity
  8
0
370
              -2
390
0
  6
Continuous
 62
               0
100
AcDbHatch
 10
0.0
 20
0.0
 30
0.0
210
0.0
220
0.0
230
1.0
  2
SOLID
 70
               1
 71
               1
 91
        1
 92
        1
 93
        1
 72
               2
 10
-828.6064813315802
 20
349.15896376985057
 40
4.99969482421875
 50
0.0
 51
360.0
 73
               0
 97
        1
330
A6
 75
               0
 76
               1
 98
        1
 10
0.0
 20
0.0
  0
MTEXT
  5
A8
100
AcDbEntity
  8
0
390
0
 62
               0
100
AcDbMText
 10
-862.48409851908025
 20
462.84646208767543
 30
0.0
 40
24.432617187500004
 41
0.0
 71
               1
 72
               1
  1
275
  7
ＭＳ ゴシック
 11
0.0
 21
1.0
 31
0.0
 73
               1
 44
0.7828267384257843
  0
POINT
  5
A9
100
AcDbEntity
  8
Defpoints
370
               0
390
0
 62
               0
100
AcDbPoint
 10
-599.64319249528717
 20
349.15896376985057
 30
0.0
  0
POINT
  5
AA
100
AcDbEntity
  8
Defpoints
370
               0
390
0
 62
               0
100
AcDbPoint
 10
-695.00569555018456
 20
624.1589637698512
 30
0.0
  0
POINT
  5
AB
100
AcDbEntity
  8
Defpoints
370
               0
390
0
 62
               0
100
AcDbPoint
 10
-828.6064813315802
 20
624.1589637698512
 30
0.0
  0
ENDBLK
  5
AC
100
AcDbEntity
  8
notes
390
0
100
AcDbBlockEnd
  0
BLOCK
  5
AD
100
AcDbEntity
  8
notes
390
0
100
AcDbBlockBegin
  2
*D9
 70
               1
 10
0.0
 20
0.0
 30
0.0
  3
*D9
  1

  0
LINE
  5
AE
100
AcDbEntity
  8
0
370
              -2
390
0
  6
Continuous
 62
               0
100
AcDbLine
 10
-624.64319249528717
 20
349.15896376985057
 30
0.0
 11
-828.6064813315802
 21
349.15896376985057
 31
0.0
  0
LINE
  5
AF
100
AcDbEntity
  8
0
370
              -2
390
0
  6
Continuous
 62
               0
100
AcDbLine
 10
-503.56613448643697
 20
324.15896376985057
 30
0.0
 11
-828.6064813315802
 21
324.15896376985057
 31
0.0
  0
LINE
  5
B0
100
AcDbEntity
  8
0
370
              -2
390
0
  6
Continuous
 62
               0
100
AcDbLine
 10
-828.6064813315802
 20
349.15896376985057
 30
0.0
 11
-828.6064813315802
 21
324.15896376985057
 31
0.0
  0
CIRCLE
  5
B1
102
{ACAD_REACTORS
330
B2
102
}
100
AcDbEntity
  8
0
370
              -2
390
0
  6
Continuous
 62
               0
100
AcDbCircle
 10
-828.6064813315802
 20
349.15896376985057
 30
0.0
 40
4.99969482421875
  0
HATCH
  5
B2
100
AcDbEntity
  8
0
370
              -2
390
0
  6
Continuous
 62
               0
100
AcDbHatch
 10
0.0
 20
0.0
 30
0.0
210
0.0
220
0.0
230
1.0
  2
SOLID
 70
               1
 71
               1
 91
        1
 92
        1
 93
        1
 72
               2
 10
-828.6064813315802
 20
349.15896376985057
 40
4.99969482421875
 50
0.0
 51
360.0
 73
               0
 97
        1
330
B1
 75
               0
 76
               1
 98
        1
 10
0.0
 20
0.0
  0
CIRCLE
  5
B3
102
{ACAD_REACTORS
330
B4
102
}
100
AcDbEntity
  8
0
370
              -2
390
0
  6
Continuous
 62
               0
100
AcDbCircle
 10
-828.6064813315802
 20
324.15896376985057
 30
0.0
 40
4.99969482421875
  0
HATCH
  5
B4
100
AcDbEntity
  8
0
370
              -2
390
0
  6
Continuous
 62
               0
100
AcDbHatch
 10
0.0
 20
0.0
 30
0.0
210
0.0
220
0.0
230
1.0
  2
SOLID
 70
               1
 71
               1
 91
        1
 92
        1
 93
        1
 72
               2
 10
-828.6064813315802
 20
324.15896376985057
 40
4.99969482421875
 50
0.0
 51
360.0
 73
               0
 97
        1
330
B3
 75
               0
 76
               1
 98
        1
 10
0.0
 20
0.0
  0
MTEXT
  5
B5
100
AcDbEntity
  8
0
390
0
 62
               0
100
AcDbMText
 10
-862.48409851908025
 20
320.78396376985057
 30
0.0
 40
24.432617187500004
 41
0.0
 71
               1
 72
               1
  1
25
  7
ＭＳ ゴシック
 11
0.0
 21
1.0
 31
0.0
 73
               1
 44
0.7828267384257843
  0
POINT
  5
B6
100
AcDbEntity
  8
Defpoints
370
               0
390
0
 62
               0
100
AcDbPoint
 10
-478.56613448643697
 20
324.15896376985057
 30
0.0
  0
POINT
  5
B7
100
AcDbEntity
  8
Defpoints
370
               0
390
0
 62
               0
100
AcDbPoint
 10
-599.64319249528717
 20
349.15896376985057
 30
0.0
  0
POINT
  5
B8
100
AcDbEntity
  8
Defpoints
370
               0
390
0
 62
               0
100
AcDbPoint
 10
-828.6064813315802
 20
349.15896376985057
 30
0.0
  0
ENDBLK
  5
B9
100
AcDbEntity
  8
notes
390
0
100
AcDbBlockEnd
  0
BLOCK
  5
BA
100
AcDbEntity
  8
notes
390
0
100
AcDbBlockBegin
  2
*D10
 70
               1
 10
0.0
 20
0.0
 30
0.0
  3
*D10
  1

  0
LINE
  5
BB
100
AcDbEntity
  8
0
370
              -2
390
0
  6
Continuous
 62
               0
100
AcDbLine
 10
-668.56613448643702
 20
366.72485529695069
 30
0.0
 11
-668.56613448643702
 21
224.09904766545066
 31
0.0
  0
LINE
  5
BC
100
AcDbEntity
  8
0
370
              -2
390
0
  6
Continuous
 62
               0
100
AcDbLine
 10
-288.56613448643697
 20
369.16456268797612
 30
0.0
 11
-288.56613448643697
 21
224.09904766545066
 31
0.0
  0
LINE
  5
BD
100
AcDbEntity
  8
0
370
              -2
390
0
  6
Continuous
 62
               0
100
AcDbLine
 10
-668.56613448643702
 20
224.09904766545066
 30
0.0
 11
-288.56613448643697
 21
224.09904766545066
 31
0.0
  0
CIRCLE
  5
BE
102
{ACAD_REACTORS
330
BF
102
}
100
AcDbEntity
  8
0
370
              -2
390
0
  6
Continuous
 62
               0
100
AcDbCircle
 10
-668.56613448643702
 20
224.09904766545066
 30
0.0
 40
4.99969482421875
  0
HATCH
  5
BF
100
AcDbEntity
  8
0
370
              -2
390
0
  6
Continuous
 62
               0
100
AcDbHatch
 10
0.0
 20
0.0
 30
0.0
210
0.0
220
0.0
230
1.0
  2
SOLID
 70
               1
 71
               1
 91
        1
 92
        1
 93
        1
 72
               2
 10
-668.56613448643702
 20
224.09904766545066
 40
4.99969482421875
 50
0.0
 51
360.0
 73
               0
 97
        1
330
BE
 75
               0
 76
               1
 98
        1
 10
0.0
 20
0.0
  0
CIRCLE
  5
C0
102
{ACAD_REACTORS
330
C1
102
}
100
AcDbEntity
  8
0
370
              -2
390
0
  6
Continuous
 62
               0
100
AcDbCircle
 10
-288.56613448643697
 20
224.09904766545066
 30
0.0
 40
4.99969482421875
  0
HATCH
  5
C1
100
AcDbEntity
  8
0
370
              -2
390
0
  6
Continuous
 62
               0
100
AcDbHatch
 10
0.0
 20
0.0
 30
0.0
210
0.0
220
0.0
230
1.0
  2
SOLID
 70
               1
 71
               1
 91
        1
 92
        1
 93
        1
 72
               2
 10
-288.56613448643697
 20
224.09904766545066
 40
4.99969482421875
 50
0.0
 51
360.0
 73
               0
 97
        1
330
C0
 75
               0
 76
               1
 98
        1
 10
0.0
 20
0.0
  0
MTEXT
  5
C2
100
AcDbEntity
  8
0
390
0
 62
               0
100
AcDbMText
 10
-502.37863616861256
 20
257.97666485295065
 30
0.0
 40
24.432617187500004
 41
0.0
 71
               1
 72
               1
  1
380
  7
ＭＳ ゴシック
 73
               1
 44
0.7828267384257843
  0
POINT
  5
C3
100
AcDbEntity
  8
Defpoints
370
               0
390
0
 62
               0
100
AcDbPoint
 10
-288.56613448643697
 20
394.16456268797612
 30
0.0
  0
POINT
  5
C4
100
AcDbEntity
  8
Defpoints
370
               0
390
0
 62
               0
100
AcDbPoint
 10
-668.56613448643702
 20
391.72485529695069
 30
0.0
  0
POINT
  5
C5
100
AcDbEntity
  8
Defpoints
370
               0
390
0
 62
               0
100
AcDbPoint
 10
-668.56613448643702
 20
224.09904766545066
 30
0.0
  0
ENDBLK
  5
C6
100
AcDbEntity
  8
notes
390
0
100
AcDbBlockEnd
  0
BLOCK
  5
C7
100
AcDbEntity
  8
notes
390
0
100
AcDbBlockBegin
  2
*D11
 70
               1
 10
0.0
 20
0.0
 30
0.0
  3
*D11
  1

  0
LINE
  5
C8
100
AcDbEntity
  8
0
370
              -2
390
0
  6
Continuous
 62
               0
100
AcDbLine
 10
714.82803611090333
 20
-495.58959810116829
 30
0.0
 11
793.47362009820324
 21
-495.58959810116829
 31
0.0
  0
LINE
  5
C9
100
AcDbEntity
  8
0
370
              -2
390
0
  6
Continuous
 62
               0
100
AcDbLine
 10
717.71304992970329
 20
-503.58959848116814
 30
0.0
 11
793.47362009820324
 21
-503.58959848116814
 31
0.0
  0
LINE
  5
CA
100
AcDbEntity
  8
0
370
              -2
390
0
  6
Continuous
 62
               0
100
AcDbLine
 10
793.47362009820324
 20
-495.58959810116829
 30
0.0
 11
793.47362009820324
 21
-459.64132917007186
 31
0.0
  0
LINE
  5
CB
100
AcDbEntity
  8
0
370
              -2
390
0
  6
Continuous
 62
               0
100
AcDbLine
 10
793.47362009820324
 20
-495.58959810116829
 30
0.0
 11
793.47362009820324
 21
-503.58959848116814
 31
0.0
  0
CIRCLE
  5
CC
102
{ACAD_REACTORS
330
CD
102
}
100
AcDbEntity
  8
0
370
              -2
390
0
  6
Continuous
 62
               0
100
AcDbCircle
 10
793.47362009820324
 20
-495.58959810116829
 30
0.0
 40
4.99969482421875
  0
HATCH
  5
CD
100
AcDbEntity
  8
0
370
              -2
390
0
  6
Continuous
 62
               0
100
AcDbHatch
 10
0.0
 20
0.0
 30
0.0
210
0.0
220
0.0
230
1.0
  2
SOLID
 70
               1
 71
               1
 91
        1
 92
        1
 93
        1
 72
               2
 10
793.47362009820324
 20
-495.58959810116829
 40
4.99969482421875
 50
0.0
 51
360.0
 73
               0
 97
        1
330
CC
 75
               0
 76
               1
 98
        1
 10
0.0
 20
0.0
  0
CIRCLE
  5
CE
102
{ACAD_REACTORS
330
CF
102
}
100
AcDbEntity
  8
0
370
              -2
390
0
  6
Continuous
 62
               0
100
AcDbCircle
 10
793.47362009820324
 20
-503.58959848116814
 30
0.0
 40
4.99969482421875
  0
HATCH
  5
CF
100
AcDbEntity
  8
0
370
              -2
390
0
  6
Continuous
 62
               0
100
AcDbHatch
 10
0.0
 20
0.0
 30
0.0
210
0.0
220
0.0
230
1.0
  2
SOLID
 70
               1
 71
               1
 91
        1
 92
        1
 93
        1
 72
               2
 10
793.47362009820324
 20
-503.58959848116814
 40
4.99969482421875
 50
0.0
 51
360.0
 73
               0
 97
        1
330
CE
 75
               0
 76
               1
 98
        1
 10
0.0
 20
0.0
  0
MTEXT
  5
D0
100
AcDbEntity
  8
0
390
0
 62
               0
100
AcDbMText
 10
759.59600291070319
 20
-475.51632917007186
 30
0.0
 40
24.432617187500004
 41
0.0
 71
               1
 72
               1
  1
8
  7
ＭＳ ゴシック
 11
0.0
 21
1.0
 31
0.0
 73
               1
 44
0.7828267384257843
  0
POINT
  5
D1
100
AcDbEntity
  8
Defpoints
370
               0
390
0
 62
               0
100
AcDbPoint
 10
692.71304992970329
 20
-503.58959848116814
 30
0.0
  0
POINT
  5
D2
100
AcDbEntity
  8
Defpoints
370
               0
390
0
 62
               0
100
AcDbPoint
 10
689.82803611090333
 20
-495.58959810116829
 30
0.0
  0
POINT
  5
D3
100
AcDbEntity
  8
Defpoints
370
               0
390
0
 62
               0
100
AcDbPoint
 10
793.47362009820324
 20
-495.58959810116829
 30
0.0
  0
ENDBLK
  5
D4
100
AcDbEntity
  8
notes
390
0
100
AcDbBlockEnd
  0
BLOCK
  5
D5
100
AcDbEntity
  8
notes
390
0
100
AcDbBlockBegin
  2
*D12
 70
               1
 10
0.0
 20
0.0
 30
0.0
  3
*D12
  1

  0
LINE
  5
D6
100
AcDbEntity
  8
0
370
              -2
390
0
  6
Continuous
 62
               0
100
AcDbLine
 10
-207.04601206178006
 20
-495.58959810156824
 30
0.0
 11
-78.546846884480132
 21
-495.58959810156824
 31
0.0
  0
LINE
  5
D7
100
AcDbEntity
  8
0
370
              -2
390
0
  6
Continuous
 62
               0
100
AcDbLine
 10
-427.41410307888015
 20
-647.5895981015683
 30
0.0
 11
-78.546846884480132
 21
-647.5895981015683
 31
0.0
  0
LINE
  5
D8
100
AcDbEntity
  8
0
370
              -2
390
0
  6
Continuous
 62
               0
100
AcDbLine
 10
-78.546846884480132
 20
-495.58959810156824
 30
0.0
 11
-78.546846884480132
 21
-647.5895981015683
 31
0.0
  0
CIRCLE
  5
D9
102
{ACAD_REACTORS
330
DA
102
}
100
AcDbEntity
  8
0
370
              -2
390
0
  6
Continuous
 62
               0
100
AcDbCircle
 10
-78.546846884480132
 20
-495.58959810156824
 30
0.0
 40
4.99969482421875
  0
HATCH
  5
DA
100
AcDbEntity
  8
0
370
              -2
390
0
  6
Continuous
 62
               0
100
AcDbHatch
 10
0.0
 20
0.0
 30
0.0
210
0.0
220
0.0
230
1.0
  2
SOLID
 70
               1
 71
               1
 91
        1
 92
        1
 93
        1
 72
               2
 10
-78.546846884480132
 20
-495.58959810156824
 40
4.99969482421875
 50
0.0
 51
360.0
 73
               0
 97
        1
330
D9
 75
               0
 76
               1
 98
        1
 10
0.0
 20
0.0
  0
CIRCLE
  5
DB
102
{ACAD_REACTORS
330
DC
102
}
100
AcDbEntity
  8
0
370
              -2
390
0
  6
Continuous
 62
               0
100
AcDbCircle
 10
-78.546846884480132
 20
-647.5895981015683
 30
0.0
 40
4.99969482421875
  0
HATCH
  5
DC
100
AcDbEntity
  8
0
370
              -2
390
0
  6
Continuous
 62
               0
100
AcDbHatch
 10
0.0
 20
0.0
 30
0.0
210
0.0
220
0.0
230
1.0
  2
SOLID
 70
               1
 71
               1
 91
        1
 92
        1
 93
        1
 72
               2
 10
-78.546846884480132
 20
-647.5895981015683
 40
4.99969482421875
 50
0.0
 51
360.0
 73
               0
 97
        1
330
DB
 75
               0
 76
               1
 98
        1
 10
0.0
 20
0.0
  0
MTEXT
  5
DD
100
AcDbEntity
  8
0
390
0
 62
               0
100
AcDbMText
 10
-112.42446407198014
 20
-595.40209978374378
 30
0.0
 40
24.432617187500004
 41
0.0
 71
               1
 72
               1
  1
152
  7
ＭＳ ゴシック
 11
0.0
 21
1.0
 31
0.0
 73
               1
 44
0.7828267384257843
  0
POINT
  5
DE
100
AcDbEntity
  8
Defpoints
370
               0
390
0
 62
               0
100
AcDbPoint
 10
-452.41410307888015
 20
-647.5895981015683
 30
0.0
  0
POINT
  5
DF
100
AcDbEntity
  8
Defpoints
370
               0
390
0
 62
               0
100
AcDbPoint
 10
-232.04601206178006
 20
-495.58959810156824
 30
0.0
  0
POINT
  5
E0
100
AcDbEntity
  8
Defpoints
370
               0
390
0
 62
               0
100
AcDbPoint
 10
-78.546846884480132
 20
-495.58959810156824
 30
0.0
  0
ENDBLK
  5
E1
100
AcDbEntity
  8
notes
390
0
100
AcDbBlockEnd
  0
BLOCK
  5
E2
100
AcDbEntity
  8
notes
390
0
100
AcDbBlockBegin
  2
*D13
 70
               1
 10
0.0
 20
0.0
 30
0.0
  3
*D13
  1

  0
LINE
  5
E3
100
AcDbEntity
  8
0
370
              -2
390
0
  6
Continuous
 62
               0
100
AcDbLine
 10
505.89546946820315
 20
-495.58959810116829
 30
0.0
 11
526.7957723732809
 21
-495.58959810116829
 31
0.0
  0
LINE
  5
E4
100
AcDbEntity
  8
0
370
              -2
390
0
  6
Continuous
 62
               0
100
AcDbLine
 10
505.89546946820315
 20
-597.58959810116767
 30
0.0
 11
526.7957723732809
 21
-597.58959810116767
 31
0.0
  0
LINE
  5
E5
100
AcDbEntity
  8
0
370
              -2
390
0
  6
Continuous
 62
               0
100
AcDbLine
 10
526.7957723732809
 20
-495.58959810116829
 30
0.0
 11
526.7957723732809
 21
-336.95346039927603
 31
0.0
  0
LINE
  5
E6
100
AcDbEntity
  8
0
370
              -2
390
0
  6
Continuous
 62
               0
100
AcDbLine
 10
526.7957723732809
 20
-495.58959810116829
 30
0.0
 11
526.7957723732809
 21
-597.58959810116767
 31
0.0
  0
CIRCLE
  5
E7
102
{ACAD_REACTORS
330
E8
102
}
100
AcDbEntity
  8
0
370
              -2
390
0
  6
Continuous
 62
               0
100
AcDbCircle
 10
526.7957723732809
 20
-495.58959810116829
 30
0.0
 40
4.99969482421875
  0
HATCH
  5
E8
100
AcDbEntity
  8
0
370
              -2
390
0
  6
Continuous
 62
               0
100
AcDbHatch
 10
0.0
 20
0.0
 30
0.0
210
0.0
220
0.0
230
1.0
  2
SOLID
 70
               1
 71
               1
 91
        1
 92
        1
 93
        1
 72
               2
 10
526.7957723732809
 20
-495.58959810116829
 40
4.99969482421875
 50
0.0
 51
360.0
 73
               0
 97
        1
330
E7
 75
               0
 76
               1
 98
        1
 10
0.0
 20
0.0
  0
CIRCLE
  5
E9
102
{ACAD_REACTORS
330
EA
102
}
100
AcDbEntity
  8
0
370
              -2
390
0
  6
Continuous
 62
               0
100
AcDbCircle
 10
526.7957723732809
 20
-597.58959810116767
 30
0.0
 40
4.99969482421875
  0
HATCH
  5
EA
100
AcDbEntity
  8
0
370
              -2
390
0
  6
Continuous
 62
               0
100
AcDbHatch
 10
0.0
 20
0.0
 30
0.0
210
0.0
220
0.0
230
1.0
  2
SOLID
 70
               1
 71
               1
 91
        1
 92
        1
 93
        1
 72
               2
 10
526.7957723732809
 20
-597.58959810116767
 40
4.99969482421875
 50
0.0
 51
360.0
 73
               0
 97
        1
330
E9
 75
               0
 76
               1
 98
        1
 10
0.0
 20
0.0
  0
MTEXT
  5
EB
100
AcDbEntity
  8
0
390
0
 62
               0
100
AcDbMText
 10
492.9181551857809
 20
-479.82846039927603
 30
0.0
 40
24.432617187500004
 41
0.0
 71
               1
 72
               1
  1
102(深さ)
  7
ＭＳ ゴシック
 11
0.0
 21
1.0
 31
0.0
 73
               1
 44
0.7828267384257843
  0
POINT
  5
EC
100
AcDbEntity
  8
Defpoints
370
               0
390
0
 62
               0
100
AcDbPoint
 10
530.89546946820315
 20
-597.58959810116767
 30
0.0
  0
POINT
  5
ED
100
AcDbEntity
  8
Defpoints
370
               0
390
0
 62
               0
100
AcDbPoint
 10
530.89546946820315
 20
-495.58959810116829
 30
0.0
  0
POINT
  5
EE
100
AcDbEntity
  8
Defpoints
370
               0
390
0
 62
               0
100
AcDbPoint
 10
526.7957723732809
 20
-495.58959810116829
 30
0.0
  0
ENDBLK
  5
EF
100
AcDbEntity
  8
notes
390
0
100
AcDbBlockEnd
  0
BLOCK
  5
F0
100
AcDbEntity
  8
notes
390
0
100
AcDbBlockBegin
  2
グループ-1
 70
               0
 10
0.0
 20
0.0
 30
0.0
  3
グループ-1
  1

  0
POLYLINE
  5
F1
100
AcDbEntity
  8
0
370
              15
390
0
  6
Continuous
 62
               7
100
AcDb2dPolyline
 66
               1
 10
0.0
 20
0.0
 30
0.0
 70
               1
 75
               5
  0
VERTEX
  5
F2
100
AcDbEntity
  8
0
370
              15
390
0
  6
Continuous
 62
               7
100
AcDbVertex
100
AcDb2dVertex
 10
-516.0
 20
-542.79812288857829
 30
0.0
  0
VERTEX
  5
F3
100
AcDbEntity
  8
0
370
              15
390
0
  6
Continuous
 62
               7
100
AcDbVertex
100
AcDb2dVertex
 10
-441.0
 20
-542.79812288857829
 30
0.0
  0
VERTEX
  5
F4
100
AcDbEntity
  8
0
370
              15
390
0
  6
Continuous
 62
               7
100
AcDbVertex
100
AcDb2dVertex
 10
-441.0
 20
-592.42849866102154
 30
0.0
  0
VERTEX
  5
F5
100
AcDbEntity
  8
0
370
              15
390
0
  6
Continuous
 62
               7
100
AcDbVertex
100
AcDb2dVertex
 10
-516.0
 20
-592.42849866102154
 30
0.0
  0
SEQEND
  5
F6
100
AcDbEntity
  8
0
370
              15
390
0
  6
Continuous
 62
               7
  0
LINE
  5
F7
100
AcDbEntity
  8
0
370
              15
390
0
  6
Continuous
 62
               7
100
AcDbLine
 10
-516.0
 20
-556.79812288857829
 30
0.0
 11
-441.0
 21
-556.79812288857829
 31
0.0
  0
ENDBLK
  5
F8
100
AcDbEntity
  8
notes
390
0
100
AcDbBlockEnd
  0
BLOCK
  5
F9
100
AcDbEntity
  8
notes
390
0
100
AcDbBlockBegin
  2
グループ-2
 70
               0
 10
0.0
 20
0.0
 30
0.0
  3
グループ-2
  1

  0
POLYLINE
  5
FA
100
AcDbEntity
  8
0
370
              15
390
0
  6
Continuous
 62
               7
100
AcDb2dPolyline
 66
               1
 10
0.0
 20
0.0
 30
0.0
 70
               1
 75
               5
  0
VERTEX
  5
FB
100
AcDbEntity
  8
0
370
              15
390
0
  6
Continuous
 62
               7
100
AcDbVertex
100
AcDb2dVertex
 10
493.0
 20
-542.79812288857829
 30
0.0
  0
VERTEX
  5
FC
100
AcDbEntity
  8
0
370
              15
390
0
  6
Continuous
 62
               7
100
AcDbVertex
100
AcDb2dVertex
 10
568.0
 20
-542.79812288857829
 30
0.0
  0
VERTEX
  5
FD
100
AcDbEntity
  8
0
370
              15
390
0
  6
Continuous
 62
               7
100
AcDbVertex
100
AcDb2dVertex
 10
568.0
 20
-592.42849866102154
 30
0.0
  0
VERTEX
  5
FE
100
AcDbEntity
  8
0
370
              15
390
0
  6
Continuous
 62
               7
100
AcDbVertex
100
AcDb2dVertex
 10
493.0
 20
-592.42849866102154
 30
0.0
  0
SEQEND
  5
FF
100
AcDbEntity
  8
0
370
              15
390
0
  6
Continuous
 62
               7
  0
LINE
  5
100
100
AcDbEntity
  8
0
370
              15
390
0
  6
Continuous
 62
               7
100
AcDbLine
 10
493.0
 20
-556.79812288857829
 30
0.0
 11
568.0
 21
-556.79812288857829
 31
0.0
  0
ENDBLK
  5
101
100
AcDbEntity
  8
notes
390
0
100
AcDbBlockEnd
  0
ENDSEC
  0
SECTION
  2
ENTITIES
  0
MTEXT
  5
102
100
AcDbEntity
  8
template
390
0
 62
               7
100
AcDbMText
 10
-967.99999999975921
 20
-1147.4176292337004
 30
0.0
 40
16.288411458333332
 41
0.0
 71
               1
 72
               1
  1
品名
  7
ＭＳ ゴシック
 73
               1
 44
0.7828267384257843
  0
MTEXT
  5
103
100
AcDbEntity
  8
template
390
0
 62
               7
100
AcDbMText
 10
-967.99999999975921
 20
-1232.4176292337004
 30
0.0
 40
16.288411458333332
 41
0.0
 71
               1
 72
               1
  1
仕様
  7
ＭＳ ゴシック
 73
               1
 44
0.7828267384257843
  0
LINE
  5
104
100
AcDbEntity
  8
template
370
               5
390
0
  6
Continuous
 62
               7
100
AcDbLine
 10
974.99999999975876
 20
-1224.0027073587005
 30
0.0
 11
-975.00000000024124
 21
-1224.0027073587005
 31
0.0
  0
LWPOLYLINE
  5
105
100
AcDbEntity
  8
template
370
               5
390
0
  6
Continuous
 62
               7
100
AcDbPolyline
 90
        5
 70
             128
 10
975.00000000024124
 20
1405.9972926412995
 10
-974.99999999975921
 20
1405.9972926412995
 10
-974.99999999975921
 20
-1394.0027073587005
 10
975.00000000024124
 20
-1394.0027073587005
 10
975.00000000024124
 20
1405.9972926412995
  0
LINE
  5
106
100
AcDbEntity
  8
template
370
               5
390
0
  6
Continuous
 62
               7
100
AcDbLine
 10
974.99999999975876
 20
-1139.0027073587005
 30
0.0
 11
-975.00000000024124
 21
-1139.0027073587005
 31
0.0
  0
LINE
  5
107
100
AcDbEntity
  8
template
370
               5
390
0
  6
Continuous
 62
               7
100
AcDbLine
 10
975.00000000024124
 20
-1309.0027073587005
 30
0.0
 11
222.00000000024124
 21
-1309.0027073587005
 31
0.0
  0
MTEXT
  5
108
100
AcDbEntity
  8
template
390
0
 62
               7
100
AcDbMText
 10
-974.99999999955594
 20
-1405.8565294155574
 30
0.0
 40
21.717881944444446
 41
0.0
 71
               1
 72
               1
  1
120413SH
  7
ＭＳ ゴシック
 73
               1
 44
0.7828267384257843
  0
MTEXT
  5
109
100
AcDbEntity
  8
template
390
0
 62
               7
100
AcDbMText
 10
251.87140625250089
 20
-1338.9131018320081
 30
0.0
 40
24.432617187500004
 41
0.0
 71
               1
 72
               1
  1
大洋金物株式会社 ティーフォルム事業部
  7
ＭＳ ゴシック
 73
               1
 44
0.7828267384257843
  0
INSERT
  5
10A
100
AcDbEntity
  8
template
390
0
 62
               7
100
AcDbBlockReference
  2
グループ
 10
0.0000000000000142
 20
-55.161099440546707
 30
0.0
  0
MTEXT
  5
10B
100
AcDbEntity
  8
template
390
0
 62
               7
100
AcDbMText
 10
784.00000000049999
 20
-1261.0000901712006
 30
0.0
 40
24.432617187500004
 41
0.0
 71
               1
 72
               1
  1
1:10
  7
ＭＳ ゴシック
 73
               1
 44
0.7828267384257843
  0
MTEXT
  5
10C
100
AcDbEntity
  8
template
390
0
 62
               7
100
AcDbMText
 10
731.00000000049999
 20
-1232.4176292337004
 30
0.0
 40
16.288411458333332
 41
0.0
 71
               1
 72
               1
  1
縮尺
  7
ＭＳ ゴシック
 73
               1
 44
0.7828267384257843
  0
LINE
  5
10D
100
AcDbEntity
  8
template
370
               5
390
0
  6
Continuous
 62
               7
100
AcDbLine
 10
724.00000000049999
 20
-1309.0027073587005
 30
0.0
 11
724.00000000049999
 21
-1224.0027073587005
 31
0.0
  0
MTEXT
  5
10E
100
AcDbEntity
  8
template
390
0
 62
               7
100
AcDbMText
 10
480.00000000049999
 20
-1232.4176292337004
 30
0.0
 40
16.288411458333332
 41
0.0
 71
               1
 72
               1
  1
容量
  7
ＭＳ ゴシック
 73
               1
 44
0.7828267384257843
  0
LINE
  5
10F
100
AcDbEntity
  8
template
370
               5
390
0
  6
Continuous
 62
               7
100
AcDbLine
 10
473.00000000049999
 20
-1309.0027073587005
 30
0.0
 11
473.00000000049999
 21
-1224.0027073587005
 31
0.0
  0
MTEXT
  5
110
100
AcDbEntity
  8
template
390
0
 62
               7
100
AcDbMText
 10
229.00000000049999
 20
-1147.4176292337004
 30
0.0
 40
16.288411458333332
 41
0.0
 71
               1
 72
               1
  1
品番
  7
ＭＳ ゴシック
 73
               1
 44
0.7828267384257843
  0
MTEXT
  5
111
100
AcDbEntity
  8
template
390
0
 62
               7
100
AcDbMText
 10
229.00000000049999
 20
-1232.4176292337004
 30
0.0
 40
16.288411458333332
 41
0.0
 71
               1
 72
               1
  1
重量
  7
ＭＳ ゴシック
 73
               1
 44
0.7828267384257843
  0
MTEXT
  5
112
100
AcDbEntity
  8
template
390
0
 62
               7
100
AcDbMText
 10
282.00000000049999
 20
-1176.0000901712006
 30
0.0
 40
24.432617187500004
 41
0.0
 71
               1
 72
               1
  1
FAN70-0308
  7
ＭＳ ゴシック
 73
               1
 44
0.7828267384257843
  0
MTEXT
  5
113
100
AcDbEntity
  8
template
390
0
 62
               7
100
AcDbMText
 10
282.00000000049999
 20
-1261.0000901712006
 30
0.0
 40
24.432617187500004
 41
0.0
 71
               1
 72
               1
  1
2.3kg
  7
ＭＳ ゴシック
 73
               1
 44
0.7828267384257843
  0
LINE
  5
114
100
AcDbEntity
  8
template
370
               5
390
0
  6
Continuous
 62
               7
100
AcDbLine
 10
222.00000000049999
 20
-1394.0027073587005
 30
0.0
 11
222.00000000049999
 21
-1139.0027073587005
 31
0.0
  0
MTEXT
  5
115
100
AcDbEntity
  8
template
390
0
 62
               7
100
AcDbMText
 10
-914.99999999975921
 20
-1176.0000901712003
 30
0.0
 40
24.432617187500004
 41
0.0
 71
               1
 72
               1
  1
洗面器 -ALAPE-
  7
ＭＳ ゴシック
 73
               1
 44
0.7828267384257843
  0
MTEXT
  5
116
100
AcDbEntity
  8
template
390
0
 62
               7
100
AcDbMText
 10
-914.99999999975921
 20
-1261.0000901711999
 30
0.0
 40
24.432617187500004
 41
0.0
 71
               1
 72
               1
  1
オーバーカウンター/オーバーフロー付き/型紙付属/\P鋼板ホーロー/ホワイト
  7
ＭＳ ゴシック
 73
               1
 44
1.1307497332816883
  0
DIMENSION
  5
117
100
AcDbEntity
  8
notes
370
               5
390
0
  6
Continuous
 62
               7
100
AcDbDimension
  2
*D2
 10
-228.60648133158008
 20
824.1589637698512
 30
0.0
 11
-478.02948973428022
 21
829.1589637698512
 31
0.0
 70
             128
 71
               5
 72
               1
 41
1.0
 42
0.0
  3
tfrom線あり
100
AcDbAlignedDimension
 13
-728.6064813315802
 23
524.09904766545128
 33
0.0
 14
-228.60648133158008
 24
524.09904766545128
 34
0.0
100
AcDbRotatedDimension
1001
ACAD
1000
DSTYLE
1002
{
1070
             271
1070
               2
1070
             279
1070
               2
1070
             340
1005
32
1070
             147
1040
5.0
1002
}
  0
DIMENSION
  5
118
100
AcDbEntity
  8
notes
370
               5
390
0
  6
Continuous
 62
               7
100
AcDbDimension
  2
*D3
 10
-128.60648133158008
 20
724.09904766545128
 30
0.0
 11
-123.60648133158007
 21
534.8364022828473
 31
0.0
 70
             128
 71
               5
 72
               1
 41
1.0
 42
0.0
  3
tfrom線あり
100
AcDbAlignedDimension
 13
-478.60648133158008
 23
324.09904766545066
 33
0.0
 14
-478.60648133158008
 24
724.09904766545128
 34
0.0
 50
90.0
100
AcDbRotatedDimension
1001
ACAD
1000
DSTYLE
1002
{
1070
             271
1070
               2
1070
             279
1070
               2
1070
             340
1005
32
1070
             147
1040
5.0
1002
}
  0
DIMENSION
  5
119
100
AcDbEntity
  8
notes
370
               5
390
0
  6
Continuous
 62
               7
100
AcDbDimension
  2
*D4
 10
293.25373260315331
 20
-395.0
 30
0.0
 11
321.0
 21
-390.0
 31
0.0
 70
             128
 71
               5
 72
               1
 41
1.0
 42
0.0
  3
tfrom線あり
100
AcDbAlignedDimension
 13
343.25373260315331
 23
-495.58959810116829
 33
0.0
 14
293.25373260315331
 24
-500.92751022481826
 34
0.0
100
AcDbRotatedDimension
1001
ACAD
1000
DSTYLE
1002
{
1070
             279
1070
               2
1070
             340
1005
32
1070
             147
1040
5.0
1002
}
  0
DIMENSION
  5
11A
100
AcDbEntity
  8
notes
370
               5
390
0
  6
Continuous
 62
               7
100
AcDbDimension
  2
*D5
 10
530.89546946820315
 20
-705.98687736366765
 30
0.0
 11
412.1454694682032
 21
-705.98687736366765
 31
0.0
 71
               5
 72
               1
 41
1.0
 42
0.0
  3
tfrom線あり
100
AcDbAlignedDimension
 13
293.39546946820326
 23
-507.51632917007186
 33
0.0
 14
530.89546946820315
 24
-605.98464521290907
 34
0.0
100
AcDbRotatedDimension
1001
ACAD
1000
DSTYLE
1002
{
1070
             279
1070
               2
1070
             340
1005
32
1070
             147
1040
5.0
1002
}
  0
DIMENSION
  5
11B
100
AcDbEntity
  8
notes
370
               5
390
0
  6
Continuous
 62
               7
100
AcDbDimension
  2
*D6
 10
-491.33440339293793
 20
661.32255865529351
 30
0.0
 11
-343.82055976538368
 21
748.83640228284776
 31
0.0
 70
               3
 71
               5
 72
               1
 41
1.0
 42
0.0
  3
tfrom線あり
100
AcDbDiametricDimension
 15
-465.87855927022224
 25
686.77840277800919
 35
0.0
 40
87.763264553485513
1001
ACAD
1000
DSTYLE
1002
{
1070
             289
1070
               0
1070
             342
1005
45
1070
             340
1005
32
1070
              75
1070
               1
1070
              76
1070
               1
1070
               3
1000

1070
             174
1070
               0
1070
             147
1040
5.0
1002
}
  0
DIMENSION
  5
11C
100
AcDbEntity
  8
notes
370
               5
390
0
  6
Continuous
 62
               7
100
AcDbDimension
  2
*D7
 10
-828.6064813315802
 20
624.1589637698512
 30
0.0
 11
-833.6064813315802
 21
674.83640228284776
 31
0.0
 70
             128
 71
               5
 72
               1
 41
1.0
 42
0.0
  3
tfrom線あり
100
AcDbAlignedDimension
 13
-478.56613448643697
 23
724.1589637698512
 33
0.0
 14
-695.00569555018456
 24
624.1589637698512
 34
0.0
 50
90.0
100
AcDbRotatedDimension
1001
ACAD
1000
DSTYLE
1002
{
1070
             279
1070
               2
1070
             340
1005
32
1070
             147
1040
5.0
1002
}
  0
DIMENSION
  5
11D
100
AcDbEntity
  8
notes
370
               5
390
0
  6
Continuous
 62
               7
100
AcDbDimension
  2
*D8
 10
-828.6064813315802
 20
624.1589637698512
 30
0.0
 11
-828.6064813315802
 21
486.65896376985091
 31
0.0
 71
               5
 72
               1
 41
1.0
 42
0.0
  3
tfrom線あり
100
AcDbAlignedDimension
 13
-599.64319249528717
 23
349.15896376985057
 33
0.0
 14
-695.00569555018456
 24
624.1589637698512
 34
0.0
 50
90.0
100
AcDbRotatedDimension
1001
ACAD
1000
DSTYLE
1002
{
1070
             279
1070
               2
1070
             340
1005
32
1070
             147
1040
5.0
1002
}
  0
DIMENSION
  5
11E
100
AcDbEntity
  8
notes
370
               5
390
0
  6
Continuous
 62
               7
100
AcDbDimension
  2
*D9
 10
-828.6064813315802
 20
349.15896376985057
 30
0.0
 11
-828.6064813315802
 21
336.65896376985057
 31
0.0
 71
               5
 72
               1
 41
1.0
 42
0.0
  3
tfrom線あり
100
AcDbAlignedDimension
 13
-478.56613448643697
 23
324.15896376985057
 33
0.0
 14
-599.64319249528717
 24
349.15896376985057
 34
0.0
 50
90.0
100
AcDbRotatedDimension
1001
ACAD
1000
DSTYLE
1002
{
1070
             279
1070
               2
1070
             340
1005
32
1070
             147
1040
5.0
1002
}
  0
DIMENSION
  5
11F
100
AcDbEntity
  8
notes
370
               5
390
0
  6
Continuous
 62
               7
100
AcDbDimension
  2
*D10
 10
-668.56613448643702
 20
224.09904766545066
 30
0.0
 11
-478.56613448643702
 21
229.09904766545066
 31
0.0
 70
             128
 71
               5
 72
               1
 41
1.0
 42
0.0
  3
tfrom線あり
100
AcDbAlignedDimension
 13
-288.56613448643697
 23
394.16456268797612
 33
0.0
 14
-668.56613448643702
 24
391.72485529695069
 34
0.0
100
AcDbRotatedDimension
1001
ACAD
1000
DSTYLE
1002
{
1070
             279
1070
               2
1070
             340
1005
32
1070
             147
1040
5.0
1002
}
  0
DIMENSION
  5
120
100
AcDbEntity
  8
notes
370
               5
390
0
  6
Continuous
 62
               7
100
AcDbDimension
  2
*D11
 10
793.47362009820324
 20
-495.58959810116829
 30
0.0
 11
798.47362009820324
 21
-475.51632917007186
 31
0.0
 70
             128
 71
               5
 72
               1
 41
1.0
 42
0.0
  3
tfrom線あり
100
AcDbAlignedDimension
 13
692.71304992970329
 23
-503.58959848116814
 33
0.0
 14
689.82803611090333
 24
-495.58959810116829
 34
0.0
 50
90.0
100
AcDbRotatedDimension
1001
ACAD
1000
DSTYLE
1002
{
1070
             279
1070
               2
1070
             340
1005
32
1070
             174
1070
               0
1070
             147
1040
5.0
1002
}
  0
DIMENSION
  5
121
100
AcDbEntity
  8
notes
370
               5
390
0
  6
Continuous
 62
               7
100
AcDbDimension
  2
*D12
 10
-78.546846884480132
 20
-495.58959810156824
 30
0.0
 11
-78.546846884480132
 21
-571.5895981015683
 31
0.0
 71
               5
 72
               1
 41
1.0
 42
0.0
  3
tfrom線あり
100
AcDbAlignedDimension
 13
-452.41410307888015
 23
-647.5895981015683
 33
0.0
 14
-232.04601206178006
 24
-495.58959810156824
 34
0.0
 50
90.0
100
AcDbRotatedDimension
1001
ACAD
1000
DSTYLE
1002
{
1070
             279
1070
               2
1070
             340
1005
32
1070
             147
1040
5.0
1002
}
  0
DIMENSION
  5
122
100
AcDbEntity
  8
notes
370
               5
390
0
  6
Continuous
 62
               7
100
AcDbDimension
  2
*D13
 10
526.7957723732809
 20
-495.58959810116829
 30
0.0
 11
521.7957723732809
 21
-479.82846039927603
 31
0.0
 70
             128
 71
               5
 72
               1
 41
1.0
 42
0.0
  3
tfrom線あり
100
AcDbAlignedDimension
 13
530.89546946820315
 23
-597.58959810116767
 33
0.0
 14
530.89546946820315
 24
-495.58959810116829
 34
0.0
 50
90.0
100
AcDbRotatedDimension
1001
ACAD
1000
DSTYLE
1002
{
1070
             279
1070
               2
1070
             340
1005
32
1070
               3
1000
<>(深さ)
1070
             174
1070
               0
1070
             147
1040
5.0
1002
}
  0
MTEXT
  5
123
100
AcDbEntity
  8
notes
390
0
 62
               7
100
AcDbMText
 10
1120.0
 20
432.12761718749999
 30
0.0
 40
24.432617187500004
 41
0.0
 71
               1
 72
               1
  1
※カウンターの切込は、商品に付属する型紙を\P　ご参照の上、加工を行ってください。
  7
ＭＳ ゴシック
 73
               1
 44
1.1742401076386764
  0
MTEXT
  5
124
100
AcDbEntity
  8
notes
390
0
 62
               7
100
AcDbMText
 10
1120.0
 20
432.12761718749999
 30
0.0
 40
24.432617187500004
 41
0.0
 71
               1
 72
               1
  1
※カウンターの切込は、商品に付属する型紙を\P　ご参照の上、加工を行ってください。
  7
ＭＳ ゴシック
 73
               1
 44
1.1742401076386764
  0
MTEXT
  5
125
100
AcDbEntity
  8
notes
390
0
 62
               7
100
AcDbMText
 10
285.0
 20
-1023.1223828125001
 30
0.0
 40
24.432617187500004
 41
0.0
 71
               1
 72
               1
  1
※カウンターの切込は、商品に付属する型紙を\P　ご参照の上、加工を行ってください。
  7
ＭＳ ゴシック
 73
               1
 44
1.1742401076386764
  0
INSERT
  5
126
100
AcDbEntity
  8
notes
390
0
 62
               7
100
AcDbBlockReference
  2
グループ-1
 10
0.0000000000000142
 20
-55.161099440546707
 30
0.0
  0
INSERT
  5
127
100
AcDbEntity
  8
notes
390
0
 62
               7
100
AcDbBlockReference
  2
グループ-2
 10
0.0000000000000142
 20
-55.161099440546707
 30
0.0
  0
ARC
  5
128
100
AcDbEntity
  8
FAN70-0308
370
              15
390
0
  6
Continuous
 62
               7
100
AcDbCircle
 10
-727.98291588698021
 20
-502.83959810116829
 30
0.0
 40
0.7500000000000326
100
AcDbArc
 50
178.98147530189559
 51
269.99631715759716
  0
ARC
  5
129
100
AcDbEntity
  8
FAN70-0308
370
              15
390
0
  6
Continuous
 62
               7
100
AcDbCircle
 10
-229.23004753238013
 20
-502.83959810116829
 30
0.0
 40
0.7500000000000469
100
AcDbArc
 50
269.99982039589781
 51
359.71134256290878
  0
ARC
  5
12A
100
AcDbEntity
  8
FAN70-0308
370
              15
390
0
  6
Continuous
 62
               7
100
AcDbCircle
 10
-727.73004563408017
 20
-502.83959810116829
 30
0.0
 40
0.7499999999999299
100
AcDbArc
 50
269.99596744850112
 51
270.00011043129251
  0
POLYLINE
  5
12B
100
AcDbEntity
  8
FAN70-0308
370
              15
390
0
  6
Continuous
 62
               7
100
AcDb2dPolyline
 66
               1
 10
0.0
 20
0.0
 30
0.0
 75
               5
  0
VERTEX
  5
12C
100
AcDbEntity
  8
FAN70-0308
370
              15
390
0
  6
Continuous
 62
               7
100
AcDbVertex
100
AcDb2dVertex
 10
-232.04601206178006
 20
-495.58959810156824
 30
0.0
  0
VERTEX
  5
12D
100
AcDbEntity
  8
FAN70-0308
370
              15
390
0
  6
Continuous
 62
               7
100
AcDbVertex
100
AcDb2dVertex
 10
-231.3742230116801
 20
-495.65466223156835
 30
0.0
  0
VERTEX
  5
12E
100
AcDbEntity
  8
FAN70-0308
370
              15
390
0
  6
Continuous
 62
               7
100
AcDbVertex
100
AcDb2dVertex
 10
-230.72651423808009
 20
-495.84782265176813
 30
0.0
  0
VERTEX
  5
12F
100
AcDbEntity
  8
FAN70-0308
370
              15
390
0
  6
Continuous
 62
               7
100
AcDbVertex
100
AcDb2dVertex
 10
-230.12802399988016
 20
-496.16187609086813
 30
0.0
  0
VERTEX
  5
130
100
AcDbEntity
  8
FAN70-0308
370
              15
390
0
  6
Continuous
 62
               7
100
AcDbVertex
100
AcDb2dVertex
 10
-229.60104443428008
 20
-496.58511080366833
 30
0.0
  0
VERTEX
  5
131
100
AcDbEntity
  8
FAN70-0308
370
              15
390
0
  6
Continuous
 62
               7
100
AcDbVertex
100
AcDb2dVertex
 10
-229.16524507398003
 20
-497.10174349186826
 30
0.0
  0
VERTEX
  5
132
100
AcDbEntity
  8
FAN70-0308
370
              15
390
0
  6
Continuous
 62
               7
100
AcDbVertex
100
AcDb2dVertex
 10
-228.83688308598016
 20
-497.69250771076821
 30
0.0
  0
VERTEX
  5
133
100
AcDbEntity
  8
FAN70-0308
370
              15
390
0
  6
Continuous
 62
               7
100
AcDbVertex
100
AcDb2dVertex
 10
-228.62817742228015
 20
-498.33537267566811
 30
0.0
  0
VERTEX
  5
134
100
AcDbEntity
  8
FAN70-0308
370
              15
390
0
  6
Continuous
 62
               7
100
AcDbVertex
100
AcDb2dVertex
 10
-228.54693629148005
 20
-499.00636404806818
 30
0.0
  0
SEQEND
  5
135
100
AcDbEntity
  8
FAN70-0308
370
              15
390
0
  6
Continuous
 62
               7
  0
POLYLINE
  5
136
100
AcDbEntity
  8
FAN70-0308
370
              15
390
0
  6
Continuous
 62
               7
100
AcDb2dPolyline
 66
               1
 10
0.0
 20
0.0
 30
0.0
 75
               5
  0
VERTEX
  5
137
100
AcDbEntity
  8
FAN70-0308
370
              15
390
0
  6
Continuous
 62
               7
100
AcDbVertex
100
AcDb2dVertex
 10
-725.16698040368021
 20
-495.58959810136815
 30
0.0
  0
VERTEX
  5
138
100
AcDbEntity
  8
FAN70-0308
370
              15
390
0
  6
Continuous
 62
               7
100
AcDbVertex
100
AcDb2dVertex
 10
-725.83909727928017
 20
-495.6547305673684
 30
0.0
  0
VERTEX
  5
139
100
AcDbEntity
  8
FAN70-0308
370
              15
390
0
  6
Continuous
 62
               7
100
AcDbVertex
100
AcDb2dVertex
 10
-726.48685075638025
 20
-495.84798481826823
 30
0.0
  0
VERTEX
  5
13A
100
AcDbEntity
  8
FAN70-0308
370
              15
390
0
  6
Continuous
 62
               7
100
AcDbVertex
100
AcDb2dVertex
 10
-727.08537079688017
 20
-496.16215246076825
 30
0.0
  0
VERTEX
  5
13B
100
AcDbEntity
  8
FAN70-0308
370
              15
390
0
  6
Continuous
 62
               7
100
AcDbVertex
100
AcDb2dVertex
 10
-727.61233546138021
 20
-496.58551499766821
 30
0.0
  0
VERTEX
  5
13C
100
AcDbEntity
  8
FAN70-0308
370
              15
390
0
  6
Continuous
 62
               7
100
AcDbVertex
100
AcDb2dVertex
 10
-728.0480901181802
 20
-497.10228063216817
 30
0.0
  0
VERTEX
  5
13D
100
AcDbEntity
  8
FAN70-0308
370
              15
390
0
  6
Continuous
 62
               7
100
AcDbVertex
100
AcDb2dVertex
 10
-728.37637760038024
 20
-497.6931740720683
 30
0.0
  0
VERTEX
  5
13E
100
AcDbEntity
  8
FAN70-0308
370
              15
390
0
  6
Continuous
 62
               7
100
AcDbVertex
100
AcDb2dVertex
 10
-728.58496405478024
 20
-498.33615475386836
 30
0.0
  0
VERTEX
  5
13F
100
AcDbEntity
  8
FAN70-0308
370
              15
390
0
  6
Continuous
 62
               7
100
AcDbVertex
100
AcDb2dVertex
 10
-728.66605617408027
 20
-499.00723902556814
 30
0.0
  0
SEQEND
  5
140
100
AcDbEntity
  8
FAN70-0308
370
              15
390
0
  6
Continuous
 62
               7
  0
POLYLINE
  5
141
100
AcDbEntity
  8
FAN70-0308
370
              15
390
0
  6
Continuous
 62
               7
100
AcDb2dPolyline
 66
               1
 10
0.0
 20
0.0
 30
0.0
 75
               5
  0
VERTEX
  5
142
100
AcDbEntity
  8
FAN70-0308
370
              15
390
0
  6
Continuous
 62
               7
100
AcDbVertex
100
AcDb2dVertex
 10
-228.4797618567801
 20
-502.84930460206823
 30
0.0
  0
VERTEX
  5
143
100
AcDbEntity
  8
FAN70-0308
370
              15
390
0
  6
Continuous
 62
               7
100
AcDbVertex
100
AcDb2dVertex
 10
-228.51331927178001
 20
-500.92751022476813
 30
0.0
  0
VERTEX
  5
144
100
AcDbEntity
  8
FAN70-0308
370
              15
390
0
  6
Continuous
 62
               7
100
AcDbVertex
100
AcDb2dVertex
 10
-228.54684688448015
 20
-499.0057158475683
 30
0.0
  0
SEQEND
  5
145
100
AcDbEntity
  8
FAN70-0308
370
              15
390
0
  6
Continuous
 62
               7
  0
POLYLINE
  5
146
100
AcDbEntity
  8
FAN70-0308
370
              15
390
0
  6
Continuous
 62
               7
100
AcDb2dPolyline
 66
               1
 10
0.0
 20
0.0
 30
0.0
 75
               5
  0
VERTEX
  5
147
100
AcDbEntity
  8
FAN70-0308
370
              15
390
0
  6
Continuous
 62
               7
100
AcDbVertex
100
AcDb2dVertex
 10
-728.66611577868025
 20
-499.0057158475683
 30
0.0
  0
VERTEX
  5
148
100
AcDbEntity
  8
FAN70-0308
370
              15
390
0
  6
Continuous
 62
               7
100
AcDbVertex
100
AcDb2dVertex
 10
-728.69964339138016
 20
-500.92751022476813
 30
0.0
  0
VERTEX
  5
149
100
AcDbEntity
  8
FAN70-0308
370
              15
390
0
  6
Continuous
 62
               7
100
AcDbVertex
100
AcDb2dVertex
 10
-728.73320080638018
 20
-502.84930460206823
 30
0.0
  0
SEQEND
  5
14A
100
AcDbEntity
  8
FAN70-0308
370
              15
390
0
  6
Continuous
 62
               7
  0
POLYLINE
  5
14B
100
AcDbEntity
  8
FAN70-0308
370
              15
390
0
  6
Continuous
 62
               7
100
AcDb2dPolyline
 66
               1
 10
0.0
 20
0.0
 30
0.0
 75
               5
  0
VERTEX
  5
14C
100
AcDbEntity
  8
FAN70-0308
370
              15
390
0
  6
Continuous
 62
               7
100
AcDbVertex
100
AcDb2dVertex
 10
-518.35647993088014
 20
-597.93566076136767
 30
0.0
  0
VERTEX
  5
14D
100
AcDbEntity
  8
FAN70-0308
370
              15
390
0
  6
Continuous
 62
               7
100
AcDbVertex
100
AcDb2dVertex
 10
-516.69774972198024
 20
-598.95919172146773
 30
0.0
  0
VERTEX
  5
14E
100
AcDbEntity
  8
FAN70-0308
370
              15
390
0
  6
Continuous
 62
               7
100
AcDbVertex
100
AcDb2dVertex
 10
-516.51324726938014
 20
-599.09244535536754
 30
0.0
  0
VERTEX
  5
14F
100
AcDbEntity
  8
FAN70-0308
370
              15
390
0
  6
Continuous
 62
               7
100
AcDbVertex
100
AcDb2dVertex
 10
-516.32291846278008
 20
-599.23448322386753
 30
0.0
  0
VERTEX
  5
150
100
AcDbEntity
  8
FAN70-0308
370
              15
390
0
  6
Continuous
 62
               7
100
AcDbVertex
100
AcDb2dVertex
 10
-515.46693243388017
 20
-599.88648353196754
 30
0.0
  0
VERTEX
  5
151
100
AcDbEntity
  8
FAN70-0308
370
              15
390
0
  6
Continuous
 62
               7
100
AcDbVertex
100
AcDb2dVertex
 10
-514.52701561448009
 20
-600.60250667906757
 30
0.0
  0
VERTEX
  5
152
100
AcDbEntity
  8
FAN70-0308
370
              15
390
0
  6
Continuous
 62
               7
100
AcDbVertex
100
AcDb2dVertex
 10
-513.61069478388015
 20
-601.3005590257676
 30
0.0
  0
VERTEX
  5
153
100
AcDbEntity
  8
FAN70-0308
370
              15
390
0
  6
Continuous
 62
               7
100
AcDbVertex
100
AcDb2dVertex
 10
-512.71797366738008
 20
-601.98062567086754
 30
0.0
  0
VERTEX
  5
154
100
AcDbEntity
  8
FAN70-0308
370
              15
390
0
  6
Continuous
 62
               7
100
AcDbVertex
100
AcDb2dVertex
 10
-510.45273639558013
 20
-603.70627699466763
 30
0.0
  0
VERTEX
  5
155
100
AcDbEntity
  8
FAN70-0308
370
              15
390
0
  6
Continuous
 62
               7
100
AcDbVertex
100
AcDb2dVertex
 10
-508.53358231778009
 20
-605.11276779746754
 30
0.0
  0
VERTEX
  5
156
100
AcDbEntity
  8
FAN70-0308
370
              15
390
0
  6
Continuous
 62
               7
100
AcDbVertex
100
AcDb2dVertex
 10
-506.7957306682801
 20
-605.79368380876758
 30
0.0
  0
VERTEX
  5
157
100
AcDbEntity
  8
FAN70-0308
370
              15
390
0
  6
Continuous
 62
               7
100
AcDbVertex
100
AcDb2dVertex
 10
-505.05552090998009
 20
-605.91807125186756
 30
0.0
  0
SEQEND
  5
158
100
AcDbEntity
  8
FAN70-0308
370
              15
390
0
  6
Continuous
 62
               7
  0
POLYLINE
  5
159
100
AcDbEntity
  8
FAN70-0308
370
              15
390
0
  6
Continuous
 62
               7
100
AcDb2dPolyline
 66
               1
 10
0.0
 20
0.0
 30
0.0
 75
               5
  0
VERTEX
  5
15A
100
AcDbEntity
  8
FAN70-0308
370
              15
390
0
  6
Continuous
 62
               7
100
AcDbVertex
100
AcDb2dVertex
 10
-505.05513720508009
 20
-605.91804144956768
 30
0.0
  0
VERTEX
  5
15B
100
AcDbEntity
  8
FAN70-0308
370
              15
390
0
  6
Continuous
 62
               7
100
AcDbVertex
100
AcDb2dVertex
 10
-504.70595456958011
 20
-605.88528124666755
 30
0.0
  0
VERTEX
  5
15C
100
AcDbEntity
  8
FAN70-0308
370
              15
390
0
  6
Continuous
 62
               7
100
AcDbVertex
100
AcDb2dVertex
 10
-503.88568103608009
 20
-605.81598339656762
 30
0.0
  0
VERTEX
  5
15D
100
AcDbEntity
  8
FAN70-0308
370
              15
390
0
  6
Continuous
 62
               7
100
AcDbVertex
100
AcDb2dVertex
 10
-502.66760424078007
 20
-605.7283794698676
 30
0.0
  0
VERTEX
  5
15E
100
AcDbEntity
  8
FAN70-0308
370
              15
390
0
  6
Continuous
 62
               7
100
AcDbVertex
100
AcDb2dVertex
 10
-501.12162180538013
 20
-605.63428608746767
 30
0.0
  0
VERTEX
  5
15F
100
AcDbEntity
  8
FAN70-0308
370
              15
390
0
  6
Continuous
 62
               7
100
AcDbVertex
100
AcDb2dVertex
 10
-499.3155675410801
 20
-605.54157106256775
 30
0.0
  0
VERTEX
  5
160
100
AcDbEntity
  8
FAN70-0308
370
              15
390
0
  6
Continuous
 62
               7
100
AcDbVertex
100
AcDb2dVertex
 10
-497.3138368159801
 20
-605.45582978106768
 30
0.0
  0
VERTEX
  5
161
100
AcDbEntity
  8
FAN70-0308
370
              15
390
0
  6
Continuous
 62
               7
100
AcDbVertex
100
AcDb2dVertex
 10
-492.95299522878008
 20
-605.31645922036773
 30
0.0
  0
VERTEX
  5
162
100
AcDbEntity
  8
FAN70-0308
370
              15
390
0
  6
Continuous
 62
               7
100
AcDbVertex
100
AcDb2dVertex
 10
-488.44332456888009
 20
-605.22579310516767
 30
0.0
  0
VERTEX
  5
163
100
AcDbEntity
  8
FAN70-0308
370
              15
390
0
  6
Continuous
 62
               7
100
AcDbVertex
100
AcDb2dVertex
 10
-484.0830827533801
 20
-605.1787352380677
 30
0.0
  0
VERTEX
  5
164
100
AcDbEntity
  8
FAN70-0308
370
              15
390
0
  6
Continuous
 62
               7
100
AcDbVertex
100
AcDb2dVertex
 10
-480.07143299858012
 20
-605.16287295196753
 30
0.0
  0
VERTEX
  5
165
100
AcDbEntity
  8
FAN70-0308
370
              15
390
0
  6
Continuous
 62
               7
100
AcDbVertex
100
AcDb2dVertex
 10
-476.52690833728008
 20
-605.16456423376758
 30
0.0
  0
VERTEX
  5
166
100
AcDbEntity
  8
FAN70-0308
370
              15
390
0
  6
Continuous
 62
               7
100
AcDbVertex
100
AcDb2dVertex
 10
-473.27473502908009
 20
-605.18015829896763
 30
0.0
  0
VERTEX
  5
167
100
AcDbEntity
  8
FAN70-0308
370
              15
390
0
  6
Continuous
 62
               7
100
AcDbVertex
100
AcDb2dVertex
 10
-469.71911959648008
 20
-605.2181562599676
 30
0.0
  0
VERTEX
  5
168
100
AcDbEntity
  8
FAN70-0308
370
              15
390
0
  6
Continuous
 62
               7
100
AcDbVertex
100
AcDb2dVertex
 10
-465.9353366523801
 20
-605.28789369436777
 30
0.0
  0
VERTEX
  5
169
100
AcDbEntity
  8
FAN70-0308
370
              15
390
0
  6
Continuous
 62
               7
100
AcDbVertex
100
AcDb2dVertex
 10
-462.09961012308008
 20
-605.3956365403676
 30
0.0
  0
VERTEX
  5
16A
100
AcDbEntity
  8
FAN70-0308
370
              15
390
0
  6
Continuous
 62
               7
100
AcDbVertex
100
AcDb2dVertex
 10
-458.45720380838009
 20
-605.54167537066769
 30
0.0
  0
VERTEX
  5
16B
100
AcDbEntity
  8
FAN70-0308
370
              15
390
0
  6
Continuous
 62
               7
100
AcDbVertex
100
AcDb2dVertex
 10
-455.32481208738011
 20
-605.71366457316753
 30
0.0
  0
VERTEX
  5
16C
100
AcDbEntity
  8
FAN70-0308
370
              15
390
0
  6
Continuous
 62
               7
100
AcDbVertex
100
AcDb2dVertex
 10
-454.06480156178009
 20
-605.8004936394675
 30
0.0
  0
VERTEX
  5
16D
100
AcDbEntity
  8
FAN70-0308
370
              15
390
0
  6
Continuous
 62
               7
100
AcDbVertex
100
AcDb2dVertex
 10
-453.07644293008008
 20
-605.87935803506775
 30
0.0
  0
VERTEX
  5
16E
100
AcDbEntity
  8
FAN70-0308
370
              15
390
0
  6
Continuous
 62
               7
100
AcDbVertex
100
AcDb2dVertex
 10
-452.41275079848015
 20
-605.94055710406769
 30
0.0
  0
VERTEX
  5
16F
100
AcDbEntity
  8
FAN70-0308
370
              15
390
0
  6
Continuous
 62
               7
100
AcDbVertex
100
AcDb2dVertex
 10
-452.12955422998004
 20
-605.96919713596753
 30
0.0
  0
SEQEND
  5
170
100
AcDbEntity
  8
FAN70-0308
370
              15
390
0
  6
Continuous
 62
               7
  0
LINE
  5
171
100
AcDbEntity
  8
FAN70-0308
370
              15
390
0
  6
Continuous
 62
               7
100
AcDbLine
 10
-452.41410307888015
 20
-605.94043044426758
 30
0.0
 11
-452.13010184768012
 21
-605.96914498186766
 31
0.0
  0
POLYLINE
  5
172
100
AcDbEntity
  8
FAN70-0308
370
              15
390
0
  6
Continuous
 62
               7
100
AcDb2dPolyline
 66
               1
 10
0.0
 20
0.0
 30
0.0
 75
               5
  0
VERTEX
  5
173
100
AcDbEntity
  8
FAN70-0308
370
              15
390
0
  6
Continuous
 62
               7
100
AcDbVertex
100
AcDb2dVertex
 10
-452.12982803878009
 20
-605.96917478416754
 30
0.0
  0
VERTEX
  5
174
100
AcDbEntity
  8
FAN70-0308
370
              15
390
0
  6
Continuous
 62
               7
100
AcDbVertex
100
AcDb2dVertex
 10
-450.35789743368008
 20
-605.85982261276763
 30
0.0
  0
VERTEX
  5
175
100
AcDbEntity
  8
FAN70-0308
370
              15
390
0
  6
Continuous
 62
               7
100
AcDbVertex
100
AcDb2dVertex
 10
-448.58785555068005
 20
-605.17547188376761
 30
0.0
  0
VERTEX
  5
176
100
AcDbEntity
  8
FAN70-0308
370
              15
390
0
  6
Continuous
 62
               7
100
AcDbVertex
100
AcDb2dVertex
 10
-446.65902875658008
 20
-603.76332609036763
 30
0.0
  0
VERTEX
  5
177
100
AcDbEntity
  8
FAN70-0308
370
              15
390
0
  6
Continuous
 62
               7
100
AcDbVertex
100
AcDb2dVertex
 10
-444.39379148478008
 20
-602.03768221716768
 30
0.0
  0
VERTEX
  5
178
100
AcDbEntity
  8
FAN70-0308
370
              15
390
0
  6
Continuous
 62
               7
100
AcDbVertex
100
AcDb2dVertex
 10
-441.96076341268008
 20
-600.18420873256764
 30
0.0
  0
VERTEX
  5
179
100
AcDbEntity
  8
FAN70-0308
370
              15
390
0
  6
Continuous
 62
               7
100
AcDbVertex
100
AcDb2dVertex
 10
-441.32628687028011
 20
-599.70086721756775
 30
0.0
  0
VERTEX
  5
17A
100
AcDbEntity
  8
FAN70-0308
370
              15
390
0
  6
Continuous
 62
               7
100
AcDbVertex
100
AcDb2dVertex
 10
-440.79072796108005
 20
-599.2929628310676
 30
0.0
  0
VERTEX
  5
17B
100
AcDbEntity
  8
FAN70-0308
370
              15
390
0
  6
Continuous
 62
               7
100
AcDbVertex
100
AcDb2dVertex
 10
-440.60868420008006
 20
-599.15695993276768
 30
0.0
  0
VERTEX
  5
17C
100
AcDbEntity
  8
FAN70-0308
370
              15
390
0
  6
Continuous
 62
               7
100
AcDbVertex
100
AcDb2dVertex
 10
-440.43298088308012
 20
-599.02974871966762
 30
0.0
  0
VERTEX
  5
17D
100
AcDbEntity
  8
FAN70-0308
370
              15
390
0
  6
Continuous
 62
               7
100
AcDbVertex
100
AcDb2dVertex
 10
-438.85648273228009
 20
-598.04690538026762
 30
0.0
  0
SEQEND
  5
17E
100
AcDbEntity
  8
FAN70-0308
370
              15
390
0
  6
Continuous
 62
               7
  0
LINE
  5
17F
100
AcDbEntity
  8
FAN70-0308
370
              15
390
0
  6
Continuous
 62
               7
100
AcDbLine
 10
-727.98296409528018
 20
-503.58959809956826
 30
0.0
 11
-229.26700510378009
 21
-503.58959848116814
 31
0.0
  0
LINE
  5
180
100
AcDbEntity
  8
FAN70-0308
370
              15
390
0
  6
Continuous
 62
               7
100
AcDbLine
 10
-378.76577325458015
 20
-495.58959810116829
 30
0.0
 11
-232.09867276548005
 21
-495.58959810116829
 31
0.0
  0
LINE
  5
181
100
AcDbEntity
  8
FAN70-0308
370
              15
390
0
  6
Continuous
 62
               7
100
AcDbLine
 10
-378.76577325458015
 20
-495.58959810116829
 30
0.0
 11
-725.1097152411802
 21
-495.58959810116829
 31
0.0
  0
POLYLINE
  5
182
100
AcDbEntity
  8
FAN70-0308
370
              15
390
0
  6
Continuous
 62
               7
100
AcDb2dPolyline
 66
               1
 10
0.0
 20
0.0
 30
0.0
 75
               5
  0
VERTEX
  5
183
100
AcDbEntity
  8
FAN70-0308
370
              15
390
0
  6
Continuous
 62
               7
100
AcDbVertex
100
AcDb2dVertex
 10
-518.35647993088014
 20
-597.93566076136767
 30
0.0
  0
VERTEX
  5
184
100
AcDbEntity
  8
FAN70-0308
370
              15
390
0
  6
Continuous
 62
               7
100
AcDbVertex
100
AcDb2dVertex
 10
-518.35647248028022
 20
-597.93566076136767
 30
0.0
  0
VERTEX
  5
185
100
AcDbEntity
  8
FAN70-0308
370
              15
390
0
  6
Continuous
 62
               7
100
AcDbVertex
100
AcDb2dVertex
 10
-518.02310742738018
 20
-597.88436351396763
 30
0.0
  0
VERTEX
  5
186
100
AcDbEntity
  8
FAN70-0308
370
              15
390
0
  6
Continuous
 62
               7
100
AcDbVertex
100
AcDb2dVertex
 10
-517.03282095788018
 20
-597.75177298166773
 30
0.0
  0
VERTEX
  5
187
100
AcDbEntity
  8
FAN70-0308
370
              15
390
0
  6
Continuous
 62
               7
100
AcDbVertex
100
AcDb2dVertex
 10
-515.4004583537801
 20
-597.56469635346753
 30
0.0
  0
VERTEX
  5
188
100
AcDbEntity
  8
FAN70-0308
370
              15
390
0
  6
Continuous
 62
               7
100
AcDbVertex
100
AcDb2dVertex
 10
-513.14741768238014
 20
-597.34489677526767
 30
0.0
  0
VERTEX
  5
189
100
AcDbEntity
  8
FAN70-0308
370
              15
390
0
  6
Continuous
 62
               7
100
AcDbVertex
100
AcDb2dVertex
 10
-510.3043469071801
 20
-597.11162654736768
 30
0.0
  0
VERTEX
  5
18A
100
AcDbEntity
  8
FAN70-0308
370
              15
390
0
  6
Continuous
 62
               7
100
AcDbVertex
100
AcDb2dVertex
 10
-506.9130009442801
 20
-596.8822231707677
 30
0.0
  0
VERTEX
  5
18B
100
AcDbEntity
  8
FAN70-0308
370
              15
390
0
  6
Continuous
 62
               7
100
AcDbVertex
100
AcDb2dVertex
 10
-503.02211217878011
 20
-596.67152820206775
 30
0.0
  0
VERTEX
  5
18C
100
AcDbEntity
  8
FAN70-0308
370
              15
390
0
  6
Continuous
 62
               7
100
AcDbVertex
100
AcDb2dVertex
 10
-498.69289830628009
 20
-596.49181274746775
 30
0.0
  0
VERTEX
  5
18D
100
AcDbEntity
  8
FAN70-0308
370
              15
390
0
  6
Continuous
 62
               7
100
AcDbVertex
100
AcDb2dVertex
 10
-493.9959032863801
 20
-596.35174928286756
 30
0.0
  0
VERTEX
  5
18E
100
AcDbEntity
  8
FAN70-0308
370
              15
390
0
  6
Continuous
 62
               7
100
AcDbVertex
100
AcDb2dVertex
 10
-489.02988829018011
 20
-596.25597206926773
 30
0.0
  0
VERTEX
  5
18F
100
AcDbEntity
  8
FAN70-0308
370
              15
390
0
  6
Continuous
 62
               7
100
AcDbVertex
100
AcDb2dVertex
 10
-483.86808554008007
 20
-596.20331136556752
 30
0.0
  0
VERTEX
  5
190
100
AcDbEntity
  8
FAN70-0308
370
              15
390
0
  6
Continuous
 62
               7
100
AcDbVertex
100
AcDb2dVertex
 10
-478.60648133158008
 20
-596.18788866376758
 30
0.0
  0
SEQEND
  5
191
100
AcDbEntity
  8
FAN70-0308
370
              15
390
0
  6
Continuous
 62
               7
  0
POLYLINE
  5
192
100
AcDbEntity
  8
FAN70-0308
370
              15
390
0
  6
Continuous
 62
               7
100
AcDb2dPolyline
 66
               1
 10
0.0
 20
0.0
 30
0.0
 75
               5
  0
VERTEX
  5
193
100
AcDbEntity
  8
FAN70-0308
370
              15
390
0
  6
Continuous
 62
               7
100
AcDbVertex
100
AcDb2dVertex
 10
-662.24755741958018
 20
-503.58959848116814
 30
0.0
  0
VERTEX
  5
194
100
AcDbEntity
  8
FAN70-0308
370
              15
390
0
  6
Continuous
 62
               7
100
AcDbVertex
100
AcDb2dVertex
 10
-656.20442129968023
 20
-512.35275251836833
 30
0.0
  0
VERTEX
  5
195
100
AcDbEntity
  8
FAN70-0308
370
              15
390
0
  6
Continuous
 62
               7
100
AcDbVertex
100
AcDb2dVertex
 10
-645.32377220988019
 20
-525.76606070676826
 30
0.0
  0
VERTEX
  5
196
100
AcDbEntity
  8
FAN70-0308
370
              15
390
0
  6
Continuous
 62
               7
100
AcDbVertex
100
AcDb2dVertex
 10
-633.51321615578013
 20
-538.22100071286832
 30
0.0
  0
VERTEX
  5
197
100
AcDbEntity
  8
FAN70-0308
370
              15
390
0
  6
Continuous
 62
               7
100
AcDbVertex
100
AcDb2dVertex
 10
-620.83897389768026
 20
-549.67941252566834
 30
0.0
  0
VERTEX
  5
198
100
AcDbEntity
  8
FAN70-0308
370
              15
390
0
  6
Continuous
 62
               7
100
AcDbVertex
100
AcDb2dVertex
 10
-607.36731089948023
 20
-560.10313240866822
 30
0.0
  0
VERTEX
  5
199
100
AcDbEntity
  8
FAN70-0308
370
              15
390
0
  6
Continuous
 62
               7
100
AcDbVertex
100
AcDb2dVertex
 10
-593.16447027328013
 20
-569.45400593856834
 30
0.0
  0
VERTEX
  5
19A
100
AcDbEntity
  8
FAN70-0308
370
              15
390
0
  6
Continuous
 62
               7
100
AcDbVertex
100
AcDb2dVertex
 10
-579.1630262910802
 20
-577.25361643406814
 30
0.0
  0
VERTEX
  5
19B
100
AcDbEntity
  8
FAN70-0308
370
              15
390
0
  6
Continuous
 62
               7
100
AcDbVertex
100
AcDb2dVertex
 10
-564.62598242168019
 20
-584.03357027146785
 30
0.0
  0
VERTEX
  5
19C
100
AcDbEntity
  8
FAN70-0308
370
              15
390
0
  6
Continuous
 62
               7
100
AcDbVertex
100
AcDb2dVertex
 10
-549.60886039138018
 20
-589.76188210816758
 30
0.0
  0
VERTEX
  5
19D
100
AcDbEntity
  8
FAN70-0308
370
              15
390
0
  6
Continuous
 62
               7
100
AcDbVertex
100
AcDb2dVertex
 10
-534.16718565228018
 20
-594.40657405236766
 30
0.0
  0
VERTEX
  5
19E
100
AcDbEntity
  8
FAN70-0308
370
              15
390
0
  6
Continuous
 62
               7
100
AcDbVertex
100
AcDb2dVertex
 10
-518.35647993088014
 20
-597.93566076136767
 30
0.0
  0
SEQEND
  5
19F
100
AcDbEntity
  8
FAN70-0308
370
              15
390
0
  6
Continuous
 62
               7
  0
POLYLINE
  5
1A0
100
AcDbEntity
  8
FAN70-0308
370
              15
390
0
  6
Continuous
 62
               7
100
AcDb2dPolyline
 66
               1
 10
0.0
 20
0.0
 30
0.0
 75
               5
  0
VERTEX
  5
1A1
100
AcDbEntity
  8
FAN70-0308
370
              15
390
0
  6
Continuous
 62
               7
100
AcDbVertex
100
AcDb2dVertex
 10
-478.60648133158008
 20
-596.18788866376758
 30
0.0
  0
VERTEX
  5
1A2
100
AcDbEntity
  8
FAN70-0308
370
              15
390
0
  6
Continuous
 62
               7
100
AcDbVertex
100
AcDb2dVertex
 10
-478.54891541018009
 20
-596.18788866376758
 30
0.0
  0
VERTEX
  5
1A3
100
AcDbEntity
  8
FAN70-0308
370
              15
390
0
  6
Continuous
 62
               7
100
AcDbVertex
100
AcDb2dVertex
 10
-473.26904557938008
 20
-596.20589671706762
 30
0.0
  0
VERTEX
  5
1A4
100
AcDbEntity
  8
FAN70-0308
370
              15
390
0
  6
Continuous
 62
               7
100
AcDbVertex
100
AcDb2dVertex
 10
-468.09183642568007
 20
-596.26510648106773
 30
0.0
  0
VERTEX
  5
1A5
100
AcDbEntity
  8
FAN70-0308
370
              15
390
0
  6
Continuous
 62
               7
100
AcDbVertex
100
AcDb2dVertex
 10
-463.11478898228012
 20
-596.37064395526772
 30
0.0
  0
VERTEX
  5
1A6
100
AcDbEntity
  8
FAN70-0308
370
              15
390
0
  6
Continuous
 62
               7
100
AcDbVertex
100
AcDb2dVertex
 10
-458.42717424328009
 20
-596.52230052326763
 30
0.0
  0
VERTEX
  5
1A7
100
AcDbEntity
  8
FAN70-0308
370
              15
390
0
  6
Continuous
 62
               7
100
AcDbVertex
100
AcDb2dVertex
 10
-454.11016442178004
 20
-596.71489058116777
 30
0.0
  0
VERTEX
  5
1A8
100
AcDbEntity
  8
FAN70-0308
370
              15
390
0
  6
Continuous
 62
               7
100
AcDbVertex
100
AcDb2dVertex
 10
-450.23268297608007
 20
-596.93909345246766
 30
0.0
  0
VERTEX
  5
1A9
100
AcDbEntity
  8
FAN70-0308
370
              15
390
0
  6
Continuous
 62
               7
100
AcDbVertex
100
AcDb2dVertex
 10
-446.85388379098015
 20
-597.18204943516753
 30
0.0
  0
VERTEX
  5
1AA
100
AcDbEntity
  8
FAN70-0308
370
              15
390
0
  6
Continuous
 62
               7
100
AcDbVertex
100
AcDb2dVertex
 10
-444.02470089788005
 20
-597.42803780416762
 30
0.0
  0
VERTEX
  5
1AB
100
AcDbEntity
  8
FAN70-0308
370
              15
390
0
  6
Continuous
 62
               7
100
AcDbVertex
100
AcDb2dVertex
 10
-441.78392388228008
 20
-597.65925167176761
 30
0.0
  0
VERTEX
  5
1AC
100
AcDbEntity
  8
FAN70-0308
370
              15
390
0
  6
Continuous
 62
               7
100
AcDbVertex
100
AcDb2dVertex
 10
-440.16489036678007
 20
-597.85521684266769
 30
0.0
  0
VERTEX
  5
1AD
100
AcDbEntity
  8
FAN70-0308
370
              15
390
0
  6
Continuous
 62
               7
100
AcDbVertex
100
AcDb2dVertex
 10
-439.18427475098014
 20
-597.99373803706771
 30
0.0
  0
VERTEX
  5
1AE
100
AcDbEntity
  8
FAN70-0308
370
              15
390
0
  6
Continuous
 62
               7
100
AcDbVertex
100
AcDb2dVertex
 10
-438.85648273228009
 20
-598.04691283086754
 30
0.0
  0
SEQEND
  5
1AF
100
AcDbEntity
  8
FAN70-0308
370
              15
390
0
  6
Continuous
 62
               7
  0
POLYLINE
  5
1B0
100
AcDbEntity
  8
FAN70-0308
370
              15
390
0
  6
Continuous
 62
               7
100
AcDb2dPolyline
 66
               1
 10
0.0
 20
0.0
 30
0.0
 75
               5
  0
VERTEX
  5
1B1
100
AcDbEntity
  8
FAN70-0308
370
              15
390
0
  6
Continuous
 62
               7
100
AcDbVertex
100
AcDb2dVertex
 10
-438.85648273228009
 20
-598.04691283086754
 30
0.0
  0
VERTEX
  5
1B2
100
AcDbEntity
  8
FAN70-0308
370
              15
390
0
  6
Continuous
 62
               7
100
AcDbVertex
100
AcDb2dVertex
 10
-422.07561828498007
 20
-594.30419562436759
 30
0.0
  0
VERTEX
  5
1B3
100
AcDbEntity
  8
FAN70-0308
370
              15
390
0
  6
Continuous
 62
               7
100
AcDbVertex
100
AcDb2dVertex
 10
-405.71517147418012
 20
-589.29742036436778
 30
0.0
  0
VERTEX
  5
1B4
100
AcDbEntity
  8
FAN70-0308
370
              15
390
0
  6
Continuous
 62
               7
100
AcDbVertex
100
AcDb2dVertex
 10
-389.84246202108005
 20
-583.06535242176778
 30
0.0
  0
VERTEX
  5
1B5
100
AcDbEntity
  8
FAN70-0308
370
              15
390
0
  6
Continuous
 62
               7
100
AcDbVertex
100
AcDb2dVertex
 10
-374.52478356958011
 20
-575.64678696966803
 30
0.0
  0
VERTEX
  5
1B6
100
AcDbEntity
  8
FAN70-0308
370
              15
390
0
  6
Continuous
 62
               7
100
AcDbVertex
100
AcDb2dVertex
 10
-359.82946701648007
 20
-567.08048192836827
 30
0.0
  0
VERTEX
  5
1B7
100
AcDbEntity
  8
FAN70-0308
370
              15
390
0
  6
Continuous
 62
               7
100
AcDbVertex
100
AcDb2dVertex
 10
-345.82381345628011
 20
-557.40522502036833
 30
0.0
  0
VERTEX
  5
1B8
100
AcDbEntity
  8
FAN70-0308
370
              15
390
0
  6
Continuous
 62
               7
100
AcDbVertex
100
AcDb2dVertex
 10
-333.31062294838011
 20
-547.3019657847683
 30
0.0
  0
VERTEX
  5
1B9
100
AcDbEntity
  8
FAN70-0308
370
              15
390
0
  6
Continuous
 62
               7
100
AcDbVertex
100
AcDb2dVertex
 10
-321.5267846762801
 20
-536.27984134526832
 30
0.0
  0
VERTEX
  5
1BA
100
AcDbEntity
  8
FAN70-0308
370
              15
390
0
  6
Continuous
 62
               7
100
AcDbVertex
100
AcDb2dVertex
 10
-310.52872933748006
 20
-524.37135485986846
 30
0.0
  0
VERTEX
  5
1BB
100
AcDbEntity
  8
FAN70-0308
370
              15
390
0
  6
Continuous
 62
               7
100
AcDbVertex
100
AcDb2dVertex
 10
-300.37284292578011
 20
-511.60900576086823
 30
0.0
  0
VERTEX
  5
1BC
100
AcDbEntity
  8
FAN70-0308
370
              15
390
0
  6
Continuous
 62
               7
100
AcDbVertex
100
AcDb2dVertex
 10
-294.9076334416801
 20
-503.58959848116814
 30
0.0
  0
SEQEND
  5
1BD
100
AcDbEntity
  8
FAN70-0308
370
              15
390
0
  6
Continuous
 62
               7
  0
LINE
  5
1BE
100
AcDbEntity
  8
FAN70-0308
370
              15
390
0
  6
Continuous
 62
               7
100
AcDbLine
 10
-478.60648133158008
 20
-605.18959818456756
 30
0.0
 11
-472.39127451848009
 21
-605.18959818456756
 31
0.0
  0
LINE
  5
1BF
100
AcDbEntity
  8
FAN70-0308
370
              15
390
0
  6
Continuous
 62
               7
100
AcDbLine
 10
-485.09421455038012
 20
-605.18959818456756
 30
0.0
 11
-478.60648133158008
 21
-605.18959818456756
 31
0.0
  0
POLYLINE
  5
1C0
100
AcDbEntity
  8
FAN70-0308
370
              15
390
0
  6
Continuous
 62
               7
100
AcDb2dPolyline
 66
               1
 10
0.0
 20
0.0
 30
0.0
 75
               5
  0
VERTEX
  5
1C1
100
AcDbEntity
  8
FAN70-0308
370
              15
390
0
  6
Continuous
 62
               7
100
AcDbVertex
100
AcDb2dVertex
 10
-478.60648133158008
 20
597.71393298425119
 30
0.0
  0
VERTEX
  5
1C2
100
AcDbEntity
  8
FAN70-0308
370
              15
390
0
  6
Continuous
 62
               7
100
AcDbVertex
100
AcDb2dVertex
 10
-482.68527979328007
 20
597.93249576605126
 30
0.0
  0
VERTEX
  5
1C3
100
AcDbEntity
  8
FAN70-0308
370
              15
390
0
  6
Continuous
 62
               7
100
AcDbVertex
100
AcDb2dVertex
 10
-486.60684120208009
 20
598.57899009505127
 30
0.0
  0
VERTEX
  5
1C4
100
AcDbEntity
  8
FAN70-0308
370
              15
390
0
  6
Continuous
 62
               7
100
AcDbVertex
100
AcDb2dVertex
 10
-490.22112809418007
 20
599.62550609625123
 30
0.0
  0
VERTEX
  5
1C5
100
AcDbEntity
  8
FAN70-0308
370
              15
390
0
  6
Continuous
 62
               7
100
AcDbVertex
100
AcDb2dVertex
 10
-493.38819295468011
 20
601.02553724565132
 30
0.0
  0
VERTEX
  5
1C6
100
AcDbEntity
  8
FAN70-0308
370
              15
390
0
  6
Continuous
 62
               7
100
AcDbVertex
100
AcDb2dVertex
 10
-495.9869889944801
 20
602.71719157015127
 30
0.0
  0
VERTEX
  5
1C7
100
AcDbEntity
  8
FAN70-0308
370
              15
390
0
  6
Continuous
 62
               7
100
AcDbVertex
100
AcDb2dVertex
 10
-497.91727610228008
 20
604.62527035985136
 30
0.0
  0
VERTEX
  5
1C8
100
AcDbEntity
  8
FAN70-0308
370
              15
390
0
  6
Continuous
 62
               7
100
AcDbVertex
100
AcDb2dVertex
 10
-499.10557478968013
 20
606.66712432425129
 30
0.0
  0
VERTEX
  5
1C9
100
AcDbEntity
  8
FAN70-0308
370
              15
390
0
  6
Continuous
 62
               7
100
AcDbVertex
100
AcDb2dVertex
 10
-499.50648121838009
 20
608.75664710325123
 30
0.0
  0
VERTEX
  5
1CA
100
AcDbEntity
  8
FAN70-0308
370
              15
390
0
  6
Continuous
 62
               7
100
AcDbVertex
100
AcDb2dVertex
 10
-499.10478130278011
 20
610.80831348215133
 30
0.0
  0
VERTEX
  5
1CB
100
AcDbEntity
  8
FAN70-0308
370
              15
390
0
  6
Continuous
 62
               7
100
AcDbVertex
100
AcDb2dVertex
 10
-497.91557923258006
 20
612.74370610035135
 30
0.0
  0
VERTEX
  5
1CC
100
AcDbEntity
  8
FAN70-0308
370
              15
390
0
  6
Continuous
 62
               7
100
AcDbVertex
100
AcDb2dVertex
 10
-495.98477989728008
 20
614.49211894785117
 30
0.0
  0
VERTEX
  5
1CD
100
AcDbEntity
  8
FAN70-0308
370
              15
390
0
  6
Continuous
 62
               7
100
AcDbVertex
100
AcDb2dVertex
 10
-493.3860304236801
 20
615.99528848445129
 30
0.0
  0
VERTEX
  5
1CE
100
AcDbEntity
  8
FAN70-0308
370
              15
390
0
  6
Continuous
 62
               7
100
AcDbVertex
100
AcDb2dVertex
 10
-490.21914158318009
 20
617.20734893595136
 30
0.0
  0
VERTEX
  5
1CF
100
AcDbEntity
  8
FAN70-0308
370
              15
390
0
  6
Continuous
 62
               7
100
AcDbVertex
100
AcDb2dVertex
 10
-486.60586051938009
 20
618.09483229435136
 30
0.0
  0
VERTEX
  5
1D0
100
AcDbEntity
  8
FAN70-0308
370
              15
390
0
  6
Continuous
 62
               7
100
AcDbVertex
100
AcDb2dVertex
 10
-482.68442763318012
 20
618.63568484105122
 30
0.0
  0
VERTEX
  5
1D1
100
AcDbEntity
  8
FAN70-0308
370
              15
390
0
  6
Continuous
 62
               7
100
AcDbVertex
100
AcDb2dVertex
 10
-478.60648133158008
 20
618.81728529255133
 30
0.0
  0
SEQEND
  5
1D2
100
AcDbEntity
  8
FAN70-0308
370
              15
390
0
  6
Continuous
 62
               7
  0
POLYLINE
  5
1D3
100
AcDbEntity
  8
FAN70-0308
370
              15
390
0
  6
Continuous
 62
               7
100
AcDb2dPolyline
 66
               1
 10
0.0
 20
0.0
 30
0.0
 75
               5
  0
VERTEX
  5
1D4
100
AcDbEntity
  8
FAN70-0308
370
              15
390
0
  6
Continuous
 62
               7
100
AcDbVertex
100
AcDb2dVertex
 10
-478.60648133158008
 20
526.30047931585136
 30
0.0
  0
VERTEX
  5
1D5
100
AcDbEntity
  8
FAN70-0308
370
              15
390
0
  6
Continuous
 62
               7
100
AcDbVertex
100
AcDb2dVertex
 10
-485.60032736808012
 20
525.6804308227513
 30
0.0
  0
VERTEX
  5
1D6
100
AcDbEntity
  8
FAN70-0308
370
              15
390
0
  6
Continuous
 62
               7
100
AcDbVertex
100
AcDb2dVertex
 10
-492.36001376358013
 20
523.84528949175137
 30
0.0
  0
SEQEND
  5
1D7
100
AcDbEntity
  8
FAN70-0308
370
              15
390
0
  6
Continuous
 62
               7
  0
LINE
  5
1D8
100
AcDbEntity
  8
FAN70-0308
370
              15
390
0
  6
Continuous
 62
               7
100
AcDbLine
 10
-492.36001376358013
 20
523.84528949175137
 30
0.0
 11
-493.33308287258006
 21
523.47188129345136
 31
0.0
  0
LINE
  5
1D9
100
AcDbEntity
  8
FAN70-0308
370
              15
390
0
  6
Continuous
 62
               7
100
AcDbLine
 10
-493.33308287258006
 20
523.47188129345136
 30
0.0
 11
-493.8764276384801
 21
523.25049846685124
 31
0.0
  0
POLYLINE
  5
1DA
100
AcDbEntity
  8
FAN70-0308
370
              15
390
0
  6
Continuous
 62
               7
100
AcDb2dPolyline
 66
               1
 10
0.0
 20
0.0
 30
0.0
 75
               5
  0
VERTEX
  5
1DB
100
AcDbEntity
  8
FAN70-0308
370
              15
390
0
  6
Continuous
 62
               7
100
AcDbVertex
100
AcDb2dVertex
 10
-493.8764276384801
 20
523.25049846685124
 30
0.0
  0
VERTEX
  5
1DC
100
AcDbEntity
  8
FAN70-0308
370
              15
390
0
  6
Continuous
 62
               7
100
AcDbVertex
100
AcDb2dVertex
 10
-494.04870089438009
 20
523.17835449495124
 30
0.0
  0
VERTEX
  5
1DD
100
AcDbEntity
  8
FAN70-0308
370
              15
390
0
  6
Continuous
 62
               7
100
AcDbVertex
100
AcDb2dVertex
 10
-498.34127001758009
 20
521.05599700725134
 30
0.0
  0
VERTEX
  5
1DE
100
AcDbEntity
  8
FAN70-0308
370
              15
390
0
  6
Continuous
 62
               7
100
AcDbVertex
100
AcDb2dVertex
 10
-502.33234301508008
 20
518.44320505185124
 30
0.0
  0
SEQEND
  5
1DF
100
AcDbEntity
  8
FAN70-0308
370
              15
390
0
  6
Continuous
 62
               7
  0
LINE
  5
1E0
100
AcDbEntity
  8
FAN70-0308
370
              15
390
0
  6
Continuous
 62
               7
100
AcDbLine
 10
-502.33234301508008
 20
518.44320505185124
 30
0.0
 11
-503.82269382778009
 21
517.27839804505129
 31
0.0
  0
POLYLINE
  5
1E1
100
AcDbEntity
  8
FAN70-0308
370
              15
390
0
  6
Continuous
 62
               7
100
AcDb2dPolyline
 66
               1
 10
0.0
 20
0.0
 30
0.0
 75
               5
  0
VERTEX
  5
1E2
100
AcDbEntity
  8
FAN70-0308
370
              15
390
0
  6
Continuous
 62
               7
100
AcDbVertex
100
AcDb2dVertex
 10
-503.82269382778009
 20
517.27839804505129
 30
0.0
  0
VERTEX
  5
1E3
100
AcDbEntity
  8
FAN70-0308
370
              15
390
0
  6
Continuous
 62
               7
100
AcDbVertex
100
AcDb2dVertex
 10
-506.95259146688011
 20
514.41746636545122
 30
0.0
  0
VERTEX
  5
1E4
100
AcDbEntity
  8
FAN70-0308
370
              15
390
0
  6
Continuous
 62
               7
100
AcDbVertex
100
AcDb2dVertex
 10
-509.50197898148008
 20
511.56179293315125
 30
0.0
  0
VERTEX
  5
1E5
100
AcDbEntity
  8
FAN70-0308
370
              15
390
0
  6
Continuous
 62
               7
100
AcDbVertex
100
AcDb2dVertex
 10
-511.75770186188009
 20
508.48353340545117
 30
0.0
  0
SEQEND
  5
1E6
100
AcDbEntity
  8
FAN70-0308
370
              15
390
0
  6
Continuous
 62
               7
  0
LINE
  5
1E7
100
AcDbEntity
  8
FAN70-0308
370
              15
390
0
  6
Continuous
 62
               7
100
AcDbLine
 10
-511.75770186188009
 20
508.48353340545117
 30
0.0
 11
-512.92384438518013
 21
506.6099210015513
 31
0.0
  0
POLYLINE
  5
1E8
100
AcDbEntity
  8
FAN70-0308
370
              15
390
0
  6
Continuous
 62
               7
100
AcDb2dPolyline
 66
               1
 10
0.0
 20
0.0
 30
0.0
 75
               5
  0
VERTEX
  5
1E9
100
AcDbEntity
  8
FAN70-0308
370
              15
390
0
  6
Continuous
 62
               7
100
AcDbVertex
100
AcDb2dVertex
 10
-512.92384438518013
 20
506.6099210015513
 30
0.0
  0
VERTEX
  5
1EA
100
AcDbEntity
  8
FAN70-0308
370
              15
390
0
  6
Continuous
 62
               7
100
AcDbVertex
100
AcDb2dVertex
 10
-515.42148016688009
 20
501.54112524605119
 30
0.0
  0
VERTEX
  5
1EB
100
AcDbEntity
  8
FAN70-0308
370
              15
390
0
  6
Continuous
 62
               7
100
AcDbVertex
100
AcDb2dVertex
 10
-517.04467483158021
 20
496.67806050995131
 30
0.0
  0
VERTEX
  5
1EC
100
AcDbEntity
  8
FAN70-0308
370
              15
390
0
  6
Continuous
 62
               7
100
AcDbVertex
100
AcDb2dVertex
 10
-518.02783109548022
 20
491.65444600645122
 30
0.0
  0
VERTEX
  5
1ED
100
AcDbEntity
  8
FAN70-0308
370
              15
390
0
  6
Continuous
 62
               7
100
AcDbVertex
100
AcDb2dVertex
 10
-518.35647993088014
 20
486.55048071665118
 30
0.0
  0
SEQEND
  5
1EE
100
AcDbEntity
  8
FAN70-0308
370
              15
390
0
  6
Continuous
 62
               7
  0
POLYLINE
  5
1EF
100
AcDbEntity
  8
FAN70-0308
370
              15
390
0
  6
Continuous
 62
               7
100
AcDb2dPolyline
 66
               1
 10
0.0
 20
0.0
 30
0.0
 75
               5
  0
VERTEX
  5
1F0
100
AcDbEntity
  8
FAN70-0308
370
              15
390
0
  6
Continuous
 62
               7
100
AcDbVertex
100
AcDb2dVertex
 10
-478.60648133158008
 20
446.80048211735095
 30
0.0
  0
VERTEX
  5
1F1
100
AcDbEntity
  8
FAN70-0308
370
              15
390
0
  6
Continuous
 62
               7
100
AcDbVertex
100
AcDb2dVertex
 10
-478.54891541018009
 20
446.80052309555106
 30
0.0
  0
VERTEX
  5
1F2
100
AcDbEntity
  8
FAN70-0308
370
              15
390
0
  6
Continuous
 62
               7
100
AcDbVertex
100
AcDb2dVertex
 10
-473.26904557938008
 20
447.16009929095082
 30
0.0
  0
VERTEX
  5
1F3
100
AcDbEntity
  8
FAN70-0308
370
              15
390
0
  6
Continuous
 62
               7
100
AcDbVertex
100
AcDb2dVertex
 10
-468.09183642568007
 20
448.21634202515099
 30
0.0
  0
VERTEX
  5
1F4
100
AcDbEntity
  8
FAN70-0308
370
              15
390
0
  6
Continuous
 62
               7
100
AcDbVertex
100
AcDb2dVertex
 10
-463.11478898228012
 20
449.9435020915509
 30
0.0
  0
VERTEX
  5
1F5
100
AcDbEntity
  8
FAN70-0308
370
              15
390
0
  6
Continuous
 62
               7
100
AcDbVertex
100
AcDb2dVertex
 10
-458.42717424328009
 20
452.30310096655097
 30
0.0
  0
VERTEX
  5
1F6
100
AcDbEntity
  8
FAN70-0308
370
              15
390
0
  6
Continuous
 62
               7
100
AcDbVertex
100
AcDb2dVertex
 10
-454.11016442178004
 20
455.24566306985128
 30
0.0
  0
VERTEX
  5
1F7
100
AcDbEntity
  8
FAN70-0308
370
              15
390
0
  6
Continuous
 62
               7
100
AcDbVertex
100
AcDb2dVertex
 10
-450.23268297608007
 20
458.71168433945121
 30
0.0
  0
VERTEX
  5
1F8
100
AcDbEntity
  8
FAN70-0308
370
              15
390
0
  6
Continuous
 62
               7
100
AcDbVertex
100
AcDb2dVertex
 10
-446.85388379098015
 20
462.63689792965118
 30
0.0
  0
VERTEX
  5
1F9
100
AcDbEntity
  8
FAN70-0308
370
              15
390
0
  6
Continuous
 62
               7
100
AcDbVertex
100
AcDb2dVertex
 10
-444.02470089788005
 20
466.95040225305132
 30
0.0
  0
VERTEX
  5
1FA
100
AcDbEntity
  8
FAN70-0308
370
              15
390
0
  6
Continuous
 62
               7
100
AcDbVertex
100
AcDb2dVertex
 10
-441.78392388228008
 20
471.5784132785513
 30
0.0
  0
VERTEX
  5
1FB
100
AcDbEntity
  8
FAN70-0308
370
              15
390
0
  6
Continuous
 62
               7
100
AcDbVertex
100
AcDb2dVertex
 10
-440.16489036678007
 20
476.43580346625134
 30
0.0
  0
VERTEX
  5
1FC
100
AcDbEntity
  8
FAN70-0308
370
              15
390
0
  6
Continuous
 62
               7
100
AcDbVertex
100
AcDb2dVertex
 10
-439.18427475098014
 20
481.45310779355117
 30
0.0
  0
VERTEX
  5
1FD
100
AcDbEntity
  8
FAN70-0308
370
              15
390
0
  6
Continuous
 62
               7
100
AcDbVertex
100
AcDb2dVertex
 10
-438.85648273228009
 20
486.55048071665118
 30
0.0
  0
SEQEND
  5
1FE
100
AcDbEntity
  8
FAN70-0308
370
              15
390
0
  6
Continuous
 62
               7
  0
POLYLINE
  5
1FF
100
AcDbEntity
  8
FAN70-0308
370
              15
390
0
  6
Continuous
 62
               7
100
AcDb2dPolyline
 66
               1
 10
0.0
 20
0.0
 30
0.0
 75
               5
  0
VERTEX
  5
200
100
AcDbEntity
  8
FAN70-0308
370
              15
390
0
  6
Continuous
 62
               7
100
AcDbVertex
100
AcDb2dVertex
 10
-518.35647993088014
 20
486.55048071665118
 30
0.0
  0
VERTEX
  5
201
100
AcDbEntity
  8
FAN70-0308
370
              15
390
0
  6
Continuous
 62
               7
100
AcDbVertex
100
AcDb2dVertex
 10
-518.35647248028022
 20
486.52301707795135
 30
0.0
  0
VERTEX
  5
202
100
AcDbEntity
  8
FAN70-0308
370
              15
390
0
  6
Continuous
 62
               7
100
AcDbVertex
100
AcDb2dVertex
 10
-518.02310742738018
 20
481.41019524325128
 30
0.0
  0
VERTEX
  5
203
100
AcDbEntity
  8
FAN70-0308
370
              15
390
0
  6
Continuous
 62
               7
100
AcDbVertex
100
AcDb2dVertex
 10
-517.03282095788018
 20
476.37792176825127
 30
0.0
  0
VERTEX
  5
204
100
AcDbEntity
  8
FAN70-0308
370
              15
390
0
  6
Continuous
 62
               7
100
AcDbVertex
100
AcDb2dVertex
 10
-515.4004583537801
 20
471.50829865855115
 30
0.0
  0
VERTEX
  5
205
100
AcDbEntity
  8
FAN70-0308
370
              15
390
0
  6
Continuous
 62
               7
100
AcDbVertex
100
AcDb2dVertex
 10
-513.14741768238014
 20
466.8777348778512
 30
0.0
  0
VERTEX
  5
206
100
AcDbEntity
  8
FAN70-0308
370
              15
390
0
  6
Continuous
 62
               7
100
AcDbVertex
100
AcDb2dVertex
 10
-510.3043469071801
 20
462.56491973315127
 30
0.0
  0
VERTEX
  5
207
100
AcDbEntity
  8
FAN70-0308
370
              15
390
0
  6
Continuous
 62
               7
100
AcDbVertex
100
AcDb2dVertex
 10
-506.9130009442801
 20
458.6433476141512
 30
0.0
  0
VERTEX
  5
208
100
AcDbEntity
  8
FAN70-0308
370
              15
390
0
  6
Continuous
 62
               7
100
AcDbVertex
100
AcDb2dVertex
 10
-501.61820672748007
 20
454.13855522195115
 30
0.0
  0
VERTEX
  5
209
100
AcDbEntity
  8
FAN70-0308
370
              15
390
0
  6
Continuous
 62
               7
100
AcDbVertex
100
AcDb2dVertex
 10
-495.58375053408008
 20
450.60834720055112
 30
0.0
  0
SEQEND
  5
20A
100
AcDbEntity
  8
FAN70-0308
370
              15
390
0
  6
Continuous
 62
               7
  0
POLYLINE
  5
20B
100
AcDbEntity
  8
FAN70-0308
370
              15
390
0
  6
Continuous
 62
               7
100
AcDb2dPolyline
 66
               1
 10
0.0
 20
0.0
 30
0.0
 75
               5
  0
VERTEX
  5
20C
100
AcDbEntity
  8
FAN70-0308
370
              15
390
0
  6
Continuous
 62
               7
100
AcDbVertex
100
AcDb2dVertex
 10
-495.58375053408008
 20
450.60834720055112
 30
0.0
  0
VERTEX
  5
20D
100
AcDbEntity
  8
FAN70-0308
370
              15
390
0
  6
Continuous
 62
               7
100
AcDbVertex
100
AcDb2dVertex
 10
-493.9959032863801
 20
449.90040420805093
 30
0.0
  0
VERTEX
  5
20E
100
AcDbEntity
  8
FAN70-0308
370
              15
390
0
  6
Continuous
 62
               7
100
AcDbVertex
100
AcDb2dVertex
 10
-489.02988829018011
 20
448.19144963545102
 30
0.0
  0
VERTEX
  5
20F
100
AcDbEntity
  8
FAN70-0308
370
              15
390
0
  6
Continuous
 62
               7
100
AcDbVertex
100
AcDb2dVertex
 10
-483.86808554008007
 20
447.14988454495108
 30
0.0
  0
VERTEX
  5
210
100
AcDbEntity
  8
FAN70-0308
370
              15
390
0
  6
Continuous
 62
               7
100
AcDbVertex
100
AcDb2dVertex
 10
-478.60648133158008
 20
446.80048211735095
 30
0.0
  0
SEQEND
  5
211
100
AcDbEntity
  8
FAN70-0308
370
              15
390
0
  6
Continuous
 62
               7
  0
POLYLINE
  5
212
100
AcDbEntity
  8
FAN70-0308
370
              15
390
0
  6
Continuous
 62
               7
100
AcDb2dPolyline
 66
               1
 10
0.0
 20
0.0
 30
0.0
 75
               5
  0
VERTEX
  5
213
100
AcDbEntity
  8
FAN70-0308
370
              15
390
0
  6
Continuous
 62
               7
100
AcDbVertex
100
AcDb2dVertex
 10
-438.85648273228009
 20
486.55048071665118
 30
0.0
  0
VERTEX
  5
214
100
AcDbEntity
  8
FAN70-0308
370
              15
390
0
  6
Continuous
 62
               7
100
AcDbVertex
100
AcDb2dVertex
 10
-438.85649018288007
 20
486.57760111735132
 30
0.0
  0
VERTEX
  5
215
100
AcDbEntity
  8
FAN70-0308
370
              15
390
0
  6
Continuous
 62
               7
100
AcDbVertex
100
AcDb2dVertex
 10
-439.18893508908008
 20
491.68371980335127
 30
0.0
  0
VERTEX
  5
216
100
AcDbEntity
  8
FAN70-0308
370
              15
390
0
  6
Continuous
 62
               7
100
AcDbVertex
100
AcDb2dVertex
 10
-440.17658405308009
 20
496.70958950435119
 30
0.0
  0
VERTEX
  5
217
100
AcDbEntity
  8
FAN70-0308
370
              15
390
0
  6
Continuous
 62
               7
100
AcDbVertex
100
AcDb2dVertex
 10
-441.80465884808012
 20
501.57345890325126
 30
0.0
  0
VERTEX
  5
218
100
AcDbEntity
  8
FAN70-0308
370
              15
390
0
  6
Continuous
 62
               7
100
AcDbVertex
100
AcDb2dVertex
 10
-444.05194767118007
 20
506.19933626865117
 30
0.0
  0
VERTEX
  5
219
100
AcDbEntity
  8
FAN70-0308
370
              15
390
0
  6
Continuous
 62
               7
100
AcDbVertex
100
AcDb2dVertex
 10
-446.8881005823801
 20
510.50890854815128
 30
0.0
  0
VERTEX
  5
21A
100
AcDbEntity
  8
FAN70-0308
370
              15
390
0
  6
Continuous
 62
               7
100
AcDbVertex
100
AcDb2dVertex
 10
-450.27175940868011
 20
514.42897564985128
 30
0.0
  0
VERTEX
  5
21B
100
AcDbEntity
  8
FAN70-0308
370
              15
390
0
  6
Continuous
 62
               7
100
AcDbVertex
100
AcDb2dVertex
 10
-454.15473752018011
 20
517.89065509355123
 30
0.0
  0
VERTEX
  5
21C
100
AcDbEntity
  8
FAN70-0308
370
              15
390
0
  6
Continuous
 62
               7
100
AcDbVertex
100
AcDb2dVertex
 10
-458.4764207183801
 20
520.82646324555117
 30
0.0
  0
VERTEX
  5
21D
100
AcDbEntity
  8
FAN70-0308
370
              15
390
0
  6
Continuous
 62
               7
100
AcDbVertex
100
AcDb2dVertex
 10
-463.16720940468008
 20
523.1795875660514
 30
0.0
  0
VERTEX
  5
21E
100
AcDbEntity
  8
FAN70-0308
370
              15
390
0
  6
Continuous
 62
               7
100
AcDbVertex
100
AcDb2dVertex
 10
-468.14729854758008
 20
524.89977388895136
 30
0.0
  0
VERTEX
  5
21F
100
AcDbEntity
  8
FAN70-0308
370
              15
390
0
  6
Continuous
 62
               7
100
AcDbVertex
100
AcDb2dVertex
 10
-473.32604252098008
 20
525.94855486665119
 30
0.0
  0
VERTEX
  5
220
100
AcDbEntity
  8
FAN70-0308
370
              15
390
0
  6
Continuous
 62
               7
100
AcDbVertex
100
AcDb2dVertex
 10
-478.60648133158008
 20
526.30047931585136
 30
0.0
  0
SEQEND
  5
221
100
AcDbEntity
  8
FAN70-0308
370
              15
390
0
  6
Continuous
 62
               7
  0
POLYLINE
  5
222
100
AcDbEntity
  8
FAN70-0308
370
              15
390
0
  6
Continuous
 62
               7
100
AcDb2dPolyline
 66
               1
 10
0.0
 20
0.0
 30
0.0
 75
               5
  0
VERTEX
  5
223
100
AcDbEntity
  8
FAN70-0308
370
              15
390
0
  6
Continuous
 62
               7
100
AcDbVertex
100
AcDb2dVertex
 10
-478.60648133158008
 20
618.81728529255133
 30
0.0
  0
VERTEX
  5
224
100
AcDbEntity
  8
FAN70-0308
370
              15
390
0
  6
Continuous
 62
               7
100
AcDbVertex
100
AcDb2dVertex
 10
-474.52831570358012
 20
618.63566993985137
 30
0.0
  0
VERTEX
  5
225
100
AcDbEntity
  8
FAN70-0308
370
              15
390
0
  6
Continuous
 62
               7
100
AcDbVertex
100
AcDb2dVertex
 10
-470.60736198278011
 20
618.09496640485122
 30
0.0
  0
VERTEX
  5
226
100
AcDbEntity
  8
FAN70-0308
370
              15
390
0
  6
Continuous
 62
               7
100
AcDbVertex
100
AcDb2dVertex
 10
-466.99361525778011
 20
617.20751284875132
 30
0.0
  0
VERTEX
  5
227
100
AcDbEntity
  8
FAN70-0308
370
              15
390
0
  6
Continuous
 62
               7
100
AcDbVertex
100
AcDb2dVertex
 10
-463.82684190128009
 20
615.99569081585128
 30
0.0
  0
VERTEX
  5
228
100
AcDbEntity
  8
FAN70-0308
370
              15
390
0
  6
Continuous
 62
               7
100
AcDbVertex
100
AcDb2dVertex
 10
-461.22801699038007
 20
614.49264048855116
 30
0.0
  0
VERTEX
  5
229
100
AcDbEntity
  8
FAN70-0308
370
              15
390
0
  6
Continuous
 62
               7
100
AcDbVertex
100
AcDb2dVertex
 10
-459.2973610788801
 20
612.74467467585123
 30
0.0
  0
VERTEX
  5
22A
100
AcDbEntity
  8
FAN70-0308
370
              15
390
0
  6
Continuous
 62
               7
100
AcDbVertex
100
AcDb2dVertex
 10
-458.10835086108005
 20
610.81000476395116
 30
0.0
  0
VERTEX
  5
22B
100
AcDbEntity
  8
FAN70-0308
370
              15
390
0
  6
Continuous
 62
               7
100
AcDbVertex
100
AcDb2dVertex
 10
-457.70648144488013
 20
608.7583234838512
 30
0.0
  0
VERTEX
  5
22C
100
AcDbEntity
  8
FAN70-0308
370
              15
390
0
  6
Continuous
 62
               7
100
AcDbVertex
100
AcDb2dVertex
 10
-458.10720719698008
 20
606.66932969605114
 30
0.0
  0
VERTEX
  5
22D
100
AcDbEntity
  8
FAN70-0308
370
              15
390
0
  6
Continuous
 62
               7
100
AcDbVertex
100
AcDb2dVertex
 10
-459.29566234648007
 20
604.62710320275119
 30
0.0
  0
VERTEX
  5
22E
100
AcDbEntity
  8
FAN70-0308
370
              15
390
0
  6
Continuous
 62
               7
100
AcDbVertex
100
AcDb2dVertex
 10
-461.22604817448013
 20
602.71873384035121
 30
0.0
  0
VERTEX
  5
22F
100
AcDbEntity
  8
FAN70-0308
370
              15
390
0
  6
Continuous
 62
               7
100
AcDbVertex
100
AcDb2dVertex
 10
-463.82472873028013
 20
601.02689325135134
 30
0.0
  0
VERTEX
  5
230
100
AcDbEntity
  8
FAN70-0308
370
              15
390
0
  6
Continuous
 62
               7
100
AcDbVertex
100
AcDb2dVertex
 10
-466.99187182188007
 20
599.62637036365118
 30
0.0
  0
VERTEX
  5
231
100
AcDbEntity
  8
FAN70-0308
370
              15
390
0
  6
Continuous
 62
               7
100
AcDbVertex
100
AcDb2dVertex
 10
-470.60566511298009
 20
598.57952653685129
 30
0.0
  0
VERTEX
  5
232
100
AcDbEntity
  8
FAN70-0308
370
              15
390
0
  6
Continuous
 62
               7
100
AcDbVertex
100
AcDb2dVertex
 10
-474.52774294018008
 20
597.9326000741512
 30
0.0
  0
VERTEX
  5
233
100
AcDbEntity
  8
FAN70-0308
370
              15
390
0
  6
Continuous
 62
               7
100
AcDbVertex
100
AcDb2dVertex
 10
-478.60637265608011
 20
597.71393298425119
 30
0.0
  0
VERTEX
  5
234
100
AcDbEntity
  8
FAN70-0308
370
              15
390
0
  6
Continuous
 62
               7
100
AcDbVertex
100
AcDb2dVertex
 10
-478.60648133158008
 20
597.71393298425119
 30
0.0
  0
SEQEND
  5
235
100
AcDbEntity
  8
FAN70-0308
370
              15
390
0
  6
Continuous
 62
               7
  0
POLYLINE
  5
236
100
AcDbEntity
  8
FAN70-0308
370
              15
390
0
  6
Continuous
 62
               7
100
AcDb2dPolyline
 66
               1
 10
0.0
 20
0.0
 30
0.0
 75
               5
  0
VERTEX
  5
237
100
AcDbEntity
  8
FAN70-0308
370
              15
390
0
  6
Continuous
 62
               7
100
AcDbVertex
100
AcDb2dVertex
 10
-377.58725589660401
 20
341.0867309502508
 30
0.0
  0
VERTEX
  5
238
100
AcDbEntity
  8
FAN70-0308
370
              15
390
0
  6
Continuous
 62
               7
100
AcDbVertex
100
AcDb2dVertex
 10
-393.34276204853154
 20
336.02742909705063
 30
0.0
  0
VERTEX
  5
239
100
AcDbEntity
  8
FAN70-0308
370
              15
390
0
  6
Continuous
 62
               7
100
AcDbVertex
100
AcDb2dVertex
 10
-409.37337684160843
 20
331.86638414185069
 30
0.0
  0
VERTEX
  5
23A
100
AcDbEntity
  8
FAN70-0308
370
              15
390
0
  6
Continuous
 62
               7
100
AcDbVertex
100
AcDb2dVertex
 10
-425.59701477216333
 20
328.59715878285061
 30
0.0
  0
VERTEX
  5
23B
100
AcDbEntity
  8
FAN70-0308
370
              15
390
0
  6
Continuous
 62
               7
100
AcDbVertex
100
AcDb2dVertex
 10
-441.54412455463512
 20
326.25904738225069
 30
0.0
  0
VERTEX
  5
23C
100
AcDbEntity
  8
FAN70-0308
370
              15
390
0
  6
Continuous
 62
               7
100
AcDbVertex
100
AcDb2dVertex
 10
-457.60210490791894
 20
324.75139259615054
 30
0.0
  0
VERTEX
  5
23D
100
AcDbEntity
  8
FAN70-0308
370
              15
390
0
  6
Continuous
 62
               7
100
AcDbVertex
100
AcDb2dVertex
 10
-473.70581499385423
 20
324.07787501135073
 30
0.0
  0
VERTEX
  5
23E
100
AcDbEntity
  8
FAN70-0308
370
              15
390
0
  6
Continuous
 62
               7
100
AcDbVertex
100
AcDb2dVertex
 10
-488.78574202718363
 20
324.20679985795078
 30
0.0
  0
VERTEX
  5
23F
100
AcDbEntity
  8
FAN70-0308
370
              15
390
0
  6
Continuous
 62
               7
100
AcDbVertex
100
AcDb2dVertex
 10
-503.85055932187657
 20
325.06819128315061
 30
0.0
  0
VERTEX
  5
240
100
AcDbEntity
  8
FAN70-0308
370
              15
390
0
  6
Continuous
 62
               7
100
AcDbVertex
100
AcDb2dVertex
 10
-518.84711919713959
 20
326.6575193337506
 30
0.0
  0
VERTEX
  5
241
100
AcDbEntity
  8
FAN70-0308
370
              15
390
0
  6
Continuous
 62
               7
100
AcDbVertex
100
AcDb2dVertex
 10
-533.7568711934432
 20
328.97618471895072
 30
0.0
  0
VERTEX
  5
242
100
AcDbEntity
  8
FAN70-0308
370
              15
390
0
  6
Continuous
 62
               7
100
AcDbVertex
100
AcDb2dVertex
 10
-548.5429472506346
 20
332.0288216999507
 30
0.0
  0
VERTEX
  5
243
100
AcDbEntity
  8
FAN70-0308
370
              15
390
0
  6
Continuous
 62
               7
100
AcDbVertex
100
AcDb2dVertex
 10
-563.14728916242245
 20
335.81854461945073
 30
0.0
  0
VERTEX
  5
244
100
AcDbEntity
  8
FAN70-0308
370
              15
390
0
  6
Continuous
 62
               7
100
AcDbVertex
100
AcDb2dVertex
 10
-577.68128910317637
 20
340.41082917965065
 30
0.0
  0
VERTEX
  5
245
100
AcDbEntity
  8
FAN70-0308
370
              15
390
0
  6
Continuous
 62
               7
100
AcDbVertex
100
AcDb2dVertex
 10
-591.98208007474614
 20
345.78859864985071
 30
0.0
  0
VERTEX
  5
246
100
AcDbEntity
  8
FAN70-0308
370
              15
390
0
  6
Continuous
 62
               7
100
AcDbVertex
100
AcDb2dVertex
 10
-605.97499079635293
 20
351.9445216587506
 30
0.0
  0
VERTEX
  5
247
100
AcDbEntity
  8
FAN70-0308
370
              15
390
0
  6
Continuous
 62
               7
100
AcDbVertex
100
AcDb2dVertex
 10
-619.58534253541779
 20
358.87122213165077
 30
0.0
  0
VERTEX
  5
248
100
AcDbEntity
  8
FAN70-0308
370
              15
390
0
  6
Continuous
 62
               7
100
AcDbVertex
100
AcDb2dVertex
 10
-632.73845655956234
 20
366.5613686970508
 30
0.0
  0
VERTEX
  5
249
100
AcDbEntity
  8
FAN70-0308
370
              15
390
0
  6
Continuous
 62
               7
100
AcDbVertex
100
AcDb2dVertex
 10
-645.9811373731651
 20
375.46095310965057
 30
0.0
  0
VERTEX
  5
24A
100
AcDbEntity
  8
FAN70-0308
370
              15
390
0
  6
Continuous
 62
               7
100
AcDbVertex
100
AcDb2dVertex
 10
-658.63079960347739
 20
385.24723856965062
 30
0.0
  0
VERTEX
  5
24B
100
AcDbEntity
  8
FAN70-0308
370
              15
390
0
  6
Continuous
 62
               7
100
AcDbVertex
100
AcDb2dVertex
 10
-670.56561155288557
 20
395.88376193565074
 30
0.0
  0
VERTEX
  5
24C
100
AcDbEntity
  8
FAN70-0308
370
              15
390
0
  6
Continuous
 62
               7
100
AcDbVertex
100
AcDb2dVertex
 10
-681.66372662057756
 20
407.33408241785065
 30
0.0
  0
VERTEX
  5
24D
100
AcDbEntity
  8
FAN70-0308
370
              15
390
0
  6
Continuous
 62
               7
100
AcDbVertex
100
AcDb2dVertex
 10
-690.68909330637189
 20
418.10568481005072
 30
0.0
  0
VERTEX
  5
24E
100
AcDbEntity
  8
FAN70-0308
370
              15
390
0
  6
Continuous
 62
               7
100
AcDbVertex
100
AcDb2dVertex
 10
-698.95910346608252
 20
429.51328366315062
 30
0.0
  0
VERTEX
  5
24F
100
AcDbEntity
  8
FAN70-0308
370
              15
390
0
  6
Continuous
 62
               7
100
AcDbVertex
100
AcDb2dVertex
 10
-706.37125454081138
 20
441.48840814155068
 30
0.0
  0
VERTEX
  5
250
100
AcDbEntity
  8
FAN70-0308
370
              15
390
0
  6
Continuous
 62
               7
100
AcDbVertex
100
AcDb2dVertex
 10
-712.82295455426811
 20
453.96257250825101
 30
0.0
  0
VERTEX
  5
251
100
AcDbEntity
  8
FAN70-0308
370
              15
390
0
  6
Continuous
 62
               7
100
AcDbVertex
100
AcDb2dVertex
 10
-718.07125545286704
 20
466.45246691325127
 30
0.0
  0
VERTEX
  5
252
100
AcDbEntity
  8
FAN70-0308
370
              15
390
0
  6
Continuous
 62
               7
100
AcDbVertex
100
AcDb2dVertex
 10
-722.33198190301687
 20
479.35884597965122
 30
0.0
  0
VERTEX
  5
253
100
AcDbEntity
  8
FAN70-0308
370
              15
390
0
  6
Continuous
 62
               7
100
AcDbVertex
100
AcDb2dVertex
 10
-725.54655036902011
 20
492.56109039555116
 30
0.0
  0
VERTEX
  5
254
100
AcDbEntity
  8
FAN70-0308
370
              15
390
0
  6
Continuous
 62
               7
100
AcDbVertex
100
AcDb2dVertex
 10
-727.65636241227958
 20
505.93857898635127
 30
0.0
  0
VERTEX
  5
255
100
AcDbEntity
  8
FAN70-0308
370
              15
390
0
  6
Continuous
 62
               7
100
AcDbVertex
100
AcDb2dVertex
 10
-728.55195579186807
 20
517.69881568175128
 30
0.0
  0
VERTEX
  5
256
100
AcDbEntity
  8
FAN70-0308
370
              15
390
0
  6
Continuous
 62
               7
100
AcDbVertex
100
AcDb2dVertex
 10
-728.57010759708021
 20
529.54055055295134
 30
0.0
  0
VERTEX
  5
257
100
AcDbEntity
  8
FAN70-0308
370
              15
390
0
  6
Continuous
 62
               7
100
AcDbVertex
100
AcDb2dVertex
 10
-727.72470738677737
 20
541.36974050915114
 30
0.0
  0
VERTEX
  5
258
100
AcDbEntity
  8
FAN70-0308
370
              15
390
0
  6
Continuous
 62
               7
100
AcDbVertex
100
AcDb2dVertex
 10
-726.02967452541861
 20
553.09235363525136
 30
0.0
  0
VERTEX
  5
259
100
AcDbEntity
  8
FAN70-0308
370
              15
390
0
  6
Continuous
 62
               7
100
AcDbVertex
100
AcDb2dVertex
 10
-723.49889857176527
 20
564.6143487028512
 30
0.0
  0
VERTEX
  5
25A
100
AcDbEntity
  8
FAN70-0308
370
              15
390
0
  6
Continuous
 62
               7
100
AcDbVertex
100
AcDb2dVertex
 10
-719.20101904246064
 20
578.63377093595136
 30
0.0
  0
VERTEX
  5
25B
100
AcDbEntity
  8
FAN70-0308
370
              15
390
0
  6
Continuous
 62
               7
100
AcDbVertex
100
AcDb2dVertex
 10
-713.69494164519165
 20
592.28089510715131
 30
0.0
  0
VERTEX
  5
25C
100
AcDbEntity
  8
FAN70-0308
370
              15
390
0
  6
Continuous
 62
               7
100
AcDbVertex
100
AcDb2dVertex
 10
-707.07886198320909
 20
605.43260782275138
 30
0.0
  0
VERTEX
  5
25D
100
AcDbEntity
  8
FAN70-0308
370
              15
390
0
  6
Continuous
 62
               7
100
AcDbVertex
100
AcDb2dVertex
 10
-699.45096075696517
 20
617.9657882384513
 30
0.0
  0
VERTEX
  5
25E
100
AcDbEntity
  8
FAN70-0308
370
              15
390
0
  6
Continuous
 62
               7
100
AcDbVertex
100
AcDb2dVertex
 10
-691.44225909743511
 20
629.12356912415135
 30
0.0
  0
VERTEX
  5
25F
100
AcDbEntity
  8
FAN70-0308
370
              15
390
0
  6
Continuous
 62
               7
100
AcDbVertex
100
AcDb2dVertex
 10
-682.65614453102944
 20
639.73598241125137
 30
0.0
  0
VERTEX
  5
260
100
AcDbEntity
  8
FAN70-0308
370
              15
390
0
  6
Continuous
 62
               7
100
AcDbVertex
100
AcDb2dVertex
 10
-673.17705722882647
 20
649.7628396681514
 30
0.0
  0
VERTEX
  5
261
100
AcDbEntity
  8
FAN70-0308
370
              15
390
0
  6
Continuous
 62
               7
100
AcDbVertex
100
AcDb2dVertex
 10
-663.08939265320828
 20
659.16390775955119
 30
0.0
  0
VERTEX
  5
262
100
AcDbEntity
  8
FAN70-0308
370
              15
390
0
  6
Continuous
 62
               7
100
AcDbVertex
100
AcDb2dVertex
 10
-652.47759097535345
 20
667.89898335255134
 30
0.0
  0
VERTEX
  5
263
100
AcDbEntity
  8
FAN70-0308
370
              15
390
0
  6
Continuous
 62
               7
100
AcDbVertex
100
AcDb2dVertex
 10
-639.84861405344554
 20
677.01771914285132
 30
0.0
  0
VERTEX
  5
264
100
AcDbEntity
  8
FAN70-0308
370
              15
390
0
  6
Continuous
 62
               7
100
AcDbVertex
100
AcDb2dVertex
 10
-626.62026988736761
 20
685.34056901255121
 30
0.0
  0
VERTEX
  5
265
100
AcDbEntity
  8
FAN70-0308
370
              15
390
0
  6
Continuous
 62
               7
100
AcDbVertex
100
AcDb2dVertex
 10
-612.88009846394402
 20
692.85835384645134
 30
0.0
  0
VERTEX
  5
266
100
AcDbEntity
  8
FAN70-0308
370
              15
390
0
  6
Continuous
 62
               7
100
AcDbVertex
100
AcDb2dVertex
 10
-598.71563231869959
 20
699.56184982575132
 30
0.0
  0
VERTEX
  5
267
100
AcDbEntity
  8
FAN70-0308
370
              15
390
0
  6
Continuous
 62
               7
100
AcDbVertex
100
AcDb2dVertex
 10
-584.21439653546008
 20
705.44184803285134
 30
0.0
  0
VERTEX
  5
268
100
AcDbEntity
  8
FAN70-0308
370
              15
390
0
  6
Continuous
 62
               7
100
AcDbVertex
100
AcDb2dVertex
 10
-569.46393855254928
 20
710.48913955015132
 30
0.0
  0
VERTEX
  5
269
100
AcDbEntity
  8
FAN70-0308
370
              15
390
0
  6
Continuous
 62
               7
100
AcDbVertex
100
AcDb2dVertex
 10
-553.15842375990587
 20
715.05712031645135
 30
0.0
  0
VERTEX
  5
26A
100
AcDbEntity
  8
FAN70-0308
370
              15
390
0
  6
Continuous
 62
               7
100
AcDbVertex
100
AcDb2dVertex
 10
-536.56909327187657
 20
718.69988798415125
 30
0.0
  0
VERTEX
  5
26B
100
AcDbEntity
  8
FAN70-0308
370
              15
390
0
  6
Continuous
 62
               7
100
AcDbVertex
100
AcDb2dVertex
 10
-519.77470550595581
 20
721.41689121045124
 30
0.0
  0
VERTEX
  5
26C
100
AcDbEntity
  8
FAN70-0308
370
              15
390
0
  6
Continuous
 62
               7
100
AcDbVertex
100
AcDb2dVertex
 10
-502.85400956581333
 20
723.20765315805124
 30
0.0
  0
VERTEX
  5
26D
100
AcDbEntity
  8
FAN70-0308
370
              15
390
0
  6
Continuous
 62
               7
100
AcDbVertex
100
AcDb2dVertex
 10
-485.88576060885015
 20
724.07162248415125
 30
0.0
  0
VERTEX
  5
26E
100
AcDbEntity
  8
FAN70-0308
370
              15
390
0
  6
Continuous
 62
               7
100
AcDbVertex
100
AcDb2dVertex
 10
-468.94871193014205
 20
724.00830745015128
 30
0.0
  0
VERTEX
  5
26F
100
AcDbEntity
  8
FAN70-0308
370
              15
390
0
  6
Continuous
 62
               7
100
AcDbVertex
100
AcDb2dVertex
 10
-455.0397421306547
 20
723.26229571615136
 30
0.0
  0
VERTEX
  5
270
100
AcDbEntity
  8
FAN70-0308
370
              15
390
0
  6
Continuous
 62
               7
100
AcDbVertex
100
AcDb2dVertex
 10
-441.17115562690719
 20
721.89399658955131
 30
0.0
  0
VERTEX
  5
271
100
AcDbEntity
  8
FAN70-0308
370
              15
390
0
  6
Continuous
 62
               7
100
AcDbVertex
100
AcDb2dVertex
 10
-427.38498994330371
 20
719.90555583755122
 30
0.0
  0
VERTEX
  5
272
100
AcDbEntity
  8
FAN70-0308
370
              15
390
0
  6
Continuous
 62
               7
100
AcDbVertex
100
AcDb2dVertex
 10
-411.26834036237898
 20
716.75624012265121
 30
0.0
  0
VERTEX
  5
273
100
AcDbEntity
  8
FAN70-0308
370
              15
390
0
  6
Continuous
 62
               7
100
AcDbVertex
100
AcDb2dVertex
 10
-395.30888720326902
 20
712.7194261483512
 30
0.0
  0
VERTEX
  5
274
100
AcDbEntity
  8
FAN70-0308
370
              15
390
0
  6
Continuous
 62
               7
100
AcDbVertex
100
AcDb2dVertex
 10
-379.59022116842175
 20
707.7953672341514
 30
0.0
  0
VERTEX
  5
275
100
AcDbEntity
  8
FAN70-0308
370
              15
390
0
  6
Continuous
 62
               7
100
AcDbVertex
100
AcDb2dVertex
 10
-364.19591060588732
 20
701.98427199635125
 30
0.0
  0
VERTEX
  5
276
100
AcDbEntity
  8
FAN70-0308
370
              15
390
0
  6
Continuous
 62
               7
100
AcDbVertex
100
AcDb2dVertex
 10
-349.20953876661406
 20
695.28637885365129
 30
0.0
  0
VERTEX
  5
277
100
AcDbEntity
  8
FAN70-0308
370
              15
390
0
  6
Continuous
 62
               7
100
AcDbVertex
100
AcDb2dVertex
 10
-334.04157436012605
 20
687.33064889235129
 30
0.0
  0
VERTEX
  5
278
100
AcDbEntity
  8
FAN70-0308
370
              15
390
0
  6
Continuous
 62
               7
100
AcDbVertex
100
AcDb2dVertex
 10
-319.39831336832833
 20
678.36837529455124
 30
0.0
  0
VERTEX
  5
279
100
AcDbEntity
  8
FAN70-0308
370
              15
390
0
  6
Continuous
 62
               7
100
AcDbVertex
100
AcDb2dVertex
 10
-305.41702695556887
 20
668.41840802945126
 30
0.0
  0
VERTEX
  5
27A
100
AcDbEntity
  8
FAN70-0308
370
              15
390
0
  6
Continuous
 62
               7
100
AcDbVertex
100
AcDb2dVertex
 10
-292.23500118909419
 20
657.49962686815138
 30
0.0
  0
VERTEX
  5
27B
100
AcDbEntity
  8
FAN70-0308
370
              15
390
0
  6
Continuous
 62
               7
100
AcDbVertex
100
AcDb2dVertex
 10
-281.69565770259999
 20
647.4156981638514
 30
0.0
  0
VERTEX
  5
27C
100
AcDbEntity
  8
FAN70-0308
370
              15
390
0
  6
Continuous
 62
               7
100
AcDbVertex
100
AcDb2dVertex
 10
-271.84165663642841
 20
636.61231159485123
 30
0.0
  0
VERTEX
  5
27D
100
AcDbEntity
  8
FAN70-0308
370
              15
390
0
  6
Continuous
 62
               7
100
AcDbVertex
100
AcDb2dVertex
 10
-262.77879410330769
 20
625.14483987605126
 30
0.0
  0
VERTEX
  5
27E
100
AcDbEntity
  8
FAN70-0308
370
              15
390
0
  6
Continuous
 62
               7
100
AcDbVertex
100
AcDb2dVertex
 10
-254.6128811190643
 20
613.06858121675123
 30
0.0
  0
VERTEX
  5
27F
100
AcDbEntity
  8
FAN70-0308
370
              15
390
0
  6
Continuous
 62
               7
100
AcDbVertex
100
AcDb2dVertex
 10
-247.91866523798643
 20
601.33805184875132
 30
0.0
  0
VERTEX
  5
280
100
AcDbEntity
  8
FAN70-0308
370
              15
390
0
  6
Continuous
 62
               7
100
AcDbVertex
100
AcDb2dVertex
 10
-242.10822468916598
 20
589.10138963975123
 30
0.0
  0
VERTEX
  5
281
100
AcDbEntity
  8
FAN70-0308
370
              15
390
0
  6
Continuous
 62
               7
100
AcDbVertex
100
AcDb2dVertex
 10
-237.25512048307291
 20
576.45887940445118
 30
0.0
  0
VERTEX
  5
282
100
AcDbEntity
  8
FAN70-0308
370
              15
390
0
  6
Continuous
 62
               7
100
AcDbVertex
100
AcDb2dVertex
 10
-233.43285401828268
 20
563.5108059576512
 30
0.0
  0
VERTEX
  5
283
100
AcDbEntity
  8
FAN70-0308
370
              15
390
0
  6
Continuous
 62
               7
100
AcDbVertex
100
AcDb2dVertex
 10
-230.56293140462907
 20
549.46429341355133
 30
0.0
  0
VERTEX
  5
284
100
AcDbEntity
  8
FAN70-0308
370
              15
390
0
  6
Continuous
 62
               7
100
AcDbVertex
100
AcDb2dVertex
 10
-228.93381433526713
 20
535.16318707985124
 30
0.0
  0
VERTEX
  5
285
100
AcDbEntity
  8
FAN70-0308
370
              15
390
0
  6
Continuous
 62
               7
100
AcDbVertex
100
AcDb2dVertex
 10
-228.57010759708004
 20
520.77632828865126
 30
0.0
  0
VERTEX
  5
286
100
AcDbEntity
  8
FAN70-0308
370
              15
390
0
  6
Continuous
 62
               7
100
AcDbVertex
100
AcDb2dVertex
 10
-229.49634146235701
 20
506.4725453338512
 30
0.0
  0
VERTEX
  5
287
100
AcDbEntity
  8
FAN70-0308
370
              15
390
0
  6
Continuous
 62
               7
100
AcDbVertex
100
AcDb2dVertex
 10
-231.52853889007861
 20
493.28705587675125
 30
0.0
  0
VERTEX
  5
288
100
AcDbEntity
  8
FAN70-0308
370
              15
390
0
  6
Continuous
 62
               7
100
AcDbVertex
100
AcDb2dVertex
 10
-234.64492665582958
 20
480.25143205445119
 30
0.0
  0
VERTEX
  5
289
100
AcDbEntity
  8
FAN70-0308
370
              15
390
0
  6
Continuous
 62
               7
100
AcDbVertex
100
AcDb2dVertex
 10
-238.78572898710962
 20
467.47671499175129
 30
0.0
  0
VERTEX
  5
28A
100
AcDbEntity
  8
FAN70-0308
370
              15
390
0
  6
Continuous
 62
               7
100
AcDbVertex
100
AcDb2dVertex
 10
-243.89117011141866
 20
455.0739420882511
 30
0.0
  0
VERTEX
  5
28B
100
AcDbEntity
  8
FAN70-0308
370
              15
390
0
  6
Continuous
 62
               7
100
AcDbVertex
100
AcDb2dVertex
 10
-249.90148915935515
 20
443.15415307205075
 30
0.0
  0
VERTEX
  5
28C
100
AcDbEntity
  8
FAN70-0308
370
              15
390
0
  6
Continuous
 62
               7
100
AcDbVertex
100
AcDb2dVertex
 10
-256.70816277631491
 20
431.84297218245075
 30
0.0
  0
VERTEX
  5
28D
100
AcDbEntity
  8
FAN70-0308
370
              15
390
0
  6
Continuous
 62
               7
100
AcDbVertex
100
AcDb2dVertex
 10
-264.31157843936597
 20
420.99985539235064
 30
0.0
  0
VERTEX
  5
28E
100
AcDbEntity
  8
FAN70-0308
370
              15
390
0
  6
Continuous
 62
               7
100
AcDbVertex
100
AcDb2dVertex
 10
-272.63109623201836
 20
410.66939442675067
 30
0.0
  0
VERTEX
  5
28F
100
AcDbEntity
  8
FAN70-0308
370
              15
390
0
  6
Continuous
 62
               7
100
AcDbVertex
100
AcDb2dVertex
 10
-281.5860762379823
 20
400.89619218625063
 30
0.0
  0
VERTEX
  5
290
100
AcDbEntity
  8
FAN70-0308
370
              15
390
0
  6
Continuous
 62
               7
100
AcDbVertex
100
AcDb2dVertex
 10
-291.09587854066763
 20
391.72485529695069
 30
0.0
  0
VERTEX
  5
291
100
AcDbEntity
  8
FAN70-0308
370
              15
390
0
  6
Continuous
 62
               7
100
AcDbVertex
100
AcDb2dVertex
 10
-303.44393466710244
 20
381.31263911045068
 30
0.0
  0
VERTEX
  5
292
100
AcDbEntity
  8
FAN70-0308
370
              15
390
0
  6
Continuous
 62
               7
100
AcDbVertex
100
AcDb2dVertex
 10
-316.52853978426253
 20
371.75664364615051
 30
0.0
  0
VERTEX
  5
293
100
AcDbEntity
  8
FAN70-0308
370
              15
390
0
  6
Continuous
 62
               7
100
AcDbVertex
100
AcDb2dVertex
 10
-330.23744479764912
 20
363.07185947215072
 30
0.0
  0
VERTEX
  5
294
100
AcDbEntity
  8
FAN70-0308
370
              15
390
0
  6
Continuous
 62
               7
100
AcDbVertex
100
AcDb2dVertex
 10
-344.45841551566178
 20
355.27327715675057
 30
0.0
  0
VERTEX
  5
295
100
AcDbEntity
  8
FAN70-0308
370
              15
390
0
  6
Continuous
 62
               7
100
AcDbVertex
100
AcDb2dVertex
 10
-359.07922519819994
 20
348.37587236685073
 30
0.0
  0
VERTEX
  5
296
100
AcDbEntity
  8
FAN70-0308
370
              15
390
0
  6
Continuous
 62
               7
100
AcDbVertex
100
AcDb2dVertex
 10
-368.26834560827137
 20
344.56665872855075
 30
0.0
  0
VERTEX
  5
297
100
AcDbEntity
  8
FAN70-0308
370
              15
390
0
  6
Continuous
 62
               7
100
AcDbVertex
100
AcDb2dVertex
 10
-377.58725589660401
 20
341.0867309502508
 30
0.0
  0
SEQEND
  5
298
100
AcDbEntity
  8
FAN70-0308
370
              15
390
0
  6
Continuous
 62
               7
  0
CIRCLE
  5
299
100
AcDbEntity
  8
FAN70-0308
370
              15
390
0
  6
Continuous
 62
               7
100
AcDbCircle
 10
-478.60648133158008
 20
674.05048071665124
 30
0.0
 40
18.0
  0
POLYLINE
  5
29A
100
AcDbEntity
  8
FAN70-0308
370
              15
390
0
  6
Continuous
 62
               7
100
AcDb2dPolyline
 66
               1
 10
0.0
 20
0.0
 30
0.0
 75
               5
  0
VERTEX
  5
29B
100
AcDbEntity
  8
FAN70-0308
370
              15
390
0
  6
Continuous
 62
               7
100
AcDbVertex
100
AcDb2dVertex
 10
-478.60648133158008
 20
510.55048092525129
 30
0.0
  0
VERTEX
  5
29C
100
AcDbEntity
  8
FAN70-0308
370
              15
390
0
  6
Continuous
 62
               7
100
AcDbVertex
100
AcDb2dVertex
 10
-483.36983029098008
 20
510.07303281945127
 30
0.0
  0
VERTEX
  5
29D
100
AcDbEntity
  8
FAN70-0308
370
              15
390
0
  6
Continuous
 62
               7
100
AcDbVertex
100
AcDb2dVertex
 10
-487.9300829425801
 20
508.66541697895121
 30
0.0
  0
VERTEX
  5
29E
100
AcDbEntity
  8
FAN70-0308
370
              15
390
0
  6
Continuous
 62
               7
100
AcDbVertex
100
AcDb2dVertex
 10
-492.1005286678801
 20
506.39766141095123
 30
0.0
  0
VERTEX
  5
29F
100
AcDbEntity
  8
FAN70-0308
370
              15
390
0
  6
Continuous
 62
               7
100
AcDbVertex
100
AcDb2dVertex
 10
-495.7210554211801
 20
503.37577483875128
 30
0.0
  0
VERTEX
  5
2A0
100
AcDbEntity
  8
FAN70-0308
370
              15
390
0
  6
Continuous
 62
               7
100
AcDbVertex
100
AcDb2dVertex
 10
-498.6650294094801
 20
499.72828722815115
 30
0.0
  0
VERTEX
  5
2A1
100
AcDbEntity
  8
FAN70-0308
370
              15
390
0
  6
Continuous
 62
               7
100
AcDbVertex
100
AcDb2dVertex
 10
-500.83439447288009
 20
495.6014311245512
 30
0.0
  0
VERTEX
  5
2A2
100
AcDbEntity
  8
FAN70-0308
370
              15
390
0
  6
Continuous
 62
               7
100
AcDbVertex
100
AcDb2dVertex
 10
-502.1616483509801
 20
491.14981352605122
 30
0.0
  0
VERTEX
  5
2A3
100
AcDbEntity
  8
FAN70-0308
370
              15
390
0
  6
Continuous
 62
               7
100
AcDbVertex
100
AcDb2dVertex
 10
-502.60647595228011
 20
486.53389902565135
 30
0.0
  0
VERTEX
  5
2A4
100
AcDbEntity
  8
FAN70-0308
370
              15
390
0
  6
Continuous
 62
               7
100
AcDbVertex
100
AcDb2dVertex
 10
-502.15521291198013
 20
481.9183676808513
 30
0.0
  0
VERTEX
  5
2A5
100
AcDbEntity
  8
FAN70-0308
370
              15
390
0
  6
Continuous
 62
               7
100
AcDbVertex
100
AcDb2dVertex
 10
-500.82170054618007
 20
477.46841482145118
 30
0.0
  0
VERTEX
  5
2A6
100
AcDbEntity
  8
FAN70-0308
370
              15
390
0
  6
Continuous
 62
               7
100
AcDbVertex
100
AcDb2dVertex
 10
-498.64598386288009
 20
473.34373894405115
 30
0.0
  0
VERTEX
  5
2A7
100
AcDbEntity
  8
FAN70-0308
370
              15
390
0
  6
Continuous
 62
               7
100
AcDbVertex
100
AcDb2dVertex
 10
-495.69717817308009
 20
469.70092377875125
 30
0.0
  0
VERTEX
  5
2A8
100
AcDbEntity
  8
FAN70-0308
370
              15
390
0
  6
Continuous
 62
               7
100
AcDbVertex
100
AcDb2dVertex
 10
-492.07153845878008
 20
466.68362303895123
 30
0.0
  0
VERTEX
  5
2A9
100
AcDbEntity
  8
FAN70-0308
370
              15
390
0
  6
Continuous
 62
               7
100
AcDbVertex
100
AcDb2dVertex
 10
-487.89820749608009
 20
464.42213154655127
 30
0.0
  0
VERTEX
  5
2AA
100
AcDbEntity
  8
FAN70-0308
370
              15
390
0
  6
Continuous
 62
               7
100
AcDbVertex
100
AcDb2dVertex
 10
-483.33579697008008
 20
463.02106104115131
 30
0.0
  0
VERTEX
  5
2AB
100
AcDbEntity
  8
FAN70-0308
370
              15
390
0
  6
Continuous
 62
               7
100
AcDbVertex
100
AcDb2dVertex
 10
-478.5717247805801
 20
462.5505065850511
 30
0.0
  0
VERTEX
  5
2AC
100
AcDbEntity
  8
FAN70-0308
370
              15
390
0
  6
Continuous
 62
               7
100
AcDbVertex
100
AcDb2dVertex
 10
-473.80944922868008
 20
463.03477383475132
 30
0.0
  0
VERTEX
  5
2AD
100
AcDbEntity
  8
FAN70-0308
370
              15
390
0
  6
Continuous
 62
               7
100
AcDbVertex
100
AcDb2dVertex
 10
-469.25301034298008
 20
464.44816014985116
 30
0.0
  0
VERTEX
  5
2AE
100
AcDbEntity
  8
FAN70-0308
370
              15
390
0
  6
Continuous
 62
               7
100
AcDbVertex
100
AcDb2dVertex
 10
-465.08866105528011
 20
466.71948268335126
 30
0.0
  0
VERTEX
  5
2AF
100
AcDbEntity
  8
FAN70-0308
370
              15
390
0
  6
Continuous
 62
               7
100
AcDbVertex
100
AcDb2dVertex
 10
-461.47519000168012
 20
469.74220558325118
 30
0.0
  0
VERTEX
  5
2B0
100
AcDbEntity
  8
FAN70-0308
370
              15
390
0
  6
Continuous
 62
               7
100
AcDbVertex
100
AcDb2dVertex
 10
-458.53795878888013
 20
473.38786966425135
 30
0.0
  0
VERTEX
  5
2B1
100
AcDbEntity
  8
FAN70-0308
370
              15
390
0
  6
Continuous
 62
               7
100
AcDbVertex
100
AcDb2dVertex
 10
-456.37400470968009
 20
477.51074715775115
 30
0.0
  0
VERTEX
  5
2B2
100
AcDbEntity
  8
FAN70-0308
370
              15
390
0
  6
Continuous
 62
               7
100
AcDbVertex
100
AcDb2dVertex
 10
-455.05017996128009
 20
481.9569658792513
 30
0.0
  0
VERTEX
  5
2B3
100
AcDbEntity
  8
FAN70-0308
370
              15
390
0
  6
Continuous
 62
               7
100
AcDbVertex
100
AcDb2dVertex
 10
-454.60648671088012
 20
486.56685517195132
 30
0.0
  0
VERTEX
  5
2B4
100
AcDbEntity
  8
FAN70-0308
370
              15
390
0
  6
Continuous
 62
               7
100
AcDbVertex
100
AcDb2dVertex
 10
-455.05652599338009
 20
491.17636925795131
 30
0.0
  0
VERTEX
  5
2B5
100
AcDbEntity
  8
FAN70-0308
370
              15
390
0
  6
Continuous
 62
               7
100
AcDbVertex
100
AcDb2dVertex
 10
-456.38652541038005
 20
495.62095257705136
 30
0.0
  0
VERTEX
  5
2B6
100
AcDbEntity
  8
FAN70-0308
370
              15
390
0
  6
Continuous
 62
               7
100
AcDbVertex
100
AcDb2dVertex
 10
-458.55675474108006
 20
499.74169454795123
 30
0.0
  0
VERTEX
  5
2B7
100
AcDbEntity
  8
FAN70-0308
370
              15
390
0
  6
Continuous
 62
               7
100
AcDbVertex
100
AcDb2dVertex
 10
-461.49875618818004
 20
503.38274671955122
 30
0.0
  0
VERTEX
  5
2B8
100
AcDbEntity
  8
FAN70-0308
370
              15
390
0
  6
Continuous
 62
               7
100
AcDbVertex
100
AcDb2dVertex
 10
-465.11728897988013
 20
506.40095829285127
 30
0.0
  0
VERTEX
  5
2B9
100
AcDbEntity
  8
FAN70-0308
370
              15
390
0
  6
Continuous
 62
               7
100
AcDbVertex
100
AcDb2dVertex
 10
-469.28465668408012
 20
508.66616762495136
 30
0.0
  0
VERTEX
  5
2BA
100
AcDbEntity
  8
FAN70-0308
370
              15
390
0
  6
Continuous
 62
               7
100
AcDbVertex
100
AcDb2dVertex
 10
-473.84346764828007
 20
510.07310173725131
 30
0.0
  0
VERTEX
  5
2BB
100
AcDbEntity
  8
FAN70-0308
370
              15
390
0
  6
Continuous
 62
               7
100
AcDbVertex
100
AcDb2dVertex
 10
-478.60648133158008
 20
510.55048092525129
 30
0.0
  0
SEQEND
  5
2BC
100
AcDbEntity
  8
FAN70-0308
370
              15
390
0
  6
Continuous
 62
               7
  0
LINE
  5
2BD
100
AcDbEntity
  8
FAN70-0308
370
              15
390
0
  6
Continuous
 62
               7
100
AcDbLine
 10
419.01058221210326
 20
-495.58959810116829
 30
0.0
 11
372.67265748090335
 21
-495.58959810116829
 31
0.0
  0
ARC
  5
2BE
100
AcDbEntity
  8
FAN70-0308
370
              15
390
0
  6
Continuous
 62
               7
100
AcDbCircle
 10
692.72333669880334
 20
-502.83959810116829
 30
0.0
 40
0.7499999999998451
100
AcDbArc
 50
270.00407126790697
 51
1.626998442199806
  0
ARC
  5
2BF
100
AcDbEntity
  8
FAN70-0308
370
              15
390
0
  6
Continuous
 62
               7
100
AcDbCircle
 10
293.97046910920335
 20
-502.83959810116829
 30
0.0
 40
0.7499999999999486
100
AcDbArc
 50
177.93562840559503
 51
269.99492691130189
  0
ARC
  5
2C0
100
AcDbEntity
  8
FAN70-0308
370
              15
390
0
  6
Continuous
 62
               7
100
AcDbCircle
 10
296.78634491930336
 20
-499.08959810116829
 30
0.0
 40
3.5000000000000262
100
AcDbArc
 50
90.050485875400213
 51
179.3043271029002
  0
POLYLINE
  5
2C1
100
AcDbEntity
  8
FAN70-0308
370
              15
390
0
  6
Continuous
 62
               7
100
AcDb2dPolyline
 66
               1
 10
0.0
 20
0.0
 30
0.0
 75
               5
  0
VERTEX
  5
2C2
100
AcDbEntity
  8
FAN70-0308
370
              15
390
0
  6
Continuous
 62
               7
100
AcDbVertex
100
AcDb2dVertex
 10
693.40710131460321
 20
-499.0398041163682
 30
0.0
  0
VERTEX
  5
2C3
100
AcDbEntity
  8
FAN70-0308
370
              15
390
0
  6
Continuous
 62
               7
100
AcDbVertex
100
AcDb2dVertex
 10
693.33277432260331
 20
-498.37043021856829
 30
0.0
  0
VERTEX
  5
2C4
100
AcDbEntity
  8
FAN70-0308
370
              15
390
0
  6
Continuous
 62
               7
100
AcDbVertex
100
AcDb2dVertex
 10
693.13160864640315
 20
-497.72768516146829
 30
0.0
  0
VERTEX
  5
2C5
100
AcDbEntity
  8
FAN70-0308
370
              15
390
0
  6
Continuous
 62
               7
100
AcDbVertex
100
AcDb2dVertex
 10
692.81106976800322
 20
-497.13536819496829
 30
0.0
  0
VERTEX
  5
2C6
100
AcDbEntity
  8
FAN70-0308
370
              15
390
0
  6
Continuous
 62
               7
100
AcDbVertex
100
AcDb2dVertex
 10
692.38301901160332
 20
-496.61541150006832
 30
0.0
  0
VERTEX
  5
2C7
100
AcDbEntity
  8
FAN70-0308
370
              15
390
0
  6
Continuous
 62
               7
100
AcDbVertex
100
AcDb2dVertex
 10
691.86329631140336
 20
-496.1870675515683
 30
0.0
  0
VERTEX
  5
2C8
100
AcDbEntity
  8
FAN70-0308
370
              15
390
0
  6
Continuous
 62
               7
100
AcDbVertex
100
AcDb2dVertex
 10
691.27115396790316
 20
-495.86619697676809
 30
0.0
  0
VERTEX
  5
2C9
100
AcDbEntity
  8
FAN70-0308
370
              15
390
0
  6
Continuous
 62
               7
100
AcDbVertex
100
AcDb2dVertex
 10
690.62852649030322
 20
-495.66468075226834
 30
0.0
  0
VERTEX
  5
2CA
100
AcDbEntity
  8
FAN70-0308
370
              15
390
0
  6
Continuous
 62
               7
100
AcDbVertex
100
AcDb2dVertex
 10
689.9591961318032
 20
-495.58998050676809
 30
0.0
  0
SEQEND
  5
2CB
100
AcDbEntity
  8
FAN70-0308
370
              15
390
0
  6
Continuous
 62
               7
  0
LINE
  5
2CC
100
AcDbEntity
  8
FAN70-0308
370
              15
390
0
  6
Continuous
 62
               7
100
AcDbLine
 10
693.47362009820324
 20
-502.84930460206823
 30
0.0
 11
693.40653507050331
 21
-499.0057158475683
 31
0.0
  0
LINE
  5
2CD
100
AcDbEntity
  8
FAN70-0308
370
              15
390
0
  6
Continuous
 62
               7
100
AcDbLine
 10
293.28727511700333
 20
-499.0057158475683
 30
0.0
 11
293.22019008930329
 21
-502.84930460206823
 31
0.0
  0
POLYLINE
  5
2CE
100
AcDbEntity
  8
FAN70-0308
370
              15
390
0
  6
Continuous
 62
               7
100
AcDb2dPolyline
 66
               1
 10
0.0
 20
0.0
 30
0.0
 75
               5
  0
VERTEX
  5
2CF
100
AcDbEntity
  8
FAN70-0308
370
              15
390
0
  6
Continuous
 62
               7
100
AcDbVertex
100
AcDb2dVertex
 10
491.14547086890343
 20
-596.18788866376758
 30
0.0
  0
VERTEX
  5
2D0
100
AcDbEntity
  8
FAN70-0308
370
              15
390
0
  6
Continuous
 62
               7
100
AcDbVertex
100
AcDb2dVertex
 10
492.45382262400335
 20
-596.67948542216755
 30
0.0
  0
VERTEX
  5
2D1
100
AcDbEntity
  8
FAN70-0308
370
              15
390
0
  6
Continuous
 62
               7
100
AcDbVertex
100
AcDb2dVertex
 10
493.66855783400331
 20
-597.26781306836756
 30
0.0
  0
VERTEX
  5
2D2
100
AcDbEntity
  8
FAN70-0308
370
              15
390
0
  6
Continuous
 62
               7
100
AcDbVertex
100
AcDb2dVertex
 10
494.78070972500336
 20
-597.93333618016754
 30
0.0
  0
VERTEX
  5
2D3
100
AcDbEntity
  8
FAN70-0308
370
              15
390
0
  6
Continuous
 62
               7
100
AcDbVertex
100
AcDb2dVertex
 10
495.91767204930329
 20
-598.75519482466757
 30
0.0
  0
VERTEX
  5
2D4
100
AcDbEntity
  8
FAN70-0308
370
              15
390
0
  6
Continuous
 62
               7
100
AcDbVertex
100
AcDb2dVertex
 10
497.59550182160342
 20
-600.03335682726765
 30
0.0
  0
VERTEX
  5
2D5
100
AcDbEntity
  8
FAN70-0308
370
              15
390
0
  6
Continuous
 62
               7
100
AcDbVertex
100
AcDb2dVertex
 10
499.19887794190345
 20
-601.25480501036759
 30
0.0
  0
VERTEX
  5
2D6
100
AcDbEntity
  8
FAN70-0308
370
              15
390
0
  6
Continuous
 62
               7
100
AcDbVertex
100
AcDb2dVertex
 10
500.72767747570333
 20
-602.41944251636755
 30
0.0
  0
VERTEX
  5
2D7
100
AcDbEntity
  8
FAN70-0308
370
              15
390
0
  6
Continuous
 62
               7
100
AcDbVertex
100
AcDb2dVertex
 10
502.1819022858034
 20
-603.52726189466762
 30
0.0
  0
VERTEX
  5
2D8
100
AcDbEntity
  8
FAN70-0308
370
              15
390
0
  6
Continuous
 62
               7
100
AcDbVertex
100
AcDb2dVertex
 10
503.1652038359033
 20
-604.2529633459676
 30
0.0
  0
VERTEX
  5
2D9
100
AcDbEntity
  8
FAN70-0308
370
              15
390
0
  6
Continuous
 62
               7
100
AcDbVertex
100
AcDb2dVertex
 10
505.26361329490339
 20
-605.09750900836752
 30
0.0
  0
SEQEND
  5
2DA
100
AcDbEntity
  8
FAN70-0308
370
              15
390
0
  6
Continuous
 62
               7
  0
POLYLINE
  5
2DB
100
AcDbEntity
  8
FAN70-0308
370
              15
390
0
  6
Continuous
 62
               7
100
AcDb2dPolyline
 66
               1
 10
0.0
 20
0.0
 30
0.0
 75
               5
  0
VERTEX
  5
2DC
100
AcDbEntity
  8
FAN70-0308
370
              15
390
0
  6
Continuous
 62
               7
100
AcDbVertex
100
AcDb2dVertex
 10
505.26468059060335
 20
-605.09771762466767
 30
0.0
  0
VERTEX
  5
2DD
100
AcDbEntity
  8
FAN70-0308
370
              15
390
0
  6
Continuous
 62
               7
100
AcDbVertex
100
AcDb2dVertex
 10
505.61191489930331
 20
-605.11124787906761
 30
0.0
  0
VERTEX
  5
2DE
100
AcDbEntity
  8
FAN70-0308
370
              15
390
0
  6
Continuous
 62
               7
100
AcDbVertex
100
AcDb2dVertex
 10
506.53726955880347
 20
-605.15128729916773
 30
0.0
  0
VERTEX
  5
2DF
100
AcDbEntity
  8
FAN70-0308
370
              15
390
0
  6
Continuous
 62
               7
100
AcDbVertex
100
AcDb2dVertex
 10
507.89508944390337
 20
-605.21408079246771
 30
0.0
  0
VERTEX
  5
2E0
100
AcDbEntity
  8
FAN70-0308
370
              15
390
0
  6
Continuous
 62
               7
100
AcDbVertex
100
AcDb2dVertex
 10
509.55254187820327
 20
-605.2916711387677
 30
0.0
  0
VERTEX
  5
2E1
100
AcDbEntity
  8
FAN70-0308
370
              15
390
0
  6
Continuous
 62
               7
100
AcDbVertex
100
AcDb2dVertex
 10
511.38467876250337
 20
-605.37614582156766
 30
0.0
  0
VERTEX
  5
2E2
100
AcDbEntity
  8
FAN70-0308
370
              15
390
0
  6
Continuous
 62
               7
100
AcDbVertex
100
AcDb2dVertex
 10
513.28157050540324
 20
-605.46056089976764
 30
0.0
  0
VERTEX
  5
2E3
100
AcDbEntity
  8
FAN70-0308
370
              15
390
0
  6
Continuous
 62
               7
100
AcDbVertex
100
AcDb2dVertex
 10
515.14866737660327
 20
-605.5395519552676
 30
0.0
  0
VERTEX
  5
2E4
100
AcDbEntity
  8
FAN70-0308
370
              15
390
0
  6
Continuous
 62
               7
100
AcDbVertex
100
AcDb2dVertex
 10
516.91001070670325
 20
-605.60970662216755
 30
0.0
  0
VERTEX
  5
2E5
100
AcDbEntity
  8
FAN70-0308
370
              15
390
0
  6
Continuous
 62
               7
100
AcDbVertex
100
AcDb2dVertex
 10
519.8931076937032
 20
-605.71785179946755
 30
0.0
  0
VERTEX
  5
2E6
100
AcDbEntity
  8
FAN70-0308
370
              15
390
0
  6
Continuous
 62
               7
100
AcDbVertex
100
AcDb2dVertex
 10
522.42387248210321
 20
-605.79693971256756
 30
0.0
  0
VERTEX
  5
2E7
100
AcDbEntity
  8
FAN70-0308
370
              15
390
0
  6
Continuous
 62
               7
100
AcDbVertex
100
AcDb2dVertex
 10
525.19526075580325
 20
-605.86606619926761
 30
0.0
  0
VERTEX
  5
2E8
100
AcDbEntity
  8
FAN70-0308
370
              15
390
0
  6
Continuous
 62
               7
100
AcDbVertex
100
AcDb2dVertex
 10
528.19008705210319
 20
-605.91541139456763
 30
0.0
  0
VERTEX
  5
2E9
100
AcDbEntity
  8
FAN70-0308
370
              15
390
0
  6
Continuous
 62
               7
100
AcDbVertex
100
AcDb2dVertex
 10
531.36635300130331
 20
-605.93029020406766
 30
0.0
  0
VERTEX
  5
2EA
100
AcDbEntity
  8
FAN70-0308
370
              15
390
0
  6
Continuous
 62
               7
100
AcDbVertex
100
AcDb2dVertex
 10
534.75097076980319
 20
-605.89917657946762
 30
0.0
  0
VERTEX
  5
2EB
100
AcDbEntity
  8
FAN70-0308
370
              15
390
0
  6
Continuous
 62
               7
100
AcDbVertex
100
AcDb2dVertex
 10
537.35891984780324
 20
-605.84842322446752
 30
0.0
  0
VERTEX
  5
2EC
100
AcDbEntity
  8
FAN70-0308
370
              15
390
0
  6
Continuous
 62
               7
100
AcDbVertex
100
AcDb2dVertex
 10
540.23516060790325
 20
-605.7714140233677
 30
0.0
  0
VERTEX
  5
2ED
100
AcDbEntity
  8
FAN70-0308
370
              15
390
0
  6
Continuous
 62
               7
100
AcDbVertex
100
AcDb2dVertex
 10
543.29749545090328
 20
-605.66947517966764
 30
0.0
  0
VERTEX
  5
2EE
100
AcDbEntity
  8
FAN70-0308
370
              15
390
0
  6
Continuous
 62
               7
100
AcDbVertex
100
AcDb2dVertex
 10
545.64598644160333
 20
-605.57939766026766
 30
0.0
  0
VERTEX
  5
2EF
100
AcDbEntity
  8
FAN70-0308
370
              15
390
0
  6
Continuous
 62
               7
100
AcDbVertex
100
AcDb2dVertex
 10
547.96809865170326
 20
-605.48212287996762
 30
0.0
  0
VERTEX
  5
2F0
100
AcDbEntity
  8
FAN70-0308
370
              15
390
0
  6
Continuous
 62
               7
100
AcDbVertex
100
AcDb2dVertex
 10
550.18841637310322
 20
-605.38289604756756
 30
0.0
  0
VERTEX
  5
2F1
100
AcDbEntity
  8
FAN70-0308
370
              15
390
0
  6
Continuous
 62
               7
100
AcDbVertex
100
AcDb2dVertex
 10
552.21915779640324
 20
-605.28825877286772
 30
0.0
  0
VERTEX
  5
2F2
100
AcDbEntity
  8
FAN70-0308
370
              15
390
0
  6
Continuous
 62
               7
100
AcDbVertex
100
AcDb2dVertex
 10
553.96616248420321
 20
-605.20591495606755
 30
0.0
  0
VERTEX
  5
2F3
100
AcDbEntity
  8
FAN70-0308
370
              15
390
0
  6
Continuous
 62
               7
100
AcDbVertex
100
AcDb2dVertex
 10
555.33255053690334
 20
-605.14339713426762
 30
0.0
  0
VERTEX
  5
2F4
100
AcDbEntity
  8
FAN70-0308
370
              15
390
0
  6
Continuous
 62
               7
100
AcDbVertex
100
AcDb2dVertex
 10
556.22141039010319
 20
-605.10658381556755
 30
0.0
  0
VERTEX
  5
2F5
100
AcDbEntity
  8
FAN70-0308
370
              15
390
0
  6
Continuous
 62
               7
100
AcDbVertex
100
AcDb2dVertex
 10
556.52259824810324
 20
-605.09710667706759
 30
0.0
  0
SEQEND
  5
2F6
100
AcDbEntity
  8
FAN70-0308
370
              15
390
0
  6
Continuous
 62
               7
  0
POLYLINE
  5
2F7
100
AcDbEntity
  8
FAN70-0308
370
              15
390
0
  6
Continuous
 62
               7
100
AcDb2dPolyline
 66
               1
 10
0.0
 20
0.0
 30
0.0
 75
               5
  0
VERTEX
  5
2F8
100
AcDbEntity
  8
FAN70-0308
370
              15
390
0
  6
Continuous
 62
               7
100
AcDbVertex
100
AcDb2dVertex
 10
505.26303401230336
 20
-605.09727804036766
 30
0.0
  0
VERTEX
  5
2F9
100
AcDbEntity
  8
FAN70-0308
370
              15
390
0
  6
Continuous
 62
               7
100
AcDbVertex
100
AcDb2dVertex
 10
505.60108734300343
 20
-605.11138198946765
 30
0.0
  0
VERTEX
  5
2FA
100
AcDbEntity
  8
FAN70-0308
370
              15
390
0
  6
Continuous
 62
               7
100
AcDbVertex
100
AcDb2dVertex
 10
506.51531083520342
 20
-605.15453575226752
 30
0.0
  0
VERTEX
  5
2FB
100
AcDbEntity
  8
FAN70-0308
370
              15
390
0
  6
Continuous
 62
               7
100
AcDbVertex
100
AcDb2dVertex
 10
507.8628731334033
 20
-605.22182194566767
 30
0.0
  0
VERTEX
  5
2FC
100
AcDbEntity
  8
FAN70-0308
370
              15
390
0
  6
Continuous
 62
               7
100
AcDbVertex
100
AcDb2dVertex
 10
509.51152084400331
 20
-605.30483631466768
 30
0.0
  0
VERTEX
  5
2FD
100
AcDbEntity
  8
FAN70-0308
370
              15
390
0
  6
Continuous
 62
               7
100
AcDbVertex
100
AcDb2dVertex
 10
511.33761530750331
 20
-605.39501069166772
 30
0.0
  0
VERTEX
  5
2FE
100
AcDbEntity
  8
FAN70-0308
370
              15
390
0
  6
Continuous
 62
               7
100
AcDbVertex
100
AcDb2dVertex
 10
513.23060294620325
 20
-605.48484979246768
 30
0.0
  0
VERTEX
  5
2FF
100
AcDbEntity
  8
FAN70-0308
370
              15
390
0
  6
Continuous
 62
               7
100
AcDbVertex
100
AcDb2dVertex
 10
515.09505113600312
 20
-605.56902645206765
 30
0.0
  0
VERTEX
  5
300
100
AcDbEntity
  8
FAN70-0308
370
              15
390
0
  6
Continuous
 62
               7
100
AcDbVertex
100
AcDb2dVertex
 10
516.85523590080334
 20
-605.64397184226755
 30
0.0
  0
VERTEX
  5
301
100
AcDbEntity
  8
FAN70-0308
370
              15
390
0
  6
Continuous
 62
               7
100
AcDbVertex
100
AcDb2dVertex
 10
519.83963860210315
 20
-605.75941858866759
 30
0.0
  0
VERTEX
  5
302
100
AcDbEntity
  8
FAN70-0308
370
              15
390
0
  6
Continuous
 62
               7
100
AcDbVertex
100
AcDb2dVertex
 10
522.37268513080323
 20
-605.84378151276769
 30
0.0
  0
VERTEX
  5
303
100
AcDbEntity
  8
FAN70-0308
370
              15
390
0
  6
Continuous
 62
               7
100
AcDbVertex
100
AcDb2dVertex
 10
525.14765806500327
 20
-605.9176614699677
 30
0.0
  0
VERTEX
  5
304
100
AcDbEntity
  8
FAN70-0308
370
              15
390
0
  6
Continuous
 62
               7
100
AcDbVertex
100
AcDb2dVertex
 10
528.14773632220329
 20
-605.97053078986755
 30
0.0
  0
VERTEX
  5
305
100
AcDbEntity
  8
FAN70-0308
370
              15
390
0
  6
Continuous
 62
               7
100
AcDbVertex
100
AcDb2dVertex
 10
531.33001465710322
 20
-605.98687736366765
 30
0.0
  0
VERTEX
  5
306
100
AcDbEntity
  8
FAN70-0308
370
              15
390
0
  6
Continuous
 62
               7
100
AcDbVertex
100
AcDb2dVertex
 10
534.72164318910336
 20
-605.95425872186775
 30
0.0
  0
VERTEX
  5
307
100
AcDbEntity
  8
FAN70-0308
370
              15
390
0
  6
Continuous
 62
               7
100
AcDbVertex
100
AcDb2dVertex
 10
537.33453316620319
 20
-605.90048788166769
 30
0.0
  0
VERTEX
  5
308
100
AcDbEntity
  8
FAN70-0308
370
              15
390
0
  6
Continuous
 62
               7
100
AcDbVertex
100
AcDb2dVertex
 10
540.2162994632032
 20
-605.81873266076764
 30
0.0
  0
VERTEX
  5
309
100
AcDbEntity
  8
FAN70-0308
370
              15
390
0
  6
Continuous
 62
               7
100
AcDbVertex
100
AcDb2dVertex
 10
543.28341944150316
 20
-605.71028946016759
 30
0.0
  0
VERTEX
  5
30A
100
AcDbEntity
  8
FAN70-0308
370
              15
390
0
  6
Continuous
 62
               7
100
AcDbVertex
100
AcDb2dVertex
 10
545.63482267790323
 20
-605.61468360996764
 30
0.0
  0
VERTEX
  5
30B
100
AcDbEntity
  8
FAN70-0308
370
              15
390
0
  6
Continuous
 62
               7
100
AcDbVertex
100
AcDb2dVertex
 10
547.9598992878033
 20
-605.51132915596759
 30
0.0
  0
VERTEX
  5
30C
100
AcDbEntity
  8
FAN70-0308
370
              15
390
0
  6
Continuous
 62
               7
100
AcDbVertex
100
AcDb2dVertex
 10
550.18205171460318
 20
-605.4055234608677
 30
0.0
  0
VERTEX
  5
30D
100
AcDbEntity
  8
FAN70-0308
370
              15
390
0
  6
Continuous
 62
               7
100
AcDbVertex
100
AcDb2dVertex
 10
552.21319546930317
 20
-605.30461279726751
 30
0.0
  0
VERTEX
  5
30E
100
AcDbEntity
  8
FAN70-0308
370
              15
390
0
  6
Continuous
 62
               7
100
AcDbVertex
100
AcDb2dVertex
 10
553.96004555760317
 20
-605.2164649782676
 30
0.0
  0
VERTEX
  5
30F
100
AcDbEntity
  8
FAN70-0308
370
              15
390
0
  6
Continuous
 62
               7
100
AcDbVertex
100
AcDb2dVertex
 10
555.32490624120317
 20
-605.14888076166767
 30
0.0
  0
VERTEX
  5
310
100
AcDbEntity
  8
FAN70-0308
370
              15
390
0
  6
Continuous
 62
               7
100
AcDbVertex
100
AcDb2dVertex
 10
556.21273977690328
 20
-605.10864762636766
 30
0.0
  0
VERTEX
  5
311
100
AcDbEntity
  8
FAN70-0308
370
              15
390
0
  6
Continuous
 62
               7
100
AcDbVertex
100
AcDb2dVertex
 10
556.51858052250327
 20
-605.09824661586754
 30
0.0
  0
SEQEND
  5
312
100
AcDbEntity
  8
FAN70-0308
370
              15
390
0
  6
Continuous
 62
               7
  0
POLYLINE
  5
313
100
AcDbEntity
  8
FAN70-0308
370
              15
390
0
  6
Continuous
 62
               7
100
AcDb2dPolyline
 66
               1
 10
0.0
 20
0.0
 30
0.0
 75
               5
  0
VERTEX
  5
314
100
AcDbEntity
  8
FAN70-0308
370
              15
390
0
  6
Continuous
 62
               7
100
AcDbVertex
100
AcDb2dVertex
 10
556.5273181909032
 20
-605.09750900836752
 30
0.0
  0
VERTEX
  5
315
100
AcDbEntity
  8
FAN70-0308
370
              15
390
0
  6
Continuous
 62
               7
100
AcDbVertex
100
AcDb2dVertex
 10
558.62573510040318
 20
-604.2529633459676
 30
0.0
  0
VERTEX
  5
316
100
AcDbEntity
  8
FAN70-0308
370
              15
390
0
  6
Continuous
 62
               7
100
AcDbVertex
100
AcDb2dVertex
 10
559.60903478800333
 20
-603.52726189466762
 30
0.0
  0
VERTEX
  5
317
100
AcDbEntity
  8
FAN70-0308
370
              15
390
0
  6
Continuous
 62
               7
100
AcDbVertex
100
AcDb2dVertex
 10
561.06325959800336
 20
-602.41944251636755
 30
0.0
  0
VERTEX
  5
318
100
AcDbEntity
  8
FAN70-0308
370
              15
390
0
  6
Continuous
 62
               7
100
AcDbVertex
100
AcDb2dVertex
 10
562.59206099440325
 20
-601.25480501036759
 30
0.0
  0
VERTEX
  5
319
100
AcDbEntity
  8
FAN70-0308
370
              15
390
0
  6
Continuous
 62
               7
100
AcDbVertex
100
AcDb2dVertex
 10
565.02509279190326
 20
-599.40133152576777
 30
0.0
  0
VERTEX
  5
31A
100
AcDbEntity
  8
FAN70-0308
370
              15
390
0
  6
Continuous
 62
               7
100
AcDbVertex
100
AcDb2dVertex
 10
567.01022921140327
 20
-597.93333618016754
 30
0.0
  0
VERTEX
  5
31B
100
AcDbEntity
  8
FAN70-0308
370
              15
390
0
  6
Continuous
 62
               7
100
AcDbVertex
100
AcDb2dVertex
 10
568.71738074360326
 20
-596.9627639469677
 30
0.0
  0
VERTEX
  5
31C
100
AcDbEntity
  8
FAN70-0308
370
              15
390
0
  6
Continuous
 62
               7
100
AcDbVertex
100
AcDb2dVertex
 10
570.64546806750332
 20
-596.18788866376758
 30
0.0
  0
SEQEND
  5
31D
100
AcDbEntity
  8
FAN70-0308
370
              15
390
0
  6
Continuous
 62
               7
  0
POLYLINE
  5
31E
100
AcDbEntity
  8
FAN70-0308
370
              15
390
0
  6
Continuous
 62
               7
100
AcDb2dPolyline
 66
               1
 10
0.0
 20
0.0
 30
0.0
 75
               5
  0
VERTEX
  5
31F
100
AcDbEntity
  8
FAN70-0308
370
              15
390
0
  6
Continuous
 62
               7
100
AcDbVertex
100
AcDb2dVertex
 10
412.77266083290328
 20
-544.89855377056824
 30
0.0
  0
VERTEX
  5
320
100
AcDbEntity
  8
FAN70-0308
370
              15
390
0
  6
Continuous
 62
               7
100
AcDbVertex
100
AcDb2dVertex
 10
413.37765542800344
 20
-545.71365473846845
 30
0.0
  0
VERTEX
  5
321
100
AcDbEntity
  8
FAN70-0308
370
              15
390
0
  6
Continuous
 62
               7
100
AcDbVertex
100
AcDb2dVertex
 10
414.23288522300345
 20
-546.45908160186832
 30
0.0
  0
VERTEX
  5
322
100
AcDbEntity
  8
FAN70-0308
370
              15
390
0
  6
Continuous
 62
               7
100
AcDbVertex
100
AcDb2dVertex
 10
415.32538620760329
 20
-547.0274975714683
 30
0.0
  0
VERTEX
  5
323
100
AcDbEntity
  8
FAN70-0308
370
              15
390
0
  6
Continuous
 62
               7
100
AcDbVertex
100
AcDb2dVertex
 10
416.58318577340333
 20
-547.31780199386822
 30
0.0
  0
VERTEX
  5
324
100
AcDbEntity
  8
FAN70-0308
370
              15
390
0
  6
Continuous
 62
               7
100
AcDbVertex
100
AcDb2dVertex
 10
417.1879866534033
 20
-547.34012765856824
 30
0.0
  0
VERTEX
  5
325
100
AcDbEntity
  8
FAN70-0308
370
              15
390
0
  6
Continuous
 62
               7
100
AcDbVertex
100
AcDb2dVertex
 10
417.75418607530332
 20
-547.42604402876827
 30
0.0
  0
VERTEX
  5
326
100
AcDbEntity
  8
FAN70-0308
370
              15
390
0
  6
Continuous
 62
               7
100
AcDbVertex
100
AcDb2dVertex
 10
418.11690269050337
 20
-547.60450406046834
 30
0.0
  0
VERTEX
  5
327
100
AcDbEntity
  8
FAN70-0308
370
              15
390
0
  6
Continuous
 62
               7
100
AcDbVertex
100
AcDb2dVertex
 10
418.43136189510335
 20
-547.87703512286816
 30
0.0
  0
SEQEND
  5
328
100
AcDbEntity
  8
FAN70-0308
370
              15
390
0
  6
Continuous
 62
               7
  0
POLYLINE
  5
329
100
AcDbEntity
  8
FAN70-0308
370
              15
390
0
  6
Continuous
 62
               7
100
AcDb2dPolyline
 66
               1
 10
0.0
 20
0.0
 30
0.0
 75
               5
  0
VERTEX
  5
32A
100
AcDbEntity
  8
FAN70-0308
370
              15
390
0
  6
Continuous
 62
               7
100
AcDbVertex
100
AcDb2dVertex
 10
397.31243042280335
 20
-511.76575480076821
 30
0.0
  0
VERTEX
  5
32B
100
AcDbEntity
  8
FAN70-0308
370
              15
390
0
  6
Continuous
 62
               7
100
AcDbVertex
100
AcDb2dVertex
 10
397.4005111867034
 20
-512.34882419976839
 30
0.0
  0
VERTEX
  5
32C
100
AcDbEntity
  8
FAN70-0308
370
              15
390
0
  6
Continuous
 62
               7
100
AcDbVertex
100
AcDb2dVertex
 10
397.26879982290336
 20
-512.93046308736848
 30
0.0
  0
VERTEX
  5
32D
100
AcDbEntity
  8
FAN70-0308
370
              15
390
0
  6
Continuous
 62
               7
100
AcDbVertex
100
AcDb2dVertex
 10
397.20183400450333
 20
-513.06629462216824
 30
0.0
  0
VERTEX
  5
32E
100
AcDbEntity
  8
FAN70-0308
370
              15
390
0
  6
Continuous
 62
               7
100
AcDbVertex
100
AcDb2dVertex
 10
396.63077680400329
 20
-514.57187255896815
 30
0.0
  0
VERTEX
  5
32F
100
AcDbEntity
  8
FAN70-0308
370
              15
390
0
  6
Continuous
 62
               7
100
AcDbVertex
100
AcDb2dVertex
 10
396.53304008780333
 20
-515.74150009126834
 30
0.0
  0
VERTEX
  5
330
100
AcDbEntity
  8
FAN70-0308
370
              15
390
0
  6
Continuous
 62
               7
100
AcDbVertex
100
AcDb2dVertex
 10
396.70955924330337
 20
-516.89767932566815
 30
0.0
  0
SEQEND
  5
331
100
AcDbEntity
  8
FAN70-0308
370
              15
390
0
  6
Continuous
 62
               7
  0
LINE
  5
332
100
AcDbEntity
  8
FAN70-0308
370
              15
390
0
  6
Continuous
 62
               7
100
AcDbLine
 10
411.66282234720336
 20
-542.98642931556833
 30
0.0
 11
411.85638843110337
 21
-543.32000298476828
 31
0.0
  0
POLYLINE
  5
333
100
AcDbEntity
  8
FAN70-0308
370
              15
390
0
  6
Continuous
 62
               7
100
AcDb2dPolyline
 66
               1
 10
0.0
 20
0.0
 30
0.0
 75
               5
  0
VERTEX
  5
334
100
AcDbEntity
  8
FAN70-0308
370
              15
390
0
  6
Continuous
 62
               7
100
AcDbVertex
100
AcDb2dVertex
 10
396.70958904560337
 20
-516.89780598556831
 30
0.0
  0
VERTEX
  5
335
100
AcDbEntity
  8
FAN70-0308
370
              15
390
0
  6
Continuous
 62
               7
100
AcDbVertex
100
AcDb2dVertex
 10
396.82052819070327
 20
-517.12752787446834
 30
0.0
  0
VERTEX
  5
336
100
AcDbEntity
  8
FAN70-0308
370
              15
390
0
  6
Continuous
 62
               7
100
AcDbVertex
100
AcDb2dVertex
 10
397.11794046690341
 20
-517.68280660786832
 30
0.0
  0
VERTEX
  5
337
100
AcDbEntity
  8
FAN70-0308
370
              15
390
0
  6
Continuous
 62
               7
100
AcDbVertex
100
AcDb2dVertex
 10
397.60185567670339
 20
-518.56139956096831
 30
0.0
  0
VERTEX
  5
338
100
AcDbEntity
  8
FAN70-0308
370
              15
390
0
  6
Continuous
 62
               7
100
AcDbVertex
100
AcDb2dVertex
 10
398.2669988089034
 20
-519.75222026976826
 30
0.0
  0
VERTEX
  5
339
100
AcDbEntity
  8
FAN70-0308
370
              15
390
0
  6
Continuous
 62
               7
100
AcDbVertex
100
AcDb2dVertex
 10
399.10322217280338
 20
-521.23518569446833
 30
0.0
  0
VERTEX
  5
33A
100
AcDbEntity
  8
FAN70-0308
370
              15
390
0
  6
Continuous
 62
               7
100
AcDbVertex
100
AcDb2dVertex
 10
400.09498385720337
 20
-522.98143973626838
 30
0.0
  0
VERTEX
  5
33B
100
AcDbEntity
  8
FAN70-0308
370
              15
390
0
  6
Continuous
 62
               7
100
AcDbVertex
100
AcDb2dVertex
 10
401.22182456790335
 20
-524.95369037666842
 30
0.0
  0
VERTEX
  5
33C
100
AcDbEntity
  8
FAN70-0308
370
              15
390
0
  6
Continuous
 62
               7
100
AcDbVertex
100
AcDb2dVertex
 10
402.45775667960334
 20
-527.10614634726835
 30
0.0
  0
VERTEX
  5
33D
100
AcDbEntity
  8
FAN70-0308
370
              15
390
0
  6
Continuous
 62
               7
100
AcDbVertex
100
AcDb2dVertex
 10
403.77193478880338
 20
-529.38496602746841
 30
0.0
  0
VERTEX
  5
33E
100
AcDbEntity
  8
FAN70-0308
370
              15
390
0
  6
Continuous
 62
               7
100
AcDbVertex
100
AcDb2dVertex
 10
405.12852160270347
 20
-531.72953708146815
 30
0.0
  0
VERTEX
  5
33F
100
AcDbEntity
  8
FAN70-0308
370
              15
390
0
  6
Continuous
 62
               7
100
AcDbVertex
100
AcDb2dVertex
 10
406.48843882610333
 20
-534.07449929096833
 30
0.0
  0
VERTEX
  5
340
100
AcDbEntity
  8
FAN70-0308
370
              15
390
0
  6
Continuous
 62
               7
100
AcDbVertex
100
AcDb2dVertex
 10
407.80915109450336
 20
-536.3491168436683
 30
0.0
  0
VERTEX
  5
341
100
AcDbEntity
  8
FAN70-0308
370
              15
390
0
  6
Continuous
 62
               7
100
AcDbVertex
100
AcDb2dVertex
 10
409.04766855770345
 20
-538.48146555996823
 30
0.0
  0
VERTEX
  5
342
100
AcDbEntity
  8
FAN70-0308
370
              15
390
0
  6
Continuous
 62
               7
100
AcDbVertex
100
AcDb2dVertex
 10
410.16129193840334
 20
-540.39923755506834
 30
0.0
  0
VERTEX
  5
343
100
AcDbEntity
  8
FAN70-0308
370
              15
390
0
  6
Continuous
 62
               7
100
AcDbVertex
100
AcDb2dVertex
 10
411.10972849660345
 20
-542.03325418806821
 30
0.0
  0
VERTEX
  5
344
100
AcDbEntity
  8
FAN70-0308
370
              15
390
0
  6
Continuous
 62
               7
100
AcDbVertex
100
AcDb2dVertex
 10
411.66282234720336
 20
-542.98642931556833
 30
0.0
  0
SEQEND
  5
345
100
AcDbEntity
  8
FAN70-0308
370
              15
390
0
  6
Continuous
 62
               7
  0
LINE
  5
346
100
AcDbEntity
  8
FAN70-0308
370
              15
390
0
  6
Continuous
 62
               7
100
AcDbLine
 10
323.38338879880348
 20
-516.08959866736836
 30
0.0
 11
323.79920570190336
 21
-514.08959833956828
 31
0.0
  0
LINE
  5
347
100
AcDbEntity
  8
FAN70-0308
370
              15
390
0
  6
Continuous
 62
               7
100
AcDbLine
 10
317.97767965130345
 20
-516.08959866736836
 30
0.0
 11
323.38338879880348
 21
-516.08959866736836
 31
0.0
  0
LINE
  5
348
100
AcDbEntity
  8
FAN70-0308
370
              15
390
0
  6
Continuous
 62
               7
100
AcDbLine
 10
317.56186274820334
 20
-514.08959833956828
 30
0.0
 11
317.97767965130345
 21
-516.08959866736836
 31
0.0
  0
LINE
  5
349
100
AcDbEntity
  8
FAN70-0308
370
              15
390
0
  6
Continuous
 62
               7
100
AcDbLine
 10
317.56186274820334
 20
-503.58959848116814
 30
0.0
 11
317.56186274820334
 21
-514.08959833956828
 31
0.0
  0
LINE
  5
34A
100
AcDbEntity
  8
FAN70-0308
370
              15
390
0
  6
Continuous
 62
               7
100
AcDbLine
 10
323.79920570190336
 20
-503.58959848116814
 30
0.0
 11
323.79920570190336
 21
-514.08959833956828
 31
0.0
  0
LINE
  5
34B
100
AcDbEntity
  8
FAN70-0308
370
              15
390
0
  6
Continuous
 62
               7
100
AcDbLine
 10
319.84889296820336
 20
-512.0895980117682
 30
0.0
 11
319.84889296820336
 21
-506.08959795956838
 31
0.0
  0
LINE
  5
34C
100
AcDbEntity
  8
FAN70-0308
370
              15
390
0
  6
Continuous
 62
               7
100
AcDbLine
 10
321.51219038300337
 20
-512.0895980117682
 30
0.0
 11
319.84889296820336
 21
-512.0895980117682
 31
0.0
  0
LINE
  5
34D
100
AcDbEntity
  8
FAN70-0308
370
              15
390
0
  6
Continuous
 62
               7
100
AcDbLine
 10
321.51219038300337
 20
-506.08959795956838
 30
0.0
 11
321.51219038300337
 21
-512.0895980117682
 31
0.0
  0
LINE
  5
34E
100
AcDbEntity
  8
FAN70-0308
370
              15
390
0
  6
Continuous
 62
               7
100
AcDbLine
 10
319.84889296820336
 20
-506.08959795956838
 30
0.0
 11
321.51219038300337
 21
-506.08959795956838
 31
0.0
  0
LINE
  5
34F
100
AcDbEntity
  8
FAN70-0308
370
              15
390
0
  6
Continuous
 62
               7
100
AcDbLine
 10
324.36153082190344
 20
-516.08959866736836
 30
0.0
 11
323.38338879880348
 21
-516.08959866736836
 31
0.0
  0
LINE
  5
350
100
AcDbEntity
  8
FAN70-0308
370
              15
390
0
  6
Continuous
 62
               7
100
AcDbLine
 10
323.79920570190336
 20
-514.08959833956828
 30
0.0
 11
324.77736262610335
 21
-514.08959833956828
 31
0.0
  0
LINE
  5
351
100
AcDbEntity
  8
FAN70-0308
370
              15
390
0
  6
Continuous
 62
               7
100
AcDbLine
 10
324.77736262610335
 20
-514.08959833956828
 30
0.0
 11
324.36153082190344
 21
-516.08959866736836
 31
0.0
  0
LINE
  5
352
100
AcDbEntity
  8
FAN70-0308
370
              15
390
0
  6
Continuous
 62
               7
100
AcDbLine
 10
324.77736262610335
 20
-503.58959848116814
 30
0.0
 11
324.77736262610335
 21
-514.08959833956828
 31
0.0
  0
LINE
  5
353
100
AcDbEntity
  8
FAN70-0308
370
              15
390
0
  6
Continuous
 62
               7
100
AcDbLine
 10
320.82703499130344
 20
-512.0895980117682
 30
0.0
 11
320.82703499130344
 21
-506.08959795956838
 31
0.0
  0
LINE
  5
354
100
AcDbEntity
  8
FAN70-0308
370
              15
390
0
  6
Continuous
 62
               7
100
AcDbLine
 10
493.34690136840334
 20
-503.58959848116814
 30
0.0
 11
294.05480412780332
 21
-503.58959848116814
 31
0.0
  0
LINE
  5
355
100
AcDbEntity
  8
FAN70-0308
370
              15
390
0
  6
Continuous
 62
               7
100
AcDbLine
 10
493.34690136840334
 20
-503.58959848116814
 30
0.0
 11
692.71304992970329
 21
-503.58959848116814
 31
0.0
  0
LINE
  5
356
100
AcDbEntity
  8
FAN70-0308
370
              15
390
0
  6
Continuous
 62
               7
100
AcDbLine
 10
296.85753373440343
 20
-495.58959810116829
 30
0.0
 11
689.82803611090333
 21
-495.58959810116829
 31
0.0
  0
POLYLINE
  5
357
100
AcDbEntity
  8
FAN70-0308
370
              15
390
0
  6
Continuous
 62
               7
100
AcDb2dPolyline
 66
               1
 10
0.0
 20
0.0
 30
0.0
 75
               5
  0
VERTEX
  5
358
100
AcDbEntity
  8
FAN70-0308
370
              15
390
0
  6
Continuous
 62
               7
100
AcDbVertex
100
AcDb2dVertex
 10
530.89546946820315
 20
-597.93566076136767
 30
0.0
  0
VERTEX
  5
359
100
AcDbEntity
  8
FAN70-0308
370
              15
390
0
  6
Continuous
 62
               7
100
AcDbVertex
100
AcDb2dVertex
 10
525.79150417830328
 20
-597.88504896736754
 30
0.0
  0
VERTEX
  5
35A
100
AcDbEntity
  8
FAN70-0308
370
              15
390
0
  6
Continuous
 62
               7
100
AcDbVertex
100
AcDb2dVertex
 10
520.7678896748032
 20
-597.75325564716763
 30
0.0
  0
VERTEX
  5
35B
100
AcDbEntity
  8
FAN70-0308
370
              15
390
0
  6
Continuous
 62
               7
100
AcDbVertex
100
AcDb2dVertex
 10
515.9048249387032
 20
-597.5669315275677
 30
0.0
  0
VERTEX
  5
35C
100
AcDbEntity
  8
FAN70-0308
370
              15
390
0
  6
Continuous
 62
               7
100
AcDbVertex
100
AcDb2dVertex
 10
511.57312070960319
 20
-597.36269621226756
 30
0.0
  0
SEQEND
  5
35D
100
AcDbEntity
  8
FAN70-0308
370
              15
390
0
  6
Continuous
 62
               7
  0
POLYLINE
  5
35E
100
AcDbEntity
  8
FAN70-0308
370
              15
390
0
  6
Continuous
 62
               7
100
AcDb2dPolyline
 66
               1
 10
0.0
 20
0.0
 30
0.0
 75
               5
  0
VERTEX
  5
35F
100
AcDbEntity
  8
FAN70-0308
370
              15
390
0
  6
Continuous
 62
               7
100
AcDbVertex
100
AcDb2dVertex
 10
491.14547086890343
 20
-596.18788866376758
 30
0.0
  0
VERTEX
  5
360
100
AcDbEntity
  8
FAN70-0308
370
              15
390
0
  6
Continuous
 62
               7
100
AcDbVertex
100
AcDb2dVertex
 10
491.49742139510329
 20
-596.20343802546768
 30
0.0
  0
VERTEX
  5
361
100
AcDbEntity
  8
FAN70-0308
370
              15
390
0
  6
Continuous
 62
               7
100
AcDbVertex
100
AcDb2dVertex
 10
492.54650412140336
 20
-596.25650851106775
 30
0.0
  0
VERTEX
  5
362
100
AcDbEntity
  8
FAN70-0308
370
              15
390
0
  6
Continuous
 62
               7
100
AcDbVertex
100
AcDb2dVertex
 10
494.26759568980333
 20
-596.35303823326763
 30
0.0
  0
VERTEX
  5
363
100
AcDbEntity
  8
FAN70-0308
370
              15
390
0
  6
Continuous
 62
               7
100
AcDbVertex
100
AcDb2dVertex
 10
496.62275774410341
 20
-596.4935934362677
 30
0.0
  0
VERTEX
  5
364
100
AcDbEntity
  8
FAN70-0308
370
              15
390
0
  6
Continuous
 62
               7
100
AcDbVertex
100
AcDb2dVertex
 10
499.5628797823033
 20
-596.67368887046769
 30
0.0
  0
VERTEX
  5
365
100
AcDbEntity
  8
FAN70-0308
370
              15
390
0
  6
Continuous
 62
               7
100
AcDbVertex
100
AcDb2dVertex
 10
503.02848381930335
 20
-596.88463715886769
 30
0.0
  0
VERTEX
  5
366
100
AcDbEntity
  8
FAN70-0308
370
              15
390
0
  6
Continuous
 62
               7
100
AcDbVertex
100
AcDb2dVertex
 10
507.09383351740348
 20
-597.1220648107676
 30
0.0
  0
VERTEX
  5
367
100
AcDbEntity
  8
FAN70-0308
370
              15
390
0
  6
Continuous
 62
               7
100
AcDbVertex
100
AcDb2dVertex
 10
511.57312070960319
 20
-597.36269621226756
 30
0.0
  0
SEQEND
  5
368
100
AcDbEntity
  8
FAN70-0308
370
              15
390
0
  6
Continuous
 62
               7
  0
POLYLINE
  5
369
100
AcDbEntity
  8
FAN70-0308
370
              15
390
0
  6
Continuous
 62
               7
100
AcDb2dPolyline
 66
               1
 10
0.0
 20
0.0
 30
0.0
 75
               5
  0
VERTEX
  5
36A
100
AcDbEntity
  8
FAN70-0308
370
              15
390
0
  6
Continuous
 62
               7
100
AcDbVertex
100
AcDb2dVertex
 10
491.14547086890343
 20
-596.18788866376758
 30
0.0
  0
VERTEX
  5
36B
100
AcDbEntity
  8
FAN70-0308
370
              15
390
0
  6
Continuous
 62
               7
100
AcDbVertex
100
AcDb2dVertex
 10
479.25432560970341
 20
-592.23224131436768
 30
0.0
  0
VERTEX
  5
36C
100
AcDbEntity
  8
FAN70-0308
370
              15
390
0
  6
Continuous
 62
               7
100
AcDbVertex
100
AcDb2dVertex
 10
467.82238570980337
 20
-587.28478757716789
 30
0.0
  0
VERTEX
  5
36D
100
AcDbEntity
  8
FAN70-0308
370
              15
390
0
  6
Continuous
 62
               7
100
AcDbVertex
100
AcDb2dVertex
 10
456.9064655715033
 20
-581.39046190356794
 30
0.0
  0
VERTEX
  5
36E
100
AcDbEntity
  8
FAN70-0308
370
              15
390
0
  6
Continuous
 62
               7
100
AcDbVertex
100
AcDb2dVertex
 10
446.56337587170333
 20
-574.59419874526816
 30
0.0
  0
VERTEX
  5
36F
100
AcDbEntity
  8
FAN70-0308
370
              15
390
0
  6
Continuous
 62
               7
100
AcDbVertex
100
AcDb2dVertex
 10
436.40406964360341
 20
-566.55590890026838
 30
0.0
  0
VERTEX
  5
370
100
AcDbEntity
  8
FAN70-0308
370
              15
390
0
  6
Continuous
 62
               7
100
AcDbVertex
100
AcDb2dVertex
 10
427.00113145640341
 20
-557.62874243826832
 30
0.0
  0
VERTEX
  5
371
100
AcDbEntity
  8
FAN70-0308
370
              15
390
0
  6
Continuous
 62
               7
100
AcDbVertex
100
AcDb2dVertex
 10
418.41988055040326
 20
-547.86438031176817
 30
0.0
  0
SEQEND
  5
372
100
AcDbEntity
  8
FAN70-0308
370
              15
390
0
  6
Continuous
 62
               7
  0
POLYLINE
  5
373
100
AcDbEntity
  8
FAN70-0308
370
              15
390
0
  6
Continuous
 62
               7
100
AcDb2dPolyline
 66
               1
 10
0.0
 20
0.0
 30
0.0
 75
               5
  0
VERTEX
  5
374
100
AcDbEntity
  8
FAN70-0308
370
              15
390
0
  6
Continuous
 62
               7
100
AcDbVertex
100
AcDb2dVertex
 10
418.41988055040326
 20
-547.86438031176817
 30
0.0
  0
VERTEX
  5
375
100
AcDbEntity
  8
FAN70-0308
370
              15
390
0
  6
Continuous
 62
               7
100
AcDbVertex
100
AcDb2dVertex
 10
418.20158598950331
 20
-547.52642942646821
 30
0.0
  0
VERTEX
  5
376
100
AcDbEntity
  8
FAN70-0308
370
              15
390
0
  6
Continuous
 62
               7
100
AcDbVertex
100
AcDb2dVertex
 10
417.55588142210331
 20
-546.52528746106827
 30
0.0
  0
VERTEX
  5
377
100
AcDbEntity
  8
FAN70-0308
370
              15
390
0
  6
Continuous
 62
               7
100
AcDbVertex
100
AcDb2dVertex
 10
416.51060966780335
 20
-544.89749206276838
 30
0.0
  0
VERTEX
  5
378
100
AcDbEntity
  8
FAN70-0308
370
              15
390
0
  6
Continuous
 62
               7
100
AcDbVertex
100
AcDb2dVertex
 10
415.1121431404033
 20
-542.70277453636822
 30
0.0
  0
VERTEX
  5
379
100
AcDbEntity
  8
FAN70-0308
370
              15
390
0
  6
Continuous
 62
               7
100
AcDbVertex
100
AcDb2dVertex
 10
413.42218754820328
 20
-540.02051336736849
 30
0.0
  0
VERTEX
  5
37A
100
AcDbEntity
  8
FAN70-0308
370
              15
390
0
  6
Continuous
 62
               7
100
AcDbVertex
100
AcDb2dVertex
 10
411.51569573220343
 20
-536.94924993486848
 30
0.0
  0
VERTEX
  5
37B
100
AcDbEntity
  8
FAN70-0308
370
              15
390
0
  6
Continuous
 62
               7
100
AcDbVertex
100
AcDb2dVertex
 10
409.47510091600327
 20
-533.60126448846836
 30
0.0
  0
VERTEX
  5
37C
100
AcDbEntity
  8
FAN70-0308
370
              15
390
0
  6
Continuous
 62
               7
100
AcDbVertex
100
AcDb2dVertex
 10
407.38632319500334
 20
-530.10024039126847
 30
0.0
  0
VERTEX
  5
37D
100
AcDbEntity
  8
FAN70-0308
370
              15
390
0
  6
Continuous
 62
               7
100
AcDbVertex
100
AcDb2dVertex
 10
405.33475367360336
 20
-526.57870112036835
 30
0.0
  0
VERTEX
  5
37E
100
AcDbEntity
  8
FAN70-0308
370
              15
390
0
  6
Continuous
 62
               7
100
AcDbVertex
100
AcDb2dVertex
 10
403.39876500900334
 20
-523.16996922766839
 30
0.0
  0
VERTEX
  5
37F
100
AcDbEntity
  8
FAN70-0308
370
              15
390
0
  6
Continuous
 62
               7
100
AcDbVertex
100
AcDb2dVertex
 10
401.64918987090334
 20
-520.00845318706843
 30
0.0
  0
VERTEX
  5
380
100
AcDbEntity
  8
FAN70-0308
370
              15
390
0
  6
Continuous
 62
               7
100
AcDbVertex
100
AcDb2dVertex
 10
400.14444081120337
 20
-517.22011437686842
 30
0.0
  0
VERTEX
  5
381
100
AcDbEntity
  8
FAN70-0308
370
              15
390
0
  6
Continuous
 62
               7
100
AcDbVertex
100
AcDb2dVertex
 10
398.9306667262033
 20
-514.91909569176823
 30
0.0
  0
VERTEX
  5
382
100
AcDbEntity
  8
FAN70-0308
370
              15
390
0
  6
Continuous
 62
               7
100
AcDbVertex
100
AcDb2dVertex
 10
398.04167835050339
 20
-513.20163255606826
 30
0.0
  0
VERTEX
  5
383
100
AcDbEntity
  8
FAN70-0308
370
              15
390
0
  6
Continuous
 62
               7
100
AcDbVertex
100
AcDb2dVertex
 10
397.49976782140334
 20
-512.14051155426819
 30
0.0
  0
VERTEX
  5
384
100
AcDbEntity
  8
FAN70-0308
370
              15
390
0
  6
Continuous
 62
               7
100
AcDbVertex
100
AcDb2dVertex
 10
397.31779484090339
 20
-511.78168973006831
 30
0.0
  0
SEQEND
  5
385
100
AcDbEntity
  8
FAN70-0308
370
              15
390
0
  6
Continuous
 62
               7
  0
POLYLINE
  5
386
100
AcDbEntity
  8
FAN70-0308
370
              15
390
0
  6
Continuous
 62
               7
100
AcDb2dPolyline
 66
               1
 10
0.0
 20
0.0
 30
0.0
 75
               5
  0
VERTEX
  5
387
100
AcDbEntity
  8
FAN70-0308
370
              15
390
0
  6
Continuous
 62
               7
100
AcDbVertex
100
AcDb2dVertex
 10
397.31779484090339
 20
-511.78168973006831
 30
0.0
  0
VERTEX
  5
388
100
AcDbEntity
  8
FAN70-0308
370
              15
390
0
  6
Continuous
 62
               7
100
AcDbVertex
100
AcDb2dVertex
 10
394.59320692350332
 20
-504.43855768116822
 30
0.0
  0
VERTEX
  5
389
100
AcDbEntity
  8
FAN70-0308
370
              15
390
0
  6
Continuous
 62
               7
100
AcDbVertex
100
AcDb2dVertex
 10
394.32455388840333
 20
-503.58959848116814
 30
0.0
  0
SEQEND
  5
38A
100
AcDbEntity
  8
FAN70-0308
370
              15
390
0
  6
Continuous
 62
               7
  0
POLYLINE
  5
38B
100
AcDbEntity
  8
FAN70-0308
370
              15
390
0
  6
Continuous
 62
               7
100
AcDb2dPolyline
 66
               1
 10
0.0
 20
0.0
 30
0.0
 75
               5
  0
VERTEX
  5
38C
100
AcDbEntity
  8
FAN70-0308
370
              15
390
0
  6
Continuous
 62
               7
100
AcDbVertex
100
AcDb2dVertex
 10
530.89546946820315
 20
-597.93566076136767
 30
0.0
  0
VERTEX
  5
38D
100
AcDbEntity
  8
FAN70-0308
370
              15
390
0
  6
Continuous
 62
               7
100
AcDbVertex
100
AcDb2dVertex
 10
530.92293310680316
 20
-597.93566076136767
 30
0.0
  0
VERTEX
  5
38E
100
AcDbEntity
  8
FAN70-0308
370
              15
390
0
  6
Continuous
 62
               7
100
AcDbVertex
100
AcDb2dVertex
 10
536.03575494150323
 20
-597.88436351396763
 30
0.0
  0
VERTEX
  5
38F
100
AcDbEntity
  8
FAN70-0308
370
              15
390
0
  6
Continuous
 62
               7
100
AcDbVertex
100
AcDb2dVertex
 10
541.06802841660328
 20
-597.75177298166773
 30
0.0
  0
VERTEX
  5
390
100
AcDbEntity
  8
FAN70-0308
370
              15
390
0
  6
Continuous
 62
               7
100
AcDbVertex
100
AcDb2dVertex
 10
545.93765152630328
 20
-597.56469635346753
 30
0.0
  0
VERTEX
  5
391
100
AcDbEntity
  8
FAN70-0308
370
              15
390
0
  6
Continuous
 62
               7
100
AcDbVertex
100
AcDb2dVertex
 10
550.56821530690331
 20
-597.34489677526767
 30
0.0
  0
VERTEX
  5
392
100
AcDbEntity
  8
FAN70-0308
370
              15
390
0
  6
Continuous
 62
               7
100
AcDbVertex
100
AcDb2dVertex
 10
554.88103045160335
 20
-597.11162654736768
 30
0.0
  0
VERTEX
  5
393
100
AcDbEntity
  8
FAN70-0308
370
              15
390
0
  6
Continuous
 62
               7
100
AcDbVertex
100
AcDb2dVertex
 10
558.8026025706032
 20
-596.8822231707677
 30
0.0
  0
VERTEX
  5
394
100
AcDbEntity
  8
FAN70-0308
370
              15
390
0
  6
Continuous
 62
               7
100
AcDbVertex
100
AcDb2dVertex
 10
562.26377723750329
 20
-596.67152820206775
 30
0.0
  0
VERTEX
  5
395
100
AcDbEntity
  8
FAN70-0308
370
              15
390
0
  6
Continuous
 62
               7
100
AcDbVertex
100
AcDb2dVertex
 10
565.19704846670322
 20
-596.49181274746775
 30
0.0
  0
VERTEX
  5
396
100
AcDbEntity
  8
FAN70-0308
370
              15
390
0
  6
Continuous
 62
               7
100
AcDbVertex
100
AcDb2dVertex
 10
567.54554597670324
 20
-596.35174928286756
 30
0.0
  0
VERTEX
  5
397
100
AcDbEntity
  8
FAN70-0308
370
              15
390
0
  6
Continuous
 62
               7
100
AcDbVertex
100
AcDb2dVertex
 10
569.25450054940325
 20
-596.25597206926773
 30
0.0
  0
VERTEX
  5
398
100
AcDbEntity
  8
FAN70-0308
370
              15
390
0
  6
Continuous
 62
               7
100
AcDbVertex
100
AcDb2dVertex
 10
570.29606563980326
 20
-596.20331136556752
 30
0.0
  0
VERTEX
  5
399
100
AcDbEntity
  8
FAN70-0308
370
              15
390
0
  6
Continuous
 62
               7
100
AcDbVertex
100
AcDb2dVertex
 10
570.64546806750332
 20
-596.18788866376758
 30
0.0
  0
SEQEND
  5
39A
100
AcDbEntity
  8
FAN70-0308
370
              15
390
0
  6
Continuous
 62
               7
  0
POLYLINE
  5
39B
100
AcDbEntity
  8
FAN70-0308
370
              15
390
0
  6
Continuous
 62
               7
100
AcDb2dPolyline
 66
               1
 10
0.0
 20
0.0
 30
0.0
 75
               5
  0
VERTEX
  5
39C
100
AcDbEntity
  8
FAN70-0308
370
              15
390
0
  6
Continuous
 62
               7
100
AcDbVertex
100
AcDb2dVertex
 10
667.31627075010317
 20
-503.58959848116814
 30
0.0
  0
VERTEX
  5
39D
100
AcDbEntity
  8
FAN70-0308
370
              15
390
0
  6
Continuous
 62
               7
100
AcDbVertex
100
AcDb2dVertex
 10
664.52879993250338
 20
-511.64317971146824
 30
0.0
  0
VERTEX
  5
39E
100
AcDbEntity
  8
FAN70-0308
370
              15
390
0
  6
Continuous
 62
               7
100
AcDbVertex
100
AcDb2dVertex
 10
658.82466522990342
 20
-524.09978305966843
 30
0.0
  0
VERTEX
  5
39F
100
AcDbEntity
  8
FAN70-0308
370
              15
390
0
  6
Continuous
 62
               7
100
AcDbVertex
100
AcDb2dVertex
 10
652.02758995820329
 20
-535.84050295926818
 30
0.0
  0
VERTEX
  5
3A0
100
AcDbEntity
  8
FAN70-0308
370
              15
390
0
  6
Continuous
 62
               7
100
AcDbVertex
100
AcDb2dVertex
 10
644.20912204320314
 20
-546.80872989866839
 30
0.0
  0
VERTEX
  5
3A1
100
AcDbEntity
  8
FAN70-0308
370
              15
390
0
  6
Continuous
 62
               7
100
AcDbVertex
100
AcDb2dVertex
 10
635.44083176190327
 20
-556.94785622926815
 30
0.0
  0
VERTEX
  5
3A2
100
AcDbEntity
  8
FAN70-0308
370
              15
390
0
  6
Continuous
 62
               7
100
AcDbVertex
100
AcDb2dVertex
 10
625.79428939160323
 20
-566.20126871446837
 30
0.0
  0
VERTEX
  5
3A3
100
AcDbEntity
  8
FAN70-0308
370
              15
390
0
  6
Continuous
 62
               7
100
AcDbVertex
100
AcDb2dVertex
 10
615.95885245140323
 20
-574.06380681366818
 30
0.0
  0
VERTEX
  5
3A4
100
AcDbEntity
  8
FAN70-0308
370
              15
390
0
  6
Continuous
 62
               7
100
AcDbVertex
100
AcDb2dVertex
 10
605.46627430250317
 20
-581.04118613576793
 30
0.0
  0
VERTEX
  5
3A5
100
AcDbEntity
  8
FAN70-0308
370
              15
390
0
  6
Continuous
 62
               7
100
AcDbVertex
100
AcDb2dVertex
 10
594.3765246683032
 20
-587.08596138336793
 30
0.0
  0
VERTEX
  5
3A6
100
AcDbEntity
  8
FAN70-0308
370
              15
390
0
  6
Continuous
 62
               7
100
AcDbVertex
100
AcDb2dVertex
 10
582.74959562360323
 20
-592.1506798085677
 30
0.0
  0
VERTEX
  5
3A7
100
AcDbEntity
  8
FAN70-0308
370
              15
390
0
  6
Continuous
 62
               7
100
AcDbVertex
100
AcDb2dVertex
 10
570.64546806750332
 20
-596.18788866376758
 30
0.0
  0
SEQEND
  5
3A8
100
AcDbEntity
  8
FAN70-0308
370
              15
390
0
  6
Continuous
 62
               7
  0
LINE
  5
3A9
100
AcDbEntity
  8
FAN70-0308
370
              15
390
0
  6
Continuous
 62
               7
100
AcDbLine
 10
506.89546925960326
 20
-605.18959818456756
 30
0.0
 11
507.36570147810329
 21
-605.18959818456756
 31
0.0
  0
LINE
  5
3AA
100
AcDbEntity
  8
FAN70-0308
370
              15
390
0
  6
Continuous
 62
               7
100
AcDbLine
 10
554.32272119460322
 20
-605.18959818456756
 30
0.0
 11
554.89544359980323
 21
-605.18959818456756
 31
0.0
  0
POLYLINE
  5
3AB
100
AcDbEntity
  8
FAN70-0308
370
              15
390
0
  6
Continuous
 62
               7
100
AcDb2dPolyline
 66
               1
 10
0.0
 20
0.0
 30
0.0
 75
               5
  0
VERTEX
  5
3AC
100
AcDbEntity
  8
FAN70-0308
370
              15
390
0
  6
Continuous
 62
               7
100
AcDbVertex
100
AcDb2dVertex
 10
411.66277764370329
 20
-542.98645539256836
 30
0.0
  0
VERTEX
  5
3AD
100
AcDbEntity
  8
FAN70-0308
370
              15
390
0
  6
Continuous
 62
               7
100
AcDbVertex
100
AcDb2dVertex
 10
411.72958700000333
 20
-543.10155568696837
 30
0.0
  0
VERTEX
  5
3AE
100
AcDbEntity
  8
FAN70-0308
370
              15
390
0
  6
Continuous
 62
               7
100
AcDbVertex
100
AcDb2dVertex
 10
412.50736055900336
 20
-544.44149045326844
 30
0.0
  0
VERTEX
  5
3AF
100
AcDbEntity
  8
FAN70-0308
370
              15
390
0
  6
Continuous
 62
               7
100
AcDbVertex
100
AcDb2dVertex
 10
412.77266083290328
 20
-544.89855377056824
 30
0.0
  0
VERTEX
  5
3B0
100
AcDbEntity
  8
FAN70-0308
370
              15
390
0
  6
Continuous
 62
               7
100
AcDbVertex
100
AcDb2dVertex
 10
412.77266083290328
 20
-544.89854631996832
 30
0.0
  0
SEQEND
  5
3B1
100
AcDbEntity
  8
FAN70-0308
370
              15
390
0
  6
Continuous
 62
               7
  0
SPLINE
  5
3B2
100
AcDbEntity
  8
FAN70-0308
370
              15
390
0
  6
Continuous
 62
               7
100
AcDbSpline
210
0.0
220
0.0
230
1.0
 70
               9
 71
               2
 72
              17
 73
              14
 74
               0
 42
0.000001
 43
0.000001
 40
0.0
 40
0.0
 40
0.0
 40
1.0
 40
2.0
 40
3.0
 40
4.0
 40
5.0
 40
6.0
 40
7.0
 40
8.0
 40
9.0
 40
10.0
 40
11.0
 40
12.0
 40
12.0
 40
12.0
 10
-573.56613448643702
 20
605.73745679021158
 30
0.0
 10
-529.47648104835025
 20
624.1589637698512
 30
0.0
 10
-427.65578792452368
 20
624.1589637698512
 30
0.0
 10
-339.47648104835031
 20
587.31594981057174
 30
0.0
 10
-288.56613448643697
 20
523.50197772913043
 30
0.0
 10
-288.56613448643697
 20
449.81594981057145
 30
0.0
 10
-339.47648104835031
 20
386.00197772913003
 30
0.0
 10
-427.65578792452368
 20
349.15896376985057
 30
0.0
 10
-529.47648104835025
 20
349.15896376985057
 30
0.0
 10
-617.65578792452368
 20
386.00197772913003
 30
0.0
 10
-668.56613448643702
 20
449.81594981057145
 30
0.0
 10
-668.56613448643702
 20
523.50197772913043
 30
0.0
 10
-617.65578792452368
 20
587.31594981057174
 30
0.0
 10
-573.56613448643702
 20
605.73745679021158
 30
0.0
  0
ARC
  5
3B3
100
AcDbEntity
  8
FAN70-0308
370
              15
390
0
  6
STYLE_12
 62
               7
100
AcDbCircle
 10
-477.11988489382225
 20
-377.87912664141749
 30
0.0
 40
222.30000000000013
100
AcDbArc
 50
212.04497731540002
 51
259.10360670749913
  0
ARC
  5
3B4
100
AcDbEntity
  8
FAN70-0308
370
              15
390
0
  6
STYLE_12
 62
               7
100
AcDbCircle
 10
-520.24430751064392
 20
-604.85068352667304
 30
0.0
 40
8.7491990343439809
100
AcDbArc
 50
56.383358996323395
 51
82.762497011451742
  0
LINE
  5
3B5
100
AcDbEntity
  8
FAN70-0308
370
              15
390
0
  6
STYLE_12
 62
               7
100
AcDbLine
 10
-515.4004583537801
 20
-597.56469635346753
 30
0.0
 11
-504.29581780283013
 21
-605.8506323216177
 31
0.0
  0
ARC
  5
3B6
100
AcDbEntity
  8
FAN70-0308
370
              15
390
0
  6
STYLE_12
 62
               7
100
AcDbCircle
 10
-480.09307776933792
 20
-377.87912664141749
 30
0.0
 40
222.29999999999947
100
AcDbArc
 50
280.89639329250087
 51
327.95502268460001
  0
ARC
  5
3B7
100
AcDbEntity
  8
FAN70-0308
370
              15
390
0
  6
STYLE_12
 62
               7
100
AcDbCircle
 10
-436.96865515251636
 20
-604.85068352667304
 30
0.0
 40
8.74919903434383
100
AcDbArc
 50
97.237502988548286
 51
123.61664100367598
  0
LINE
  5
3B8
100
AcDbEntity
  8
FAN70-0308
370
              15
390
0
  6
STYLE_12
 62
               7
100
AcDbLine
 10
-441.81250430938007
 20
-597.56469635346753
 30
0.0
 11
-452.91714486033004
 21
-605.8506323216177
 31
0.0
  0
ARC
  5
3B9
100
AcDbEntity
  8
FAN70-0308
370
              15
390
0
  6
STYLE_12
 62
               7
100
AcDbCircle
 10
532.69284562784674
 20
-459.80573551312756
 30
0.0
 40
140.09999999999948
100
AcDbArc
 50
285.55089824681767
 51
345.22595462210143
  0
ARC
  5
3BA
100
AcDbEntity
  8
FAN70-0308
370
              15
390
0
  6
STYLE_12
 62
               7
100
AcDbCircle
 10
574.36711197568115
 20
-609.24402624141749
 30
0.0
 40
15.040628832655306
100
AcDbArc
 50
105.8751880001083
 51
127.06654126242788
  0
LINE
  5
3BB
100
AcDbEntity
  8
FAN70-0308
370
              15
390
0
  6
STYLE_12
 62
               7
100
AcDbLine
 10
565.30149141109007
 20
-597.24256635269717
 30
0.0
 11
554.64247589940317
 21
-605.18267286996775
 31
0.0
  0
ARC
  5
3BC
100
AcDbEntity
  8
FAN70-0308
370
              15
390
0
  6
STYLE_12
 62
               7
100
AcDbCircle
 10
529.09809330855956
 20
-459.80573551312756
 30
0.0
 40
140.09999999999991
100
AcDbArc
 50
194.77404537789855
 51
254.44910175318239
  0
ARC
  5
3BD
100
AcDbEntity
  8
FAN70-0308
370
              15
390
0
  6
STYLE_12
 62
               7
100
AcDbCircle
 10
487.42382696072525
 20
-609.24402624141749
 30
0.0
 40
15.04062883265531
100
AcDbArc
 50
52.933458737572131
 51
74.124811999891733
  0
LINE
  5
3BE
100
AcDbEntity
  8
FAN70-0308
370
              15
390
0
  6
STYLE_12
 62
               7
100
AcDbLine
 10
496.48944752531634
 20
-597.24256635269717
 30
0.0
 11
507.14846303700324
 21
-605.18267286996775
 31
0.0
  0
ENDSEC
  0
SECTION
  2
OBJECTS
  0
DICTIONARY
  5
19
100
AcDbDictionary
280
               0
281
               1
  3
ACAD_GROUP
350
1A
  3
ACAD_MLINESTYLE
350
1B
  3
ACAD_LAYOUT
350
1E
  3
ACAD_PLOTSETTINGS
350
22
  3
ACAD_PLOTSTYLENAME
350
1F
  0
DICTIONARY
  5
1A
102
{ACAD_REACTORS
330
19
102
}
100
AcDbDictionary
280
               0
281
               1
  0
DICTIONARY
  5
1B
102
{ACAD_REACTORS
330
19
102
}
100
AcDbDictionary
280
               0
281
               1
  3
Standard
350
1C
  0
MLINESTYLE
  5
1C
102
{ACAD_REACTORS
330
1B
102
}
100
AcDbMlineStyle
  2
Standard
 70
               0
  3

 62
               0
 51
90.0
 52
90.0
 71
               2
 49
0.5
 62
             256
  6
ByLayer
 49
-0.5
 62
             256
  6
ByLayer
  0
ACDBDICTIONARYWDFLT
  5
1F
102
{ACAD_REACTORS
330
19
102
}
100
AcDbDictionary
281
               1
  3
Normal
350
1D
100
AcDbDictionaryWithDefault
340
1D
  0
ACDBPLACEHOLDER
  5
1D
102
{ACAD_REACTORS
330
1F
102
}
  0
LAYOUT
  5
20
102
{ACAD_REACTORS
330
1E
102
}
100
AcDbPlotSettings
  1

  2

  4

  6

 40
0.0
 41
0.0
 42
0.0
 43
0.0
 44
0.0
 45
0.0
 46
0.0
 47
0.0
 48
0.0
 49
0.0
140
0.0
141
0.0
142
1.0
143
1.0
 70
            1024
 72
               0
 73
               0
 74
               0
  7

 75
               0
147
1.0
148
0.0
149
0.0
100
AcDbLayout
  1
Model
 70
               0
 71
               0
 10
0.0
 20
0.0
 11
0.0
 21
0.0
 12
0.0
 22
0.0
 32
0.0
 14
0.0
 24
0.0
 34
0.0
 15
0.0
 25
0.0
 35
0.0
146
0.0
 13
0.0
 23
0.0
 33
0.0
 16
0.0
 26
0.0
 36
0.0
 17
0.0
 27
0.0
 37
0.0
 76
               0
330
A
331
0
345
0
346
0
  0
LAYOUT
  5
21
102
{ACAD_REACTORS
330
1E
102
}
100
AcDbPlotSettings
  1

  2

  4

  6

 40
0.0
 41
0.0
 42
0.0
 43
0.0
 44
0.0
 45
0.0
 46
0.0
 47
0.0
 48
0.0
 49
0.0
140
0.0
141
0.0
142
1.0
143
1.0
 70
               0
 72
               0
 73
               0
 74
               0
  7

 75
               0
147
1.0
148
0.0
149
0.0
100
AcDbLayout
  1
Layout1
 70
               0
 71
               0
 10
0.0
 20
0.0
 11
0.0
 21
0.0
 12
0.0
 22
0.0
 32
0.0
 14
0.0
 24
0.0
 34
0.0
 15
0.0
 25
0.0
 35
0.0
146
0.0
 13
0.0
 23
0.0
 33
0.0
 16
0.0
 26
0.0
 36
0.0
 17
0.0
 27
0.0
 37
0.0
 76
               0
330
B
331
0
345
0
346
0
  0
DICTIONARY
  5
1E
102
{ACAD_REACTORS
330
19
102
}
100
AcDbDictionary
280
               0
281
               1
  3
Layout1
350
21
  3
Model
350
20
  0
DICTIONARY
  5
22
102
{ACAD_REACTORS
330
19
102
}
100
AcDbDictionary
280
               0
281
               1
  0
ENDSEC
  0
EOF
