  0
SECTION
  2
HEADER
  9
$ACADVER
  1
AC1015
  9
$ACADMAINTVER
 70
               6
  9
$DWGCODEPAGE
  3
ANSI_932
  9
$INSBASE
 10
0.0
 20
0.0
 30
0.0
  9
$EXTMIN
 10
-975.00000000024124
 20
-1431.5255224711129
 30
-14.428611111111111
  9
$EXTMAX
 10
975.00000000024124
 20
1405.9972926412995
 30
14.428611111111111
  9
$LIMMIN
 10
0.0
 20
0.0
  9
$LIMMAX
 10
0.0
 20
0.0
  9
$ORTHOMODE
 70
               0
  9
$REGENMODE
 70
               1
  9
$FILLMODE
 70
               1
  9
$QTEXTMODE
 70
               0
  9
$MIRRTEXT
 70
               1
  9
$LTSCALE
 40
50.799999999999997
  9
$ATTMODE
 70
               1
  9
$TEXTSIZE
 40
0.2
  9
$TRACEWID
 40
1.0
  9
$TEXTSTYLE
  7
Standard
  9
$CLAYER
  8
FAN70-0309
  9
$CELTYPE
  6
Continuous
  9
$CECOLOR
 62
             256
  9
$CELTSCALE
 40
1.0
  9
$DISPSILH
 70
               0
  9
$DIMSCALE
 40
1.0
  9
$DIMASZ
 40
31.75
  9
$DIMEXO
 40
0.0
  9
$DIMDLI
 40
6.9999999999999396
  9
$DIMRND
 40
0.0
  9
$DIMDLE
 40
0.0
  9
$DIMEXE
 40
19.999999999996199
  9
$DIMTP
 40
0.0
  9
$DIMTM
 40
0.0
  9
$DIMTXT
 40
24.432617187500004
  9
$DIMCEN
 40
0.0
  9
$DIMTSZ
 40
0.0
  9
$DIMTOL
 70
               0
  9
$DIMLIM
 70
               0
  9
$DIMTIH
 70
               0
  9
$DIMTOH
 70
               0
  9
$DIMSE1
 70
               0
  9
$DIMSE2
 70
               0
  9
$DIMTAD
 70
               1
  9
$DIMZIN
 70
              11
  9
$DIMBLK
  1
VW_FILLEDARROW
  9
$DIMASO
 70
               1
  9
$DIMSHO
 70
               1
  9
$DIMPOST
  1
<>
  9
$DIMAPOST
  1
[]
  9
$DIMALT
 70
               0
  9
$DIMALTD
 70
               1
  9
$DIMALTF
 40
1.0
  9
$DIMLFAC
 40
1.0
  9
$DIMTOFL
 70
               0
  9
$DIMTVP
 40
0.0
  9
$DIMTIX
 70
               1
  9
$DIMSOXD
 70
               0
  9
$DIMSAH
 70
               0
  9
$DIMBLK1
  1

  9
$DIMBLK2
  1

  9
$DIMSTYLE
  2
JIS
  9
$DIMCLRD
 70
               0
  9
$DIMCLRE
 70
               0
  9
$DIMCLRT
 70
               0
  9
$DIMTFAC
 40
1.0
  9
$DIMGAP
 40
1.00000000000108
  9
$DIMJUST
 70
               0
  9
$DIMSD1
 70
               0
  9
$DIMSD2
 70
               0
  9
$DIMTOLJ
 70
               1
  9
$DIMTZIN
 70
              11
  9
$DIMALTZ
 70
              11
  9
$DIMALTTZ
 70
              11
  9
$DIMUPT
 70
               0
  9
$DIMDEC
 70
               1
  9
$DIMTDEC
 70
               1
  9
$DIMALTU
 70
               2
  9
$DIMALTTD
 70
               2
  9
$DIMTXSTY
  7
ＭＳ ゴシック
  9
$DIMAUNIT
 70
               0
  9
$DIMADEC
 70
               2
  9
$DIMALTRND
 40
0.0
  9
$DIMAZIN
 70
               0
  9
$DIMDSEP
 70
              46
  9
$DIMATFIT
 70
               0
  9
$DIMFRAC
 70
               2
  9
$DIMLDRBLK
  1

  9
$DIMLUNIT
 70
               2
  9
$DIMLWD
 70
              -2
  9
$DIMLWE
 70
              -2
  9
$DIMTMOVE
 70
               0
  9
$LUNITS
 70
               2
  9
$LUPREC
 70
               4
  9
$SKETCHINC
 40
0.1
  9
$FILLETRAD
 40
0.0
  9
$AUNITS
 70
               0
  9
$AUPREC
 70
               0
  9
$MENU
  1
acad
  9
$ELEVATION
 40
0.0
  9
$PELEVATION
 40
0.0
  9
$THICKNESS
 40
0.0
  9
$LIMCHECK
 70
               0
  9
$CHAMFERA
 40
0.0
  9
$CHAMFERB
 40
0.0
  9
$CHAMFERC
 40
0.0
  9
$CHAMFERD
 40
0.0
  9
$SKPOLY
 70
               0
  9
$TDCREATE
 40
2456064.733715278
  9
$TDUCREATE
 40
0.000000000
  9
$TDUPDATE
 40
2456064.733715278
  9
$TDUUPDATE
 40
0.000000000
  9
$TDINDWG
 40
0.0000000000
  9
$TDUSRTIMER
 40
0.0000000000
  9
$USRTIMER
 70
               1
  9
$ANGBASE
 50
0.0
  9
$ANGDIR
 70
               0
  9
$PDMODE
 70
               1
  9
$PDSIZE
 40
-2.0
  9
$PLINEWID
 40
0.0
  9
$SPLFRAME
 70
               0
  9
$SPLINETYPE
 70
               6
  9
$SPLINESEGS
 70
               8
  9
$HANDSEED
  5
357
  9
$SURFTAB1
 70
               6
  9
$SURFTAB2
 70
               6
  9
$SURFTYPE
 70
               6
  9
$SURFU
 70
               6
  9
$SURFV
 70
               6
  9
$UCSBASE
  2

  9
$UCSNAME
  2

  9
$UCSORG
 10
0.0
 20
0.0
 30
0.0
  9
$UCSXDIR
 10
1.0
 20
0.0
 30
0.0
  9
$UCSYDIR
 10
0.0
 20
1.0
 30
0.0
  9
$UCSORTHOREF
  2

  9
$UCSORTHOVIEW
 70
               0
  9
$UCSORGTOP
 10
0.0
 20
0.0
 30
0.0
  9
$UCSORGBOTTOM
 10
0.0
 20
0.0
 30
0.0
  9
$UCSORGLEFT
 10
0.0
 20
0.0
 30
0.0
  9
$UCSORGRIGHT
 10
0.0
 20
0.0
 30
0.0
  9
$UCSORGFRONT
 10
0.0
 20
0.0
 30
0.0
  9
$UCSORGBACK
 10
0.0
 20
0.0
 30
0.0
  9
$PUCSBASE
  2

  9
$PUCSNAME
  2

  9
$PUCSORG
 10
0.0
 20
0.0
 30
0.0
  9
$PUCSXDIR
 10
1.0
 20
0.0
 30
0.0
  9
$PUCSYDIR
 10
0.0
 20
1.0
 30
0.0
  9
$PUCSORTHOREF
  2

  9
$PUCSORTHOVIEW
 70
               0
  9
$PUCSORGTOP
 10
0.0
 20
0.0
 30
0.0
  9
$PUCSORGBOTTOM
 10
0.0
 20
0.0
 30
0.0
  9
$PUCSORGLEFT
 10
0.0
 20
0.0
 30
0.0
  9
$PUCSORGRIGHT
 10
0.0
 20
0.0
 30
0.0
  9
$PUCSORGFRONT
 10
0.0
 20
0.0
 30
0.0
  9
$PUCSORGBACK
 10
0.0
 20
0.0
 30
0.0
  9
$USERI1
 70
               0
  9
$USERI2
 70
               0
  9
$USERI3
 70
               0
  9
$USERI4
 70
               0
  9
$USERI5
 70
               0
  9
$USERR1
 40
0.0
  9
$USERR2
 40
0.0
  9
$USERR3
 40
0.0
  9
$USERR4
 40
0.0
  9
$USERR5
 40
0.0
  9
$WORLDVIEW
 70
               1
  9
$SHADEDGE
 70
               3
  9
$SHADEDIF
 70
              70
  9
$TILEMODE
 70
               1
  9
$MAXACTVP
 70
              64
  9
$PINSBASE
 10
0.0
 20
0.0
 30
0.0
  9
$PLIMCHECK
 70
               0
  9
$PEXTMIN
 10
1.0000000000000000E+20
 20
1.0000000000000000E+20
 30
1.0000000000000000E+20
  9
$PEXTMAX
 10
-1.0000000000000000E+20
 20
-1.0000000000000000E+20
 30
-1.0000000000000000E+20
  9
$PLIMMIN
 10
0.0
 20
0.0
  9
$PLIMMAX
 10
12.0
 20
9.0
  9
$UNITMODE
 70
               0
  9
$VISRETAIN
 70
               0
  9
$PLINEGEN
 70
               1
  9
$PSLTSCALE
 70
               0
  9
$TREEDEPTH
 70
            3020
  9
$CMLSTYLE
  2
Standard
  9
$CMLJUST
 70
               0
  9
$CMLSCALE
 40
1.0
  9
$PROXYGRAPHICS
 70
               0
  9
$MEASUREMENT
 70
               1
  9
$CELWEIGHT
370
               0
  9
$ENDCAPS
280
               0
  9
$JOINSTYLE
280
               0
  9
$LWDISPLAY
290
               1
  9
$INSUNITS
 70
               4
  9
$HYPERLINKBASE
  1

  9
$STYLESHEET
  1

  9
$XEDIT
290
               1
  9
$CEPSNTYPE
380
               0
  9
$PSTYLEMODE
290
               1
  9
$FINGERPRINTGUID
  2

  9
$VERSIONGUID
  2

  9
$EXTNAMES
290
               1
  9
$PSVPSCALE
 40
0.0
  0
ENDSEC
  0
SECTION
  2
CLASSES
  0
CLASS
  1
LWPOLYLINE
  2
AcDbPolyline
  3
AutoCAD 2000
 90
        0
280
               0
281
               1
  0
CLASS
  1
IMAGE
  2
AcDbRasterImage
  3
ISM
 90
      127
280
               0
281
               1
  0
CLASS
  1
OLE2FRAME
  2
AcDbOle2Frame
  3
AutoCAD 2000
 90
        0
280
               0
281
               1
  0
CLASS
  1
HATCH
  2
AcDbHatch
  3
AutoCAD 2000
 90
        0
280
               0
281
               1
  0
CLASS
  1
DICTIONARYVAR
  2
AcDbDictionaryVar
  3
AutoCAD 2000
 90
        0
280
               0
281
               0
  0
CLASS
  1
RASTERVARIABLES
  2
AcDbRasterVariables
  3
ISM
 90
        0
280
               0
281
               0
  0
CLASS
  1
IMAGEDEF
  2
AcDbRasterImageDef
  3
ISM
 90
        0
280
               0
281
               0
  0
CLASS
  1
IMAGEDEF_REACTOR
  2
AcDbRasterImageDefReactor
  3
ISM
 90
        1
280
               0
281
               0
  0
CLASS
  1
IDBUFFER
  2
AcDbIdBuffer
  3
AutoCAD 2000
 90
        0
280
               0
281
               0
  0
CLASS
  1
SPATIAL_FILTER
  2
AcDbSpatialFilter
  3
AutoCAD 2000
 90
        0
280
               0
281
               0
  0
CLASS
  1
XRECORD
  2
AcDbXrecord
  3
AutoCAD 2000
 90
        0
280
               0
281
               0
  0
CLASS
  1
SORTENTSTABLE
  2
AcDbSortentsTable
  3
AutoCAD 2000
 90
        0
280
               0
281
               0
  0
CLASS
  1
LAYER_INDEX
  2
AcDbLayerIndex
  3
AutoCAD 2000
 90
        0
280
               0
281
               0
  0
CLASS
  1
SPATIAL_INDEX
  2
AcDbSpatialIndex
  3
AutoCAD 2000
 90
        0
280
               0
281
               0
  0
CLASS
  1
OBJECT_PTR
  2
CAseDLPNTableRecord
  3
"ASE-LPNTableRecord"
 90
        1
280
               0
281
               0
  0
CLASS
  1
LAYOUT
  2
AcDbLayout
  3
AutoCAD 2000
 90
        0
280
               0
281
               0
  0
CLASS
  1
PLOTSETTINGS
  2
AcDbPlotSettings
  3
AutoCAD 2000
 90
        0
280
               0
281
               0
  0
CLASS
  1
ACDBDICTIONARYWDFLT
  2
AcDbDictionaryWithDefault
  3
AutoCAD 2000
 90
        0
280
               0
281
               0
  0
CLASS
  1
ACDBPLACEHOLDER
  2
AcDbPlaceHolder
  3
AutoCAD 2000
 90
        0
280
               0
281
               0
  0
ENDSEC
  0
SECTION
  2
TABLES
  0
TABLE
  2
VPORT
  5
7
100
AcDbSymbolTable
 70
               1
  0
VPORT
  5
15
100
AcDbSymbolTableRecord
100
AcDbViewportTableRecord
  2
*ACTIVE
 70
               0
 10
0.0
 20
0.0
 11
1.0
 21
1.0
 12
0.0
 22
-12.764114914906713
 13
0.0
 23
0.0
 14
1.0
 24
1.0
 15
0.0
 25
0.0
 16
0.0
 26
0.0
 36
1.0
 17
0.0
 27
0.0
 37
0.0
 40
2837.5228151124124
 41
0.688564
 42
50.0
 43
0.0
 44
0.0
 50
0.0
 51
0.0
 71
               0
 72
            2000
 73
               1
 74
               1
 75
               0
 76
               0
 77
               0
 78
               0
281
               0
 65
               0
110
0.0
120
0.0
130
0.0
111
1.0
121
0.0
131
0.0
112
0.0
122
1.0
132
0.0
345
0
346
0
 79
               0
146
0.0
  0
ENDTAB
  0
TABLE
  2
LTYPE
  5
4
100
AcDbSymbolTable
 70
              17
  0
LTYPE
  5
11
100
AcDbSymbolTableRecord
100
AcDbLinetypeTableRecord
  2
ByBlock
 70
              64
  3

 72
              65
 73
               0
 40
0.0
  0
LTYPE
  5
12
100
AcDbSymbolTableRecord
100
AcDbLinetypeTableRecord
  2
ByLayer
 70
              64
  3

 72
              65
 73
               0
 40
0.0
  0
LTYPE
  5
13
100
AcDbSymbolTableRecord
100
AcDbLinetypeTableRecord
  2
Continuous
 70
              64
  3
Solid line
 72
              65
 73
               0
 40
0.0
  0
LTYPE
  5
2F
100
AcDbSymbolTableRecord
100
AcDbLinetypeTableRecord
  2
STYLE_01
 70
               0
  3

 72
              65
 73
               4
 40
0.3999999999999999
 49
0.25
 74
               0
 49
-0.05
 74
               0
 49
0.05
 74
               0
 49
-0.05
 74
               0
  0
LTYPE
  5
30
100
AcDbSymbolTableRecord
100
AcDbLinetypeTableRecord
  2
STYLE_02
 70
               0
  3

 72
              65
 73
               2
 40
0.6944250000000001
 49
0.48607
 74
               0
 49
-0.2083550000000001
 74
               0
  0
LTYPE
  5
31
100
AcDbSymbolTableRecord
100
AcDbLinetypeTableRecord
  2
STYLE_03
 70
               0
  3

 72
              65
 73
               2
 40
1.25
 49
1.0416400000000001
 74
               0
 49
-0.2083599999999999
 74
               0
  0
LTYPE
  5
32
100
AcDbSymbolTableRecord
100
AcDbLinetypeTableRecord
  2
STYLE_04
 70
               0
  3

 72
              65
 73
               2
 40
1.5277099999999999
 49
1.3194249999999998
 74
               0
 49
-0.208285
 74
               0
  0
LTYPE
  5
33
100
AcDbSymbolTableRecord
100
AcDbLinetypeTableRecord
  2
STYLE_05
 70
               0
  3

 72
              65
 73
               2
 40
0.20828
 49
0.069425
 74
               0
 49
-0.138855
 74
               0
  0
LTYPE
  5
34
100
AcDbSymbolTableRecord
100
AcDbLinetypeTableRecord
  2
STYLE_06
 70
               0
  3

 72
              65
 73
               4
 40
1.0416400000000001
 49
0.625
 74
               0
 49
-0.20828
 74
               0
 49
0.06943
 74
               0
 49
-0.13893
 74
               0
  0
LTYPE
  5
35
100
AcDbSymbolTableRecord
100
AcDbLinetypeTableRecord
  2
STYLE_07
 70
               0
  3

 72
              65
 73
               6
 40
1.875
 49
0.625
 74
               0
 49
-0.20828
 74
               0
 49
0.6250000000000001
 74
               0
 49
-0.2083599999999999
 74
               0
 49
0.06943
 74
               0
 49
-0.1389299999999999
 74
               0
  0
LTYPE
  5
36
100
AcDbSymbolTableRecord
100
AcDbLinetypeTableRecord
  2
STYLE_08
 70
               0
  3

 72
              65
 73
               6
 40
1.25
 49
0.625
 74
               0
 49
-0.20828
 74
               0
 49
0.06943
 74
               0
 49
-0.13893
 74
               0
 49
0.0694299999999999
 74
               0
 49
-0.13893
 74
               0
  0
LTYPE
  5
37
100
AcDbSymbolTableRecord
100
AcDbLinetypeTableRecord
  2
STYLE_09
 70
               0
  3

 72
              65
 73
               4
 40
5.0
 49
3.75
 74
               0
 49
-0.2777849999999998
 74
               0
 49
0.6944300000000003
 74
               0
 49
-0.2777849999999998
 74
               0
  0
LTYPE
  5
38
100
AcDbSymbolTableRecord
100
AcDbLinetypeTableRecord
  2
STYLE_10
 70
               0
  3

 72
              65
 73
               6
 40
5.9375
 49
3.75
 74
               0
 49
-0.2777849999999998
 74
               0
 49
0.6944300000000003
 74
               0
 49
-0.2777849999999998
 74
               0
 49
0.625
 74
               0
 49
-0.3125
 74
               0
  0
LTYPE
  5
39
100
AcDbSymbolTableRecord
100
AcDbLinetypeTableRecord
  2
STYLE_11
 70
               0
  3

 72
              65
 73
               2
 40
0.0694444881889764
 49
0.0347222440944882
 74
               0
 49
-0.0347222440944882
 74
               0
  0
LTYPE
  5
3A
100
AcDbSymbolTableRecord
100
AcDbLinetypeTableRecord
  2
STYLE_12
 70
               0
  3

 72
              65
 73
               2
 40
0.3937007874015748
 49
0.1968503937007874
 74
               0
 49
-0.1968503937007874
 74
               0
  0
LTYPE
  5
3B
100
AcDbSymbolTableRecord
100
AcDbLinetypeTableRecord
  2
STYLE_13
 70
               0
  3

 72
              65
 73
               2
 40
0.5905511811023622
 49
0.2952755905511811
 74
               0
 49
-0.2952755905511811
 74
               0
  0
LTYPE
  5
3C
100
AcDbSymbolTableRecord
100
AcDbLinetypeTableRecord
  2
STYLE_14
 70
               0
  3

 72
              65
 73
               2
 40
1.9685039370078738
 49
0.9842519685039369
 74
               0
 49
-0.9842519685039369
 74
               0
  0
ENDTAB
  0
TABLE
  2
LAYER
  5
2
100
AcDbSymbolTable
 70
               5
  0
LAYER
  5
14
100
AcDbSymbolTableRecord
100
AcDbLayerTableRecord
  2
0
 70
               0
 62
               7
  6
Continuous
290
               1
370
              -3
390
1D
  0
LAYER
  5
3D
100
AcDbSymbolTableRecord
100
AcDbLayerTableRecord
  2
Defpoints
 70
               0
 62
               7
  6
Continuous
290
               0
370
              -3
390
1D
  0
LAYER
  5
3E
100
AcDbSymbolTableRecord
100
AcDbLayerTableRecord
  2
template
 70
               0
 62
               7
  6
Continuous
290
               1
370
              -3
390
1D
  0
LAYER
  5
3F
100
AcDbSymbolTableRecord
100
AcDbLayerTableRecord
  2
notes
 70
               0
 62
               7
  6
Continuous
290
               1
370
              -3
390
1D
  0
LAYER
  5
40
100
AcDbSymbolTableRecord
100
AcDbLayerTableRecord
  2
FAN70-0309
 70
               0
 62
               7
  6
Continuous
290
               1
370
              -3
390
1D
  0
ENDTAB
  0
TABLE
  2
STYLE
  5
3
100
AcDbSymbolTable
 70
               3
  0
STYLE
  5
17
100
AcDbSymbolTableRecord
100
AcDbTextStyleTableRecord
  2
Standard
 70
               0
 40
0.0
 41
1.0
 50
0.0
 71
               0
 42
0.0
  3
txt
  4
BIGFONT.SHX
  0
STYLE
  5
2D
100
AcDbSymbolTableRecord
100
AcDbTextStyleTableRecord
  2
MS-Gothic
 70
               0
 40
0.0
 41
1.0
 50
0.0
 71
               0
 42
0.0
  3

  4
MS-Gothic
1001
ACAD
1000
MS-Gothic
1071
        0
  0
STYLE
  5
2E
100
AcDbSymbolTableRecord
100
AcDbTextStyleTableRecord
  2
ＭＳ ゴシック
 70
               0
 40
0.0
 41
1.0
 50
0.0
 71
               0
 42
0.0
  3

  4
ＭＳ ゴシック
1001
ACAD
1000
ＭＳ ゴシック
1071
        0
  0
ENDTAB
  0
TABLE
  2
VIEW
  5
5
100
AcDbSymbolTable
 70
               0
  0
ENDTAB
  0
TABLE
  2
UCS
  5
6
100
AcDbSymbolTable
 70
               0
  0
ENDTAB
  0
TABLE
  2
APPID
  5
8
100
AcDbSymbolTable
 70
               1
  0
APPID
  5
16
100
AcDbSymbolTableRecord
100
AcDbRegAppTableRecord
  2
ACAD
 70
               0
  0
ENDTAB
  0
TABLE
  2
DIMSTYLE
  5
9
100
AcDbSymbolTable
 70
               3
100
AcDbDimStyleTable
 71
               0
  0
DIMSTYLE
105
18
100
AcDbSymbolTableRecord
100
AcDbDimStyleTableRecord
  2
Standard
 70
               0
  3

  4

 40
1.0
 41
0.18
 42
0.0625
 43
0.38
 44
0.18
 45
0.0
 46
0.0
 47
0.0
 48
0.0
 71
               0
 72
               0
 73
               1
 74
               1
 75
               0
 76
               0
 77
               0
 78
               0
 79
               0
140
0.18
141
0.09
142
0.0
143
25.399999999999999
144
1.0
145
0.0
146
1.0
147
0.09
148
0.0
170
               0
171
               2
172
               0
173
               0
174
               0
175
               0
176
               0
177
               0
178
               0
179
               0
271
               4
272
               4
273
               2
274
               2
275
               0
276
               0
277
               2
278
              46
279
               0
280
               0
281
               0
282
               0
283
               1
284
               0
285
               0
286
               0
288
               0
289
               3
340
17
341
0
342
0
343
0
344
0
371
              -2
372
              -2
  0
DIMSTYLE
105
49
100
AcDbSymbolTableRecord
100
AcDbDimStyleTableRecord
  2
tfrom線あり
 70
               0
  3
<>
  4
[]
 40
1.0
 41
9.9993896484374982
 42
24.999999999999996
 43
0.9999999999999999
 44
0.0
 45
0.0
 46
0.0
 47
0.0
 48
0.0
 71
               0
 72
               0
 73
               0
 74
               0
 75
               0
 76
               0
 77
               1
 78
              11
 79
               0
140
24.432617187500004
141
0.0
142
0.0
143
1.0
144
1.0
145
0.0
146
1.0
147
0.4999999999999999
148
0.0
170
               0
171
               1
172
               0
173
               0
174
               1
175
               0
176
               0
177
               0
178
               0
179
               2
271
               1
272
               1
273
               2
274
               2
275
               0
276
               2
277
               2
278
              46
279
               0
280
               0
281
               0
282
               0
283
               1
284
              11
285
              11
286
              11
288
               0
289
               0
340
2E
341
41
342
41
343
0
344
0
371
              -2
372
              -2
  0
DIMSTYLE
105
4E
100
AcDbSymbolTableRecord
100
AcDbDimStyleTableRecord
  2
JIS
 70
               0
  3
<>
  4
[]
 40
1.0
 41
31.75
 42
0.0
 43
6.9999999999999396
 44
19.999999999996199
 45
0.0
 46
0.0
 47
0.0
 48
0.0
 71
               0
 72
               0
 73
               0
 74
               0
 75
               0
 76
               0
 77
               1
 78
              11
 79
               0
140
24.432617187500004
141
0.0
142
0.0
143
1.0
144
1.0
145
0.0
146
1.0
147
1.00000000000108
148
0.0
170
               0
171
               1
172
               0
173
               0
174
               1
175
               0
176
               0
177
               0
178
               0
179
               2
271
               1
272
               1
273
               2
274
               2
275
               0
276
               2
277
               2
278
              46
279
               0
280
               0
281
               0
282
               0
283
               1
284
              11
285
              11
286
              11
288
               0
289
               0
340
2E
341
4A
342
4A
343
0
344
0
371
              -2
372
              -2
  0
ENDTAB
  0
TABLE
  2
BLOCK_RECORD
  5
1
100
AcDbSymbolTable
 70
              12
  0
BLOCK_RECORD
  5
A
100
AcDbSymbolTableRecord
100
AcDbBlockTableRecord
  2
*MODEL_SPACE
340
20
  0
BLOCK_RECORD
  5
B
100
AcDbSymbolTableRecord
100
AcDbBlockTableRecord
  2
*PAPER_SPACE
340
21
  0
BLOCK_RECORD
  5
41
100
AcDbSymbolTableRecord
100
AcDbBlockTableRecord
  2
_DOT
340
0
  0
BLOCK_RECORD
  5
4A
100
AcDbSymbolTableRecord
100
AcDbBlockTableRecord
  2
VW_FILLEDARROW
340
0
  0
BLOCK_RECORD
  5
23
100
AcDbSymbolTableRecord
100
AcDbBlockTableRecord
  2
グループ
340
0
102
{BLKREFS
331
CF
102
}
  0
BLOCK_RECORD
  5
24
100
AcDbSymbolTableRecord
100
AcDbBlockTableRecord
  2
*D3
340
0
  0
BLOCK_RECORD
  5
25
100
AcDbSymbolTableRecord
100
AcDbBlockTableRecord
  2
*D4
340
0
  0
BLOCK_RECORD
  5
26
100
AcDbSymbolTableRecord
100
AcDbBlockTableRecord
  2
*D5
340
0
  0
BLOCK_RECORD
  5
27
100
AcDbSymbolTableRecord
100
AcDbBlockTableRecord
  2
*D6
340
0
  0
BLOCK_RECORD
  5
28
100
AcDbSymbolTableRecord
100
AcDbBlockTableRecord
  2
*D7
340
0
  0
BLOCK_RECORD
  5
29
100
AcDbSymbolTableRecord
100
AcDbBlockTableRecord
  2
*D8
340
0
  0
BLOCK_RECORD
  5
2A
100
AcDbSymbolTableRecord
100
AcDbBlockTableRecord
  2
*D9
340
0
  0
BLOCK_RECORD
  5
2B
100
AcDbSymbolTableRecord
100
AcDbBlockTableRecord
  2
グループ-1
340
0
102
{BLKREFS
331
E3
102
}
  0
BLOCK_RECORD
  5
2C
100
AcDbSymbolTableRecord
100
AcDbBlockTableRecord
  2
グループ-2
340
0
102
{BLKREFS
331
E4
102
}
  0
ENDTAB
  0
ENDSEC
  0
SECTION
  2
BLOCKS
  0
BLOCK
  5
D
100
AcDbEntity
  8
0
390
0
100
AcDbBlockBegin
  2
*MODEL_SPACE
 70
               0
 10
0.0
 20
0.0
 30
0.0
  3
*MODEL_SPACE
  1

  0
ENDBLK
  5
E
100
AcDbEntity
  8
0
390
0
100
AcDbBlockEnd
  0
BLOCK
  5
F
100
AcDbEntity
 67
               1
  8
0
390
0
100
AcDbBlockBegin
  2
*PAPER_SPACE
 70
               0
 10
0.0
 20
0.0
 30
0.0
  3
*PAPER_SPACE
  1

  0
ENDBLK
  5
10
100
AcDbEntity
 67
               1
  8
0
390
0
100
AcDbBlockEnd
  0
BLOCK
  5
42
100
AcDbEntity
  8
0
390
0
100
AcDbBlockBegin
  2
_DOT
 70
               0
 10
0.0
 20
0.0
 30
0.0
  3
_DOT
  1

  0
POLYLINE
  5
43
100
AcDbEntity
  8
0
370
              -2
390
0
  6
ByBlock
 62
               0
100
AcDb2dPolyline
 66
               1
 10
0.0
 20
0.0
 30
0.0
 70
               1
 40
0.5
 41
0.5
  0
VERTEX
  5
44
100
AcDbEntity
  8
0
370
              -2
390
0
  6
ByBlock
 62
               0
100
AcDbVertex
100
AcDb2dVertex
 10
-0.25
 20
0.0
 30
0.0
 42
1.0
  0
VERTEX
  5
45
100
AcDbEntity
  8
0
370
              -2
390
0
  6
ByBlock
 62
               0
100
AcDbVertex
100
AcDb2dVertex
 10
0.25
 20
0.0
 30
0.0
 42
1.0
  0
SEQEND
  5
46
100
AcDbEntity
  8
0
390
0
  0
LINE
  5
47
100
AcDbEntity
  8
0
370
              -2
390
0
  6
ByBlock
 62
               0
100
AcDbLine
 10
-0.5
 20
0.0
 30
0.0
 11
-1.0
 21
0.0
 31
0.0
  0
ENDBLK
  5
48
100
AcDbEntity
  8
0
390
0
100
AcDbBlockEnd
  0
BLOCK
  5
4B
100
AcDbEntity
  8
0
370
              -2
390
0
  6
ByBlock
 62
               0
100
AcDbBlockBegin
  2
VW_FILLEDARROW
 70
               0
 10
0.0
 20
0.0
 30
0.0
  3
VW_FILLEDARROW
  1

  0
SOLID
  5
4C
100
AcDbEntity
  8
0
370
              -2
390
0
 62
               0
100
AcDbTrace
 10
0.0
 20
0.0
 30
0.0
 11
-0.9921874999999999
 21
-0.2658558393652545
 31
0.0
 12
-0.9921874999999999
 22
0.2658558393652548
 32
0.0
 13
-0.9921874999999999
 23
0.2658558393652548
 33
0.0
  0
ENDBLK
  5
4D
100
AcDbEntity
  8
0
390
0
100
AcDbBlockEnd
  0
BLOCK
  5
4F
100
AcDbEntity
  8
template
390
0
100
AcDbBlockBegin
  2
グループ
 70
               0
 10
0.0
 20
0.0
 30
0.0
  3
グループ
  1

  0
LWPOLYLINE
  5
50
100
AcDbEntity
  8
0
370
              15
390
0
  6
Continuous
 62
               7
100
AcDbPolyline
 90
        8
 70
             129
 10
887.42850780313495
 20
-1334.4897210236859
 10
887.42850780313495
 20
-1340.4871097172618
 10
877.92731088513165
 20
-1340.4871097172618
 10
877.92731088513165
 20
-1364.9380729807706
 10
869.57193362334885
 20
-1364.9380729807706
 10
869.57193362334885
 20
-1340.4871097172618
 10
860.23897667703943
 20
-1340.4871097172618
 10
860.23897667703943
 20
-1334.4897210236859
  0
LWPOLYLINE
  5
51
100
AcDbEntity
  8
0
370
              15
390
0
  6
Continuous
 62
               7
100
AcDbPolyline
 90
      101
 70
             128
 10
900.15679963369189
 20
-1335.2179695166224
 10
900.17214966247661
 20
-1335.2136087599374
 42
-0.0222221607814389
 10
900.46215423914805
 20
-1335.1449842946927
 10
900.47794800313659
 20
-1335.1419808715966
 42
-0.014688356558901
 10
900.74065070836582
 20
-1335.0999776846463
 42
-0.0127458844191432
 10
901.00528967551338
 20
-1335.0724407165744
 10
901.06774475383156
 20
-1335.0675472939856
 42
-0.0198099018564441
 10
901.45859386330756
 20
-1335.0524621365889
 10
901.51040533275227
 20
-1335.052515912254
 42
-0.0147617382763256
 10
902.00502879372323
 20
-1335.0676359374988
 10
902.07772024860174
 20
-1335.0720085443868
 42
-0.0162624549004459
 10
902.46787387806592
 20
-1335.108241419659
 10
902.58940626932633
 20
-1335.1235279786556
 42
-0.0080020874665018
 10
902.73498530041661
 20
-1335.1442108259239
 10
902.77330477099531
 20
-1335.1502821037323
 42
-0.0053821929678188
 10
902.84178887632652
 20
-1335.1618896275565
 10
902.11538317712791
 20
-1337.3428180832705
 42
0.0108667757379886
 10
902.0480661069995
 20
-1337.3296309680509
 10
902.01059808380751
 20
-1337.3231332254561
 42
0.0170663203312107
 10
901.86738129688922
 20
-1337.303303628164
 10
901.79950596420906
 20
-1337.2962564575769
 42
0.0220162375273221
 10
901.51912655635579
 20
-1337.2795740968068
 10
901.44127098930164
 20
-1337.2783747295402
 42
0.0282606915787125
 10
901.10563466572376
 20
-1337.2921780065094
 10
901.06172139195269
 20
-1337.296477996513
 42
0.0169677213686468
 10
900.81579689699242
 20
-1337.3290150460648
 42
0.019057626986509
 10
900.57288893441239
 20
-1337.3791619181713
 10
900.5666297463016
 20
-1337.3807048922806
 42
0.0213685642846513
 10
900.31624526182452
 20
-1337.4539051773852
 10
900.31075536690764
 20
-1337.4557681734445
 42
0.0237595297603006
 10
900.0572604820062
 20
-1337.5554526953415
 10
900.05215840797928
 20
-1337.5577444708183
 42
0.0261857468813529
 10
899.79998763175183
 20
-1337.6872808081912
 10
899.78956144266397
 20
-1337.6933462826603
 42
0.0272553062019556
 10
899.55313166742394
 20
-1337.8487184886053
 10
899.51836865391681
 20
-1337.8743796366957
 42
0.0325996893167025
 10
899.36821331026295
 20
-1338.001127509669
 10
899.34450388113964
 20
-1338.023945538182
 42
0.0138050960627193
 10
899.25262072492967
 20
-1338.1173951997334
 42
0.0125280103804705
 10
899.16577819209897
 20
-1338.2155585263304
 10
899.14209774718779
 20
-1338.2437170245209
 42
0.0205218024742443
 10
899.01699767167531
 20
-1338.4055103387484
 10
898.99453133118698
 20
-1338.437170068577
 42
0.0163110129586368
 10
898.83882095193405
 20
-1338.6725005036496
 10
898.83609705588469
 20
-1338.6769242656324
 42
0.0131897341894724
 10
898.68929653497719
 20
-1338.9300563579998
 10
898.68759643961232
 20
-1338.9331745971326
 42
0.0107895576061042
 10
898.54981973740325
 20
-1339.199389806764
 10
898.54908684787642
 20
-1339.2008840394142
 42
0.009137150721579
 10
898.42060689922846
 20
-1339.4754092371704
 10
898.39086126781785
 20
-1339.5421157443325
 42
0.0135418326352221
 10
898.21914732874495
 20
-1339.9570535296041
 10
898.18554252031254
 20
-1340.0449196718807
 42
0.0092834542407978
 10
898.01431346039089
 20
-1340.5188181701878
 10
897.988696332676
 20
-1340.5940592399731
 42
0.0054261043581338
 10
897.88105818438044
 20
-1340.9218232130465
 10
897.86353219817249
 20
-1340.9772113753731
 42
0.0008225090820895
 10
897.79486214637291
 20
-1341.1954801334257
 10
896.81017301443944
 20
-1344.2203714266823
 10
900.04279685451331
 20
-1344.2203714266823
 10
899.53860442465987
 20
-1346.1248497250347
 10
896.28254814267655
 20
-1346.1248497250347
 10
890.45339911032272
 20
-1364.9380727910395
 10
888.62830150001241
 20
-1364.9380727910395
 10
894.46297953551334
 20
-1346.1248497250347
 10
892.057863166473
 20
-1346.1248497250347
 10
892.56205559632645
 20
-1344.2203714266823
 10
894.99060440727646
 20
-1344.2203714266823
 10
895.85075932546511
 20
-1341.5839584259834
 42
-0.0005863560643635
 10
895.8874940036801
 20
-1341.467132005655
 10
895.963581837329
 20
-1341.2261397063062
 42
-0.0087522378930357
 10
896.16304998078317
 20
-1340.6308636191673
 10
896.25531425619874
 20
-1340.370723450648
 42
-0.0077400953831047
 10
896.51324791533045
 20
-1339.6777187730986
 10
896.52901288691135
 20
-1339.6372878897075
 42
-0.008236994633088
 10
896.77609735752128
 20
-1339.0332088235168
 42
-0.0085725238364974
 10
897.04334345352311
 20
-1338.4377827842318
 10
897.14497305453006
 20
-1338.2213616822478
 42
-0.0168109410594986
 10
897.43191748326149
 20
-1337.6601541561402
 10
897.55776087369566
 20
-1337.4331901231874
 42
-0.0007817726861843
 10
897.61204522377716
 20
-1337.3356458781118
 10
897.61217352980066
 20
-1337.3354161693642
 42
-0.003662614214587
 10
897.66706139381574
 20
-1337.2388182894067
 42
-0.0080221150687673
 10
897.72418564921702
 20
-1337.1435390546628
 10
897.75488560058363
 20
-1337.0941481055315
 42
-0.0202139325568761
 10
897.88254134039187
 20
-1336.9061665048482
 10
897.93660880557798
 20
-1336.8330876406094
 42
-0.0249323791796268
 10
898.1957715992985
 20
-1336.5170423984537
 10
898.21991141342414
 20
-1336.4904281255426
 42
-0.0242132121540544
 10
898.55959215496864
 20
-1336.1505446393364
 10
898.60750372771327
 20
-1336.1070355031557
 42
-0.025101752786385
 10
898.89148542835756
 20
-1335.8740427573875
 10
898.89293090516901
 20
-1335.8729734998103
 42
-0.0130868069039733
 10
899.19119155512863
 20
-1335.6641930312662
 10
899.19275337427075
 20
-1335.6631595909917
 42
-0.0290329526391854
 10
899.50386451566465
 20
-1335.4823340893618
 10
899.53371007765645
 20
-1335.4672317065192
 42
-0.0160250190045045
 10
899.79961449141524
 20
-1335.3432155963092
 42
-0.0267600374782543
 10
900.07489056888505
 20
-1335.2424672757602
 10
900.10162648840492
 20
-1335.2342747169348
 42
-0.004998158766997
 10
900.15679963369189
 20
-1335.2179695166224
 42
-0.004998158766997
  0
LWPOLYLINE
  5
52
100
AcDbEntity
  8
0
370
              15
390
0
  6
Continuous
 62
               7
100
AcDbPolyline
 90
      118
 70
             128
 10
919.9711671981388
 20
-1344.2943547545096
 10
921.84628912263827
 20
-1344.2943547545096
 10
921.00825021703838
 20
-1346.9759212809097
 42
-0.0010587229202771
 10
921.03970603268544
 20
-1346.9390167474662
 10
921.0979001232422
 20
-1346.8710344913786
 42
-0.0071874740416667
 10
921.24827534133124
 20
-1346.7003937993597
 10
921.38999811460258
 20
-1346.5441576580365
 42
-0.014811805351407
 10
921.84012740731657
 20
-1346.0765438120222
 10
921.92734974222537
 20
-1345.991146491162
 42
-0.0086273358692895
 10
922.26289854322545
 20
-1345.6737708571534
 10
922.30673225945247
 20
-1345.6337212128192
 42
-0.0103138323114137
 10
922.56475596168491
 20
-1345.407558075482
 10
922.61053036801309
 20
-1345.3690760282209
 42
-0.0060206748567951
 10
922.78337843212421
 20
-1345.2272813774675
 10
922.78540956301708
 20
-1345.2256556718307
 42
-0.0067069027294514
 10
922.9577023776726
 20
-1345.0915050380413
 10
922.960251143601
 20
-1345.0895748681642
 42
-0.0076184352048814
 10
923.13115640947001
 20
-1344.9641999929222
 42
-0.0089652861675071
 10
923.30611737220397
 20
-1344.8445667325898
 10
923.34246909234605
 20
-1344.8206555191086
 42
-0.0156916245935248
 10
923.53842858950952
 20
-1344.7003930326323
 42
-0.0023299011064183
 10
923.73869063349093
 20
-1344.5872150930904
 10
923.75407476586929
 20
-1344.5786150980266
 42
-0.0107669341486162
 10
923.98831159097404
 20
-1344.4542149646754
 10
924.01057639204555
 20
-1344.4429982147271
 42
-0.0078058045899936
 10
924.2941665099919
 20
-1344.3056367590916
 10
924.30407359770743
 20
-1344.3010276312202
 42
-0.018182933047303
 10
924.61438300232328
 20
-1344.1701638901245
 10
924.66843844488892
 20
-1344.1496487701813
 42
-0.0208411536030715
 10
925.01752341233998
 20
-1344.0335583076881
 10
925.0318795124665
 20
-1344.0294398627348
 42
-0.0222799817141246
 10
925.36059930638476
 20
-1343.9507982965943
 10
925.36948826962077
 20
-1343.9490862860093
 42
-0.0215509523884181
 10
925.68595923790144
 20
-1343.9021705974747
 10
925.72844119894853
 20
-1343.8977330706839
 42
-0.0182545924868954
 10
925.96254997825577
 20
-1343.881889245293
 10
926.00195099458756
 20
-1343.8806647002143
 42
-0.0072962856541278
 10
926.15787387429259
 20
-1343.8780953716916
 10
926.18697354484777
 20
-1343.8780405362879
 42
-0.0059227516329537
 10
926.28472304400964
 20
-1343.8790142480784
 10
926.31396526149615
 20
-1343.8796520146821
 42
-0.0011833111919505
 10
926.35321654521397
 20
-1343.8806010189917
 10
925.5578299496068
 20
-1346.4193349640907
 42
0.0143932051601806
 10
925.5314285672556
 20
-1346.4091359940453
 10
925.52415659483893
 20
-1346.4065647751881
 42
0.0234388603544543
 10
925.48232572890458
 20
-1346.3939455394723
 10
925.47364406599411
 20
-1346.3917645774677
 42
0.0199162742978899
 10
925.41335523191799
 20
-1346.3791478421333
 10
925.3925412941079
 20
-1346.3756506427042
 42
0.0293643550669081
 10
925.28946643534721
 20
-1346.3645005970509
 10
925.26478125462836
 20
-1346.3632889800324
 42
0.0214606686863549
 10
925.11164033867908
 20
-1346.3623504196148
 10
925.10226842785801
 20
-1346.3626953311591
 42
0.0167564054176356
 10
924.93074823674488
 20
-1346.3747723735275
 10
924.92228844399051
 20
-1346.3756537139543
 42
0.0137677553236569
 10
924.73493513073038
 20
-1346.4004030224971
 10
924.7275833912181
 20
-1346.4015809424659
 42
0.0118497261487937
 10
924.52708562710939
 20
-1346.4385982926565
 10
924.52093561986953
 20
-1346.4398851553751
 42
0.0106421143889685
 10
924.31005473257835
 20
-1346.4887175309514
 10
924.30514592419536
 20
-1346.489964873635
 42
0.0099746379706363
 10
924.08668745503087
 20
-1346.5501394019504
 10
924.02513941486268
 20
-1346.5684212805804
 42
0.0191613675858151
 10
923.68915495234921
 20
-1346.6823986608665
 10
923.60109517960097
 20
-1346.7160855711916
 42
0.0205274080144094
 10
923.21578840770098
 20
-1346.881913979018
 10
923.1581391257248
 20
-1346.9095819435875
 42
0.0181256912189605
 10
922.89986218505192
 20
-1347.0452657625683
 10
922.84690680173765
 20
-1347.0755833757833
 42
0.014070924241069
 10
922.70195186710953
 20
-1347.1640780492173
 10
922.67570299848899
 20
-1347.1811348679341
 42
0.008666788439899
 10
922.5867768369485
 20
-1347.2411375358156
 42
0.0036408192012974
 10
922.49934359891677
 20
-1347.3033183936068
 10
922.46411672444651
 20
-1347.3287593395207
 42
0.005226078127916
 10
922.30788802705467
 20
-1347.4440917261556
 10
922.29168117079598
 20
-1347.4563198367732
 42
0.0050024435900938
 10
922.10567782774467
 20
-1347.5996024050294
 10
922.0903596712219
 20
-1347.6116484274812
 42
0.0136138710277877
 10
921.87991840289681
 20
-1347.7866149323943
 10
921.84625052710294
 20
-1347.8161939051088
 42
0.0172815186917942
 10
921.58184698543982
 20
-1348.0651905777329
 10
921.57928463959797
 20
-1348.0677763948793
 42
0.0189403857995799
 10
921.32870284101955
 20
-1348.3405816596826
 10
921.29607134748028
 20
-1348.3789255911836
 42
0.0185044199506627
 10
921.10411490850277
 20
-1348.6221741723034
 42
0.0088565243897823
 10
920.92565480187409
 20
-1348.875690592454
 10
920.91647682222583
 20
-1348.8892319722136
 42
0.0157195347234979
 10
920.7332562158881
 20
-1349.1787541815354
 10
920.68717327395666
 20
-1349.256906378557
 42
0.0095451879779313
 10
920.52208772382323
 20
-1349.5495010209065
 10
920.51093980489543
 20
-1349.570171693035
 42
0.0100351706253985
 10
920.37889605573423
 20
-1349.8272272535294
 42
0.0086935915426866
 10
920.25656490393555
 20
-1350.0890603989444
 10
920.25324416252579
 20
-1350.0965027219056
 42
0.007258017486469
 10
920.13289771057691
 20
-1350.3770947134979
 10
920.12963607727443
 20
-1350.3850147395065
 42
0.0060005122616368
 10
920.01043540893124
 20
-1350.6846244101134
 10
920.00722443059021
 20
-1350.6929859380166
 42
0.0049017786977921
 10
919.88832427173111
 20
-1351.0119149186253
 10
919.88515846534233
 20
-1351.0206678558511
 42
0.0039415167596931
 10
919.76572218728631
 20
-1351.3592099182622
 10
919.76259108463341
 20
-1351.3683131191406
 42
0.0031035838762393
 10
919.64178629894718
 20
-1351.7267529808937
 10
919.63867625441003
 20
-1351.736173602289
 42
0.0025070747151103
 10
919.51577490310137
 20
-1352.1148208192114
 10
919.4784810066692
 20
-1352.2317124844858
 42
0.0029081910281924
 10
919.28646270885008
 20
-1352.8458761428044
 10
919.24565954034142
 20
-1352.9790993850534
 42
0.0009266453732864
 10
918.9772421660025
 20
-1353.8613238450566
 10
918.95635469339061
 20
-1353.9304357241977
 42
-0.0005809993666308
 10
918.67901801279493
 20
-1354.8442438308516
 10
918.61273621452028
 20
-1355.0617287630168
 42
-0.0012018708170168
 10
918.4657519050927
 20
-1355.539891427532
 10
918.41343205352052
 20
-1355.708650568419
 42
-0.0002691059608456
 10
918.36986257235867
 20
-1355.8489181887398
 10
915.53690667406943
 20
-1364.9380727910395
 10
913.7189177820909
 20
-1364.9380727910395
 10
919.9711671981388
 20
-1344.2943547545096
  0
SPLINE
  5
53
100
AcDbEntity
  8
0
370
              15
390
0
  6
Continuous
 62
               7
100
AcDbSpline
210
0.0
220
0.0
230
1.0
 70
              13
 71
               2
 72
             782
 73
             779
 74
               0
 42
0.000001
 43
0.000001
 40
0.0
 40
0.0
 40
0.0
 40
1.0
 40
1.0
 40
2.0
 40
2.0
 40
3.0
 40
3.0
 40
4.0
 40
4.0
 40
5.0
 40
5.0
 40
6.0
 40
6.0
 40
7.0
 40
7.0
 40
8.0
 40
8.0
 40
9.0
 40
9.0
 40
10.0
 40
10.0
 40
11.0
 40
11.0
 40
12.0
 40
12.0
 40
13.0
 40
13.0
 40
14.0
 40
14.0
 40
15.0
 40
15.0
 40
16.0
 40
16.0
 40
17.0
 40
17.0
 40
18.0
 40
18.0
 40
19.0
 40
19.0
 40
20.0
 40
20.0
 40
21.0
 40
21.0
 40
22.0
 40
22.0
 40
23.0
 40
23.0
 40
24.0
 40
24.0
 40
25.0
 40
25.0
 40
26.0
 40
26.0
 40
27.0
 40
27.0
 40
28.0
 40
28.0
 40
29.0
 40
29.0
 40
30.0
 40
30.0
 40
31.0
 40
31.0
 40
32.0
 40
32.0
 40
33.0
 40
33.0
 40
34.0
 40
34.0
 40
35.0
 40
35.0
 40
36.0
 40
36.0
 40
37.0
 40
37.0
 40
38.0
 40
38.0
 40
39.0
 40
39.0
 40
40.0
 40
40.0
 40
41.0
 40
41.0
 40
42.0
 40
42.0
 40
43.0
 40
43.0
 40
44.0
 40
44.0
 40
45.0
 40
45.0
 40
46.0
 40
46.0
 40
47.0
 40
47.0
 40
48.0
 40
48.0
 40
49.0
 40
49.0
 40
50.0
 40
50.0
 40
51.0
 40
51.0
 40
52.0
 40
52.0
 40
53.0
 40
53.0
 40
54.0
 40
54.0
 40
55.0
 40
55.0
 40
56.0
 40
56.0
 40
57.0
 40
57.0
 40
58.0
 40
58.0
 40
59.0
 40
59.0
 40
60.0
 40
60.0
 40
61.0
 40
61.0
 40
62.0
 40
62.0
 40
63.0
 40
63.0
 40
64.0
 40
64.0
 40
65.0
 40
65.0
 40
66.0
 40
66.0
 40
67.0
 40
67.0
 40
68.0
 40
68.0
 40
69.0
 40
69.0
 40
70.0
 40
70.0
 40
71.0
 40
71.0
 40
72.0
 40
72.0
 40
73.0
 40
73.0
 40
74.0
 40
74.0
 40
75.0
 40
75.0
 40
76.0
 40
76.0
 40
77.0
 40
77.0
 40
78.0
 40
78.0
 40
79.0
 40
79.0
 40
80.0
 40
80.0
 40
81.0
 40
81.0
 40
82.0
 40
82.0
 40
83.0
 40
83.0
 40
84.0
 40
84.0
 40
85.0
 40
85.0
 40
86.0
 40
86.0
 40
87.0
 40
87.0
 40
88.0
 40
88.0
 40
89.0
 40
89.0
 40
90.0
 40
90.0
 40
91.0
 40
91.0
 40
92.0
 40
92.0
 40
93.0
 40
93.0
 40
94.0
 40
94.0
 40
95.0
 40
95.0
 40
96.0
 40
96.0
 40
97.0
 40
97.0
 40
98.0
 40
98.0
 40
99.0
 40
99.0
 40
100.0
 40
100.0
 40
101.0
 40
101.0
 40
102.0
 40
102.0
 40
103.0
 40
103.0
 40
104.0
 40
104.0
 40
105.0
 40
105.0
 40
106.0
 40
106.0
 40
107.0
 40
107.0
 40
108.0
 40
108.0
 40
109.0
 40
109.0
 40
110.0
 40
110.0
 40
111.0
 40
111.0
 40
112.0
 40
112.0
 40
113.0
 40
113.0
 40
114.0
 40
114.0
 40
115.0
 40
115.0
 40
116.0
 40
116.0
 40
117.0
 40
117.0
 40
118.0
 40
118.0
 40
119.0
 40
119.0
 40
120.0
 40
120.0
 40
121.0
 40
121.0
 40
122.0
 40
122.0
 40
123.0
 40
123.0
 40
124.0
 40
124.0
 40
125.0
 40
125.0
 40
126.0
 40
126.0
 40
127.0
 40
127.0
 40
128.0
 40
128.0
 40
129.0
 40
129.0
 40
130.0
 40
130.0
 40
131.0
 40
131.0
 40
132.0
 40
132.0
 40
133.0
 40
133.0
 40
134.0
 40
134.0
 40
135.0
 40
135.0
 40
136.0
 40
136.0
 40
137.0
 40
137.0
 40
138.0
 40
138.0
 40
139.0
 40
139.0
 40
140.0
 40
140.0
 40
141.0
 40
141.0
 40
142.0
 40
142.0
 40
143.0
 40
143.0
 40
144.0
 40
144.0
 40
145.0
 40
145.0
 40
146.0
 40
146.0
 40
147.0
 40
147.0
 40
148.0
 40
148.0
 40
149.0
 40
149.0
 40
150.0
 40
150.0
 40
151.0
 40
151.0
 40
152.0
 40
152.0
 40
153.0
 40
153.0
 40
154.0
 40
154.0
 40
155.0
 40
155.0
 40
156.0
 40
156.0
 40
157.0
 40
157.0
 40
158.0
 40
158.0
 40
159.0
 40
159.0
 40
160.0
 40
160.0
 40
161.0
 40
161.0
 40
162.0
 40
162.0
 40
163.0
 40
163.0
 40
164.0
 40
164.0
 40
165.0
 40
165.0
 40
166.0
 40
166.0
 40
167.0
 40
167.0
 40
168.0
 40
168.0
 40
169.0
 40
169.0
 40
170.0
 40
170.0
 40
171.0
 40
171.0
 40
172.0
 40
172.0
 40
173.0
 40
173.0
 40
174.0
 40
174.0
 40
175.0
 40
175.0
 40
176.0
 40
176.0
 40
177.0
 40
177.0
 40
178.0
 40
178.0
 40
179.0
 40
179.0
 40
180.0
 40
180.0
 40
181.0
 40
181.0
 40
182.0
 40
182.0
 40
183.0
 40
183.0
 40
184.0
 40
184.0
 40
185.0
 40
185.0
 40
186.0
 40
186.0
 40
187.0
 40
187.0
 40
188.0
 40
188.0
 40
189.0
 40
189.0
 40
190.0
 40
190.0
 40
191.0
 40
191.0
 40
192.0
 40
192.0
 40
193.0
 40
193.0
 40
194.0
 40
194.0
 40
195.0
 40
195.0
 40
196.0
 40
196.0
 40
197.0
 40
197.0
 40
198.0
 40
198.0
 40
199.0
 40
199.0
 40
200.0
 40
200.0
 40
201.0
 40
201.0
 40
202.0
 40
202.0
 40
203.0
 40
203.0
 40
204.0
 40
204.0
 40
205.0
 40
205.0
 40
206.0
 40
206.0
 40
207.0
 40
207.0
 40
208.0
 40
208.0
 40
209.0
 40
209.0
 40
210.0
 40
210.0
 40
211.0
 40
211.0
 40
212.0
 40
212.0
 40
213.0
 40
213.0
 40
214.0
 40
214.0
 40
215.0
 40
215.0
 40
216.0
 40
216.0
 40
217.0
 40
217.0
 40
218.0
 40
218.0
 40
219.0
 40
219.0
 40
220.0
 40
220.0
 40
221.0
 40
221.0
 40
222.0
 40
222.0
 40
223.0
 40
223.0
 40
224.0
 40
224.0
 40
225.0
 40
225.0
 40
226.0
 40
226.0
 40
227.0
 40
227.0
 40
228.0
 40
228.0
 40
229.0
 40
229.0
 40
230.0
 40
230.0
 40
231.0
 40
231.0
 40
232.0
 40
232.0
 40
233.0
 40
233.0
 40
234.0
 40
234.0
 40
235.0
 40
235.0
 40
236.0
 40
236.0
 40
237.0
 40
237.0
 40
238.0
 40
238.0
 40
239.0
 40
239.0
 40
240.0
 40
240.0
 40
241.0
 40
241.0
 40
242.0
 40
242.0
 40
243.0
 40
243.0
 40
244.0
 40
244.0
 40
245.0
 40
245.0
 40
246.0
 40
246.0
 40
247.0
 40
247.0
 40
248.0
 40
248.0
 40
249.0
 40
249.0
 40
250.0
 40
250.0
 40
251.0
 40
251.0
 40
252.0
 40
252.0
 40
253.0
 40
253.0
 40
254.0
 40
254.0
 40
255.0
 40
255.0
 40
256.0
 40
256.0
 40
257.0
 40
257.0
 40
258.0
 40
258.0
 40
259.0
 40
259.0
 40
260.0
 40
260.0
 40
261.0
 40
261.0
 40
262.0
 40
262.0
 40
263.0
 40
263.0
 40
264.0
 40
264.0
 40
265.0
 40
265.0
 40
266.0
 40
266.0
 40
267.0
 40
267.0
 40
268.0
 40
268.0
 40
269.0
 40
269.0
 40
270.0
 40
270.0
 40
271.0
 40
271.0
 40
272.0
 40
272.0
 40
273.0
 40
273.0
 40
274.0
 40
274.0
 40
275.0
 40
275.0
 40
276.0
 40
276.0
 40
277.0
 40
277.0
 40
278.0
 40
278.0
 40
279.0
 40
279.0
 40
280.0
 40
280.0
 40
281.0
 40
281.0
 40
282.0
 40
282.0
 40
283.0
 40
283.0
 40
284.0
 40
284.0
 40
285.0
 40
285.0
 40
286.0
 40
286.0
 40
287.0
 40
287.0
 40
288.0
 40
288.0
 40
289.0
 40
289.0
 40
290.0
 40
290.0
 40
291.0
 40
291.0
 40
292.0
 40
292.0
 40
293.0
 40
293.0
 40
294.0
 40
294.0
 40
295.0
 40
295.0
 40
296.0
 40
296.0
 40
297.0
 40
297.0
 40
298.0
 40
298.0
 40
299.0
 40
299.0
 40
300.0
 40
300.0
 40
301.0
 40
301.0
 40
302.0
 40
302.0
 40
303.0
 40
303.0
 40
304.0
 40
304.0
 40
305.0
 40
305.0
 40
306.0
 40
306.0
 40
307.0
 40
307.0
 40
308.0
 40
308.0
 40
309.0
 40
309.0
 40
310.0
 40
310.0
 40
311.0
 40
311.0
 40
312.0
 40
312.0
 40
313.0
 40
313.0
 40
314.0
 40
314.0
 40
315.0
 40
315.0
 40
316.0
 40
316.0
 40
317.0
 40
317.0
 40
318.0
 40
318.0
 40
319.0
 40
319.0
 40
320.0
 40
320.0
 40
321.0
 40
321.0
 40
322.0
 40
322.0
 40
323.0
 40
323.0
 40
324.0
 40
324.0
 40
325.0
 40
325.0
 40
326.0
 40
326.0
 40
327.0
 40
327.0
 40
328.0
 40
328.0
 40
329.0
 40
329.0
 40
330.0
 40
330.0
 40
331.0
 40
331.0
 40
332.0
 40
332.0
 40
333.0
 40
333.0
 40
334.0
 40
334.0
 40
335.0
 40
335.0
 40
336.0
 40
336.0
 40
337.0
 40
337.0
 40
338.0
 40
338.0
 40
339.0
 40
339.0
 40
340.0
 40
340.0
 40
341.0
 40
341.0
 40
342.0
 40
342.0
 40
343.0
 40
343.0
 40
344.0
 40
344.0
 40
345.0
 40
345.0
 40
346.0
 40
346.0
 40
347.0
 40
347.0
 40
348.0
 40
348.0
 40
349.0
 40
349.0
 40
350.0
 40
350.0
 40
351.0
 40
351.0
 40
352.0
 40
352.0
 40
353.0
 40
353.0
 40
354.0
 40
354.0
 40
355.0
 40
355.0
 40
356.0
 40
356.0
 40
357.0
 40
357.0
 40
358.0
 40
358.0
 40
359.0
 40
359.0
 40
360.0
 40
360.0
 40
361.0
 40
361.0
 40
362.0
 40
362.0
 40
363.0
 40
363.0
 40
364.0
 40
364.0
 40
365.0
 40
365.0
 40
366.0
 40
366.0
 40
367.0
 40
367.0
 40
368.0
 40
368.0
 40
369.0
 40
369.0
 40
370.0
 40
370.0
 40
371.0
 40
371.0
 40
372.0
 40
372.0
 40
373.0
 40
373.0
 40
374.0
 40
374.0
 40
375.0
 40
375.0
 40
376.0
 40
376.0
 40
377.0
 40
377.0
 40
378.0
 40
378.0
 40
379.0
 40
379.0
 40
380.0
 40
380.0
 40
381.0
 40
381.0
 40
382.0
 40
382.0
 40
383.0
 40
383.0
 40
384.0
 40
384.0
 40
385.0
 40
385.0
 40
386.0
 40
386.0
 40
387.0
 40
387.0
 40
388.0
 40
388.0
 40
389.0
 40
389.0
 40
389.0
 10
930.29987164887143
 20
-1344.2834283911473
 30
0.0
 41
1.0
 10
931.11829575759191
 20
-1344.2834283911473
 30
0.0
 41
1.0
 10
931.93671986631239
 20
-1344.2834283911473
 30
0.0
 41
1.0
 10
931.52296613079557
 20
-1345.626054655397
 30
0.0
 41
1.0
 10
931.10921239527886
 20
-1346.9686809196467
 30
0.0
 41
1.0
 10
931.12755189046129
 20
-1346.939980146713
 30
0.0
 41
0.999995726436125
 10
931.14605888729011
 20
-1346.911387096565
 30
0.0
 41
1.0
 10
931.17648821142109
 20
-1346.8643742181989
 30
0.0
 41
1.0
 10
931.20691753555207
 20
-1346.8173613398328
 30
0.0
 41
1.0
 10
931.28628318066103
 20
-1346.6947425329256
 30
0.0
 41
0.9995394069081774
 10
931.3729415722164
 20
-1346.5771644711792
 30
0.0
 41
1.0
 10
931.40869843447535
 20
-1346.5286495785867
 30
0.0
 41
1.0
 10
931.44445529673442
 20
-1346.4801346859945
 30
0.0
 41
1.0
 10
931.57818196455025
 20
-1346.2986944108711
 30
0.0
 41
0.9994460617143419
 10
931.72368244583583
 20
-1346.1265520132242
 30
0.0
 41
1.0
 10
931.72807062681068
 20
-1346.1213603328417
 30
0.0
 41
1.0
 10
931.73245880778563
 20
-1346.1161686524592
 30
0.0
 41
1.0
 10
931.86918292712357
 20
-1345.9544096155748
 30
0.0
 41
0.9994359394934563
 10
932.01645715747509
 20
-1345.8021934144101
 30
0.0
 41
1.0
 10
932.01884051142918
 20
-1345.7997300840361
 30
0.0
 41
1.0
 10
932.02122386538326
 20
-1345.7972667536621
 30
0.0
 41
1.0
 10
932.16373138782581
 20
-1345.6499772132463
 30
0.0
 41
0.9995293688567597
 10
932.31500306880878
 20
-1345.5117040010814
 30
0.0
 41
1.0
 10
932.33429682807036
 20
-1345.4940681154317
 30
0.0
 41
1.0
 10
932.35359058733195
 20
-1345.4764322297822
 30
0.0
 41
1.0
 10
932.46627474978857
 20
-1345.3734307889192
 30
0.0
 41
0.999708761480349
 10
932.58379763874586
 20
-1345.2759865081193
 30
0.0
 41
1.0
 10
932.60296371191725
 20
-1345.2600949296148
 30
0.0
 41
1.0
 10
932.62212978508853
 20
-1345.2442033511104
 30
0.0
 41
1.0
 10
932.70132052769975
 20
-1345.1785422273224
 30
0.0
 41
0.9999595338695004
 10
932.78167979855607
 20
-1345.1143164966666
 30
0.0
 41
1.0
 10
932.86203906942421
 20
-1345.0500907660014
 30
0.0
 41
0.9999749417507047
 10
932.94329960377479
 20
-1344.9870092120495
 30
0.0
 41
1.0
 10
932.96428574992956
 20
-1344.9707179247539
 30
0.0
 41
1.0
 10
932.98527189608433
 20
-1344.9544266374583
 30
0.0
 41
1.0
 10
933.06983978138896
 20
-1344.8887776276151
 30
0.0
 41
0.9999792037115467
 10
933.1552473811571
 20
-1344.8242248459724
 30
0.0
 41
1.0
 10
933.17607220705645
 20
-1344.8084850237237
 30
0.0
 41
1.0
 10
933.19689703295592
 20
-1344.7927452014753
 30
0.0
 41
1.0
 10
933.24065498091147
 20
-1344.7596720643403
 30
0.0
 41
0.9999993374285462
 10
933.28433666706985
 20
-1344.7264982689048
 30
0.0
 41
1.0
 10
933.32801835321698
 20
-1344.693324473478
 30
0.0
 41
0.9999160953814344
 10
933.37254476414455
 20
-1344.6612934082739
 30
0.0
 41
1.0
 10
933.4053666515581
 20
-1344.6376822526931
 30
0.0
 41
1.0
 10
933.43818853897164
 20
-1344.6140710971126
 30
0.0
 41
1.0
 10
933.54835872473018
 20
-1344.5348177207447
 30
0.0
 41
0.998096452723184
 10
933.66744771823096
 20
-1344.4697302478887
 30
0.0
 41
1.0
 10
933.7044803251581
 20
-1344.4494902682959
 30
0.0
 41
1.0
 10
933.74151293208524
 20
-1344.4292502887033
 30
0.0
 41
1.0
 10
933.92083994535915
 20
-1344.3312400380019
 30
0.0
 41
0.9984572810573152
 10
934.10992851171886
 20
-1344.2537177766549
 30
0.0
 41
1.0
 10
934.11357478111586
 20
-1344.2522228843163
 30
0.0
 41
1.0
 10
934.11722105051297
 20
-1344.250727991978
 30
0.0
 41
1.0
 10
934.29901707807869
 20
-1344.1761955153083
 30
0.0
 41
0.9987838528034364
 10
934.48726973663702
 20
-1344.1199298751428
 30
0.0
 41
1.0
 10
934.49150768583581
 20
-1344.1186632214526
 30
0.0
 41
1.0
 10
934.49574563503461
 20
-1344.1173965677624
 30
0.0
 41
1.0
 10
934.67552239519637
 20
-1344.0636642349771
 30
0.0
 41
0.9990652816207188
 10
934.85926832691212
 20
-1344.025660555435
 30
0.0
 41
1.0
 10
934.86445672794298
 20
-1344.0245874523287
 30
0.0
 41
1.0
 10
934.86964512897373
 20
-1344.0235143492223
 30
0.0
 41
1.0
 10
935.04301425862786
 20
-1343.987656875893
 30
0.0
 41
0.9992909934270196
 10
935.21859002508631
 20
-1343.9649464434265
 30
0.0
 41
1.0
 10
935.39416579154613
 20
-1343.94223601096
 30
0.0
 41
0.9994553539448672
 10
935.57085722464137
 20
-1343.9311567067534
 30
0.0
 41
1.0
 10
935.60629163243527
 20
-1343.9289348187058
 30
0.0
 41
1.0
 10
935.64172604022917
 20
-1343.9267129306581
 30
0.0
 41
1.0
 10
935.8079518067982
 20
-1343.9162898682464
 30
0.0
 41
0.9990928098292439
 10
935.97446159870105
 20
-1343.920049509481
 30
0.0
 41
1.0
 10
936.01302343397379
 20
-1343.920920201014
 30
0.0
 41
1.0
 10
936.05158526924663
 20
-1343.9217908925471
 30
0.0
 41
1.0
 10
936.1409713906047
 20
-1343.9238091507154
 30
0.0
 41
0.9998382089205787
 10
936.23022707338998
 20
-1343.9290412772434
 30
0.0
 41
1.0
 10
936.23065697961385
 20
-1343.9290664781461
 30
0.0
 41
1.0
 10
936.23108688583773
 20
-1343.9290916790485
 30
0.0
 41
1.0
 10
936.31948275618004
 20
-1343.9342734037721
 30
0.0
 41
0.9997558016759194
 10
936.40756333337697
 20
-1343.943355919138
 30
0.0
 41
1.0
 10
936.40803947180495
 20
-1343.9434050166203
 30
0.0
 41
1.0
 10
936.40851561023294
 20
-1343.9434541141027
 30
0.0
 41
1.0
 10
936.49564391057584
 20
-1343.9524384345043
 30
0.0
 41
0.9996565144181573
 10
936.58218176391983
 20
-1343.9659757411937
 30
0.0
 41
1.0
 10
936.5826476892953
 20
-1343.9660486269247
 30
0.0
 41
1.0
 10
936.58311361467076
 20
-1343.9661215126557
 30
0.0
 41
1.0
 10
936.66871961725974
 20
-1343.9795130478822
 30
0.0
 41
0.9995321806866886
 10
936.7533466975899
 20
-1343.9981135363118
 30
0.0
 41
1.0
 10
936.75373589216406
 20
-1343.9981990787783
 30
0.0
 41
1.0
 10
936.75412508673833
 20
-1343.9982846212447
 30
0.0
 41
1.0
 10
936.83797377792018
 20
-1344.0167140247418
 30
0.0
 41
0.9993819199219515
 10
936.92032031211409
 20
-1344.0409894080017
 30
0.0
 41
1.0
 10
936.92055874561424
 20
-1344.0410596971117
 30
0.0
 41
1.0
 10
936.9207971791144
 20
-1344.0411299862217
 30
0.0
 41
1.0
 10
937.00266684631185
 20
-1344.065264791263
 30
0.0
 41
0.9992088568505919
 10
937.08235936529854
 20
-1344.0958300270568
 30
0.0
 41
1.0
 10
937.16204035617773
 20
-1344.1263896277901
 30
0.0
 41
0.9990226101773307
 10
937.23871102608473
 20
-1344.1638670594048
 30
0.0
 41
1.0
 10
937.3153701678832
 20
-1344.2013388559581
 30
0.0
 41
0.998842427397222
 10
937.38807379509558
 20
-1344.2460036312111
 30
0.0
 41
1.0
 10
937.38834150347475
 20
-1344.2461680952833
 30
0.0
 41
1.0
 10
937.3886092118538
 20
-1344.2463325593553
 30
0.0
 41
1.0
 10
937.46184825582463
 20
-1344.2913262627526
 30
0.0
 41
0.9986928844491484
 10
937.53011112253375
 20
-1344.3435619970317
 30
0.0
 41
1.0
 10
937.53069241475691
 20
-1344.34400681026
 30
0.0
 41
1.0
 10
937.53127370698007
 20
-1344.3444516234881
 30
0.0
 41
1.0
 10
937.60069915813642
 20
-1344.3975769842245
 30
0.0
 41
0.9986007262279185
 10
937.66412532790298
 20
-1344.4577377539179
 30
0.0
 41
1.0
 10
937.66501974335972
 20
-1344.4585861217524
 30
0.0
 41
1.0
 10
937.66591415881646
 20
-1344.4594344895872
 30
0.0
 41
1.0
 10
937.73112915949787
 20
-1344.5212919949513
 30
0.0
 41
0.9985581491381947
 10
937.78933677119926
 20
-1344.5897844852225
 30
0.0
 41
1.0
 10
937.79859522479512
 20
-1344.6006788429243
 30
0.0
 41
1.0
 10
937.80785367839098
 20
-1344.611573200626
 30
0.0
 41
1.0
 10
937.88457819728399
 20
-1344.7018544063005
 30
0.0
 41
0.9970460233519797
 10
937.94657009844309
 20
-1344.8028214904821
 30
0.0
 41
1.0
 10
937.96103946352355
 20
-1344.8263879495648
 30
0.0
 41
1.0
 10
937.97550882860412
 20
-1344.8499544086478
 30
0.0
 41
1.0
 10
938.01524552861554
 20
-1344.9146741326786
 30
0.0
 41
0.9988468816636714
 10
938.04859189936644
 20
-1344.9829065851047
 30
0.0
 41
1.0
 10
938.05562792185674
 20
-1344.9973035062399
 30
0.0
 41
1.0
 10
938.06266394434715
 20
-1345.011700427375
 30
0.0
 41
1.0
 10
938.08193827011667
 20
-1345.0511390375298
 30
0.0
 41
0.999843118999777
 10
938.09980359761289
 20
-1345.0912355919731
 30
0.0
 41
1.0
 10
938.11766892512628
 20
-1345.1313321464552
 30
0.0
 41
0.9999989990105004
 10
938.13564764854038
 20
-1345.1713779840209
 30
0.0
 41
1.0
 10
938.1418199601294
 20
-1345.1851262008217
 30
0.0
 41
1.0
 10
938.14799227171841
 20
-1345.1988744176228
 30
0.0
 41
1.0
 10
938.17831561832782
 20
-1345.2664166888294
 30
0.0
 41
0.9998790356322647
 10
938.20652349846489
 20
-1345.3348694407646
 30
0.0
 41
1.0
 10
938.21335867975017
 20
-1345.3514565421942
 30
0.0
 41
1.0
 10
938.22019386103545
 20
-1345.3680436436239
 30
0.0
 41
1.0
 10
938.24375152341588
 20
-1345.4252115985093
 30
0.0
 41
0.9998227574560143
 10
938.26514027180508
 20
-1345.4832259067871
 30
0.0
 41
1.0
 10
938.28652902019417
 20
-1345.5412402150639
 30
0.0
 41
0.9996797971041781
 10
938.30495530515338
 20
-1345.6002623341817
 30
0.0
 41
1.0
 10
938.30885910787902
 20
-1345.6127667923511
 30
0.0
 41
1.0
 10
938.31276291060476
 20
-1345.6252712505204
 30
0.0
 41
1.0
 10
938.33899680101524
 20
-1345.7093022859769
 30
0.0
 41
0.9979274938734055
 10
938.35422132449435
 20
-1345.7960066446378
 30
0.0
 41
1.0
 10
938.3564450117558
 20
-1345.8086706454601
 30
0.0
 41
1.0
 10
938.35866869901713
 20
-1345.8213346462824
 30
0.0
 41
1.0
 10
938.36959863871471
 20
-1345.8835811535691
 30
0.0
 41
0.9994985982138432
 10
938.37656680389182
 20
-1345.9463946547112
 30
0.0
 41
1.0
 10
938.38353496906893
 20
-1346.0092081558562
 30
0.0
 41
0.9996372611201759
 10
938.38711083483656
 20
-1346.0723057345381
 30
0.0
 41
1.0
 10
938.38727941232582
 20
-1346.0752803516189
 30
0.0
 41
1.0
 10
938.38744798981509
 20
-1346.0782549686999
 30
0.0
 41
1.0
 10
938.39136101056158
 20
-1346.1473017815479
 30
0.0
 41
0.9997730630735318
 10
938.39232932404968
 20
-1346.2164526055835
 30
0.0
 41
1.0
 10
938.3923864304677
 20
-1346.2205307847237
 30
0.0
 41
1.0
 10
938.39244353688582
 20
-1346.2246089638638
 30
0.0
 41
1.0
 10
938.39352606321006
 20
-1346.3019161461855
 30
0.0
 41
0.9998772614069608
 10
938.39218597647823
 20
-1346.3792192927531
 30
0.0
 41
1.0
 10
938.39209671327956
 20
-1346.3843684565845
 30
0.0
 41
1.0
 10
938.39200745008088
 20
-1346.389517620416
 30
0.0
 41
1.0
 10
938.39048883695125
 20
-1346.4771190946574
 30
0.0
 41
0.9999415567325762
 10
938.38707652670553
 20
-1346.5646672563289
 30
0.0
 41
1.0
 10
938.38683520603036
 20
-1346.5708587160643
 30
0.0
 41
1.0
 10
938.38659388535507
 20
-1346.5770501758
 30
0.0
 41
1.0
 10
938.38269893375866
 20
-1346.6769812569437
 30
0.0
 41
0.9999716810426161
 10
938.37730035064055
 20
-1346.7768423951647
 30
0.0
 41
1.0
 10
938.37408755185174
 20
-1346.836271644823
 30
0.0
 41
1.0
 10
938.37087475306294
 20
-1346.8957008944813
 30
0.0
 41
1.0
 10
938.36280084391024
 20
-1347.0450492957677
 30
0.0
 41
0.999981912989675
 10
938.35293105229312
 20
-1347.1942897734855
 30
0.0
 41
1.0
 10
938.34306126067645
 20
-1347.3435302511969
 30
0.0
 41
1.0
 10
938.34062194011256
 20
-1347.3807232970462
 30
0.0
 41
1.0
 10
938.36332017393113
 20
-1347.3419822997375
 30
0.0
 41
0.999998212822879
 10
938.38616473271077
 20
-1347.3033274057386
 30
0.0
 41
1.0
 10
938.41307429258973
 20
-1347.2577941916934
 30
0.0
 41
1.0
 10
938.43998385246869
 20
-1347.2122609776482
 30
0.0
 41
1.0
 10
938.51664753099703
 20
-1347.0825396555745
 30
0.0
 41
0.9998609190058567
 10
938.59759484386268
 20
-1346.955447273639
 30
0.0
 41
1.0
 10
938.62724316534263
 20
-1346.9088975406848
 30
0.0
 41
1.0
 10
938.65689148682247
 20
-1346.8623478077304
 30
0.0
 41
1.0
 10
938.73916370705683
 20
-1346.7331752377395
 30
0.0
 41
0.9999067609732076
 10
938.82493271652083
 20
-1346.6062975482982
 30
0.0
 41
1.0
 10
938.82733741972061
 20
-1346.6027402822451
 30
0.0
 41
1.0
 10
938.82974212292049
 20
-1346.5991830161918
 30
0.0
 41
1.0
 10
938.91070172598495
 20
-1346.479419858857
 30
0.0
 41
0.9998784952149997
 10
938.99535533566632
 20
-1346.3622386421484
 30
0.0
 41
1.0
 10
939.08000894535144
 20
-1346.2450574254347
 30
0.0
 41
0.9998532968284364
 10
939.16862656617764
 20
-1346.1308445169598
 30
0.0
 41
1.0
 10
939.18858835516448
 20
-1346.1051171959452
 30
0.0
 41
1.0
 10
939.20855014415145
 20
-1346.0793898749305
 30
0.0
 41
1.0
 10
939.32703419390998
 20
-1345.926684263962
 30
0.0
 41
0.9991551975795265
 10
939.45765864353484
 20
-1345.7842247018768
 30
0.0
 41
1.0
 10
939.4611682595139
 20
-1345.7803971002534
 30
0.0
 41
1.0
 10
939.46467787549284
 20
-1345.7765694986299
 30
0.0
 41
1.0
 10
939.58828309315606
 20
-1345.6417651397956
 30
0.0
 41
0.9997418144181464
 10
939.71788523285909
 20
-1345.5127157291809
 30
0.0
 41
1.0
 10
939.84748737256007
 20
-1345.383666318568
 30
0.0
 41
0.998923820463312
 10
939.98848992081162
 20
-1345.2671813565287
 30
0.0
 41
1.0
 10
940.03373759894907
 20
-1345.2298013649215
 30
0.0
 41
1.0
 10
940.07898527708664
 20
-1345.1924213733143
 30
0.0
 41
1.0
 10
940.2192253343095
 20
-1345.0765663200223
 30
0.0
 41
0.9990825084096822
 10
940.36886526691512
 20
-1344.973137322188
 30
0.0
 41
1.0
 10
940.37891063097436
 20
-1344.9661941091067
 30
0.0
 41
1.0
 10
940.3889559950336
 20
-1344.9592508960257
 30
0.0
 41
1.0
 10
940.51850519952313
 20
-1344.8697083243526
 30
0.0
 41
0.9998164899826622
 10
940.65138940289535
 20
-1344.7851940828386
 30
0.0
 41
1.0
 10
940.66323496341772
 20
-1344.7776603163152
 30
0.0
 41
1.0
 10
940.6750805239401
 20
-1344.7701265497919
 30
0.0
 41
1.0
 10
940.78427360626813
 20
-1344.7006798413245
 30
0.0
 41
0.9997473449130655
 10
940.8964775635211
 20
-1344.6362108835067
 30
0.0
 41
1.0
 10
941.00868152076873
 20
-1344.5717419256919
 30
0.0
 41
0.999932786114214
 10
941.12235013153565
 20
-1344.5098919340085
 30
0.0
 41
1.0
 10
941.12290213409551
 20
-1344.50959157533
 30
0.0
 41
1.0
 10
941.12345413665537
 20
-1344.5092912166513
 30
0.0
 41
1.0
 10
941.23822675253791
 20
-1344.4468405076127
 30
0.0
 41
0.9996956420484697
 10
941.35594007837722
 20
-1344.3901270406382
 30
0.0
 41
1.0
 10
941.38638048327243
 20
-1344.3754610639071
 30
0.0
 41
1.0
 10
941.41682088816754
 20
-1344.360795087176
 30
0.0
 41
1.0
 10
941.51979799491164
 20
-1344.3111814287324
 30
0.0
 41
0.9998070570177148
 10
941.62464438385064
 20
-1344.2656508418322
 30
0.0
 41
1.0
 10
941.7294907727894
 20
-1344.2201202549322
 30
0.0
 41
0.9997827436146898
 10
941.83614370939677
 20
-1344.1789990836212
 30
0.0
 41
1.0
 10
941.85536655903047
 20
-1344.1715875099881
 30
0.0
 41
1.0
 10
941.87458940866418
 20
-1344.1641759363547
 30
0.0
 41
1.0
 10
942.01968804453736
 20
-1344.1082316177778
 30
0.0
 41
0.9988031841976469
 10
942.16955840714161
 20
-1344.0667315536105
 30
0.0
 41
1.0
 10
942.19447565550456
 20
-1344.0598318078037
 30
0.0
 41
1.0
 10
942.21939290386752
 20
-1344.0529320619969
 30
0.0
 41
1.0
 10
942.38666292951507
 20
-1344.0066139195897
 30
0.0
 41
0.9984748040549568
 10
942.55801983816423
 20
-1343.9790196873248
 30
0.0
 41
1.0
 10
942.56275897441265
 20
-1343.9782565268115
 30
0.0
 41
1.0
 10
942.56749811066095
 20
-1343.9774933662982
 30
0.0
 41
1.0
 10
942.72937674681259
 20
-1343.95142545506
 30
0.0
 41
0.998443649547975
 10
942.893151490538
 20
-1343.9435475012413
 30
0.0
 41
1.0
 10
942.91484869867054
 20
-1343.9425038140416
 30
0.0
 41
1.0
 10
942.93654590680296
 20
-1343.9414601268418
 30
0.0
 41
1.0
 10
943.05692623426376
 20
-1343.9356695474225
 30
0.0
 41
0.9987954789335568
 10
943.17729447917247
 20
-1343.9417060751648
 30
0.0
 41
1.0
 10
943.19725927166394
 20
-1343.9427073195034
 30
0.0
 41
1.0
 10
943.2172240641554
 20
-1343.9437085638417
 30
0.0
 41
1.0
 10
943.29766272407926
 20
-1343.9477426029068
 30
0.0
 41
0.9997941595877014
 10
943.37787150217673
 20
-1343.9550366688281
 30
0.0
 41
1.0
 10
943.45808028027488
 20
-1343.9623307347497
 30
0.0
 41
0.9998589466238493
 10
943.53799882713338
 20
-1343.9723145892003
 30
0.0
 41
1.0
 10
943.57040502893801
 20
-1343.976362946119
 30
0.0
 41
1.0
 10
943.60281123074265
 20
-1343.9804113030377
 30
0.0
 41
1.0
 10
943.74754218121132
 20
-1343.9984918713258
 30
0.0
 41
0.9993495063248691
 10
943.89059342497444
 20
-1344.0269575810669
 30
0.0
 41
1.0
 10
943.92352712212971
 20
-1344.0335110442822
 30
0.0
 41
1.0
 10
943.95646081928498
 20
-1344.0400645074976
 30
0.0
 41
1.0
 10
944.06575464248886
 20
-1344.0618128416331
 30
0.0
 41
0.9996788715561783
 10
944.17380621444477
 20
-1344.0890706409959
 30
0.0
 41
1.0
 10
944.17586921698376
 20
-1344.089591067569
 30
0.0
 41
1.0
 10
944.17793221952263
 20
-1344.0901114941419
 30
0.0
 41
1.0
 10
944.28185778640136
 20
-1344.116328440359
 30
0.0
 41
0.999548065449245
 10
944.38402002163059
 20
-1344.1487433969833
 30
0.0
 41
1.0
 10
944.38570966375846
 20
-1344.1492795018967
 30
0.0
 41
1.0
 10
944.38739930588645
 20
-1344.1498156068103
 30
0.0
 41
1.0
 10
944.48618225685891
 20
-1344.1811583536073
 30
0.0
 41
0.9993867959456901
 10
944.58252941530259
 20
-1344.2193377228975
 30
0.0
 41
1.0
 10
944.58377236438855
 20
-1344.2198302647944
 30
0.0
 41
1.0
 10
944.58501531347463
 20
-1344.220322806691
 30
0.0
 41
1.0
 10
944.67887657374604
 20
-1344.2575170921878
 30
0.0
 41
0.9992050256522039
 10
944.76947624877846
 20
-1344.302070991426
 30
0.0
 41
1.0
 10
944.77021093149062
 20
-1344.3024322838869
 30
0.0
 41
1.0
 10
944.77094561420279
 20
-1344.3027935763475
 30
0.0
 41
1.0
 10
944.86007592381088
 20
-1344.3466248906641
 30
0.0
 41
0.9990222350741431
 10
944.94498598520545
 20
-1344.398158158363
 30
0.0
 41
1.0
 10
944.94516987048814
 20
-1344.3982697612678
 30
0.0
 41
1.0
 10
944.94535375577073
 20
-1344.3983813641726
 30
0.0
 41
1.0
 10
945.0298960465999
 20
-1344.4496914260619
 30
0.0
 41
0.9988642743805302
 10
945.10917058121822
 20
-1344.5088156135866
 30
0.0
 41
1.0
 10
945.18844511583768
 20
-1344.5679398011125
 30
0.0
 41
0.9987681233311292
 10
945.2614689001133
 20
-1344.6346304925128
 30
0.0
 41
1.0
 10
945.26179782807912
 20
-1344.634930893727
 30
0.0
 41
1.0
 10
945.26212675604484
 20
-1344.6352312949411
 30
0.0
 41
1.0
 10
945.33580839625233
 20
-1344.7025227887698
 30
0.0
 41
0.9987496570897787
 10
945.40240220157943
 20
-1344.7768356028564
 30
0.0
 41
1.0
 10
945.40317437134013
 20
-1344.7776972762144
 30
0.0
 41
1.0
 10
945.40394654110082
 20
-1344.7785589495727
 30
0.0
 41
1.0
 10
945.47208468594897
 20
-1344.8545951103754
 30
0.0
 41
0.9988147669827239
 10
945.53250694017424
 20
-1344.9368961172181
 30
0.0
 41
1.0
 10
945.53362626625176
 20
-1344.9384207485705
 30
0.0
 41
1.0
 10
945.53474559232927
 20
-1344.9399453799226
 30
0.0
 41
1.0
 10
945.59740649870935
 20
-1345.0252956494694
 30
0.0
 41
0.9989452636215906
 10
945.6519734116705
 20
-1345.1160343386271
 30
0.0
 41
1.0
 10
945.6533221377565
 20
-1345.1182771196536
 30
0.0
 41
1.0
 10
945.6546708638424
 20
-1345.1205199006804
 30
0.0
 41
1.0
 10
945.71193522897499
 20
-1345.21574415189
 30
0.0
 41
0.9991046436070078
 10
945.76094444229636
 20
-1345.3154685849152
 30
0.0
 41
1.0
 10
945.76240830388656
 20
-1345.3184472649882
 30
0.0
 41
1.0
 10
945.76387216547676
 20
-1345.321425945061
 30
0.0
 41
1.0
 10
945.8158091019792
 20
-1345.4271077382334
 30
0.0
 41
0.9992763831101471
 10
945.85956223053404
 20
-1345.5364318001887
 30
0.0
 41
1.0
 10
945.86104150019708
 20
-1345.5401279877215
 30
0.0
 41
1.0
 10
945.86252076986011
 20
-1345.5438241752545
 30
0.0
 41
1.0
 10
945.90923243774159
 20
-1345.6605406122767
 30
0.0
 41
0.9994163472883292
 10
945.94786546893101
 20
-1345.7801742007398
 30
0.0
 41
1.0
 10
945.94910362117832
 20
-1345.784008344524
 30
0.0
 41
1.0
 10
945.95034177342563
 20
-1345.7878424883083
 30
0.0
 41
1.0
 10
945.99022533444327
 20
-1345.9113485497883
 30
0.0
 41
0.9997268055891506
 10
946.0242933903545
 20
-1346.0365835817363
 30
0.0
 41
1.0
 10
946.02522357062401
 20
-1346.0400029478449
 30
0.0
 41
1.0
 10
946.02615375089351
 20
-1346.0434223139534
 30
0.0
 41
1.0
 10
946.05836144626574
 20
-1346.1618186136841
 30
0.0
 41
0.9996701319000766
 10
946.08444706303703
 20
-1346.2817125669503
 30
0.0
 41
1.0
 10
946.11053267980719
 20
-1346.4016065202118
 30
0.0
 41
0.9995785451108982
 10
946.12961625714718
 20
-1346.5228122812455
 30
0.0
 41
1.0
 10
946.13383603932084
 20
-1346.5496134360098
 30
0.0
 41
1.0
 10
946.1380558214945
 20
-1346.5764145907742
 30
0.0
 41
1.0
 10
946.16463079743312
 20
-1346.7452005644791
 30
0.0
 41
0.9979925101217289
 10
946.16965638335955
 20
-1346.9159918925702
 30
0.0
 41
1.0
 10
946.17048119578419
 20
-1346.9440226160505
 30
0.0
 41
1.0
 10
946.17130600820883
 20
-1346.9720533395307
 30
0.0
 41
1.0
 10
946.17468196928598
 20
-1347.0867832206604
 30
0.0
 41
0.9995314902263213
 10
946.17103177714739
 20
-1347.2015047044138
 30
0.0
 41
1.0
 10
946.16738158500903
 20
-1347.3162261881648
 30
0.0
 41
0.9996245486944302
 10
946.15745248987844
 20
-1347.4305754592842
 30
0.0
 41
1.0
 10
946.1572894418839
 20
-1347.4324532154224
 30
0.0
 41
1.0
 10
946.15712639388948
 20
-1347.4343309715603
 30
0.0
 41
1.0
 10
946.14687120277097
 20
-1347.5524357549498
 30
0.0
 41
0.9997286095000543
 10
946.13112587919966
 20
-1347.6699346638429
 30
0.0
 41
1.0
 10
946.13073238654886
 20
-1347.6728710885482
 30
0.0
 41
1.0
 10
946.13033889389806
 20
-1347.6758075132532
 30
0.0
 41
1.0
 10
946.11380658502662
 20
-1347.7991792715486
 30
0.0
 41
0.9998265533968135
 10
946.09269112629443
 20
-1347.9218497463337
 30
0.0
 41
1.0
 10
946.09201458415669
 20
-1347.9257801248446
 30
0.0
 41
1.0
 10
946.09133804201906
 20
-1347.9297105033552
 30
0.0
 41
1.0
 10
946.06886949901309
 20
-1348.0602417351536
 30
0.0
 41
0.9999022530852826
 10
946.04276003440293
 20
-1348.1900937037929
 30
0.0
 41
1.0
 10
946.04178139323722
 20
-1348.1949608461823
 30
0.0
 41
1.0
 10
946.04080275207139
 20
-1348.1998279885715
 30
0.0
 41
1.0
 10
946.01273600512832
 20
-1348.3394142419947
 30
0.0
 41
0.9999524761935694
 10
945.98195303629177
 20
-1348.4784267351681
 30
0.0
 41
1.0
 10
945.98067692911832
 20
-1348.4841894944611
 30
0.0
 41
1.0
 10
945.97940082194498
 20
-1348.4899522537539
 30
0.0
 41
1.0
 10
945.94606563875709
 20
-1348.6404902655327
 30
0.0
 41
0.9999813588725676
 10
945.91089463795845
 20
-1348.7906099782008
 30
0.0
 41
1.0
 10
945.90934071250445
 20
-1348.7972425686123
 30
0.0
 41
1.0
 10
945.90778678705044
 20
-1348.8038751590238
 30
0.0
 41
1.0
 10
945.86950793533788
 20
-1348.96726005254
 30
0.0
 41
0.9999955237652028
 10
945.83025205735282
 20
-1349.1304129561654
 30
0.0
 41
1.0
 10
945.81797042172252
 20
-1349.1814571466712
 30
0.0
 41
1.0
 10
945.80568878609222
 20
-1349.2325013371772
 30
0.0
 41
1.0
 10
945.74186963686361
 20
-1349.4977426217447
 30
0.0
 41
0.999999360473003
 10
945.6774506897051
 20
-1349.7628388723897
 30
0.0
 41
1.0
 10
945.67273185414297
 20
-1349.782257780492
 30
0.0
 41
1.0
 10
945.66801301858095
 20
-1349.8016766885944
 30
0.0
 41
1.0
 10
945.59415640032057
 20
-1350.1056107553522
 30
0.0
 41
0.999965991471903
 10
945.51529680443605
 20
-1350.4082853019095
 30
0.0
 41
1.0
 10
945.51034411550495
 20
-1350.4272944390937
 30
0.0
 41
1.0
 10
945.50539142657385
 20
-1350.4463035762776
 30
0.0
 41
1.0
 10
945.41662645282759
 20
-1350.7869963972007
 30
0.0
 41
0.9999441976024684
 10
945.32068341986201
 20
-1351.1257378225064
 30
0.0
 41
1.0
 10
945.30398290143796
 20
-1351.1847015350288
 30
0.0
 41
1.0
 10
945.28728238301392
 20
-1351.2436652475512
 30
0.0
 41
1.0
 10
945.15793831319684
 20
-1351.7003340979131
 30
0.0
 41
0.9999625120734004
 10
945.02070554587135
 20
-1352.1546946319165
 30
0.0
 41
1.0
 10
944.98491560278728
 20
-1352.2731906585473
 30
0.0
 41
1.0
 10
944.94912565970321
 20
-1352.391686685178
 30
0.0
 41
1.0
 10
944.87460545566569
 20
-1352.6384137632676
 30
0.0
 41
0.999979338630795
 10
944.79691943253147
 20
-1352.8841624024938
 30
0.0
 41
1.0
 10
944.71923340939384
 20
-1353.1299110417299
 30
0.0
 41
1.0
 10
944.70845385052314
 20
-1353.1639289461045
 30
0.0
 41
1.0
 10
942.85808079725393
 20
-1359.0510008685719
 30
0.0
 41
1.0
 10
941.00770774398484
 20
-1364.9380727910395
 30
0.0
 41
1.0
 10
940.04645105396128
 20
-1364.9380727910395
 30
0.0
 41
1.0
 10
939.08519436393772
 20
-1364.9380727910395
 30
0.0
 41
1.0
 10
940.70413914261621
 20
-1359.7900442892501
 30
0.0
 41
1.0
 10
942.3230839212946
 20
-1354.6420157874607
 30
0.0
 41
1.0
 10
942.36824974445881
 20
-1354.4979845652231
 30
0.0
 41
1.0
 10
942.41341556762302
 20
-1354.3539533429855
 30
0.0
 41
1.0
 10
942.58371998499979
 20
-1353.8108623137782
 30
0.0
 41
0.9999911657873858
 10
942.74945279668623
 20
-1353.2663587823947
 30
0.0
 41
1.0
 10
942.77914874018165
 20
-1353.1687948423607
 30
0.0
 41
1.0
 10
942.80884468367708
 20
-1353.0712309023268
 30
0.0
 41
1.0
 10
942.91518560836096
 20
-1352.7218552510485
 30
0.0
 41
0.9999952428172223
 10
943.01936919769128
 20
-1352.3718302266816
 30
0.0
 41
1.0
 10
943.02442866801834
 20
-1352.3548319524248
 30
0.0
 41
1.0
 10
943.0294881383453
 20
-1352.337833678168
 30
0.0
 41
1.0
 10
943.12355278701307
 20
-1352.0218052023433
 30
0.0
 41
0.9999931687487288
 10
943.21527862488995
 20
-1351.7050899890614
 30
0.0
 41
1.0
 10
943.22021388934832
 20
-1351.6880492797945
 30
0.0
 41
1.0
 10
943.22514915380657
 20
-1351.6710085705276
 30
0.0
 41
1.0
 10
943.30700446276285
 20
-1351.3883747757934
 30
0.0
 41
0.9999893840806617
 10
943.38625168922044
 20
-1351.1049986465443
 30
0.0
 41
1.0
 10
943.4654989156777
 20
-1350.8216225172964
 30
0.0
 41
0.9999833980071777
 10
943.54147515642251
 20
-1350.5373519342561
 30
0.0
 41
1.0
 10
943.55047909314396
 20
-1350.5036630557809
 30
0.0
 41
1.0
 10
943.55948302986542
 20
-1350.4699741773056
 30
0.0
 41
1.0
 10
943.62844757872995
 20
-1350.2119383450158
 30
0.0
 41
0.9999233658069184
 10
943.69100254995078
 20
-1349.9522741862913
 30
0.0
 41
1.0
 10
943.75355752117105
 20
-1349.6926100275689
 30
0.0
 41
1.0
 10
943.79304094002862
 20
-1349.5288033631427
 30
0.0
 41
1.0
 10
943.7980195440033
 20
-1349.5081484012831
 30
0.0
 41
1.0
 10
943.80299814797797
 20
-1349.4874934394234
 30
0.0
 41
1.0
 10
943.83252435888676
 20
-1349.3649966987141
 30
0.0
 41
0.9999868670872472
 10
943.86079344288237
 20
-1349.2422037530712
 30
0.0
 41
1.0
 10
943.8646909300428
 20
-1349.2252741656425
 30
0.0
 41
1.0
 10
943.86858841720311
 20
-1349.2083445782139
 30
0.0
 41
1.0
 10
943.88906252688253
 20
-1349.1194108074087
 30
0.0
 41
0.9999778173358828
 10
943.90835012499406
 20
-1349.0302121901952
 30
0.0
 41
1.0
 10
943.9276377231123
 20
-1348.9410135729515
 30
0.0
 41
0.9999602692858022
 10
943.94533208174414
 20
-1348.851485284519
 30
0.0
 41
1.0
 10
943.9485359138198
 20
-1348.8352748296429
 30
0.0
 41
1.0
 10
943.95173974589545
 20
-1348.8190643747671
 30
0.0
 41
1.0
 10
943.97584176868156
 20
-1348.6971151765683
 30
0.0
 41
0.9995617985320492
 10
943.99268511590003
 20
-1348.5739534288653
 30
0.0
 41
1.0
 10
943.99514960580632
 20
-1348.5559326114994
 30
0.0
 41
1.0
 10
943.99761409571249
 20
-1348.5379117941338
 30
0.0
 41
1.0
 10
944.01789735676073
 20
-1348.3895967444323
 30
0.0
 41
0.9991121410639839
 10
944.02562271034924
 20
-1348.2401006456248
 30
0.0
 41
1.0
 10
944.02654150037392
 20
-1348.2223208090447
 30
0.0
 41
1.0
 10
944.02746029039872
 20
-1348.2045409724647
 30
0.0
 41
1.0
 10
944.03334806393752
 20
-1348.0906045468157
 30
0.0
 41
0.99897924949053
 10
944.02892897182016
 20
-1347.97660171092
 30
0.0
 41
1.0
 10
944.02828099995156
 20
-1347.9598854649939
 30
0.0
 41
1.0
 10
944.02763302808296
 20
-1347.9431692190678
 30
0.0
 41
1.0
 10
944.0245098797028
 20
-1347.8625988750227
 30
0.0
 41
0.999782029539399
 10
944.01802588232715
 20
-1347.7822291532777
 30
0.0
 41
1.0
 10
944.01154188495161
 20
-1347.7018594315346
 30
0.0
 41
0.9998335105972822
 10
944.00212968943924
 20
-1347.6217798150788
 30
0.0
 41
1.0
 10
944.00053476476319
 20
-1347.6082100845981
 30
0.0
 41
1.0
 10
943.99893984008713
 20
-1347.5946403541175
 30
0.0
 41
1.0
 10
943.98633779522254
 20
-1347.4874212767004
 30
0.0
 41
0.9996876457878948
 10
943.96839388242472
 20
-1347.3809658489879
 30
0.0
 41
1.0
 10
943.96616221927957
 20
-1347.367726113747
 30
0.0
 41
1.0
 10
943.96393055613453
 20
-1347.3544863785062
 30
0.0
 41
1.0
 10
943.95013473471329
 20
-1347.2726402345472
 30
0.0
 41
0.9995547496495351
 10
943.93148141282006
 20
-1347.1917627373523
 30
0.0
 41
1.0
 10
943.93110745594845
 20
-1347.1901413266453
 30
0.0
 41
1.0
 10
943.93073349907672
 20
-1347.1885199159383
 30
0.0
 41
1.0
 10
943.91282809092706
 20
-1347.1108852401596
 30
0.0
 41
0.9994899427175336
 10
943.89000318224817
 20
-1347.0345519573266
 30
0.0
 41
1.0
 10
943.88954465550705
 20
-1347.0330185075368
 30
0.0
 41
1.0
 10
943.88908612876605
 20
-1347.0314850577472
 30
0.0
 41
1.0
 10
943.86717827356858
 20
-1346.9582186744915
 30
0.0
 41
0.9993784877590779
 10
943.84016263846217
 20
-1346.8866779693333
 30
0.0
 41
1.0
 10
943.83963094748538
 20
-1346.8852699866129
 30
0.0
 41
1.0
 10
943.83909925650846
 20
-1346.8838620038925
 30
0.0
 41
1.0
 10
943.81314700335531
 20
-1346.8151372641739
 30
0.0
 41
0.9992430832254754
 10
943.78193046819615
 20
-1346.7486381121059
 30
0.0
 41
1.0
 10
943.78134835213973
 20
-1346.7473980569889
 30
0.0
 41
1.0
 10
943.7807662360832
 20
-1346.7461580018717
 30
0.0
 41
1.0
 10
943.75071393303688
 20
-1346.6821389600379
 30
0.0
 41
0.9990789632799049
 10
943.71528330626018
 20
-1346.6209323482881
 30
0.0
 41
1.0
 10
943.71468760007838
 20
-1346.619903262429
 30
0.0
 41
1.0
 10
943.71409189389647
 20
-1346.6188741765702
 30
0.0
 41
1.0
 10
943.67985267948325
 20
-1346.559725736538
 30
0.0
 41
0.9988874801120294
 10
943.64019340345135
 20
-1346.5040660241207
 30
0.0
 41
1.0
 10
943.63963787738658
 20
-1346.5032863724455
 30
0.0
 41
1.0
 10
943.63908235132192
 20
-1346.50250672077
 30
0.0
 41
1.0
 10
943.60053412741922
 20
-1346.4484063117027
 30
0.0
 41
0.9986762060692839
 10
943.55663165614328
 20
-1346.3985525972635
 30
0.0
 41
1.0
 10
943.55618769581076
 20
-1346.3980484554465
 30
0.0
 41
1.0
 10
943.55574373547825
 20
-1346.3975443136296
 30
0.0
 41
1.0
 10
943.51272918486666
 20
-1346.348698882824
 30
0.0
 41
0.9984621642488132
 10
943.46457162808929
 20
-1346.3049155823533
 30
0.0
 41
1.0
 10
943.46432499357229
 20
-1346.3046913501894
 30
0.0
 41
1.0
 10
943.46407835905529
 20
-1346.3044671180255
 30
0.0
 41
1.0
 10
943.41641407131124
 20
-1346.2611322818818
 30
0.0
 41
0.9982724693850541
 10
943.36399543947005
 20
-1346.2236879313646
 30
0.0
 41
1.0
 10
943.31157680762942
 20
-1346.1862435808473
 30
0.0
 41
0.9981399180159311
 10
943.2549907442359
 20
-1346.1554570614037
 30
0.0
 41
1.0
 10
943.25494508215706
 20
-1346.1554322182465
 30
0.0
 41
1.0
 10
943.25489942007835
 20
-1346.155407375089
 30
0.0
 41
1.0
 10
943.19822203252761
 20
-1346.1245711693309
 30
0.0
 41
0.9980927086836778
 10
943.13817668146066
 20
-1346.1009543604782
 30
0.0
 41
1.0
 10
943.13773651174949
 20
-1346.1007812346033
 30
0.0
 41
1.0
 10
943.13729634203833
 20
-1346.1006081087287
 30
0.0
 41
1.0
 10
943.07637065154893
 20
-1346.0766450481265
 30
0.0
 41
0.9981411356562567
 10
943.01298213014957
 20
-1346.0602724066207
 30
0.0
 41
1.0
 10
943.01210001344793
 20
-1346.0600445644152
 30
0.0
 41
1.0
 10
943.0112178967463
 20
-1346.0598167222097
 30
0.0
 41
1.0
 10
942.946065141943
 20
-1346.0429883962929
 30
0.0
 41
0.9983031812935332
 10
942.87939771294759
 20
-1346.0338490351166
 30
0.0
 41
1.0
 10
942.87052668754495
 20
-1346.0326329164454
 30
0.0
 41
1.0
 10
942.86165566214243
 20
-1346.0314167977745
 30
0.0
 41
1.0
 10
942.80730601963796
 20
-1346.0239660677832
 30
0.0
 41
0.9983887708264158
 10
942.75246217034442
 20
-1346.0227213941498
 30
0.0
 41
1.0
 10
942.74439876512167
 20
-1346.0225383962747
 30
0.0
 41
1.0
 10
942.73633535989893
 20
-1346.0223553983999
 30
0.0
 41
1.0
 10
942.69761832104621
 20
-1346.0214767205166
 30
0.0
 41
0.9998869563080819
 10
942.65889236784892
 20
-1346.0217625898763
 30
0.0
 41
1.0
 10
942.62016641467767
 20
-1346.0220484592357
 30
0.0
 41
0.9999972320154288
 10
942.58144223549743
 20
-1346.0225165587642
 30
0.0
 41
1.0
 10
942.56208921888651
 20
-1346.0227504988538
 30
0.0
 41
1.0
 10
942.54273620227548
 20
-1346.0229844389437
 30
0.0
 41
1.0
 10
942.46530598990194
 20
-1346.0239204186516
 30
0.0
 41
0.9997304945087331
 10
942.38800268366174
 20
-1346.0284495124381
 30
0.0
 41
1.0
 10
942.37895304196013
 20
-1346.0289797184278
 30
0.0
 41
1.0
 10
942.36990340025864
 20
-1346.0295099244177
 30
0.0
 41
1.0
 10
942.27450081061374
 20
-1346.0350994301834
 30
0.0
 41
0.9997888306415746
 10
942.17940847477314
 20
-1346.0446043946722
 30
0.0
 41
1.0
 10
942.17068741319872
 20
-1346.0454761093044
 30
0.0
 41
1.0
 10
942.16196635162441
 20
-1346.0463478239367
 30
0.0
 41
1.0
 10
942.04943189263724
 20
-1346.0575962176899
 30
0.0
 41
0.9984170238191308
 10
941.93887274528663
 20
-1346.0814122996255
 30
0.0
 41
1.0
 10
941.90249161429938
 20
-1346.0892493354318
 30
0.0
 41
1.0
 10
941.86611048331224
 20
-1346.097086371238
 30
0.0
 41
1.0
 10
941.7509194148904
 20
-1346.1219002377477
 30
0.0
 41
0.9976592854199382
 10
941.64019124848562
 20
-1346.1621989148948
 30
0.0
 41
1.0
 10
941.52946308208175
 20
-1346.2024975920417
 30
0.0
 41
0.99932550743528
 10
941.42199128329219
 20
-1346.2508144905332
 30
0.0
 41
1.0
 10
941.41736610436772
 20
-1346.2528938667335
 30
0.0
 41
1.0
 10
941.41274092544325
 20
-1346.2549732429338
 30
0.0
 41
1.0
 10
941.29601876880577
 20
-1346.3074488938259
 30
0.0
 41
0.9976475078275411
 10
941.1875714244959
 20
-1346.375396883484
 30
0.0
 41
1.0
 10
941.16922903035754
 20
-1346.3868893623007
 30
0.0
 41
1.0
 10
941.15088663621918
 20
-1346.3983818411175
 30
0.0
 41
1.0
 10
941.06668444467107
 20
-1346.4511389618833
 30
0.0
 41
0.9995131336406804
 10
940.98593672971629
 20
-1346.5090451738349
 30
0.0
 41
1.0
 10
940.90518901476128
 20
-1346.5669513857865
 30
0.0
 41
0.9995810107606528
 10
940.82792736703607
 20
-1346.6294330682492
 30
0.0
 41
1.0
 10
940.824957335823
 20
-1346.6318349397161
 30
0.0
 41
1.0
 10
940.82198730460993
 20
-1346.6342368111832
 30
0.0
 41
1.0
 10
940.73878559445723
 20
-1346.7015222365812
 30
0.0
 41
0.9996617837954317
 10
940.65919490732017
 20
-1346.773042692143
 30
0.0
 41
1.0
 10
940.64706415644764
 20
-1346.7839434251296
 30
0.0
 41
1.0
 10
940.63493340557523
 20
-1346.7948441581161
 30
0.0
 41
1.0
 10
940.56665787817678
 20
-1346.8561967735902
 30
0.0
 41
0.9997267750052243
 10
940.50132436989043
 20
-1346.9206733101178
 30
0.0
 41
1.0
 10
940.43599086159975
 20
-1346.9851498466501
 30
0.0
 41
0.9999667288963223
 10
940.37171791844594
 20
-1347.0506836535521
 30
0.0
 41
1.0
 10
940.30289047067788
 20
-1347.1208613123031
 30
0.0
 41
1.0
 10
940.23406302290982
 20
-1347.1910389710542
 30
0.0
 41
1.0
 10
940.03213518421478
 20
-1347.3969280954632
 30
0.0
 41
0.9988205335175211
 10
939.85112956723549
 20
-1347.6214323275233
 30
0.0
 41
1.0
 10
939.82048960232987
 20
-1347.6594355779544
 30
0.0
 41
1.0
 10
939.78984963742414
 20
-1347.6974388283854
 30
0.0
 41
1.0
 10
939.54756409063293
 20
-1347.997949561309
 30
0.0
 41
0.9997077826754728
 10
939.32008613952792
 20
-1348.3098193555252
 30
0.0
 41
1.0
 10
939.31836272439853
 20
-1348.3121821389032
 30
0.0
 41
1.0
 10
939.31663930926914
 20
-1348.3145449222814
 30
0.0
 41
1.0
 10
939.08571452790204
 20
-1348.6311402832582
 30
0.0
 41
0.9989147567078813
 10
938.88525102501876
 20
-1348.9678497444429
 30
0.0
 41
1.0
 10
938.86050987971453
 20
-1349.0094063249908
 30
0.0
 41
1.0
 10
938.83576873441041
 20
-1349.0509629055384
 30
0.0
 41
1.0
 10
938.68055743577031
 20
-1349.3116642899956
 30
0.0
 41
0.9997476598181226
 10
938.53721244825863
 20
-1349.5790740385817
 30
0.0
 41
1.0
 10
938.39386746074865
 20
-1349.8464837871647
 30
0.0
 41
0.9996258967109913
 10
938.2653592088169
 20
-1350.1213317237891
 30
0.0
 41
1.0
 10
938.25215929936485
 20
-1350.1495631238895
 30
0.0
 41
1.0
 10
938.23895938991291
 20
-1350.1777945239901
 30
0.0
 41
1.0
 10
938.09875066891721
 20
-1350.4776669219341
 30
0.0
 41
0.9998735413944473
 10
937.96814932219752
 20
-1350.7818465214004
 30
0.0
 41
1.0
 10
937.96470649413698
 20
-1350.7898651068651
 30
0.0
 41
1.0
 10
937.96126366607643
 20
-1350.7978836923298
 30
0.0
 41
1.0
 10
937.83754797547567
 20
-1351.0860261208716
 30
0.0
 41
0.9999377418861317
 10
937.72029317330248
 20
-1351.3768575885433
 30
0.0
 41
1.0
 10
937.6030383711302
 20
-1351.6676890562117
 30
0.0
 41
0.9999508299503195
 10
937.49157442775686
 20
-1351.9607887330219
 30
0.0
 41
1.0
 10
937.48849365909086
 20
-1351.9688897589949
 30
0.0
 41
1.0
 10
937.48541289042487
 20
-1351.9769907849682
 30
0.0
 41
1.0
 10
937.3677874097242
 20
-1352.2862925137133
 30
0.0
 41
0.9999609228433415
 10
937.25564880685056
 20
-1352.5976255297273
 30
0.0
 41
1.0
 10
937.25269279650001
 20
-1352.6058323701395
 30
0.0
 41
1.0
 10
937.24973678614936
 20
-1352.6140392105517
 30
0.0
 41
1.0
 10
937.13168616257713
 20
-1352.9417859073833
 30
0.0
 41
0.9999674607405507
 10
937.01893863650878
 20
-1353.2713945273788
 30
0.0
 41
1.0
 10
936.96754024594566
 20
-1353.4216537230725
 30
0.0
 41
1.0
 10
936.91614185538253
 20
-1353.5719129187662
 30
0.0
 41
1.0
 10
936.80013124862614
 20
-1353.911060901265
 30
0.0
 41
0.9999287532307899
 10
936.69224984465427
 20
-1354.2528816402441
 30
0.0
 41
1.0
 10
936.64577258848453
 20
-1354.4001441847122
 30
0.0
 41
1.0
 10
936.59929533231491
 20
-1354.5474067291802
 30
0.0
 41
1.0
 10
936.58436844065193
 20
-1354.5947023793201
 30
0.0
 41
0.9999998223628555
 10
936.56949793195315
 20
-1354.6420157874607
 30
0.0
 41
1.0
 10
934.9488417951577
 20
-1359.7900442892501
 30
0.0
 41
1.0
 10
933.32818565836226
 20
-1364.9380727910395
 30
0.0
 41
1.0
 10
932.42287721447133
 20
-1364.9380727910395
 30
0.0
 41
1.0
 10
931.5175687705804
 20
-1364.9380727910395
 30
0.0
 41
1.0
 10
933.36965318196644
 20
-1359.0510008685719
 30
0.0
 41
1.0
 10
935.22173759335249
 20
-1353.1639289461045
 30
0.0
 41
1.0
 10
935.2318593516552
 20
-1353.1318857326548
 30
0.0
 41
1.0
 10
935.30446702050494
 20
-1352.901586190829
 30
0.0
 41
1.0
 10
935.3770746893556
 20
-1352.6712866490002
 30
0.0
 41
0.9999825681975505
 10
935.44695772856278
 20
-1352.4401457539493
 30
0.0
 41
1.0
 10
935.49524879072305
 20
-1352.2804211704549
 30
0.0
 41
1.0
 10
935.54353985288344
 20
-1352.1206965869605
 30
0.0
 41
1.0
 10
935.64069220620354
 20
-1351.7993613651747
 30
0.0
 41
0.9999672528966622
 10
935.73263101182704
 20
-1351.4764958195883
 30
0.0
 41
1.0
 10
935.73541989549381
 20
-1351.4667019742089
 30
0.0
 41
1.0
 10
935.73820877916057
 20
-1351.4569081288296
 30
0.0
 41
1.0
 10
935.82456981744781
 20
-1351.1536302740114
 30
0.0
 41
0.9999899749137112
 10
935.90821142698508
 20
-1350.8495911855493
 30
0.0
 41
1.0
 10
935.91831734600305
 20
-1350.8128559478696
 30
0.0
 41
1.0
 10
935.92842326502091
 20
-1350.7761207101898
 30
0.0
 41
1.0
 10
935.99185303651961
 20
-1350.5455520970977
 30
0.0
 41
0.9999214200504208
 10
936.04948246489744
 20
-1350.3134657548876
 30
0.0
 41
1.0
 10
936.06224831707641
 20
-1350.2620548694981
 30
0.0
 41
1.0
 10
936.07501416925538
 20
-1350.2106439841084
 30
0.0
 41
1.0
 10
936.10711189327299
 20
-1350.0813794126871
 30
0.0
 41
0.9999828681675119
 10
936.13769414527064
 20
-1349.9517479382109
 30
0.0
 41
1.0
 10
936.16827639726557
 20
-1349.8221164637459
 30
0.0
 41
0.9999389844476677
 10
936.19598738605634
 20
-1349.6918410078385
 30
0.0
 41
1.0
 10
936.20312512977603
 20
-1349.6582849040037
 30
0.0
 41
1.0
 10
936.21026287349571
 20
-1349.6247288001687
 30
0.0
 41
1.0
 10
936.25224934972675
 20
-1349.4273411365866
 30
0.0
 41
0.9998933699440271
 10
936.28845361412891
 20
-1349.2288115288281
 30
0.0
 41
1.0
 10
936.28982643934455
 20
-1349.221283508135
 30
0.0
 41
1.0
 10
936.2911992645603
 20
-1349.2137554874419
 30
0.0
 41
1.0
 10
936.33014917939613
 20
-1349.0001698382853
 30
0.0
 41
0.9996850305193026
 10
936.35833285565468
 20
-1348.7848988328483
 30
0.0
 41
1.0
 10
936.36032788902355
 20
-1348.7696604787293
 30
0.0
 41
1.0
 10
936.36232292239242
 20
-1348.7544221246105
 30
0.0
 41
1.0
 10
936.38973078485151
 20
-1348.5450768974551
 30
0.0
 41
0.9994697936706969
 10
936.40345534407129
 20
-1348.3343917021243
 30
0.0
 41
1.0
 10
936.40393241332094
 20
-1348.3270682299139
 30
0.0
 41
1.0
 10
936.40440948257049
 20
-1348.3197447577038
 30
0.0
 41
1.0
 10
936.41717990329084
 20
-1348.123706506796
 30
0.0
 41
0.9991804893137116
 10
936.41405158701809
 20
-1347.92727765682
 30
0.0
 41
1.0
 10
936.41396770819597
 20
-1347.9220108554091
 30
0.0
 41
1.0
 10
936.41388382937396
 20
-1347.9167440539979
 30
0.0
 41
1.0
 10
936.41092327074523
 20
-1347.7308488068481
 30
0.0
 41
0.9988448329321966
 10
936.39013172512148
 20
-1347.5460962170132
 30
0.0
 41
1.0
 10
936.38853765141857
 20
-1347.5319313612431
 30
0.0
 41
1.0
 10
936.38694357771567
 20
-1347.5177665054728
 30
0.0
 41
1.0
 10
936.36934017949795
 20
-1347.3613436271819
 30
0.0
 41
0.9985503209459039
 10
936.33502390719809
 20
-1347.2077194430906
 30
0.0
 41
1.0
 10
936.32743791512712
 20
-1347.1737591156912
 30
0.0
 41
1.0
 10
936.31985192305615
 20
-1347.139798788292
 30
0.0
 41
1.0
 10
936.3007076348988
 20
-1347.0540952590025
 30
0.0
 41
0.9991036781370795
 10
936.27438277324745
 20
-1346.9703181716764
 30
0.0
 41
1.0
 10
936.27040054779195
 20
-1346.9576450091672
 30
0.0
 41
1.0
 10
936.26641832233634
 20
-1346.9449718466578
 30
0.0
 41
1.0
 10
936.24805791159758
 20
-1346.8865410843559
 30
0.0
 41
0.9998874504368415
 10
936.22795270391771
 20
-1346.8286874821281
 30
0.0
 41
1.0
 10
936.20784749623965
 20
-1346.7708338799059
 30
0.0
 41
0.9994041637544292
 10
936.18379888330458
 20
-1346.7145051760137
 30
0.0
 41
1.0
 10
936.17960209908074
 20
-1346.7046751115324
 30
0.0
 41
1.0
 10
936.1754053148569
 20
-1346.6948450470511
 30
0.0
 41
1.0
 10
936.14752648386275
 20
-1346.6295448810847
 30
0.0
 41
0.999184684070243
 10
936.1144701271694
 20
-1346.5667068498037
 30
0.0
 41
1.0
 10
936.1133335207744
 20
-1346.5645462333491
 30
0.0
 41
1.0
 10
936.11219691437941
 20
-1346.5623856168943
 30
0.0
 41
1.0
 10
936.08141377047639
 20
-1346.5038688185236
 30
0.0
 41
0.9989253167923606
 10
936.04534434642142
 20
-1346.4484538901334
 30
0.0
 41
1.0
 10
936.04429022174691
 20
-1346.4468343953708
 30
0.0
 41
1.0
 10
936.04323609707251
 20
-1346.4452149006081
 30
0.0
 41
1.0
 10
936.00927492236588
 20
-1346.3930389617421
 30
0.0
 41
0.9986467172835083
 10
935.97007776972896
 20
-1346.3446729281136
 30
0.0
 41
1.0
 10
935.9692036410288
 20
-1346.343594325836
 30
0.0
 41
1.0
 10
935.96832951232875
 20
-1346.3425157235586
 30
0.0
 41
1.0
 10
935.93088061709204
 20
-1346.2963068944846
 30
0.0
 41
0.9984001104269231
 10
935.88845388657444
 20
-1346.254621787115
 30
0.0
 41
1.0
 10
935.88786674846517
 20
-1346.2540449122339
 30
0.0
 41
1.0
 10
935.8872796103559
 20
-1346.2534680373526
 30
0.0
 41
1.0
 10
935.84602715605774
 20
-1346.2129366797467
 30
0.0
 41
0.9982442159083831
 10
935.80027105472163
 20
-1346.1775681184861
 30
0.0
 41
1.0
 10
935.80005625925992
 20
-1346.1774020858429
 30
0.0
 41
1.0
 10
935.7998414637982
 20
-1346.1772360531997
 30
0.0
 41
1.0
 10
935.75451495338666
 20
-1346.1421995572264
 30
0.0
 41
0.998245006083662
 10
935.70536397431431
 20
-1346.1127677741924
 30
0.0
 41
1.0
 10
935.65621299524184
 20
-1346.0833359911583
 30
0.0
 41
0.998392263963347
 10
935.60404668907677
 20
-1346.0596563565043
 30
0.0
 41
1.0
 10
935.60381981175283
 20
-1346.059553371023
 30
0.0
 41
1.0
 10
935.60359293442878
 20
-1346.0594503855418
 30
0.0
 41
1.0
 10
935.55097287361605
 20
-1346.0355647799254
 30
0.0
 41
0.9986517147150391
 10
935.49615990074938
 20
-1346.017263660804
 30
0.0
 41
1.0
 10
935.4954819793204
 20
-1346.0170373143721
 30
0.0
 41
1.0
 10
935.49480405789132
 20
-1346.0168109679403
 30
0.0
 41
1.0
 10
935.43863524216829
 20
-1345.9980571559558
 30
0.0
 41
0.9989435598956199
 10
935.38098185501758
 20
-1345.9845394537215
 30
0.0
 41
1.0
 10
935.37990173543528
 20
-1345.9842862034684
 30
0.0
 41
1.0
 10
935.37882161585298
 20
-1345.9840329532151
 30
0.0
 41
1.0
 10
935.319007989537
 20
-1345.9700087504743
 30
0.0
 41
0.9992249241239873
 10
935.25827648063841
 20
-1345.9607334077591
 30
0.0
 41
1.0
 10
935.25686279234856
 20
-1345.9605174993515
 30
0.0
 41
1.0
 10
935.2554491040587
 20
-1345.9603015909438
 30
0.0
 41
1.0
 10
935.19189021857721
 20
-1345.9505944314126
 30
0.0
 41
0.9994396597833056
 10
935.12782428203843
 20
-1345.9451615090668
 30
0.0
 41
1.0
 10
935.10868361456255
 20
-1345.9435383413484
 30
0.0
 41
1.0
 10
935.08954294708667
 20
-1345.9419151736297
 30
0.0
 41
1.0
 10
934.98719567559374
 20
-1345.9332359158468
 30
0.0
 41
0.9987693403121523
 10
934.88449205200641
 20
-1345.9347389792995
 30
0.0
 41
1.0
 10
934.87423771778117
 20
-1345.9348890510737
 30
0.0
 41
1.0
 10
934.86398338355593
 20
-1345.9350391228479
 30
0.0
 41
1.0
 10
934.7544276173752
 20
-1345.9366424671352
 30
0.0
 41
0.9989753644966447
 10
934.64546561735722
 20
-1345.9481454740603
 30
0.0
 41
1.0
 10
934.53650361734196
 20
-1345.9596484809856
 30
0.0
 41
0.9983190067306549
 10
934.42960480637817
 20
-1345.9836834727719
 30
0.0
 41
1.0
 10
934.42070385477018
 20
-1345.9856847513347
 30
0.0
 41
1.0
 10
934.41180290316231
 20
-1345.9876860298978
 30
0.0
 41
1.0
 10
934.28710218898391
 20
-1346.0157235788099
 30
0.0
 41
0.9985539388303213
 10
934.16613243530651
 20
-1346.0569872548551
 30
0.0
 41
1.0
 10
934.16378700434586
 20
-1346.057787298671
 30
0.0
 41
1.0
 10
934.16144157338522
 20
-1346.058587342487
 30
0.0
 41
1.0
 10
934.03578095778801
 20
-1346.1014511061639
 30
0.0
 41
0.9988468746493787
 10
933.91481061548973
 20
-1346.1561691912254
 30
0.0
 41
1.0
 10
933.91162779349941
 20
-1346.1576088657862
 30
0.0
 41
1.0
 10
933.90844497150908
 20
-1346.1590485403467
 30
0.0
 41
1.0
 10
933.78110898523028
 20
-1346.2166459745295
 30
0.0
 41
0.9991322885919174
 10
933.65900840117297
 20
-1346.2846413067116
 30
0.0
 41
1.0
 10
933.6414063901309
 20
-1346.2944435087004
 30
0.0
 41
1.0
 10
933.62380437908882
 20
-1346.3042457106892
 30
0.0
 41
1.0
 10
933.52162769803067
 20
-1346.3611458264704
 30
0.0
 41
0.9993860037849315
 10
933.42368669395614
 20
-1346.4250618420597
 30
0.0
 41
1.0
 10
933.41806838110074
 20
-1346.4287283367566
 30
0.0
 41
1.0
 10
933.41245006824545
 20
-1346.4323948314534
 30
0.0
 41
1.0
 10
933.32574568988139
 20
-1346.4889778576492
 30
0.0
 41
0.9998821494953694
 10
933.24081931407
 20
-1346.548196087725
 30
0.0
 41
1.0
 10
933.15589293825587
 20
-1346.6074143178025
 30
0.0
 41
0.9997976482743898
 10
933.07341730785083
 20
-1346.6700007258455
 30
0.0
 41
1.0
 10
933.05878104304725
 20
-1346.6811074156244
 30
0.0
 41
1.0
 10
933.04414477824366
 20
-1346.6922141054031
 30
0.0
 41
1.0
 10
932.93239661823543
 20
-1346.7770138930005
 30
0.0
 41
0.9998091630800589
 10
932.8240463402102
 20
-1346.8661142436997
 30
0.0
 41
1.0
 10
932.81104058772905
 20
-1346.876809344149
 30
0.0
 41
1.0
 10
932.7980348352479
 20
-1346.8875044445981
 30
0.0
 41
1.0
 10
932.6636730522697
 20
-1346.9979949961883
 30
0.0
 41
0.9995035112317449
 10
932.53653717450811
 20
-1347.116728813201
 30
0.0
 41
1.0
 10
932.52688986411681
 20
-1347.1257385593626
 30
0.0
 41
1.0
 10
932.5172425537254
 20
-1347.1347483055242
 30
0.0
 41
1.0
 10
932.39381949096219
 20
-1347.2500146772779
 30
0.0
 41
0.9994630424299216
 10
932.27821108517833
 20
-1347.3731174205132
 30
0.0
 41
1.0
 10
932.27452824640773
 20
-1347.3770390000254
 30
0.0
 41
1.0
 10
932.27084540763701
 20
-1347.3809605795375
 30
0.0
 41
1.0
 10
932.16260267939629
 20
-1347.4962201637463
 30
0.0
 41
0.9995160693749829
 10
932.0617366498625
 20
-1347.617987581621
 30
0.0
 41
1.0
 10
932.05980292978529
 20
-1347.6203220058248
 30
0.0
 41
1.0
 10
932.0578692097082
 20
-1347.6226564300287
 30
0.0
 41
1.0
 10
931.96087062033473
 20
-1347.7397549994885
 30
0.0
 41
0.9996561470514949
 10
931.87014440166467
 20
-1347.8617777619427
 30
0.0
 41
1.0
 10
931.8639867357598
 20
-1347.870059550989
 30
0.0
 41
1.0
 10
931.85782906985492
 20
-1347.8783413400351
 30
0.0
 41
1.0
 10
931.77941818299541
 20
-1347.9838005243962
 30
0.0
 41
0.9998349055174174
 10
931.70489090106662
 20
-1348.0920391080554
 30
0.0
 41
1.0
 10
931.63036361914351
 20
-1348.2002776917054
 30
0.0
 41
0.9999728109572971
 10
931.55744072323648
 20
-1348.3096036172553
 30
0.0
 41
1.0
 10
931.55612550781859
 20
-1348.3115753867671
 30
0.0
 41
1.0
 10
931.5548102924007
 20
-1348.3135471562789
 30
0.0
 41
1.0
 10
931.4792569656579
 20
-1348.4268166208528
 30
0.0
 41
0.9999972147432937
 10
931.4042391552772
 20
-1348.5404414636989
 30
0.0
 41
1.0
 10
931.3992676126627
 20
-1348.5479715521592
 30
0.0
 41
1.0
 10
931.39429607004831
 20
-1348.5555016406197
 30
0.0
 41
1.0
 10
931.30933517443282
 20
-1348.6841866603952
 30
0.0
 41
0.99993719790032
 10
931.22727982503284
 20
-1348.8147435741653
 30
0.0
 41
1.0
 10
931.22377094066701
 20
-1348.8203265022366
 30
0.0
 41
1.0
 10
931.22026205630118
 20
-1348.8259094303082
 30
0.0
 41
1.0
 10
931.13118893817
 20
-1348.9676322002208
 30
0.0
 41
0.9998272025610533
 10
931.04744554728541
 20
-1349.1125680769683
 30
0.0
 41
1.0
 10
931.03223037526402
 20
-1349.1389011914205
 30
0.0
 41
1.0
 10
931.01701520324264
 20
-1349.1652343058727
 30
0.0
 41
1.0
 10
930.90284146831186
 20
-1349.3628364115293
 30
0.0
 41
0.999521721483802
 10
930.80110177875599
 20
-1349.5671187393921
 30
0.0
 41
1.0
 10
930.79345821612151
 20
-1349.582466189094
 30
0.0
 41
1.0
 10
930.78581465348691
 20
-1349.597813638796
 30
0.0
 41
1.0
 10
930.69890936089746
 20
-1349.7723100968772
 30
0.0
 41
0.9998269762608736
 10
930.61855489462494
 20
-1349.9499183836012
 30
0.0
 41
1.0
 10
930.53820042834968
 20
-1350.1275266703319
 30
0.0
 41
0.9998944747389725
 10
930.46303963378477
 20
-1350.3073943959623
 30
0.0
 41
1.0
 10
930.45808596419647
 20
-1350.3192490508729
 30
0.0
 41
1.0
 10
930.45313229460817
 20
-1350.3311037057836
 30
0.0
 41
1.0
 10
930.37248523405196
 20
-1350.5241006458095
 30
0.0
 41
0.9999506734406949
 10
930.29568770514913
 20
-1350.7186614506641
 30
0.0
 41
1.0
 10
930.28108773987719
 20
-1350.7556493724726
 30
0.0
 41
1.0
 10
930.26648777460537
 20
-1350.7926372942811
 30
0.0
 41
1.0
 10
930.21889017624221
 20
-1350.9132222555286
 30
0.0
 41
0.9999912393923421
 10
930.1723037322231
 20
-1351.0342014582161
 30
0.0
 41
1.0
 10
930.1257172881925
 20
-1351.1551806609327
 30
0.0
 41
0.9999927113932893
 10
930.08005599379135
 20
-1351.2765120684535
 30
0.0
 41
1.0
 10
930.06608756240109
 20
-1351.3136290504326
 30
0.0
 41
1.0
 10
930.05211913101084
 20
-1351.3507460324117
 30
0.0
 41
1.0
 10
929.97852097382213
 20
-1351.5463114039089
 30
0.0
 41
0.9999487550947313
 10
929.90889734885195
 20
-1351.7433267690874
 30
0.0
 41
1.0
 10
929.88530373891535
 20
-1351.8100900793793
 30
0.0
 41
1.0
 10
929.86171012897876
 20
-1351.8768533896714
 30
0.0
 41
1.0
 10
929.76702449461027
 20
-1352.1447872244903
 30
0.0
 41
0.9999808436932252
 10
929.6756629059638
 20
-1352.413872655769
 30
0.0
 41
1.0
 10
929.58430131732212
 20
-1352.6829580870344
 30
0.0
 41
0.9999873932928133
 10
929.49564660860335
 20
-1352.9529474420497
 30
0.0
 41
1.0
 10
929.47555425173437
 20
-1353.014136774801
 30
0.0
 41
1.0
 10
929.45546189486549
 20
-1353.0753261075527
 30
0.0
 41
1.0
 10
929.32662247241137
 20
-1353.4676941280636
 30
0.0
 41
0.9999794883031217
 10
929.20281968745394
 20
-1353.8616803343393
 30
0.0
 41
1.0
 10
929.19166742801383
 20
-1353.8971709445846
 30
0.0
 41
1.0
 10
929.18051516857372
 20
-1353.93266155483
 30
0.0
 41
1.0
 10
929.03795700468856
 20
-1354.386334306877
 30
0.0
 41
0.9999982761779075
 10
928.89708456466303
 20
-1354.840533329033
 30
0.0
 41
1.0
 10
927.30894423209043
 20
-1359.8893030600361
 30
0.0
 41
1.0
 10
925.72080389951782
 20
-1364.9380727910395
 30
0.0
 41
1.0
 10
924.77205328804143
 20
-1364.9380727910395
 30
0.0
 41
1.0
 10
923.82330267656505
 20
-1364.9380727910395
 30
0.0
 41
1.0
 10
927.0615871627183
 20
-1354.6107505910934
 30
0.0
 41
1.0
 10
930.29987164887143
 20
-1344.2834283911473
 30
0.0
 41
1.0
  0
LWPOLYLINE
  5
54
100
AcDbEntity
  8
0
370
              15
390
0
  6
Continuous
 62
               7
100
AcDbPolyline
 90
      232
 70
             128
 10
904.59632587504439
 20
-1345.3677712226624
 42
0.0004370800695134
 10
904.54344870084788
 20
-1345.4364378620803
 10
904.50416446984491
 20
-1345.4875449748151
 42
0.0030481992177105
 10
904.37382575270476
 20
-1345.6592666671875
 10
904.33531408097531
 20
-1345.7106534509476
 42
0.0042058245753737
 10
904.13132903031783
 20
-1345.9876591960042
 10
904.07892390780478
 20
-1346.0600920428019
 42
0.0120948898743858
 10
903.78287999104509
 20
-1346.4908416473486
 10
903.68668749191886
 20
-1346.6383223825799
 42
0.0141601263946714
 10
903.38304344499943
 20
-1347.1339917193113
 10
903.34350617757275
 20
-1347.2028356867443
 42
0.0071131081301476
 10
903.13823385433511
 20
-1347.5723384855812
 42
0.006845879100362
 10
902.94335432749574
 20
-1347.9474300490497
 10
902.93654246503422
 20
-1347.9609917627808
 42
0.0064120880290803
 10
902.73840021498449
 20
-1348.3684162377115
 10
902.73086552947291
 20
-1348.3844280944211
 42
0.0058857236447222
 10
902.52811013760731
 20
-1348.8288042054423
 10
902.51993521130726
 20
-1348.84729435909
 42
0.0053189741894826
 10
902.31123089864161
 20
-1349.3332578330037
 10
902.30248309295837
 20
-1349.3542397112042
 42
0.0047503650420391
 10
902.08650936681215
 20
-1349.8864391444026
 10
902.0772411184596
 20
-1349.9099155205217
 42
0.0042071762174244
 10
901.8526937347292
 20
-1350.4930091145984
 10
901.84294433238313
 20
-1350.5189752894612
 42
0.0036680086485753
 10
901.60848968907237
 20
-1351.1576106739888
 10
901.59828190922326
 20
-1351.1860592083367
 42
0.0032573142625804
 10
901.35264962326505
 20
-1351.8849118680653
 10
901.28399910241637
 20
-1352.0843749521414
 42
0.0026133366649032
 10
900.93555390365782
 20
-1353.114238235815
 10
900.87229711615203
 20
-1353.3044690712238
 42
0.002059295074034
 10
900.6584340471901
 20
-1353.9565727238212
 10
900.65538225602518
 20
-1353.9660092122365
 42
0.0025609928534849
 10
900.45356175454117
 20
-1354.6011544345968
 10
900.45097038741062
 20
-1354.6094567755495
 42
0.0031362356241602
 10
900.26147960173762
 20
-1355.2302196317169
 10
900.2593485588128
 20
-1355.237360937919
 42
0.0037229918028538
 10
900.08254817188379
 20
-1355.8463462399022
 10
900.08086958268677
 20
-1355.8522931300431
 42
0.004307762370311
 10
899.9171287806123
 20
-1356.4521118618454
 42
0.0047654161822656
 10
899.76430005809721
 20
-1357.0547979507442
 10
899.72983544925728
 20
-1357.1963597278977
 42
0.0112969368446984
 10
899.53397109111381
 20
-1358.088051888521
 10
899.50596470201697
 20
-1358.2308799346197
 42
0.0130056762572941
 10
899.30512745837041
 20
-1359.4178210062646
 10
899.28458770822363
 20
-1359.5618991197391
 42
0.0138721532146307
 10
899.18088470368536
 20
-1360.4687286055673
 10
899.16158921577812
 20
-1360.6922263274846
 42
0.0071254697008612
 10
899.12824256985482
 20
-1361.1554133363397
 10
899.12328159569256
 20
-1361.2414173308816
 42
0.0028881799195894
 10
899.10814330240169
 20
-1361.5331590407422
 42
0.0060297297137989
 10
899.09821110262601
 20
-1361.8251079768659
 10
899.09714882095909
 20
-1361.8735003487893
 42
0.0229523164155306
 10
899.10487984874487
 20
-1362.1962551950737
 10
899.10910562226582
 20
-1362.2566587290983
 42
0.0123673300668921
 10
899.12818426878357
 20
-1362.4577794542647
 42
0.0128577674466698
 10
899.15737965918936
 20
-1362.6576773041882
 10
899.16450553257687
 20
-1362.6990061187885
 42
0.0285717853763685
 10
899.22899953427282
 20
-1362.9771222701029
 10
899.242668057939
 20
-1363.023777039579
 42
0.0316283099163109
 10
899.3584786378533
 20
-1363.3427915414049
 10
899.36152732960818
 20
-1363.3497779137292
 42
0.0338984824235367
 10
899.51095904057593
 20
-1363.6373438779196
 10
899.5132677699454
 20
-1363.641134907195
 42
0.0350228718354456
 10
899.69562806061936
 20
-1363.8981868918725
 10
899.69651331239481
 20
-1363.8992659696371
 42
0.0347476747531247
 10
899.91093799963448
 20
-1364.1264510168567
 42
0.0331337701910395
 10
900.15418132538173
 20
-1364.3225796789345
 10
900.15528142389701
 20
-1364.3233523821063
 42
0.0305233319080649
 10
900.42382611947153
 20
-1364.4884805521986
 10
900.42705616397166
 20
-1364.4902045640606
 42
0.0273744481150867
 10
900.71960987554485
 20
-1364.6263427079505
 10
900.72471441068342
 20
-1364.6283862924206
 42
0.0240964406195589
 10
901.04019148632835
 20
-1364.7373700187018
 10
901.04677481553904
 20
-1364.7392947583771
 42
0.0209636179811973
 10
901.3841749681917
 20
-1364.822762906309
 10
901.39180742864039
 20
-1364.8243148193105
 42
0.0181388704693242
 10
901.75012982063947
 20
-1364.8837309125245
 10
901.75841066901694
 20
-1364.8847970963416
 42
0.0156086547588951
 10
902.13659803320809
 20
-1364.9215332829183
 10
902.17979328553338
 20
-1364.9243717853972
 42
0.0137148329021881
 10
902.50746643083176
 20
-1364.9368920406487
 10
902.55340262078244
 20
-1364.937386473764
 42
0.0051057823886271
 10
902.78954820734998
 20
-1364.9375167281728
 42
0.0052256693311884
 10
903.02564549112299
 20
-1364.932767903709
 10
903.09587227487805
 20
-1364.9306209376946
 42
0.0161507179047769
 10
903.47160935298007
 20
-1364.906970567368
 10
903.49162231335231
 20
-1364.9050603720805
 42
0.0101216737833179
 10
903.90564953484534
 20
-1364.8570674417147
 10
903.93970282426983
 20
-1364.8524197449053
 42
0.0245291776397548
 10
904.41649247982173
 20
-1364.763344666829
 10
904.50131579534548
 20
-1364.7431487464833
 42
0.0143509212554236
 10
904.85794689928457
 20
-1364.6473441127046
 42
0.0156557857033148
 10
905.20816296401028
 20
-1364.5303328968864
 10
905.21566417850647
 20
-1364.5275627351316
 42
0.0170137333630979
 10
905.57226017419111
 20
-1364.3819051202588
 10
905.57936409659533
 20
-1364.3787172846967
 42
0.0183105364413107
 10
905.93871376475875
 20
-1364.2013822428737
 10
905.94566052940036
 20
-1364.1976318080001
 42
0.0194899958153304
 10
906.30414127038591
 20
-1363.9856528261084
 10
906.31115514972112
 20
-1363.9811274838144
 42
0.0204869852949973
 10
906.66516945181047
 20
-1363.7316074687319
 10
906.67243506040199
 20
-1363.7260274033802
 42
0.0212516938556041
 10
907.01842499151019
 20
-1363.4361234064856
 10
907.0649416855872
 20
-1363.3936560963905
 42
0.0215248918253858
 10
907.32496785447324
 20
-1363.1348918173976
 10
907.36999758886191
 20
-1363.086047696039
 42
0.0114578554959381
 10
907.52478974253131
 20
-1362.9102247625892
 10
907.53598427850932
 20
-1362.8969059990541
 42
0.0061531305130197
 10
907.66245892451229
 20
-1362.7426164657381
 42
0.0006325587125346
 10
907.78683740873157
 20
-1362.5866130899776
 10
907.80987754371563
 20
-1362.5576395694031
 42
0.0041897761559821
 10
907.97833294768725
 20
-1362.3421201933425
 10
908.03679506758044
 20
-1362.266018846356
 42
0.0092993880039574
 10
908.31340699480495
 20
-1361.891740082471
 10
908.39580148800178
 20
-1361.7758030789055
 42
0.0159321727085459
 10
908.74240797064544
 20
-1361.2536288581475
 10
908.78676410603748
 20
-1361.1819492938926
 42
0.0085547317022997
 10
909.02127587136033
 20
-1360.7880743446729
 42
0.0084601156892142
 10
909.24225204880759
 20
-1360.386447495631
 10
909.2503675226327
 20
-1360.3710878133677
 42
0.0081429654286467
 10
909.47361679307221
 20
-1359.9313663008227
 10
909.48247695725422
 20
-1359.9131874588074
 42
0.0076574581328097
 10
909.70888446782556
 20
-1359.4300045835446
 10
909.71836410854462
 20
-1359.4089401052515
 42
0.0070682724199569
 10
909.9488090163519
 20
-1358.8769028004688
 10
909.95879930033311
 20
-1358.8529136114585
 42
0.0064559514448769
 10
910.19413250851744
 20
-1358.266601344933
 10
910.20454186667985
 20
-1358.2396664194976
 42
0.0058311413905137
 10
910.44558860344239
 20
-1357.593634325114
 10
910.45634368083006
 20
-1357.5637499839531
 42
0.0052312425817823
 10
910.70392495887234
 20
-1356.8525475701149
 10
910.7149687952508
 20
-1356.8197208580491
 42
0.0046680544797213
 10
910.96989722298133
 20
-1356.0378945423063
 10
911.011889373028
 20
-1355.9049113050048
 42
0.0041666856442742
 10
911.21517538542366
 20
-1355.2419425299965
 10
911.25283782610529
 20
-1355.1153614222828
 42
0.0015170975161894
 10
911.37402440450057
 20
-1354.7034930708492
 42
-0.0004887993113195
 10
911.49436417760967
 20
-1354.2913746588551
 10
911.57084143511884
 20
-1354.0304172728661
 42
0.0002583378926239
 10
911.84405600519938
 20
-1353.0963605696311
 10
911.92582885474644
 20
-1352.8162613101492
 42
0.0006636169674243
 10
912.11969661477099
 20
-1352.148908386517
 10
912.12479326914195
 20
-1352.1312768035541
 42
0.0010589131323655
 10
912.30624197003465
 20
-1351.498545460588
 10
912.31122404049927
 20
-1351.4810325536237
 42
0.0015655524461838
 10
912.47949424769786
 20
-1350.8824158743671
 10
912.48432444810874
 20
-1350.8650237154461
 42
0.0021640440477222
 10
912.63861442009897
 20
-1350.299996697413
 10
912.64324863953368
 20
-1350.2827319674013
 42
0.0028763871852678
 10
912.78276435758175
 20
-1349.7507640165722
 10
912.78715022174583
 20
-1349.7336400384302
 42
0.0037310511945752
 10
912.91110691358585
 20
-1349.234192444394
 10
912.91518213388269
 20
-1349.2172321731159
 42
0.0047652197773299
 10
913.02280603438339
 20
-1348.7497544048433
 10
913.02649663370471
 20
-1348.7329948497027
 42
0.0060276699296784
 10
913.1170267328605
 20
-1348.2969190545491
 10
913.12024542314748
 20
-1348.2804178402507
 42
0.0075824337756523
 10
913.19293473256505
 20
-1347.8751506758138
 10
913.19558010994524
 20
-1347.8589957283639
 42
0.0095130624606122
 10
913.24969534557658
 20
-1347.4839063752916
 10
913.25668156945949
 20
-1347.4279728171723
 42
0.0121054653223249
 10
913.28327290003699
 20
-1347.1630769887011
 10
913.28413938979668
 20
-1347.1516735457694
 42
0.0069050827386781
 10
913.29922820783418
 20
-1346.9087323189278
 10
913.30036350750254
 20
-1346.8852060618876
 42
0.0169063976702
 10
913.30319078648313
 20
-1346.6890133345823
 10
913.30202013495216
 20
-1346.6286775732469
 42
0.0052007732883973
 10
913.29976668635879
 20
-1346.553084183081
 42
0.0054038123296892
 10
913.27980317452
 20
-1346.4330658870713
 10
913.27471731864944
 20
-1346.4044074004898
 42
0.0112050460462354
 10
913.23933295659231
 20
-1346.2280809621568
 10
913.22150799455039
 20
-1346.1485393754301
 42
0.024076446800923
 10
913.13061062840359
 20
-1345.8183023399274
 10
913.11205186559039
 20
-1345.7616821749341
 42
0.0256812331836454
 10
912.96868894540125
 20
-1345.3899579686777
 10
912.96327951957971
 20
-1345.3778266336876
 42
0.0268360501213944
 10
912.7938522787299
 20
-1345.0468334996669
 10
912.78831587109562
 20
-1345.037313829356
 42
0.0274670231727954
 10
912.59611489468148
 20
-1344.7450264544373
 10
912.5907335947195
 20
-1344.7377473068966
 42
0.0275035967102829
 10
912.37916071515701
 20
-1344.482231416592
 10
912.37409121419068
 20
-1344.4767523289618
 42
0.0269557673528733
 10
912.14668767075091
 20
-1344.2561100429994
 10
912.14194461296745
 20
-1344.2519800885379
 42
0.025912480221145
 10
911.90238978153752
 20
-1344.064289561386
 10
911.89785893635462
 20
-1344.061104059055
 42
0.0245162153006055
 10
911.64994258326089
 20
-1343.9043710499454
 10
911.64541603693726
 20
-1343.9018108527448
 42
0.0229282588836916
 10
911.39299648010933
 20
-1343.7739426602457
 10
911.3882159862718
 20
-1343.7717903604832
 42
0.0212984135697876
 10
911.13517803381092
 20
-1343.6705914432414
 10
911.12987374884199
 20
-1343.6687278804816
 42
0.0197555462344861
 10
910.88009541111842
 20
-1343.5919124625166
 42
0.0183511896787472
 10
910.62516668565672
 20
-1343.5343295555513
 10
910.53880148893359
 20
-1343.5181267651662
 42
0.0338057877143884
 10
910.25329413967188
 20
-1343.4843183600256
 10
910.16228873462273
 20
-1343.4797387047638
 42
0.0091990524499561
 10
910.05644162599594
 20
-1343.4763628488422
 42
0.002833398078674
 10
909.95052771000735
 20
-1343.4755347413256
 10
909.94961225695374
 20
-1343.4755327715015
 42
-0.0023619827800398
 10
909.84186624184974
 20
-1343.474791930423
 10
909.80546107167197
 20
-1343.4743696239598
 42
0.0008824598475233
 10
909.62490508179178
 20
-1343.4725938457213
 10
909.58104364941607
 20
-1343.4722398841959
 42
0.0038132665763979
 10
909.31276075354435
 20
-1343.4721209481293
 10
909.29622709874377
 20
-1343.472239714273
 42
0.0060665569336712
 10
908.99494660714959
 20
-1343.4780600136939
 10
908.98069627512712
 20
-1343.4785083216614
 42
0.0080356953334934
 10
908.65123755879085
 20
-1343.494176043728
 10
908.63916754370064
 20
-1343.4949446266687
 42
0.0098996399105763
 10
908.28640445905273
 20
-1343.5244298558666
 10
908.27635874967507
 20
-1343.5254701520651
 42
0.011774098137077
 10
907.9052018913211
 20
-1343.5727623995958
 10
907.89697919484377
 20
-1343.5740075161657
 42
0.0137435215135308
 10
907.51239037536209
 20
-1343.6431044897267
 10
907.50573333623538
 20
-1343.644490385961
 42
0.0158359869387554
 10
907.11273624243256
 20
-1343.7393824744418
 10
907.10732305556576
 20
-1343.7408724153122
 42
0.0180554124027184
 10
906.71100801095361
 20
-1343.8655104315508
 10
906.70645122286987
 20
-1343.8671264678173
 42
0.0203657431283457
 10
906.31197370505663
 20
-1344.0253868093337
 10
906.30783016605119
 20
-1344.0272484307748
 42
0.0226819684655106
 10
905.92039410984898
 20
-1344.2228910094452
 10
905.91619431882941
 20
-1344.2252566013658
 42
0.0248634984607038
 10
905.54101237764871
 20
-1344.4618832473125
 10
905.49281744886434
 20
-1344.4957402891384
 42
0.0267044190886665
 10
905.21852475194771
 20
-1344.7111806650069
 42
0.01393030022011
 10
904.96235758600938
 20
-1344.9484195059183
 10
904.95750420028799
 20
-1344.9531721687788
 42
0.0283460963444056
 10
904.71343160605932
 20
-1345.2209028292255
 10
904.67376310090424
 20
-1345.269704406697
 42
0.0070695364819099
 10
904.59632587504439
 20
-1345.3677712226624
 42
0.0070695364819099
  0
LWPOLYLINE
  5
55
100
AcDbEntity
  8
0
370
              15
390
0
  6
Continuous
 62
               7
100
AcDbPolyline
 90
      226
 70
             128
 10
901.06750543779799
 20
-1361.0893600288464
 42
-0.0026277636664861
 10
901.06742755399785
 20
-1361.0225881031377
 10
901.06764491222998
 20
-1360.9694328856604
 42
-0.0088680296727851
 10
901.07142152852316
 20
-1360.7964171032543
 10
901.07376788763554
 20
-1360.7371370778037
 42
-0.007738170561363
 10
901.08981399839854
 20
-1360.4458765820066
 10
901.09068190957169
 20
-1360.4335883483204
 42
-0.0068872530533688
 10
901.11731398932056
 20
-1360.1183665962437
 10
901.11851821350592
 20
-1360.1061256172325
 42
-0.0062130021483879
 10
901.15611193033419
 20
-1359.7672559259909
 10
901.15761583386893
 20
-1359.7550820540775
 42
-0.0056726929672042
 10
901.20653769337002
 20
-1359.3928868319717
 10
901.20831113901556
 20
-1359.3807930317189
 42
-0.0052341884498852
 10
901.26892172527471
 20
-1358.9955997762063
 10
901.27093971405225
 20
-1358.9835948462085
 42
-0.0049768450168033
 10
901.34367839547667
 20
-1358.5757502787858
 10
901.36792741020031
 20
-1358.4472022957698
 42
-0.008902980562504
 10
901.50500826199652
 20
-1357.7854268483411
 10
901.53775363731359
 20
-1357.640395417824
 42
-0.0080318257099981
 10
901.7673022516517
 20
-1356.6946857859805
 10
901.77928717810255
 20
-1356.6485551507803
 42
-0.0074265721320384
 10
902.063298716948
 20
-1355.6184905724151
 10
902.08317826006589
 20
-1355.5503565118211
 42
-0.0069711922702006
 10
902.41048283857583
 20
-1354.4840887714822
 10
902.47043478567593
 20
-1354.2980674131281
 42
-0.005207042289489
 10
902.69986001094071
 20
-1353.6107953360804
 10
902.71714120312481
 20
-1353.5607680554292
 42
-0.000916700445021
 10
902.92023309040223
 20
-1352.9763122073091
 42
-0.0025162726943269
 10
903.12733072066169
 20
-1352.3932709431556
 10
903.1645553324804
 20
-1352.2901213972134
 42
-0.0028212681457336
 10
903.41273125143334
 20
-1351.6143907650703
 10
903.42256201418115
 20
-1351.5880833204012
 42
-0.0031964916822999
 10
903.65885427184639
 20
-1350.9678785582664
 10
903.66848872585024
 20
-1350.9430685681107
 42
-0.003628183645252
 10
903.89359468694659
 20
-1350.3756278872302
 10
903.90303309709532
 20
-1350.3523304557489
 42
-0.0041269166831925
 10
904.11765079376323
 20
-1349.8348895597489
 10
904.15028375018483
 20
-1349.7580111133861
 42
-0.0047472213058889
 10
904.30732855573763
 20
-1349.3975896455045
 10
904.31422263696334
 20
-1349.3821690481332
 42
-0.0025651659992177
 10
904.462580670796
 20
-1349.054840992424
 42
-0.0057144634995181
 10
904.61633036456237
 20
-1348.7300313190717
 10
904.64436106997027
 20
-1348.6725229366639
 42
-0.0065388068373828
 10
904.82782809770833
 20
-1348.3082904400023
 10
904.83628655348332
 20
-1348.2920308606397
 42
-0.0074510843023166
 10
905.01246879936468
 20
-1347.96534257951
 10
905.02064846988947
 20
-1347.9507018022523
 42
-0.0084648979861101
 10
905.1902823229957
 20
-1347.6587927912801
 10
905.19813844948521
 20
-1347.6457857996268
 42
-0.0095638542799236
 10
905.36197389707809
 20
-1347.3858969276507
 10
905.36944884074785
 20
-1347.3745275661981
 42
-0.0107191626806688
 10
905.52825042113739
 20
-1347.1439163316513
 10
905.53526715486726
 20
-1347.1341802392883
 42
-0.0118458573904818
 10
905.68981525338097
 20
-1346.9301080439759
 42
-0.0129184518195934
 10
905.85426787697531
 20
-1346.7339475278136
 10
905.88441264934841
 20
-1346.6998214489026
 42
-0.0217742579633481
 10
906.06102497168104
 20
-1346.516614678656
 10
906.07177051613769
 20
-1346.5063978454566
 42
-0.0097266568652354
 10
906.23782813499702
 20
-1346.3545502710156
 42
-0.0187720905717437
 10
906.41217571088771
 20
-1346.2124814176257
 10
906.44288170156176
 20
-1346.1893223352295
 42
-0.0179428207518149
 10
906.67530242155692
 20
-1346.0267701581186
 10
906.67895474847467
 20
-1346.0244062232296
 42
-0.0170047877695343
 10
906.91471838600307
 20
-1345.8829457090792
 10
906.91850137474819
 20
-1345.8808474040436
 42
-0.0160190788363138
 10
907.15540992238493
 20
-1345.7591961020548
 42
-0.0151102861486744
 10
907.39944170483159
 20
-1345.6525133260002
 10
907.45182820704338
 20
-1345.6314731931056
 42
-0.0271945441889838
 10
907.81049076610134
 20
-1345.5096083823998
 10
907.87955556659028
 20
-1345.4902588411333
 42
-0.0237596594023698
 10
908.29535241361214
 20
-1345.3948081291519
 10
908.36341526734282
 20
-1345.382553441025
 42
-0.0213715440554768
 10
908.64929019878787
 20
-1345.3436064095151
 10
908.70943736500305
 20
-1345.3380166948145
 42
-0.0101465655825867
 10
908.87692989700008
 20
-1345.3258731515502
 10
908.88627028320229
 20
-1345.3253862365527
 42
-0.0100375910879717
 10
909.03542438376087
 20
-1345.3206104186277
 10
909.0456836534438
 20
-1345.3204879796133
 42
-0.0103625633382004
 10
909.17439164809616
 20
-1345.3216194131398
 10
909.19665729936764
 20
-1345.3222767716049
 42
-0.0115689250238729
 10
909.28070803689093
 20
-1345.32670627785
 42
-0.0072438037433436
 10
909.36454631633671
 20
-1345.3342954775999
 10
909.38134682580289
 20
-1345.3360620203234
 42
-0.0217917313132747
 10
909.49791658911806
 20
-1345.3534819130448
 10
909.56351667968215
 20
-1345.3662285214587
 42
-0.0332943556757666
 10
909.76790884471166
 20
-1345.4202688127662
 10
909.79808141325827
 20
-1345.4304368898834
 42
-0.0184824084811743
 10
909.93658646972699
 20
-1345.4828879052711
 42
-0.0198002050698942
 10
910.07066081022674
 20
-1345.5457719654705
 10
910.07254744760326
 20
-1345.5467497523503
 42
-0.0212242342977424
 10
910.20468639000626
 20
-1345.6225124911439
 10
910.2065016855488
 20
-1345.6236582933516
 42
-0.0226090605786677
 10
910.33500558677088
 20
-1345.7131379369166
 10
910.3368500285078
 20
-1345.7145501899035
 42
-0.0238457052225902
 10
910.46003210980132
 20
-1345.8185460857662
 10
910.46198483835985
 20
-1345.820360963532
 42
-0.0248160564154382
 10
910.5781863456599
 20
-1345.93963556474
 10
910.58028997906263
 20
-1345.9420208984452
 42
-0.0254109591440368
 10
910.68789519692837
 20
-1346.0773092844092
 10
910.69014321884265
 20
-1346.0804508328101
 42
-0.025552848827988
 10
910.7875898976398
 20
-1346.232477887045
 10
910.78992099755578
 20
-1346.2365594986522
 42
-0.0252146793216108
 10
910.87570202356619
 20
-1346.4060617446519
 10
910.87800426272258
 20
-1346.411243826562
 42
-0.0244265635941086
 10
910.95065895648418
 20
-1346.5989903986087
 10
910.95990535795204
 20
-1346.6268558169452
 42
-0.0231319612897551
 10
911.0058281369445
 20
-1346.7901568637481
 42
-0.0112130424367279
 10
911.04046415948255
 20
-1346.9563604639357
 10
911.04166668459516
 20
-1346.9628570508239
 42
-0.0210527881235022
 10
911.06735315996582
 20
-1347.1439126962619
 10
911.07086375478798
 20
-1347.1793182448125
 42
-0.0190029892424323
 10
911.08630522833255
 20
-1347.4328540910865
 10
911.08711520477652
 20
-1347.4683297054539
 42
-0.013797455366794
 10
911.08556635194145
 20
-1347.7933611121739
 10
911.08472089698546
 20
-1347.8194798567802
 42
-0.0081336634214637
 10
911.06986156176288
 20
-1348.1248273243793
 42
-0.0073526923572291
 10
911.04555302838901
 20
-1348.4295755686574
 10
911.04429160460552
 20
-1348.4429122433305
 42
-0.0066886138694495
 10
911.00855601855915
 20
-1348.7734982868267
 10
911.00689892908917
 20
-1348.7871199058191
 42
-0.0061359187349635
 10
910.95904832703638
 20
-1349.1438838859319
 10
910.95701082596543
 20
-1349.1577786887483
 42
-0.0056698610060903
 10
910.89636049519731
 20
-1349.5410572575922
 10
910.8939550618752
 20
-1349.555216376817
 42
-0.0052721077276839
 10
910.81982286107689
 20
-1349.9653437164886
 10
910.81705971223391
 20
-1349.9797603518809
 42
-0.0049289272173518
 10
910.72876559413328
 20
-1350.4170688630065
 10
910.72565309945139
 20
-1350.4317377158193
 42
-0.0047415956712552
 10
910.62241510792012
 20
-1350.8965344732248
 10
910.58764689755924
 20
-1351.0463415686131
 42
-0.0084404470902689
 10
910.39763045398752
 20
-1351.8065655931439
 10
910.39150376600173
 20
-1351.8294297172977
 42
-0.0039635940257747
 10
910.17005008172077
 20
-1352.6304185815343
 10
910.15667328653819
 20
-1352.677350198137
 42
-0.0072475040837031
 10
909.88922639867599
 20
-1353.5665699145243
 10
909.81901407184444
 20
-1353.7883102645094
 42
-0.005134545882591
 10
909.53225469978884
 20
-1354.6626354523103
 10
909.51072843303405
 20
-1354.7260617194029
 42
-0.0019150016603374
 10
909.25519502615464
 20
-1355.4696108396663
 10
909.24872742174966
 20
-1355.4881983046128
 42
-0.0021524362750979
 10
909.00024937069452
 20
-1356.1925241262957
 10
908.99103894999837
 20
-1356.2182777045964
 42
-0.0024331286822324
 10
908.75478369096209
 20
-1356.8688770127155
 10
908.74573573839905
 20
-1356.8934203191038
 42
-0.0027449721785972
 10
908.52112116757621
 20
-1357.4925501979942
 10
908.51223116018798
 20
-1357.5158727878359
 42
-0.0031083229769293
 10
908.29868867357402
 20
-1358.0657968254261
 10
908.28995254189795
 20
-1358.0878865412853
 42
-0.0035311343278552
 10
908.0869113563067
 20
-1358.590869667014
 10
908.07832601715722
 20
-1358.6117123905287
 42
-0.0040245640950429
 10
907.88521421336452
 20
-1359.0700217131166
 10
907.87677809976356
 20
-1359.0896010811839
 42
-0.0046015135853634
 10
907.6930218065977
 20
-1359.505506110831
 10
907.68473562877045
 20
-1359.5238032502807
 42
-0.0052768638271472
 10
907.5097581098139
 20
-1359.8995761345534
 10
907.50162589918227
 20
-1359.9165694731066
 42
-0.0060672675640601
 10
907.334846286421
 20
-1360.2544850962108
 10
907.32687680593938
 20
-1360.2701503552082
 42
-0.0069904648870889
 10
907.16770841193784
 20
-1360.5724861618719
 10
907.15991701233133
 20
-1360.5867967110914
 42
-0.0080637022765675
 10
907.00776515198118
 20
-1360.8558320142522
 10
907.00017611935391
 20
-1360.8687598798463
 42
-0.0093006455667536
 10
906.8544354428185
 20
-1361.1067742783562
 10
906.84708477607285
 20
-1361.1182922475325
 42
-0.0107060778045739
 10
906.70713623263646
 20
-1361.3275625649082
 10
906.70007446435477
 20
-1361.337648107477
 42
-0.012272311141258
 10
906.56528074615858
 20
-1361.5204414369632
 10
906.56495452260253
 20
-1361.5208618247755
 42
-0.0141836319617719
 10
906.42137291963058
 20
-1361.6954315826024
 10
906.41442516397353
 20
-1361.703406582873
 42
-0.0175957477201654
 10
906.27451899594394
 20
-1361.8530274712718
 42
-0.008046635967185
 10
906.12705523091063
 20
-1361.9953499994258
 10
906.08102068639619
 20
-1362.0383704375142
 42
-0.0269600260393692
 10
905.82774044041514
 20
-1362.2506936960222
 10
905.76117330411398
 20
-1362.3006451106489
 42
-0.0178362839752224
 10
905.52122881446041
 20
-1362.4676630368997
 10
905.51398384345998
 20
-1362.4723315491046
 42
-0.0174650732650439
 10
905.27764764601875
 20
-1362.6131925140637
 42
-0.0169240130159724
 10
905.0321814001594
 20
-1362.737484773842
 10
904.9861952446031
 20
-1362.7588467294083
 42
-0.0318883036844544
 10
904.63584438898499
 20
-1362.8951850389178
 10
904.56747885381685
 20
-1362.9168856593944
 42
-0.0284435909898039
 10
904.19142872752741
 20
-1363.0131030948687
 10
904.15627056702886
 20
-1363.0199966906971
 42
-0.0243909341012868
 10
903.84282710610989
 20
-1363.0657177217272
 10
903.79254637933741
 20
-1363.070563268629
 42
-0.019663929292817
 10
903.57695080181156
 20
-1363.0828115541424
 10
903.52512673065075
 20
-1363.0837148148792
 42
-0.010050151068253
 10
903.41270344898385
 20
-1363.083414416526
 10
903.38104358764519
 20
-1363.0826933446408
 42
-0.0019752031139462
 10
903.33195125095835
 20
-1363.0813811844309
 10
903.32919094773342
 20
-1363.0812964926045
 42
0.006537875197253
 10
903.2856143729814
 20
-1363.0805296013898
 42
-0.0167974694643773
 10
903.24208355005237
 20
-1363.078869702864
 10
903.23800421078749
 20
-1363.0785766919689
 42
-0.0081283276273871
 10
903.18644441304673
 20
-1363.0740296983306
 10
903.17470483917054
 20
-1363.0728017807526
 42
-0.0126703440175488
 10
903.09998654337676
 20
-1363.0630669896811
 10
903.07719867570017
 20
-1363.0595087337658
 42
-0.0117852088424605
 10
902.95765968985938
 20
-1363.037945738607
 10
902.90227923810482
 20
-1363.0266021983741
 42
-0.0251774592302163
 10
902.67543519910066
 20
-1362.9681041889421
 10
902.63071600924434
 20
-1362.9541373696052
 42
-0.0146525199894098
 10
902.44432302170742
 20
-1362.8898708424076
 42
-0.0166929435860111
 10
902.26234536558025
 20
-1362.8140637093529
 10
902.25768873430752
 20
-1362.8119388087391
 42
-0.0191684358437366
 10
902.07250510305983
 20
-1362.7187027249499
 10
902.06917251730147
 20
-1362.7168614773959
 42
-0.0221181781810196
 10
901.8858622133987
 20
-1362.6047279790248
 10
901.88351240939073
 20
-1362.603143681034
 42
-0.0254984685383917
 10
901.70722225900511
 20
-1362.4707325310642
 10
901.68474011130297
 20
-1362.4519802221278
 42
-0.0292492648805177
 10
901.55997117246045
 20
-1362.3348874224851
 42
-0.0159048957512758
 10
901.44613117501217
 20
-1362.206867430888
 10
901.44481238443109
 20
-1362.2052858178658
 42
-0.0343813379569474
 10
901.34217512280486
 20
-1362.0634144920966
 10
901.31068359144456
 20
-1362.0129111000033
 42
-0.0369117275705972
 10
901.22479108954667
 20
-1361.849433859054
 42
-0.0191751379915637
 10
901.15759770399029
 20
-1361.6770292530503
 10
901.15583438023009
 20
-1361.6719359083731
 42
-0.0378178042227594
 10
901.10603966144561
 20
-1361.4829951322895
 10
901.10004436571489
 20
-1361.4504345140904
 42
-0.0184846046471773
 10
901.07932716642131
 20
-1361.3086816935499
 42
-0.0179866351308445
 10
901.06899416134752
 20
-1361.1657908804682
 10
901.06893771890179
 20
-1361.1642331938563
 42
-0.0085497186138934
 10
901.06750543779799
 20
-1361.0893600288464
 42
-0.0085497186138934
  0
ENDBLK
  5
56
100
AcDbEntity
  8
template
390
0
100
AcDbBlockEnd
  0
BLOCK
  5
57
100
AcDbEntity
  8
notes
390
0
100
AcDbBlockBegin
  2
*D3
 70
               1
 10
0.0
 20
0.0
 30
0.0
  3
*D3
  1

  0
LINE
  5
58
100
AcDbEntity
  8
0
370
              -2
390
0
  6
Continuous
 62
               0
100
AcDbLine
 10
-424.50195079984343
 20
777.38023882999971
 30
0.0
 11
-87.001950799843328
 21
777.38023882999971
 31
0.0
  0
LINE
  5
59
100
AcDbEntity
  8
0
370
              -2
390
0
  6
Continuous
 62
               0
100
AcDbLine
 10
-424.50195079984343
 20
352.38023882999983
 30
0.0
 11
-87.001950799843328
 21
352.38023882999983
 31
0.0
  0
LINE
  5
5A
100
AcDbEntity
  8
0
370
              -2
390
0
  6
Continuous
 62
               0
100
AcDbLine
 10
-87.001950799843328
 20
777.38023882999971
 30
0.0
 11
-87.001950799843328
 21
352.38023882999983
 31
0.0
  0
CIRCLE
  5
5B
102
{ACAD_REACTORS
330
5C
102
}
100
AcDbEntity
  8
0
370
              -2
390
0
  6
Continuous
 62
               0
100
AcDbCircle
 10
-87.001950799843328
 20
777.38023882999971
 30
0.0
 40
4.99969482421875
  0
HATCH
  5
5C
100
AcDbEntity
  8
0
370
              -2
390
0
  6
Continuous
 62
               0
100
AcDbHatch
 10
0.0
 20
0.0
 30
0.0
210
0.0
220
0.0
230
1.0
  2
SOLID
 70
               1
 71
               1
 91
        1
 92
        1
 93
        1
 72
               2
 10
-87.001950799843328
 20
777.38023882999971
 40
4.99969482421875
 50
0.0
 51
360.0
 73
               0
 97
        1
330
5B
 75
               0
 76
               1
 98
        1
 10
0.0
 20
0.0
  0
CIRCLE
  5
5D
102
{ACAD_REACTORS
330
5E
102
}
100
AcDbEntity
  8
0
370
              -2
390
0
  6
Continuous
 62
               0
100
AcDbCircle
 10
-87.001950799843328
 20
352.38023882999983
 30
0.0
 40
4.99969482421875
  0
HATCH
  5
5E
100
AcDbEntity
  8
0
370
              -2
390
0
  6
Continuous
 62
               0
100
AcDbHatch
 10
0.0
 20
0.0
 30
0.0
210
0.0
220
0.0
230
1.0
  2
SOLID
 70
               1
 71
               1
 91
        1
 92
        1
 93
        1
 72
               2
 10
-87.001950799843328
 20
352.38023882999983
 40
4.99969482421875
 50
0.0
 51
360.0
 73
               0
 97
        1
330
5D
 75
               0
 76
               1
 98
        1
 10
0.0
 20
0.0
  0
MTEXT
  5
5F
100
AcDbEntity
  8
0
390
0
 62
               0
100
AcDbMText
 10
-120.87956798734334
 20
541.06773714782435
 30
0.0
 40
24.432617187500004
 41
0.0
 71
               1
 72
               1
  1
425
  7
ＭＳ ゴシック
 11
0.0
 21
1.0
 31
0.0
 73
               1
 44
0.7828267384257843
  0
POINT
  5
60
100
AcDbEntity
  8
Defpoints
370
               0
390
0
 62
               0
100
AcDbPoint
 10
-449.50195079984343
 20
352.38023882999983
 30
0.0
  0
POINT
  5
61
100
AcDbEntity
  8
Defpoints
370
               0
390
0
 62
               0
100
AcDbPoint
 10
-449.50195079984343
 20
777.38023882999971
 30
0.0
  0
POINT
  5
62
100
AcDbEntity
  8
Defpoints
370
               0
390
0
 62
               0
100
AcDbPoint
 10
-87.001950799843328
 20
777.38023882999971
 30
0.0
  0
ENDBLK
  5
63
100
AcDbEntity
  8
notes
390
0
100
AcDbBlockEnd
  0
BLOCK
  5
64
100
AcDbEntity
  8
notes
390
0
100
AcDbBlockBegin
  2
*D4
 70
               1
 10
0.0
 20
0.0
 30
0.0
  3
*D4
  1

  0
LINE
  5
65
100
AcDbEntity
  8
0
370
              -2
390
0
  6
Continuous
 62
               0
100
AcDbLine
 10
-187.0019507998432
 20
589.88023882999983
 30
0.0
 11
-187.0019507998432
 21
877.38023882999971
 31
0.0
  0
LINE
  5
66
100
AcDbEntity
  8
0
370
              -2
390
0
  6
Continuous
 62
               0
100
AcDbLine
 10
-712.00195079984326
 20
589.88023882999983
 30
0.0
 11
-712.00195079984326
 21
877.38023882999971
 31
0.0
  0
LINE
  5
67
100
AcDbEntity
  8
0
370
              -2
390
0
  6
Continuous
 62
               0
100
AcDbLine
 10
-187.0019507998432
 20
877.38023882999971
 30
0.0
 11
-712.00195079984326
 21
877.38023882999971
 31
0.0
  0
CIRCLE
  5
68
102
{ACAD_REACTORS
330
69
102
}
100
AcDbEntity
  8
0
370
              -2
390
0
  6
Continuous
 62
               0
100
AcDbCircle
 10
-187.0019507998432
 20
877.38023882999971
 30
0.0
 40
4.99969482421875
  0
HATCH
  5
69
100
AcDbEntity
  8
0
370
              -2
390
0
  6
Continuous
 62
               0
100
AcDbHatch
 10
0.0
 20
0.0
 30
0.0
210
0.0
220
0.0
230
1.0
  2
SOLID
 70
               1
 71
               1
 91
        1
 92
        1
 93
        1
 72
               2
 10
-187.0019507998432
 20
877.38023882999971
 40
4.99969482421875
 50
0.0
 51
360.0
 73
               0
 97
        1
330
68
 75
               0
 76
               1
 98
        1
 10
0.0
 20
0.0
  0
CIRCLE
  5
6A
102
{ACAD_REACTORS
330
6B
102
}
100
AcDbEntity
  8
0
370
              -2
390
0
  6
Continuous
 62
               0
100
AcDbCircle
 10
-712.00195079984326
 20
877.38023882999971
 30
0.0
 40
4.99969482421875
  0
HATCH
  5
6B
100
AcDbEntity
  8
0
370
              -2
390
0
  6
Continuous
 62
               0
100
AcDbHatch
 10
0.0
 20
0.0
 30
0.0
210
0.0
220
0.0
230
1.0
  2
SOLID
 70
               1
 71
               1
 91
        1
 92
        1
 93
        1
 72
               2
 10
-712.00195079984326
 20
877.38023882999971
 40
4.99969482421875
 50
0.0
 51
360.0
 73
               0
 97
        1
330
6A
 75
               0
 76
               1
 98
        1
 10
0.0
 20
0.0
  0
MTEXT
  5
6C
100
AcDbEntity
  8
0
390
0
 62
               0
100
AcDbMText
 10
-473.31445248201885
 20
911.25785601749976
 30
0.0
 40
24.432617187500004
 41
0.0
 71
               1
 72
               1
  1
525
  7
ＭＳ ゴシック
 73
               1
 44
0.7828267384257843
  0
POINT
  5
6D
100
AcDbEntity
  8
Defpoints
370
               0
390
0
 62
               0
100
AcDbPoint
 10
-712.00195079984326
 20
564.88023882999983
 30
0.0
  0
POINT
  5
6E
100
AcDbEntity
  8
Defpoints
370
               0
390
0
 62
               0
100
AcDbPoint
 10
-187.0019507998432
 20
564.88023882999983
 30
0.0
  0
POINT
  5
6F
100
AcDbEntity
  8
Defpoints
370
               0
390
0
 62
               0
100
AcDbPoint
 10
-187.0019507998432
 20
877.38023882999971
 30
0.0
  0
ENDBLK
  5
70
100
AcDbEntity
  8
notes
390
0
100
AcDbBlockEnd
  0
BLOCK
  5
71
100
AcDbEntity
  8
notes
390
0
100
AcDbBlockBegin
  2
*D5
 70
               1
 10
0.0
 20
0.0
 30
0.0
  3
*D5
  1

  0
LINE
  5
72
100
AcDbEntity
  8
0
370
              -2
390
0
  6
Continuous
 62
               0
100
AcDbLine
 10
693.96120531933877
 20
-442.36832304101927
 30
0.0
 11
775.75359952379995
 21
-442.36832304101927
 31
0.0
  0
LINE
  5
73
100
AcDbEntity
  8
0
370
              -2
390
0
  6
Continuous
 62
               0
100
AcDbLine
 10
696.8433668491399
 20
-450.36832304101927
 30
0.0
 11
775.75359952379995
 21
-450.36832304101927
 31
0.0
  0
LINE
  5
74
100
AcDbEntity
  8
0
370
              -2
390
0
  6
Continuous
 62
               0
100
AcDbLine
 10
775.75359952379995
 20
-442.36832304101927
 30
0.0
 11
775.75359952379995
 21
-417.74937493401944
 31
0.0
  0
LINE
  5
75
100
AcDbEntity
  8
0
370
              -2
390
0
  6
Continuous
 62
               0
100
AcDbLine
 10
775.75359952379995
 20
-442.36832304101927
 30
0.0
 11
775.75359952379995
 21
-450.36832304101927
 31
0.0
  0
CIRCLE
  5
76
102
{ACAD_REACTORS
330
77
102
}
100
AcDbEntity
  8
0
370
              -2
390
0
  6
Continuous
 62
               0
100
AcDbCircle
 10
775.75359952379995
 20
-442.36832304101927
 30
0.0
 40
4.99969482421875
  0
HATCH
  5
77
100
AcDbEntity
  8
0
370
              -2
390
0
  6
Continuous
 62
               0
100
AcDbHatch
 10
0.0
 20
0.0
 30
0.0
210
0.0
220
0.0
230
1.0
  2
SOLID
 70
               1
 71
               1
 91
        1
 92
        1
 93
        1
 72
               2
 10
775.75359952379995
 20
-442.36832304101927
 40
4.99969482421875
 50
0.0
 51
360.0
 73
               0
 97
        1
330
76
 75
               0
 76
               1
 98
        1
 10
0.0
 20
0.0
  0
CIRCLE
  5
78
102
{ACAD_REACTORS
330
79
102
}
100
AcDbEntity
  8
0
370
              -2
390
0
  6
Continuous
 62
               0
100
AcDbCircle
 10
775.75359952379995
 20
-450.36832304101927
 30
0.0
 40
4.99969482421875
  0
HATCH
  5
79
100
AcDbEntity
  8
0
370
              -2
390
0
  6
Continuous
 62
               0
100
AcDbHatch
 10
0.0
 20
0.0
 30
0.0
210
0.0
220
0.0
230
1.0
  2
SOLID
 70
               1
 71
               1
 91
        1
 92
        1
 93
        1
 72
               2
 10
775.75359952379995
 20
-450.36832304101927
 40
4.99969482421875
 50
0.0
 51
360.0
 73
               0
 97
        1
330
78
 75
               0
 76
               1
 98
        1
 10
0.0
 20
0.0
  0
MTEXT
  5
7A
100
AcDbEntity
  8
0
390
0
 62
               0
100
AcDbMText
 10
741.8759823362999
 20
-433.62437493401944
 30
0.0
 40
24.432617187500004
 41
0.0
 71
               1
 72
               1
  1
8
  7
ＭＳ ゴシック
 11
0.0
 21
1.0
 31
0.0
 73
               1
 44
0.7828267384257843
  0
POINT
  5
7B
100
AcDbEntity
  8
Defpoints
370
               0
390
0
 62
               0
100
AcDbPoint
 10
671.8433668491399
 20
-450.36832304101927
 30
0.0
  0
POINT
  5
7C
100
AcDbEntity
  8
Defpoints
370
               0
390
0
 62
               0
100
AcDbPoint
 10
668.96120531933877
 20
-442.36832304101927
 30
0.0
  0
POINT
  5
7D
100
AcDbEntity
  8
Defpoints
370
               0
390
0
 62
               0
100
AcDbPoint
 10
775.75359952379995
 20
-442.36832304101927
 30
0.0
  0
ENDBLK
  5
7E
100
AcDbEntity
  8
notes
390
0
100
AcDbBlockEnd
  0
BLOCK
  5
7F
100
AcDbEntity
  8
notes
390
0
100
AcDbBlockBegin
  2
*D6
 70
               1
 10
0.0
 20
0.0
 30
0.0
  3
*D6
  1

  0
LINE
  5
80
100
AcDbEntity
  8
0
370
              -2
390
0
  6
Continuous
 62
               0
100
AcDbLine
 10
-167.5734624326434
 20
-442.35279755260694
 30
0.0
 11
-39.117652543743489
 21
-442.35279755260694
 31
0.0
  0
LINE
  5
81
100
AcDbEntity
  8
0
370
              -2
390
0
  6
Continuous
 62
               0
100
AcDbLine
 10
-398.65045582708336
 20
-632.35279755260694
 30
0.0
 11
-39.117652543743489
 21
-632.35279755260694
 31
0.0
  0
LINE
  5
82
100
AcDbEntity
  8
0
370
              -2
390
0
  6
Continuous
 62
               0
100
AcDbLine
 10
-39.117652543743489
 20
-442.35279755260694
 30
0.0
 11
-39.117652543743489
 21
-632.35279755260694
 31
0.0
  0
CIRCLE
  5
83
102
{ACAD_REACTORS
330
84
102
}
100
AcDbEntity
  8
0
370
              -2
390
0
  6
Continuous
 62
               0
100
AcDbCircle
 10
-39.117652543743489
 20
-442.35279755260694
 30
0.0
 40
4.99969482421875
  0
HATCH
  5
84
100
AcDbEntity
  8
0
370
              -2
390
0
  6
Continuous
 62
               0
100
AcDbHatch
 10
0.0
 20
0.0
 30
0.0
210
0.0
220
0.0
230
1.0
  2
SOLID
 70
               1
 71
               1
 91
        1
 92
        1
 93
        1
 72
               2
 10
-39.117652543743489
 20
-442.35279755260694
 40
4.99969482421875
 50
0.0
 51
360.0
 73
               0
 97
        1
330
83
 75
               0
 76
               1
 98
        1
 10
0.0
 20
0.0
  0
CIRCLE
  5
85
102
{ACAD_REACTORS
330
86
102
}
100
AcDbEntity
  8
0
370
              -2
390
0
  6
Continuous
 62
               0
100
AcDbCircle
 10
-39.117652543743489
 20
-632.35279755260694
 30
0.0
 40
4.99969482421875
  0
HATCH
  5
86
100
AcDbEntity
  8
0
370
              -2
390
0
  6
Continuous
 62
               0
100
AcDbHatch
 10
0.0
 20
0.0
 30
0.0
210
0.0
220
0.0
230
1.0
  2
SOLID
 70
               1
 71
               1
 91
        1
 92
        1
 93
        1
 72
               2
 10
-39.117652543743489
 20
-632.35279755260694
 40
4.99969482421875
 50
0.0
 51
360.0
 73
               0
 97
        1
330
85
 75
               0
 76
               1
 98
        1
 10
0.0
 20
0.0
  0
MTEXT
  5
87
100
AcDbEntity
  8
0
390
0
 62
               0
100
AcDbMText
 10
-72.995269731243496
 20
-575.80516642221335
 30
0.0
 40
24.432617187500004
 41
0.0
 71
               1
 72
               1
  1
190
  7
ＭＳ ゴシック
 11
0.0
 21
1.0
 31
0.0
 73
               1
 44
0.7828267384257843
  0
POINT
  5
88
100
AcDbEntity
  8
Defpoints
370
               0
390
0
 62
               0
100
AcDbPoint
 10
-423.65045582708336
 20
-632.35279755260694
 30
0.0
  0
POINT
  5
89
100
AcDbEntity
  8
Defpoints
370
               0
390
0
 62
               0
100
AcDbPoint
 10
-192.5734624326434
 20
-442.35279755260694
 30
0.0
  0
POINT
  5
8A
100
AcDbEntity
  8
Defpoints
370
               0
390
0
 62
               0
100
AcDbPoint
 10
-39.117652543743489
 20
-442.35279755260694
 30
0.0
  0
ENDBLK
  5
8B
100
AcDbEntity
  8
notes
390
0
100
AcDbBlockEnd
  0
BLOCK
  5
8C
100
AcDbEntity
  8
notes
390
0
100
AcDbBlockBegin
  2
*D7
 70
               1
 10
0.0
 20
0.0
 30
0.0
  3
*D7
  1

  0
LINE
  5
8D
100
AcDbEntity
  8
0
370
              -2
390
0
  6
Continuous
 62
               0
100
AcDbLine
 10
484.99999999993992
 20
-442.36832304101927
 30
0.0
 11
460.25179976186996
 21
-442.36832304101927
 31
0.0
  0
LINE
  5
8E
100
AcDbEntity
  8
0
370
              -2
390
0
  6
Continuous
 62
               0
100
AcDbLine
 10
484.99999999993992
 20
-582.36832304101927
 30
0.0
 11
460.25179976186996
 21
-582.36832304101927
 31
0.0
  0
LINE
  5
8F
100
AcDbEntity
  8
0
370
              -2
390
0
  6
Continuous
 62
               0
100
AcDbLine
 10
460.25179976186996
 20
-442.36832304101927
 30
0.0
 11
460.25179976186996
 21
-282.74512280294925
 31
0.0
  0
LINE
  5
90
100
AcDbEntity
  8
0
370
              -2
390
0
  6
Continuous
 62
               0
100
AcDbLine
 10
460.25179976186996
 20
-442.36832304101927
 30
0.0
 11
460.25179976186996
 21
-582.36832304101927
 31
0.0
  0
CIRCLE
  5
91
102
{ACAD_REACTORS
330
92
102
}
100
AcDbEntity
  8
0
370
              -2
390
0
  6
Continuous
 62
               0
100
AcDbCircle
 10
460.25179976186996
 20
-442.36832304101927
 30
0.0
 40
4.99969482421875
  0
HATCH
  5
92
100
AcDbEntity
  8
0
370
              -2
390
0
  6
Continuous
 62
               0
100
AcDbHatch
 10
0.0
 20
0.0
 30
0.0
210
0.0
220
0.0
230
1.0
  2
SOLID
 70
               1
 71
               1
 91
        1
 92
        1
 93
        1
 72
               2
 10
460.25179976186996
 20
-442.36832304101927
 40
4.99969482421875
 50
0.0
 51
360.0
 73
               0
 97
        1
330
91
 75
               0
 76
               1
 98
        1
 10
0.0
 20
0.0
  0
CIRCLE
  5
93
102
{ACAD_REACTORS
330
94
102
}
100
AcDbEntity
  8
0
370
              -2
390
0
  6
Continuous
 62
               0
100
AcDbCircle
 10
460.25179976186996
 20
-582.36832304101927
 30
0.0
 40
4.99969482421875
  0
HATCH
  5
94
100
AcDbEntity
  8
0
370
              -2
390
0
  6
Continuous
 62
               0
100
AcDbHatch
 10
0.0
 20
0.0
 30
0.0
210
0.0
220
0.0
230
1.0
  2
SOLID
 70
               1
 71
               1
 91
        1
 92
        1
 93
        1
 72
               2
 10
460.25179976186996
 20
-582.36832304101927
 40
4.99969482421875
 50
0.0
 51
360.0
 73
               0
 97
        1
330
93
 75
               0
 76
               1
 98
        1
 10
0.0
 20
0.0
  0
MTEXT
  5
95
100
AcDbEntity
  8
0
390
0
 62
               0
100
AcDbMText
 10
426.37418257436997
 20
-425.62012280294925
 30
0.0
 40
24.432617187500004
 41
0.0
 71
               1
 72
               1
  1
140(深さ)
  7
ＭＳ ゴシック
 11
0.0
 21
1.0
 31
0.0
 73
               1
 44
0.7828267384257843
  0
POINT
  5
96
100
AcDbEntity
  8
Defpoints
370
               0
390
0
 62
               0
100
AcDbPoint
 10
459.99999999993992
 20
-582.36832304101927
 30
0.0
  0
POINT
  5
97
100
AcDbEntity
  8
Defpoints
370
               0
390
0
 62
               0
100
AcDbPoint
 10
459.99999999993992
 20
-442.36832304101927
 30
0.0
  0
POINT
  5
98
100
AcDbEntity
  8
Defpoints
370
               0
390
0
 62
               0
100
AcDbPoint
 10
460.25179976186996
 20
-442.36832304101927
 30
0.0
  0
ENDBLK
  5
99
100
AcDbEntity
  8
notes
390
0
100
AcDbBlockEnd
  0
BLOCK
  5
9A
100
AcDbEntity
  8
notes
390
0
100
AcDbBlockBegin
  2
*D8
 70
               1
 10
0.0
 20
0.0
 30
0.0
  3
*D8
  1

  0
LINE
  5
9B
100
AcDbEntity
  8
0
370
              -2
390
0
  6
Continuous
 62
               0
100
AcDbLine
 10
-597.79024429430808
 20
752.38023882999983
 30
0.0
 11
-812.00195079984314
 21
752.38023882999983
 31
0.0
  0
LINE
  5
9C
100
AcDbEntity
  8
0
370
              -2
390
0
  6
Continuous
 62
               0
100
AcDbLine
 10
-597.80198522525473
 20
377.38023882999983
 30
0.0
 11
-812.00195079984314
 21
377.38023882999983
 31
0.0
  0
LINE
  5
9D
100
AcDbEntity
  8
0
370
              -2
390
0
  6
Continuous
 62
               0
100
AcDbLine
 10
-812.00195079984314
 20
752.38023882999983
 30
0.0
 11
-812.00195079984314
 21
377.38023882999983
 31
0.0
  0
CIRCLE
  5
9E
102
{ACAD_REACTORS
330
9F
102
}
100
AcDbEntity
  8
0
370
              -2
390
0
  6
Continuous
 62
               0
100
AcDbCircle
 10
-812.00195079984314
 20
752.38023882999983
 30
0.0
 40
4.99969482421875
  0
HATCH
  5
9F
100
AcDbEntity
  8
0
370
              -2
390
0
  6
Continuous
 62
               0
100
AcDbHatch
 10
0.0
 20
0.0
 30
0.0
210
0.0
220
0.0
230
1.0
  2
SOLID
 70
               1
 71
               1
 91
        1
 92
        1
 93
        1
 72
               2
 10
-812.00195079984314
 20
752.38023882999983
 40
4.99969482421875
 50
0.0
 51
360.0
 73
               0
 97
        1
330
9E
 75
               0
 76
               1
 98
        1
 10
0.0
 20
0.0
  0
CIRCLE
  5
A0
102
{ACAD_REACTORS
330
A1
102
}
100
AcDbEntity
  8
0
370
              -2
390
0
  6
Continuous
 62
               0
100
AcDbCircle
 10
-812.00195079984314
 20
377.38023882999983
 30
0.0
 40
4.99969482421875
  0
HATCH
  5
A1
100
AcDbEntity
  8
0
370
              -2
390
0
  6
Continuous
 62
               0
100
AcDbHatch
 10
0.0
 20
0.0
 30
0.0
210
0.0
220
0.0
230
1.0
  2
SOLID
 70
               1
 71
               1
 91
        1
 92
        1
 93
        1
 72
               2
 10
-812.00195079984314
 20
377.38023882999983
 40
4.99969482421875
 50
0.0
 51
360.0
 73
               0
 97
        1
330
A0
 75
               0
 76
               1
 98
        1
 10
0.0
 20
0.0
  0
MTEXT
  5
A2
100
AcDbEntity
  8
0
390
0
 62
               0
100
AcDbMText
 10
-845.87956798734319
 20
541.06773714782435
 30
0.0
 40
24.432617187500004
 41
0.0
 71
               1
 72
               1
  1
375
  7
ＭＳ ゴシック
 11
0.0
 21
1.0
 31
0.0
 73
               1
 44
0.7828267384257843
  0
POINT
  5
A3
100
AcDbEntity
  8
Defpoints
370
               0
390
0
 62
               0
100
AcDbPoint
 10
-572.80198522525473
 20
377.38023882999983
 30
0.0
  0
POINT
  5
A4
100
AcDbEntity
  8
Defpoints
370
               0
390
0
 62
               0
100
AcDbPoint
 10
-572.79024429430808
 20
752.38023882999983
 30
0.0
  0
POINT
  5
A5
100
AcDbEntity
  8
Defpoints
370
               0
390
0
 62
               0
100
AcDbPoint
 10
-812.00195079984314
 20
752.38023882999983
 30
0.0
  0
ENDBLK
  5
A6
100
AcDbEntity
  8
notes
390
0
100
AcDbBlockEnd
  0
BLOCK
  5
A7
100
AcDbEntity
  8
notes
390
0
100
AcDbBlockBegin
  2
*D9
 70
               1
 10
0.0
 20
0.0
 30
0.0
  3
*D9
  1

  0
LINE
  5
A8
100
AcDbEntity
  8
0
370
              -2
390
0
  6
Continuous
 62
               0
100
AcDbLine
 10
-687.03002490928304
 20
449.43388941566161
 30
0.0
 11
-687.03002490928304
 21
252.3802388299998
 31
0.0
  0
LINE
  5
A9
100
AcDbEntity
  8
0
370
              -2
390
0
  6
Continuous
 62
               0
100
AcDbLine
 10
-212.03002490928299
 20
449.34071571738718
 30
0.0
 11
-212.03002490928299
 21
252.3802388299998
 31
0.0
  0
LINE
  5
AA
100
AcDbEntity
  8
0
370
              -2
390
0
  6
Continuous
 62
               0
100
AcDbLine
 10
-687.03002490928304
 20
252.3802388299998
 30
0.0
 11
-212.03002490928299
 21
252.3802388299998
 31
0.0
  0
CIRCLE
  5
AB
102
{ACAD_REACTORS
330
AC
102
}
100
AcDbEntity
  8
0
370
              -2
390
0
  6
Continuous
 62
               0
100
AcDbCircle
 10
-687.03002490928304
 20
252.3802388299998
 30
0.0
 40
4.99969482421875
  0
HATCH
  5
AC
100
AcDbEntity
  8
0
370
              -2
390
0
  6
Continuous
 62
               0
100
AcDbHatch
 10
0.0
 20
0.0
 30
0.0
210
0.0
220
0.0
230
1.0
  2
SOLID
 70
               1
 71
               1
 91
        1
 92
        1
 93
        1
 72
               2
 10
-687.03002490928304
 20
252.3802388299998
 40
4.99969482421875
 50
0.0
 51
360.0
 73
               0
 97
        1
330
AB
 75
               0
 76
               1
 98
        1
 10
0.0
 20
0.0
  0
CIRCLE
  5
AD
102
{ACAD_REACTORS
330
AE
102
}
100
AcDbEntity
  8
0
370
              -2
390
0
  6
Continuous
 62
               0
100
AcDbCircle
 10
-212.03002490928299
 20
252.3802388299998
 30
0.0
 40
4.99969482421875
  0
HATCH
  5
AE
100
AcDbEntity
  8
0
370
              -2
390
0
  6
Continuous
 62
               0
100
AcDbHatch
 10
0.0
 20
0.0
 30
0.0
210
0.0
220
0.0
230
1.0
  2
SOLID
 70
               1
 71
               1
 91
        1
 92
        1
 93
        1
 72
               2
 10
-212.03002490928299
 20
252.3802388299998
 40
4.99969482421875
 50
0.0
 51
360.0
 73
               0
 97
        1
330
AD
 75
               0
 76
               1
 98
        1
 10
0.0
 20
0.0
  0
MTEXT
  5
AF
100
AcDbEntity
  8
0
390
0
 62
               0
100
AcDbMText
 10
-473.34252659145852
 20
286.25785601749976
 30
0.0
 40
24.432617187500004
 41
0.0
 71
               1
 72
               1
  1
475
  7
ＭＳ ゴシック
 73
               1
 44
0.7828267384257843
  0
POINT
  5
B0
100
AcDbEntity
  8
Defpoints
370
               0
390
0
 62
               0
100
AcDbPoint
 10
-212.03002490928299
 20
474.34071571738718
 30
0.0
  0
POINT
  5
B1
100
AcDbEntity
  8
Defpoints
370
               0
390
0
 62
               0
100
AcDbPoint
 10
-687.03002490928304
 20
474.43388941566161
 30
0.0
  0
POINT
  5
B2
100
AcDbEntity
  8
Defpoints
370
               0
390
0
 62
               0
100
AcDbPoint
 10
-687.03002490928304
 20
252.3802388299998
 30
0.0
  0
ENDBLK
  5
B3
100
AcDbEntity
  8
notes
390
0
100
AcDbBlockEnd
  0
BLOCK
  5
B4
100
AcDbEntity
  8
notes
390
0
100
AcDbBlockBegin
  2
グループ-1
 70
               0
 10
0.0
 20
0.0
 30
0.0
  3
グループ-1
  1

  0
POLYLINE
  5
B5
100
AcDbEntity
  8
0
370
              15
390
0
  6
Continuous
 62
               7
100
AcDb2dPolyline
 66
               1
 10
0.0
 20
0.0
 30
0.0
 70
               1
 75
               5
  0
VERTEX
  5
B6
100
AcDbEntity
  8
0
370
              15
390
0
  6
Continuous
 62
               7
100
AcDbVertex
100
AcDb2dVertex
 10
-487.99999999993992
 20
-582.72242178016359
 30
0.0
  0
VERTEX
  5
B7
100
AcDbEntity
  8
0
370
              15
390
0
  6
Continuous
 62
               7
100
AcDbVertex
100
AcDb2dVertex
 10
-412.99999999993992
 20
-582.72242178016359
 30
0.0
  0
VERTEX
  5
B8
100
AcDbEntity
  8
0
370
              15
390
0
  6
Continuous
 62
               7
100
AcDbVertex
100
AcDb2dVertex
 10
-412.99999999993992
 20
-632.35279755260694
 30
0.0
  0
VERTEX
  5
B9
100
AcDbEntity
  8
0
370
              15
390
0
  6
Continuous
 62
               7
100
AcDbVertex
100
AcDb2dVertex
 10
-487.99999999993992
 20
-632.35279755260694
 30
0.0
  0
SEQEND
  5
BA
100
AcDbEntity
  8
0
370
              15
390
0
  6
Continuous
 62
               7
  0
LINE
  5
BB
100
AcDbEntity
  8
0
370
              15
390
0
  6
Continuous
 62
               7
100
AcDbLine
 10
-487.99999999993992
 20
-596.72242178016359
 30
0.0
 11
-412.99999999993992
 21
-596.72242178016359
 31
0.0
  0
ENDBLK
  5
BC
100
AcDbEntity
  8
notes
390
0
100
AcDbBlockEnd
  0
BLOCK
  5
BD
100
AcDbEntity
  8
notes
390
0
100
AcDbBlockBegin
  2
グループ-2
 70
               0
 10
0.0
 20
0.0
 30
0.0
  3
グループ-2
  1

  0
POLYLINE
  5
BE
100
AcDbEntity
  8
0
370
              15
390
0
  6
Continuous
 62
               7
100
AcDb2dPolyline
 66
               1
 10
0.0
 20
0.0
 30
0.0
 70
               1
 75
               5
  0
VERTEX
  5
BF
100
AcDbEntity
  8
0
370
              15
390
0
  6
Continuous
 62
               7
100
AcDbVertex
100
AcDb2dVertex
 10
423.00000000006008
 20
-582.72242178016359
 30
0.0
  0
VERTEX
  5
C0
100
AcDbEntity
  8
0
370
              15
390
0
  6
Continuous
 62
               7
100
AcDbVertex
100
AcDb2dVertex
 10
498.00000000006008
 20
-582.72242178016359
 30
0.0
  0
VERTEX
  5
C1
100
AcDbEntity
  8
0
370
              15
390
0
  6
Continuous
 62
               7
100
AcDbVertex
100
AcDb2dVertex
 10
498.00000000006008
 20
-632.35279755260694
 30
0.0
  0
VERTEX
  5
C2
100
AcDbEntity
  8
0
370
              15
390
0
  6
Continuous
 62
               7
100
AcDbVertex
100
AcDb2dVertex
 10
423.00000000006008
 20
-632.35279755260694
 30
0.0
  0
SEQEND
  5
C3
100
AcDbEntity
  8
0
370
              15
390
0
  6
Continuous
 62
               7
  0
LINE
  5
C4
100
AcDbEntity
  8
0
370
              15
390
0
  6
Continuous
 62
               7
100
AcDbLine
 10
423.00000000006008
 20
-596.72242178016359
 30
0.0
 11
498.00000000006008
 21
-596.72242178016359
 31
0.0
  0
ENDBLK
  5
C5
100
AcDbEntity
  8
notes
390
0
100
AcDbBlockEnd
  0
ENDSEC
  0
SECTION
  2
ENTITIES
  0
MTEXT
  5
C6
100
AcDbEntity
  8
template
390
0
 62
               7
100
AcDbMText
 10
-967.99999999975921
 20
-1147.4176292337004
 30
0.0
 40
16.288411458333332
 41
0.0
 71
               1
 72
               1
  1
品名
  7
ＭＳ ゴシック
 73
               1
 44
0.7828267384257843
  0
MTEXT
  5
C7
100
AcDbEntity
  8
template
390
0
 62
               7
100
AcDbMText
 10
-967.99999999975921
 20
-1232.4176292337004
 30
0.0
 40
16.288411458333332
 41
0.0
 71
               1
 72
               1
  1
仕様
  7
ＭＳ ゴシック
 73
               1
 44
0.7828267384257843
  0
MTEXT
  5
C8
100
AcDbEntity
  8
template
390
0
 62
               7
100
AcDbMText
 10
-914.99999999975921
 20
-1176.0000901712006
 30
0.0
 40
24.432617187500004
 41
0.0
 71
               1
 72
               1
  1
洗面器 -ALAPE-
  7
ＭＳ ゴシック
 73
               1
 44
0.7828267384257843
  0
LINE
  5
C9
100
AcDbEntity
  8
template
370
               5
390
0
  6
Continuous
 62
               7
100
AcDbLine
 10
974.99999999975876
 20
-1224.0027073587005
 30
0.0
 11
-975.00000000024124
 21
-1224.0027073587005
 31
0.0
  0
LWPOLYLINE
  5
CA
100
AcDbEntity
  8
template
370
               5
390
0
  6
Continuous
 62
               7
100
AcDbPolyline
 90
        5
 70
             128
 10
975.00000000024124
 20
1405.9972926412995
 10
-974.99999999975932
 20
1405.9972926412995
 10
-974.99999999975932
 20
-1394.0027073587007
 10
975.00000000024124
 20
-1394.0027073587007
 10
975.00000000024124
 20
1405.9972926412995
  0
LINE
  5
CB
100
AcDbEntity
  8
template
370
               5
390
0
  6
Continuous
 62
               7
100
AcDbLine
 10
974.99999999975876
 20
-1139.0027073587005
 30
0.0
 11
-975.00000000024124
 21
-1139.0027073587005
 31
0.0
  0
LINE
  5
CC
100
AcDbEntity
  8
template
370
               5
390
0
  6
Continuous
 62
               7
100
AcDbLine
 10
975.00000000024124
 20
-1309.0027073587005
 30
0.0
 11
222.00000000024124
 21
-1309.0027073587005
 31
0.0
  0
MTEXT
  5
CD
100
AcDbEntity
  8
template
390
0
 62
               7
100
AcDbMText
 10
-974.99999999955594
 20
-1405.8565294155574
 30
0.0
 40
21.717881944444446
 41
0.0
 71
               1
 72
               1
  1
120514SH
  7
ＭＳ ゴシック
 73
               1
 44
0.7828267384257843
  0
MTEXT
  5
CE
100
AcDbEntity
  8
template
390
0
 62
               7
100
AcDbMText
 10
251.87140625250089
 20
-1338.9131018320081
 30
0.0
 40
24.432617187500004
 41
0.0
 71
               1
 72
               1
  1
大洋金物株式会社 ティーフォルム事業部
  7
ＭＳ ゴシック
 73
               1
 44
0.7828267384257843
  0
INSERT
  5
CF
100
AcDbEntity
  8
template
390
0
 62
               7
100
AcDbBlockReference
  2
グループ
 10
-0.0000000000600977
 20
-0.0000000000000284
 30
0.0
  0
MTEXT
  5
D0
100
AcDbEntity
  8
template
390
0
 62
               7
100
AcDbMText
 10
784.00000000049999
 20
-1261.0000901712006
 30
0.0
 40
24.432617187500004
 41
0.0
 71
               1
 72
               1
  1
1:10
  7
ＭＳ ゴシック
 73
               1
 44
0.7828267384257843
  0
MTEXT
  5
D1
100
AcDbEntity
  8
template
390
0
 62
               7
100
AcDbMText
 10
731.00000000049999
 20
-1232.4176292337004
 30
0.0
 40
16.288411458333332
 41
0.0
 71
               1
 72
               1
  1
縮尺
  7
ＭＳ ゴシック
 73
               1
 44
0.7828267384257843
  0
LINE
  5
D2
100
AcDbEntity
  8
template
370
               5
390
0
  6
Continuous
 62
               7
100
AcDbLine
 10
724.00000000049999
 20
-1309.0027073587005
 30
0.0
 11
724.00000000049999
 21
-1224.0027073587005
 31
0.0
  0
MTEXT
  5
D3
100
AcDbEntity
  8
template
390
0
 62
               7
100
AcDbMText
 10
480.00000000049999
 20
-1232.4176292337004
 30
0.0
 40
16.288411458333332
 41
0.0
 71
               1
 72
               1
  1
容量
  7
ＭＳ ゴシック
 73
               1
 44
0.7828267384257843
  0
LINE
  5
D4
100
AcDbEntity
  8
template
370
               5
390
0
  6
Continuous
 62
               7
100
AcDbLine
 10
473.00000000049999
 20
-1309.0027073587005
 30
0.0
 11
473.00000000049999
 21
-1224.0027073587005
 31
0.0
  0
MTEXT
  5
D5
100
AcDbEntity
  8
template
390
0
 62
               7
100
AcDbMText
 10
229.00000000049999
 20
-1147.4176292337004
 30
0.0
 40
16.288411458333332
 41
0.0
 71
               1
 72
               1
  1
品番
  7
ＭＳ ゴシック
 73
               1
 44
0.7828267384257843
  0
MTEXT
  5
D6
100
AcDbEntity
  8
template
390
0
 62
               7
100
AcDbMText
 10
229.00000000049999
 20
-1232.4176292337004
 30
0.0
 40
16.288411458333332
 41
0.0
 71
               1
 72
               1
  1
重量
  7
ＭＳ ゴシック
 73
               1
 44
0.7828267384257843
  0
MTEXT
  5
D7
100
AcDbEntity
  8
template
390
0
 62
               7
100
AcDbMText
 10
282.00000000049999
 20
-1176.0000901712006
 30
0.0
 40
24.432617187500004
 41
0.0
 71
               1
 72
               1
  1
FAN70-0309
  7
ＭＳ ゴシック
 73
               1
 44
0.7828267384257843
  0
MTEXT
  5
D8
100
AcDbEntity
  8
template
390
0
 62
               7
100
AcDbMText
 10
282.00000000049999
 20
-1261.0000901712006
 30
0.0
 40
24.432617187500004
 41
0.0
 71
               1
 72
               1
  1
3.3kg
  7
ＭＳ ゴシック
 73
               1
 44
0.7828267384257843
  0
LINE
  5
D9
100
AcDbEntity
  8
template
370
               5
390
0
  6
Continuous
 62
               7
100
AcDbLine
 10
222.00000000049999
 20
-1394.0027073587005
 30
0.0
 11
222.00000000049999
 21
-1139.0027073587005
 31
0.0
  0
MTEXT
  5
DA
100
AcDbEntity
  8
template
390
0
 62
               7
100
AcDbMText
 10
-914.99999999975921
 20
-1261.0000901711999
 30
0.0
 40
24.432617187500004
 41
0.0
 71
               1
 72
               1
  1
オーバーカウンター,アンダーカウンタ ー/オーバーフロー付き/型 紙付属/\P鋼板ホーロー/ホワイト
  7
ＭＳ ゴシック
 73
               1
 44
1.1307497332816883
  0
MTEXT
  5
DB
100
AcDbEntity
  8
template
390
0
 62
               7
100
AcDbMText
 10
249.73931033734743
 20
-949.07967463564557
 30
0.0
 40
24.432617187500004
 41
0.0
 71
               1
 72
               1
  1
※カウンターの切込は、商品に付属する型紙を\P　ご参照の上、加工を行ってください。
  7
MS-Gothic
 73
               1
 44
1.1742401076386764
  0
DIMENSION
  5
DC
100
AcDbEntity
  8
notes
370
               5
390
0
  6
Continuous
 62
               7
100
AcDbDimension
  2
*D3
 10
-87.001950799843328
 20
777.38023882999971
 30
0.0
 11
-82.001950799843328
 21
564.88023882999983
 31
0.0
 70
             128
 71
               5
 72
               1
 41
1.0
 42
0.0
  3
tfrom線あり
100
AcDbAlignedDimension
 13
-449.50195079984343
 23
352.38023882999983
 33
0.0
 14
-449.50195079984343
 24
777.38023882999971
 34
0.0
 50
90.0
100
AcDbRotatedDimension
1001
ACAD
1000
DSTYLE
1002
{
1070
             271
1070
               2
1070
             279
1070
               2
1070
             340
1005
2D
1070
             147
1040
5.0
1002
}
  0
DIMENSION
  5
DD
100
AcDbEntity
  8
notes
370
               5
390
0
  6
Continuous
 62
               7
100
AcDbDimension
  2
*D4
 10
-187.0019507998432
 20
877.38023882999971
 30
0.0
 11
-449.50195079984331
 21
882.38023882999971
 31
0.0
 70
             128
 71
               5
 72
               1
 41
1.0
 42
0.0
  3
tfrom線あり
100
AcDbAlignedDimension
 13
-712.00195079984326
 23
564.88023882999983
 33
0.0
 14
-187.0019507998432
 24
564.88023882999983
 34
0.0
100
AcDbRotatedDimension
1001
ACAD
1000
DSTYLE
1002
{
1070
             271
1070
               2
1070
             279
1070
               2
1070
             340
1005
2D
1070
             147
1040
5.0
1002
}
  0
DIMENSION
  5
DE
100
AcDbEntity
  8
notes
370
               5
390
0
  6
Continuous
 62
               7
100
AcDbDimension
  2
*D5
 10
775.75359952379995
 20
-442.36832304101927
 30
0.0
 11
780.75359952379995
 21
-433.62437493401944
 31
0.0
 70
             128
 71
               5
 72
               1
 41
1.0
 42
0.0
  3
tfrom線あり
100
AcDbAlignedDimension
 13
671.8433668491399
 23
-450.36832304101927
 33
0.0
 14
668.96120531933877
 24
-442.36832304101927
 34
0.0
 50
90.0
100
AcDbRotatedDimension
1001
ACAD
1000
DSTYLE
1002
{
1070
             279
1070
               2
1070
             340
1005
2D
1070
             174
1070
               0
1070
             147
1040
5.0
1002
}
  0
DIMENSION
  5
DF
100
AcDbEntity
  8
notes
370
               5
390
0
  6
Continuous
 62
               7
100
AcDbDimension
  2
*D6
 10
-39.117652543743489
 20
-442.35279755260694
 30
0.0
 11
-34.117652543743489
 21
-551.99266474003787
 31
0.0
 70
             128
 71
               5
 72
               1
 41
1.0
 42
0.0
  3
tfrom線あり
100
AcDbAlignedDimension
 13
-423.65045582708336
 23
-632.35279755260694
 33
0.0
 14
-192.5734624326434
 24
-442.35279755260694
 34
0.0
 50
90.0
100
AcDbRotatedDimension
1001
ACAD
1000
DSTYLE
1002
{
1070
             279
1070
               2
1070
             340
1005
2D
1070
             147
1040
5.0
1002
}
  0
DIMENSION
  5
E0
100
AcDbEntity
  8
notes
370
               5
390
0
  6
Continuous
 62
               7
100
AcDbDimension
  2
*D7
 10
460.25179976186996
 20
-442.36832304101927
 30
0.0
 11
465.25179976186996
 21
-425.62012280294925
 31
0.0
 70
             128
 71
               5
 72
               1
 41
1.0
 42
0.0
  3
tfrom線あり
100
AcDbAlignedDimension
 13
459.99999999993992
 23
-582.36832304101927
 33
0.0
 14
459.99999999993992
 24
-442.36832304101927
 34
0.0
 50
90.0
100
AcDbRotatedDimension
1001
ACAD
1000
DSTYLE
1002
{
1070
             279
1070
               2
1070
             340
1005
2D
1070
               3
1000
<>(深さ)
1070
             174
1070
               0
1070
             147
1040
5.0
1002
}
  0
DIMENSION
  5
E1
100
AcDbEntity
  8
notes
370
               5
390
0
  6
Continuous
 62
               7
100
AcDbDimension
  2
*D8
 10
-812.00195079984314
 20
752.38023882999983
 30
0.0
 11
-812.00195079984314
 21
564.88023882999983
 31
0.0
 71
               5
 72
               1
 41
1.0
 42
0.0
  3
tfrom線あり
100
AcDbAlignedDimension
 13
-572.80198522525473
 23
377.38023882999983
 33
0.0
 14
-572.79024429430808
 24
752.38023882999983
 34
0.0
 50
90.0
100
AcDbRotatedDimension
1001
ACAD
1000
DSTYLE
1002
{
1070
             279
1070
               2
1070
             340
1005
2D
1070
             147
1040
5.0
1002
}
  0
DIMENSION
  5
E2
100
AcDbEntity
  8
notes
370
               5
390
0
  6
Continuous
 62
               7
100
AcDbDimension
  2
*D9
 10
-687.03002490928304
 20
252.3802388299998
 30
0.0
 11
-449.53002490928299
 21
252.3802388299998
 31
0.0
 71
               5
 72
               1
 41
1.0
 42
0.0
  3
tfrom線あり
100
AcDbAlignedDimension
 13
-212.03002490928299
 23
474.34071571738718
 33
0.0
 14
-687.03002490928304
 24
474.43388941566161
 34
0.0
100
AcDbRotatedDimension
1001
ACAD
1000
DSTYLE
1002
{
1070
             279
1070
               2
1070
             340
1005
2D
1070
             147
1040
5.0
1002
}
  0
INSERT
  5
E3
100
AcDbEntity
  8
notes
390
0
 62
               7
100
AcDbBlockReference
  2
グループ-1
 10
-0.0000000000600977
 20
-0.0000000000000284
 30
0.0
  0
INSERT
  5
E4
100
AcDbEntity
  8
notes
390
0
 62
               7
100
AcDbBlockReference
  2
グループ-2
 10
-0.0000000000600977
 20
-0.0000000000000284
 30
0.0
  0
POLYLINE
  5
E5
100
AcDbEntity
  8
FAN70-0309
370
              15
390
0
  6
Continuous
 62
               7
100
AcDb2dPolyline
 66
               1
 10
0.0
 20
0.0
 30
0.0
 75
               5
  0
VERTEX
  5
E6
100
AcDbEntity
  8
FAN70-0309
370
              15
390
0
  6
Continuous
 62
               7
100
AcDbVertex
100
AcDb2dVertex
 10
-713.39932286334363
 20
-450.352797379707
 30
0.0
  0
VERTEX
  5
E7
100
AcDbEntity
  8
FAN70-0309
370
              15
390
0
  6
Continuous
 62
               7
100
AcDbVertex
100
AcDb2dVertex
 10
-713.54721626954358
 20
-450.33796874580696
 30
0.0
  0
VERTEX
  5
E8
100
AcDbEntity
  8
FAN70-0309
370
              15
390
0
  6
Continuous
 62
               7
100
AcDbVertex
100
AcDb2dVertex
 10
-713.68928112314359
 20
-450.29426605250683
 30
0.0
  0
VERTEX
  5
E9
100
AcDbEntity
  8
FAN70-0309
370
              15
390
0
  6
Continuous
 62
               7
100
AcDbVertex
100
AcDb2dVertex
 10
-713.8199377862436
 20
-450.22340573560678
 30
0.0
  0
VERTEX
  5
EA
100
AcDbEntity
  8
FAN70-0309
370
              15
390
0
  6
Continuous
 62
               7
100
AcDbVertex
100
AcDb2dVertex
 10
-713.93405468114361
 20
-450.12817085450695
 30
0.0
  0
VERTEX
  5
EB
100
AcDbEntity
  8
FAN70-0309
370
              15
390
0
  6
Continuous
 62
               7
100
AcDbVertex
100
AcDb2dVertex
 10
-714.02714983394355
 20
-450.01230178630703
 30
0.0
  0
VERTEX
  5
EC
100
AcDbEntity
  8
FAN70-0309
370
              15
390
0
  6
Continuous
 62
               7
100
AcDbVertex
100
AcDb2dVertex
 10
-714.09556690584361
 20
-449.88034932200696
 30
0.0
  0
VERTEX
  5
ED
100
AcDbEntity
  8
FAN70-0309
370
              15
390
0
  6
Continuous
 62
               7
100
AcDbVertex
100
AcDb2dVertex
 10
-714.13661879684355
 20
-449.73749593240689
 30
0.0
  0
VERTEX
  5
EE
100
AcDbEntity
  8
FAN70-0309
370
              15
390
0
  6
Continuous
 62
               7
100
AcDbVertex
100
AcDb2dVertex
 10
-714.14869318204353
 20
-449.58935222530681
 30
0.0
  0
SEQEND
  5
EF
100
AcDbEntity
  8
FAN70-0309
370
              15
390
0
  6
Continuous
 62
               7
  0
POLYLINE
  5
F0
100
AcDbEntity
  8
FAN70-0309
370
              15
390
0
  6
Continuous
 62
               7
100
AcDb2dPolyline
 66
               1
 10
0.0
 20
0.0
 30
0.0
 75
               5
  0
VERTEX
  5
F1
100
AcDbEntity
  8
FAN70-0309
370
              15
390
0
  6
Continuous
 62
               7
100
AcDbVertex
100
AcDb2dVertex
 10
-189.64528006154342
 20
-450.35279725120665
 30
0.0
  0
VERTEX
  5
F2
100
AcDbEntity
  8
FAN70-0309
370
              15
390
0
  6
Continuous
 62
               7
100
AcDbVertex
100
AcDb2dVertex
 10
-189.49984275674353
 20
-450.3384278668068
 30
0.0
  0
VERTEX
  5
F3
100
AcDbEntity
  8
FAN70-0309
370
              15
390
0
  6
Continuous
 62
               7
100
AcDbVertex
100
AcDb2dVertex
 10
-189.35995333144353
 20
-450.2961261216069
 30
0.0
  0
VERTEX
  5
F4
100
AcDbEntity
  8
FAN70-0309
370
              15
390
0
  6
Continuous
 62
               7
100
AcDbVertex
100
AcDb2dVertex
 10
-189.23092347804345
 20
-450.22749824050686
 30
0.0
  0
VERTEX
  5
F5
100
AcDbEntity
  8
FAN70-0309
370
              15
390
0
  6
Continuous
 62
               7
100
AcDbVertex
100
AcDb2dVertex
 10
-189.11765254374347
 20
-450.135150068607
 30
0.0
  0
VERTEX
  5
F6
100
AcDbEntity
  8
FAN70-0309
370
              15
390
0
  6
Continuous
 62
               7
100
AcDbVertex
100
AcDb2dVertex
 10
-189.02444149954363
 20
-450.02258812600678
 30
0.0
  0
VERTEX
  5
F7
100
AcDbEntity
  8
FAN70-0309
370
              15
390
0
  6
Continuous
 62
               7
100
AcDbVertex
100
AcDb2dVertex
 10
-188.95482962934352
 20
-449.89408646270704
 30
0.0
  0
VERTEX
  5
F8
100
AcDbEntity
  8
FAN70-0309
370
              15
390
0
  6
Continuous
 62
               7
100
AcDbVertex
100
AcDb2dVertex
 10
-188.91146014104345
 20
-449.75452437030697
 30
0.0
  0
VERTEX
  5
F9
100
AcDbEntity
  8
FAN70-0309
370
              15
390
0
  6
Continuous
 62
               7
100
AcDbVertex
100
AcDb2dVertex
 10
-188.8959798023435
 20
-449.60920111220696
 30
0.0
  0
SEQEND
  5
FA
100
AcDbEntity
  8
FAN70-0309
370
              15
390
0
  6
Continuous
 62
               7
  0
POLYLINE
  5
FB
100
AcDbEntity
  8
FAN70-0309
370
              15
390
0
  6
Continuous
 62
               7
100
AcDb2dPolyline
 66
               1
 10
0.0
 20
0.0
 30
0.0
 75
               5
  0
VERTEX
  5
FC
100
AcDbEntity
  8
FAN70-0309
370
              15
390
0
  6
Continuous
 62
               7
100
AcDbVertex
100
AcDb2dVertex
 10
-192.46347400394347
 20
-442.35279772580702
 30
0.0
  0
VERTEX
  5
FD
100
AcDbEntity
  8
FAN70-0309
370
              15
390
0
  6
Continuous
 62
               7
100
AcDbVertex
100
AcDb2dVertex
 10
-191.80816422604357
 20
-442.41448278760663
 30
0.0
  0
VERTEX
  5
FE
100
AcDbEntity
  8
FAN70-0309
370
              15
390
0
  6
Continuous
 62
               7
100
AcDbVertex
100
AcDb2dVertex
 10
-191.15697141244345
 20
-442.60534991330701
 30
0.0
  0
VERTEX
  5
FF
100
AcDbEntity
  8
FAN70-0309
370
              15
390
0
  6
Continuous
 62
               7
100
AcDbVertex
100
AcDb2dVertex
 10
-190.55484944844341
 20
-442.91829062240686
 30
0.0
  0
VERTEX
  5
100
100
AcDbEntity
  8
FAN70-0309
370
              15
390
0
  6
Continuous
 62
               7
100
AcDbVertex
100
AcDb2dVertex
 10
-190.02443247444342
 20
-443.34154127840679
 30
0.0
  0
VERTEX
  5
101
100
AcDbEntity
  8
FAN70-0309
370
              15
390
0
  6
Continuous
 62
               7
100
AcDbVertex
100
AcDb2dVertex
 10
-189.58565919564342
 20
-443.85919162510675
 30
0.0
  0
VERTEX
  5
102
100
AcDbEntity
  8
FAN70-0309
370
              15
390
0
  6
Continuous
 62
               7
100
AcDbVertex
100
AcDb2dVertex
 10
-189.2550233732436
 20
-444.45178286270686
 30
0.0
  0
VERTEX
  5
103
100
AcDbEntity
  8
FAN70-0309
370
              15
390
0
  6
Continuous
 62
               7
100
AcDbVertex
100
AcDb2dVertex
 10
-189.04495381424351
 20
-445.09703911680674
 30
0.0
  0
VERTEX
  5
104
100
AcDbEntity
  8
FAN70-0309
370
              15
390
0
  6
Continuous
 62
               7
100
AcDbVertex
100
AcDb2dVertex
 10
-188.96334716444346
 20
-445.7707048023068
 30
0.0
  0
SEQEND
  5
105
100
AcDbEntity
  8
FAN70-0309
370
              15
390
0
  6
Continuous
 62
               7
  0
POLYLINE
  5
106
100
AcDbEntity
  8
FAN70-0309
370
              15
390
0
  6
Continuous
 62
               7
100
AcDb2dPolyline
 66
               1
 10
0.0
 20
0.0
 30
0.0
 75
               5
  0
VERTEX
  5
107
100
AcDbEntity
  8
FAN70-0309
370
              15
390
0
  6
Continuous
 62
               7
100
AcDbVertex
100
AcDb2dVertex
 10
-710.58135790254357
 20
-442.35279771180672
 30
0.0
  0
VERTEX
  5
108
100
AcDbEntity
  8
FAN70-0309
370
              15
390
0
  6
Continuous
 62
               7
100
AcDbVertex
100
AcDb2dVertex
 10
-711.23755634564361
 20
-442.41466067550687
 30
0.0
  0
VERTEX
  5
109
100
AcDbEntity
  8
FAN70-0309
370
              15
390
0
  6
Continuous
 62
               7
100
AcDbVertex
100
AcDb2dVertex
 10
-711.88944858794355
 20
-442.60600705160687
 30
0.0
  0
VERTEX
  5
10A
100
AcDbEntity
  8
FAN70-0309
370
              15
390
0
  6
Continuous
 62
               7
100
AcDbVertex
100
AcDb2dVertex
 10
-712.49209178974354
 20
-442.9196923945068
 30
0.0
  0
VERTEX
  5
10B
100
AcDbEntity
  8
FAN70-0309
370
              15
390
0
  6
Continuous
 62
               7
100
AcDbVertex
100
AcDb2dVertex
 10
-713.02277837344354
 20
-443.34389705030696
 30
0.0
  0
VERTEX
  5
10C
100
AcDbEntity
  8
FAN70-0309
370
              15
390
0
  6
Continuous
 62
               7
100
AcDbVertex
100
AcDb2dVertex
 10
-713.46151208494359
 20
-443.86263700030679
 30
0.0
  0
VERTEX
  5
10D
100
AcDbEntity
  8
FAN70-0309
370
              15
390
0
  6
Continuous
 62
               7
100
AcDbVertex
100
AcDb2dVertex
 10
-713.79176145124359
 20
-444.45636613910688
 30
0.0
  0
VERTEX
  5
10E
100
AcDbEntity
  8
FAN70-0309
370
              15
390
0
  6
Continuous
 62
               7
100
AcDbVertex
100
AcDb2dVertex
 10
-714.00108268644362
 20
-445.10271277090681
 30
0.0
  0
VERTEX
  5
10F
100
AcDbEntity
  8
FAN70-0309
370
              15
390
0
  6
Continuous
 62
               7
100
AcDbVertex
100
AcDb2dVertex
 10
-714.08158857264357
 20
-445.77732257430671
 30
0.0
  0
SEQEND
  5
110
100
AcDbEntity
  8
FAN70-0309
370
              15
390
0
  6
Continuous
 62
               7
  0
LINE
  5
111
100
AcDbEntity
  8
FAN70-0309
370
              15
390
0
  6
Continuous
 62
               7
100
AcDbLine
 10
-188.89566306884342
 20
-449.6125040807068
 30
0.0
 11
-188.96275318554342
 21
-445.76891386770683
 31
0.0
  0
LINE
  5
112
100
AcDbEntity
  8
FAN70-0309
370
              15
390
0
  6
Continuous
 62
               7
100
AcDbLine
 10
-714.08201024974358
 20
-445.76891386770683
 30
0.0
 11
-714.14910036644358
 21
-449.6125040807068
 31
0.0
  0
POLYLINE
  5
113
100
AcDbEntity
  8
FAN70-0309
370
              15
390
0
  6
Continuous
 62
               7
100
AcDb2dPolyline
 66
               1
 10
0.0
 20
0.0
 30
0.0
 75
               5
  0
VERTEX
  5
114
100
AcDbEntity
  8
FAN70-0309
370
              15
390
0
  6
Continuous
 62
               7
100
AcDbVertex
100
AcDb2dVertex
 10
-491.31777821134352
 20
-583.53064976930682
 30
0.0
  0
VERTEX
  5
115
100
AcDbEntity
  8
FAN70-0309
370
              15
390
0
  6
Continuous
 62
               7
100
AcDbVertex
100
AcDb2dVertex
 10
-490.73353964234349
 20
-583.83865730760681
 30
0.0
  0
VERTEX
  5
116
100
AcDbEntity
  8
FAN70-0309
370
              15
390
0
  6
Continuous
 62
               7
100
AcDbVertex
100
AcDb2dVertex
 10
-490.1809312181436
 20
-584.16124103570678
 30
0.0
  0
VERTEX
  5
117
100
AcDbEntity
  8
FAN70-0309
370
              15
390
0
  6
Continuous
 62
               7
100
AcDbVertex
100
AcDb2dVertex
 10
-489.66018600714364
 20
-584.49527056310671
 30
0.0
  0
VERTEX
  5
118
100
AcDbEntity
  8
FAN70-0309
370
              15
390
0
  6
Continuous
 62
               7
100
AcDbVertex
100
AcDb2dVertex
 10
-489.17118857404347
 20
-584.83766739310681
 30
0.0
  0
VERTEX
  5
119
100
AcDbEntity
  8
FAN70-0309
370
              15
390
0
  6
Continuous
 62
               7
100
AcDbVertex
100
AcDb2dVertex
 10
-488.22534760824345
 20
-585.55434027670685
 30
0.0
  0
VERTEX
  5
11A
100
AcDbEntity
  8
FAN70-0309
370
              15
390
0
  6
Continuous
 62
               7
100
AcDbVertex
100
AcDb2dVertex
 10
-486.79207219894346
 20
-586.64620349620668
 30
0.0
  0
VERTEX
  5
11B
100
AcDbEntity
  8
FAN70-0309
370
              15
390
0
  6
Continuous
 62
               7
100
AcDbVertex
100
AcDb2dVertex
 10
-485.41392263894346
 20
-587.69607199430675
 30
0.0
  0
VERTEX
  5
11C
100
AcDbEntity
  8
FAN70-0309
370
              15
390
0
  6
Continuous
 62
               7
100
AcDbVertex
100
AcDb2dVertex
 10
-483.8757543821435
 20
-588.8678419091068
 30
0.0
  0
VERTEX
  5
11D
100
AcDbEntity
  8
FAN70-0309
370
              15
390
0
  6
Continuous
 62
               7
100
AcDbVertex
100
AcDb2dVertex
 10
-482.41261841134366
 20
-589.98245233110697
 30
0.0
  0
VERTEX
  5
11E
100
AcDbEntity
  8
FAN70-0309
370
              15
390
0
  6
Continuous
 62
               7
100
AcDbVertex
100
AcDb2dVertex
 10
-481.22095416144344
 20
-590.84441007970668
 30
0.0
  0
VERTEX
  5
11F
100
AcDbEntity
  8
FAN70-0309
370
              15
390
0
  6
Continuous
 62
               7
100
AcDbVertex
100
AcDb2dVertex
 10
-479.56658486114344
 20
-591.52641510460694
 30
0.0
  0
VERTEX
  5
120
100
AcDbEntity
  8
FAN70-0309
370
              15
390
0
  6
Continuous
 62
               7
100
AcDbVertex
100
AcDb2dVertex
 10
-477.9049963771435
 20
-591.69598770780681
 30
0.0
  0
SEQEND
  5
121
100
AcDbEntity
  8
FAN70-0309
370
              15
390
0
  6
Continuous
 62
               7
  0
POLYLINE
  5
122
100
AcDbEntity
  8
FAN70-0309
370
              15
390
0
  6
Continuous
 62
               7
100
AcDb2dPolyline
 66
               1
 10
0.0
 20
0.0
 30
0.0
 75
               5
  0
VERTEX
  5
123
100
AcDbEntity
  8
FAN70-0309
370
              15
390
0
  6
Continuous
 62
               7
100
AcDbVertex
100
AcDb2dVertex
 10
-477.90640360454353
 20
-591.69604050680687
 30
0.0
  0
VERTEX
  5
124
100
AcDbEntity
  8
FAN70-0309
370
              15
390
0
  6
Continuous
 62
               7
100
AcDbVertex
100
AcDb2dVertex
 10
-477.59782717834361
 20
-591.67705397620693
 30
0.0
  0
VERTEX
  5
125
100
AcDbEntity
  8
FAN70-0309
370
              15
390
0
  6
Continuous
 62
               7
100
AcDbVertex
100
AcDb2dVertex
 10
-476.81407292924354
 20
-591.63387943250677
 30
0.0
  0
VERTEX
  5
126
100
AcDbEntity
  8
FAN70-0309
370
              15
390
0
  6
Continuous
 62
               7
100
AcDbVertex
100
AcDb2dVertex
 10
-475.62665280964353
 20
-591.57878991670668
 30
0.0
  0
VERTEX
  5
127
100
AcDbEntity
  8
FAN70-0309
370
              15
390
0
  6
Continuous
 62
               7
100
AcDbVertex
100
AcDb2dVertex
 10
-474.10543681554344
 20
-591.51989082340697
 30
0.0
  0
VERTEX
  5
128
100
AcDbEntity
  8
FAN70-0309
370
              15
390
0
  6
Continuous
 62
               7
100
AcDbVertex
100
AcDb2dVertex
 10
-472.31880038914352
 20
-591.46260304480666
 30
0.0
  0
VERTEX
  5
129
100
AcDbEntity
  8
FAN70-0309
370
              15
390
0
  6
Continuous
 62
               7
100
AcDbVertex
100
AcDb2dVertex
 10
-470.3317220568436
 20
-591.41083816420678
 30
0.0
  0
VERTEX
  5
12A
100
AcDbEntity
  8
FAN70-0309
370
              15
390
0
  6
Continuous
 62
               7
100
AcDbVertex
100
AcDb2dVertex
 10
-465.98739585194352
 20
-591.33087217550678
 30
0.0
  0
VERTEX
  5
12B
100
AcDbEntity
  8
FAN70-0309
370
              15
390
0
  6
Continuous
 62
               7
100
AcDbVertex
100
AcDb2dVertex
 10
-461.47769278774359
 20
-591.28417333180687
 30
0.0
  0
VERTEX
  5
12C
100
AcDbEntity
  8
FAN70-0309
370
              15
390
0
  6
Continuous
 62
               7
100
AcDbVertex
100
AcDb2dVertex
 10
-457.1028460210436
 20
-591.26388669250696
 30
0.0
  0
VERTEX
  5
12D
100
AcDbEntity
  8
FAN70-0309
370
              15
390
0
  6
Continuous
 62
               7
100
AcDbVertex
100
AcDb2dVertex
 10
-453.06864698874358
 20
-591.25904690780681
 30
0.0
  0
VERTEX
  5
12E
100
AcDbEntity
  8
FAN70-0309
370
              15
390
0
  6
Continuous
 62
               7
100
AcDbVertex
100
AcDb2dVertex
 10
-449.50195079984343
 20
-591.25932707260677
 30
0.0
  0
VERTEX
  5
12F
100
AcDbEntity
  8
FAN70-0309
370
              15
390
0
  6
Continuous
 62
               7
100
AcDbVertex
100
AcDb2dVertex
 10
-446.23290248464355
 20
-591.26211488730678
 30
0.0
  0
VERTEX
  5
130
100
AcDbEntity
  8
FAN70-0309
370
              15
390
0
  6
Continuous
 62
               7
100
AcDbVertex
100
AcDb2dVertex
 10
-442.6657513152436
 20
-591.27297134050696
 30
0.0
  0
VERTEX
  5
131
100
AcDbEntity
  8
FAN70-0309
370
              15
390
0
  6
Continuous
 62
               7
100
AcDbVertex
100
AcDb2dVertex
 10
-438.87879230444344
 20
-591.29899956640679
 30
0.0
  0
VERTEX
  5
132
100
AcDbEntity
  8
FAN70-0309
370
              15
390
0
  6
Continuous
 62
               7
100
AcDbVertex
100
AcDb2dVertex
 10
-435.04855386634347
 20
-591.34651146920669
 30
0.0
  0
VERTEX
  5
133
100
AcDbEntity
  8
FAN70-0309
370
              15
390
0
  6
Continuous
 62
               7
100
AcDbVertex
100
AcDb2dVertex
 10
-431.41845153514345
 20
-591.41859204620664
 30
0.0
  0
VERTEX
  5
134
100
AcDbEntity
  8
FAN70-0309
370
              15
390
0
  6
Continuous
 62
               7
100
AcDbVertex
100
AcDb2dVertex
 10
-428.30430456864343
 20
-591.50945187880666
 30
0.0
  0
VERTEX
  5
135
100
AcDbEntity
  8
FAN70-0309
370
              15
390
0
  6
Continuous
 62
               7
100
AcDbVertex
100
AcDb2dVertex
 10
-427.05628980154341
 20
-591.55677526670684
 30
0.0
  0
VERTEX
  5
136
100
AcDbEntity
  8
FAN70-0309
370
              15
390
0
  6
Continuous
 62
               7
100
AcDbVertex
100
AcDb2dVertex
 10
-426.08247120844345
 20
-591.60011774650684
 30
0.0
  0
VERTEX
  5
137
100
AcDbEntity
  8
FAN70-0309
370
              15
390
0
  6
Continuous
 62
               7
100
AcDbVertex
100
AcDb2dVertex
 10
-425.43607198834343
 20
-591.63358726900697
 30
0.0
  0
VERTEX
  5
138
100
AcDbEntity
  8
FAN70-0309
370
              15
390
0
  6
Continuous
 62
               7
100
AcDbVertex
100
AcDb2dVertex
 10
-425.17204680124343
 20
-591.64819844580688
 30
0.0
  0
SEQEND
  5
139
100
AcDbEntity
  8
FAN70-0309
370
              15
390
0
  6
Continuous
 62
               7
  0
POLYLINE
  5
13A
100
AcDbEntity
  8
FAN70-0309
370
              15
390
0
  6
Continuous
 62
               7
100
AcDb2dPolyline
 66
               1
 10
0.0
 20
0.0
 30
0.0
 75
               5
  0
VERTEX
  5
13B
100
AcDbEntity
  8
FAN70-0309
370
              15
390
0
  6
Continuous
 62
               7
100
AcDbVertex
100
AcDb2dVertex
 10
-425.17196406384363
 20
-591.64820056240683
 30
0.0
  0
VERTEX
  5
13C
100
AcDbEntity
  8
FAN70-0309
370
              15
390
0
  6
Continuous
 62
               7
100
AcDbVertex
100
AcDb2dVertex
 10
-423.54286784994355
 20
-591.46582780270683
 30
0.0
  0
VERTEX
  5
13D
100
AcDbEntity
  8
FAN70-0309
370
              15
390
0
  6
Continuous
 62
               7
100
AcDbVertex
100
AcDb2dVertex
 10
-421.92089486494348
 20
-590.78862950200664
 30
0.0
  0
VERTEX
  5
13E
100
AcDbEntity
  8
FAN70-0309
370
              15
390
0
  6
Continuous
 62
               7
100
AcDbVertex
100
AcDb2dVertex
 10
-420.73859253904345
 20
-589.93230732130678
 30
0.0
  0
VERTEX
  5
13F
100
AcDbEntity
  8
FAN70-0309
370
              15
390
0
  6
Continuous
 62
               7
100
AcDbVertex
100
AcDb2dVertex
 10
-419.27545316584343
 20
-588.81769680490697
 30
0.0
  0
VERTEX
  5
140
100
AcDbEntity
  8
FAN70-0309
370
              15
390
0
  6
Continuous
 62
               7
100
AcDbVertex
100
AcDb2dVertex
 10
-417.7372830402436
 20
-587.64592674340679
 30
0.0
  0
VERTEX
  5
141
100
AcDbEntity
  8
FAN70-0309
370
              15
390
0
  6
Continuous
 62
               7
100
AcDbVertex
100
AcDb2dVertex
 10
-415.79243759664359
 20
-586.16435212440683
 30
0.0
  0
VERTEX
  5
142
100
AcDbEntity
  8
FAN70-0309
370
              15
390
0
  6
Continuous
 62
               7
100
AcDbVertex
100
AcDb2dVertex
 10
-414.06760305724345
 20
-584.85197275570681
 30
0.0
  0
VERTEX
  5
143
100
AcDbEntity
  8
FAN70-0309
370
              15
390
0
  6
Continuous
 62
               7
100
AcDbVertex
100
AcDb2dVertex
 10
-413.35272526454344
 20
-584.3534416143068
 30
0.0
  0
VERTEX
  5
144
100
AcDbEntity
  8
FAN70-0309
370
              15
390
0
  6
Continuous
 62
               7
100
AcDbVertex
100
AcDb2dVertex
 10
-412.57171235304344
 20
-583.87527543500687
 30
0.0
  0
VERTEX
  5
145
100
AcDbEntity
  8
FAN70-0309
370
              15
390
0
  6
Continuous
 62
               7
100
AcDbVertex
100
AcDb2dVertex
 10
-411.72485329764345
 20
-583.42684028420695
 30
0.0
  0
SEQEND
  5
146
100
AcDbEntity
  8
FAN70-0309
370
              15
390
0
  6
Continuous
 62
               7
  0
LINE
  5
147
100
AcDbEntity
  8
FAN70-0309
370
              15
390
0
  6
Continuous
 62
               7
100
AcDbLine
 10
-713.39932286334363
 20
-450.352797379707
 30
0.0
 11
-189.71263747414343
 21
-450.35279755260694
 31
0.0
  0
LINE
  5
148
100
AcDbEntity
  8
FAN70-0309
370
              15
390
0
  6
Continuous
 62
               7
100
AcDbLine
 10
-344.2552886295436
 20
-442.35279755260694
 30
0.0
 11
-192.5734624326434
 21
-442.35279755260694
 31
0.0
  0
LINE
  5
149
100
AcDbEntity
  8
FAN70-0309
370
              15
390
0
  6
Continuous
 62
               7
100
AcDbLine
 10
-710.49357925934362
 20
-442.35279755260694
 30
0.0
 11
-344.2552886295436
 21
-442.35279755260694
 31
0.0
  0
LINE
  5
14A
100
AcDbEntity
  8
FAN70-0309
370
              15
390
0
  6
Continuous
 62
               7
100
AcDbLine
 10
-713.9833774114436
 20
-445.7917160533068
 30
0.0
 11
-713.99141197674362
 21
-445.79171594790682
 31
0.0
  0
POLYLINE
  5
14B
100
AcDbEntity
  8
FAN70-0309
370
              15
390
0
  6
Continuous
 62
               7
100
AcDb2dPolyline
 66
               1
 10
0.0
 20
0.0
 30
0.0
 75
               5
  0
VERTEX
  5
14C
100
AcDbEntity
  8
FAN70-0309
370
              15
390
0
  6
Continuous
 62
               7
100
AcDbVertex
100
AcDb2dVertex
 10
-491.27238171764367
 20
-583.5535042547067
 30
0.0
  0
VERTEX
  5
14D
100
AcDbEntity
  8
FAN70-0309
370
              15
390
0
  6
Continuous
 62
               7
100
AcDbVertex
100
AcDb2dVertex
 10
-491.27237124684353
 20
-583.55350705910678
 30
0.0
  0
VERTEX
  5
14E
100
AcDbEntity
  8
FAN70-0309
370
              15
390
0
  6
Continuous
 62
               7
100
AcDbVertex
100
AcDb2dVertex
 10
-490.93566720854363
 20
-583.52008795150687
 30
0.0
  0
VERTEX
  5
14F
100
AcDbEntity
  8
FAN70-0309
370
              15
390
0
  6
Continuous
 62
               7
100
AcDbVertex
100
AcDb2dVertex
 10
-489.93614618794351
 20
-583.43474775390678
 30
0.0
  0
VERTEX
  5
150
100
AcDbEntity
  8
FAN70-0309
370
              15
390
0
  6
Continuous
 62
               7
100
AcDbVertex
100
AcDb2dVertex
 10
-488.28968371794366
 20
-583.31652007220691
 30
0.0
  0
VERTEX
  5
151
100
AcDbEntity
  8
FAN70-0309
370
              15
390
0
  6
Continuous
 62
               7
100
AcDbVertex
100
AcDb2dVertex
 10
-486.01967162424359
 20
-583.18099535470697
 30
0.0
  0
VERTEX
  5
152
100
AcDbEntity
  8
FAN70-0309
370
              15
390
0
  6
Continuous
 62
               7
100
AcDbVertex
100
AcDb2dVertex
 10
-483.15974782334359
 20
-583.04157479770674
 30
0.0
  0
VERTEX
  5
153
100
AcDbEntity
  8
FAN70-0309
370
              15
390
0
  6
Continuous
 62
               7
100
AcDbVertex
100
AcDb2dVertex
 10
-479.75541364804343
 20
-582.90968608790672
 30
0.0
  0
VERTEX
  5
154
100
AcDbEntity
  8
FAN70-0309
370
              15
390
0
  6
Continuous
 62
               7
100
AcDbVertex
100
AcDb2dVertex
 10
-475.8599188539435
 20
-582.79428780170679
 30
0.0
  0
VERTEX
  5
155
100
AcDbEntity
  8
FAN70-0309
370
              15
390
0
  6
Continuous
 62
               7
100
AcDbVertex
100
AcDb2dVertex
 10
-471.53876306984347
 20
-582.70174614160692
 30
0.0
  0
VERTEX
  5
156
100
AcDbEntity
  8
FAN70-0309
370
              15
390
0
  6
Continuous
 62
               7
100
AcDbVertex
100
AcDb2dVertex
 10
-466.86587032094366
 20
-582.63532555200663
 30
0.0
  0
VERTEX
  5
157
100
AcDbEntity
  8
FAN70-0309
370
              15
390
0
  6
Continuous
 62
               7
100
AcDbVertex
100
AcDb2dVertex
 10
-461.92235116674345
 20
-582.59480414900713
 30
0.0
  0
VERTEX
  5
158
100
AcDbEntity
  8
FAN70-0309
370
              15
390
0
  6
Continuous
 62
               7
100
AcDbVertex
100
AcDb2dVertex
 10
-456.7956737618436
 20
-582.57635309440661
 30
0.0
  0
VERTEX
  5
159
100
AcDbEntity
  8
FAN70-0309
370
              15
390
0
  6
Continuous
 62
               7
100
AcDbVertex
100
AcDb2dVertex
 10
-451.5757931247436
 20
-582.57239496030684
 30
0.0
  0
VERTEX
  5
15A
100
AcDbEntity
  8
FAN70-0309
370
              15
390
0
  6
Continuous
 62
               7
100
AcDbVertex
100
AcDb2dVertex
 10
-451.52238171764361
 20
-582.57239182160674
 30
0.0
  0
SEQEND
  5
15B
100
AcDbEntity
  8
FAN70-0309
370
              15
390
0
  6
Continuous
 62
               7
  0
POLYLINE
  5
15C
100
AcDbEntity
  8
FAN70-0309
370
              15
390
0
  6
Continuous
 62
               7
100
AcDb2dPolyline
 66
               1
 10
0.0
 20
0.0
 30
0.0
 75
               5
  0
VERTEX
  5
15D
100
AcDbEntity
  8
FAN70-0309
370
              15
390
0
  6
Continuous
 62
               7
100
AcDbVertex
100
AcDb2dVertex
 10
-685.99558666374355
 20
-450.35279755260694
 30
0.0
  0
VERTEX
  5
15E
100
AcDbEntity
  8
FAN70-0309
370
              15
390
0
  6
Continuous
 62
               7
100
AcDbVertex
100
AcDb2dVertex
 10
-680.16063220804369
 20
-460.37912481540684
 30
0.0
  0
VERTEX
  5
15F
100
AcDbEntity
  8
FAN70-0309
370
              15
390
0
  6
Continuous
 62
               7
100
AcDbVertex
100
AcDb2dVertex
 10
-670.2284668803436
 20
-475.10626064200676
 30
0.0
  0
VERTEX
  5
160
100
AcDbEntity
  8
FAN70-0309
370
              15
390
0
  6
Continuous
 62
               7
100
AcDbVertex
100
AcDb2dVertex
 10
-659.41774335664354
 20
-489.05658083860681
 30
0.0
  0
VERTEX
  5
161
100
AcDbEntity
  8
FAN70-0309
370
              15
390
0
  6
Continuous
 62
               7
100
AcDbVertex
100
AcDb2dVertex
 10
-647.77656562864354
 20
-502.20048294880678
 30
0.0
  0
VERTEX
  5
162
100
AcDbEntity
  8
FAN70-0309
370
              15
390
0
  6
Continuous
 62
               7
100
AcDbVertex
100
AcDb2dVertex
 10
-635.35303768814367
 20
-514.50836451600685
 30
0.0
  0
VERTEX
  5
163
100
AcDbEntity
  8
FAN70-0309
370
              15
390
0
  6
Continuous
 62
               7
100
AcDbVertex
100
AcDb2dVertex
 10
-622.19526352694356
 20
-525.95062308390675
 30
0.0
  0
VERTEX
  5
164
100
AcDbEntity
  8
FAN70-0309
370
              15
390
0
  6
Continuous
 62
               7
100
AcDbVertex
100
AcDb2dVertex
 10
-608.3513471367437
 20
-536.49765619580671
 30
0.0
  0
VERTEX
  5
165
100
AcDbEntity
  8
FAN70-0309
370
              15
390
0
  6
Continuous
 62
               7
100
AcDbVertex
100
AcDb2dVertex
 10
-593.86939250944351
 20
-546.11986139540682
 30
0.0
  0
VERTEX
  5
166
100
AcDbEntity
  8
FAN70-0309
370
              15
390
0
  6
Continuous
 62
               7
100
AcDbVertex
100
AcDb2dVertex
 10
-578.06589869044365
 20
-555.17607677950673
 30
0.0
  0
VERTEX
  5
167
100
AcDbEntity
  8
FAN70-0309
370
              15
390
0
  6
Continuous
 62
               7
100
AcDbVertex
100
AcDb2dVertex
 10
-561.67025711574354
 20
-563.15076347060676
 30
0.0
  0
VERTEX
  5
168
100
AcDbEntity
  8
FAN70-0309
370
              15
390
0
  6
Continuous
 62
               7
100
AcDbVertex
100
AcDb2dVertex
 10
-544.73777620824353
 20
-570.00988551630667
 30
0.0
  0
VERTEX
  5
169
100
AcDbEntity
  8
FAN70-0309
370
              15
390
0
  6
Continuous
 62
               7
100
AcDbVertex
100
AcDb2dVertex
 10
-527.32376439074369
 20
-575.71940696390675
 30
0.0
  0
VERTEX
  5
16A
100
AcDbEntity
  8
FAN70-0309
370
              15
390
0
  6
Continuous
 62
               7
100
AcDbVertex
100
AcDb2dVertex
 10
-509.48353008624343
 20
-580.2452918608069
 30
0.0
  0
VERTEX
  5
16B
100
AcDbEntity
  8
FAN70-0309
370
              15
390
0
  6
Continuous
 62
               7
100
AcDbVertex
100
AcDb2dVertex
 10
-491.27238171764367
 20
-583.5535042547067
 30
0.0
  0
SEQEND
  5
16C
100
AcDbEntity
  8
FAN70-0309
370
              15
390
0
  6
Continuous
 62
               7
  0
POLYLINE
  5
16D
100
AcDbEntity
  8
FAN70-0309
370
              15
390
0
  6
Continuous
 62
               7
100
AcDb2dPolyline
 66
               1
 10
0.0
 20
0.0
 30
0.0
 75
               5
  0
VERTEX
  5
16E
100
AcDbEntity
  8
FAN70-0309
370
              15
390
0
  6
Continuous
 62
               7
100
AcDbVertex
100
AcDb2dVertex
 10
-451.52238171764361
 20
-582.57239182160674
 30
0.0
  0
VERTEX
  5
16F
100
AcDbEntity
  8
FAN70-0309
370
              15
390
0
  6
Continuous
 62
               7
100
AcDbVertex
100
AcDb2dVertex
 10
-446.31959669984343
 20
-582.57425739490668
 30
0.0
  0
VERTEX
  5
170
100
AcDbEntity
  8
FAN70-0309
370
              15
390
0
  6
Continuous
 62
               7
100
AcDbVertex
100
AcDb2dVertex
 10
-441.20760106774344
 20
-582.58695871370674
 30
0.0
  0
VERTEX
  5
171
100
AcDbEntity
  8
FAN70-0309
370
              15
390
0
  6
Continuous
 62
               7
100
AcDbVertex
100
AcDb2dVertex
 10
-436.27548412084343
 20
-582.61881357880679
 30
0.0
  0
VERTEX
  5
172
100
AcDbEntity
  8
FAN70-0309
370
              15
390
0
  6
Continuous
 62
               7
100
AcDbVertex
100
AcDb2dVertex
 10
-431.59366169524344
 20
-582.67461435930682
 30
0.0
  0
VERTEX
  5
173
100
AcDbEntity
  8
FAN70-0309
370
              15
390
0
  6
Continuous
 62
               7
100
AcDbVertex
100
AcDb2dVertex
 10
-427.26237529894354
 20
-582.75515156600682
 30
0.0
  0
VERTEX
  5
174
100
AcDbEntity
  8
FAN70-0309
370
              15
390
0
  6
Continuous
 62
               7
100
AcDbVertex
100
AcDb2dVertex
 10
-423.35552002574354
 20
-582.85791192840679
 30
0.0
  0
VERTEX
  5
175
100
AcDbEntity
  8
FAN70-0309
370
              15
390
0
  6
Continuous
 62
               7
100
AcDbVertex
100
AcDb2dVertex
 10
-419.93768146394359
 20
-582.97720475770666
 30
0.0
  0
VERTEX
  5
176
100
AcDbEntity
  8
FAN70-0309
370
              15
390
0
  6
Continuous
 62
               7
100
AcDbVertex
100
AcDb2dVertex
 10
-417.06591624914347
 20
-583.10457191220689
 30
0.0
  0
VERTEX
  5
177
100
AcDbEntity
  8
FAN70-0309
370
              15
390
0
  6
Continuous
 62
               7
100
AcDbVertex
100
AcDb2dVertex
 10
-414.78380464414363
 20
-583.22941735610675
 30
0.0
  0
VERTEX
  5
178
100
AcDbEntity
  8
FAN70-0309
370
              15
390
0
  6
Continuous
 62
               7
100
AcDbVertex
100
AcDb2dVertex
 10
-413.12622172114345
 20
-583.33900427720687
 30
0.0
  0
VERTEX
  5
179
100
AcDbEntity
  8
FAN70-0309
370
              15
390
0
  6
Continuous
 62
               7
100
AcDbVertex
100
AcDb2dVertex
 10
-412.11715914514343
 20
-583.41858996770679
 30
0.0
  0
VERTEX
  5
17A
100
AcDbEntity
  8
FAN70-0309
370
              15
390
0
  6
Continuous
 62
               7
100
AcDbVertex
100
AcDb2dVertex
 10
-411.77246871334341
 20
-583.45030004070668
 30
0.0
  0
VERTEX
  5
17B
100
AcDbEntity
  8
FAN70-0309
370
              15
390
0
  6
Continuous
 62
               7
100
AcDbVertex
100
AcDb2dVertex
 10
-411.77238171764344
 20
-583.45029837500692
 30
0.0
  0
SEQEND
  5
17C
100
AcDbEntity
  8
FAN70-0309
370
              15
390
0
  6
Continuous
 62
               7
  0
POLYLINE
  5
17D
100
AcDbEntity
  8
FAN70-0309
370
              15
390
0
  6
Continuous
 62
               7
100
AcDb2dPolyline
 66
               1
 10
0.0
 20
0.0
 30
0.0
 75
               5
  0
VERTEX
  5
17E
100
AcDbEntity
  8
FAN70-0309
370
              15
390
0
  6
Continuous
 62
               7
100
AcDbVertex
100
AcDb2dVertex
 10
-411.77238171764344
 20
-583.45029837500692
 30
0.0
  0
VERTEX
  5
17F
100
AcDbEntity
  8
FAN70-0309
370
              15
390
0
  6
Continuous
 62
               7
100
AcDbVertex
100
AcDb2dVertex
 10
-394.40296587664346
 20
-580.28003825600695
 30
0.0
  0
VERTEX
  5
180
100
AcDbEntity
  8
FAN70-0309
370
              15
390
0
  6
Continuous
 62
               7
100
AcDbVertex
100
AcDb2dVertex
 10
-377.3686667579434
 20
-576.00739965610683
 30
0.0
  0
VERTEX
  5
181
100
AcDbEntity
  8
FAN70-0309
370
              15
390
0
  6
Continuous
 62
               7
100
AcDbVertex
100
AcDb2dVertex
 10
-360.71694987044344
 20
-570.66159211920694
 30
0.0
  0
VERTEX
  5
182
100
AcDbEntity
  8
FAN70-0309
370
              15
390
0
  6
Continuous
 62
               7
100
AcDbVertex
100
AcDb2dVertex
 10
-344.49528072324347
 20
-564.27182518940663
 30
0.0
  0
VERTEX
  5
183
100
AcDbEntity
  8
FAN70-0309
370
              15
390
0
  6
Continuous
 62
               7
100
AcDbVertex
100
AcDb2dVertex
 10
-328.75112482534354
 20
-556.86730841060671
 30
0.0
  0
VERTEX
  5
184
100
AcDbEntity
  8
FAN70-0309
370
              15
390
0
  6
Continuous
 62
               7
100
AcDbVertex
100
AcDb2dVertex
 10
-313.53194768574355
 20
-548.4772513270068
 30
0.0
  0
VERTEX
  5
185
100
AcDbEntity
  8
FAN70-0309
370
              15
390
0
  6
Continuous
 62
               7
100
AcDbVertex
100
AcDb2dVertex
 10
-298.88521481344344
 20
-539.13086348240677
 30
0.0
  0
VERTEX
  5
186
100
AcDbEntity
  8
FAN70-0309
370
              15
390
0
  6
Continuous
 62
               7
100
AcDbVertex
100
AcDb2dVertex
 10
-284.85839171764343
 20
-528.85735442100668
 30
0.0
  0
VERTEX
  5
187
100
AcDbEntity
  8
FAN70-0309
370
              15
390
0
  6
Continuous
 62
               7
100
AcDbVertex
100
AcDb2dVertex
 10
-270.88023436544358
 20
-517.13206166760665
 30
0.0
  0
VERTEX
  5
188
100
AcDbEntity
  8
FAN70-0309
370
              15
390
0
  6
Continuous
 62
               7
100
AcDbVertex
100
AcDb2dVertex
 10
-257.68909948834357
 20
-504.45488995750691
 30
0.0
  0
VERTEX
  5
189
100
AcDbEntity
  8
FAN70-0309
370
              15
390
0
  6
Continuous
 62
               7
100
AcDbVertex
100
AcDb2dVertex
 10
-245.33956140214343
 20
-490.85942348510673
 30
0.0
  0
VERTEX
  5
18A
100
AcDbEntity
  8
FAN70-0309
370
              15
390
0
  6
Continuous
 62
               7
100
AcDbVertex
100
AcDb2dVertex
 10
-233.88619442284346
 20
-476.37924644490681
 30
0.0
  0
VERTEX
  5
18B
100
AcDbEntity
  8
FAN70-0309
370
              15
390
0
  6
Continuous
 62
               7
100
AcDbVertex
100
AcDb2dVertex
 10
-223.38357286644361
 20
-461.04794303120684
 30
0.0
  0
VERTEX
  5
18C
100
AcDbEntity
  8
FAN70-0309
370
              15
390
0
  6
Continuous
 62
               7
100
AcDbVertex
100
AcDb2dVertex
 10
-217.09364805344342
 20
-450.35279755260694
 30
0.0
  0
SEQEND
  5
18D
100
AcDbEntity
  8
FAN70-0309
370
              15
390
0
  6
Continuous
 62
               7
  0
CIRCLE
  5
18E
100
AcDbEntity
  8
FAN70-0309
370
              15
390
0
  6
Continuous
 62
               7
100
AcDbCircle
 10
-449.50195079984343
 20
564.88023882999983
 30
0.0
 40
24.0
  0
POLYLINE
  5
18F
100
AcDbEntity
  8
FAN70-0309
370
              15
390
0
  6
Continuous
 62
               7
100
AcDb2dPolyline
 66
               1
 10
0.0
 20
0.0
 30
0.0
 75
               5
  0
VERTEX
  5
190
100
AcDbEntity
  8
FAN70-0309
370
              15
390
0
  6
Continuous
 62
               7
100
AcDbVertex
100
AcDb2dVertex
 10
-409.7519507998432
 20
564.88023882999983
 30
0.0
  0
VERTEX
  5
191
100
AcDbEntity
  8
FAN70-0309
370
              15
390
0
  6
Continuous
 62
               7
100
AcDbVertex
100
AcDb2dVertex
 10
-410.08224460184334
 20
569.99683955569981
 30
0.0
  0
VERTEX
  5
192
100
AcDbEntity
  8
FAN70-0309
370
              15
390
0
  6
Continuous
 62
               7
100
AcDbVertex
100
AcDb2dVertex
 10
-411.07028075834324
 20
575.03263548109987
 30
0.0
  0
VERTEX
  5
193
100
AcDbEntity
  8
FAN70-0309
370
              15
390
0
  6
Continuous
 62
               7
100
AcDbVertex
100
AcDb2dVertex
 10
-412.70068408914318
 20
579.90457608539975
 30
0.0
  0
VERTEX
  5
194
100
AcDbEntity
  8
FAN70-0309
370
              15
390
0
  6
Continuous
 62
               7
100
AcDbVertex
100
AcDb2dVertex
 10
-414.96471613264322
 20
584.55947532209984
 30
0.0
  0
VERTEX
  5
195
100
AcDbEntity
  8
FAN70-0309
370
              15
390
0
  6
Continuous
 62
               7
100
AcDbVertex
100
AcDb2dVertex
 10
-417.82220939894324
 20
588.88973235659967
 30
0.0
  0
VERTEX
  5
196
100
AcDbEntity
  8
FAN70-0309
370
              15
390
0
  6
Continuous
 62
               7
100
AcDbVertex
100
AcDb2dVertex
 10
-421.22814100634315
 20
592.82051293879977
 30
0.0
  0
VERTEX
  5
197
100
AcDbEntity
  8
FAN70-0309
370
              15
390
0
  6
Continuous
 62
               7
100
AcDbVertex
100
AcDb2dVertex
 10
-425.12974316384322
 20
596.28228967109987
 30
0.0
  0
VERTEX
  5
198
100
AcDbEntity
  8
FAN70-0309
370
              15
390
0
  6
Continuous
 62
               7
100
AcDbVertex
100
AcDb2dVertex
 10
-429.46168000714312
 20
599.20879907119979
 30
0.0
  0
VERTEX
  5
199
100
AcDbEntity
  8
FAN70-0309
370
              15
390
0
  6
Continuous
 62
               7
100
AcDbVertex
100
AcDb2dVertex
 10
-434.14980592524313
 20
601.54594721039962
 30
0.0
  0
VERTEX
  5
19A
100
AcDbEntity
  8
FAN70-0309
370
              15
390
0
  6
Continuous
 62
               7
100
AcDbVertex
100
AcDb2dVertex
 10
-439.11222160964331
 20
603.24840496729985
 30
0.0
  0
VERTEX
  5
19B
100
AcDbEntity
  8
FAN70-0309
370
              15
390
0
  6
Continuous
 62
               7
100
AcDbVertex
100
AcDb2dVertex
 10
-444.26013472064307
 20
604.28347635889986
 30
0.0
  0
VERTEX
  5
19C
100
AcDbEntity
  8
FAN70-0309
370
              15
390
0
  6
Continuous
 62
               7
100
AcDbVertex
100
AcDb2dVertex
 10
-449.50195079984343
 20
604.63023882999983
 30
0.0
  0
SEQEND
  5
19D
100
AcDbEntity
  8
FAN70-0309
370
              15
390
0
  6
Continuous
 62
               7
  0
POLYLINE
  5
19E
100
AcDbEntity
  8
FAN70-0309
370
              15
390
0
  6
Continuous
 62
               7
100
AcDb2dPolyline
 66
               1
 10
0.0
 20
0.0
 30
0.0
 75
               5
  0
VERTEX
  5
19F
100
AcDbEntity
  8
FAN70-0309
370
              15
390
0
  6
Continuous
 62
               7
100
AcDbVertex
100
AcDb2dVertex
 10
-449.50195079984343
 20
747.48790296619973
 30
0.0
  0
VERTEX
  5
1A0
100
AcDbEntity
  8
FAN70-0309
370
              15
390
0
  6
Continuous
 62
               7
100
AcDbVertex
100
AcDb2dVertex
 10
-445.42120798114303
 20
747.32283449939973
 30
0.0
  0
VERTEX
  5
1A1
100
AcDbEntity
  8
FAN70-0309
370
              15
390
0
  6
Continuous
 62
               7
100
AcDbVertex
100
AcDb2dVertex
 10
-441.4981894646433
 20
746.83224463389979
 30
0.0
  0
VERTEX
  5
1A2
100
AcDbEntity
  8
FAN70-0309
370
              15
390
0
  6
Continuous
 62
               7
100
AcDbVertex
100
AcDb2dVertex
 10
-437.88337107404328
 20
746.02985312999965
 30
0.0
  0
VERTEX
  5
1A3
100
AcDbEntity
  8
FAN70-0309
370
              15
390
0
  6
Continuous
 62
               7
100
AcDbVertex
100
AcDb2dVertex
 10
-434.71679075964317
 20
744.93952104329981
 30
0.0
  0
VERTEX
  5
1A4
100
AcDbEntity
  8
FAN70-0309
370
              15
390
0
  6
Continuous
 62
               7
100
AcDbVertex
100
AcDb2dVertex
 10
-432.11928576604333
 20
743.59512531769974
 30
0.0
  0
VERTEX
  5
1A5
100
AcDbEntity
  8
FAN70-0309
370
              15
390
0
  6
Continuous
 62
               7
100
AcDbVertex
100
AcDb2dVertex
 10
-430.19047199724338
 20
742.04168418149982
 30
0.0
  0
VERTEX
  5
1A6
100
AcDbEntity
  8
FAN70-0309
370
              15
390
0
  6
Continuous
 62
               7
100
AcDbVertex
100
AcDb2dVertex
 10
-429.0030590559432
 20
740.33352326309978
 30
0.0
  0
VERTEX
  5
1A7
100
AcDbEntity
  8
FAN70-0309
370
              15
390
0
  6
Continuous
 62
               7
100
AcDbVertex
100
AcDb2dVertex
 10
-428.6019507880431
 20
738.53344217159975
 30
0.0
  0
VERTEX
  5
1A8
100
AcDbEntity
  8
FAN70-0309
370
              15
390
0
  6
Continuous
 62
               7
100
AcDbVertex
100
AcDb2dVertex
 10
-429.00238609344325
 20
736.71126444949971
 30
0.0
  0
VERTEX
  5
1A9
100
AcDbEntity
  8
FAN70-0309
370
              15
390
0
  6
Continuous
 62
               7
100
AcDbVertex
100
AcDb2dVertex
 10
-430.18971712014314
 20
734.9390337740997
 30
0.0
  0
VERTEX
  5
1AA
100
AcDbEntity
  8
FAN70-0309
370
              15
390
0
  6
Continuous
 62
               7
100
AcDbVertex
100
AcDb2dVertex
 10
-432.11873015554312
 20
733.2901714011997
 30
0.0
  0
VERTEX
  5
1AB
100
AcDbEntity
  8
FAN70-0309
370
              15
390
0
  6
Continuous
 62
               7
100
AcDbVertex
100
AcDb2dVertex
 10
-434.71669421264306
 20
731.83334859309969
 30
0.0
  0
VERTEX
  5
1AC
100
AcDbEntity
  8
FAN70-0309
370
              15
390
0
  6
Continuous
 62
               7
100
AcDbVertex
100
AcDb2dVertex
 10
-437.88358871824317
 20
730.6307259721998
 30
0.0
  0
VERTEX
  5
1AD
100
AcDbEntity
  8
FAN70-0309
370
              15
390
0
  6
Continuous
 62
               7
100
AcDbVertex
100
AcDb2dVertex
 10
-441.49807903794323
 20
729.73335301199972
 30
0.0
  0
VERTEX
  5
1AE
100
AcDbEntity
  8
FAN70-0309
370
              15
390
0
  6
Continuous
 62
               7
100
AcDbVertex
100
AcDb2dVertex
 10
-445.42155717914312
 20
729.17934704679976
 30
0.0
  0
VERTEX
  5
1AF
100
AcDbEntity
  8
FAN70-0309
370
              15
390
0
  6
Continuous
 62
               7
100
AcDbVertex
100
AcDb2dVertex
 10
-449.50195079984343
 20
728.99215074189988
 30
0.0
  0
SEQEND
  5
1B0
100
AcDbEntity
  8
FAN70-0309
370
              15
390
0
  6
Continuous
 62
               7
  0
POLYLINE
  5
1B1
100
AcDbEntity
  8
FAN70-0309
370
              15
390
0
  6
Continuous
 62
               7
100
AcDb2dPolyline
 66
               1
 10
0.0
 20
0.0
 30
0.0
 75
               5
  0
VERTEX
  5
1B2
100
AcDbEntity
  8
FAN70-0309
370
              15
390
0
  6
Continuous
 62
               7
100
AcDbVertex
100
AcDb2dVertex
 10
-489.25195079984343
 20
564.88023882999983
 30
0.0
  0
VERTEX
  5
1B3
100
AcDbEntity
  8
FAN70-0309
370
              15
390
0
  6
Continuous
 62
               7
100
AcDbVertex
100
AcDb2dVertex
 10
-489.25194032914311
 20
564.85119759059967
 30
0.0
  0
VERTEX
  5
1B4
100
AcDbEntity
  8
FAN70-0309
370
              15
390
0
  6
Continuous
 62
               7
100
AcDbVertex
100
AcDb2dVertex
 10
-488.91523636384323
 20
559.71445445419977
 30
0.0
  0
VERTEX
  5
1B5
100
AcDbEntity
  8
FAN70-0309
370
              15
390
0
  6
Continuous
 62
               7
100
AcDbVertex
100
AcDb2dVertex
 10
-487.9157152725432
 20
554.66030297859982
 30
0.0
  0
VERTEX
  5
1B6
100
AcDbEntity
  8
FAN70-0309
370
              15
390
0
  6
Continuous
 62
               7
100
AcDbVertex
100
AcDb2dVertex
 10
-486.26925280264328
 20
549.77295997169983
 30
0.0
  0
VERTEX
  5
1B7
100
AcDbEntity
  8
FAN70-0309
370
              15
390
0
  6
Continuous
 62
               7
100
AcDbVertex
100
AcDb2dVertex
 10
-483.99924073484323
 20
545.13107962159984
 30
0.0
  0
VERTEX
  5
1B8
100
AcDbEntity
  8
FAN70-0309
370
              15
390
0
  6
Continuous
 62
               7
100
AcDbVertex
100
AcDb2dVertex
 10
-481.13931689284328
 20
540.81493785569967
 30
0.0
  0
VERTEX
  5
1B9
100
AcDbEntity
  8
FAN70-0309
370
              15
390
0
  6
Continuous
 62
               7
100
AcDbVertex
100
AcDb2dVertex
 10
-477.73498273284309
 20
536.89875520999976
 30
0.0
  0
VERTEX
  5
1BA
100
AcDbEntity
  8
FAN70-0309
370
              15
390
0
  6
Continuous
 62
               7
100
AcDbVertex
100
AcDb2dVertex
 10
-473.83948794154304
 20
533.45131602069978
 30
0.0
  0
VERTEX
  5
1BB
100
AcDbEntity
  8
FAN70-0309
370
              15
390
0
  6
Continuous
 62
               7
100
AcDbVertex
100
AcDb2dVertex
 10
-469.5183321519433
 20
530.53774323059974
 30
0.0
  0
VERTEX
  5
1BC
100
AcDbEntity
  8
FAN70-0309
370
              15
390
0
  6
Continuous
 62
               7
100
AcDbVertex
100
AcDb2dVertex
 10
-464.84543940304326
 20
528.21090726689977
 30
0.0
  0
VERTEX
  5
1BD
100
AcDbEntity
  8
FAN70-0309
370
              15
390
0
  6
Continuous
 62
               7
100
AcDbVertex
100
AcDb2dVertex
 10
-459.9019202489431
 20
526.5148470744997
 30
0.0
  0
VERTEX
  5
1BE
100
AcDbEntity
  8
FAN70-0309
370
              15
390
0
  6
Continuous
 62
               7
100
AcDbVertex
100
AcDb2dVertex
 10
-454.77524284484326
 20
525.48120604839983
 30
0.0
  0
VERTEX
  5
1BF
100
AcDbEntity
  8
FAN70-0309
370
              15
390
0
  6
Continuous
 62
               7
100
AcDbVertex
100
AcDb2dVertex
 10
-449.55536220694336
 20
525.13027446509977
 30
0.0
  0
VERTEX
  5
1C0
100
AcDbEntity
  8
FAN70-0309
370
              15
390
0
  6
Continuous
 62
               7
100
AcDbVertex
100
AcDb2dVertex
 10
-449.50195079984343
 20
525.13023882999983
 30
0.0
  0
SEQEND
  5
1C1
100
AcDbEntity
  8
FAN70-0309
370
              15
390
0
  6
Continuous
 62
               7
  0
POLYLINE
  5
1C2
100
AcDbEntity
  8
FAN70-0309
370
              15
390
0
  6
Continuous
 62
               7
100
AcDb2dPolyline
 66
               1
 10
0.0
 20
0.0
 30
0.0
 75
               5
  0
VERTEX
  5
1C3
100
AcDbEntity
  8
FAN70-0309
370
              15
390
0
  6
Continuous
 62
               7
100
AcDbVertex
100
AcDb2dVertex
 10
-449.50195079984343
 20
525.13023882999983
 30
0.0
  0
VERTEX
  5
1C4
100
AcDbEntity
  8
FAN70-0309
370
              15
390
0
  6
Continuous
 62
               7
100
AcDbVertex
100
AcDb2dVertex
 10
-444.29916578144326
 20
525.4718269939998
 30
0.0
  0
VERTEX
  5
1C5
100
AcDbEntity
  8
FAN70-0309
370
              15
390
0
  6
Continuous
 62
               7
100
AcDbVertex
100
AcDb2dVertex
 10
-439.18717014974328
 20
526.49183444489972
 30
0.0
  0
VERTEX
  5
1C6
100
AcDbEntity
  8
FAN70-0309
370
              15
390
0
  6
Continuous
 62
               7
100
AcDbVertex
100
AcDb2dVertex
 10
-434.2550532034432
 20
528.1706411053998
 30
0.0
  0
VERTEX
  5
1C7
100
AcDbEntity
  8
FAN70-0309
370
              15
390
0
  6
Continuous
 62
               7
100
AcDbVertex
100
AcDb2dVertex
 10
-429.57323077174334
 20
530.48639427309979
 30
0.0
  0
VERTEX
  5
1C8
100
AcDbEntity
  8
FAN70-0309
370
              15
390
0
  6
Continuous
 62
               7
100
AcDbVertex
100
AcDb2dVertex
 10
-425.24194438524302
 20
533.39193316329977
 30
0.0
  0
VERTEX
  5
1C9
100
AcDbEntity
  8
FAN70-0309
370
              15
390
0
  6
Continuous
 62
               7
100
AcDbVertex
100
AcDb2dVertex
 10
-421.33508910614324
 20
536.83212158259983
 30
0.0
  0
VERTEX
  5
1CA
100
AcDbEntity
  8
FAN70-0309
370
              15
390
0
  6
Continuous
 62
               7
100
AcDbVertex
100
AcDb2dVertex
 10
-417.91725052624321
 20
540.74526493239978
 30
0.0
  0
VERTEX
  5
1CB
100
AcDbEntity
  8
FAN70-0309
370
              15
390
0
  6
Continuous
 62
               7
100
AcDbVertex
100
AcDb2dVertex
 10
-415.04548533124313
 20
545.06068671589981
 30
0.0
  0
VERTEX
  5
1CC
100
AcDbEntity
  8
FAN70-0309
370
              15
390
0
  6
Continuous
 62
               7
100
AcDbVertex
100
AcDb2dVertex
 10
-412.76337372424342
 20
549.70326712569977
 30
0.0
  0
VERTEX
  5
1CD
100
AcDbEntity
  8
FAN70-0309
370
              15
390
0
  6
Continuous
 62
               7
100
AcDbVertex
100
AcDb2dVertex
 10
-411.10579080314329
 20
554.59444792189981
 30
0.0
  0
VERTEX
  5
1CE
100
AcDbEntity
  8
FAN70-0309
370
              15
390
0
  6
Continuous
 62
               7
100
AcDbVertex
100
AcDb2dVertex
 10
-410.09672818374321
 20
559.6533397349998
 30
0.0
  0
VERTEX
  5
1CF
100
AcDbEntity
  8
FAN70-0309
370
              15
390
0
  6
Continuous
 62
               7
100
AcDbVertex
100
AcDb2dVertex
 10
-409.75203779614327
 20
564.79679080309973
 30
0.0
  0
VERTEX
  5
1D0
100
AcDbEntity
  8
FAN70-0309
370
              15
390
0
  6
Continuous
 62
               7
100
AcDbVertex
100
AcDb2dVertex
 10
-409.7519507998432
 20
564.88023882999983
 30
0.0
  0
SEQEND
  5
1D1
100
AcDbEntity
  8
FAN70-0309
370
              15
390
0
  6
Continuous
 62
               7
  0
POLYLINE
  5
1D2
100
AcDbEntity
  8
FAN70-0309
370
              15
390
0
  6
Continuous
 62
               7
100
AcDb2dPolyline
 66
               1
 10
0.0
 20
0.0
 30
0.0
 75
               5
  0
VERTEX
  5
1D3
100
AcDbEntity
  8
FAN70-0309
370
              15
390
0
  6
Continuous
 62
               7
100
AcDbVertex
100
AcDb2dVertex
 10
-457.53854852864316
 20
746.82665775459964
 30
0.0
  0
VERTEX
  5
1D4
100
AcDbEntity
  8
FAN70-0309
370
              15
390
0
  6
Continuous
 62
               7
100
AcDbVertex
100
AcDb2dVertex
 10
-457.50596636614301
 20
746.83225274279982
 30
0.0
  0
VERTEX
  5
1D5
100
AcDbEntity
  8
FAN70-0309
370
              15
390
0
  6
Continuous
 62
               7
100
AcDbVertex
100
AcDb2dVertex
 10
-453.58247734034336
 20
747.3228701060998
 30
0.0
  0
VERTEX
  5
1D6
100
AcDbEntity
  8
FAN70-0309
370
              15
390
0
  6
Continuous
 62
               7
100
AcDbVertex
100
AcDb2dVertex
 10
-449.50195079984343
 20
747.48790296619973
 30
0.0
  0
SEQEND
  5
1D7
100
AcDbEntity
  8
FAN70-0309
370
              15
390
0
  6
Continuous
 62
               7
  0
LINE
  5
1D8
100
AcDbEntity
  8
FAN70-0309
370
              15
390
0
  6
Continuous
 62
               7
100
AcDbLine
 10
-459.71854423754309
 20
746.38755935259985
 30
0.0
 11
-457.53854852864316
 21
746.82665775459964
 31
0.0
  0
LINE
  5
1D9
100
AcDbEntity
  8
FAN70-0309
370
              15
390
0
  6
Continuous
 62
               7
100
AcDbLine
 10
-462.69347092234312
 20
745.54442874989968
 30
0.0
 11
-459.71854423754309
 21
746.38755935259985
 31
0.0
  0
LINE
  5
1DA
100
AcDbEntity
  8
FAN70-0309
370
              15
390
0
  6
Continuous
 62
               7
100
AcDbLine
 10
-464.01906786334308
 20
745.05072360279985
 30
0.0
 11
-462.69347092234312
 21
745.54442874989968
 31
0.0
  0
POLYLINE
  5
1DB
100
AcDbEntity
  8
FAN70-0309
370
              15
390
0
  6
Continuous
 62
               7
100
AcDb2dPolyline
 66
               1
 10
0.0
 20
0.0
 30
0.0
 75
               5
  0
VERTEX
  5
1DC
100
AcDbEntity
  8
FAN70-0309
370
              15
390
0
  6
Continuous
 62
               7
100
AcDbVertex
100
AcDb2dVertex
 10
-466.78181916124305
 20
743.66061112909972
 30
0.0
  0
VERTEX
  5
1DD
100
AcDbEntity
  8
FAN70-0309
370
              15
390
0
  6
Continuous
 62
               7
100
AcDbVertex
100
AcDb2dVertex
 10
-464.28680393944325
 20
744.9398537318998
 30
0.0
  0
VERTEX
  5
1DE
100
AcDbEntity
  8
FAN70-0309
370
              15
390
0
  6
Continuous
 62
               7
100
AcDbVertex
100
AcDb2dVertex
 10
-464.01906786334308
 20
745.05072360279985
 30
0.0
  0
SEQEND
  5
1DF
100
AcDbEntity
  8
FAN70-0309
370
              15
390
0
  6
Continuous
 62
               7
  0
POLYLINE
  5
1E0
100
AcDbEntity
  8
FAN70-0309
370
              15
390
0
  6
Continuous
 62
               7
100
AcDb2dPolyline
 66
               1
 10
0.0
 20
0.0
 30
0.0
 75
               5
  0
VERTEX
  5
1E1
100
AcDbEntity
  8
FAN70-0309
370
              15
390
0
  6
Continuous
 62
               7
100
AcDbVertex
100
AcDb2dVertex
 10
-467.31769100164303
 20
733.60042428739985
 30
0.0
  0
VERTEX
  5
1E2
100
AcDbEntity
  8
FAN70-0309
370
              15
390
0
  6
Continuous
 62
               7
100
AcDbVertex
100
AcDb2dVertex
 10
-468.81425896724323
 20
734.9399707194998
 30
0.0
  0
VERTEX
  5
1E3
100
AcDbEntity
  8
FAN70-0309
370
              15
390
0
  6
Continuous
 62
               7
100
AcDbVertex
100
AcDb2dVertex
 10
-470.00137505984304
 20
736.71183102799966
 30
0.0
  0
VERTEX
  5
1E4
100
AcDbEntity
  8
FAN70-0309
370
              15
390
0
  6
Continuous
 62
               7
100
AcDbVertex
100
AcDb2dVertex
 10
-470.40195071294335
 20
738.53419901119969
 30
0.0
  0
VERTEX
  5
1E5
100
AcDbEntity
  8
FAN70-0309
370
              15
390
0
  6
Continuous
 62
               7
100
AcDbVertex
100
AcDb2dVertex
 10
-470.00099637104341
 20
740.33385283289977
 30
0.0
  0
VERTEX
  5
1E6
100
AcDbEntity
  8
FAN70-0309
370
              15
390
0
  6
Continuous
 62
               7
100
AcDbVertex
100
AcDb2dVertex
 10
-468.81340137524313
 20
742.04218848569963
 30
0.0
  0
VERTEX
  5
1E7
100
AcDbEntity
  8
FAN70-0309
370
              15
390
0
  6
Continuous
 62
               7
100
AcDbVertex
100
AcDb2dVertex
 10
-466.78181916124305
 20
743.66061112909972
 30
0.0
  0
SEQEND
  5
1E8
100
AcDbEntity
  8
FAN70-0309
370
              15
390
0
  6
Continuous
 62
               7
  0
LINE
  5
1E9
100
AcDbEntity
  8
FAN70-0309
370
              15
390
0
  6
Continuous
 62
               7
100
AcDbLine
 10
-467.3026925753432
 20
733.58925172189981
 30
0.0
 11
-467.31769100164303
 21
733.60042428739985
 31
0.0
  0
POLYLINE
  5
1EA
100
AcDbEntity
  8
FAN70-0309
370
              15
390
0
  6
Continuous
 62
               7
100
AcDb2dPolyline
 66
               1
 10
0.0
 20
0.0
 30
0.0
 75
               5
  0
VERTEX
  5
1EB
100
AcDbEntity
  8
FAN70-0309
370
              15
390
0
  6
Continuous
 62
               7
100
AcDbVertex
100
AcDb2dVertex
 10
-449.50195079984343
 20
728.99215074189988
 30
0.0
  0
VERTEX
  5
1EC
100
AcDbEntity
  8
FAN70-0309
370
              15
390
0
  6
Continuous
 62
               7
100
AcDbVertex
100
AcDb2dVertex
 10
-449.50206772224311
 20
728.99215074019969
 30
0.0
  0
VERTEX
  5
1ED
100
AcDbEntity
  8
FAN70-0309
370
              15
390
0
  6
Continuous
 62
               7
100
AcDbVertex
100
AcDb2dVertex
 10
-453.58273225964336
 20
729.17944503629974
 30
0.0
  0
VERTEX
  5
1EE
100
AcDbEntity
  8
FAN70-0309
370
              15
390
0
  6
Continuous
 62
               7
100
AcDbVertex
100
AcDb2dVertex
 10
-457.50578007184305
 20
729.73355670539979
 30
0.0
  0
VERTEX
  5
1EF
100
AcDbEntity
  8
FAN70-0309
370
              15
390
0
  6
Continuous
 62
               7
100
AcDbVertex
100
AcDb2dVertex
 10
-461.12078358644322
 20
730.63127952369973
 30
0.0
  0
VERTEX
  5
1F0
100
AcDbEntity
  8
FAN70-0309
370
              15
390
0
  6
Continuous
 62
               7
100
AcDbVertex
100
AcDb2dVertex
 10
-464.28765561744336
 20
731.83417178479965
 30
0.0
  0
VERTEX
  5
1F1
100
AcDbEntity
  8
FAN70-0309
370
              15
390
0
  6
Continuous
 62
               7
100
AcDbVertex
100
AcDb2dVertex
 10
-467.3026925753432
 20
733.58925172189981
 30
0.0
  0
SEQEND
  5
1F2
100
AcDbEntity
  8
FAN70-0309
370
              15
390
0
  6
Continuous
 62
               7
  0
POLYLINE
  5
1F3
100
AcDbEntity
  8
FAN70-0309
370
              15
390
0
  6
Continuous
 62
               7
100
AcDb2dPolyline
 66
               1
 10
0.0
 20
0.0
 30
0.0
 75
               5
  0
VERTEX
  5
1F4
100
AcDbEntity
  8
FAN70-0309
370
              15
390
0
  6
Continuous
 62
               7
100
AcDbVertex
100
AcDb2dVertex
 10
-449.50195079984343
 20
604.63023882999983
 30
0.0
  0
VERTEX
  5
1F5
100
AcDbEntity
  8
FAN70-0309
370
              15
390
0
  6
Continuous
 62
               7
100
AcDbVertex
100
AcDb2dVertex
 10
-456.15912336054322
 20
604.06552535759965
 30
0.0
  0
VERTEX
  5
1F6
100
AcDbEntity
  8
FAN70-0309
370
              15
390
0
  6
Continuous
 62
               7
100
AcDbVertex
100
AcDb2dVertex
 10
-462.62935833174316
 20
602.4000038895997
 30
0.0
  0
VERTEX
  5
1F7
100
AcDbEntity
  8
FAN70-0309
370
              15
390
0
  6
Continuous
 62
               7
100
AcDbVertex
100
AcDb2dVertex
 10
-468.72837902224325
 20
599.66654180549983
 30
0.0
  0
VERTEX
  5
1F8
100
AcDbEntity
  8
FAN70-0309
370
              15
390
0
  6
Continuous
 62
               7
100
AcDbVertex
100
AcDb2dVertex
 10
-474.28698707864311
 20
595.95696203439979
 30
0.0
  0
VERTEX
  5
1F9
100
AcDbEntity
  8
FAN70-0309
370
              15
390
0
  6
Continuous
 62
               7
100
AcDbVertex
100
AcDb2dVertex
 10
-479.14540843584319
 20
591.35686587129965
 30
0.0
  0
VERTEX
  5
1FA
100
AcDbEntity
  8
FAN70-0309
370
              15
390
0
  6
Continuous
 62
               7
100
AcDbVertex
100
AcDb2dVertex
 10
-483.16940216274321
 20
586.01226786169968
 30
0.0
  0
VERTEX
  5
1FB
100
AcDbEntity
  8
FAN70-0309
370
              15
390
0
  6
Continuous
 62
               7
100
AcDbVertex
100
AcDb2dVertex
 10
-486.23596468464331
 20
580.0578223033998
 30
0.0
  0
VERTEX
  5
1FC
100
AcDbEntity
  8
FAN70-0309
370
              15
390
0
  6
Continuous
 62
               7
100
AcDbVertex
100
AcDb2dVertex
 10
-488.26689326524303
 20
573.67450893309979
 30
0.0
  0
VERTEX
  5
1FD
100
AcDbEntity
  8
FAN70-0309
370
              15
390
0
  6
Continuous
 62
               7
100
AcDbVertex
100
AcDb2dVertex
 10
-489.00358431504316
 20
569.30502507159986
 30
0.0
  0
VERTEX
  5
1FE
100
AcDbEntity
  8
FAN70-0309
370
              15
390
0
  6
Continuous
 62
               7
100
AcDbVertex
100
AcDb2dVertex
 10
-489.25195079984343
 20
564.88023882999983
 30
0.0
  0
SEQEND
  5
1FF
100
AcDbEntity
  8
FAN70-0309
370
              15
390
0
  6
Continuous
 62
               7
  0
POLYLINE
  5
200
100
AcDbEntity
  8
FAN70-0309
370
              15
390
0
  6
Continuous
 62
               7
100
AcDb2dPolyline
 66
               1
 10
0.0
 20
0.0
 30
0.0
 75
               5
  0
VERTEX
  5
201
100
AcDbEntity
  8
FAN70-0309
370
              15
390
0
  6
Continuous
 62
               7
100
AcDbVertex
100
AcDb2dVertex
 10
-712.03541910549336
 20
564.88023768638823
 30
0.0
  0
VERTEX
  5
202
100
AcDbEntity
  8
FAN70-0309
370
              15
390
0
  6
Continuous
 62
               7
100
AcDbVertex
100
AcDb2dVertex
 10
-711.94130662719624
 20
559.22179575624705
 30
0.0
  0
VERTEX
  5
203
100
AcDbEntity
  8
FAN70-0309
370
              15
390
0
  6
Continuous
 62
               7
100
AcDbVertex
100
AcDb2dVertex
 10
-710.80715663409512
 20
544.50948187674442
 30
0.0
  0
VERTEX
  5
204
100
AcDbEntity
  8
FAN70-0309
370
              15
390
0
  6
Continuous
 62
               7
100
AcDbVertex
100
AcDb2dVertex
 10
-708.41884313540243
 20
529.89485076476512
 30
0.0
  0
VERTEX
  5
205
100
AcDbEntity
  8
FAN70-0309
370
              15
390
0
  6
Continuous
 62
               7
100
AcDbVertex
100
AcDb2dVertex
 10
-704.8302408740509
 20
515.52394587757749
 30
0.0
  0
VERTEX
  5
206
100
AcDbEntity
  8
FAN70-0309
370
              15
390
0
  6
Continuous
 62
               7
100
AcDbVertex
100
AcDb2dVertex
 10
-700.09522459287393
 20
501.54281067254863
 30
0.0
  0
VERTEX
  5
207
100
AcDbEntity
  8
FAN70-0309
370
              15
390
0
  6
Continuous
 62
               7
100
AcDbVertex
100
AcDb2dVertex
 10
-694.20396947214169
 20
487.92490737846106
 30
0.0
  0
VERTEX
  5
208
100
AcDbEntity
  8
FAN70-0309
370
              15
390
0
  6
Continuous
 62
               7
100
AcDbVertex
100
AcDb2dVertex
 10
-687.24274680036513
 20
474.77190687695941
 30
0.0
  0
VERTEX
  5
209
100
AcDbEntity
  8
FAN70-0309
370
              15
390
0
  6
Continuous
 62
               7
100
AcDbVertex
100
AcDb2dVertex
 10
-679.31306821658279
 20
462.17155902293416
 30
0.0
  0
VERTEX
  5
20A
100
AcDbEntity
  8
FAN70-0309
370
              15
390
0
  6
Continuous
 62
               7
100
AcDbVertex
100
AcDb2dVertex
 10
-670.51644536013498
 20
450.21161367107595
 30
0.0
  0
VERTEX
  5
20B
100
AcDbEntity
  8
FAN70-0309
370
              15
390
0
  6
Continuous
 62
               7
100
AcDbVertex
100
AcDb2dVertex
 10
-659.80978934815801
 20
437.70593711400363
 30
0.0
  0
VERTEX
  5
20C
100
AcDbEntity
  8
FAN70-0309
370
              15
390
0
  6
Continuous
 62
               7
100
AcDbVertex
100
AcDb2dVertex
 10
-648.18128877974016
 20
425.99180069091676
 30
0.0
  0
VERTEX
  5
20D
100
AcDbEntity
  8
FAN70-0309
370
              15
390
0
  6
Continuous
 62
               7
100
AcDbVertex
100
AcDb2dVertex
 10
-635.75269149130042
 20
415.12080631514993
 30
0.0
  0
VERTEX
  5
20E
100
AcDbEntity
  8
FAN70-0309
370
              15
390
0
  6
Continuous
 62
               7
100
AcDbVertex
100
AcDb2dVertex
 10
-622.64574531905839
 20
405.14455589983845
 30
0.0
  0
VERTEX
  5
20F
100
AcDbEntity
  8
FAN70-0309
370
              15
390
0
  6
Continuous
 62
               7
100
AcDbVertex
100
AcDb2dVertex
 10
-609.69492642921466
 20
396.53233847646823
 30
0.0
  0
VERTEX
  5
210
100
AcDbEntity
  8
FAN70-0309
370
              15
390
0
  6
Continuous
 62
               7
100
AcDbVertex
100
AcDb2dVertex
 10
-596.22868369064111
 20
388.67803979406006
 30
0.0
  0
VERTEX
  5
211
100
AcDbEntity
  8
FAN70-0309
370
              15
390
0
  6
Continuous
 62
               7
100
AcDbVertex
100
AcDb2dVertex
 10
-582.32449511733728
 20
381.59161106604938
 30
0.0
  0
VERTEX
  5
212
100
AcDbEntity
  8
FAN70-0309
370
              15
390
0
  6
Continuous
 62
               7
100
AcDbVertex
100
AcDb2dVertex
 10
-568.05983872340255
 20
375.28300350617155
 30
0.0
  0
VERTEX
  5
213
100
AcDbEntity
  8
FAN70-0309
370
              15
390
0
  6
Continuous
 62
               7
100
AcDbVertex
100
AcDb2dVertex
 10
-553.51219252263593
 20
369.76216832776186
 30
0.0
  0
VERTEX
  5
214
100
AcDbEntity
  8
FAN70-0309
370
              15
390
0
  6
Continuous
 62
               7
100
AcDbVertex
100
AcDb2dVertex
 10
-538.90466231635435
 20
365.0771198813469
 30
0.0
  0
VERTEX
  5
215
100
AcDbEntity
  8
FAN70-0309
370
              15
390
0
  6
Continuous
 62
               7
100
AcDbVertex
100
AcDb2dVertex
 10
-524.06909135136709
 20
361.13370681640413
 30
0.0
  0
VERTEX
  5
216
100
AcDbEntity
  8
FAN70-0309
370
              15
390
0
  6
Continuous
 62
               7
100
AcDbVertex
100
AcDb2dVertex
 10
-509.06603556870942
 20
357.92779040825951
 30
0.0
  0
VERTEX
  5
217
100
AcDbEntity
  8
FAN70-0309
370
              15
390
0
  6
Continuous
 62
               7
100
AcDbVertex
100
AcDb2dVertex
 10
-493.93351281757174
 20
355.4517299578705
 30
0.0
  0
VERTEX
  5
218
100
AcDbEntity
  8
FAN70-0309
370
              15
390
0
  6
Continuous
 62
               7
100
AcDbVertex
100
AcDb2dVertex
 10
-478.69124191624297
 20
353.69970752084555
 30
0.0
  0
VERTEX
  5
219
100
AcDbEntity
  8
FAN70-0309
370
              15
390
0
  6
Continuous
 62
               7
100
AcDbVertex
100
AcDb2dVertex
 10
-463.39155249689821
 20
352.6739399706687
 30
0.0
  0
VERTEX
  5
21A
100
AcDbEntity
  8
FAN70-0309
370
              15
390
0
  6
Continuous
 62
               7
100
AcDbVertex
100
AcDb2dVertex
 10
-448.06079299507411
 20
352.37820529149974
 30
0.0
  0
VERTEX
  5
21B
100
AcDbEntity
  8
FAN70-0309
370
              15
390
0
  6
Continuous
 62
               7
100
AcDbVertex
100
AcDb2dVertex
 10
-432.72458547324305
 20
352.81271089602933
 30
0.0
  0
VERTEX
  5
21C
100
AcDbEntity
  8
FAN70-0309
370
              15
390
0
  6
Continuous
 62
               7
100
AcDbVertex
100
AcDb2dVertex
 10
-417.43496508584423
 20
353.9743521729963
 30
0.0
  0
VERTEX
  5
21D
100
AcDbEntity
  8
FAN70-0309
370
              15
390
0
  6
Continuous
 62
               7
100
AcDbVertex
100
AcDb2dVertex
 10
-402.21665722452309
 20
355.86186063396838
 30
0.0
  0
VERTEX
  5
21E
100
AcDbEntity
  8
FAN70-0309
370
              15
390
0
  6
Continuous
 62
               7
100
AcDbVertex
100
AcDb2dVertex
 10
-387.09752234977788
 20
358.47630480439545
 30
0.0
  0
VERTEX
  5
21F
100
AcDbEntity
  8
FAN70-0309
370
              15
390
0
  6
Continuous
 62
               7
100
AcDbVertex
100
AcDb2dVertex
 10
-372.13188868813364
 20
361.8183264323709
 30
0.0
  0
VERTEX
  5
220
100
AcDbEntity
  8
FAN70-0309
370
              15
390
0
  6
Continuous
 62
               7
100
AcDbVertex
100
AcDb2dVertex
 10
-357.34133073328286
 20
365.90068939556784
 30
0.0
  0
VERTEX
  5
221
100
AcDbEntity
  8
FAN70-0309
370
              15
390
0
  6
Continuous
 62
               7
100
AcDbVertex
100
AcDb2dVertex
 10
-342.76786064443473
 20
370.73106692632223
 30
0.0
  0
VERTEX
  5
222
100
AcDbEntity
  8
FAN70-0309
370
              15
390
0
  6
Continuous
 62
               7
100
AcDbVertex
100
AcDb2dVertex
 10
-328.47499112764677
 20
376.30781595997314
 30
0.0
  0
VERTEX
  5
223
100
AcDbEntity
  8
FAN70-0309
370
              15
390
0
  6
Continuous
 62
               7
100
AcDbVertex
100
AcDb2dVertex
 10
-314.48765493371712
 20
382.64219318327696
 30
0.0
  0
VERTEX
  5
224
100
AcDbEntity
  8
FAN70-0309
370
              15
390
0
  6
Continuous
 62
               7
100
AcDbVertex
100
AcDb2dVertex
 10
-300.85592518540176
 20
389.73288871399336
 30
0.0
  0
VERTEX
  5
225
100
AcDbEntity
  8
FAN70-0309
370
              15
390
0
  6
Continuous
 62
               7
100
AcDbVertex
100
AcDb2dVertex
 10
-287.65444205351179
 20
397.57060124429051
 30
0.0
  0
VERTEX
  5
226
100
AcDbEntity
  8
FAN70-0309
370
              15
390
0
  6
Continuous
 62
               7
100
AcDbVertex
100
AcDb2dVertex
 10
-273.90814951565636
 20
406.92165065817778
 30
0.0
  0
VERTEX
  5
227
100
AcDbEntity
  8
FAN70-0309
370
              15
390
0
  6
Continuous
 62
               7
100
AcDbVertex
100
AcDb2dVertex
 10
-260.76325500303716
 20
417.20474005346102
 30
0.0
  0
VERTEX
  5
228
100
AcDbEntity
  8
FAN70-0309
370
              15
390
0
  6
Continuous
 62
               7
100
AcDbVertex
100
AcDb2dVertex
 10
-248.34460003226542
 20
428.37235173694899
 30
0.0
  0
VERTEX
  5
229
100
AcDbEntity
  8
FAN70-0309
370
              15
390
0
  6
Continuous
 62
               7
100
AcDbVertex
100
AcDb2dVertex
 10
-236.77702612035233
 20
440.37696801565016
 30
0.0
  0
VERTEX
  5
22A
100
AcDbEntity
  8
FAN70-0309
370
              15
390
0
  6
Continuous
 62
               7
100
AcDbVertex
100
AcDb2dVertex
 10
-226.18537478380932
 20
453.17107119637319
 30
0.0
  0
VERTEX
  5
22B
100
AcDbEntity
  8
FAN70-0309
370
              15
390
0
  6
Continuous
 62
               7
100
AcDbVertex
100
AcDb2dVertex
 10
-218.70552995192116
 20
463.63052509402576
 30
0.0
  0
VERTEX
  5
22C
100
AcDbEntity
  8
FAN70-0309
370
              15
390
0
  6
Continuous
 62
               7
100
AcDbVertex
100
AcDb2dVertex
 10
-211.88098837391823
 20
474.5798301654188
 30
0.0
  0
VERTEX
  5
22D
100
AcDbEntity
  8
FAN70-0309
370
              15
390
0
  6
Continuous
 62
               7
100
AcDbVertex
100
AcDb2dVertex
 10
-205.77505416124342
 20
485.95663679645895
 30
0.0
  0
VERTEX
  5
22E
100
AcDbEntity
  8
FAN70-0309
370
              15
390
0
  6
Continuous
 62
               7
100
AcDbVertex
100
AcDb2dVertex
 10
-200.45103142553972
 20
497.69859537325272
 30
0.0
  0
VERTEX
  5
22F
100
AcDbEntity
  8
FAN70-0309
370
              15
390
0
  6
Continuous
 62
               7
100
AcDbVertex
100
AcDb2dVertex
 10
-195.97222427834987
 20
509.74335628190624
 30
0.0
  0
VERTEX
  5
230
100
AcDbEntity
  8
FAN70-0309
370
              15
390
0
  6
Continuous
 62
               7
100
AcDbVertex
100
AcDb2dVertex
 10
-192.36088203616606
 20
522.14488581993544
 30
0.0
  0
VERTEX
  5
231
100
AcDbEntity
  8
FAN70-0309
370
              15
390
0
  6
Continuous
 62
               7
100
AcDbVertex
100
AcDb2dVertex
 10
-189.64915518080471
 20
534.82850954132618
 30
0.0
  0
VERTEX
  5
232
100
AcDbEntity
  8
FAN70-0309
370
              15
390
0
  6
Continuous
 62
               7
100
AcDbVertex
100
AcDb2dVertex
 10
-187.8647615811015
 20
547.69110673863884
 30
0.0
  0
VERTEX
  5
233
100
AcDbEntity
  8
FAN70-0309
370
              15
390
0
  6
Continuous
 62
               7
100
AcDbVertex
100
AcDb2dVertex
 10
-187.0354191054933
 20
560.62955670473286
 30
0.0
  0
VERTEX
  5
234
100
AcDbEntity
  8
FAN70-0309
370
              15
390
0
  6
Continuous
 62
               7
100
AcDbVertex
100
AcDb2dVertex
 10
-187.1888456226157
 20
573.54073873226764
 30
0.0
  0
VERTEX
  5
235
100
AcDbEntity
  8
FAN70-0309
370
              15
390
0
  6
Continuous
 62
               7
100
AcDbVertex
100
AcDb2dVertex
 10
-188.2385202984288
 20
585.64298008985338
 30
0.0
  0
VERTEX
  5
236
100
AcDbEntity
  8
FAN70-0309
370
              15
390
0
  6
Continuous
 62
               7
100
AcDbVertex
100
AcDb2dVertex
 10
-190.13644477598319
 20
597.67118207567432
 30
0.0
  0
VERTEX
  5
237
100
AcDbEntity
  8
FAN70-0309
370
              15
390
0
  6
Continuous
 62
               7
100
AcDbVertex
100
AcDb2dVertex
 10
-192.8535056775666
 20
609.54295831865284
 30
0.0
  0
VERTEX
  5
238
100
AcDbEntity
  8
FAN70-0309
370
              15
390
0
  6
Continuous
 62
               7
100
AcDbVertex
100
AcDb2dVertex
 10
-196.36058962546787
 20
621.17592244781088
 30
0.0
  0
VERTEX
  5
239
100
AcDbEntity
  8
FAN70-0309
370
              15
390
0
  6
Continuous
 62
               7
100
AcDbVertex
100
AcDb2dVertex
 10
-199.71415463713703
 20
630.27202995557673
 30
0.0
  0
VERTEX
  5
23A
100
AcDbEntity
  8
FAN70-0309
370
              15
390
0
  6
Continuous
 62
               7
100
AcDbVertex
100
AcDb2dVertex
 10
-203.53959875323909
 20
639.18019678269206
 30
0.0
  0
VERTEX
  5
23B
100
AcDbEntity
  8
FAN70-0309
370
              15
390
0
  6
Continuous
 62
               7
100
AcDbVertex
100
AcDb2dVertex
 10
-209.50915810901694
 20
651.0144787635785
 30
0.0
  0
VERTEX
  5
23C
100
AcDbEntity
  8
FAN70-0309
370
              15
390
0
  6
Continuous
 62
               7
100
AcDbVertex
100
AcDb2dVertex
 10
-216.29788805413938
 20
662.44657777885629
 30
0.0
  0
VERTEX
  5
23D
100
AcDbEntity
  8
FAN70-0309
370
              15
390
0
  6
Continuous
 62
               7
100
AcDbVertex
100
AcDb2dVertex
 10
-223.83174071268542
 20
673.42614255246815
 30
0.0
  0
VERTEX
  5
23E
100
AcDbEntity
  8
FAN70-0309
370
              15
390
0
  6
Continuous
 62
               7
100
AcDbVertex
100
AcDb2dVertex
 10
-232.03666820913583
 20
683.90282180835561
 30
0.0
  0
VERTEX
  5
23F
100
AcDbEntity
  8
FAN70-0309
370
              15
390
0
  6
Continuous
 62
               7
100
AcDbVertex
100
AcDb2dVertex
 10
-240.83862266767011
 20
693.82626427046091
 30
0.0
  0
VERTEX
  5
240
100
AcDbEntity
  8
FAN70-0309
370
              15
390
0
  6
Continuous
 62
               7
100
AcDbVertex
100
AcDb2dVertex
 10
-250.39712878154256
 20
703.38182774049881
 30
0.0
  0
VERTEX
  5
241
100
AcDbEntity
  8
FAN70-0309
370
              15
390
0
  6
Continuous
 62
               7
100
AcDbVertex
100
AcDb2dVertex
 10
-260.50359036954188
 20
712.37407072826159
 30
0.0
  0
VERTEX
  5
242
100
AcDbEntity
  8
FAN70-0309
370
              15
390
0
  6
Continuous
 62
               7
100
AcDbVertex
100
AcDb2dVertex
 10
-271.09253035875196
 20
720.77644006819366
 30
0.0
  0
VERTEX
  5
243
100
AcDbEntity
  8
FAN70-0309
370
              15
390
0
  6
Continuous
 62
               7
100
AcDbVertex
100
AcDb2dVertex
 10
-284.4915687437902
 20
730.15382640881228
 30
0.0
  0
VERTEX
  5
244
100
AcDbEntity
  8
FAN70-0309
370
              15
390
0
  6
Continuous
 62
               7
100
AcDbVertex
100
AcDb2dVertex
 10
-298.48990195841412
 20
738.69383256935646
 30
0.0
  0
VERTEX
  5
245
100
AcDbEntity
  8
FAN70-0309
370
              15
390
0
  6
Continuous
 62
               7
100
AcDbVertex
100
AcDb2dVertex
 10
-312.995007867585
 20
746.38459602476928
 30
0.0
  0
VERTEX
  5
246
100
AcDbEntity
  8
FAN70-0309
370
              15
390
0
  6
Continuous
 62
               7
100
AcDbVertex
100
AcDb2dVertex
 10
-327.91436433656378
 20
753.21425424959489
 30
0.0
  0
VERTEX
  5
247
100
AcDbEntity
  8
FAN70-0309
370
              15
390
0
  6
Continuous
 62
               7
100
AcDbVertex
100
AcDb2dVertex
 10
-343.15544923041131
 20
759.17094471867722
 30
0.0
  0
VERTEX
  5
248
100
AcDbEntity
  8
FAN70-0309
370
              15
390
0
  6
Continuous
 62
               7
100
AcDbVertex
100
AcDb2dVertex
 10
-357.57388281452751
 20
763.93165338252061
 30
0.0
  0
VERTEX
  5
249
100
AcDbEntity
  8
FAN70-0309
370
              15
390
0
  6
Continuous
 62
               7
100
AcDbVertex
100
AcDb2dVertex
 10
-372.222994927608
 20
767.96455487667231
 30
0.0
  0
VERTEX
  5
24A
100
AcDbEntity
  8
FAN70-0309
370
              15
390
0
  6
Continuous
 62
               7
100
AcDbVertex
100
AcDb2dVertex
 10
-387.04345410459138
 20
771.27343795793104
 30
0.0
  0
VERTEX
  5
24B
100
AcDbEntity
  8
FAN70-0309
370
              15
390
0
  6
Continuous
 62
               7
100
AcDbVertex
100
AcDb2dVertex
 10
-401.99748507288183
 20
773.86603305644803
 30
0.0
  0
VERTEX
  5
24C
100
AcDbEntity
  8
FAN70-0309
370
              15
390
0
  6
Continuous
 62
               7
100
AcDbVertex
100
AcDb2dVertex
 10
-417.06605187834572
 20
775.74904597922193
 30
0.0
  0
VERTEX
  5
24D
100
AcDbEntity
  8
FAN70-0309
370
              15
390
0
  6
Continuous
 62
               7
100
AcDbVertex
100
AcDb2dVertex
 10
-432.19819036960536
 20
776.92081885212463
 30
0.0
  0
VERTEX
  5
24E
100
AcDbEntity
  8
FAN70-0309
370
              15
390
0
  6
Continuous
 62
               7
100
AcDbVertex
100
AcDb2dVertex
 10
-447.36809289053673
 20
777.37820529149974
 30
0.0
  0
VERTEX
  5
24F
100
AcDbEntity
  8
FAN70-0309
370
              15
390
0
  6
Continuous
 62
               7
100
AcDbVertex
100
AcDb2dVertex
 10
-462.55117645732167
 20
777.12049660322384
 30
0.0
  0
VERTEX
  5
250
100
AcDbEntity
  8
FAN70-0309
370
              15
390
0
  6
Continuous
 62
               7
100
AcDbVertex
100
AcDb2dVertex
 10
-477.69693550346966
 20
776.14961722493149
 30
0.0
  0
VERTEX
  5
251
100
AcDbEntity
  8
FAN70-0309
370
              15
390
0
  6
Continuous
 62
               7
100
AcDbVertex
100
AcDb2dVertex
 10
-492.78104302981393
 20
774.46697854064928
 30
0.0
  0
VERTEX
  5
252
100
AcDbEntity
  8
FAN70-0309
370
              15
390
0
  6
Continuous
 62
               7
100
AcDbVertex
100
AcDb2dVertex
 10
-507.77711905497637
 20
772.07279079627301
 30
0.0
  0
VERTEX
  5
253
100
AcDbEntity
  8
FAN70-0309
370
              15
390
0
  6
Continuous
 62
               7
100
AcDbVertex
100
AcDb2dVertex
 10
-522.63306716508703
 20
768.96704600699616
 30
0.0
  0
VERTEX
  5
254
100
AcDbEntity
  8
FAN70-0309
370
              15
390
0
  6
Continuous
 62
               7
100
AcDbVertex
100
AcDb2dVertex
 10
-537.32819529751634
 20
765.13905279956475
 30
0.0
  0
VERTEX
  5
255
100
AcDbEntity
  8
FAN70-0309
370
              15
390
0
  6
Continuous
 62
               7
100
AcDbVertex
100
AcDb2dVertex
 10
-551.82297840820445
 20
760.58082470819636
 30
0.0
  0
VERTEX
  5
256
100
AcDbEntity
  8
FAN70-0309
370
              15
390
0
  6
Continuous
 62
               7
100
AcDbVertex
100
AcDb2dVertex
 10
-566.05633004986851
 20
755.29189697770482
 30
0.0
  0
VERTEX
  5
257
100
AcDbEntity
  8
FAN70-0309
370
              15
390
0
  6
Continuous
 62
               7
100
AcDbVertex
100
AcDb2dVertex
 10
-580.00422482775696
 20
749.26100617642919
 30
0.0
  0
VERTEX
  5
258
100
AcDbEntity
  8
FAN70-0309
370
              15
390
0
  6
Continuous
 62
               7
100
AcDbVertex
100
AcDb2dVertex
 10
-593.61970031618728
 20
742.48985886230321
 30
0.0
  0
VERTEX
  5
259
100
AcDbEntity
  8
FAN70-0309
370
              15
390
0
  6
Continuous
 62
               7
100
AcDbVertex
100
AcDb2dVertex
 10
-606.8323687755634
 20
734.98736519445515
 30
0.0
  0
VERTEX
  5
25A
100
AcDbEntity
  8
FAN70-0309
370
              15
390
0
  6
Continuous
 62
               7
100
AcDbVertex
100
AcDb2dVertex
 10
-620.97424667104849
 20
725.77528193937258
 30
0.0
  0
VERTEX
  5
25B
100
AcDbEntity
  8
FAN70-0309
370
              15
390
0
  6
Continuous
 62
               7
100
AcDbVertex
100
AcDb2dVertex
 10
-634.52416289543692
 20
715.60365207544305
 30
0.0
  0
VERTEX
  5
25C
100
AcDbEntity
  8
FAN70-0309
370
              15
390
0
  6
Continuous
 62
               7
100
AcDbVertex
100
AcDb2dVertex
 10
-647.35297031771404
 20
704.51763448044358
 30
0.0
  0
VERTEX
  5
25D
100
AcDbEntity
  8
FAN70-0309
370
              15
390
0
  6
Continuous
 62
               7
100
AcDbVertex
100
AcDb2dVertex
 10
-659.33152180666627
 20
692.56238803195174
 30
0.0
  0
VERTEX
  5
25E
100
AcDbEntity
  8
FAN70-0309
370
              15
390
0
  6
Continuous
 62
               7
100
AcDbVertex
100
AcDb2dVertex
 10
-670.33067023127921
 20
679.78307160764473
 30
0.0
  0
VERTEX
  5
25F
100
AcDbEntity
  8
FAN70-0309
370
              15
390
0
  6
Continuous
 62
               7
100
AcDbVertex
100
AcDb2dVertex
 10
-678.07053480055436
 20
669.38669623253509
 30
0.0
  0
VERTEX
  5
260
100
AcDbEntity
  8
FAN70-0309
370
              15
390
0
  6
Continuous
 62
               7
100
AcDbVertex
100
AcDb2dVertex
 10
-685.16230606811416
 20
658.48593717630513
 30
0.0
  0
VERTEX
  5
261
100
AcDbEntity
  8
FAN70-0309
370
              15
390
0
  6
Continuous
 62
               7
100
AcDbVertex
100
AcDb2dVertex
 10
-691.53971350080917
 20
647.14145329272503
 30
0.0
  0
VERTEX
  5
262
100
AcDbEntity
  8
FAN70-0309
370
              15
390
0
  6
Continuous
 62
               7
100
AcDbVertex
100
AcDb2dVertex
 10
-697.13648656548924
 20
635.41390343536534
 30
0.0
  0
VERTEX
  5
263
100
AcDbEntity
  8
FAN70-0309
370
              15
390
0
  6
Continuous
 62
               7
100
AcDbVertex
100
AcDb2dVertex
 10
-701.88635472890508
 20
623.36394645789642
 30
0.0
  0
VERTEX
  5
264
100
AcDbEntity
  8
FAN70-0309
370
              15
390
0
  6
Continuous
 62
               7
100
AcDbVertex
100
AcDb2dVertex
 10
-706.25124791834821
 20
609.13712562931346
 30
0.0
  0
VERTEX
  5
265
100
AcDbEntity
  8
FAN70-0309
370
              15
390
0
  6
Continuous
 62
               7
100
AcDbVertex
100
AcDb2dVertex
 10
-709.43119969991142
 20
594.54521907121807
 30
0.0
  0
VERTEX
  5
266
100
AcDbEntity
  8
FAN70-0309
370
              15
390
0
  6
Continuous
 62
               7
100
AcDbVertex
100
AcDb2dVertex
 10
-711.37599509011841
 20
579.74174901353467
 30
0.0
  0
VERTEX
  5
267
100
AcDbEntity
  8
FAN70-0309
370
              15
390
0
  6
Continuous
 62
               7
100
AcDbVertex
100
AcDb2dVertex
 10
-712.03541910549336
 20
564.88023768638823
 30
0.0
  0
SEQEND
  5
268
100
AcDbEntity
  8
FAN70-0309
370
              15
390
0
  6
Continuous
 62
               7
  0
POLYLINE
  5
269
100
AcDbEntity
  8
FAN70-0309
370
              15
390
0
  6
Continuous
 62
               7
100
AcDb2dPolyline
 66
               1
 10
0.0
 20
0.0
 30
0.0
 75
               5
  0
VERTEX
  5
26A
100
AcDbEntity
  8
FAN70-0309
370
              15
390
0
  6
Continuous
 62
               7
100
AcDbVertex
100
AcDb2dVertex
 10
248.12271553733984
 20
-450.36832254221918
 30
0.0
  0
VERTEX
  5
26B
100
AcDbEntity
  8
FAN70-0309
370
              15
390
0
  6
Continuous
 62
               7
100
AcDbVertex
100
AcDb2dVertex
 10
247.97578890263998
 20
-450.35361730621912
 30
0.0
  0
VERTEX
  5
26C
100
AcDbEntity
  8
FAN70-0309
370
              15
390
0
  6
Continuous
 62
               7
100
AcDbVertex
100
AcDb2dVertex
 10
247.83459097893996
 20
-450.31041051921932
 30
0.0
  0
VERTEX
  5
26D
100
AcDbEntity
  8
FAN70-0309
370
              15
390
0
  6
Continuous
 62
               7
100
AcDbVertex
100
AcDb2dVertex
 10
247.70459489433989
 20
-450.24037696721916
 30
0.0
  0
VERTEX
  5
26E
100
AcDbEntity
  8
FAN70-0309
370
              15
390
0
  6
Continuous
 62
               7
100
AcDbVertex
100
AcDb2dVertex
 10
247.59083957033994
 20
-450.14623129791914
 30
0.0
  0
VERTEX
  5
26F
100
AcDbEntity
  8
FAN70-0309
370
              15
390
0
  6
Continuous
 62
               7
100
AcDbVertex
100
AcDb2dVertex
 10
247.49773440233997
 20
-450.03162279521905
 30
0.0
  0
VERTEX
  5
270
100
AcDbEntity
  8
FAN70-0309
370
              15
390
0
  6
Continuous
 62
               7
100
AcDbVertex
100
AcDb2dVertex
 10
247.4288883423398
 20
-449.90099392551906
 30
0.0
  0
VERTEX
  5
271
100
AcDbEntity
  8
FAN70-0309
370
              15
390
0
  6
Continuous
 62
               7
100
AcDbVertex
100
AcDb2dVertex
 10
247.38697000823987
 20
-449.75940813831937
 30
0.0
  0
VERTEX
  5
272
100
AcDbEntity
  8
FAN70-0309
370
              15
390
0
  6
Continuous
 62
               7
100
AcDbVertex
100
AcDb2dVertex
 10
247.37360424273999
 20
-449.61235359631905
 30
0.0
  0
SEQEND
  5
273
100
AcDbEntity
  8
FAN70-0309
370
              15
390
0
  6
Continuous
 62
               7
  0
ARC
  5
274
100
AcDbEntity
  8
FAN70-0309
370
              15
390
0
  6
Continuous
 62
               7
100
AcDbCircle
 10
671.8764333483399
 20
-449.61832304101927
 30
0.0
 40
0.7500000000000392
100
AcDbArc
 50
270.01862803770041
 51
0.5836347502002468
  0
POLYLINE
  5
275
100
AcDbEntity
  8
FAN70-0309
370
              15
390
0
  6
Continuous
 62
               7
100
AcDb2dPolyline
 66
               1
 10
0.0
 20
0.0
 30
0.0
 75
               5
  0
VERTEX
  5
276
100
AcDbEntity
  8
FAN70-0309
370
              15
390
0
  6
Continuous
 62
               7
100
AcDbVertex
100
AcDb2dVertex
 10
247.43972527793977
 20
-445.82748135791928
 30
0.0
  0
VERTEX
  5
277
100
AcDbEntity
  8
FAN70-0309
370
              15
390
0
  6
Continuous
 62
               7
100
AcDbVertex
100
AcDb2dVertex
 10
247.5128693917398
 20
-445.15537704681913
 30
0.0
  0
VERTEX
  5
278
100
AcDbEntity
  8
FAN70-0309
370
              15
390
0
  6
Continuous
 62
               7
100
AcDbVertex
100
AcDb2dVertex
 10
247.71386807634002
 20
-444.50987430861915
 30
0.0
  0
VERTEX
  5
279
100
AcDbEntity
  8
FAN70-0309
370
              15
390
0
  6
Continuous
 62
               7
100
AcDbVertex
100
AcDb2dVertex
 10
248.03522163164001
 20
-443.9150582609193
 30
0.0
  0
VERTEX
  5
27A
100
AcDbEntity
  8
FAN70-0309
370
              15
390
0
  6
Continuous
 62
               7
100
AcDbVertex
100
AcDb2dVertex
 10
248.4649396542398
 20
-443.3931227905191
 30
0.0
  0
VERTEX
  5
27B
100
AcDbEntity
  8
FAN70-0309
370
              15
390
0
  6
Continuous
 62
               7
100
AcDbVertex
100
AcDb2dVertex
 10
248.98698842573987
 20
-442.96354245001919
 30
0.0
  0
VERTEX
  5
27C
100
AcDbEntity
  8
FAN70-0309
370
              15
390
0
  6
Continuous
 62
               7
100
AcDbVertex
100
AcDb2dVertex
 10
249.58188916573994
 20
-442.64234582071913
 30
0.0
  0
VERTEX
  5
27D
100
AcDbEntity
  8
FAN70-0309
370
              15
390
0
  6
Continuous
 62
               7
100
AcDbVertex
100
AcDb2dVertex
 10
250.22744482774004
 20
-442.44151745071906
 30
0.0
  0
VERTEX
  5
27E
100
AcDbEntity
  8
FAN70-0309
370
              15
390
0
  6
Continuous
 62
               7
100
AcDbVertex
100
AcDb2dVertex
 10
250.89956831924002
 20
-442.36855068541911
 30
0.0
  0
SEQEND
  5
27F
100
AcDbEntity
  8
FAN70-0309
370
              15
390
0
  6
Continuous
 62
               7
  0
POLYLINE
  5
280
100
AcDbEntity
  8
FAN70-0309
370
              15
390
0
  6
Continuous
 62
               7
100
AcDb2dPolyline
 66
               1
 10
0.0
 20
0.0
 30
0.0
 75
               5
  0
VERTEX
  5
281
100
AcDbEntity
  8
FAN70-0309
370
              15
390
0
  6
Continuous
 62
               7
100
AcDbVertex
100
AcDb2dVertex
 10
672.56024719203981
 20
-445.82376065871927
 30
0.0
  0
VERTEX
  5
282
100
AcDbEntity
  8
FAN70-0309
370
              15
390
0
  6
Continuous
 62
               7
100
AcDbVertex
100
AcDb2dVertex
 10
672.4860074933398
 20
-445.14991501911902
 30
0.0
  0
VERTEX
  5
283
100
AcDbEntity
  8
FAN70-0309
370
              15
390
0
  6
Continuous
 62
               7
100
AcDbVertex
100
AcDb2dVertex
 10
672.28325525493972
 20
-444.50302167221923
 30
0.0
  0
VERTEX
  5
284
100
AcDbEntity
  8
FAN70-0309
370
              15
390
0
  6
Continuous
 62
               7
100
AcDbVertex
100
AcDb2dVertex
 10
671.95959707023997
 20
-443.90734991651914
 30
0.0
  0
VERTEX
  5
285
100
AcDbEntity
  8
FAN70-0309
370
              15
390
0
  6
Continuous
 62
               7
100
AcDbVertex
100
AcDb2dVertex
 10
671.52717552353977
 20
-443.38524738601893
 30
0.0
  0
VERTEX
  5
286
100
AcDbEntity
  8
FAN70-0309
370
              15
390
0
  6
Continuous
 62
               7
100
AcDbVertex
100
AcDb2dVertex
 10
671.00221364113975
 20
-442.95630164061913
 30
0.0
  0
VERTEX
  5
287
100
AcDbEntity
  8
FAN70-0309
370
              15
390
0
  6
Continuous
 62
               7
100
AcDbVertex
100
AcDb2dVertex
 10
670.40440625623967
 20
-442.63660530591926
 30
0.0
  0
VERTEX
  5
288
100
AcDbEntity
  8
FAN70-0309
370
              15
390
0
  6
Continuous
 62
               7
100
AcDbVertex
100
AcDb2dVertex
 10
669.75618112463883
 20
-442.43815233081921
 30
0.0
  0
VERTEX
  5
289
100
AcDbEntity
  8
FAN70-0309
370
              15
390
0
  6
Continuous
 62
               7
100
AcDbVertex
100
AcDb2dVertex
 10
669.08185750893983
 20
-442.36838801461909
 30
0.0
  0
SEQEND
  5
28A
100
AcDbEntity
  8
FAN70-0309
370
              15
390
0
  6
Continuous
 62
               7
  0
LINE
  5
28B
100
AcDbEntity
  8
FAN70-0309
370
              15
390
0
  6
Continuous
 62
               7
100
AcDbLine
 10
672.62671864873971
 20
-449.62802956911912
 30
0.0
 11
672.5596285320388
 21
-445.78443935611915
 31
0.0
  0
LINE
  5
28C
100
AcDbEntity
  8
FAN70-0309
370
              15
390
0
  6
Continuous
 62
               7
100
AcDbLine
 10
247.44037146783995
 20
-445.78443935611915
 30
0.0
 11
247.37328135113995
 21
-449.62802956911912
 31
0.0
  0
POLYLINE
  5
28D
100
AcDbEntity
  8
FAN70-0309
370
              15
390
0
  6
Continuous
 62
               7
100
AcDb2dPolyline
 66
               1
 10
0.0
 20
0.0
 30
0.0
 75
               5
  0
VERTEX
  5
28E
100
AcDbEntity
  8
FAN70-0309
370
              15
390
0
  6
Continuous
 62
               7
100
AcDbVertex
100
AcDb2dVertex
 10
420.17394226073992
 20
-582.37938925691901
 30
0.0
  0
VERTEX
  5
28F
100
AcDbEntity
  8
FAN70-0309
370
              15
390
0
  6
Continuous
 62
               7
100
AcDbVertex
100
AcDb2dVertex
 10
421.30933923003994
 20
-582.84794226141912
 30
0.0
  0
VERTEX
  5
290
100
AcDbEntity
  8
FAN70-0309
370
              15
390
0
  6
Continuous
 62
               7
100
AcDbVertex
100
AcDb2dVertex
 10
422.3652678014401
 20
-583.38655845701919
 30
0.0
  0
VERTEX
  5
291
100
AcDbEntity
  8
FAN70-0309
370
              15
390
0
  6
Continuous
 62
               7
100
AcDbVertex
100
AcDb2dVertex
 10
423.33644781473998
 20
-583.98088573301902
 30
0.0
  0
VERTEX
  5
292
100
AcDbEntity
  8
FAN70-0309
370
              15
390
0
  6
Continuous
 62
               7
100
AcDbVertex
100
AcDb2dVertex
 10
424.33107698123973
 20
-584.70013529161906
 30
0.0
  0
VERTEX
  5
293
100
AcDbEntity
  8
FAN70-0309
370
              15
390
0
  6
Continuous
 62
               7
100
AcDbVertex
100
AcDb2dVertex
 10
426.01726300564002
 20
-585.9846648363191
 30
0.0
  0
VERTEX
  5
294
100
AcDbEntity
  8
FAN70-0309
370
              15
390
0
  6
Continuous
 62
               7
100
AcDbVertex
100
AcDb2dVertex
 10
427.63046323693999
 20
-587.21359410691934
 30
0.0
  0
VERTEX
  5
295
100
AcDbEntity
  8
FAN70-0309
370
              15
390
0
  6
Continuous
 62
               7
100
AcDbVertex
100
AcDb2dVertex
 10
429.16863089733994
 20
-588.38536387571912
 30
0.0
  0
VERTEX
  5
296
100
AcDbEntity
  8
FAN70-0309
370
              15
390
0
  6
Continuous
 62
               7
100
AcDbVertex
100
AcDb2dVertex
 10
430.63176598763977
 20
-589.49997414281916
 30
0.0
  0
VERTEX
  5
297
100
AcDbEntity
  8
FAN70-0309
370
              15
390
0
  6
Continuous
 62
               7
100
AcDbVertex
100
AcDb2dVertex
 10
431.69332331993991
 20
-590.28154612771914
 30
0.0
  0
VERTEX
  5
298
100
AcDbEntity
  8
FAN70-0309
370
              15
390
0
  6
Continuous
 62
               7
100
AcDbVertex
100
AcDb2dVertex
 10
432.91179929563992
 20
-590.87467185621927
 30
0.0
  0
VERTEX
  5
299
100
AcDbEntity
  8
FAN70-0309
370
              15
390
0
  6
Continuous
 62
               7
100
AcDbVertex
100
AcDb2dVertex
 10
434.13016663403988
 20
-591.16669239011912
 30
0.0
  0
SEQEND
  5
29A
100
AcDbEntity
  8
FAN70-0309
370
              15
390
0
  6
Continuous
 62
               7
  0
POLYLINE
  5
29B
100
AcDbEntity
  8
FAN70-0309
370
              15
390
0
  6
Continuous
 62
               7
100
AcDb2dPolyline
 66
               1
 10
0.0
 20
0.0
 30
0.0
 75
               5
  0
VERTEX
  5
29C
100
AcDbEntity
  8
FAN70-0309
370
              15
390
0
  6
Continuous
 62
               7
100
AcDbVertex
100
AcDb2dVertex
 10
434.12904749953992
 20
-591.16654504761914
 30
0.0
  0
VERTEX
  5
29D
100
AcDbEntity
  8
FAN70-0309
370
              15
390
0
  6
Continuous
 62
               7
100
AcDbVertex
100
AcDb2dVertex
 10
434.67491813674002
 20
-591.17803967591908
 30
0.0
  0
VERTEX
  5
29E
100
AcDbEntity
  8
FAN70-0309
370
              15
390
0
  6
Continuous
 62
               7
100
AcDbVertex
100
AcDb2dVertex
 10
436.02516093304001
 20
-591.21053396351908
 30
0.0
  0
VERTEX
  5
29F
100
AcDbEntity
  8
FAN70-0309
370
              15
390
0
  6
Continuous
 62
               7
100
AcDbVertex
100
AcDb2dVertex
 10
437.84895663643994
 20
-591.26026238081909
 30
0.0
  0
VERTEX
  5
2A0
100
AcDbEntity
  8
FAN70-0309
370
              15
390
0
  6
Continuous
 62
               7
100
AcDbVertex
100
AcDb2dVertex
 10
439.86899411333997
 20
-591.31810536611897
 30
0.0
  0
VERTEX
  5
2A1
100
AcDbEntity
  8
FAN70-0309
370
              15
390
0
  6
Continuous
 62
               7
100
AcDbVertex
100
AcDb2dVertex
 10
441.86235570593993
 20
-591.37555375291913
 30
0.0
  0
VERTEX
  5
2A2
100
AcDbEntity
  8
FAN70-0309
370
              15
390
0
  6
Continuous
 62
               7
100
AcDbVertex
100
AcDb2dVertex
 10
443.65879150613995
 20
-591.42627717101914
 30
0.0
  0
VERTEX
  5
2A3
100
AcDbEntity
  8
FAN70-0309
370
              15
390
0
  6
Continuous
 62
               7
100
AcDbVertex
100
AcDb2dVertex
 10
445.13479672493992
 20
-591.4664683151193
 30
0.0
  0
VERTEX
  5
2A4
100
AcDbEntity
  8
FAN70-0309
370
              15
390
0
  6
Continuous
 62
               7
100
AcDbVertex
100
AcDb2dVertex
 10
446.20736161024007
 20
-591.49475741521906
 30
0.0
  0
VERTEX
  5
2A5
100
AcDbEntity
  8
FAN70-0309
370
              15
390
0
  6
Continuous
 62
               7
100
AcDbVertex
100
AcDb2dVertex
 10
447.31387139674001
 20
-591.52303560311907
 30
0.0
  0
VERTEX
  5
2A6
100
AcDbEntity
  8
FAN70-0309
370
              15
390
0
  6
Continuous
 62
               7
100
AcDbVertex
100
AcDb2dVertex
 10
448.80939607114004
 20
-591.55946039501896
 30
0.0
  0
VERTEX
  5
2A7
100
AcDbEntity
  8
FAN70-0309
370
              15
390
0
  6
Continuous
 62
               7
100
AcDbVertex
100
AcDb2dVertex
 10
450.75380891734
 20
-591.60291522201919
 30
0.0
  0
VERTEX
  5
2A8
100
AcDbEntity
  8
FAN70-0309
370
              15
390
0
  6
Continuous
 62
               7
100
AcDbVertex
100
AcDb2dVertex
 10
453.17629478583996
 20
-591.64936230621902
 30
0.0
  0
VERTEX
  5
2A9
100
AcDbEntity
  8
FAN70-0309
370
              15
390
0
  6
Continuous
 62
               7
100
AcDbVertex
100
AcDb2dVertex
 10
456.09369345383999
 20
-591.69112306451916
 30
0.0
  0
VERTEX
  5
2AA
100
AcDbEntity
  8
FAN70-0309
370
              15
390
0
  6
Continuous
 62
               7
100
AcDbVertex
100
AcDb2dVertex
 10
459.17967920224004
 20
-591.71312176601896
 30
0.0
  0
VERTEX
  5
2AB
100
AcDbEntity
  8
FAN70-0309
370
              15
390
0
  6
Continuous
 62
               7
100
AcDbVertex
100
AcDb2dVertex
 10
463.1916839937399
 20
-591.70076043051927
 30
0.0
  0
VERTEX
  5
2AC
100
AcDbEntity
  8
FAN70-0309
370
              15
390
0
  6
Continuous
 62
               7
100
AcDbVertex
100
AcDb2dVertex
 10
466.38169264203992
 20
-591.66406800201912
 30
0.0
  0
VERTEX
  5
2AD
100
AcDbEntity
  8
FAN70-0309
370
              15
390
0
  6
Continuous
 62
               7
100
AcDbVertex
100
AcDb2dVertex
 10
468.04617732523997
 20
-591.63790257301912
 30
0.0
  0
VERTEX
  5
2AE
100
AcDbEntity
  8
FAN70-0309
370
              15
390
0
  6
Continuous
 62
               7
100
AcDbVertex
100
AcDb2dVertex
 10
469.47879307284001
 20
-591.61223609651915
 30
0.0
  0
VERTEX
  5
2AF
100
AcDbEntity
  8
FAN70-0309
370
              15
390
0
  6
Continuous
 62
               7
100
AcDbVertex
100
AcDb2dVertex
 10
471.44434975993994
 20
-591.57328971471907
 30
0.0
  0
VERTEX
  5
2B0
100
AcDbEntity
  8
FAN70-0309
370
              15
390
0
  6
Continuous
 62
               7
100
AcDbVertex
100
AcDb2dVertex
 10
473.30265229503988
 20
-591.53299940411921
 30
0.0
  0
VERTEX
  5
2B1
100
AcDbEntity
  8
FAN70-0309
370
              15
390
0
  6
Continuous
 62
               7
100
AcDbVertex
100
AcDb2dVertex
 10
475.42048889123993
 20
-591.4839234681192
 30
0.0
  0
VERTEX
  5
2B2
100
AcDbEntity
  8
FAN70-0309
370
              15
390
0
  6
Continuous
 62
               7
100
AcDbVertex
100
AcDb2dVertex
 10
477.70522077233994
 20
-591.42871526841918
 30
0.0
  0
VERTEX
  5
2B3
100
AcDbEntity
  8
FAN70-0309
370
              15
390
0
  6
Continuous
 62
               7
100
AcDbVertex
100
AcDb2dVertex
 10
480.03271537153995
 20
-591.37191055471908
 30
0.0
  0
VERTEX
  5
2B4
100
AcDbEntity
  8
FAN70-0309
370
              15
390
0
  6
Continuous
 62
               7
100
AcDbVertex
100
AcDb2dVertex
 10
482.24008446013994
 20
-591.31979681421922
 30
0.0
  0
VERTEX
  5
2B5
100
AcDbEntity
  8
FAN70-0309
370
              15
390
0
  6
Continuous
 62
               7
100
AcDbVertex
100
AcDb2dVertex
 10
484.12920927393992
 20
-591.28004509751895
 30
0.0
  0
VERTEX
  5
2B6
100
AcDbEntity
  8
FAN70-0309
370
              15
390
0
  6
Continuous
 62
               7
100
AcDbVertex
100
AcDb2dVertex
 10
485.46491856304004
 20
-591.258108541919
 30
0.0
  0
VERTEX
  5
2B7
100
AcDbEntity
  8
FAN70-0309
370
              15
390
0
  6
Continuous
 62
               7
100
AcDbVertex
100
AcDb2dVertex
 10
485.97865177093985
 20
-591.25298645361909
 30
0.0
  0
SEQEND
  5
2B8
100
AcDbEntity
  8
FAN70-0309
370
              15
390
0
  6
Continuous
 62
               7
  0
POLYLINE
  5
2B9
100
AcDbEntity
  8
FAN70-0309
370
              15
390
0
  6
Continuous
 62
               7
100
AcDb2dPolyline
 66
               1
 10
0.0
 20
0.0
 30
0.0
 75
               5
  0
VERTEX
  5
2BA
100
AcDbEntity
  8
FAN70-0309
370
              15
390
0
  6
Continuous
 62
               7
100
AcDbVertex
100
AcDb2dVertex
 10
484.94669949153985
 20
-591.26324084571911
 30
0.0
  0
VERTEX
  5
2BB
100
AcDbEntity
  8
FAN70-0309
370
              15
390
0
  6
Continuous
 62
               7
100
AcDbVertex
100
AcDb2dVertex
 10
485.47074360703999
 20
-591.25640172241924
 30
0.0
  0
VERTEX
  5
2BC
100
AcDbEntity
  8
FAN70-0309
370
              15
390
0
  6
Continuous
 62
               7
100
AcDbVertex
100
AcDb2dVertex
 10
485.98125461853982
 20
-591.25272977091913
 30
0.0
  0
SEQEND
  5
2BD
100
AcDbEntity
  8
FAN70-0309
370
              15
390
0
  6
Continuous
 62
               7
  0
POLYLINE
  5
2BE
100
AcDbEntity
  8
FAN70-0309
370
              15
390
0
  6
Continuous
 62
               7
100
AcDb2dPolyline
 66
               1
 10
0.0
 20
0.0
 30
0.0
 75
               5
  0
VERTEX
  5
2BF
100
AcDbEntity
  8
FAN70-0309
370
              15
390
0
  6
Continuous
 62
               7
100
AcDbVertex
100
AcDb2dVertex
 10
485.97952750283997
 20
-591.25290081671915
 30
0.0
  0
VERTEX
  5
2C0
100
AcDbEntity
  8
FAN70-0309
370
              15
390
0
  6
Continuous
 62
               7
100
AcDbVertex
100
AcDb2dVertex
 10
487.28289960803994
 20
-590.97578337991922
 30
0.0
  0
VERTEX
  5
2C1
100
AcDbEntity
  8
FAN70-0309
370
              15
390
0
  6
Continuous
 62
               7
100
AcDbVertex
100
AcDb2dVertex
 10
488.26668789493982
 20
-590.54786034441918
 30
0.0
  0
VERTEX
  5
2C2
100
AcDbEntity
  8
FAN70-0309
370
              15
390
0
  6
Continuous
 62
               7
100
AcDbVertex
100
AcDb2dVertex
 10
489.31712692053992
 20
-589.83369147311919
 30
0.0
  0
VERTEX
  5
2C3
100
AcDbEntity
  8
FAN70-0309
370
              15
390
0
  6
Continuous
 62
               7
100
AcDbVertex
100
AcDb2dVertex
 10
490.9473275262398
 20
-588.59181190261916
 30
0.0
  0
VERTEX
  5
2C4
100
AcDbEntity
  8
FAN70-0309
370
              15
390
0
  6
Continuous
 62
               7
100
AcDbVertex
100
AcDb2dVertex
 10
492.67249086893997
 20
-587.27758985801916
 30
0.0
  0
VERTEX
  5
2C5
100
AcDbEntity
  8
FAN70-0309
370
              15
390
0
  6
Continuous
 62
               7
100
AcDbVertex
100
AcDb2dVertex
 10
495.12042867233998
 20
-585.41276106021928
 30
0.0
  0
VERTEX
  5
2C6
100
AcDbEntity
  8
FAN70-0309
370
              15
390
0
  6
Continuous
 62
               7
100
AcDbVertex
100
AcDb2dVertex
 10
496.90833670993987
 20
-584.08378429301911
 30
0.0
  0
VERTEX
  5
2C7
100
AcDbEntity
  8
FAN70-0309
370
              15
390
0
  6
Continuous
 62
               7
100
AcDbVertex
100
AcDb2dVertex
 10
498.28069720353977
 20
-583.26397117911915
 30
0.0
  0
VERTEX
  5
2C8
100
AcDbEntity
  8
FAN70-0309
370
              15
390
0
  6
Continuous
 62
               7
100
AcDbVertex
100
AcDb2dVertex
 10
499.81993989664005
 20
-582.56020143711908
 30
0.0
  0
SEQEND
  5
2C9
100
AcDbEntity
  8
FAN70-0309
370
              15
390
0
  6
Continuous
 62
               7
  0
POLYLINE
  5
2CA
100
AcDbEntity
  8
FAN70-0309
370
              15
390
0
  6
Continuous
 62
               7
100
AcDb2dPolyline
 66
               1
 10
0.0
 20
0.0
 30
0.0
 75
               5
  0
VERTEX
  5
2CB
100
AcDbEntity
  8
FAN70-0309
370
              15
390
0
  6
Continuous
 62
               7
100
AcDbVertex
100
AcDb2dVertex
 10
276.03482600093997
 20
-458.13544243221918
 30
0.0
  0
VERTEX
  5
2CC
100
AcDbEntity
  8
FAN70-0309
370
              15
390
0
  6
Continuous
 62
               7
100
AcDbVertex
100
AcDb2dVertex
 10
276.10864340203983
 20
-458.61584309251907
 30
0.0
  0
VERTEX
  5
2CD
100
AcDbEntity
  8
FAN70-0309
370
              15
390
0
  6
Continuous
 62
               7
100
AcDbVertex
100
AcDb2dVertex
 10
276.03237135204
 20
-459.10419666291909
 30
0.0
  0
VERTEX
  5
2CE
100
AcDbEntity
  8
FAN70-0309
370
              15
390
0
  6
Continuous
 62
               7
100
AcDbVertex
100
AcDb2dVertex
 10
275.9405627621399
 20
-459.32995243461914
 30
0.0
  0
VERTEX
  5
2CF
100
AcDbEntity
  8
FAN70-0309
370
              15
390
0
  6
Continuous
 62
               7
100
AcDbVertex
100
AcDb2dVertex
 10
275.91014392504002
 20
-459.38779060751926
 30
0.0
  0
VERTEX
  5
2D0
100
AcDbEntity
  8
FAN70-0309
370
              15
390
0
  6
Continuous
 62
               7
100
AcDbVertex
100
AcDb2dVertex
 10
275.63865700364016
 20
-459.93531837541912
 30
0.0
  0
VERTEX
  5
2D1
100
AcDbEntity
  8
FAN70-0309
370
              15
390
0
  6
Continuous
 62
               7
100
AcDbVertex
100
AcDb2dVertex
 10
275.24509828193999
 20
-461.81417429881913
 30
0.0
  0
SEQEND
  5
2D2
100
AcDbEntity
  8
FAN70-0309
370
              15
390
0
  6
Continuous
 62
               7
  0
POLYLINE
  5
2D3
100
AcDbEntity
  8
FAN70-0309
370
              15
390
0
  6
Continuous
 62
               7
100
AcDb2dPolyline
 66
               1
 10
0.0
 20
0.0
 30
0.0
 75
               5
  0
VERTEX
  5
2D4
100
AcDbEntity
  8
FAN70-0309
370
              15
390
0
  6
Continuous
 62
               7
100
AcDbVertex
100
AcDb2dVertex
 10
275.24509128683991
 20
-461.81470254091926
 30
0.0
  0
VERTEX
  5
2D5
100
AcDbEntity
  8
FAN70-0309
370
              15
390
0
  6
Continuous
 62
               7
100
AcDbVertex
100
AcDb2dVertex
 10
275.50139647093994
 20
-462.63171504111915
 30
0.0
  0
VERTEX
  5
2D6
100
AcDbEntity
  8
FAN70-0309
370
              15
390
0
  6
Continuous
 62
               7
100
AcDbVertex
100
AcDb2dVertex
 10
276.16253798333997
 20
-464.2186877923192
 30
0.0
  0
VERTEX
  5
2D7
100
AcDbEntity
  8
FAN70-0309
370
              15
390
0
  6
Continuous
 62
               7
100
AcDbVertex
100
AcDb2dVertex
 10
277.06510981313983
 20
-466.23950355671923
 30
0.0
  0
VERTEX
  5
2D8
100
AcDbEntity
  8
FAN70-0309
370
              15
390
0
  6
Continuous
 62
               7
100
AcDbVertex
100
AcDb2dVertex
 10
278.07334489674002
 20
-468.42162066261926
 30
0.0
  0
VERTEX
  5
2D9
100
AcDbEntity
  8
FAN70-0309
370
              15
390
0
  6
Continuous
 62
               7
100
AcDbVertex
100
AcDb2dVertex
 10
279.08394157563981
 20
-470.56239398381922
 30
0.0
  0
VERTEX
  5
2DA
100
AcDbEntity
  8
FAN70-0309
370
              15
390
0
  6
Continuous
 62
               7
100
AcDbVertex
100
AcDb2dVertex
 10
280.02434535024003
 20
-472.52396098011911
 30
0.0
  0
VERTEX
  5
2DB
100
AcDbEntity
  8
FAN70-0309
370
              15
390
0
  6
Continuous
 62
               7
100
AcDbVertex
100
AcDb2dVertex
 10
280.84835325724003
 20
-474.22035331491918
 30
0.0
  0
VERTEX
  5
2DC
100
AcDbEntity
  8
FAN70-0309
370
              15
390
0
  6
Continuous
 62
               7
100
AcDbVertex
100
AcDb2dVertex
 10
281.61643318924013
 20
-475.7806704482191
 30
0.0
  0
VERTEX
  5
2DD
100
AcDbEntity
  8
FAN70-0309
370
              15
390
0
  6
Continuous
 62
               7
100
AcDbVertex
100
AcDb2dVertex
 10
282.57484236993974
 20
-477.70874225651926
 30
0.0
  0
VERTEX
  5
2DE
100
AcDbEntity
  8
FAN70-0309
370
              15
390
0
  6
Continuous
 62
               7
100
AcDbVertex
100
AcDb2dVertex
 10
283.73779379974002
 20
-480.02846791011928
 30
0.0
  0
VERTEX
  5
2DF
100
AcDbEntity
  8
FAN70-0309
370
              15
390
0
  6
Continuous
 62
               7
100
AcDbVertex
100
AcDb2dVertex
 10
285.08403666993985
 20
-482.68923428831908
 30
0.0
  0
VERTEX
  5
2E0
100
AcDbEntity
  8
FAN70-0309
370
              15
390
0
  6
Continuous
 62
               7
100
AcDbVertex
100
AcDb2dVertex
 10
286.56123544413998
 20
-485.57795498361929
 30
0.0
  0
VERTEX
  5
2E1
100
AcDbEntity
  8
FAN70-0309
370
              15
390
0
  6
Continuous
 62
               7
100
AcDbVertex
100
AcDb2dVertex
 10
288.07518365304003
 20
-488.49822458561914
 30
0.0
  0
VERTEX
  5
2E2
100
AcDbEntity
  8
FAN70-0309
370
              15
390
0
  6
Continuous
 62
               7
100
AcDbVertex
100
AcDb2dVertex
 10
289.48143269413998
 20
-491.15554278971911
 30
0.0
  0
VERTEX
  5
2E3
100
AcDbEntity
  8
FAN70-0309
370
              15
390
0
  6
Continuous
 62
               7
100
AcDbVertex
100
AcDb2dVertex
 10
290.0846482384398
 20
-492.26621572411921
 30
0.0
  0
VERTEX
  5
2E4
100
AcDbEntity
  8
FAN70-0309
370
              15
390
0
  6
Continuous
 62
               7
100
AcDbVertex
100
AcDb2dVertex
 10
290.58372392713994
 20
-493.15656179181917
 30
0.0
  0
VERTEX
  5
2E5
100
AcDbEntity
  8
FAN70-0309
370
              15
390
0
  6
Continuous
 62
               7
100
AcDbVertex
100
AcDb2dVertex
 10
290.94833164414007
 20
-493.7671004755191
 30
0.0
  0
VERTEX
  5
2E6
100
AcDbEntity
  8
FAN70-0309
370
              15
390
0
  6
Continuous
 62
               7
100
AcDbVertex
100
AcDb2dVertex
 10
291.14760014893983
 20
-494.03670161001924
 30
0.0
  0
SEQEND
  5
2E7
100
AcDbEntity
  8
FAN70-0309
370
              15
390
0
  6
Continuous
 62
               7
  0
POLYLINE
  5
2E8
100
AcDbEntity
  8
FAN70-0309
370
              15
390
0
  6
Continuous
 62
               7
100
AcDb2dPolyline
 66
               1
 10
0.0
 20
0.0
 30
0.0
 75
               5
  0
VERTEX
  5
2E9
100
AcDbEntity
  8
FAN70-0309
370
              15
390
0
  6
Continuous
 62
               7
100
AcDbVertex
100
AcDb2dVertex
 10
291.14721319573988
 20
-494.03641272001914
 30
0.0
  0
VERTEX
  5
2EA
100
AcDbEntity
  8
FAN70-0309
370
              15
390
0
  6
Continuous
 62
               7
100
AcDbVertex
100
AcDb2dVertex
 10
292.87671656814001
 20
-494.8681673479191
 30
0.0
  0
VERTEX
  5
2EB
100
AcDbEntity
  8
FAN70-0309
370
              15
390
0
  6
Continuous
 62
               7
100
AcDbVertex
100
AcDb2dVertex
 10
293.32879620694001
 20
-494.96411260031925
 30
0.0
  0
VERTEX
  5
2EC
100
AcDbEntity
  8
FAN70-0309
370
              15
390
0
  6
Continuous
 62
               7
100
AcDbVertex
100
AcDb2dVertex
 10
293.47615265253984
 20
-494.98625363891915
 30
0.0
  0
VERTEX
  5
2ED
100
AcDbEntity
  8
FAN70-0309
370
              15
390
0
  6
Continuous
 62
               7
100
AcDbVertex
100
AcDb2dVertex
 10
293.77516388093994
 20
-495.06188868361926
 30
0.0
  0
VERTEX
  5
2EE
100
AcDbEntity
  8
FAN70-0309
370
              15
390
0
  6
Continuous
 62
               7
100
AcDbVertex
100
AcDb2dVertex
 10
294.20849514814
 20
-495.29830086791912
 30
0.0
  0
VERTEX
  5
2EF
100
AcDbEntity
  8
FAN70-0309
370
              15
390
0
  6
Continuous
 62
               7
100
AcDbVertex
100
AcDb2dVertex
 10
294.54444602164
 20
-495.64868992791924
 30
0.0
  0
SEQEND
  5
2F0
100
AcDbEntity
  8
FAN70-0309
370
              15
390
0
  6
Continuous
 62
               7
  0
LINE
  5
2F1
100
AcDbEntity
  8
FAN70-0309
370
              15
390
0
  6
Continuous
 62
               7
100
AcDbLine
 10
459.99999999993992
 20
-450.36832304101927
 30
0.0
 11
248.16678510343985
 21
-450.36832304101927
 31
0.0
  0
LINE
  5
2F2
100
AcDbEntity
  8
FAN70-0309
370
              15
390
0
  6
Continuous
 62
               7
100
AcDbLine
 10
671.8433668491399
 20
-450.36832304101927
 30
0.0
 11
459.99999999993992
 21
-450.36832304101927
 31
0.0
  0
LINE
  5
2F3
100
AcDbEntity
  8
FAN70-0309
370
              15
390
0
  6
Continuous
 62
               7
100
AcDbLine
 10
668.96120531933877
 20
-442.36832304101927
 30
0.0
 11
250.95659152713989
 21
-442.36832304101927
 31
0.0
  0
POLYLINE
  5
2F4
100
AcDbEntity
  8
FAN70-0309
370
              15
390
0
  6
Continuous
 62
               7
100
AcDb2dPolyline
 66
               1
 10
0.0
 20
0.0
 30
0.0
 75
               5
  0
VERTEX
  5
2F5
100
AcDbEntity
  8
FAN70-0309
370
              15
390
0
  6
Continuous
 62
               7
100
AcDbVertex
100
AcDb2dVertex
 10
420.24999999993992
 20
-582.40764153121927
 30
0.0
  0
VERTEX
  5
2F6
100
AcDbEntity
  8
FAN70-0309
370
              15
390
0
  6
Continuous
 62
               7
100
AcDbVertex
100
AcDb2dVertex
 10
420.81423945123976
 20
-582.42013633291913
 30
0.0
  0
VERTEX
  5
2F7
100
AcDbEntity
  8
FAN70-0309
370
              15
390
0
  6
Continuous
 62
               7
100
AcDbVertex
100
AcDb2dVertex
 10
422.47770108903995
 20
-582.46794970301926
 30
0.0
  0
VERTEX
  5
2F8
100
AcDbEntity
  8
FAN70-0309
370
              15
390
0
  6
Continuous
 62
               7
100
AcDbVertex
100
AcDb2dVertex
 10
425.21113106534
 20
-582.56343824961914
 30
0.0
  0
VERTEX
  5
2F9
100
AcDbEntity
  8
FAN70-0309
370
              15
390
0
  6
Continuous
 62
               7
100
AcDbVertex
100
AcDb2dVertex
 10
428.9214506770399
 20
-582.70578307931896
 30
0.0
  0
VERTEX
  5
2FA
100
AcDbEntity
  8
FAN70-0309
370
              15
390
0
  6
Continuous
 62
               7
100
AcDbVertex
100
AcDb2dVertex
 10
433.52129023513993
 20
-582.88876755391925
 30
0.0
  0
VERTEX
  5
2FB
100
AcDbEntity
  8
FAN70-0309
370
              15
390
0
  6
Continuous
 62
               7
100
AcDbVertex
100
AcDb2dVertex
 10
438.86572610534
 20
-583.0936522943191
 30
0.0
  0
VERTEX
  5
2FC
100
AcDbEntity
  8
FAN70-0309
370
              15
390
0
  6
Continuous
 62
               7
100
AcDbVertex
100
AcDb2dVertex
 10
444.81997936243994
 20
-583.29727000041908
 30
0.0
  0
VERTEX
  5
2FD
100
AcDbEntity
  8
FAN70-0309
370
              15
390
0
  6
Continuous
 62
               7
100
AcDbVertex
100
AcDb2dVertex
 10
451.20314490614004
 20
-583.46641344941918
 30
0.0
  0
VERTEX
  5
2FE
100
AcDbEntity
  8
FAN70-0309
370
              15
390
0
  6
Continuous
 62
               7
100
AcDbVertex
100
AcDb2dVertex
 10
455.57390312733997
 20
-583.54085437601907
 30
0.0
  0
VERTEX
  5
2FF
100
AcDbEntity
  8
FAN70-0309
370
              15
390
0
  6
Continuous
 62
               7
100
AcDbVertex
100
AcDb2dVertex
 10
459.99999999993992
 20
-583.56902974311902
 30
0.0
  0
SEQEND
  5
300
100
AcDbEntity
  8
FAN70-0309
370
              15
390
0
  6
Continuous
 62
               7
  0
POLYLINE
  5
301
100
AcDbEntity
  8
FAN70-0309
370
              15
390
0
  6
Continuous
 62
               7
100
AcDb2dPolyline
 66
               1
 10
0.0
 20
0.0
 30
0.0
 75
               5
  0
VERTEX
  5
302
100
AcDbEntity
  8
FAN70-0309
370
              15
390
0
  6
Continuous
 62
               7
100
AcDbVertex
100
AcDb2dVertex
 10
420.24999999993992
 20
-582.40764153121927
 30
0.0
  0
VERTEX
  5
303
100
AcDbEntity
  8
FAN70-0309
370
              15
390
0
  6
Continuous
 62
               7
100
AcDbVertex
100
AcDb2dVertex
 10
406.06301480123994
 20
-578.93162571991911
 30
0.0
  0
VERTEX
  5
304
100
AcDbEntity
  8
FAN70-0309
370
              15
390
0
  6
Continuous
 62
               7
100
AcDbVertex
100
AcDb2dVertex
 10
392.19350356813999
 20
-574.41438211181912
 30
0.0
  0
VERTEX
  5
305
100
AcDbEntity
  8
FAN70-0309
370
              15
390
0
  6
Continuous
 62
               7
100
AcDbVertex
100
AcDb2dVertex
 10
378.68519292743991
 20
-568.86502104591909
 30
0.0
  0
VERTEX
  5
306
100
AcDbEntity
  8
FAN70-0309
370
              15
390
0
  6
Continuous
 62
               7
100
AcDbVertex
100
AcDb2dVertex
 10
365.59232722114012
 20
-562.30077540301932
 30
0.0
  0
VERTEX
  5
307
100
AcDbEntity
  8
FAN70-0309
370
              15
390
0
  6
Continuous
 62
               7
100
AcDbVertex
100
AcDb2dVertex
 10
352.99829901454001
 20
-554.76226862471913
 30
0.0
  0
VERTEX
  5
308
100
AcDbEntity
  8
FAN70-0309
370
              15
390
0
  6
Continuous
 62
               7
100
AcDbVertex
100
AcDb2dVertex
 10
340.99073803944003
 20
-546.29352434961902
 30
0.0
  0
VERTEX
  5
309
100
AcDbEntity
  8
FAN70-0309
370
              15
390
0
  6
Continuous
 62
               7
100
AcDbVertex
100
AcDb2dVertex
 10
330.28330205043977
 20
-537.49868173391906
 30
0.0
  0
VERTEX
  5
30A
100
AcDbEntity
  8
FAN70-0309
370
              15
390
0
  6
Continuous
 62
               7
100
AcDbVertex
100
AcDb2dVertex
 10
320.23195670623983
 20
-527.974146135919
 30
0.0
  0
VERTEX
  5
30B
100
AcDbEntity
  8
FAN70-0309
370
              15
390
0
  6
Continuous
 62
               7
100
AcDbVertex
100
AcDb2dVertex
 10
310.89018840063983
 20
-517.78232580621898
 30
0.0
  0
VERTEX
  5
30C
100
AcDbEntity
  8
FAN70-0309
370
              15
390
0
  6
Continuous
 62
               7
100
AcDbVertex
100
AcDb2dVertex
 10
302.31130583613998
 20
-506.9855262415191
 30
0.0
  0
VERTEX
  5
30D
100
AcDbEntity
  8
FAN70-0309
370
              15
390
0
  6
Continuous
 62
               7
100
AcDbVertex
100
AcDb2dVertex
 10
294.53524053024006
 20
-495.63584449371911
 30
0.0
  0
SEQEND
  5
30E
100
AcDbEntity
  8
FAN70-0309
370
              15
390
0
  6
Continuous
 62
               7
  0
POLYLINE
  5
30F
100
AcDbEntity
  8
FAN70-0309
370
              15
390
0
  6
Continuous
 62
               7
100
AcDb2dPolyline
 66
               1
 10
0.0
 20
0.0
 30
0.0
 75
               5
  0
VERTEX
  5
310
100
AcDbEntity
  8
FAN70-0309
370
              15
390
0
  6
Continuous
 62
               7
100
AcDbVertex
100
AcDb2dVertex
 10
294.53524053024006
 20
-495.63584449371911
 30
0.0
  0
VERTEX
  5
311
100
AcDbEntity
  8
FAN70-0309
370
              15
390
0
  6
Continuous
 62
               7
100
AcDbVertex
100
AcDb2dVertex
 10
294.53524053203984
 20
-495.63584449751909
 30
0.0
  0
VERTEX
  5
312
100
AcDbEntity
  8
FAN70-0309
370
              15
390
0
  6
Continuous
 62
               7
100
AcDbVertex
100
AcDb2dVertex
 10
294.34806108334004
 20
-495.27963854471909
 30
0.0
  0
VERTEX
  5
313
100
AcDbEntity
  8
FAN70-0309
370
              15
390
0
  6
Continuous
 62
               7
100
AcDbVertex
100
AcDb2dVertex
 10
293.79428802813999
 20
-494.22474754881921
 30
0.0
  0
VERTEX
  5
314
100
AcDbEntity
  8
FAN70-0309
370
              15
390
0
  6
Continuous
 62
               7
100
AcDbVertex
100
AcDb2dVertex
 10
292.89709809653976
 20
-492.51092111321907
 30
0.0
  0
VERTEX
  5
315
100
AcDbEntity
  8
FAN70-0309
370
              15
390
0
  6
Continuous
 62
               7
100
AcDbVertex
100
AcDb2dVertex
 10
291.69487458253997
 20
-490.2033277180193
 30
0.0
  0
VERTEX
  5
316
100
AcDbEntity
  8
FAN70-0309
370
              15
390
0
  6
Continuous
 62
               7
100
AcDbVertex
100
AcDb2dVertex
 10
290.23862655933993
 20
-487.38855548471929
 30
0.0
  0
VERTEX
  5
317
100
AcDbEntity
  8
FAN70-0309
370
              15
390
0
  6
Continuous
 62
               7
100
AcDbVertex
100
AcDb2dVertex
 10
288.59047277914004
 20
-484.17344685831927
 30
0.0
  0
VERTEX
  5
318
100
AcDbEntity
  8
FAN70-0309
370
              15
390
0
  6
Continuous
 62
               7
100
AcDbVertex
100
AcDb2dVertex
 10
286.81914358223997
 20
-480.67853045941911
 30
0.0
  0
VERTEX
  5
319
100
AcDbEntity
  8
FAN70-0309
370
              15
390
0
  6
Continuous
 62
               7
100
AcDbVertex
100
AcDb2dVertex
 10
284.99707261243992
 20
-477.03489273191917
 30
0.0
  0
VERTEX
  5
31A
100
AcDbEntity
  8
FAN70-0309
370
              15
390
0
  6
Continuous
 62
               7
100
AcDbVertex
100
AcDb2dVertex
 10
283.19742084953992
 20
-473.38120427561921
 30
0.0
  0
VERTEX
  5
31B
100
AcDbEntity
  8
FAN70-0309
370
              15
390
0
  6
Continuous
 62
               7
100
AcDbVertex
100
AcDb2dVertex
 10
281.48877525864003
 20
-469.85524746571912
 30
0.0
  0
VERTEX
  5
31C
100
AcDbEntity
  8
FAN70-0309
370
              15
390
0
  6
Continuous
 62
               7
100
AcDbVertex
100
AcDb2dVertex
 10
279.93480041393985
 20
-466.59429323921916
 30
0.0
  0
VERTEX
  5
31D
100
AcDbEntity
  8
FAN70-0309
370
              15
390
0
  6
Continuous
 62
               7
100
AcDbVertex
100
AcDb2dVertex
 10
278.58974897563979
 20
-463.72532911091912
 30
0.0
  0
VERTEX
  5
31E
100
AcDbEntity
  8
FAN70-0309
370
              15
390
0
  6
Continuous
 62
               7
100
AcDbVertex
100
AcDb2dVertex
 10
277.49873052003994
 20
-461.36339196641916
 30
0.0
  0
VERTEX
  5
31F
100
AcDbEntity
  8
FAN70-0309
370
              15
390
0
  6
Continuous
 62
               7
100
AcDbVertex
100
AcDb2dVertex
 10
276.69577361073988
 20
-459.6035141645192
 30
0.0
  0
VERTEX
  5
320
100
AcDbEntity
  8
FAN70-0309
370
              15
390
0
  6
Continuous
 62
               7
100
AcDbVertex
100
AcDb2dVertex
 10
276.2046442870398
 20
-458.51755544121909
 30
0.0
  0
VERTEX
  5
321
100
AcDbEntity
  8
FAN70-0309
370
              15
390
0
  6
Continuous
 62
               7
100
AcDbVertex
100
AcDb2dVertex
 10
276.03942945173998
 20
-458.15058062531932
 30
0.0
  0
SEQEND
  5
322
100
AcDbEntity
  8
FAN70-0309
370
              15
390
0
  6
Continuous
 62
               7
  0
POLYLINE
  5
323
100
AcDbEntity
  8
FAN70-0309
370
              15
390
0
  6
Continuous
 62
               7
100
AcDb2dPolyline
 66
               1
 10
0.0
 20
0.0
 30
0.0
 75
               5
  0
VERTEX
  5
324
100
AcDbEntity
  8
FAN70-0309
370
              15
390
0
  6
Continuous
 62
               7
100
AcDbVertex
100
AcDb2dVertex
 10
276.03942945173998
 20
-458.15058062531932
 30
0.0
  0
VERTEX
  5
325
100
AcDbEntity
  8
FAN70-0309
370
              15
390
0
  6
Continuous
 62
               7
100
AcDbVertex
100
AcDb2dVertex
 10
273.57517762534002
 20
-451.0038470554191
 30
0.0
  0
VERTEX
  5
326
100
AcDbEntity
  8
FAN70-0309
370
              15
390
0
  6
Continuous
 62
               7
100
AcDbVertex
100
AcDb2dVertex
 10
273.38011528983992
 20
-450.36832304101927
 30
0.0
  0
SEQEND
  5
327
100
AcDbEntity
  8
FAN70-0309
370
              15
390
0
  6
Continuous
 62
               7
  0
POLYLINE
  5
328
100
AcDbEntity
  8
FAN70-0309
370
              15
390
0
  6
Continuous
 62
               7
100
AcDb2dPolyline
 66
               1
 10
0.0
 20
0.0
 30
0.0
 75
               5
  0
VERTEX
  5
329
100
AcDbEntity
  8
FAN70-0309
370
              15
390
0
  6
Continuous
 62
               7
100
AcDbVertex
100
AcDb2dVertex
 10
459.99999999993992
 20
-583.56902974311902
 30
0.0
  0
VERTEX
  5
32A
100
AcDbEntity
  8
FAN70-0309
370
              15
390
0
  6
Continuous
 62
               7
100
AcDbVertex
100
AcDb2dVertex
 10
460.02904123923992
 20
-583.5690325475191
 30
0.0
  0
VERTEX
  5
32B
100
AcDbEntity
  8
FAN70-0309
370
              15
390
0
  6
Continuous
 62
               7
100
AcDbVertex
100
AcDb2dVertex
 10
465.16578436614003
 20
-583.53561343991919
 30
0.0
  0
VERTEX
  5
32C
100
AcDbEntity
  8
FAN70-0309
370
              15
390
0
  6
Continuous
 62
               7
100
AcDbVertex
100
AcDb2dVertex
 10
470.21993585063996
 20
-583.4502732423191
 30
0.0
  0
VERTEX
  5
32D
100
AcDbEntity
  8
FAN70-0309
370
              15
390
0
  6
Continuous
 62
               7
100
AcDbVertex
100
AcDb2dVertex
 10
475.10727885703994
 20
-583.33204556061924
 30
0.0
  0
VERTEX
  5
32E
100
AcDbEntity
  8
FAN70-0309
370
              15
390
0
  6
Continuous
 62
               7
100
AcDbVertex
100
AcDb2dVertex
 10
479.7491591919399
 20
-583.19652084311929
 30
0.0
  0
VERTEX
  5
32F
100
AcDbEntity
  8
FAN70-0309
370
              15
390
0
  6
Continuous
 62
               7
100
AcDbVertex
100
AcDb2dVertex
 10
484.06530098393995
 20
-583.05710028611907
 30
0.0
  0
VERTEX
  5
330
100
AcDbEntity
  8
FAN70-0309
370
              15
390
0
  6
Continuous
 62
               7
100
AcDbVertex
100
AcDb2dVertex
 10
487.98148361663988
 20
-582.92521157631904
 30
0.0
  0
VERTEX
  5
331
100
AcDbEntity
  8
FAN70-0309
370
              15
390
0
  6
Continuous
 62
               7
100
AcDbVertex
100
AcDb2dVertex
 10
491.42892280213977
 20
-582.80981329011911
 30
0.0
  0
VERTEX
  5
332
100
AcDbEntity
  8
FAN70-0309
370
              15
390
0
  6
Continuous
 62
               7
100
AcDbVertex
100
AcDb2dVertex
 10
494.34249559944004
 20
-582.71727163001924
 30
0.0
  0
VERTEX
  5
333
100
AcDbEntity
  8
FAN70-0309
370
              15
390
0
  6
Continuous
 62
               7
100
AcDbVertex
100
AcDb2dVertex
 10
496.66933156333988
 20
-582.65085104041896
 30
0.0
  0
VERTEX
  5
334
100
AcDbEntity
  8
FAN70-0309
370
              15
390
0
  6
Continuous
 62
               7
100
AcDbVertex
100
AcDb2dVertex
 10
498.36539175533989
 20
-582.61032963741945
 30
0.0
  0
VERTEX
  5
335
100
AcDbEntity
  8
FAN70-0309
370
              15
390
0
  6
Continuous
 62
               7
100
AcDbVertex
100
AcDb2dVertex
 10
499.39903277593993
 20
-582.59187858281894
 30
0.0
  0
VERTEX
  5
336
100
AcDbEntity
  8
FAN70-0309
370
              15
390
0
  6
Continuous
 62
               7
100
AcDbVertex
100
AcDb2dVertex
 10
499.74996436473992
 20
-582.58792044871916
 30
0.0
  0
VERTEX
  5
337
100
AcDbEntity
  8
FAN70-0309
370
              15
390
0
  6
Continuous
 62
               7
100
AcDbVertex
100
AcDb2dVertex
 10
499.74999999993992
 20
-582.58791731001907
 30
0.0
  0
SEQEND
  5
338
100
AcDbEntity
  8
FAN70-0309
370
              15
390
0
  6
Continuous
 62
               7
  0
POLYLINE
  5
339
100
AcDbEntity
  8
FAN70-0309
370
              15
390
0
  6
Continuous
 62
               7
100
AcDb2dPolyline
 66
               1
 10
0.0
 20
0.0
 30
0.0
 75
               5
  0
VERTEX
  5
33A
100
AcDbEntity
  8
FAN70-0309
370
              15
390
0
  6
Continuous
 62
               7
100
AcDbVertex
100
AcDb2dVertex
 10
646.54100947043969
 20
-450.36832304101927
 30
0.0
  0
VERTEX
  5
33B
100
AcDbEntity
  8
FAN70-0309
370
              15
390
0
  6
Continuous
 62
               7
100
AcDbVertex
100
AcDb2dVertex
 10
643.54685014573977
 20
-459.54690227251911
 30
0.0
  0
VERTEX
  5
33C
100
AcDbEntity
  8
FAN70-0309
370
              15
390
0
  6
Continuous
 62
               7
100
AcDbVertex
100
AcDb2dVertex
 10
637.85466354193989
 20
-473.31122490171913
 30
0.0
  0
VERTEX
  5
33D
100
AcDbEntity
  8
FAN70-0309
370
              15
390
0
  6
Continuous
 62
               7
100
AcDbVertex
100
AcDb2dVertex
 10
631.1468735052398
 20
-486.55752012141909
 30
0.0
  0
VERTEX
  5
33E
100
AcDbEntity
  8
FAN70-0309
370
              15
390
0
  6
Continuous
 62
               7
100
AcDbVertex
100
AcDb2dVertex
 10
623.46119998573965
 20
-499.23216605341918
 30
0.0
  0
VERTEX
  5
33F
100
AcDbEntity
  8
FAN70-0309
370
              15
390
0
  6
Continuous
 62
               7
100
AcDbVertex
100
AcDb2dVertex
 10
614.81931915083976
 20
-511.29141758781907
 30
0.0
  0
VERTEX
  5
340
100
AcDbEntity
  8
FAN70-0309
370
              15
390
0
  6
Continuous
 62
               7
100
AcDbVertex
100
AcDb2dVertex
 10
605.24970410933872
 20
-522.68582782931912
 30
0.0
  0
VERTEX
  5
341
100
AcDbEntity
  8
FAN70-0309
370
              15
390
0
  6
Continuous
 62
               7
100
AcDbVertex
100
AcDb2dVertex
 10
594.81366093723989
 20
-533.34088654771926
 30
0.0
  0
VERTEX
  5
342
100
AcDbEntity
  8
FAN70-0309
370
              15
390
0
  6
Continuous
 62
               7
100
AcDbVertex
100
AcDb2dVertex
 10
583.57904194423884
 20
-543.17708638741919
 30
0.0
  0
VERTEX
  5
343
100
AcDbEntity
  8
FAN70-0309
370
              15
390
0
  6
Continuous
 62
               7
100
AcDbVertex
100
AcDb2dVertex
 10
571.02933693833972
 20
-552.51994738691928
 30
0.0
  0
VERTEX
  5
344
100
AcDbEntity
  8
FAN70-0309
370
              15
390
0
  6
Continuous
 62
               7
100
AcDbVertex
100
AcDb2dVertex
 10
557.77920395653985
 20
-560.8154985054191
 30
0.0
  0
VERTEX
  5
345
100
AcDbEntity
  8
FAN70-0309
370
              15
390
0
  6
Continuous
 62
               7
100
AcDbVertex
100
AcDb2dVertex
 10
543.93608679323972
 20
-568.00992896351909
 30
0.0
  0
VERTEX
  5
346
100
AcDbEntity
  8
FAN70-0309
370
              15
390
0
  6
Continuous
 62
               7
100
AcDbVertex
100
AcDb2dVertex
 10
529.60480126013988
 20
-574.05162160221926
 30
0.0
  0
VERTEX
  5
347
100
AcDbEntity
  8
FAN70-0309
370
              15
390
0
  6
Continuous
 62
               7
100
AcDbVertex
100
AcDb2dVertex
 10
514.85822501953987
 20
-578.91458084861915
 30
0.0
  0
VERTEX
  5
348
100
AcDbEntity
  8
FAN70-0309
370
              15
390
0
  6
Continuous
 62
               7
100
AcDbVertex
100
AcDb2dVertex
 10
499.74999999993992
 20
-582.58791731001907
 30
0.0
  0
SEQEND
  5
349
100
AcDbEntity
  8
FAN70-0309
370
              15
390
0
  6
Continuous
 62
               7
  0
ARC
  5
34A
100
AcDbEntity
  8
FAN70-0309
370
              15
390
0
  6
STYLE_12
 62
               7
100
AcDbCircle
 10
460.91294870007704
 20
-391.85742791191558
 30
0.0
 40
192.89999999999992
100
AcDbArc
 50
282.20898260012882
 51
344.64771480723772
  0
ARC
  5
34B
100
AcDbEntity
  8
FAN70-0309
370
              15
390
0
  6
STYLE_12
 62
               7
100
AcDbCircle
 10
504.97174539641691
 20
-596.52304832212496
 30
0.0
 40
16.455585077629429
100
AcDbArc
 50
101.44304432087644
 51
128.38576525662697
  0
LINE
  5
34C
100
AcDbEntity
  8
FAN70-0309
370
              15
390
0
  6
STYLE_12
 62
               7
100
AcDbLine
 10
494.75359952380001
 20
-583.62437493401944
 30
0.0
 11
485.47074360703999
 21
-591.25640172241924
 31
0.0
  0
ARC
  5
34D
100
AcDbEntity
  8
FAN70-0309
370
              15
390
0
  6
STYLE_12
 62
               7
100
AcDbCircle
 10
459.08705129980279
 20
-391.85742791191558
 30
0.0
 40
192.90000000000001
100
AcDbArc
 50
195.35228519276225
 51
257.79101739987118
  0
ARC
  5
34E
100
AcDbEntity
  8
FAN70-0309
370
              15
390
0
  6
STYLE_12
 62
               7
100
AcDbCircle
 10
415.02825460346293
 20
-596.52304832212496
 30
0.0
 40
16.45558507762933
100
AcDbArc
 50
51.614234743373352
 51
78.556955679123973
  0
LINE
  5
34F
100
AcDbEntity
  8
FAN70-0309
370
              15
390
0
  6
STYLE_12
 62
               7
100
AcDbLine
 10
425.24640047607971
 20
-583.62437493401944
 30
0.0
 11
434.52925639283984
 21
-591.25640172241924
 31
0.0
  0
ARC
  5
350
100
AcDbEntity
  8
FAN70-0309
370
              15
390
0
  6
STYLE_12
 62
               7
100
AcDbCircle
 10
-451.33690612077822
 20
-316.20929957122951
 30
0.0
 40
268.60000000000002
100
AcDbArc
 50
208.04095978587202
 51
260.94137994240072
  0
ARC
  5
351
100
AcDbEntity
  8
FAN70-0309
370
              15
390
0
  6
STYLE_12
 62
               7
100
AcDbCircle
 10
-497.25154537887073
 20
-598.78894939337715
 30
0.0
 40
17.704754565194147
100
AcDbArc
 50
53.21808872013186
 51
78.185496757491222
  0
LINE
  5
352
100
AcDbEntity
  8
FAN70-0309
370
              15
390
0
  6
STYLE_12
 62
               7
100
AcDbLine
 10
-486.65045582708336
 20
-584.60884944560712
 30
0.0
 11
-477.22354893513312
 21
-591.65643617109004
 31
0.0
  0
ARC
  5
353
100
AcDbEntity
  8
FAN70-0309
370
              15
390
0
  6
STYLE_12
 62
               7
100
AcDbCircle
 10
-451.70785731450906
 20
-316.20929957122951
 30
0.0
 40
268.59999999999991
100
AcDbArc
 50
279.05862005759928
 51
331.88100589480916
  0
ARC
  5
354
100
AcDbEntity
  8
FAN70-0309
370
              15
390
0
  6
STYLE_12
 62
               7
100
AcDbCircle
 10
-405.79321805641655
 20
-598.78894939337715
 30
0.0
 40
17.704754565194211
100
AcDbArc
 50
101.81450324250862
 51
126.78191127986803
  0
LINE
  5
355
100
AcDbEntity
  8
FAN70-0309
370
              15
390
0
  6
STYLE_12
 62
               7
100
AcDbLine
 10
-416.39430760820386
 20
-584.60884944560712
 30
0.0
 11
-425.82121450015416
 21
-591.65643617109004
 31
0.0
  0
SPLINE
  5
356
100
AcDbEntity
  8
FAN70-0309
370
              15
390
0
  6
Continuous
 62
               7
100
AcDbSpline
210
0.0
220
0.0
230
1.0
 70
               9
 71
               2
 72
              17
 73
              14
 74
               0
 42
0.000001
 43
0.000001
 40
0.0
 40
0.0
 40
0.0
 40
1.0
 40
2.0
 40
3.0
 40
4.0
 40
5.0
 40
6.0
 40
7.0
 40
8.0
 40
9.0
 40
10.0
 40
11.0
 40
12.0
 40
12.0
 40
12.0
 10
-568.28002490928304
 20
727.2600020395821
 30
0.0
 10
-513.16795811167469
 20
752.38023882999983
 30
0.0
 10
-385.89209170689134
 20
752.38023882999983
 30
0.0
 10
-275.66795811167464
 20
702.13976524916427
 30
0.0
 10
-212.03002490928299
 20
615.12071241083527
 30
0.0
 10
-212.03002490928299
 20
514.63976524916438
 30
0.0
 10
-275.66795811167464
 20
427.62071241083527
 30
0.0
 10
-385.89209170689134
 20
377.38023882999983
 30
0.0
 10
-513.16795811167469
 20
377.38023882999983
 30
0.0
 10
-623.39209170689139
 20
427.62071241083527
 30
0.0
 10
-687.03002490928304
 20
514.63976524916438
 30
0.0
 10
-687.03002490928304
 20
615.12071241083527
 30
0.0
 10
-623.39209170689139
 20
702.13976524916427
 30
0.0
 10
-568.28002490928304
 20
727.2600020395821
 30
0.0
  0
ENDSEC
  0
SECTION
  2
OBJECTS
  0
DICTIONARY
  5
19
100
AcDbDictionary
280
               0
281
               1
  3
ACAD_GROUP
350
1A
  3
ACAD_MLINESTYLE
350
1B
  3
ACAD_LAYOUT
350
1E
  3
ACAD_PLOTSETTINGS
350
22
  3
ACAD_PLOTSTYLENAME
350
1F
  0
DICTIONARY
  5
1A
102
{ACAD_REACTORS
330
19
102
}
100
AcDbDictionary
280
               0
281
               1
  0
DICTIONARY
  5
1B
102
{ACAD_REACTORS
330
19
102
}
100
AcDbDictionary
280
               0
281
               1
  3
Standard
350
1C
  0
MLINESTYLE
  5
1C
102
{ACAD_REACTORS
330
1B
102
}
100
AcDbMlineStyle
  2
Standard
 70
               0
  3

 62
               0
 51
90.0
 52
90.0
 71
               2
 49
0.5
 62
             256
  6
ByLayer
 49
-0.5
 62
             256
  6
ByLayer
  0
ACDBDICTIONARYWDFLT
  5
1F
102
{ACAD_REACTORS
330
19
102
}
100
AcDbDictionary
281
               1
  3
Normal
350
1D
100
AcDbDictionaryWithDefault
340
1D
  0
ACDBPLACEHOLDER
  5
1D
102
{ACAD_REACTORS
330
1F
102
}
  0
LAYOUT
  5
20
102
{ACAD_REACTORS
330
1E
102
}
100
AcDbPlotSettings
  1

  2

  4

  6

 40
0.0
 41
0.0
 42
0.0
 43
0.0
 44
0.0
 45
0.0
 46
0.0
 47
0.0
 48
0.0
 49
0.0
140
0.0
141
0.0
142
1.0
143
1.0
 70
            1024
 72
               0
 73
               0
 74
               0
  7

 75
               0
147
1.0
148
0.0
149
0.0
100
AcDbLayout
  1
Model
 70
               0
 71
               0
 10
0.0
 20
0.0
 11
0.0
 21
0.0
 12
0.0
 22
0.0
 32
0.0
 14
0.0
 24
0.0
 34
0.0
 15
0.0
 25
0.0
 35
0.0
146
0.0
 13
0.0
 23
0.0
 33
0.0
 16
0.0
 26
0.0
 36
0.0
 17
0.0
 27
0.0
 37
0.0
 76
               0
330
A
331
0
345
0
346
0
  0
LAYOUT
  5
21
102
{ACAD_REACTORS
330
1E
102
}
100
AcDbPlotSettings
  1

  2

  4

  6

 40
0.0
 41
0.0
 42
0.0
 43
0.0
 44
0.0
 45
0.0
 46
0.0
 47
0.0
 48
0.0
 49
0.0
140
0.0
141
0.0
142
1.0
143
1.0
 70
               0
 72
               0
 73
               0
 74
               0
  7

 75
               0
147
1.0
148
0.0
149
0.0
100
AcDbLayout
  1
Layout1
 70
               0
 71
               0
 10
0.0
 20
0.0
 11
0.0
 21
0.0
 12
0.0
 22
0.0
 32
0.0
 14
0.0
 24
0.0
 34
0.0
 15
0.0
 25
0.0
 35
0.0
146
0.0
 13
0.0
 23
0.0
 33
0.0
 16
0.0
 26
0.0
 36
0.0
 17
0.0
 27
0.0
 37
0.0
 76
               0
330
B
331
0
345
0
346
0
  0
DICTIONARY
  5
1E
102
{ACAD_REACTORS
330
19
102
}
100
AcDbDictionary
280
               0
281
               1
  3
Layout1
350
21
  3
Model
350
20
  0
DICTIONARY
  5
22
102
{ACAD_REACTORS
330
19
102
}
100
AcDbDictionary
280
               0
281
               1
  0
ENDSEC
  0
EOF
