  0
SECTION
  2
HEADER
  9
$ACADVER
  1
AC1015
  9
$ACADMAINTVER
 70
               6
  9
$DWGCODEPAGE
  3
ANSI_932
  9
$INSBASE
 10
0.0
 20
0.0
 30
0.0
  9
$EXTMIN
 10
-975.00000000024124
 20
-1431.5255224711129
 30
-14.428611111111111
  9
$EXTMAX
 10
975.00000000024124
 20
1405.9972926412995
 30
14.428611111111111
  9
$LIMMIN
 10
0.0
 20
0.0
  9
$LIMMAX
 10
0.0
 20
0.0
  9
$ORTHOMODE
 70
               0
  9
$REGENMODE
 70
               1
  9
$FILLMODE
 70
               1
  9
$QTEXTMODE
 70
               0
  9
$MIRRTEXT
 70
               1
  9
$LTSCALE
 40
50.799999999999997
  9
$ATTMODE
 70
               1
  9
$TEXTSIZE
 40
0.2
  9
$TRACEWID
 40
1.0
  9
$TEXTSTYLE
  7
Standard
  9
$CLAYER
  8
FAN70-0310
  9
$CELTYPE
  6
Continuous
  9
$CECOLOR
 62
             256
  9
$CELTSCALE
 40
1.0
  9
$DISPSILH
 70
               0
  9
$DIMSCALE
 40
1.0
  9
$DIMASZ
 40
31.75
  9
$DIMEXO
 40
0.0
  9
$DIMDLI
 40
6.9999999999999396
  9
$DIMRND
 40
0.0
  9
$DIMDLE
 40
0.0
  9
$DIMEXE
 40
19.999999999996199
  9
$DIMTP
 40
0.0
  9
$DIMTM
 40
0.0
  9
$DIMTXT
 40
24.432617187500004
  9
$DIMCEN
 40
0.0
  9
$DIMTSZ
 40
0.0
  9
$DIMTOL
 70
               0
  9
$DIMLIM
 70
               0
  9
$DIMTIH
 70
               0
  9
$DIMTOH
 70
               0
  9
$DIMSE1
 70
               0
  9
$DIMSE2
 70
               0
  9
$DIMTAD
 70
               1
  9
$DIMZIN
 70
              11
  9
$DIMBLK
  1
VW_FILLEDARROW
  9
$DIMASO
 70
               1
  9
$DIMSHO
 70
               1
  9
$DIMPOST
  1
<>
  9
$DIMAPOST
  1
[]
  9
$DIMALT
 70
               0
  9
$DIMALTD
 70
               1
  9
$DIMALTF
 40
1.0
  9
$DIMLFAC
 40
1.0
  9
$DIMTOFL
 70
               0
  9
$DIMTVP
 40
0.0
  9
$DIMTIX
 70
               1
  9
$DIMSOXD
 70
               0
  9
$DIMSAH
 70
               0
  9
$DIMBLK1
  1

  9
$DIMBLK2
  1

  9
$DIMSTYLE
  2
JIS
  9
$DIMCLRD
 70
               0
  9
$DIMCLRE
 70
               0
  9
$DIMCLRT
 70
               0
  9
$DIMTFAC
 40
1.0
  9
$DIMGAP
 40
1.00000000000108
  9
$DIMJUST
 70
               0
  9
$DIMSD1
 70
               0
  9
$DIMSD2
 70
               0
  9
$DIMTOLJ
 70
               1
  9
$DIMTZIN
 70
              11
  9
$DIMALTZ
 70
              11
  9
$DIMALTTZ
 70
              11
  9
$DIMUPT
 70
               0
  9
$DIMDEC
 70
               1
  9
$DIMTDEC
 70
               1
  9
$DIMALTU
 70
               2
  9
$DIMALTTD
 70
               2
  9
$DIMTXSTY
  7
ＭＳ ゴシック
  9
$DIMAUNIT
 70
               0
  9
$DIMADEC
 70
               2
  9
$DIMALTRND
 40
0.0
  9
$DIMAZIN
 70
               0
  9
$DIMDSEP
 70
              46
  9
$DIMATFIT
 70
               0
  9
$DIMFRAC
 70
               2
  9
$DIMLDRBLK
  1

  9
$DIMLUNIT
 70
               2
  9
$DIMLWD
 70
              -2
  9
$DIMLWE
 70
              -2
  9
$DIMTMOVE
 70
               0
  9
$LUNITS
 70
               2
  9
$LUPREC
 70
               4
  9
$SKETCHINC
 40
0.1
  9
$FILLETRAD
 40
0.0
  9
$AUNITS
 70
               0
  9
$AUPREC
 70
               0
  9
$MENU
  1
acad
  9
$ELEVATION
 40
0.0
  9
$PELEVATION
 40
0.0
  9
$THICKNESS
 40
0.0
  9
$LIMCHECK
 70
               0
  9
$CHAMFERA
 40
0.0
  9
$CHAMFERB
 40
0.0
  9
$CHAMFERC
 40
0.0
  9
$CHAMFERD
 40
0.0
  9
$SKPOLY
 70
               0
  9
$TDCREATE
 40
2456064.733217593
  9
$TDUCREATE
 40
0.000000000
  9
$TDUPDATE
 40
2456064.733217593
  9
$TDUUPDATE
 40
0.000000000
  9
$TDINDWG
 40
0.0000000000
  9
$TDUSRTIMER
 40
0.0000000000
  9
$USRTIMER
 70
               1
  9
$ANGBASE
 50
0.0
  9
$ANGDIR
 70
               0
  9
$PDMODE
 70
               1
  9
$PDSIZE
 40
-2.0
  9
$PLINEWID
 40
0.0
  9
$SPLFRAME
 70
               0
  9
$SPLINETYPE
 70
               6
  9
$SPLINESEGS
 70
               8
  9
$HANDSEED
  5
354
  9
$SURFTAB1
 70
               6
  9
$SURFTAB2
 70
               6
  9
$SURFTYPE
 70
               6
  9
$SURFU
 70
               6
  9
$SURFV
 70
               6
  9
$UCSBASE
  2

  9
$UCSNAME
  2

  9
$UCSORG
 10
0.0
 20
0.0
 30
0.0
  9
$UCSXDIR
 10
1.0
 20
0.0
 30
0.0
  9
$UCSYDIR
 10
0.0
 20
1.0
 30
0.0
  9
$UCSORTHOREF
  2

  9
$UCSORTHOVIEW
 70
               0
  9
$UCSORGTOP
 10
0.0
 20
0.0
 30
0.0
  9
$UCSORGBOTTOM
 10
0.0
 20
0.0
 30
0.0
  9
$UCSORGLEFT
 10
0.0
 20
0.0
 30
0.0
  9
$UCSORGRIGHT
 10
0.0
 20
0.0
 30
0.0
  9
$UCSORGFRONT
 10
0.0
 20
0.0
 30
0.0
  9
$UCSORGBACK
 10
0.0
 20
0.0
 30
0.0
  9
$PUCSBASE
  2

  9
$PUCSNAME
  2

  9
$PUCSORG
 10
0.0
 20
0.0
 30
0.0
  9
$PUCSXDIR
 10
1.0
 20
0.0
 30
0.0
  9
$PUCSYDIR
 10
0.0
 20
1.0
 30
0.0
  9
$PUCSORTHOREF
  2

  9
$PUCSORTHOVIEW
 70
               0
  9
$PUCSORGTOP
 10
0.0
 20
0.0
 30
0.0
  9
$PUCSORGBOTTOM
 10
0.0
 20
0.0
 30
0.0
  9
$PUCSORGLEFT
 10
0.0
 20
0.0
 30
0.0
  9
$PUCSORGRIGHT
 10
0.0
 20
0.0
 30
0.0
  9
$PUCSORGFRONT
 10
0.0
 20
0.0
 30
0.0
  9
$PUCSORGBACK
 10
0.0
 20
0.0
 30
0.0
  9
$USERI1
 70
               0
  9
$USERI2
 70
               0
  9
$USERI3
 70
               0
  9
$USERI4
 70
               0
  9
$USERI5
 70
               0
  9
$USERR1
 40
0.0
  9
$USERR2
 40
0.0
  9
$USERR3
 40
0.0
  9
$USERR4
 40
0.0
  9
$USERR5
 40
0.0
  9
$WORLDVIEW
 70
               1
  9
$SHADEDGE
 70
               3
  9
$SHADEDIF
 70
              70
  9
$TILEMODE
 70
               1
  9
$MAXACTVP
 70
              64
  9
$PINSBASE
 10
0.0
 20
0.0
 30
0.0
  9
$PLIMCHECK
 70
               0
  9
$PEXTMIN
 10
1.0000000000000000E+20
 20
1.0000000000000000E+20
 30
1.0000000000000000E+20
  9
$PEXTMAX
 10
-1.0000000000000000E+20
 20
-1.0000000000000000E+20
 30
-1.0000000000000000E+20
  9
$PLIMMIN
 10
0.0
 20
0.0
  9
$PLIMMAX
 10
12.0
 20
9.0
  9
$UNITMODE
 70
               0
  9
$VISRETAIN
 70
               0
  9
$PLINEGEN
 70
               1
  9
$PSLTSCALE
 70
               0
  9
$TREEDEPTH
 70
            3020
  9
$CMLSTYLE
  2
Standard
  9
$CMLJUST
 70
               0
  9
$CMLSCALE
 40
1.0
  9
$PROXYGRAPHICS
 70
               0
  9
$MEASUREMENT
 70
               1
  9
$CELWEIGHT
370
               0
  9
$ENDCAPS
280
               0
  9
$JOINSTYLE
280
               0
  9
$LWDISPLAY
290
               1
  9
$INSUNITS
 70
               4
  9
$HYPERLINKBASE
  1

  9
$STYLESHEET
  1

  9
$XEDIT
290
               1
  9
$CEPSNTYPE
380
               0
  9
$PSTYLEMODE
290
               1
  9
$FINGERPRINTGUID
  2

  9
$VERSIONGUID
  2

  9
$EXTNAMES
290
               1
  9
$PSVPSCALE
 40
0.0
  0
ENDSEC
  0
SECTION
  2
CLASSES
  0
CLASS
  1
LWPOLYLINE
  2
AcDbPolyline
  3
AutoCAD 2000
 90
        0
280
               0
281
               1
  0
CLASS
  1
IMAGE
  2
AcDbRasterImage
  3
ISM
 90
      127
280
               0
281
               1
  0
CLASS
  1
OLE2FRAME
  2
AcDbOle2Frame
  3
AutoCAD 2000
 90
        0
280
               0
281
               1
  0
CLASS
  1
HATCH
  2
AcDbHatch
  3
AutoCAD 2000
 90
        0
280
               0
281
               1
  0
CLASS
  1
DICTIONARYVAR
  2
AcDbDictionaryVar
  3
AutoCAD 2000
 90
        0
280
               0
281
               0
  0
CLASS
  1
RASTERVARIABLES
  2
AcDbRasterVariables
  3
ISM
 90
        0
280
               0
281
               0
  0
CLASS
  1
IMAGEDEF
  2
AcDbRasterImageDef
  3
ISM
 90
        0
280
               0
281
               0
  0
CLASS
  1
IMAGEDEF_REACTOR
  2
AcDbRasterImageDefReactor
  3
ISM
 90
        1
280
               0
281
               0
  0
CLASS
  1
IDBUFFER
  2
AcDbIdBuffer
  3
AutoCAD 2000
 90
        0
280
               0
281
               0
  0
CLASS
  1
SPATIAL_FILTER
  2
AcDbSpatialFilter
  3
AutoCAD 2000
 90
        0
280
               0
281
               0
  0
CLASS
  1
XRECORD
  2
AcDbXrecord
  3
AutoCAD 2000
 90
        0
280
               0
281
               0
  0
CLASS
  1
SORTENTSTABLE
  2
AcDbSortentsTable
  3
AutoCAD 2000
 90
        0
280
               0
281
               0
  0
CLASS
  1
LAYER_INDEX
  2
AcDbLayerIndex
  3
AutoCAD 2000
 90
        0
280
               0
281
               0
  0
CLASS
  1
SPATIAL_INDEX
  2
AcDbSpatialIndex
  3
AutoCAD 2000
 90
        0
280
               0
281
               0
  0
CLASS
  1
OBJECT_PTR
  2
CAseDLPNTableRecord
  3
"ASE-LPNTableRecord"
 90
        1
280
               0
281
               0
  0
CLASS
  1
LAYOUT
  2
AcDbLayout
  3
AutoCAD 2000
 90
        0
280
               0
281
               0
  0
CLASS
  1
PLOTSETTINGS
  2
AcDbPlotSettings
  3
AutoCAD 2000
 90
        0
280
               0
281
               0
  0
CLASS
  1
ACDBDICTIONARYWDFLT
  2
AcDbDictionaryWithDefault
  3
AutoCAD 2000
 90
        0
280
               0
281
               0
  0
CLASS
  1
ACDBPLACEHOLDER
  2
AcDbPlaceHolder
  3
AutoCAD 2000
 90
        0
280
               0
281
               0
  0
ENDSEC
  0
SECTION
  2
TABLES
  0
TABLE
  2
VPORT
  5
7
100
AcDbSymbolTable
 70
               1
  0
VPORT
  5
15
100
AcDbSymbolTableRecord
100
AcDbViewportTableRecord
  2
*ACTIVE
 70
               0
 10
0.0
 20
0.0
 11
1.0
 21
1.0
 12
0.0
 22
-12.764114914906713
 13
0.0
 23
0.0
 14
1.0
 24
1.0
 15
0.0
 25
0.0
 16
0.0
 26
0.0
 36
1.0
 17
0.0
 27
0.0
 37
0.0
 40
2837.5228151124124
 41
0.688564
 42
50.0
 43
0.0
 44
0.0
 50
0.0
 51
0.0
 71
               0
 72
            2000
 73
               1
 74
               1
 75
               0
 76
               0
 77
               0
 78
               0
281
               0
 65
               0
110
0.0
120
0.0
130
0.0
111
1.0
121
0.0
131
0.0
112
0.0
122
1.0
132
0.0
345
0
346
0
 79
               0
146
0.0
  0
ENDTAB
  0
TABLE
  2
LTYPE
  5
4
100
AcDbSymbolTable
 70
              17
  0
LTYPE
  5
11
100
AcDbSymbolTableRecord
100
AcDbLinetypeTableRecord
  2
ByBlock
 70
              64
  3

 72
              65
 73
               0
 40
0.0
  0
LTYPE
  5
12
100
AcDbSymbolTableRecord
100
AcDbLinetypeTableRecord
  2
ByLayer
 70
              64
  3

 72
              65
 73
               0
 40
0.0
  0
LTYPE
  5
13
100
AcDbSymbolTableRecord
100
AcDbLinetypeTableRecord
  2
Continuous
 70
              64
  3
Solid line
 72
              65
 73
               0
 40
0.0
  0
LTYPE
  5
31
100
AcDbSymbolTableRecord
100
AcDbLinetypeTableRecord
  2
STYLE_01
 70
               0
  3

 72
              65
 73
               4
 40
0.3999999999999999
 49
0.25
 74
               0
 49
-0.05
 74
               0
 49
0.05
 74
               0
 49
-0.05
 74
               0
  0
LTYPE
  5
32
100
AcDbSymbolTableRecord
100
AcDbLinetypeTableRecord
  2
STYLE_02
 70
               0
  3

 72
              65
 73
               2
 40
0.6944250000000001
 49
0.48607
 74
               0
 49
-0.2083550000000001
 74
               0
  0
LTYPE
  5
33
100
AcDbSymbolTableRecord
100
AcDbLinetypeTableRecord
  2
STYLE_03
 70
               0
  3

 72
              65
 73
               2
 40
1.25
 49
1.0416400000000001
 74
               0
 49
-0.2083599999999999
 74
               0
  0
LTYPE
  5
34
100
AcDbSymbolTableRecord
100
AcDbLinetypeTableRecord
  2
STYLE_04
 70
               0
  3

 72
              65
 73
               2
 40
1.5277099999999999
 49
1.3194249999999998
 74
               0
 49
-0.208285
 74
               0
  0
LTYPE
  5
35
100
AcDbSymbolTableRecord
100
AcDbLinetypeTableRecord
  2
STYLE_05
 70
               0
  3

 72
              65
 73
               2
 40
0.20828
 49
0.069425
 74
               0
 49
-0.138855
 74
               0
  0
LTYPE
  5
36
100
AcDbSymbolTableRecord
100
AcDbLinetypeTableRecord
  2
STYLE_06
 70
               0
  3

 72
              65
 73
               4
 40
1.0416400000000001
 49
0.625
 74
               0
 49
-0.20828
 74
               0
 49
0.06943
 74
               0
 49
-0.13893
 74
               0
  0
LTYPE
  5
37
100
AcDbSymbolTableRecord
100
AcDbLinetypeTableRecord
  2
STYLE_07
 70
               0
  3

 72
              65
 73
               6
 40
1.875
 49
0.625
 74
               0
 49
-0.20828
 74
               0
 49
0.6250000000000001
 74
               0
 49
-0.2083599999999999
 74
               0
 49
0.06943
 74
               0
 49
-0.1389299999999999
 74
               0
  0
LTYPE
  5
38
100
AcDbSymbolTableRecord
100
AcDbLinetypeTableRecord
  2
STYLE_08
 70
               0
  3

 72
              65
 73
               6
 40
1.25
 49
0.625
 74
               0
 49
-0.20828
 74
               0
 49
0.06943
 74
               0
 49
-0.13893
 74
               0
 49
0.0694299999999999
 74
               0
 49
-0.13893
 74
               0
  0
LTYPE
  5
39
100
AcDbSymbolTableRecord
100
AcDbLinetypeTableRecord
  2
STYLE_09
 70
               0
  3

 72
              65
 73
               4
 40
5.0
 49
3.75
 74
               0
 49
-0.2777849999999998
 74
               0
 49
0.6944300000000003
 74
               0
 49
-0.2777849999999998
 74
               0
  0
LTYPE
  5
3A
100
AcDbSymbolTableRecord
100
AcDbLinetypeTableRecord
  2
STYLE_10
 70
               0
  3

 72
              65
 73
               6
 40
5.9375
 49
3.75
 74
               0
 49
-0.2777849999999998
 74
               0
 49
0.6944300000000003
 74
               0
 49
-0.2777849999999998
 74
               0
 49
0.625
 74
               0
 49
-0.3125
 74
               0
  0
LTYPE
  5
3B
100
AcDbSymbolTableRecord
100
AcDbLinetypeTableRecord
  2
STYLE_11
 70
               0
  3

 72
              65
 73
               2
 40
0.0694444881889764
 49
0.0347222440944882
 74
               0
 49
-0.0347222440944882
 74
               0
  0
LTYPE
  5
3C
100
AcDbSymbolTableRecord
100
AcDbLinetypeTableRecord
  2
STYLE_12
 70
               0
  3

 72
              65
 73
               2
 40
0.3937007874015748
 49
0.1968503937007874
 74
               0
 49
-0.1968503937007874
 74
               0
  0
LTYPE
  5
3D
100
AcDbSymbolTableRecord
100
AcDbLinetypeTableRecord
  2
STYLE_13
 70
               0
  3

 72
              65
 73
               2
 40
0.5905511811023622
 49
0.2952755905511811
 74
               0
 49
-0.2952755905511811
 74
               0
  0
LTYPE
  5
3E
100
AcDbSymbolTableRecord
100
AcDbLinetypeTableRecord
  2
STYLE_14
 70
               0
  3

 72
              65
 73
               2
 40
1.9685039370078738
 49
0.9842519685039369
 74
               0
 49
-0.9842519685039369
 74
               0
  0
ENDTAB
  0
TABLE
  2
LAYER
  5
2
100
AcDbSymbolTable
 70
               5
  0
LAYER
  5
14
100
AcDbSymbolTableRecord
100
AcDbLayerTableRecord
  2
0
 70
               0
 62
               7
  6
Continuous
290
               1
370
              -3
390
1D
  0
LAYER
  5
3F
100
AcDbSymbolTableRecord
100
AcDbLayerTableRecord
  2
Defpoints
 70
               0
 62
               7
  6
Continuous
290
               0
370
              -3
390
1D
  0
LAYER
  5
40
100
AcDbSymbolTableRecord
100
AcDbLayerTableRecord
  2
template
 70
               0
 62
               7
  6
Continuous
290
               1
370
              -3
390
1D
  0
LAYER
  5
41
100
AcDbSymbolTableRecord
100
AcDbLayerTableRecord
  2
notes
 70
               0
 62
               7
  6
Continuous
290
               1
370
              -3
390
1D
  0
LAYER
  5
42
100
AcDbSymbolTableRecord
100
AcDbLayerTableRecord
  2
FAN70-0310
 70
               0
 62
               7
  6
Continuous
290
               1
370
              -3
390
1D
  0
ENDTAB
  0
TABLE
  2
STYLE
  5
3
100
AcDbSymbolTable
 70
               3
  0
STYLE
  5
17
100
AcDbSymbolTableRecord
100
AcDbTextStyleTableRecord
  2
Standard
 70
               0
 40
0.0
 41
1.0
 50
0.0
 71
               0
 42
0.0
  3
txt
  4
BIGFONT.SHX
  0
STYLE
  5
2F
100
AcDbSymbolTableRecord
100
AcDbTextStyleTableRecord
  2
MS-Gothic
 70
               0
 40
0.0
 41
1.0
 50
0.0
 71
               0
 42
0.0
  3

  4
MS-Gothic
1001
ACAD
1000
MS-Gothic
1071
        0
  0
STYLE
  5
30
100
AcDbSymbolTableRecord
100
AcDbTextStyleTableRecord
  2
ＭＳ ゴシック
 70
               0
 40
0.0
 41
1.0
 50
0.0
 71
               0
 42
0.0
  3

  4
ＭＳ ゴシック
1001
ACAD
1000
ＭＳ ゴシック
1071
        0
  0
ENDTAB
  0
TABLE
  2
VIEW
  5
5
100
AcDbSymbolTable
 70
               0
  0
ENDTAB
  0
TABLE
  2
UCS
  5
6
100
AcDbSymbolTable
 70
               0
  0
ENDTAB
  0
TABLE
  2
APPID
  5
8
100
AcDbSymbolTable
 70
               1
  0
APPID
  5
16
100
AcDbSymbolTableRecord
100
AcDbRegAppTableRecord
  2
ACAD
 70
               0
  0
ENDTAB
  0
TABLE
  2
DIMSTYLE
  5
9
100
AcDbSymbolTable
 70
               3
100
AcDbDimStyleTable
 71
               0
  0
DIMSTYLE
105
18
100
AcDbSymbolTableRecord
100
AcDbDimStyleTableRecord
  2
Standard
 70
               0
  3

  4

 40
1.0
 41
0.18
 42
0.0625
 43
0.38
 44
0.18
 45
0.0
 46
0.0
 47
0.0
 48
0.0
 71
               0
 72
               0
 73
               1
 74
               1
 75
               0
 76
               0
 77
               0
 78
               0
 79
               0
140
0.18
141
0.09
142
0.0
143
25.399999999999999
144
1.0
145
0.0
146
1.0
147
0.09
148
0.0
170
               0
171
               2
172
               0
173
               0
174
               0
175
               0
176
               0
177
               0
178
               0
179
               0
271
               4
272
               4
273
               2
274
               2
275
               0
276
               0
277
               2
278
              46
279
               0
280
               0
281
               0
282
               0
283
               1
284
               0
285
               0
286
               0
288
               0
289
               3
340
17
341
0
342
0
343
0
344
0
371
              -2
372
              -2
  0
DIMSTYLE
105
4B
100
AcDbSymbolTableRecord
100
AcDbDimStyleTableRecord
  2
tfrom線あり
 70
               0
  3
<>
  4
[]
 40
1.0
 41
9.9993896484374982
 42
24.999999999999996
 43
0.9999999999999999
 44
0.0
 45
0.0
 46
0.0
 47
0.0
 48
0.0
 71
               0
 72
               0
 73
               0
 74
               0
 75
               0
 76
               0
 77
               1
 78
              11
 79
               0
140
24.432617187500004
141
0.0
142
0.0
143
1.0
144
1.0
145
0.0
146
1.0
147
0.4999999999999999
148
0.0
170
               0
171
               1
172
               0
173
               0
174
               1
175
               0
176
               0
177
               0
178
               0
179
               2
271
               1
272
               1
273
               2
274
               2
275
               0
276
               2
277
               2
278
              46
279
               0
280
               0
281
               0
282
               0
283
               1
284
              11
285
              11
286
              11
288
               0
289
               0
340
30
341
43
342
43
343
0
344
0
371
              -2
372
              -2
  0
DIMSTYLE
105
50
100
AcDbSymbolTableRecord
100
AcDbDimStyleTableRecord
  2
JIS
 70
               0
  3
<>
  4
[]
 40
1.0
 41
31.75
 42
0.0
 43
6.9999999999999396
 44
19.999999999996199
 45
0.0
 46
0.0
 47
0.0
 48
0.0
 71
               0
 72
               0
 73
               0
 74
               0
 75
               0
 76
               0
 77
               1
 78
              11
 79
               0
140
24.432617187500004
141
0.0
142
0.0
143
1.0
144
1.0
145
0.0
146
1.0
147
1.00000000000108
148
0.0
170
               0
171
               1
172
               0
173
               0
174
               1
175
               0
176
               0
177
               0
178
               0
179
               2
271
               1
272
               1
273
               2
274
               2
275
               0
276
               2
277
               2
278
              46
279
               0
280
               0
281
               0
282
               0
283
               1
284
              11
285
              11
286
              11
288
               0
289
               0
340
30
341
4C
342
4C
343
0
344
0
371
              -2
372
              -2
  0
ENDTAB
  0
TABLE
  2
BLOCK_RECORD
  5
1
100
AcDbSymbolTable
 70
              14
  0
BLOCK_RECORD
  5
A
100
AcDbSymbolTableRecord
100
AcDbBlockTableRecord
  2
*MODEL_SPACE
340
20
  0
BLOCK_RECORD
  5
B
100
AcDbSymbolTableRecord
100
AcDbBlockTableRecord
  2
*PAPER_SPACE
340
21
  0
BLOCK_RECORD
  5
43
100
AcDbSymbolTableRecord
100
AcDbBlockTableRecord
  2
_DOT
340
0
  0
BLOCK_RECORD
  5
4C
100
AcDbSymbolTableRecord
100
AcDbBlockTableRecord
  2
VW_FILLEDARROW
340
0
  0
BLOCK_RECORD
  5
23
100
AcDbSymbolTableRecord
100
AcDbBlockTableRecord
  2
グループ
340
0
102
{BLKREFS
331
EB
102
}
  0
BLOCK_RECORD
  5
24
100
AcDbSymbolTableRecord
100
AcDbBlockTableRecord
  2
*D3
340
0
  0
BLOCK_RECORD
  5
25
100
AcDbSymbolTableRecord
100
AcDbBlockTableRecord
  2
*D4
340
0
  0
BLOCK_RECORD
  5
26
100
AcDbSymbolTableRecord
100
AcDbBlockTableRecord
  2
*D5
340
0
  0
BLOCK_RECORD
  5
27
100
AcDbSymbolTableRecord
100
AcDbBlockTableRecord
  2
*D6
340
0
  0
BLOCK_RECORD
  5
28
100
AcDbSymbolTableRecord
100
AcDbBlockTableRecord
  2
*D7
340
0
  0
BLOCK_RECORD
  5
29
100
AcDbSymbolTableRecord
100
AcDbBlockTableRecord
  2
*D8
340
0
  0
BLOCK_RECORD
  5
2A
100
AcDbSymbolTableRecord
100
AcDbBlockTableRecord
  2
*D9
340
0
  0
BLOCK_RECORD
  5
2B
100
AcDbSymbolTableRecord
100
AcDbBlockTableRecord
  2
グループ-1
340
0
102
{BLKREFS
331
34F
102
}
  0
BLOCK_RECORD
  5
2C
100
AcDbSymbolTableRecord
100
AcDbBlockTableRecord
  2
グループ-2
340
0
102
{BLKREFS
331
350
102
}
  0
BLOCK_RECORD
  5
2D
100
AcDbSymbolTableRecord
100
AcDbBlockTableRecord
  2
*D12
340
0
  0
BLOCK_RECORD
  5
2E
100
AcDbSymbolTableRecord
100
AcDbBlockTableRecord
  2
*D13
340
0
  0
ENDTAB
  0
ENDSEC
  0
SECTION
  2
BLOCKS
  0
BLOCK
  5
D
100
AcDbEntity
  8
0
390
0
100
AcDbBlockBegin
  2
*MODEL_SPACE
 70
               0
 10
0.0
 20
0.0
 30
0.0
  3
*MODEL_SPACE
  1

  0
ENDBLK
  5
E
100
AcDbEntity
  8
0
390
0
100
AcDbBlockEnd
  0
BLOCK
  5
F
100
AcDbEntity
 67
               1
  8
0
390
0
100
AcDbBlockBegin
  2
*PAPER_SPACE
 70
               0
 10
0.0
 20
0.0
 30
0.0
  3
*PAPER_SPACE
  1

  0
ENDBLK
  5
10
100
AcDbEntity
 67
               1
  8
0
390
0
100
AcDbBlockEnd
  0
BLOCK
  5
44
100
AcDbEntity
  8
0
390
0
100
AcDbBlockBegin
  2
_DOT
 70
               0
 10
0.0
 20
0.0
 30
0.0
  3
_DOT
  1

  0
POLYLINE
  5
45
100
AcDbEntity
  8
0
370
              -2
390
0
  6
ByBlock
 62
               0
100
AcDb2dPolyline
 66
               1
 10
0.0
 20
0.0
 30
0.0
 70
               1
 40
0.5
 41
0.5
  0
VERTEX
  5
46
100
AcDbEntity
  8
0
370
              -2
390
0
  6
ByBlock
 62
               0
100
AcDbVertex
100
AcDb2dVertex
 10
-0.25
 20
0.0
 30
0.0
 42
1.0
  0
VERTEX
  5
47
100
AcDbEntity
  8
0
370
              -2
390
0
  6
ByBlock
 62
               0
100
AcDbVertex
100
AcDb2dVertex
 10
0.25
 20
0.0
 30
0.0
 42
1.0
  0
SEQEND
  5
48
100
AcDbEntity
  8
0
390
0
  0
LINE
  5
49
100
AcDbEntity
  8
0
370
              -2
390
0
  6
ByBlock
 62
               0
100
AcDbLine
 10
-0.5
 20
0.0
 30
0.0
 11
-1.0
 21
0.0
 31
0.0
  0
ENDBLK
  5
4A
100
AcDbEntity
  8
0
390
0
100
AcDbBlockEnd
  0
BLOCK
  5
4D
100
AcDbEntity
  8
0
370
              -2
390
0
  6
ByBlock
 62
               0
100
AcDbBlockBegin
  2
VW_FILLEDARROW
 70
               0
 10
0.0
 20
0.0
 30
0.0
  3
VW_FILLEDARROW
  1

  0
SOLID
  5
4E
100
AcDbEntity
  8
0
370
              -2
390
0
 62
               0
100
AcDbTrace
 10
0.0
 20
0.0
 30
0.0
 11
-0.9921874999999999
 21
-0.2658558393652545
 31
0.0
 12
-0.9921874999999999
 22
0.2658558393652548
 32
0.0
 13
-0.9921874999999999
 23
0.2658558393652548
 33
0.0
  0
ENDBLK
  5
4F
100
AcDbEntity
  8
0
390
0
100
AcDbBlockEnd
  0
BLOCK
  5
51
100
AcDbEntity
  8
template
390
0
100
AcDbBlockBegin
  2
グループ
 70
               0
 10
0.0
 20
0.0
 30
0.0
  3
グループ
  1

  0
LWPOLYLINE
  5
52
100
AcDbEntity
  8
0
370
              15
390
0
  6
Continuous
 62
               7
100
AcDbPolyline
 90
        8
 70
             129
 10
887.42850780307481
 20
-1334.4897206996945
 10
887.42850780307481
 20
-1340.4871093932704
 10
877.92731088507151
 20
-1340.4871093932704
 10
877.92731088507151
 20
-1364.9380726567792
 10
869.57193362328871
 20
-1364.9380726567792
 10
869.57193362328871
 20
-1340.4871093932704
 10
860.23897667697929
 20
-1340.4871093932704
 10
860.23897667697929
 20
-1334.4897206996945
  0
LWPOLYLINE
  5
53
100
AcDbEntity
  8
0
370
              15
390
0
  6
Continuous
 62
               7
100
AcDbPolyline
 90
      101
 70
             128
 10
900.15679963363175
 20
-1335.217969192631
 10
900.17214966241681
 20
-1335.2136084359458
 42
-0.0222221607812283
 10
900.46215423908779
 20
-1335.1449839707013
 10
900.47794800308122
 20
-1335.1419805476044
 42
-0.0146883565586972
 10
900.74065070830557
 20
-1335.099977360655
 42
-0.0127458844187455
 10
901.00528967545358
 20
-1335.0724403925828
 10
901.06774475377142
 20
-1335.0675469699943
 42
-0.0198099018566943
 10
901.45859386324832
 20
-1335.0524618125978
 10
901.51040533269202
 20
-1335.0525155882628
 42
-0.0147617382765128
 10
902.00502879366343
 20
-1335.0676356135075
 10
902.07772024853898
 20
-1335.0720082203952
 42
-0.0162624549004852
 10
902.46787387800578
 20
-1335.1082410956676
 10
902.58940626927017
 20
-1335.1235276546647
 42
-0.0080020874660664
 10
902.73498530035658
 20
-1335.1442105019325
 10
902.77330477094858
 20
-1335.1502817797432
 42
-0.0053821929678304
 10
902.84178887626638
 20
-1335.1618893035652
 10
902.11538317706777
 20
-1337.3428177592791
 42
0.0108667757395206
 10
902.04806610693299
 20
-1337.3296306440584
 10
902.01059808374748
 20
-1337.3231329014648
 42
0.0170663203307695
 10
901.8673812968334
 20
-1337.3033033041731
 10
901.79950596414892
 20
-1337.2962561335855
 42
0.0220162375276329
 10
901.51912655629246
 20
-1337.2795737728154
 10
901.44127098924173
 20
-1337.2783744055489
 42
0.0282606915783826
 10
901.10563466566362
 20
-1337.2921776825178
 10
901.06172139189118
 20
-1337.2964776725216
 42
0.0169677213690546
 10
900.8157968969324
 20
-1337.3290147220737
 42
0.0190576269865374
 10
900.57288893435555
 20
-1337.3791615941791
 10
900.56662974624146
 20
-1337.3807045682893
 42
0.0213685642844021
 10
900.3162452617612
 20
-1337.4539048533948
 10
900.3107553668475
 20
-1337.455767849453
 42
0.0237595297591213
 10
900.05726048194606
 20
-1337.5554523713497
 10
900.05215840791914
 20
-1337.5577441468267
 42
0.0261857468810989
 10
899.79998763168908
 20
-1337.6872804842012
 10
899.78956144260292
 20
-1337.6933459586692
 42
0.0272553062019101
 10
899.55313166736369
 20
-1337.8487181646142
 10
899.51836865385121
 20
-1337.8743793127087
 42
0.0325996893180971
 10
899.36821331020269
 20
-1338.0011271856777
 10
899.34450388107427
 20
-1338.0239452141957
 42
0.0138050960639914
 10
899.25262072486953
 20
-1338.1173948757423
 42
0.0125280103805281
 10
899.16577819203565
 20
-1338.2155582023427
 10
899.14209774712765
 20
-1338.2437167005296
 42
0.0205218024729119
 10
899.01699767161574
 20
-1338.4055100147561
 10
898.99453133112684
 20
-1338.4371697445856
 42
0.0163110129581913
 10
898.83882095187528
 20
-1338.6725001796558
 10
898.83609705582455
 20
-1338.676923941641
 42
0.0131897341896935
 10
898.68929653491978
 20
-1338.9300560340032
 10
898.68759643955218
 20
-1338.933174273141
 42
0.0107895576059858
 10
898.54981973734516
 20
-1339.1993894827688
 10
898.5490868478164
 20
-1339.2008837154228
 42
0.0091371507219095
 10
898.42060689916514
 20
-1339.4754089131864
 10
898.3908612677576
 20
-1339.5421154203414
 42
0.0135418326351206
 10
898.21914732868856
 20
-1339.9570532056034
 10
898.1855425202524
 20
-1340.0449193478896
 42
0.0092834542409608
 10
898.01431346033087
 20
-1340.5188178461967
 10
897.98869633261734
 20
-1340.5940589159779
 42
0.0054261043577207
 10
897.88105818432018
 20
-1340.921822889055
 10
897.86353219811349
 20
-1340.9772110513777
 42
0.0008225090822161
 10
897.79486214631277
 20
-1341.1954798094343
 10
896.8101730143793
 20
-1344.2203711026909
 10
900.04279685445317
 20
-1344.2203711026909
 10
899.53860442459973
 20
-1346.1248494010433
 10
896.28254814261641
 20
-1346.1248494010433
 10
890.45339911026258
 20
-1364.9380724670482
 10
888.62830149995227
 20
-1364.9380724670482
 10
894.4629795354532
 20
-1346.1248494010433
 10
892.05786316641286
 20
-1346.1248494010433
 10
892.5620555962663
 20
-1344.2203711026909
 10
894.99060440721632
 20
-1344.2203711026909
 10
895.85075932540497
 20
-1341.583958101992
 42
-0.0005863560650262
 10
895.88749400353095
 20
-1341.4671316819461
 10
895.96358183726886
 20
-1341.2261393823148
 42
-0.0087522378925693
 10
896.16304998072576
 20
-1340.6308632951682
 10
896.25531425613713
 20
-1340.370723126661
 42
-0.0077400953830536
 10
896.51324791527031
 20
-1339.677718449107
 10
896.52901288684689
 20
-1339.6372875657269
 42
-0.0082369946330518
 10
896.77609735746114
 20
-1339.0332084995252
 42
-0.0085725238363833
 10
897.0433434534657
 20
-1338.4377824602348
 10
897.14497305447333
 20
-1338.2213613582492
 42
-0.0168109410595879
 10
897.43191748320146
 20
-1337.6601538321488
 10
897.55776087367406
 20
-1337.4331897991267
 42
-0.0007817726859269
 10
897.61204522371713
 20
-1337.3356455541202
 10
897.61217352973449
 20
-1337.3354158453837
 42
-0.0036626142157143
 10
897.6670613937556
 20
-1337.2388179654154
 42
-0.0080221150679748
 10
897.72418564916165
 20
-1337.1435387306637
 10
897.75488560052349
 20
-1337.0941477815404
 42
-0.020213932556849
 10
897.88254134033025
 20
-1336.9061661808589
 10
897.93660880551784
 20
-1336.833087316618
 42
-0.0249323791798447
 10
898.1957715992371
 20
-1336.5170420744635
 10
898.219911413364
 20
-1336.490427801551
 42
-0.0242132121536684
 10
898.55959215490498
 20
-1336.150544315348
 10
898.60750372765756
 20
-1336.1070351791602
 42
-0.025101752785879
 10
898.8914854282973
 20
-1335.8740424333964
 10
898.8929309051116
 20
-1335.8729731758172
 42
-0.0130868069040762
 10
899.19119155506837
 20
-1335.6641927072749
 10
899.19275337420993
 20
-1335.6631592670005
 42
-0.0290329526391372
 10
899.50386451560439
 20
-1335.4823337653706
 10
899.53371007759586
 20
-1335.4672313825283
 42
-0.0160250190043653
 10
899.79961449135521
 20
-1335.3432152723176
 42
-0.0267600374781006
 10
900.07489056882639
 20
-1335.2424669517684
 10
900.10162648834478
 20
-1335.2342743929435
 42
-0.0049981587670053
 10
900.15679963363175
 20
-1335.217969192631
 42
-0.0049981587670053
  0
LWPOLYLINE
  5
54
100
AcDbEntity
  8
0
370
              15
390
0
  6
Continuous
 62
               7
100
AcDbPolyline
 90
      118
 70
             128
 10
919.97116719807866
 20
-1344.2943544305183
 10
921.84628912257813
 20
-1344.2943544305183
 10
921.00825021697824
 20
-1346.9759209569183
 42
-0.0010587229211422
 10
921.03970603257619
 20
-1346.9390164235324
 10
921.09790012318217
 20
-1346.8710341673873
 42
-0.0071874740407281
 10
921.24827534128485
 20
-1346.7003934753532
 10
921.38999811454244
 20
-1346.5441573340449
 42
-0.0148118053512363
 10
921.84012740725746
 20
-1346.0765434880298
 10
921.92734974215796
 20
-1345.9911461671775
 42
-0.0086273358692412
 10
922.26289854316542
 20
-1345.673770533162
 10
922.30673225939188
 20
-1345.6337208888285
 42
-0.0103138323110657
 10
922.56475596162477
 20
-1345.4075577514907
 10
922.61053036794067
 20
-1345.3690757042398
 42
-0.0060206748566775
 10
922.78337843206407
 20
-1345.227281053476
 10
922.78540956294921
 20
-1345.2256553478453
 42
-0.0067069027288388
 10
922.95770237761258
 20
-1345.0915047140497
 10
922.96025114353938
 20
-1345.0895745441737
 42
-0.0076184352042701
 10
923.13115640940987
 20
-1344.9641996689306
 42
-0.0089652861674684
 10
923.30611737214042
 20
-1344.8445664086009
 10
923.34246909229182
 20
-1344.8206551951137
 42
-0.0156916245935726
 10
923.5384285894495
 20
-1344.7003927086407
 42
-0.002329901106332
 10
923.7386906333893
 20
-1344.5872147691223
 10
923.75407476580915
 20
-1344.5786147740353
 42
-0.0107669341484053
 10
923.98831159090878
 20
-1344.4542146406866
 10
924.0105763919853
 20
-1344.4429978907358
 42
-0.0078058045895926
 10
924.29416650993699
 20
-1344.3056364350978
 10
924.30407359764718
 20
-1344.3010273072289
 42
-0.0181829330473932
 10
924.61438300225871
 20
-1344.1701635661348
 10
924.66843844483174
 20
-1344.1496484461888
 42
-0.0208411536025736
 10
925.01752341227984
 20
-1344.0335579836965
 10
925.03187951240682
 20
-1344.0294395387432
 42
-0.0222799817135775
 10
925.3605993063245
 20
-1343.9507979726027
 10
925.36948826956063
 20
-1343.9490859620178
 42
-0.0215509523883926
 10
925.68595923784142
 20
-1343.9021702734835
 10
925.72844119889146
 20
-1343.8977327466926
 42
-0.0182545924873499
 10
925.96254997819551
 20
-1343.8818889213017
 10
926.00195099454572
 20
-1343.8806643762223
 42
-0.0072962856529102
 10
926.15787387423256
 20
-1343.8780950477003
 10
926.18697354479764
 20
-1343.8780402122966
 42
-0.0059227516312817
 10
926.2847230439495
 20
-1343.8790139240868
 10
926.31396526140736
 20
-1343.8796516906898
 42
-0.0011833111893293
 10
926.35321654515383
 20
-1343.8806006950003
 10
925.55782994954666
 20
-1346.4193346400994
 42
0.0143932051524636
 10
925.53142856719489
 20
-1346.4091356700535
 10
925.52415659477879
 20
-1346.4065644511966
 42
0.0234388603494022
 10
925.48232572884672
 20
-1346.3939452154814
 10
925.47364406593397
 20
-1346.3917642534764
 42
0.0199162742989678
 10
925.41335523185239
 20
-1346.3791475181411
 10
925.39254129404776
 20
-1346.3756503187128
 42
0.029364355067075
 10
925.28946643528752
 20
-1346.3645002730595
 10
925.26478125456833
 20
-1346.363288656041
 42
0.0214606686869901
 10
925.11164033861701
 20
-1346.3623500956237
 10
925.10226842779787
 20
-1346.362695007168
 42
0.0167564054187931
 10
924.93074823669042
 20
-1346.374772049536
 10
924.92228844393048
 20
-1346.3756533899632
 42
0.0137677553246253
 10
924.73493513066614
 20
-1346.4004026985065
 10
924.72758339115785
 20
-1346.4015806184746
 42
0.0118497261481205
 10
924.52708562705527
 20
-1346.4385979686638
 10
924.52093561980928
 20
-1346.4398848313838
 42
0.0106421143891936
 10
924.31005473252526
 20
-1346.4887172069584
 10
924.30514592413522
 20
-1346.4899645496437
 42
0.0099746379706426
 10
924.08668745497073
 20
-1346.5501390779591
 10
924.02513941480242
 20
-1346.5684209565891
 42
0.0191613675860962
 10
923.68915495228782
 20
-1346.6823983368758
 10
923.60109517953936
 20
-1346.7160852472011
 42
0.0205274080147135
 10
923.21578840764073
 20
-1346.8819136550267
 10
923.15813912565523
 20
-1346.9095816196007
 42
0.0181256912193595
 10
922.89986218499178
 20
-1347.0452654385767
 10
922.84690680167512
 20
-1347.075583051793
 42
0.0140709242412418
 10
922.7019518670495
 20
-1347.164077725226
 10
922.6757029984326
 20
-1347.1811345439405
 42
0.0086667884399223
 10
922.58677683688848
 20
-1347.2411372118243
 42
0.003640819201488
 10
922.4993435988797
 20
-1347.3033180695988
 10
922.46411672438649
 20
-1347.3287590155294
 42
0.0052260781283436
 10
922.30788802698567
 20
-1347.4440914021709
 10
922.29168117073573
 20
-1347.4563195127816
 42
0.0050024435892504
 10
922.1056778276743
 20
-1347.599602081046
 10
922.09035967116176
 20
-1347.6116481034896
 42
0.0136138710277092
 10
921.87991840283541
 20
-1347.7866146084041
 10
921.84625052704291
 20
-1347.8161935811172
 42
0.0172815186909998
 10
921.58184698538162
 20
-1348.0651902537393
 10
921.57928463953772
 20
-1348.0677760708877
 42
0.0189403857991616
 10
921.32870284095702
 20
-1348.340581335694
 10
921.29607134742253
 20
-1348.3789252671895
 42
0.0185044199506342
 10
921.10411490844263
 20
-1348.6221738483123
 42
0.0088565243901835
 10
920.92565480181418
 20
-1348.8756902684622
 10
920.91647682216569
 20
-1348.8892316482222
 42
0.0157195347233255
 10
920.73325621582558
 20
-1349.1787538575481
 10
920.68717327389959
 20
-1349.2569060545607
 42
0.009545187978228
 10
920.52208772376309
 20
-1349.5495006969154
 10
920.51093980483051
 20
-1349.5701713690528
 42
0.0100351706259463
 10
920.3788960556742
 20
-1349.827226929538
 42
0.0086935915427105
 10
920.25656490388042
 20
-1350.0890600749419
 10
920.25324416246565
 20
-1350.0965023979143
 42
0.0072580174868562
 10
920.13289771051973
 20
-1350.3770943894997
 10
920.1296360772144
 20
-1350.3850144155153
 42
0.0060005122612748
 10
920.01043540887395
 20
-1350.6846240861144
 10
920.00722443053007
 20
-1350.692985614025
 42
0.0049017786976095
 10
919.88832427167415
 20
-1351.0119145946253
 10
919.88515846528219
 20
-1351.02066753186
 42
0.0039415167601332
 10
919.76572218722583
 20
-1351.3592095942722
 10
919.76259108457339
 20
-1351.3683127951492
 42
0.0031035838762639
 10
919.64178629888477
 20
-1351.7267526569092
 10
919.63867625434989
 20
-1351.7361732782974
 42
0.0025070747152459
 10
919.51577490304032
 20
-1352.1148204952235
 10
919.47848100660917
 20
-1352.2317121604945
 42
0.002908191028505
 10
919.28646270879403
 20
-1352.8458758187999
 10
919.24565954028128
 20
-1352.979099061062
 42
0.000926645373586
 10
918.97724216595384
 20
-1353.8613235210275
 10
918.95635469330819
 20
-1353.9304354002802
 42
-0.0005809993665352
 10
918.67901801273479
 20
-1354.8442435068605
 10
918.61273621449902
 20
-1355.0617284388984
 42
-0.0012018708166935
 10
918.46575190503268
 20
-1355.5398911035409
 10
918.41343205360374
 20
-1355.7086502439658
 42
-0.0002691059621864
 10
918.36986257229853
 20
-1355.8489178647485
 10
915.53690667400929
 20
-1364.9380724670482
 10
913.71891778203076
 20
-1364.9380724670482
 10
919.97116719807866
 20
-1344.2943544305183
  0
SPLINE
  5
55
100
AcDbEntity
  8
0
370
              15
390
0
  6
Continuous
 62
               7
100
AcDbSpline
210
0.0
220
0.0
230
1.0
 70
              13
 71
               2
 72
             782
 73
             779
 74
               0
 42
0.000001
 43
0.000001
 40
0.0
 40
0.0
 40
0.0
 40
1.0
 40
1.0
 40
2.0
 40
2.0
 40
3.0
 40
3.0
 40
4.0
 40
4.0
 40
5.0
 40
5.0
 40
6.0
 40
6.0
 40
7.0
 40
7.0
 40
8.0
 40
8.0
 40
9.0
 40
9.0
 40
10.0
 40
10.0
 40
11.0
 40
11.0
 40
12.0
 40
12.0
 40
13.0
 40
13.0
 40
14.0
 40
14.0
 40
15.0
 40
15.0
 40
16.0
 40
16.0
 40
17.0
 40
17.0
 40
18.0
 40
18.0
 40
19.0
 40
19.0
 40
20.0
 40
20.0
 40
21.0
 40
21.0
 40
22.0
 40
22.0
 40
23.0
 40
23.0
 40
24.0
 40
24.0
 40
25.0
 40
25.0
 40
26.0
 40
26.0
 40
27.0
 40
27.0
 40
28.0
 40
28.0
 40
29.0
 40
29.0
 40
30.0
 40
30.0
 40
31.0
 40
31.0
 40
32.0
 40
32.0
 40
33.0
 40
33.0
 40
34.0
 40
34.0
 40
35.0
 40
35.0
 40
36.0
 40
36.0
 40
37.0
 40
37.0
 40
38.0
 40
38.0
 40
39.0
 40
39.0
 40
40.0
 40
40.0
 40
41.0
 40
41.0
 40
42.0
 40
42.0
 40
43.0
 40
43.0
 40
44.0
 40
44.0
 40
45.0
 40
45.0
 40
46.0
 40
46.0
 40
47.0
 40
47.0
 40
48.0
 40
48.0
 40
49.0
 40
49.0
 40
50.0
 40
50.0
 40
51.0
 40
51.0
 40
52.0
 40
52.0
 40
53.0
 40
53.0
 40
54.0
 40
54.0
 40
55.0
 40
55.0
 40
56.0
 40
56.0
 40
57.0
 40
57.0
 40
58.0
 40
58.0
 40
59.0
 40
59.0
 40
60.0
 40
60.0
 40
61.0
 40
61.0
 40
62.0
 40
62.0
 40
63.0
 40
63.0
 40
64.0
 40
64.0
 40
65.0
 40
65.0
 40
66.0
 40
66.0
 40
67.0
 40
67.0
 40
68.0
 40
68.0
 40
69.0
 40
69.0
 40
70.0
 40
70.0
 40
71.0
 40
71.0
 40
72.0
 40
72.0
 40
73.0
 40
73.0
 40
74.0
 40
74.0
 40
75.0
 40
75.0
 40
76.0
 40
76.0
 40
77.0
 40
77.0
 40
78.0
 40
78.0
 40
79.0
 40
79.0
 40
80.0
 40
80.0
 40
81.0
 40
81.0
 40
82.0
 40
82.0
 40
83.0
 40
83.0
 40
84.0
 40
84.0
 40
85.0
 40
85.0
 40
86.0
 40
86.0
 40
87.0
 40
87.0
 40
88.0
 40
88.0
 40
89.0
 40
89.0
 40
90.0
 40
90.0
 40
91.0
 40
91.0
 40
92.0
 40
92.0
 40
93.0
 40
93.0
 40
94.0
 40
94.0
 40
95.0
 40
95.0
 40
96.0
 40
96.0
 40
97.0
 40
97.0
 40
98.0
 40
98.0
 40
99.0
 40
99.0
 40
100.0
 40
100.0
 40
101.0
 40
101.0
 40
102.0
 40
102.0
 40
103.0
 40
103.0
 40
104.0
 40
104.0
 40
105.0
 40
105.0
 40
106.0
 40
106.0
 40
107.0
 40
107.0
 40
108.0
 40
108.0
 40
109.0
 40
109.0
 40
110.0
 40
110.0
 40
111.0
 40
111.0
 40
112.0
 40
112.0
 40
113.0
 40
113.0
 40
114.0
 40
114.0
 40
115.0
 40
115.0
 40
116.0
 40
116.0
 40
117.0
 40
117.0
 40
118.0
 40
118.0
 40
119.0
 40
119.0
 40
120.0
 40
120.0
 40
121.0
 40
121.0
 40
122.0
 40
122.0
 40
123.0
 40
123.0
 40
124.0
 40
124.0
 40
125.0
 40
125.0
 40
126.0
 40
126.0
 40
127.0
 40
127.0
 40
128.0
 40
128.0
 40
129.0
 40
129.0
 40
130.0
 40
130.0
 40
131.0
 40
131.0
 40
132.0
 40
132.0
 40
133.0
 40
133.0
 40
134.0
 40
134.0
 40
135.0
 40
135.0
 40
136.0
 40
136.0
 40
137.0
 40
137.0
 40
138.0
 40
138.0
 40
139.0
 40
139.0
 40
140.0
 40
140.0
 40
141.0
 40
141.0
 40
142.0
 40
142.0
 40
143.0
 40
143.0
 40
144.0
 40
144.0
 40
145.0
 40
145.0
 40
146.0
 40
146.0
 40
147.0
 40
147.0
 40
148.0
 40
148.0
 40
149.0
 40
149.0
 40
150.0
 40
150.0
 40
151.0
 40
151.0
 40
152.0
 40
152.0
 40
153.0
 40
153.0
 40
154.0
 40
154.0
 40
155.0
 40
155.0
 40
156.0
 40
156.0
 40
157.0
 40
157.0
 40
158.0
 40
158.0
 40
159.0
 40
159.0
 40
160.0
 40
160.0
 40
161.0
 40
161.0
 40
162.0
 40
162.0
 40
163.0
 40
163.0
 40
164.0
 40
164.0
 40
165.0
 40
165.0
 40
166.0
 40
166.0
 40
167.0
 40
167.0
 40
168.0
 40
168.0
 40
169.0
 40
169.0
 40
170.0
 40
170.0
 40
171.0
 40
171.0
 40
172.0
 40
172.0
 40
173.0
 40
173.0
 40
174.0
 40
174.0
 40
175.0
 40
175.0
 40
176.0
 40
176.0
 40
177.0
 40
177.0
 40
178.0
 40
178.0
 40
179.0
 40
179.0
 40
180.0
 40
180.0
 40
181.0
 40
181.0
 40
182.0
 40
182.0
 40
183.0
 40
183.0
 40
184.0
 40
184.0
 40
185.0
 40
185.0
 40
186.0
 40
186.0
 40
187.0
 40
187.0
 40
188.0
 40
188.0
 40
189.0
 40
189.0
 40
190.0
 40
190.0
 40
191.0
 40
191.0
 40
192.0
 40
192.0
 40
193.0
 40
193.0
 40
194.0
 40
194.0
 40
195.0
 40
195.0
 40
196.0
 40
196.0
 40
197.0
 40
197.0
 40
198.0
 40
198.0
 40
199.0
 40
199.0
 40
200.0
 40
200.0
 40
201.0
 40
201.0
 40
202.0
 40
202.0
 40
203.0
 40
203.0
 40
204.0
 40
204.0
 40
205.0
 40
205.0
 40
206.0
 40
206.0
 40
207.0
 40
207.0
 40
208.0
 40
208.0
 40
209.0
 40
209.0
 40
210.0
 40
210.0
 40
211.0
 40
211.0
 40
212.0
 40
212.0
 40
213.0
 40
213.0
 40
214.0
 40
214.0
 40
215.0
 40
215.0
 40
216.0
 40
216.0
 40
217.0
 40
217.0
 40
218.0
 40
218.0
 40
219.0
 40
219.0
 40
220.0
 40
220.0
 40
221.0
 40
221.0
 40
222.0
 40
222.0
 40
223.0
 40
223.0
 40
224.0
 40
224.0
 40
225.0
 40
225.0
 40
226.0
 40
226.0
 40
227.0
 40
227.0
 40
228.0
 40
228.0
 40
229.0
 40
229.0
 40
230.0
 40
230.0
 40
231.0
 40
231.0
 40
232.0
 40
232.0
 40
233.0
 40
233.0
 40
234.0
 40
234.0
 40
235.0
 40
235.0
 40
236.0
 40
236.0
 40
237.0
 40
237.0
 40
238.0
 40
238.0
 40
239.0
 40
239.0
 40
240.0
 40
240.0
 40
241.0
 40
241.0
 40
242.0
 40
242.0
 40
243.0
 40
243.0
 40
244.0
 40
244.0
 40
245.0
 40
245.0
 40
246.0
 40
246.0
 40
247.0
 40
247.0
 40
248.0
 40
248.0
 40
249.0
 40
249.0
 40
250.0
 40
250.0
 40
251.0
 40
251.0
 40
252.0
 40
252.0
 40
253.0
 40
253.0
 40
254.0
 40
254.0
 40
255.0
 40
255.0
 40
256.0
 40
256.0
 40
257.0
 40
257.0
 40
258.0
 40
258.0
 40
259.0
 40
259.0
 40
260.0
 40
260.0
 40
261.0
 40
261.0
 40
262.0
 40
262.0
 40
263.0
 40
263.0
 40
264.0
 40
264.0
 40
265.0
 40
265.0
 40
266.0
 40
266.0
 40
267.0
 40
267.0
 40
268.0
 40
268.0
 40
269.0
 40
269.0
 40
270.0
 40
270.0
 40
271.0
 40
271.0
 40
272.0
 40
272.0
 40
273.0
 40
273.0
 40
274.0
 40
274.0
 40
275.0
 40
275.0
 40
276.0
 40
276.0
 40
277.0
 40
277.0
 40
278.0
 40
278.0
 40
279.0
 40
279.0
 40
280.0
 40
280.0
 40
281.0
 40
281.0
 40
282.0
 40
282.0
 40
283.0
 40
283.0
 40
284.0
 40
284.0
 40
285.0
 40
285.0
 40
286.0
 40
286.0
 40
287.0
 40
287.0
 40
288.0
 40
288.0
 40
289.0
 40
289.0
 40
290.0
 40
290.0
 40
291.0
 40
291.0
 40
292.0
 40
292.0
 40
293.0
 40
293.0
 40
294.0
 40
294.0
 40
295.0
 40
295.0
 40
296.0
 40
296.0
 40
297.0
 40
297.0
 40
298.0
 40
298.0
 40
299.0
 40
299.0
 40
300.0
 40
300.0
 40
301.0
 40
301.0
 40
302.0
 40
302.0
 40
303.0
 40
303.0
 40
304.0
 40
304.0
 40
305.0
 40
305.0
 40
306.0
 40
306.0
 40
307.0
 40
307.0
 40
308.0
 40
308.0
 40
309.0
 40
309.0
 40
310.0
 40
310.0
 40
311.0
 40
311.0
 40
312.0
 40
312.0
 40
313.0
 40
313.0
 40
314.0
 40
314.0
 40
315.0
 40
315.0
 40
316.0
 40
316.0
 40
317.0
 40
317.0
 40
318.0
 40
318.0
 40
319.0
 40
319.0
 40
320.0
 40
320.0
 40
321.0
 40
321.0
 40
322.0
 40
322.0
 40
323.0
 40
323.0
 40
324.0
 40
324.0
 40
325.0
 40
325.0
 40
326.0
 40
326.0
 40
327.0
 40
327.0
 40
328.0
 40
328.0
 40
329.0
 40
329.0
 40
330.0
 40
330.0
 40
331.0
 40
331.0
 40
332.0
 40
332.0
 40
333.0
 40
333.0
 40
334.0
 40
334.0
 40
335.0
 40
335.0
 40
336.0
 40
336.0
 40
337.0
 40
337.0
 40
338.0
 40
338.0
 40
339.0
 40
339.0
 40
340.0
 40
340.0
 40
341.0
 40
341.0
 40
342.0
 40
342.0
 40
343.0
 40
343.0
 40
344.0
 40
344.0
 40
345.0
 40
345.0
 40
346.0
 40
346.0
 40
347.0
 40
347.0
 40
348.0
 40
348.0
 40
349.0
 40
349.0
 40
350.0
 40
350.0
 40
351.0
 40
351.0
 40
352.0
 40
352.0
 40
353.0
 40
353.0
 40
354.0
 40
354.0
 40
355.0
 40
355.0
 40
356.0
 40
356.0
 40
357.0
 40
357.0
 40
358.0
 40
358.0
 40
359.0
 40
359.0
 40
360.0
 40
360.0
 40
361.0
 40
361.0
 40
362.0
 40
362.0
 40
363.0
 40
363.0
 40
364.0
 40
364.0
 40
365.0
 40
365.0
 40
366.0
 40
366.0
 40
367.0
 40
367.0
 40
368.0
 40
368.0
 40
369.0
 40
369.0
 40
370.0
 40
370.0
 40
371.0
 40
371.0
 40
372.0
 40
372.0
 40
373.0
 40
373.0
 40
374.0
 40
374.0
 40
375.0
 40
375.0
 40
376.0
 40
376.0
 40
377.0
 40
377.0
 40
378.0
 40
378.0
 40
379.0
 40
379.0
 40
380.0
 40
380.0
 40
381.0
 40
381.0
 40
382.0
 40
382.0
 40
383.0
 40
383.0
 40
384.0
 40
384.0
 40
385.0
 40
385.0
 40
386.0
 40
386.0
 40
387.0
 40
387.0
 40
388.0
 40
388.0
 40
389.0
 40
389.0
 40
389.0
 10
930.29987164881129
 20
-1344.2834280671559
 30
0.0
 41
1.0
 10
931.11829575753177
 20
-1344.2834280671559
 30
0.0
 41
1.0
 10
931.93671986625225
 20
-1344.2834280671559
 30
0.0
 41
1.0
 10
931.52296613073554
 20
-1345.6260543314056
 30
0.0
 41
1.0
 10
931.10921239521872
 20
-1346.9686805956553
 30
0.0
 41
1.0
 10
931.12755189036329
 20
-1346.9399798227796
 30
0.0
 41
0.9999957264449635
 10
931.14605888718995
 20
-1346.9113867726355
 30
0.0
 41
1.0
 10
931.17648821134094
 20
-1346.8643738942385
 30
0.0
 41
1.0
 10
931.20691753549204
 20
-1346.8173610158415
 30
0.0
 41
1.0
 10
931.2862831805985
 20
-1346.6947422089372
 30
0.0
 41
0.9995394069080581
 10
931.3729415721516
 20
-1346.5771641471943
 30
0.0
 41
1.0
 10
931.40869843440998
 20
-1346.5286492546027
 30
0.0
 41
1.0
 10
931.44445529666837
 20
-1346.4801343620111
 30
0.0
 41
1.0
 10
931.57818196448693
 20
-1346.2986940868836
 30
0.0
 41
0.9994460617143366
 10
931.72368244577569
 20
-1346.1265516892331
 30
0.0
 41
1.0
 10
931.72807062675201
 20
-1346.121360008849
 30
0.0
 41
1.0
 10
931.73245880772845
 20
-1346.1161683284647
 30
0.0
 41
1.0
 10
931.86918292706423
 20
-1345.9544092915828
 30
0.0
 41
0.9994359394934378
 10
932.01645715741506
 20
-1345.8021930904188
 30
0.0
 41
1.0
 10
932.0188405113704
 20
-1345.7997297600436
 30
0.0
 41
1.0
 10
932.02122386532574
 20
-1345.7972664296683
 30
0.0
 41
1.0
 10
932.16373138776817
 20
-1345.6499768892525
 30
0.0
 41
0.9995293688567949
 10
932.31500306874864
 20
-1345.5117036770898
 30
0.0
 41
1.0
 10
932.33429682801216
 20
-1345.4940677914385
 30
0.0
 41
1.0
 10
932.35359058727568
 20
-1345.4764319057872
 30
0.0
 41
1.0
 10
932.46627474973195
 20
-1345.3734304649249
 30
0.0
 41
0.9997087614803569
 10
932.58379763868584
 20
-1345.275986184128
 30
0.0
 41
1.0
 10
932.6029637118711
 20
-1345.2600946056118
 30
0.0
 41
1.0
 10
932.62212978505647
 20
-1345.2442030270959
 30
0.0
 41
1.0
 10
932.70132052764779
 20
-1345.1785419033245
 30
0.0
 41
0.9999595338701152
 10
932.78167979849604
 20
-1345.114316172675
 30
0.0
 41
1.0
 10
932.86203906936078
 20
-1345.0500904420128
 30
0.0
 41
0.9999749417497325
 10
932.94329960370794
 20
-1344.9870088880634
 30
0.0
 41
1.0
 10
932.96428574986498
 20
-1344.970717600766
 30
0.0
 41
1.0
 10
932.98527189602214
 20
-1344.9544263134685
 30
0.0
 41
1.0
 10
933.06983978132359
 20
-1344.8887773036279
 30
0.0
 41
0.9999792037126249
 10
933.15524738109707
 20
-1344.8242245219813
 30
0.0
 41
1.0
 10
933.17607220707259
 20
-1344.8084846996749
 30
0.0
 41
1.0
 10
933.19689703304812
 20
-1344.7927448773687
 30
0.0
 41
1.0
 10
933.2406549809275
 20
-1344.7596717402914
 30
0.0
 41
0.9999993373911212
 10
933.28433666700971
 20
-1344.7264979449135
 30
0.0
 41
1.0
 10
933.32801835315365
 20
-1344.6933241494889
 30
0.0
 41
0.9999160953814502
 10
933.37254476407406
 20
-1344.66129308429
 30
0.0
 41
1.0
 10
933.40536665149284
 20
-1344.6376819287057
 30
0.0
 41
1.0
 10
933.4381885389115
 20
-1344.6140707731215
 30
0.0
 41
1.0
 10
933.54835872467049
 20
-1344.5348173967532
 30
0.0
 41
0.9980964527231465
 10
933.66744771817071
 20
-1344.4697299238976
 30
0.0
 41
1.0
 10
933.70448032510012
 20
-1344.4494899443039
 30
0.0
 41
1.0
 10
933.74151293202942
 20
-1344.4292499647099
 30
0.0
 41
1.0
 10
933.92083994530083
 20
-1344.3312397140096
 30
0.0
 41
0.9984572810572661
 10
934.10992851165884
 20
-1344.2537174526638
 30
0.0
 41
1.0
 10
934.11357478105367
 20
-1344.2522225603261
 30
0.0
 41
1.0
 10
934.11722105044851
 20
-1344.2507276679887
 30
0.0
 41
1.0
 10
934.29901707801673
 20
-1344.1761951913177
 30
0.0
 41
0.9987838528033862
 10
934.48726973657699
 20
-1344.1199295511515
 30
0.0
 41
1.0
 10
934.4915076857742
 20
-1344.1186628974617
 30
0.0
 41
1.0
 10
934.49574563497151
 20
-1344.117396243772
 30
0.0
 41
1.0
 10
934.67552239513429
 20
-1344.0636639109862
 30
0.0
 41
0.9990652816207043
 10
934.85926832685209
 20
-1344.0256602314437
 30
0.0
 41
1.0
 10
934.86445672788182
 20
-1344.0245871283375
 30
0.0
 41
1.0
 10
934.86964512891166
 20
-1344.0235140252314
 30
0.0
 41
1.0
 10
935.04301425856613
 20
-1343.9876565519019
 30
0.0
 41
0.9992909934270049
 10
935.21859002502629
 20
-1343.9649461194351
 30
0.0
 41
1.0
 10
935.39416579148281
 20
-1343.9422356869686
 30
0.0
 41
0.9994553539448723
 10
935.57085722457441
 20
-1343.9311563827625
 30
0.0
 41
1.0
 10
935.60629163237218
 20
-1343.9289344947147
 30
0.0
 41
1.0
 10
935.64172604016983
 20
-1343.9267126066668
 30
0.0
 41
1.0
 10
935.80795180673886
 20
-1343.9162895442551
 30
0.0
 41
0.9990928098293179
 10
935.97446159864103
 20
-1343.9200491854895
 30
0.0
 41
1.0
 10
936.01302343391262
 20
-1343.9209198770225
 30
0.0
 41
1.0
 10
936.05158526918422
 20
-1343.9217905685555
 30
0.0
 41
1.0
 10
936.14097139054343
 20
-1343.9238088267241
 30
0.0
 41
0.99983820892058
 10
936.23022707332984
 20
-1343.9290409532523
 30
0.0
 41
1.0
 10
936.23065697954962
 20
-1343.9290661541545
 30
0.0
 41
1.0
 10
936.2310868857694
 20
-1343.9290913550567
 30
0.0
 41
1.0
 10
936.3194827561158
 20
-1343.9342730797803
 30
0.0
 41
0.9997558016758273
 10
936.40756333331683
 20
-1343.9433555951468
 30
0.0
 41
1.0
 10
936.40803947174948
 20
-1343.9434046926299
 30
0.0
 41
1.0
 10
936.40851561018212
 20
-1343.9434537901127
 30
0.0
 41
1.0
 10
936.49564391052058
 20
-1343.9524381105136
 30
0.0
 41
0.9996565144181721
 10
936.58218176385981
 20
-1343.9659754172021
 30
0.0
 41
1.0
 10
936.58264768923573
 20
-1343.9660483029334
 30
0.0
 41
1.0
 10
936.58311361461176
 20
-1343.9661211886644
 30
0.0
 41
1.0
 10
936.66871961720017
 20
-1343.9795127238908
 30
0.0
 41
0.9995321806867199
 10
936.75334669752976
 20
-1343.9981132123205
 30
0.0
 41
1.0
 10
936.75373589210108
 20
-1343.9981987547862
 30
0.0
 41
1.0
 10
936.7541250866725
 20
-1343.998284297252
 30
0.0
 41
1.0
 10
936.83797377785731
 20
-1344.0167137007497
 30
0.0
 41
0.9993819199219232
 10
936.92032031205395
 20
-1344.0409890840106
 30
0.0
 41
1.0
 10
936.92055874555172
 20
-1344.0410593731199
 30
0.0
 41
1.0
 10
936.92079717904949
 20
-1344.0411296622292
 30
0.0
 41
1.0
 10
937.00266684624944
 20
-1344.0652644672707
 30
0.0
 41
0.9992088568504867
 10
937.0823593652384
 20
-1344.0958297030656
 30
0.0
 41
1.0
 10
937.16204035611736
 20
-1344.1263893037988
 30
0.0
 41
0.9990226101773279
 10
937.23871102602459
 20
-1344.1638667354132
 30
0.0
 41
1.0
 10
937.31537016782215
 20
-1344.2013385319663
 30
0.0
 41
0.9988424273972592
 10
937.38807379503442
 20
-1344.2460033072193
 30
0.0
 41
1.0
 10
937.38834150341404
 20
-1344.2461677712918
 30
0.0
 41
1.0
 10
937.38860921179366
 20
-1344.2463322353642
 30
0.0
 41
1.0
 10
937.46184825576483
 20
-1344.2913259387617
 30
0.0
 41
0.9986928844490697
 10
937.53011112247441
 20
-1344.3435616730412
 30
0.0
 41
1.0
 10
937.53069241469711
 20
-1344.3440064862691
 30
0.0
 41
1.0
 10
937.53127370691982
 20
-1344.344451299497
 30
0.0
 41
1.0
 10
937.6006991580748
 20
-1344.3975766602321
 30
0.0
 41
0.9986007262277985
 10
937.66412532784125
 20
-1344.4577374299254
 30
0.0
 41
1.0
 10
937.66501974329879
 20
-1344.4585857977609
 30
0.0
 41
1.0
 10
937.66591415875632
 20
-1344.4594341655961
 30
0.0
 41
1.0
 10
937.73112915943818
 20
-1344.5212916709604
 30
0.0
 41
0.9985581491381195
 10
937.78933677113935
 20
-1344.5897841612316
 30
0.0
 41
1.0
 10
937.79859522473498
 20
-1344.6006785189334
 30
0.0
 41
1.0
 10
937.80785367833073
 20
-1344.6115728766349
 30
0.0
 41
1.0
 10
937.8845781972243
 20
-1344.7018540823103
 30
0.0
 41
0.9970460233520636
 10
937.9465700983842
 20
-1344.8028211664925
 30
0.0
 41
1.0
 10
937.96103946346375
 20
-1344.8263876255737
 30
0.0
 41
1.0
 10
937.9755088285433
 20
-1344.8499540846551
 30
0.0
 41
1.0
 10
938.01524552855506
 20
-1344.9146738086863
 30
0.0
 41
0.9988468816637008
 10
938.0485918993063
 20
-1344.9829062611134
 30
0.0
 41
1.0
 10
938.05562792179842
 20
-1344.9973031822519
 30
0.0
 41
1.0
 10
938.06266394429053
 20
-1345.0117001033907
 30
0.0
 41
1.0
 10
938.08193827005812
 20
-1345.0511387135418
 30
0.0
 41
0.9998431189996929
 10
938.09980359755286
 20
-1345.0912352679818
 30
0.0
 41
1.0
 10
938.11766892506489
 20
-1345.1313318224611
 30
0.0
 41
0.9999989989972418
 10
938.13564764850821
 20
-1345.1713776600923
 30
0.0
 41
1.0
 10
938.14181996008324
 20
-1345.185125876862
 30
0.0
 41
1.0
 10
938.14799227165827
 20
-1345.1988740936317
 30
0.0
 41
1.0
 10
938.17831561826631
 20
-1345.2664163648346
 30
0.0
 41
0.999879035632118
 10
938.20652349840441
 20
-1345.3348691167726
 30
0.0
 41
1.0
 10
938.21335867969003
 20
-1345.3514562182031
 30
0.0
 41
1.0
 10
938.22019386097566
 20
-1345.3680433196337
 30
0.0
 41
1.0
 10
938.24375152335676
 20
-1345.4252112745212
 30
0.0
 41
0.9998227574560588
 10
938.26514027174494
 20
-1345.4832255827955
 30
0.0
 41
1.0
 10
938.28652902013471
 20
-1345.5412398910746
 30
0.0
 41
0.9996797971041512
 10
938.30495530509313
 20
-1345.6002620101901
 30
0.0
 41
1.0
 10
938.30885910781876
 20
-1345.6127664683595
 30
0.0
 41
1.0
 10
938.31276291054451
 20
-1345.6252709265291
 30
0.0
 41
1.0
 10
938.33899680095487
 20
-1345.7093019619851
 30
0.0
 41
0.9979274938734355
 10
938.35422132443409
 20
-1345.7960063206456
 30
0.0
 41
1.0
 10
938.35644501169509
 20
-1345.8086703214658
 30
0.0
 41
1.0
 10
938.35866869895608
 20
-1345.8213343222858
 30
0.0
 41
1.0
 10
938.36959863865457
 20
-1345.8835808295769
 30
0.0
 41
0.999498598213714
 10
938.37656680383157
 20
-1345.9463943307201
 30
0.0
 41
1.0
 10
938.38353496900845
 20
-1346.0092078318596
 30
0.0
 41
0.9996372611201208
 10
938.38711083477585
 20
-1346.072305410536
 30
0.0
 41
1.0
 10
938.38727941226534
 20
-1346.0752800276223
 30
0.0
 41
1.0
 10
938.38744798975495
 20
-1346.0782546447085
 30
0.0
 41
1.0
 10
938.39136101050133
 20
-1346.1473014575524
 30
0.0
 41
0.9997730630736045
 10
938.3923293239892
 20
-1346.2164522815781
 30
0.0
 41
1.0
 10
938.39238643040744
 20
-1346.2205304607253
 30
0.0
 41
1.0
 10
938.39244353682557
 20
-1346.2246086398725
 30
0.0
 41
1.0
 10
938.39352606314992
 20
-1346.3019158221869
 30
0.0
 41
0.9998772614069398
 10
938.3921859764182
 20
-1346.3792189687476
 30
0.0
 41
1.0
 10
938.39209671321942
 20
-1346.3843681325861
 30
0.0
 41
1.0
 10
938.39200745002063
 20
-1346.3895172964246
 30
0.0
 41
1.0
 10
938.39048883689145
 20
-1346.4771187706574
 30
0.0
 41
0.9999415567327031
 10
938.38707652664561
 20
-1346.5646669323307
 30
0.0
 41
1.0
 10
938.38683520597021
 20
-1346.5708583920696
 30
0.0
 41
1.0
 10
938.38659388529481
 20
-1346.5770498518086
 30
0.0
 41
1.0
 10
938.38269893369932
 20
-1346.6769809329417
 30
0.0
 41
0.9999716810427797
 10
938.37730035058087
 20
-1346.7768420711666
 30
0.0
 41
1.0
 10
938.3740875517916
 20
-1346.8362713208321
 30
0.0
 41
1.0
 10
938.37087475300234
 20
-1346.8957005704976
 30
0.0
 41
1.0
 10
938.36280084384907
 20
-1347.0450489717896
 30
0.0
 41
0.9999819129904685
 10
938.35293105223286
 20
-1347.1942894494941
 30
0.0
 41
1.0
 10
938.34306126061631
 20
-1347.3435299272055
 30
0.0
 41
1.0
 10
938.34062194005242
 20
-1347.3807229730548
 30
0.0
 41
1.0
 10
938.36332017385212
 20
-1347.3419819757778
 30
0.0
 41
0.9999982128158768
 10
938.38616473258503
 20
-1347.3033270818582
 30
0.0
 41
1.0
 10
938.41307429249673
 20
-1347.2577938677575
 30
0.0
 41
1.0
 10
938.43998385240855
 20
-1347.2122606536568
 30
0.0
 41
1.0
 10
938.51664753093371
 20
-1347.0825393315879
 30
0.0
 41
0.9998609190058981
 10
938.59759484379924
 20
-1346.9554469496529
 30
0.0
 41
1.0
 10
938.62724316527749
 20
-1346.9088972167012
 30
0.0
 41
1.0
 10
938.65689148675574
 20
-1346.8623474837495
 30
0.0
 41
1.0
 10
938.7391637069951
 20
-1346.7331749137506
 30
0.0
 41
0.9999067609731702
 10
938.82493271646081
 20
-1346.6062972243071
 30
0.0
 41
1.0
 10
938.82733741966513
 20
-1346.6027399582472
 30
0.0
 41
1.0
 10
938.82974212286945
 20
-1346.5991826921875
 30
0.0
 41
1.0
 10
938.91070172592958
 20
-1346.4794195348591
 30
0.0
 41
0.9998784952151018
 10
938.99535533560618
 20
-1346.3622383181569
 30
0.0
 41
1.0
 10
939.08000894528914
 20
-1346.2450571014463
 30
0.0
 41
0.9998532968284247
 10
939.16862656611295
 20
-1346.1308441929743
 30
0.0
 41
1.0
 10
939.18858835510332
 20
-1346.105116871955
 30
0.0
 41
1.0
 10
939.20855014409381
 20
-1346.0793895509357
 30
0.0
 41
1.0
 10
939.32703419385189
 20
-1345.9266839399684
 30
0.0
 41
0.9991551975795382
 10
939.45765864347482
 20
-1345.7842243778855
 30
0.0
 41
1.0
 10
939.46116825945796
 20
-1345.7803967762575
 30
0.0
 41
1.0
 10
939.46467787544111
 20
-1345.7765691746295
 30
0.0
 41
1.0
 10
939.58828309310161
 20
-1345.6417648157988
 30
0.0
 41
0.9997418144180776
 10
939.71788523279884
 20
-1345.5127154051895
 30
0.0
 41
1.0
 10
939.84748737249856
 20
-1345.3836659945778
 30
0.0
 41
0.9989238204632881
 10
939.98848992074863
 20
-1345.2671810325398
 30
0.0
 41
1.0
 10
940.03373759889155
 20
-1345.2298010409284
 30
0.0
 41
1.0
 10
940.07898527703435
 20
-1345.1924210493169
 30
0.0
 41
1.0
 10
940.21922533425413
 20
-1345.0765659960275
 30
0.0
 41
0.9990825084096954
 10
940.36886526685498
 20
-1344.9731369981969
 30
0.0
 41
1.0
 10
940.37891063091308
 20
-1344.9661937851165
 30
0.0
 41
1.0
 10
940.38895599497118
 20
-1344.9592505720361
 30
0.0
 41
1.0
 10
940.51850519945867
 20
-1344.869708000364
 30
0.0
 41
0.9998164899825629
 10
940.65138940283521
 20
-1344.7851937588475
 30
0.0
 41
1.0
 10
940.66323496335917
 20
-1344.7776599923232
 30
0.0
 41
1.0
 10
940.67508052388314
 20
-1344.7701262257988
 30
0.0
 41
1.0
 10
940.78427360621083
 20
-1344.7006795173313
 30
0.0
 41
0.9997473449130689
 10
940.89647756346085
 20
-1344.6362105595153
 30
0.0
 41
1.0
 10
941.00868152070495
 20
-1344.5717416017026
 30
0.0
 41
0.999932786114679
 10
941.12235013146881
 20
-1344.509891610021
 30
0.0
 41
1.0
 10
941.12290213403207
 20
-1344.5095912513405
 30
0.0
 41
1.0
 10
941.12345413659523
 20
-1344.5092908926599
 30
0.0
 41
1.0
 10
941.23822675248164
 20
-1344.4468401836195
 30
0.0
 41
0.9996956420484265
 10
941.35594007832333
 20
-1344.3901267166441
 30
0.0
 41
1.0
 10
941.38638048321604
 20
-1344.3754607399142
 30
0.0
 41
1.0
 10
941.41682088810865
 20
-1344.3607947631842
 30
0.0
 41
1.0
 10
941.51979799485105
 20
-1344.3111811047413
 30
0.0
 41
0.9998070570176726
 10
941.6246443837905
 20
-1344.2656505178411
 30
0.0
 41
1.0
 10
941.72949077272949
 20
-1344.2201199309407
 30
0.0
 41
0.9997827436147982
 10
941.83614370933537
 20
-1344.1789987596305
 30
0.0
 41
1.0
 10
941.85536655896976
 20
-1344.1715871859969
 30
0.0
 41
1.0
 10
941.87458940860415
 20
-1344.1641756123634
 30
0.0
 41
1.0
 10
942.01968804447711
 20
-1344.1082312937865
 30
0.0
 41
0.9988031841976705
 10
942.16955840708192
 20
-1344.0667312296187
 30
0.0
 41
1.0
 10
942.1944756554459
 20
-1344.0598314838116
 30
0.0
 41
1.0
 10
942.21939290380988
 20
-1344.0529317380046
 30
0.0
 41
1.0
 10
942.38666292945641
 20
-1344.0066135955981
 30
0.0
 41
0.9984748040550251
 10
942.55801983810409
 20
-1343.9790193633335
 30
0.0
 41
1.0
 10
942.56275897435319
 20
-1343.9782562028199
 30
0.0
 41
1.0
 10
942.56749811060229
 20
-1343.9774930423066
 30
0.0
 41
1.0
 10
942.72937674675313
 20
-1343.9514251310686
 30
0.0
 41
0.9984436495479865
 10
942.89315149047775
 20
-1343.9435471772499
 30
0.0
 41
1.0
 10
942.91484869860903
 20
-1343.9425034900503
 30
0.0
 41
1.0
 10
942.93654590674032
 20
-1343.9414598028507
 30
0.0
 41
1.0
 10
943.05692623420248
 20
-1343.9356692234312
 30
0.0
 41
0.9987954789335224
 10
943.17729447911233
 20
-1343.9417057511735
 30
0.0
 41
1.0
 10
943.19725927160812
 20
-1343.9427069955123
 30
0.0
 41
1.0
 10
943.21722406410402
 20
-1343.9437082398508
 30
0.0
 41
1.0
 10
943.29766272402367
 20
-1343.9477422789159
 30
0.0
 41
0.9997941595876758
 10
943.37787150211659
 20
-1343.9550363448368
 30
0.0
 41
1.0
 10
943.45808028021486
 20
-1343.9623304107583
 30
0.0
 41
0.999858946623812
 10
943.53799882707324
 20
-1343.9723142652088
 30
0.0
 41
1.0
 10
943.57040502887787
 20
-1343.9763626221275
 30
0.0
 41
1.0
 10
943.60281123068251
 20
-1343.9804109790464
 30
0.0
 41
1.0
 10
943.74754218115129
 20
-1343.9984915473344
 30
0.0
 41
0.999349506324936
 10
943.8905934249143
 20
-1344.0269572570755
 30
0.0
 41
1.0
 10
943.9235271220673
 20
-1344.0335107202905
 30
0.0
 41
1.0
 10
943.9564608192203
 20
-1344.0400641835056
 30
0.0
 41
1.0
 10
944.06575464242678
 20
-1344.0618125176411
 30
0.0
 41
0.9996788715560496
 10
944.17380621438463
 20
-1344.0890703170046
 30
0.0
 41
1.0
 10
944.17586921692441
 20
-1344.0895907435777
 30
0.0
 41
1.0
 10
944.1779322194642
 20
-1344.0901111701507
 30
0.0
 41
1.0
 10
944.28185778634258
 20
-1344.1163281163681
 30
0.0
 41
0.9995480654492446
 10
944.38402002157045
 20
-1344.1487430729921
 30
0.0
 41
1.0
 10
944.38570966369957
 20
-1344.149279177906
 30
0.0
 41
1.0
 10
944.38739930582869
 20
-1344.1498152828201
 30
0.0
 41
1.0
 10
944.48618225680048
 20
-1344.1811580296167
 30
0.0
 41
0.9993867959456048
 10
944.58252941524245
 20
-1344.2193373989062
 30
0.0
 41
1.0
 10
944.58377236432659
 20
-1344.2198299408021
 30
0.0
 41
1.0
 10
944.58501531341074
 20
-1344.2203224826981
 30
0.0
 41
1.0
 10
944.6788765736834
 20
-1344.2575167681953
 30
0.0
 41
0.9992050256521992
 10
944.76947624871832
 20
-1344.3020706674347
 30
0.0
 41
1.0
 10
944.77021093143162
 20
-1344.302431959896
 30
0.0
 41
1.0
 10
944.77094561414503
 20
-1344.3027932523573
 30
0.0
 41
1.0
 10
944.86007592375188
 20
-1344.3466245666734
 30
0.0
 41
0.999022235074129
 10
944.94498598514542
 20
-1344.3981578343719
 30
0.0
 41
1.0
 10
944.94516987042812
 20
-1344.3982694372767
 30
0.0
 41
1.0
 10
944.94535375571081
 20
-1344.3983810401814
 30
0.0
 41
1.0
 10
945.02989604653919
 20
-1344.4496911020701
 30
0.0
 41
0.9988642743805237
 10
945.10917058115797
 20
-1344.5088152895953
 30
0.0
 41
1.0
 10
945.18844511577709
 20
-1344.5679394771207
 30
0.0
 41
0.9987681233311242
 10
945.26146890005339
 20
-1344.6346301685214
 30
0.0
 41
1.0
 10
945.2617978280191
 20
-1344.6349305697354
 30
0.0
 41
1.0
 10
945.26212675598481
 20
-1344.6352309709496
 30
0.0
 41
1.0
 10
945.33580839619231
 20
-1344.7025224647787
 30
0.0
 41
0.9987496570898801
 10
945.40240220151941
 20
-1344.7768352788653
 30
0.0
 41
1.0
 10
945.40317437127999
 20
-1344.7776969522233
 30
0.0
 41
1.0
 10
945.40394654104057
 20
-1344.7785586255814
 30
0.0
 41
1.0
 10
945.47208468588781
 20
-1344.8545947863824
 30
0.0
 41
0.9988147669826533
 10
945.53250694011274
 20
-1344.9368957932249
 30
0.0
 41
1.0
 10
945.53362626619094
 20
-1344.938420424578
 30
0.0
 41
1.0
 10
945.53474559226913
 20
-1344.9399450559313
 30
0.0
 41
1.0
 10
945.59740649864955
 20
-1345.0252953254787
 30
0.0
 41
0.9989452636216141
 10
945.65197341161104
 20
-1345.1160340146366
 30
0.0
 41
1.0
 10
945.6533221376967
 20
-1345.1182767956627
 30
0.0
 41
1.0
 10
945.65467086378226
 20
-1345.1205195766888
 30
0.0
 41
1.0
 10
945.71193522891485
 20
-1345.2157438278989
 30
0.0
 41
0.9991046436070412
 10
945.76094444223747
 20
-1345.3154682609263
 30
0.0
 41
1.0
 10
945.76240830382699
 20
-1345.318446940998
 30
0.0
 41
1.0
 10
945.76387216541661
 20
-1345.3214256210695
 30
0.0
 41
1.0
 10
945.81580910191849
 20
-1345.4271074142409
 30
0.0
 41
0.9992763831101611
 10
945.85956223047424
 20
-1345.5364314761978
 30
0.0
 41
1.0
 10
945.86104150013716
 20
-1345.5401276637303
 30
0.0
 41
1.0
 10
945.86252076980008
 20
-1345.5438238512631
 30
0.0
 41
1.0
 10
945.90923243768168
 20
-1345.6605402882865
 30
0.0
 41
0.9994163472884043
 10
945.94786546887065
 20
-1345.7801738767475
 30
0.0
 41
1.0
 10
945.94910362111807
 20
-1345.7840080205324
 30
0.0
 41
1.0
 10
945.95034177336549
 20
-1345.7878421643172
 30
0.0
 41
1.0
 10
945.99022533438188
 20
-1345.9113482257926
 30
0.0
 41
0.9997268055891129
 10
946.02429339029436
 20
-1346.036583257745
 30
0.0
 41
1.0
 10
946.02522357056375
 20
-1346.0400026238531
 30
0.0
 41
1.0
 10
946.02615375083315
 20
-1346.0434219899614
 30
0.0
 41
1.0
 10
946.05836144620616
 20
-1346.1618182896948
 30
0.0
 41
0.9996701319000749
 10
946.08444706297678
 20
-1346.2817122429592
 30
0.0
 41
1.0
 10
946.11053267974739
 20
-1346.4016061962225
 30
0.0
 41
0.9995785451108818
 10
946.12961625708704
 20
-1346.5228119572544
 30
0.0
 41
1.0
 10
946.1338360392607
 20
-1346.549613112019
 30
0.0
 41
1.0
 10
946.13805582143436
 20
-1346.5764142667833
 30
0.0
 41
1.0
 10
946.16463079737321
 20
-1346.745200240488
 30
0.0
 41
0.9979925101216325
 10
946.16965638329941
 20
-1346.9159915685789
 30
0.0
 41
1.0
 10
946.17048119572405
 20
-1346.9440222920593
 30
0.0
 41
1.0
 10
946.17130600814869
 20
-1346.9720530155396
 30
0.0
 41
1.0
 10
946.17468196922584
 20
-1347.0867828966691
 30
0.0
 41
0.9995314902262965
 10
946.17103177708725
 20
-1347.2015043804226
 30
0.0
 41
1.0
 10
946.16738158494877
 20
-1347.3162258641753
 30
0.0
 41
0.9996245486944184
 10
946.15745248981773
 20
-1347.4305751353004
 30
0.0
 41
1.0
 10
946.15728944182365
 20
-1347.4324528914347
 30
0.0
 41
1.0
 10
946.15712639382946
 20
-1347.4343306475689
 30
0.0
 41
1.0
 10
946.14687120271003
 20
-1347.5524354309634
 30
0.0
 41
0.9997286095000629
 10
946.1311258791394
 20
-1347.669934339852
 30
0.0
 41
1.0
 10
946.13073238648872
 20
-1347.672870764557
 30
0.0
 41
1.0
 10
946.13033889383792
 20
-1347.6758071892618
 30
0.0
 41
1.0
 10
946.11380658496682
 20
-1347.7991789475539
 30
0.0
 41
0.99982655339696
 10
946.09269112623542
 20
-1347.9218494223353
 30
0.0
 41
1.0
 10
946.09201458409711
 20
-1347.9257798008493
 30
0.0
 41
1.0
 10
946.09133804195881
 20
-1347.9297101793636
 30
0.0
 41
1.0
 10
946.06886949895136
 20
-1348.06024141117
 30
0.0
 41
0.9999022530851953
 10
946.0427600343412
 20
-1348.1900933798095
 30
0.0
 41
1.0
 10
946.04178139317628
 20
-1348.1949605221948
 30
0.0
 41
1.0
 10
946.04080275201125
 20
-1348.1998276645802
 30
0.0
 41
1.0
 10
946.01273600507136
 20
-1348.33941391799
 30
0.0
 41
0.9999524761941223
 10
945.98195303623754
 20
-1348.4784264111499
 30
0.0
 41
1.0
 10
945.98067692906125
 20
-1348.4841891704564
 30
0.0
 41
1.0
 10
945.97940082188484
 20
-1348.4899519297628
 30
0.0
 41
1.0
 10
945.94606563869911
 20
-1348.6404899415327
 30
0.0
 41
0.999981358872146
 10
945.91089463789842
 20
-1348.7906096542088
 30
0.0
 41
1.0
 10
945.90934071244442
 20
-1348.7972422446205
 30
0.0
 41
1.0
 10
945.9077867869903
 20
-1348.8038748350325
 30
0.0
 41
1.0
 10
945.86950793528104
 20
-1348.9672597285344
 30
0.0
 41
0.9999955237627469
 10
945.8302520572995
 20
-1349.1304126321454
 30
0.0
 41
1.0
 10
945.81797042166579
 20
-1349.1814568226655
 30
0.0
 41
1.0
 10
945.80568878603208
 20
-1349.2325010131858
 30
0.0
 41
1.0
 10
945.74186963678494
 20
-1349.4977422978295
 30
0.0
 41
0.9999993604790496
 10
945.67745068959255
 20
-1349.7628385486144
 30
0.0
 41
1.0
 10
945.67273185405668
 20
-1349.7822574566089
 30
0.0
 41
1.0
 10
945.66801301852081
 20
-1349.8016763646033
 30
0.0
 41
1.0
 10
945.59415640025804
 20
-1350.1056104313707
 30
0.0
 41
0.9999659914733309
 10
945.51529680437397
 20
-1350.4082849779259
 30
0.0
 41
1.0
 10
945.5103441154439
 20
-1350.4272941151062
 30
0.0
 41
1.0
 10
945.50539142651382
 20
-1350.4463032522863
 30
0.0
 41
1.0
 10
945.41662645276688
 20
-1350.7869960732105
 30
0.0
 41
0.9999441976022656
 10
945.32068341980107
 20
-1351.1257374985182
 30
0.0
 41
1.0
 10
945.30398290137748
 20
-1351.1847012110388
 30
0.0
 41
1.0
 10
945.28728238295389
 20
-1351.2436649235597
 30
0.0
 41
1.0
 10
945.15793831313624
 20
-1351.7003337739238
 30
0.0
 41
0.9999625120733539
 10
945.02070554580996
 20
-1352.1546943079295
 30
0.0
 41
1.0
 10
944.98491560272953
 20
-1352.2731903345484
 30
0.0
 41
1.0
 10
944.9491256596491
 20
-1352.3916863611671
 30
0.0
 41
1.0
 10
944.87460545560896
 20
-1352.6384134392658
 30
0.0
 41
0.9999793386311562
 10
944.79691943247121
 20
-1352.8841620785024
 30
0.0
 41
1.0
 10
944.7192334093337
 20
-1353.1299107177385
 30
0.0
 41
1.0
 10
944.708453850463
 20
-1353.1639286221132
 30
0.0
 41
1.0
 10
942.85808079719391
 20
-1359.0510005445808
 30
0.0
 41
1.0
 10
941.0077077439247
 20
-1364.9380724670482
 30
0.0
 41
1.0
 10
940.04645105390114
 20
-1364.9380724670482
 30
0.0
 41
1.0
 10
939.08519436387758
 20
-1364.9380724670482
 30
0.0
 41
1.0
 10
940.70413914255596
 20
-1359.7900439652587
 30
0.0
 41
1.0
 10
942.32308392123446
 20
-1354.6420154634693
 30
0.0
 41
1.0
 10
942.36824974440458
 20
-1354.4979842412129
 30
0.0
 41
1.0
 10
942.4134155675747
 20
-1354.3539530189564
 30
0.0
 41
1.0
 10
942.58371998494113
 20
-1353.8108619897812
 30
0.0
 41
0.9999911657896918
 10
942.74945279662597
 20
-1353.2663584584034
 30
0.0
 41
1.0
 10
942.77914874012822
 20
-1353.1687945183471
 30
0.0
 41
1.0
 10
942.80884468363047
 20
-1353.0712305782906
 30
0.0
 41
1.0
 10
942.91518560830787
 20
-1352.7218549270347
 30
0.0
 41
0.9999952428153767
 10
943.01936919763125
 20
-1352.37182990269
 30
0.0
 41
1.0
 10
943.02442866796537
 20
-1352.3548316284096
 30
0.0
 41
1.0
 10
943.02948813829937
 20
-1352.3378333541289
 30
0.0
 41
1.0
 10
943.12355278696339
 20
-1352.0218048783163
 30
0.0
 41
0.9999931687566783
 10
943.21527862482981
 20
-1351.7050896650701
 30
0.0
 41
1.0
 10
943.22021388928147
 20
-1351.6880489558262
 30
0.0
 41
1.0
 10
943.22514915373313
 20
-1351.6710082465822
 30
0.0
 41
1.0
 10
943.30700446269236
 20
-1351.3883744518382
 30
0.0
 41
0.9999893840804685
 10
943.3862516891603
 20
-1351.104998322553
 30
0.0
 41
1.0
 10
943.46549891562086
 20
-1350.8216221932935
 30
0.0
 41
0.999983398006453
 10
943.5414751563643
 20
-1350.5373516102579
 30
0.0
 41
1.0
 10
943.55047909308519
 20
-1350.503662731785
 30
0.0
 41
1.0
 10
943.55948302980596
 20
-1350.4699738533118
 30
0.0
 41
1.0
 10
943.62844757867242
 20
-1350.2119380210147
 30
0.0
 41
0.9999233658064559
 10
943.69100254989064
 20
-1349.9522738623
 30
0.0
 41
1.0
 10
943.75355752111091
 20
-1349.6926097035775
 30
0.0
 41
1.0
 10
943.79304093996848
 20
-1349.5288030391514
 30
0.0
 41
1.0
 10
943.79801954394736
 20
-1349.5081480772742
 30
0.0
 41
1.0
 10
943.80299814792625
 20
-1349.487493115397
 30
0.0
 41
1.0
 10
943.83252435882582
 20
-1349.3649963747262
 30
0.0
 41
0.9999868670868187
 10
943.86079344282223
 20
-1349.2422034290798
 30
0.0
 41
1.0
 10
943.864690929978
 20
-1349.2252738416714
 30
0.0
 41
1.0
 10
943.86858841713376
 20
-1349.2083442542628
 30
0.0
 41
1.0
 10
943.88906252681397
 20
-1349.1194104834542
 30
0.0
 41
0.999977817334604
 10
943.9083501249338
 20
-1349.0302118662039
 30
0.0
 41
1.0
 10
943.92763772304932
 20
-1348.9410132489741
 30
0.0
 41
0.9999602692862193
 10
943.94533208167843
 20
-1348.8514849605554
 30
0.0
 41
1.0
 10
943.94853591375681
 20
-1348.8352745056654
 30
0.0
 41
1.0
 10
943.95173974583531
 20
-1348.8190640507758
 30
0.0
 41
1.0
 10
943.97584176862176
 20
-1348.6971148525761
 30
0.0
 41
0.9995617985319767
 10
943.99268511583989
 20
-1348.5739531048725
 30
0.0
 41
1.0
 10
943.99514960574606
 20
-1348.5559322875069
 30
0.0
 41
1.0
 10
943.99761409565235
 20
-1348.5379114701414
 30
0.0
 41
1.0
 10
944.0178973567007
 20
-1348.3895964204403
 30
0.0
 41
0.9991121410639698
 10
944.0256227102891
 20
-1348.2401003216332
 30
0.0
 41
1.0
 10
944.02654150031367
 20
-1348.222320485057
 30
0.0
 41
1.0
 10
944.02746029033824
 20
-1348.2045406484808
 30
0.0
 41
1.0
 10
944.03334806387738
 20
-1348.0906042228271
 30
0.0
 41
0.9989792494905329
 10
944.02892897176002
 20
-1347.9766013869289
 30
0.0
 41
1.0
 10
944.02828099989119
 20
-1347.9598851409992
 30
0.0
 41
1.0
 10
944.02763302802248
 20
-1347.9431688950697
 30
0.0
 41
1.0
 10
944.02450987964255
 20
-1347.8625985510253
 30
0.0
 41
0.9997820295392715
 10
944.01802588226701
 20
-1347.7822288292864
 30
0.0
 41
1.0
 10
944.01154188489147
 20
-1347.701859107543
 30
0.0
 41
0.9998335105974981
 10
944.00212968937967
 20
-1347.6217794910933
 30
0.0
 41
1.0
 10
944.00053476470327
 20
-1347.60820976061
 30
0.0
 41
1.0
 10
943.99893984002688
 20
-1347.5946400301264
 30
0.0
 41
1.0
 10
943.98633779516229
 20
-1347.4874209527077
 30
0.0
 41
0.9996876457878846
 10
943.96839388236344
 20
-1347.3809655249895
 30
0.0
 41
1.0
 10
943.96616221921863
 20
-1347.3677257897507
 30
0.0
 41
1.0
 10
943.96393055607382
 20
-1347.3544860545117
 30
0.0
 41
1.0
 10
943.95013473465247
 20
-1347.2726399105525
 30
0.0
 41
0.9995547496495519
 10
943.93148141275992
 20
-1347.1917624133609
 30
0.0
 41
1.0
 10
943.93110745588888
 20
-1347.1901410026567
 30
0.0
 41
1.0
 10
943.93073349901783
 20
-1347.1885195919522
 30
0.0
 41
1.0
 10
943.91282809086761
 20
-1347.1108849161708
 30
0.0
 41
0.9994899427175379
 10
943.89000318218791
 20
-1347.0345516333355
 30
0.0
 41
1.0
 10
943.8895446554468
 20
-1347.0330181835457
 30
0.0
 41
1.0
 10
943.88908612870569
 20
-1347.0314847337561
 30
0.0
 41
1.0
 10
943.86717827350833
 20
-1346.9582183505001
 30
0.0
 41
0.9993784877590231
 10
943.84016263840203
 20
-1346.8866776453419
 30
0.0
 41
1.0
 10
943.83963094742512
 20
-1346.8852696626213
 30
0.0
 41
1.0
 10
943.83909925644821
 20
-1346.8838616799007
 30
0.0
 41
1.0
 10
943.81314700329528
 20
-1346.8151369401824
 30
0.0
 41
0.9992430832254525
 10
943.78193046813612
 20
-1346.7486377881146
 30
0.0
 41
1.0
 10
943.7813483520797
 20
-1346.7473977329978
 30
0.0
 41
1.0
 10
943.78076623602328
 20
-1346.7461576778808
 30
0.0
 41
1.0
 10
943.75071393297685
 20
-1346.6821386360468
 30
0.0
 41
0.9990789632799295
 10
943.71528330620004
 20
-1346.6209320242967
 30
0.0
 41
1.0
 10
943.71468760001767
 20
-1346.619902938437
 30
0.0
 41
1.0
 10
943.71409189383542
 20
-1346.6188738525773
 30
0.0
 41
1.0
 10
943.67985267942231
 20
-1346.5597254125453
 30
0.0
 41
0.9988874801120632
 10
943.64019340339132
 20
-1346.5040657001291
 30
0.0
 41
1.0
 10
943.63963787732769
 20
-1346.5032860484553
 30
0.0
 41
1.0
 10
943.63908235126394
 20
-1346.5025063967812
 30
0.0
 41
1.0
 10
943.60053412736033
 20
-1346.4484059877127
 30
0.0
 41
0.998676206069311
 10
943.55663165608303
 20
-1346.3985522732723
 30
0.0
 41
1.0
 10
943.55618769575131
 20
-1346.3980481314561
 30
0.0
 41
1.0
 10
943.55574373541958
 20
-1346.3975439896401
 30
0.0
 41
1.0
 10
943.51272918480731
 20
-1346.3486985588336
 30
0.0
 41
0.9984621642488807
 10
943.46457162802903
 20
-1346.3049152583619
 30
0.0
 41
1.0
 10
943.46432499351272
 20
-1346.3046910261987
 30
0.0
 41
1.0
 10
943.46407835899629
 20
-1346.3044667940353
 30
0.0
 41
1.0
 10
943.41641407125087
 20
-1346.2611319578905
 30
0.0
 41
0.998272469385192
 10
943.36399543940979
 20
-1346.223687607373
 30
0.0
 41
1.0
 10
943.31157680756894
 20
-1346.1862432568557
 30
0.0
 41
0.9981399180158652
 10
943.25499074417519
 20
-1346.1554567374121
 30
0.0
 41
1.0
 10
943.25494508209658
 20
-1346.1554318942549
 30
0.0
 41
1.0
 10
943.25489942001809
 20
-1346.1554070510977
 30
0.0
 41
1.0
 10
943.19822203246781
 20
-1346.1245708453398
 30
0.0
 41
0.9980927086837029
 10
943.13817668140155
 20
-1346.1009540364873
 30
0.0
 41
1.0
 10
943.13773651168981
 20
-1346.1007809106122
 30
0.0
 41
1.0
 10
943.13729634197807
 20
-1346.1006077847373
 30
0.0
 41
1.0
 10
943.07637065148765
 20
-1346.0766447241347
 30
0.0
 41
0.9981411356560805
 10
943.01298213008727
 20
-1346.0602720826289
 30
0.0
 41
1.0
 10
943.01210001338666
 20
-1346.0600442404236
 30
0.0
 41
1.0
 10
943.01121789668605
 20
-1346.0598163982183
 30
0.0
 41
1.0
 10
942.9460651418832
 20
-1346.0429880723016
 30
0.0
 41
0.9983031812935216
 10
942.87939771288757
 20
-1346.0338487111253
 30
0.0
 41
1.0
 10
942.87052668748595
 20
-1346.0326325924543
 30
0.0
 41
1.0
 10
942.86165566208433
 20
-1346.0314164737833
 30
0.0
 41
1.0
 10
942.80730601957862
 20
-1346.0239657437921
 30
0.0
 41
0.998388770826388
 10
942.75246217028428
 20
-1346.0227210701587
 30
0.0
 41
1.0
 10
942.74439876507051
 20
-1346.0225380722839
 30
0.0
 41
1.0
 10
942.73633535985675
 20
-1346.022355074409
 30
0.0
 41
1.0
 10
942.69761832099505
 20
-1346.0214763965253
 30
0.0
 41
0.9998869563076683
 10
942.65889236778878
 20
-1346.0217622658849
 30
0.0
 41
1.0
 10
942.62016641454159
 20
-1346.0220481352449
 30
0.0
 41
0.9999972320166543
 10
942.58144223528654
 20
-1346.0225162347747
 30
0.0
 41
1.0
 10
942.562089218751
 20
-1346.0227501748636
 30
0.0
 41
1.0
 10
942.54273620221534
 20
-1346.0229841149526
 30
0.0
 41
1.0
 10
942.46530598984361
 20
-1346.0239200946603
 30
0.0
 41
0.9997304945087067
 10
942.38800268360478
 20
-1346.0284491884463
 30
0.0
 41
1.0
 10
942.3789530419017
 20
-1346.0289793944362
 30
0.0
 41
1.0
 10
942.3699034001985
 20
-1346.0295096004261
 30
0.0
 41
1.0
 10
942.27450081055122
 20
-1346.0350991061921
 30
0.0
 41
0.9997888306414108
 10
942.17940847470788
 20
-1346.0446040706815
 30
0.0
 41
1.0
 10
942.17068741313608
 20
-1346.0454757853136
 30
0.0
 41
1.0
 10
942.16196635156427
 20
-1346.0463474999456
 30
0.0
 41
1.0
 10
942.04943189257529
 20
-1346.0575958936988
 30
0.0
 41
0.9984170238190229
 10
941.93887274522331
 20
-1346.0814119756349
 30
0.0
 41
1.0
 10
941.90249161423731
 20
-1346.0892490114409
 30
0.0
 41
1.0
 10
941.86611048325142
 20
-1346.0970860472469
 30
0.0
 41
1.0
 10
941.75091941483038
 20
-1346.1218999137564
 30
0.0
 41
0.9976592854198687
 10
941.64019124842548
 20
-1346.1621985909037
 30
0.0
 41
1.0
 10
941.52946308201967
 20
-1346.202497268051
 30
0.0
 41
0.9993255074351625
 10
941.42199128322716
 20
-1346.2508141665444
 30
0.0
 41
1.0
 10
941.41736610430507
 20
-1346.2528935427435
 30
0.0
 41
1.0
 10
941.4127409253831
 20
-1346.2549729189427
 30
0.0
 41
1.0
 10
941.29601876874528
 20
-1346.3074485698348
 30
0.0
 41
0.9976475078274926
 10
941.18757142443451
 20
-1346.3753965594933
 30
0.0
 41
1.0
 10
941.16922903030127
 20
-1346.3868890383069
 30
0.0
 41
1.0
 10
941.15088663616814
 20
-1346.3983815171202
 30
0.0
 41
1.0
 10
941.06668444461548
 20
-1346.451138637889
 30
0.0
 41
0.9995131336406915
 10
940.98593672965615
 20
-1346.5090448498436
 30
0.0
 41
1.0
 10
940.9051890146992
 20
-1346.5669510617963
 30
0.0
 41
0.9995810107606254
 10
940.82792736697081
 20
-1346.629432744262
 30
0.0
 41
1.0
 10
940.82495733576025
 20
-1346.6318346157268
 30
0.0
 41
1.0
 10
940.82198730454979
 20
-1346.6342364871916
 30
0.0
 41
1.0
 10
940.73878559440129
 20
-1346.7015219125865
 30
0.0
 41
0.9996617837954557
 10
940.65919490726583
 20
-1346.7730423681464
 30
0.0
 41
1.0
 10
940.6470641563883
 20
-1346.7839431011375
 30
0.0
 41
1.0
 10
940.63493340551065
 20
-1346.7948438341289
 30
0.0
 41
1.0
 10
940.56665787811448
 20
-1346.8561964496007
 30
0.0
 41
0.9997267750052974
 10
940.5013243698304
 20
-1346.9206729861266
 30
0.0
 41
1.0
 10
940.43599086154632
 20
-1346.9851495226521
 30
0.0
 41
0.9999667288965898
 10
940.37171791839887
 20
-1347.0506833295474
 30
0.0
 41
1.0
 10
940.30289047062433
 20
-1347.1208609883051
 30
0.0
 41
1.0
 10
940.2340630228498
 20
-1347.1910386470627
 30
0.0
 41
1.0
 10
940.03213518415453
 20
-1347.3969277714718
 30
0.0
 41
0.998820533517514
 10
939.85112956717626
 20
-1347.6214320035308
 30
0.0
 41
1.0
 10
939.82048960227019
 20
-1347.6594352539623
 30
0.0
 41
1.0
 10
939.78984963736411
 20
-1347.6974385043941
 30
0.0
 41
1.0
 10
939.54756409057325
 20
-1347.997949237317
 30
0.0
 41
0.9997077826754861
 10
939.32008613946687
 20
-1348.3098190315352
 30
0.0
 41
1.0
 10
939.31836272433793
 20
-1348.3121818149125
 30
0.0
 41
1.0
 10
939.31663930920899
 20
-1348.31454459829
 30
0.0
 41
1.0
 10
939.08571452784452
 20
-1348.6311399592632
 30
0.0
 41
0.9989147567078999
 10
938.88525102496089
 20
-1348.9678494204477
 30
0.0
 41
1.0
 10
938.86050987965189
 20
-1349.0094060010038
 30
0.0
 41
1.0
 10
938.83576873434288
 20
-1349.0509625815596
 30
0.0
 41
1.0
 10
938.68055743570767
 20
-1349.3116639660088
 30
0.0
 41
0.9997476598181253
 10
938.53721244819849
 20
-1349.5790737145903
 30
0.0
 41
1.0
 10
938.39386746068806
 20
-1349.8464834631743
 30
0.0
 41
0.9996258967109512
 10
938.26535920875733
 20
-1350.1213313997964
 30
0.0
 41
1.0
 10
938.25215929930755
 20
-1350.1495627998922
 30
0.0
 41
1.0
 10
938.23895938985777
 20
-1350.1777941999881
 30
0.0
 41
1.0
 10
938.09875066885945
 20
-1350.4776665979377
 30
0.0
 41
0.9998735413945121
 10
937.96814932213738
 20
-1350.7818461974093
 30
0.0
 41
1.0
 10
937.96470649407593
 20
-1350.7898647828761
 30
0.0
 41
1.0
 10
937.96126366601459
 20
-1350.7978833683428
 30
0.0
 41
1.0
 10
937.8375479754186
 20
-1351.0860257968734
 30
0.0
 41
0.9999377418864015
 10
937.72029317324223
 20
-1351.3768572645517
 30
0.0
 41
1.0
 10
937.60303837106551
 20
-1351.6676887322315
 30
0.0
 41
0.9999508299509609
 10
937.49157442768796
 20
-1351.960788409054
 30
0.0
 41
1.0
 10
937.4884936590264
 20
-1351.9688894350156
 30
0.0
 41
1.0
 10
937.48541289036484
 20
-1351.976990460977
 30
0.0
 41
1.0
 10
937.3677874096644
 20
-1352.2862921897208
 30
0.0
 41
0.9999609228431653
 10
937.25564880679542
 20
-1352.5976252057226
 30
0.0
 41
1.0
 10
937.25269279644226
 20
-1352.6058320461416
 30
0.0
 41
1.0
 10
937.24973678608922
 20
-1352.6140388865606
 30
0.0
 41
1.0
 10
937.13168616251278
 20
-1352.941785583404
 30
0.0
 41
0.9999674607402643
 10
937.01893863644489
 20
-1353.2713942033986
 30
0.0
 41
1.0
 10
936.96754024588472
 20
-1353.4216533990839
 30
0.0
 41
1.0
 10
936.91614185532444
 20
-1353.5719125947692
 30
0.0
 41
1.0
 10
936.80013124856566
 20
-1353.9110605772748
 30
0.0
 41
0.9999287532307414
 10
936.69224984459424
 20
-1354.2528813162526
 30
0.0
 41
1.0
 10
936.6457725884062
 20
-1354.4001438607788
 30
0.0
 41
1.0
 10
936.59929533221816
 20
-1354.5474064053049
 30
0.0
 41
1.0
 10
936.5843684405736
 20
-1354.594702055387
 30
0.0
 41
0.9999998224215818
 10
936.56949793189301
 20
-1354.6420154634693
 30
0.0
 41
1.0
 10
934.94884179509756
 20
-1359.7900439652587
 30
0.0
 41
1.0
 10
933.32818565830212
 20
-1364.9380724670482
 30
0.0
 41
1.0
 10
932.42287721441119
 20
-1364.9380724670482
 30
0.0
 41
1.0
 10
931.51756877052026
 20
-1364.9380724670482
 30
0.0
 41
1.0
 10
933.3696531819063
 20
-1359.0510005445808
 30
0.0
 41
1.0
 10
935.22173759329235
 20
-1353.1639286221132
 30
0.0
 41
1.0
 10
935.23185935159506
 20
-1353.1318854086635
 30
0.0
 41
1.0
 10
935.3044670204448
 20
-1352.9015858668376
 30
0.0
 41
1.0
 10
935.37707468928716
 20
-1352.671286325035
 30
0.0
 41
0.9999825681968302
 10
935.44695772849741
 20
-1352.4401454299748
 30
0.0
 41
1.0
 10
935.49524879066212
 20
-1352.2804208464663
 30
0.0
 41
1.0
 10
935.54353985282671
 20
-1352.1206962629581
 30
0.0
 41
1.0
 10
935.64069220614124
 20
-1351.7993610411909
 30
0.0
 41
0.9999672528966247
 10
935.7326310117669
 20
-1351.4764954955967
 30
0.0
 41
1.0
 10
935.73541989544401
 20
-1351.4667016501808
 30
0.0
 41
1.0
 10
935.73820877912124
 20
-1351.4569078047648
 30
0.0
 41
1.0
 10
935.82456981739472
 20
-1351.1536299499949
 30
0.0
 41
0.9999899749180831
 10
935.90821142692494
 20
-1350.8495908615582
 30
0.0
 41
1.0
 10
935.91831734594484
 20
-1350.8128556238707
 30
0.0
 41
1.0
 10
935.92842326496486
 20
-1350.7761203861833
 30
0.0
 41
1.0
 10
935.99185303646266
 20
-1350.5455517730945
 30
0.0
 41
0.9999214200504394
 10
936.04948246483741
 20
-1350.3134654308965
 30
0.0
 41
1.0
 10
936.06224831701616
 20
-1350.2620545455075
 30
0.0
 41
1.0
 10
936.07501416919501
 20
-1350.2106436601184
 30
0.0
 41
1.0
 10
936.10711189321273
 20
-1350.0813790886959
 30
0.0
 41
0.9999828681668646
 10
936.1376941452105
 20
-1349.9517476142196
 30
0.0
 41
1.0
 10
936.16827639720873
 20
-1349.82211613974
 30
0.0
 41
0.9999389844478467
 10
936.19598738599825
 20
-1349.6918406838377
 30
0.0
 41
1.0
 10
936.20312512971691
 20
-1349.6582845800074
 30
0.0
 41
1.0
 10
936.21026287343557
 20
-1349.6247284761771
 30
0.0
 41
1.0
 10
936.2522493496657
 20
-1349.4273408125998
 30
0.0
 41
0.9998933699442024
 10
936.28845361406695
 20
-1349.2288112048466
 30
0.0
 41
1.0
 10
936.28982643928362
 20
-1349.2212831841484
 30
0.0
 41
1.0
 10
936.29119926450016
 20
-1349.2137551634505
 30
0.0
 41
1.0
 10
936.33014917933576
 20
-1349.0001695142951
 30
0.0
 41
0.9996850305193353
 10
936.35833285559431
 20
-1348.784898508859
 30
0.0
 41
1.0
 10
936.36032788896352
 20
-1348.7696601547377
 30
0.0
 41
1.0
 10
936.36232292233274
 20
-1348.7544218006165
 30
0.0
 41
1.0
 10
936.38973078479194
 20
-1348.5450765734606
 30
0.0
 41
0.9994697936706555
 10
936.40345534401104
 20
-1348.3343913781328
 30
0.0
 41
1.0
 10
936.40393241326069
 20
-1348.327067905921
 30
0.0
 41
1.0
 10
936.40440948251046
 20
-1348.3197444337093
 30
0.0
 41
1.0
 10
936.41717990323082
 20
-1348.1237061828003
 30
0.0
 41
0.9991804893136594
 10
936.41405158695784
 20
-1347.9272773328287
 30
0.0
 41
1.0
 10
936.41396770813571
 20
-1347.9220105314162
 30
0.0
 41
1.0
 10
936.41388382931359
 20
-1347.9167437300034
 30
0.0
 41
1.0
 10
936.41092327068509
 20
-1347.7308484828552
 30
0.0
 41
0.9988448329321498
 10
936.39013172506134
 20
-1347.5460958930219
 30
0.0
 41
1.0
 10
936.38853765135832
 20
-1347.5319310372508
 30
0.0
 41
1.0
 10
936.3869435776553
 20
-1347.5177661814798
 30
0.0
 41
1.0
 10
936.36934017943759
 20
-1347.361343303189
 30
0.0
 41
0.9985503209458699
 10
936.33502390713807
 20
-1347.2077191190992
 30
0.0
 41
1.0
 10
936.32743791506709
 20
-1347.1737587917005
 30
0.0
 41
1.0
 10
936.31985192299624
 20
-1347.1397984643015
 30
0.0
 41
1.0
 10
936.300707634839
 20
-1347.0540949350127
 30
0.0
 41
0.9991036781371003
 10
936.2743827731872
 20
-1346.970317847685
 30
0.0
 41
1.0
 10
936.27040054773101
 20
-1346.9576446851738
 30
0.0
 41
1.0
 10
936.26641832227483
 20
-1346.9449715226626
 30
0.0
 41
1.0
 10
936.24805791153574
 20
-1346.8865407603591
 30
0.0
 41
0.9998874504368696
 10
936.22795270385768
 20
-1346.8286871581367
 30
0.0
 41
1.0
 10
936.20784749617826
 20
-1346.7708335559114
 30
0.0
 41
0.9994041637544384
 10
936.18379888324409
 20
-1346.7145048520215
 30
0.0
 41
1.0
 10
936.17960209902037
 20
-1346.7046747875404
 30
0.0
 41
1.0
 10
936.17540531479665
 20
-1346.6948447230593
 30
0.0
 41
1.0
 10
936.14752648380215
 20
-1346.6295445570922
 30
0.0
 41
0.9991846840701656
 10
936.11447012710926
 20
-1346.5667065258124
 30
0.0
 41
1.0
 10
936.11333352071449
 20
-1346.5645459093582
 30
0.0
 41
1.0
 10
936.11219691431972
 20
-1346.5623852929041
 30
0.0
 41
1.0
 10
936.08141377041682
 20
-1346.5038684945334
 30
0.0
 41
0.9989253167923567
 10
936.04534434636116
 20
-1346.4484535661418
 30
0.0
 41
1.0
 10
936.04429022168711
 20
-1346.4468340713797
 30
0.0
 41
1.0
 10
936.04323609701316
 20
-1346.4452145766179
 30
0.0
 41
1.0
 10
936.00927492230687
 20
-1346.3930386377529
 30
0.0
 41
0.9986467172838246
 10
935.97007776966893
 20
-1346.344672604122
 30
0.0
 41
1.0
 10
935.9692036409682
 20
-1346.3435940018439
 30
0.0
 41
1.0
 10
935.96832951226747
 20
-1346.3425153995656
 30
0.0
 41
1.0
 10
935.93088061703133
 20
-1346.2963065704923
 30
0.0
 41
0.998400110426685
 10
935.8884538865143
 20
-1346.2546214631238
 30
0.0
 41
1.0
 10
935.88786674840503
 20
-1346.2540445882428
 30
0.0
 41
1.0
 10
935.88727961029588
 20
-1346.2534677133617
 30
0.0
 41
1.0
 10
935.84602715599783
 20
-1346.2129363557556
 30
0.0
 41
0.9982442159082329
 10
935.80027105466161
 20
-1346.1775677944947
 30
0.0
 41
1.0
 10
935.80005625919966
 20
-1346.1774017618513
 30
0.0
 41
1.0
 10
935.79984146373772
 20
-1346.177235729208
 30
0.0
 41
1.0
 10
935.75451495332584
 20
-1346.1421992332346
 30
0.0
 41
0.9982450060837329
 10
935.70536397425417
 20
-1346.1127674502009
 30
0.0
 41
1.0
 10
935.65621299518284
 20
-1346.0833356671676
 30
0.0
 41
0.9983922639635626
 10
935.60404668901776
 20
-1346.0596560325134
 30
0.0
 41
1.0
 10
935.60381981169326
 20
-1346.0595530470318
 30
0.0
 41
1.0
 10
935.60359293436863
 20
-1346.0594500615505
 30
0.0
 41
1.0
 10
935.55097287355466
 20
-1346.0355644559336
 30
0.0
 41
0.9986517147149977
 10
935.49615990068673
 20
-1346.0172633368118
 30
0.0
 41
1.0
 10
935.49548197925901
 20
-1346.0170369903803
 30
0.0
 41
1.0
 10
935.49480405783129
 20
-1346.0168106439489
 30
0.0
 41
1.0
 10
935.4386352421086
 20
-1345.9980568319647
 30
0.0
 41
0.9989435598957306
 10
935.38098185495801
 20
-1345.9845391297301
 30
0.0
 41
1.0
 10
935.37990173537537
 20
-1345.9842858794768
 30
0.0
 41
1.0
 10
935.37882161579273
 20
-1345.9840326292237
 30
0.0
 41
1.0
 10
935.31900798947754
 20
-1345.9700084264832
 30
0.0
 41
0.9992249241240742
 10
935.25827648058032
 20
-1345.9607330837678
 30
0.0
 41
1.0
 10
935.25686279228944
 20
-1345.9605171753601
 30
0.0
 41
1.0
 10
935.25544910399856
 20
-1345.9603012669522
 30
0.0
 41
1.0
 10
935.19189021851844
 20
-1345.9505941074212
 30
0.0
 41
0.9994396597833296
 10
935.12782428198057
 20
-1345.9451611850757
 30
0.0
 41
1.0
 10
935.10868361450355
 20
-1345.9435380173572
 30
0.0
 41
1.0
 10
935.08954294702653
 20
-1345.9419148496386
 30
0.0
 41
1.0
 10
934.98719567553417
 20
-1345.9332355918555
 30
0.0
 41
0.9987693403121676
 10
934.8844920519474
 20
-1345.9347386553079
 30
0.0
 41
1.0
 10
934.87423771771842
 20
-1345.9348887270821
 30
0.0
 41
1.0
 10
934.86398338348943
 20
-1345.9350387988563
 30
0.0
 41
1.0
 10
934.7544276173121
 20
-1345.9366421431439
 30
0.0
 41
0.9989753644966194
 10
934.64546561729708
 20
-1345.9481451500692
 30
0.0
 41
1.0
 10
934.53650361727955
 20
-1345.9596481569945
 30
0.0
 41
0.9983190067305613
 10
934.42960480631359
 20
-1345.9836831487814
 30
0.0
 41
1.0
 10
934.42070385470788
 20
-1345.985684427344
 30
0.0
 41
1.0
 10
934.41180290310217
 20
-1345.9876857059064
 30
0.0
 41
1.0
 10
934.28710218892331
 20
-1346.0157232548186
 30
0.0
 41
0.9985539388302972
 10
934.16613243524512
 20
-1346.0569869308645
 30
0.0
 41
1.0
 10
934.16378700428515
 20
-1346.0577869746803
 30
0.0
 41
1.0
 10
934.16144157332519
 20
-1346.0585870184959
 30
0.0
 41
1.0
 10
934.03578095772764
 20
-1346.1014507821728
 30
0.0
 41
0.9988468746493737
 10
933.91481061542822
 20
-1346.1561688672346
 30
0.0
 41
1.0
 10
933.91162779343858
 20
-1346.1576085417951
 30
0.0
 41
1.0
 10
933.90844497144894
 20
-1346.1590482163554
 30
0.0
 41
1.0
 10
933.78110898517116
 20
-1346.2166456505377
 30
0.0
 41
0.9991322885918755
 10
933.6590084011151
 20
-1346.2846409827193
 30
0.0
 41
1.0
 10
933.64140639006996
 20
-1346.2944431847097
 30
0.0
 41
1.0
 10
933.62380437902482
 20
-1346.3042453867001
 30
0.0
 41
1.0
 10
933.52162769796848
 20
-1346.3611455024802
 30
0.0
 41
0.9993860037849144
 10
933.423686693896
 20
-1346.4250615180683
 30
0.0
 41
1.0
 10
933.41806838104276
 20
-1346.4287280127637
 30
0.0
 41
1.0
 10
933.41245006818951
 20
-1346.4323945074593
 30
0.0
 41
1.0
 10
933.32574568982352
 20
-1346.4889775336562
 30
0.0
 41
0.9998821494955138
 10
933.24081931400974
 20
-1346.5481957637335
 30
0.0
 41
1.0
 10
933.15589293819244
 20
-1346.6074139938135
 30
0.0
 41
0.9997976482744052
 10
933.07341730778421
 20
-1346.6700004018589
 30
0.0
 41
1.0
 10
933.05878104298381
 20
-1346.6811070916353
 30
0.0
 41
1.0
 10
933.04414477818352
 20
-1346.6922137814117
 30
0.0
 41
1.0
 10
932.93239661817563
 20
-1346.7770135690089
 30
0.0
 41
0.9998091630800557
 10
932.82404634015336
 20
-1346.8661139197054
 30
0.0
 41
1.0
 10
932.8110405876705
 20
-1346.8768090201561
 30
0.0
 41
1.0
 10
932.79803483518776
 20
-1346.8875041206065
 30
0.0
 41
1.0
 10
932.66367305220615
 20
-1346.9979946721999
 30
0.0
 41
0.9995035112317322
 10
932.53653717444479
 20
-1347.1167284892124
 30
0.0
 41
1.0
 10
932.5268898640561
 20
-1347.1257382353715
 30
0.0
 41
1.0
 10
932.5172425536673
 20
-1347.1347479815308
 30
0.0
 41
1.0
 10
932.39381949090239
 20
-1347.2500143532866
 30
0.0
 41
0.9994630424299369
 10
932.2782110851183
 20
-1347.3731170965218
 30
0.0
 41
1.0
 10
932.2745282463477
 20
-1347.3770386760339
 30
0.0
 41
1.0
 10
932.27084540757721
 20
-1347.3809602555459
 30
0.0
 41
1.0
 10
932.16260267933535
 20
-1347.4962198397557
 30
0.0
 41
0.9995160693749906
 10
932.06173664980236
 20
-1347.6179872576295
 30
0.0
 41
1.0
 10
932.05980292972504
 20
-1347.6203216818335
 30
0.0
 41
1.0
 10
932.05786920964772
 20
-1347.6226561060375
 30
0.0
 41
1.0
 10
931.96087062027323
 20
-1347.7397546754987
 30
0.0
 41
0.9996561470514556
 10
931.87014440160453
 20
-1347.8617774379513
 30
0.0
 41
1.0
 10
931.86398673570034
 20
-1347.8700592269965
 30
0.0
 41
1.0
 10
931.85782906979614
 20
-1347.878341016042
 30
0.0
 41
1.0
 10
931.77941818293448
 20
-1347.9838002004062
 30
0.0
 41
0.99983490551725
 10
931.70489090100637
 20
-1348.0920387840638
 30
0.0
 41
1.0
 10
931.63036361907075
 20
-1348.2002773677327
 30
0.0
 41
0.9999728109573848
 10
931.557440723166
 20
-1348.3096032932797
 30
0.0
 41
1.0
 10
931.55612550775322
 20
-1348.3115750627835
 30
0.0
 41
1.0
 10
931.55481029234056
 20
-1348.3135468322876
 30
0.0
 41
1.0
 10
931.47925696561629
 20
-1348.426816296834
 30
0.0
 41
0.9999972147395209
 10
931.40423915525093
 20
-1348.5404411396562
 30
0.0
 41
1.0
 10
931.3992676126195
 20
-1348.5479712281422
 30
0.0
 41
1.0
 10
931.39429606998817
 20
-1348.5555013166281
 30
0.0
 41
1.0
 10
931.30933517437552
 20
-1348.6841863363993
 30
0.0
 41
0.9999371979007919
 10
931.22727982497349
 20
-1348.8147432501728
 30
0.0
 41
1.0
 10
931.22377094060732
 20
-1348.8203261782448
 30
0.0
 41
1.0
 10
931.22026205624115
 20
-1348.8259091063169
 30
0.0
 41
1.0
 10
931.13118893811179
 20
-1348.9676318762267
 30
0.0
 41
0.9998272025611418
 10
931.0474455472314
 20
-1349.1125677529662
 30
0.0
 41
1.0
 10
931.03223037520684
 20
-1349.1389008674237
 30
0.0
 41
1.0
 10
931.01701520318238
 20
-1349.1652339818811
 30
0.0
 41
1.0
 10
930.90284146825195
 20
-1349.3628360875377
 30
0.0
 41
0.9995217214838064
 10
930.80110177869619
 20
-1349.5671184154
 30
0.0
 41
1.0
 10
930.79345821606103
 20
-1349.5824658651031
 30
0.0
 41
1.0
 10
930.78581465342586
 20
-1349.5978133148064
 30
0.0
 41
1.0
 10
930.69890936083664
 20
-1349.7723097728867
 30
0.0
 41
0.9998269762607343
 10
930.6185548945648
 20
-1349.9499180596099
 30
0.0
 41
1.0
 10
930.53820042829329
 20
-1350.1275263463317
 30
0.0
 41
0.9998944747386324
 10
930.46303963372668
 20
-1350.307394071966
 30
0.0
 41
1.0
 10
930.45808596413485
 20
-1350.3192487268852
 30
0.0
 41
1.0
 10
930.45313229454291
 20
-1350.3311033818043
 30
0.0
 41
1.0
 10
930.37248523399148
 20
-1350.5241003218193
 30
0.0
 41
0.999950673441408
 10
930.29568770508899
 20
-1350.7186611266729
 30
0.0
 41
1.0
 10
930.28108773981705
 20
-1350.7556490484817
 30
0.0
 41
1.0
 10
930.26648777454511
 20
-1350.7926369702902
 30
0.0
 41
1.0
 10
930.21889017618196
 20
-1350.9132219315375
 30
0.0
 41
0.9999912393922585
 10
930.17230373216285
 20
-1351.0342011342248
 30
0.0
 41
1.0
 10
930.12571728813487
 20
-1351.1551803369352
 30
0.0
 41
0.9999927113965598
 10
930.0800559937453
 20
-1351.2765117444251
 30
0.0
 41
1.0
 10
930.066087562348
 20
-1351.3136287264228
 30
0.0
 41
1.0
 10
930.05211913095081
 20
-1351.3507457084204
 30
0.0
 41
1.0
 10
929.97852097376051
 20
-1351.5463110799217
 30
0.0
 41
0.9999487550947976
 10
929.90889734878874
 20
-1351.7433264451047
 30
0.0
 41
1.0
 10
929.88530373885487
 20
-1351.8100897553891
 30
0.0
 41
1.0
 10
929.861710128921
 20
-1351.8768530656732
 30
0.0
 41
1.0
 10
929.7670244945482
 20
-1352.1447869005046
 30
0.0
 41
0.9999808436942207
 10
929.67566290590366
 20
-1352.4138723317776
 30
0.0
 41
1.0
 10
929.58430131726232
 20
-1352.6829577630419
 30
0.0
 41
0.9999873932890966
 10
929.49564660854458
 20
-1352.9529471180542
 30
0.0
 41
1.0
 10
929.47555425167502
 20
-1353.0141364508077
 30
0.0
 41
1.0
 10
929.45546189480547
 20
-1353.0753257835613
 30
0.0
 41
1.0
 10
929.32662247234293
 20
-1353.4676938040971
 30
0.0
 41
0.9999794883019504
 10
929.20281968737868
 20
-1353.861680010396
 30
0.0
 41
1.0
 10
929.1916674279471
 20
-1353.8971706206144
 30
0.0
 41
1.0
 10
929.1805151685154
 20
-1353.932661230833
 30
0.0
 41
1.0
 10
929.03795700461239
 20
-1354.3863339829365
 30
0.0
 41
0.9999982761701056
 10
928.89708456460289
 20
-1354.8405330050416
 30
0.0
 41
1.0
 10
927.30894423203029
 20
-1359.889302736045
 30
0.0
 41
1.0
 10
925.72080389945768
 20
-1364.9380724670482
 30
0.0
 41
1.0
 10
924.77205328798129
 20
-1364.9380724670482
 30
0.0
 41
1.0
 10
923.82330267650491
 20
-1364.9380724670482
 30
0.0
 41
1.0
 10
927.06158716265804
 20
-1354.610750267102
 30
0.0
 41
1.0
 10
930.29987164881129
 20
-1344.2834280671559
 30
0.0
 41
1.0
  0
LWPOLYLINE
  5
56
100
AcDbEntity
  8
0
370
              15
390
0
  6
Continuous
 62
               7
100
AcDbPolyline
 90
      232
 70
             128
 10
904.59632587498425
 20
-1345.3677708986711
 42
0.0004370800691959
 10
904.54344870091234
 20
-1345.4364375379271
 10
904.50416446978477
 20
-1345.487544650824
 42
0.003048199217171
 10
904.37382575268362
 20
-1345.6592663431443
 10
904.33531408091517
 20
-1345.7106531269562
 42
0.0042058245764033
 10
904.131329030232
 20
-1345.9876588720483
 10
904.07892390774464
 20
-1346.0600917188108
 42
0.0120948898744094
 10
903.78287999098211
 20
-1346.4908413233613
 10
903.68668749186156
 20
-1346.638322058584
 42
0.0141601263947062
 10
903.38304344493929
 20
-1347.13399139532
 10
903.34350617750772
 20
-1347.2028353627613
 42
0.007113108130372
 10
903.13823385427486
 20
-1347.5723381615899
 42
0.0068458791003417
 10
902.9433543274306
 20
-1347.9474297250683
 10
902.93654246497408
 20
-1347.9609914387897
 42
0.0064120880289223
 10
902.73840021493447
 20
-1348.3684159136985
 10
902.73086552941277
 20
-1348.3844277704297
 42
0.0058857236448259
 10
902.52811013754138
 20
-1348.8288038814642
 10
902.51993521124712
 20
-1348.8472940350987
 42
0.0053189741896757
 10
902.31123089858136
 20
-1349.3332575090124
 10
902.30248309289823
 20
-1349.3542393872126
 42
0.0047503650417849
 10
902.08650936674803
 20
-1349.8864388204208
 10
902.07724111839934
 20
-1349.9099151965302
 42
0.0042071762169229
 10
901.85269373467156
 20
-1350.4930087906002
 10
901.84294433232299
 20
-1350.5189749654696
 42
0.003668008648511
 10
901.60848968901075
 20
-1351.1576103500017
 10
901.59828190916312
 20
-1351.1860588843456
 42
0.0032573142627999
 10
901.35264962319297
 20
-1351.8849115441089
 10
901.28399910235282
 20
-1352.0843746281605
 42
0.0026133366650121
 10
900.93555390359779
 20
-1353.1142379118237
 10
900.87229711609712
 20
-1353.3044687472166
 42
0.0020592950739362
 10
900.65843404712996
 20
-1353.9565723998298
 10
900.65538225597163
 20
-1353.9660088882247
 42
0.0025609928533873
 10
900.45356175448103
 20
-1354.6011541106054
 10
900.45097038735128
 20
-1354.6094564515558
 42
0.0031362356242951
 10
900.26147960167737
 20
-1355.2302193077255
 10
900.25934855875028
 20
-1355.2373606139356
 42
0.0037229918030943
 10
900.08254817182365
 20
-1355.8463459159107
 10
900.08086958262322
 20
-1355.8522928060638
 42
0.0043077623707959
 10
899.91712878055216
 20
-1356.4521115378543
 42
0.0047654161821928
 10
899.76430005803581
 20
-1357.0547976267576
 10
899.72983544919703
 20
-1357.1963594039062
 42
0.0112969368445546
 10
899.53397109105265
 20
-1358.0880515645349
 10
899.50596470195683
 20
-1358.2308796106283
 42
0.0130056762570148
 10
899.30512745831015
 20
-1359.4178206822733
 10
899.28458770816314
 20
-1359.56189879575
 42
0.013872153214473
 10
899.18088470362522
 20
-1360.468728281576
 10
899.1615892157173
 20
-1360.6922260035012
 42
0.0071254697007239
 10
899.12824256979479
 20
-1361.1554130123482
 10
899.12328159563049
 20
-1361.2414170069269
 42
0.0028881799208627
 10
899.10814330234166
 20
-1361.5331587167511
 42
0.006029729713807
 10
899.0982111025661
 20
-1361.8251076528675
 10
899.09714882089895
 20
-1361.8735000247982
 42
0.0229523164155473
 10
899.10487984868473
 20
-1362.1962548710826
 10
899.10910562220556
 20
-1362.2566584051053
 42
0.0123673300669903
 10
899.12818426872343
 20
-1362.4577791302736
 42
0.0128577674467638
 10
899.15737965912933
 20
-1362.6576769801979
 10
899.16450553251673
 20
-1362.6990057947974
 42
0.0285717853763926
 10
899.22899953421245
 20
-1362.9771219461104
 10
899.24266805787886
 20
-1363.0237767155877
 42
0.0316283099153373
 10
899.35847863779304
 20
-1363.3427912174136
 10
899.36152732954861
 20
-1363.3497775897392
 42
0.0338984824234845
 10
899.51095904051579
 20
-1363.6373435539283
 10
899.51326776988617
 20
-1363.641134583205
 42
0.0350228718351254
 10
899.69562806055922
 20
-1363.8981865678811
 10
899.6965133123341
 20
-1363.8992656456451
 42
0.0347476747530243
 10
899.91093799957434
 20
-1364.1264506928651
 42
0.0331337701909162
 10
900.15418132532091
 20
-1364.3225793549429
 10
900.15528142383687
 20
-1364.3233520581152
 42
0.0305233319079248
 10
900.42382611941002
 20
-1364.4884802282063
 10
900.4270561639114
 20
-1364.490204240069
 42
0.0273744481157507
 10
900.71960987548698
 20
-1364.62634238396
 10
900.72471441062328
 20
-1364.6283859684293
 42
0.0240964406197849
 10
901.04019148627094
 20
-1364.7373696947111
 10
901.04677481547901
 20
-1364.7392944343856
 42
0.0209636179813283
 10
901.38417496813292
 20
-1364.8227625823181
 10
901.39180742858025
 20
-1364.8243144953192
 42
0.0181388704693533
 10
901.75012982057876
 20
-1364.8837305885331
 10
901.75841066895691
 20
-1364.8847967723502
 42
0.015608654758605
 10
902.13659803314567
 20
-1364.9215329589269
 10
902.17979328547915
 20
-1364.9243714614063
 42
0.0137148329026468
 10
902.50746643077161
 20
-1364.9368917166571
 10
902.55340262071343
 20
-1364.9373861497722
 42
0.0051057823887155
 10
902.78954820728984
 20
-1364.9375164041817
 42
0.0052256693311738
 10
903.02564549107444
 20
-1364.9327675797172
 10
903.09587227481791
 20
-1364.9306206137032
 42
0.0161507179048078
 10
903.47160935291924
 20
-1364.9069702433767
 10
903.49162231329228
 20
-1364.9050600480891
 42
0.010121673783274
 10
903.90564953478167
 20
-1364.8570671177238
 10
903.93970282420969
 20
-1364.852419420914
 42
0.0245291776397457
 10
904.41649247975909
 20
-1364.7633443428381
 10
904.50131579528295
 20
-1364.7431484224924
 42
0.014350921255892
 10
904.85794689922443
 20
-1364.647343788713
 42
0.0156557857041937
 10
905.20816296395094
 20
-1364.5303325728944
 10
905.21566417844633
 20
-1364.52756241114
 42
0.0170137333631318
 10
905.57226017412859
 20
-1364.3819047962686
 10
905.57936409653519
 20
-1364.3787169607053
 42
0.0183105364409703
 10
905.93871376470281
 20
-1364.2013819188803
 10
905.94566052934022
 20
-1364.197631484009
 42
0.0194899958149863
 10
906.30414127032441
 20
-1363.985652502118
 10
906.31115514966086
 20
-1363.9811271598232
 42
0.020486985295207
 10
906.66516945175999
 20
-1363.7316071447335
 10
906.67243506034185
 20
-1363.726027079389
 42
0.0212516938555694
 10
907.01842499145016
 20
-1363.4361230824941
 10
907.0649416855241
 20
-1363.3936557724021
 42
0.0215248918250838
 10
907.32496785441322
 20
-1363.134891493406
 10
907.36999758878915
 20
-1363.0860473720613
 42
0.0114578554953019
 10
907.52478974247106
 20
-1362.9102244385981
 10
907.53598427844099
 20
-1362.8969056750725
 42
0.0061531305117666
 10
907.66245892445215
 20
-1362.742616141747
 42
0.0006325587120629
 10
907.78683740858332
 20
-1362.586612766097
 10
907.80987754365538
 20
-1362.5576392454118
 42
0.0041897761554223
 10
907.97833294762052
 20
-1362.3421198693597
 10
908.0367950675203
 20
-1362.2660185223649
 42
0.0092993880039111
 10
908.31340699474765
 20
-1361.8917397584758
 10
908.39580148794039
 20
-1361.7758027549157
 42
0.0159321727087909
 10
908.7424079705853
 20
-1361.2536285341562
 10
908.7867641059712
 20
-1361.1819489699112
 42
0.0085547317020393
 10
909.02127587130008
 20
-1360.7880740206815
 42
0.0084601156889796
 10
909.24225204874233
 20
-1360.3864471716493
 10
909.25036752257256
 20
-1360.3710874893764
 42
0.0081429654285291
 10
909.47361679301139
 20
-1359.9313659768329
 10
909.48247695719408
 20
-1359.9131871348163
 42
0.0076574581328677
 10
909.70888446776098
 20
-1359.4300042595626
 10
909.71836410848448
 20
-1359.40893978126
 42
0.0070682724199216
 10
909.94880901629006
 20
-1358.876902476482
 10
909.95879930027297
 20
-1358.8529132874673
 42
0.0064559514449726
 10
910.19413250845673
 20
-1358.2666010209427
 10
910.20454186661959
 20
-1358.239666095506
 42
0.0058311413906422
 10
910.44558860337986
 20
-1357.5936340011297
 10
910.45634368076992
 20
-1357.563749659962
 42
0.0052312425819601
 10
910.70392495881345
 20
-1356.8525472461192
 10
910.71496879519054
 20
-1356.8197205340575
 42
0.0046680544797109
 10
910.96989722292221
 20
-1356.0378942183117
 10
911.01188937298275
 20
-1355.9049109809657
 42
0.0041666856447805
 10
911.21517538536364
 20
-1355.2419422060052
 10
911.25283782602673
 20
-1355.1153610983538
 42
0.0015170975158235
 10
911.37402440444043
 20
-1354.7034927468578
 42
-0.0004887993114472
 10
911.49436417753168
 20
-1354.2913743349252
 10
911.57084143505858
 20
-1354.0304169488747
 42
0.0002583378927851
 10
911.84405600512878
 20
-1353.0963602456757
 10
911.92582885472802
 20
-1352.8162609860146
 42
0.0006636169674034
 10
912.11969661471085
 20
-1352.1489080625256
 10
912.12479326907146
 20
-1352.1312764795987
 42
0.001058913132359
 10
912.30624196997451
 20
-1351.4985451365967
 10
912.31122404044811
 20
-1351.4810322296009
 42
0.0015655524461306
 10
912.47949424763783
 20
-1350.8824155503758
 10
912.48432444805621
 20
-1350.8650233914277
 42
0.0021640440476036
 10
912.63861442003872
 20
-1350.2999963734219
 10
912.64324863947218
 20
-1350.282731643415
 42
0.0028763871852557
 10
912.78276435752173
 20
-1349.7507636925809
 10
912.78715022169536
 20
-1349.7336397144013
 42
0.0037310511949639
 10
912.91110691352583
 20
-1349.2341921204024
 10
912.91518213381289
 20
-1349.217231849165
 42
0.0047652197767401
 10
913.02280603432325
 20
-1348.749754080852
 10
913.02649663364798
 20
-1348.7329945256956
 42
0.0060276699306858
 10
913.11702673280024
 20
-1348.2969187305578
 10
913.12024542308689
 20
-1348.2804175162617
 42
0.0075824337756349
 10
913.19293473250491
 20
-1347.8751503518224
 10
913.19558010988521
 20
-1347.8589954043714
 42
0.0095130624606334
 10
913.24969534551633
 20
-1347.4839060513
 10
913.25668156939878
 20
-1347.4279724931851
 42
0.0121054653224717
 10
913.28327289997685
 20
-1347.1630766647097
 10
913.2841393897362
 20
-1347.1516732217824
 42
0.0069050827379172
 10
913.29922820777415
 20
-1346.9087319949363
 10
913.3003635074424
 20
-1346.885205737897
 42
0.0169063976700307
 10
913.30319078642287
 20
-1346.6890130105908
 10
913.30202013489202
 20
-1346.628677249256
 42
0.0052007732884453
 10
913.29976668629865
 20
-1346.5530838590896
 42
0.0054038123292089
 10
913.27980317446122
 20
-1346.4330655630874
 10
913.27471731858941
 20
-1346.4044070764985
 42
0.0112050460458512
 10
913.23933295653046
 20
-1346.228080638158
 10
913.22150799449014
 20
-1346.1485390514385
 42
0.024076446800975
 10
913.13061062834413
 20
-1345.8183020159379
 10
913.11205186553093
 20
-1345.7616818509446
 42
0.0256812331834053
 10
912.968688945341
 20
-1345.3899576446863
 10
912.96327951951946
 20
-1345.3778263096963
 42
0.0268360501217043
 10
912.79385227866976
 20
-1345.0468331756756
 10
912.78831587103537
 20
-1345.0373135053644
 42
0.0274670231731511
 10
912.59611489462145
 20
-1344.7450261304461
 10
912.59073359465879
 20
-1344.7377469829048
 42
0.0275035967101781
 10
912.37916071509699
 20
-1344.4822310926006
 10
912.37409121413066
 20
-1344.4767520049704
 42
0.0269557673526001
 10
912.14668767069088
 20
-1344.2561097190078
 10
912.14194461290776
 20
-1344.2519797645466
 42
0.0259124802208897
 10
911.9023897814775
 20
-1344.0642892373949
 10
911.89785893629505
 20
-1344.0611037350641
 42
0.0245162153003859
 10
911.64994258320075
 20
-1343.9043707259539
 10
911.64541603687599
 20
-1343.9018105287528
 42
0.0229282588838199
 10
911.39299648004919
 20
-1343.7739423362541
 10
911.38821598621178
 20
-1343.7717900364919
 42
0.0212984135693725
 10
911.13517803375066
 20
-1343.6705911192498
 10
911.12987374878207
 20
-1343.6687275564902
 42
0.0197555462340657
 10
910.88009541105816
 20
-1343.591912138525
 42
0.018351189678804
 10
910.62516668559488
 20
-1343.5343292315597
 10
910.53880148887231
 20
-1343.5181264411747
 42
0.0338057877150065
 10
910.25329413961174
 20
-1343.4843180360344
 10
910.16228873457555
 20
-1343.4797383807731
 42
0.0091990524488378
 10
910.0564416259358
 20
-1343.4763625248509
 42
0.002833398077736
 10
909.9505277099438
 20
-1343.4755344173341
 10
909.94961225689349
 20
-1343.47553244751
 42
-0.0023619827812149
 10
909.84186624179131
 20
-1343.4747916064316
 10
909.80546107161172
 20
-1343.4743692999687
 42
0.0008824598485298
 10
909.62490508169446
 20
-1343.4725935217298
 10
909.58104364935593
 20
-1343.4722395602048
 42
0.003813266576811
 10
909.31276075349149
 20
-1343.4721206241379
 10
909.29622709868363
 20
-1343.4722393902816
 42
0.0060665569335557
 10
908.9949466070974
 20
-1343.4780596897024
 10
908.98069627506698
 20
-1343.47850799767
 42
0.0080356953336903
 10
908.65123755872389
 20
-1343.4941757197371
 10
908.6391675436405
 20
-1343.4949443026774
 42
0.0098996399106022
 10
908.28640445898736
 20
-1343.5244295318757
 10
908.27635874961493
 20
-1343.5254698280737
 42
0.0117740981366413
 10
907.90520189126732
 20
-1343.5727620756034
 10
907.89697919478363
 20
-1343.5740071921743
 42
0.0137435215135065
 10
907.51239037529808
 20
-1343.6431041657361
 10
907.50573333617513
 20
-1343.6444900619695
 42
0.015835986938262
 10
907.11273624237356
 20
-1343.73938215045
 10
907.1073230555055
 20
-1343.7408720913209
 42
0.018055412402713
 10
906.71100801089335
 20
-1343.8655101075594
 10
906.70645122280973
 20
-1343.8671261438258
 42
0.0203657431282945
 10
906.3119737049991
 20
-1344.0253864853414
 10
906.30783016599105
 20
-1344.0272481067836
 42
0.022681968465513
 10
905.92039410978794
 20
-1344.2228906854541
 10
905.91619431876927
 20
-1344.2252562773742
 42
0.0248634984606092
 10
905.5410123775888
 20
-1344.4618829233211
 10
905.49281744880352
 20
-1344.4957399651478
 42
0.0267044190885524
 10
905.21852475188757
 20
-1344.7111803410153
 42
0.0139303002197481
 10
904.9623575859506
 20
-1344.9484191819256
 10
904.95750420022785
 20
-1344.9531718447874
 42
0.0283460963442526
 10
904.71343160599974
 20
-1345.2209025052337
 10
904.6737631008441
 20
-1345.2697040827056
 42
0.0070695364826285
 10
904.59632587498425
 20
-1345.3677708986711
 42
0.0070695364826285
  0
LWPOLYLINE
  5
57
100
AcDbEntity
  8
0
370
              15
390
0
  6
Continuous
 62
               7
100
AcDbPolyline
 90
      226
 70
             128
 10
901.06750543773785
 20
-1361.089359704855
 42
-0.0026277636593854
 10
901.06742755393805
 20
-1361.0225877790449
 10
901.06764491216984
 20
-1360.9694325616688
 42
-0.0088680296728798
 10
901.07142152846291
 20
-1360.7964167792636
 10
901.07376788757529
 20
-1360.7371367538121
 42
-0.0077381705618814
 10
901.0898139983376
 20
-1360.4458762580268
 10
901.09068190951155
 20
-1360.4335880243289
 42
-0.0068872530535301
 10
901.11731398925895
 20
-1360.1183662722676
 10
901.11851821344578
 20
-1360.1061252932413
 42
-0.0062130021490124
 10
901.15611193027235
 20
-1359.7672556020125
 10
901.15761583380868
 20
-1359.7550817300862
 42
-0.005672692966962
 10
901.20653769331193
 20
-1359.3928865079663
 10
901.20831113895542
 20
-1359.3807927077273
 42
-0.0052341884491295
 10
901.2689217252165
 20
-1358.9955994522029
 10
901.27093971399199
 20
-1358.9835945222171
 42
-0.0049768450164519
 10
901.34367839542085
 20
-1358.5757499547713
 10
901.36792741014017
 20
-1358.4472019717787
 42
-0.0089029805624026
 10
901.5050082619357
 20
-1357.7854265243527
 10
901.53775363725345
 20
-1357.6403950938327
 42
-0.0080318257100258
 10
901.76730225159213
 20
-1356.6946854619869
 10
901.77928717804241
 20
-1356.6485548267888
 42
-0.0074265721318571
 10
902.06329871689616
 20
-1355.6184902483953
 10
902.08317826000621
 20
-1355.550356187829
 42
-0.00697119227034
 10
902.41048283851569
 20
-1354.4840884474911
 10
902.47043478562171
 20
-1354.2980670891191
 42
-0.005207042289633
 10
902.69986001088046
 20
-1353.6107950120891
 10
902.71714120305626
 20
-1353.5607677314617
 42
-0.0009167004448166
 10
902.92023309034221
 20
-1352.976311883318
 42
-0.0025162726947047
 10
903.12733072059621
 20
-1352.393270619179
 10
903.16455533241003
 20
-1352.29012107325
 42
-0.0028212681457016
 10
903.41273125137332
 20
-1351.6143904410787
 10
903.42256201412999
 20
-1351.5880829963858
 42
-0.00319649168192
 10
903.65885427178625
 20
-1350.9678782342751
 10
903.66848872578657
 20
-1350.9430682441282
 42
-0.0036281836450875
 10
903.89359468688644
 20
-1350.3756275632386
 10
903.90303309704564
 20
-1350.3523301317316
 42
-0.0041269166833236
 10
904.11765079370309
 20
-1349.8348892357576
 10
904.15028375012298
 20
-1349.7580107893984
 42
-0.004747221305617
 10
904.30732855567749
 20
-1349.3975893215131
 10
904.31422263688773
 20
-1349.3821687241766
 42
-0.0025651659996072
 10
904.46258067073586
 20
-1349.0548406684327
 42
-0.0057144634997853
 10
904.61633036450633
 20
-1348.7300309950717
 10
904.6443610699049
 20
-1348.6725226126832
 42
-0.0065388068375537
 10
904.82782809764819
 20
-1348.308290116011
 10
904.83628655342488
 20
-1348.2920305366449
 42
-0.0074510843021667
 10
905.01246879930454
 20
-1347.9653422555189
 10
905.02064846983785
 20
-1347.9507014782459
 42
-0.0084648979862929
 10
905.19028232293567
 20
-1347.6587924672888
 10
905.19813844941734
 20
-1347.6457854756486
 42
-0.0095638542813491
 10
905.36197389701795
 20
-1347.3858966036594
 10
905.36944884069146
 20
-1347.3745272422013
 42
-0.0107191626802504
 10
905.52825042107725
 20
-1347.1439160076598
 10
905.53526715480757
 20
-1347.134179915296
 42
-0.0118458573901384
 10
905.68981525332083
 20
-1346.9301077199846
 42
-0.0129184518193446
 10
905.85426787692177
 20
-1346.733947203815
 10
905.88441264928747
 20
-1346.6998211249124
 42
-0.02177425796298
 10
906.06102497162078
 20
-1346.5166143546644
 10
906.0717705160755
 20
-1346.5063975214669
 42
-0.0097266568651055
 10
906.23782813493699
 20
-1346.3545499470242
 42
-0.0187720905728109
 10
906.41217571082154
 20
-1346.2124810936389
 10
906.44288170149798
 20
-1346.1893220112408
 42
-0.017942820752072
 10
906.67530242149678
 20
-1346.0267698341272
 10
906.67895474841396
 20
-1346.0244058992387
 42
-0.0170047877699502
 10
906.91471838594293
 20
-1345.8829453850881
 10
906.91850137469214
 20
-1345.8808470800502
 42
-0.0160190788367999
 10
907.15540992232479
 20
-1345.7591957780637
 42
-0.0151102861496382
 10
907.39944170477122
 20
-1345.6525130020091
 10
907.45182820698324
 20
-1345.6314728691143
 42
-0.0271945441887192
 10
907.81049076604165
 20
-1345.5096080584083
 10
907.87955556653117
 20
-1345.4902585171417
 42
-0.0237596594021696
 10
908.29535241355211
 20
-1345.3948078051603
 10
908.36341526728256
 20
-1345.3825531170337
 42
-0.0213715440554859
 10
908.64929019872784
 20
-1345.3436060855238
 10
908.70943736494155
 20
-1345.3380163708232
 42
-0.0101465655815687
 10
908.87692989693994
 20
-1345.3258728275587
 10
908.88627028313556
 20
-1345.3253859125616
 42
-0.0100375910879924
 10
909.03542438370073
 20
-1345.3206100946363
 10
909.04568365337718
 20
-1345.3204876556219
 42
-0.0103625633384449
 10
909.17439164803591
 20
-1345.3216190891485
 10
909.19665729930318
 20
-1345.3222764476134
 42
-0.0115689250225304
 10
909.28070803683079
 20
-1345.3267059538584
 42
-0.0072438037433455
 10
909.36454631627089
 20
-1345.3342951536081
 10
909.38134682574275
 20
-1345.3360616963321
 42
-0.0217917313134732
 10
909.49791658905451
 20
-1345.3534815890528
 10
909.56351667962474
 20
-1345.366228197468
 42
-0.0332943556754124
 10
909.7679088446514
 20
-1345.4202684887746
 10
909.79808141320382
 20
-1345.4304365658938
 42
-0.0184824084788148
 10
909.93658646966696
 20
-1345.4828875812796
 42
-0.0198002050689465
 10
910.07066081016615
 20
-1345.545771641479
 10
910.07254744754323
 20
-1345.5467494283589
 42
-0.0212242342982324
 10
910.20468638994589
 20
-1345.6225121671525
 10
910.20650168548855
 20
-1345.6236579693605
 42
-0.0226090605805313
 10
910.33500558671074
 20
-1345.7131376129253
 10
910.33685002844777
 20
-1345.7145498659124
 42
-0.0238457052245872
 10
910.4600321097405
 20
-1345.8185457617747
 10
910.46198483829971
 20
-1345.8203606395409
 42
-0.0248160564157572
 10
910.57818634559987
 20
-1345.9396352407491
 10
910.58028997900237
 20
-1345.9420205744541
 42
-0.0254109591459934
 10
910.68789519686845
 20
-1346.0773089604186
 10
910.6901432187824
 20
-1346.080450508819
 42
-0.0255528488285827
 10
910.78758989758001
 20
-1346.2324775630539
 10
910.78992099749576
 20
-1346.2365591746607
 42
-0.0252146793219262
 10
910.87570202350503
 20
-1346.4060614206583
 10
910.87800426266244
 20
-1346.4112435025706
 42
-0.0244265635947783
 10
910.95065895642415
 20
-1346.5989900746176
 10
910.95990535789269
 20
-1346.6268554929561
 42
-0.0231319612902914
 10
911.00582813688436
 20
-1346.7901565397567
 42
-0.0112130424358419
 10
911.04046415942298
 20
-1346.9563601399466
 10
911.04166668453513
 20
-1346.9628567268328
 42
-0.0210527881225694
 10
911.06735315990613
 20
-1347.1439123722762
 10
911.07086375472772
 20
-1347.1793179208212
 42
-0.0190029892425299
 10
911.08630522827229
 20
-1347.432853767092
 10
911.08711520471638
 20
-1347.4683293814624
 42
-0.013797455366409
 10
911.08556635188097
 20
-1347.7933607881905
 10
911.08472089692543
 20
-1347.8194795327856
 42
-0.0081336634213357
 10
911.06986156170274
 20
-1348.124827000388
 42
-0.0073526923572498
 10
911.04555302832841
 20
-1348.4295752446701
 10
911.04429160454538
 20
-1348.4429119193392
 42
-0.0066886138693862
 10
911.00855601849912
 20
-1348.773497962834
 10
911.00689892902892
 20
-1348.7871195818279
 42
-0.006135918735727
 10
910.95904832697886
 20
-1349.1438835619226
 10
910.95701082590517
 20
-1349.1577783647572
 42
-0.0056698610065738
 10
910.89636049513933
 20
-1349.5410569335886
 10
910.89395506181518
 20
-1349.5552160528259
 42
-0.0052721077271153
 10
910.81982286101743
 20
-1349.9653433924939
 10
910.81705971217377
 20
-1349.9797600278898
 42
-0.0049289272171828
 10
910.72876559406996
 20
-1350.41706853903
 10
910.72565309939114
 20
-1350.4317373918279
 42
-0.0047415956711088
 10
910.62241510785918
 20
-1350.8965341492369
 10
910.5876468974991
 20
-1351.0463412446218
 42
-0.0084404470905287
 10
910.39763045392795
 20
-1351.8065652691503
 10
910.39150376594159
 20
-1351.8294293933063
 42
-0.0039635940257029
 10
910.17005008165768
 20
-1352.6304182575534
 10
910.15667328647805
 20
-1352.6773498741454
 42
-0.0072475040837385
 10
909.88922639861846
 20
-1353.5665695905248
 10
909.81901407179146
 20
-1353.788309940496
 42
-0.0051345458829194
 10
909.5322546997287
 20
-1354.6626351283189
 10
909.51072843295651
 20
-1354.7260613954629
 42
-0.0019150016601091
 10
909.2551950260945
 20
-1355.469610515675
 10
909.24872742170169
 20
-1355.4881979805862
 42
-0.0021524362752816
 10
909.00024937063449
 20
-1356.1925238023045
 10
908.99103894992834
 20
-1356.2182773806333
 42
-0.0024331286818218
 10
908.75478369090206
 20
-1356.868876688724
 10
908.74573573834994
 20
-1356.8934199950827
 42
-0.0027449721789461
 10
908.52112116751607
 20
-1357.4925498740029
 10
908.51223116013296
 20
-1357.5158724638313
 42
-0.0031083229770231
 10
908.29868867351388
 20
-1358.0657965014348
 10
908.28995254183644
 20
-1358.0878862172972
 42
-0.0035311343283131
 10
908.08691135624645
 20
-1358.5908693430226
 10
908.07832601709913
 20
-1358.6117120665322
 42
-0.0040245640948877
 10
907.88521421330438
 20
-1359.0700213891255
 10
907.87677809969796
 20
-1359.0896007572053
 42
-0.0046015135849637
 10
907.69302180653756
 20
-1359.5055057868396
 10
907.6847356287127
 20
-1359.5238029262844
 42
-0.0052768638267054
 10
907.50975810975365
 20
-1359.8995758105621
 10
907.50162589912986
 20
-1359.9165691490987
 42
-0.0060672675646069
 10
907.33484628636074
 20
-1360.2544847722195
 10
907.32687680588197
 20
-1360.2701500312112
 42
-0.0069904648875863
 10
907.16770841187781
 20
-1360.5724858378803
 10
907.15991701226267
 20
-1360.5867963871156
 42
-0.0080637022764263
 10
907.00776515192115
 20
-1360.8558316902609
 10
907.00017611929013
 20
-1360.8687595558613
 42
-0.0093006455662364
 10
906.85443544275836
 20
-1361.1067739543646
 10
906.84708477601657
 20
-1361.1182919235348
 42
-0.0107060778059551
 10
906.7071362325762
 20
-1361.3275622409169
 10
906.70007446429724
 20
-1361.337647783482
 42
-0.012272311141508
 10
906.56528074609855
 20
-1361.5204411129716
 10
906.56495452253762
 20
-1361.52086150079
 42
-0.0141836319627482
 10
906.42137291957033
 20
-1361.6954312586108
 10
906.41442516391794
 20
-1361.7034062588762
 42
-0.0175957477207174
 10
906.27451899588368
 20
-1361.8530271472805
 42
-0.0080466359680596
 10
906.12705523085583
 20
-1361.9953496754295
 10
906.08102068633605
 20
-1362.0383701135229
 42
-0.0269600260395902
 10
905.82774044035352
 20
-1362.2506933720317
 10
905.76117330405248
 20
-1362.3006447866587
 42
-0.0178362839751624
 10
905.52122881440027
 20
-1362.4676627129083
 10
905.51398384340109
 20
-1362.4723312251124
 42
-0.0174650732652146
 10
905.2776476459585
 20
-1362.6131921900724
 42
-0.0169240130163348
 10
905.03218140009903
 20
-1362.7374844498506
 10
904.98619524454307
 20
-1362.758846405417
 42
-0.03188830368418
 10
904.63584438892519
 20
-1362.8951847149265
 10
904.56747885375785
 20
-1362.9168853354026
 42
-0.0284435909903825
 10
904.19142872746727
 20
-1363.0131027708771
 10
904.15627056696667
 20
-1363.019996366706
 42
-0.0243909341014052
 10
903.84282710604975
 20
-1363.0657173977359
 10
903.79254637928307
 20
-1363.0705629446372
 42
-0.0196639292930983
 10
903.57695080175131
 20
-1363.082811230151
 10
903.52512673058823
 20
-1363.0837144908878
 42
-0.0100501510681287
 10
903.41270344892359
 20
-1363.0834140925347
 10
903.38104358754617
 20
-1363.0826930206485
 42
-0.001975203110261
 10
903.33195125089821
 20
-1363.0813808604398
 10
903.32919094767999
 20
-1363.0812961686136
 42
0.0065378751991849
 10
903.28561437292137
 20
-1363.0805292773985
 42
-0.016797469468756
 10
903.24208354999348
 20
-1363.0788693788725
 10
903.23800421072747
 20
-1363.0785763679773
 42
-0.0081283276281018
 10
903.18644441298738
 20
-1363.0740293743395
 10
903.17470483911029
 20
-1363.0728014567612
 42
-0.0126703440184212
 10
903.09998654331741
 20
-1363.0630666656898
 10
903.07719867564015
 20
-1363.0595084097745
 42
-0.011785208842596
 10
902.95765968980265
 20
-1363.0379454146164
 10
902.90227923804468
 20
-1363.0266018743828
 42
-0.025177459229346
 10
902.67543519903802
 20
-1362.9681038649503
 10
902.63071600918363
 20
-1362.9541370456138
 42
-0.014652519988295
 10
902.44432302164728
 20
-1362.8898705184165
 42
-0.0166929435854634
 10
902.26234536552101
 20
-1362.814063385362
 10
902.25768873424749
 20
-1362.8119384847478
 42
-0.0191684358438663
 10
902.07250510299923
 20
-1362.7187024009584
 10
902.06917251724121
 20
-1362.7168611534044
 42
-0.0221181781813434
 10
901.88586221333844
 20
-1362.6047276550332
 10
901.88351240933059
 20
-1362.6031433570427
 42
-0.0254984685387022
 10
901.70722225894519
 20
-1362.4707322070728
 10
901.6847401112434
 20
-1362.4519798981369
 42
-0.0292492648806343
 10
901.55997117240031
 20
-1362.3348870984937
 42
-0.0159048957495093
 10
901.44613117495066
 20
-1362.2068671068953
 10
901.44481238437083
 20
-1362.2052854938747
 42
-0.0343813379558462
 10
901.34217512274461
 20
-1362.0634141681051
 10
901.31068359138294
 20
-1362.0129107760099
 42
-0.0369117275698362
 10
901.22479108948653
 20
-1361.8494335350626
 42
-0.0191751379920098
 10
901.1575977039297
 20
-1361.6770289290569
 10
901.15583438017006
 20
-1361.6719355843818
 42
-0.0378178042228349
 10
901.10603966138569
 20
-1361.4829948083
 10
901.10004436565589
 20
-1361.4504341901059
 42
-0.0184846046476622
 10
901.07932716636105
 20
-1361.3086813695586
 42
-0.0179866351324356
 10
901.06899416128738
 20
-1361.1657905564773
 10
901.06893771884165
 20
-1361.1642328698649
 42
-0.0085497186109164
 10
901.06750543773785
 20
-1361.089359704855
 42
-0.0085497186109164
  0
ENDBLK
  5
58
100
AcDbEntity
  8
template
390
0
100
AcDbBlockEnd
  0
BLOCK
  5
59
100
AcDbEntity
  8
notes
390
0
100
AcDbBlockBegin
  2
*D3
 70
               1
 10
0.0
 20
0.0
 30
0.0
  3
*D3
  1

  0
LINE
  5
5A
100
AcDbEntity
  8
0
370
              -2
390
0
  6
Continuous
 62
               0
100
AcDbLine
 10
-399.53002490922285
 20
777.38023850600825
 30
0.0
 11
-137.0300249092229
 21
777.38023850600825
 31
0.0
  0
LINE
  5
5B
100
AcDbEntity
  8
0
370
              -2
390
0
  6
Continuous
 62
               0
100
AcDbLine
 10
-399.53002490922285
 20
452.38023850600825
 30
0.0
 11
-137.0300249092229
 21
452.38023850600825
 31
0.0
  0
LINE
  5
5C
100
AcDbEntity
  8
0
370
              -2
390
0
  6
Continuous
 62
               0
100
AcDbLine
 10
-137.0300249092229
 20
777.38023850600825
 30
0.0
 11
-137.0300249092229
 21
452.38023850600825
 31
0.0
  0
CIRCLE
  5
5D
102
{ACAD_REACTORS
330
5E
102
}
100
AcDbEntity
  8
0
370
              -2
390
0
  6
Continuous
 62
               0
100
AcDbCircle
 10
-137.0300249092229
 20
777.38023850600825
 30
0.0
 40
4.99969482421875
  0
HATCH
  5
5E
100
AcDbEntity
  8
0
370
              -2
390
0
  6
Continuous
 62
               0
100
AcDbHatch
 10
0.0
 20
0.0
 30
0.0
210
0.0
220
0.0
230
1.0
  2
SOLID
 70
               1
 71
               1
 91
        1
 92
        1
 93
        1
 72
               2
 10
-137.0300249092229
 20
777.38023850600825
 40
4.99969482421875
 50
0.0
 51
360.0
 73
               0
 97
        1
330
5D
 75
               0
 76
               1
 98
        1
 10
0.0
 20
0.0
  0
CIRCLE
  5
5F
102
{ACAD_REACTORS
330
60
102
}
100
AcDbEntity
  8
0
370
              -2
390
0
  6
Continuous
 62
               0
100
AcDbCircle
 10
-137.0300249092229
 20
452.38023850600825
 30
0.0
 40
4.99969482421875
  0
HATCH
  5
60
100
AcDbEntity
  8
0
370
              -2
390
0
  6
Continuous
 62
               0
100
AcDbHatch
 10
0.0
 20
0.0
 30
0.0
210
0.0
220
0.0
230
1.0
  2
SOLID
 70
               1
 71
               1
 91
        1
 92
        1
 93
        1
 72
               2
 10
-137.0300249092229
 20
452.38023850600825
 40
4.99969482421875
 50
0.0
 51
360.0
 73
               0
 97
        1
330
5F
 75
               0
 76
               1
 98
        1
 10
0.0
 20
0.0
  0
MTEXT
  5
61
100
AcDbEntity
  8
0
390
0
 62
               0
100
AcDbMText
 10
-170.9076420967229
 20
594.57399978063279
 30
0.0
 40
24.432617187500004
 41
0.0
 71
               1
 72
               1
  1
325
  7
ＭＳ ゴシック
 11
0.0
 21
1.0
 31
0.0
 73
               1
 44
0.7828267384257843
  0
POINT
  5
62
100
AcDbEntity
  8
Defpoints
370
               0
390
0
 62
               0
100
AcDbPoint
 10
-424.53002490922285
 20
452.38023850600825
 30
0.0
  0
POINT
  5
63
100
AcDbEntity
  8
Defpoints
370
               0
390
0
 62
               0
100
AcDbPoint
 10
-424.53002490922285
 20
777.38023850600825
 30
0.0
  0
POINT
  5
64
100
AcDbEntity
  8
Defpoints
370
               0
390
0
 62
               0
100
AcDbPoint
 10
-137.0300249092229
 20
777.38023850600825
 30
0.0
  0
ENDBLK
  5
65
100
AcDbEntity
  8
notes
390
0
100
AcDbBlockEnd
  0
BLOCK
  5
66
100
AcDbEntity
  8
notes
390
0
100
AcDbBlockBegin
  2
*D4
 70
               1
 10
0.0
 20
0.0
 30
0.0
  3
*D4
  1

  0
LINE
  5
67
100
AcDbEntity
  8
0
370
              -2
390
0
  6
Continuous
 62
               0
100
AcDbLine
 10
-237.0300249092229
 20
639.88023850600825
 30
0.0
 11
-237.0300249092229
 21
877.38023850600825
 31
0.0
  0
LINE
  5
68
100
AcDbEntity
  8
0
370
              -2
390
0
  6
Continuous
 62
               0
100
AcDbLine
 10
-662.0300249092229
 20
639.88023850600825
 30
0.0
 11
-662.0300249092229
 21
877.38023850600825
 31
0.0
  0
LINE
  5
69
100
AcDbEntity
  8
0
370
              -2
390
0
  6
Continuous
 62
               0
100
AcDbLine
 10
-237.0300249092229
 20
877.38023850600825
 30
0.0
 11
-662.0300249092229
 21
877.38023850600825
 31
0.0
  0
CIRCLE
  5
6A
102
{ACAD_REACTORS
330
6B
102
}
100
AcDbEntity
  8
0
370
              -2
390
0
  6
Continuous
 62
               0
100
AcDbCircle
 10
-237.0300249092229
 20
877.38023850600825
 30
0.0
 40
4.99969482421875
  0
HATCH
  5
6B
100
AcDbEntity
  8
0
370
              -2
390
0
  6
Continuous
 62
               0
100
AcDbHatch
 10
0.0
 20
0.0
 30
0.0
210
0.0
220
0.0
230
1.0
  2
SOLID
 70
               1
 71
               1
 91
        1
 92
        1
 93
        1
 72
               2
 10
-237.0300249092229
 20
877.38023850600825
 40
4.99969482421875
 50
0.0
 51
360.0
 73
               0
 97
        1
330
6A
 75
               0
 76
               1
 98
        1
 10
0.0
 20
0.0
  0
CIRCLE
  5
6C
102
{ACAD_REACTORS
330
6D
102
}
100
AcDbEntity
  8
0
370
              -2
390
0
  6
Continuous
 62
               0
100
AcDbCircle
 10
-662.0300249092229
 20
877.38023850600825
 30
0.0
 40
4.99969482421875
  0
HATCH
  5
6D
100
AcDbEntity
  8
0
370
              -2
390
0
  6
Continuous
 62
               0
100
AcDbHatch
 10
0.0
 20
0.0
 30
0.0
210
0.0
220
0.0
230
1.0
  2
SOLID
 70
               1
 71
               1
 91
        1
 92
        1
 93
        1
 72
               2
 10
-662.0300249092229
 20
877.38023850600825
 40
4.99969482421875
 50
0.0
 51
360.0
 73
               0
 97
        1
330
6C
 75
               0
 76
               1
 98
        1
 10
0.0
 20
0.0
  0
MTEXT
  5
6E
100
AcDbEntity
  8
0
390
0
 62
               0
100
AcDbMText
 10
-473.34252659139844
 20
911.2578556935083
 30
0.0
 40
24.432617187500004
 41
0.0
 71
               1
 72
               1
  1
425
  7
ＭＳ ゴシック
 73
               1
 44
0.7828267384257843
  0
POINT
  5
6F
100
AcDbEntity
  8
Defpoints
370
               0
390
0
 62
               0
100
AcDbPoint
 10
-662.0300249092229
 20
614.88023850600825
 30
0.0
  0
POINT
  5
70
100
AcDbEntity
  8
Defpoints
370
               0
390
0
 62
               0
100
AcDbPoint
 10
-237.0300249092229
 20
614.88023850600825
 30
0.0
  0
POINT
  5
71
100
AcDbEntity
  8
Defpoints
370
               0
390
0
 62
               0
100
AcDbPoint
 10
-237.0300249092229
 20
877.38023850600825
 30
0.0
  0
ENDBLK
  5
72
100
AcDbEntity
  8
notes
390
0
100
AcDbBlockEnd
  0
BLOCK
  5
73
100
AcDbEntity
  8
notes
390
0
100
AcDbBlockBegin
  2
*D5
 70
               1
 10
0.0
 20
0.0
 30
0.0
  3
*D5
  1

  0
LINE
  5
74
100
AcDbEntity
  8
0
370
              -2
390
0
  6
Continuous
 62
               0
100
AcDbLine
 10
483.52476323963072
 20
-379.51740413005928
 30
0.0
 11
458.67128796693072
 21
-379.51740413005928
 31
0.0
  0
LINE
  5
75
100
AcDbEntity
  8
0
370
              -2
390
0
  6
Continuous
 62
               0
100
AcDbLine
 10
483.54628796693072
 20
-479.51740413005859
 30
0.0
 11
458.67128796693072
 21
-479.51740413005859
 31
0.0
  0
LINE
  5
76
100
AcDbEntity
  8
0
370
              -2
390
0
  6
Continuous
 62
               0
100
AcDbLine
 10
458.67128796693072
 20
-379.51740413005928
 30
0.0
 11
458.67128796693072
 21
-231.38951811076819
 31
0.0
  0
LINE
  5
77
100
AcDbEntity
  8
0
370
              -2
390
0
  6
Continuous
 62
               0
100
AcDbLine
 10
458.67128796693072
 20
-379.51740413005928
 30
0.0
 11
458.67128796693072
 21
-479.51740413005859
 31
0.0
  0
CIRCLE
  5
78
102
{ACAD_REACTORS
330
79
102
}
100
AcDbEntity
  8
0
370
              -2
390
0
  6
Continuous
 62
               0
100
AcDbCircle
 10
458.67128796693072
 20
-379.51740413005928
 30
0.0
 40
4.99969482421875
  0
HATCH
  5
79
100
AcDbEntity
  8
0
370
              -2
390
0
  6
Continuous
 62
               0
100
AcDbHatch
 10
0.0
 20
0.0
 30
0.0
210
0.0
220
0.0
230
1.0
  2
SOLID
 70
               1
 71
               1
 91
        1
 92
        1
 93
        1
 72
               2
 10
458.67128796693072
 20
-379.51740413005928
 40
4.99969482421875
 50
0.0
 51
360.0
 73
               0
 97
        1
330
78
 75
               0
 76
               1
 98
        1
 10
0.0
 20
0.0
  0
CIRCLE
  5
7A
102
{ACAD_REACTORS
330
7B
102
}
100
AcDbEntity
  8
0
370
              -2
390
0
  6
Continuous
 62
               0
100
AcDbCircle
 10
458.67128796693072
 20
-479.51740413005859
 30
0.0
 40
4.99969482421875
  0
HATCH
  5
7B
100
AcDbEntity
  8
0
370
              -2
390
0
  6
Continuous
 62
               0
100
AcDbHatch
 10
0.0
 20
0.0
 30
0.0
210
0.0
220
0.0
230
1.0
  2
SOLID
 70
               1
 71
               1
 91
        1
 92
        1
 93
        1
 72
               2
 10
458.67128796693072
 20
-479.51740413005859
 40
4.99969482421875
 50
0.0
 51
360.0
 73
               0
 97
        1
330
7A
 75
               0
 76
               1
 98
        1
 10
0.0
 20
0.0
  0
MTEXT
  5
7C
100
AcDbEntity
  8
0
390
0
 62
               0
100
AcDbMText
 10
424.79367077943073
 20
-374.26451811076822
 30
0.0
 40
24.432617187500004
 41
0.0
 71
               1
 72
               1
  1
100(深さ)
  7
ＭＳ ゴシック
 11
0.0
 21
1.0
 31
0.0
 73
               1
 44
0.7828267384257843
  0
POINT
  5
7D
100
AcDbEntity
  8
Defpoints
370
               0
390
0
 62
               0
100
AcDbPoint
 10
458.54628796693072
 20
-479.51740413005859
 30
0.0
  0
POINT
  5
7E
100
AcDbEntity
  8
Defpoints
370
               0
390
0
 62
               0
100
AcDbPoint
 10
458.52476323963072
 20
-379.51740413005928
 30
0.0
  0
POINT
  5
7F
100
AcDbEntity
  8
Defpoints
370
               0
390
0
 62
               0
100
AcDbPoint
 10
458.67128796693072
 20
-379.51740413005928
 30
0.0
  0
ENDBLK
  5
80
100
AcDbEntity
  8
notes
390
0
100
AcDbBlockEnd
  0
BLOCK
  5
81
100
AcDbEntity
  8
notes
390
0
100
AcDbBlockBegin
  2
*D6
 70
               1
 10
0.0
 20
0.0
 30
0.0
  3
*D6
  1

  0
LINE
  5
82
100
AcDbEntity
  8
0
370
              -2
390
0
  6
Continuous
 62
               0
100
AcDbLine
 10
642.4415719044307
 20
-379.51740413005928
 30
0.0
 11
720.6155788433307
 21
-379.51740413005928
 31
0.0
  0
LINE
  5
83
100
AcDbEntity
  8
0
370
              -2
390
0
  6
Continuous
 62
               0
100
AcDbLine
 10
642.4415719044307
 20
-387.51740451005924
 30
0.0
 11
720.6155788433307
 21
-387.51740451005924
 31
0.0
  0
LINE
  5
84
100
AcDbEntity
  8
0
370
              -2
390
0
  6
Continuous
 62
               0
100
AcDbLine
 10
720.6155788433307
 20
-379.51740413005928
 30
0.0
 11
720.6155788433307
 21
-344.38951811076822
 31
0.0
  0
LINE
  5
85
100
AcDbEntity
  8
0
370
              -2
390
0
  6
Continuous
 62
               0
100
AcDbLine
 10
720.6155788433307
 20
-379.51740413005928
 30
0.0
 11
720.6155788433307
 21
-387.51740451005924
 31
0.0
  0
CIRCLE
  5
86
102
{ACAD_REACTORS
330
87
102
}
100
AcDbEntity
  8
0
370
              -2
390
0
  6
Continuous
 62
               0
100
AcDbCircle
 10
720.6155788433307
 20
-379.51740413005928
 30
0.0
 40
4.99969482421875
  0
HATCH
  5
87
100
AcDbEntity
  8
0
370
              -2
390
0
  6
Continuous
 62
               0
100
AcDbHatch
 10
0.0
 20
0.0
 30
0.0
210
0.0
220
0.0
230
1.0
  2
SOLID
 70
               1
 71
               1
 91
        1
 92
        1
 93
        1
 72
               2
 10
720.6155788433307
 20
-379.51740413005928
 40
4.99969482421875
 50
0.0
 51
360.0
 73
               0
 97
        1
330
86
 75
               0
 76
               1
 98
        1
 10
0.0
 20
0.0
  0
CIRCLE
  5
88
102
{ACAD_REACTORS
330
89
102
}
100
AcDbEntity
  8
0
370
              -2
390
0
  6
Continuous
 62
               0
100
AcDbCircle
 10
720.6155788433307
 20
-387.51740451005924
 30
0.0
 40
4.99969482421875
  0
HATCH
  5
89
100
AcDbEntity
  8
0
370
              -2
390
0
  6
Continuous
 62
               0
100
AcDbHatch
 10
0.0
 20
0.0
 30
0.0
210
0.0
220
0.0
230
1.0
  2
SOLID
 70
               1
 71
               1
 91
        1
 92
        1
 93
        1
 72
               2
 10
720.6155788433307
 20
-387.51740451005924
 40
4.99969482421875
 50
0.0
 51
360.0
 73
               0
 97
        1
330
88
 75
               0
 76
               1
 98
        1
 10
0.0
 20
0.0
  0
MTEXT
  5
8A
100
AcDbEntity
  8
0
390
0
 62
               0
100
AcDbMText
 10
686.73796165583065
 20
-360.26451811076822
 30
0.0
 40
24.432617187500004
 41
0.0
 71
               1
 72
               1
  1
8
  7
ＭＳ ゴシック
 11
0.0
 21
1.0
 31
0.0
 73
               1
 44
0.7828267384257843
  0
POINT
  5
8B
100
AcDbEntity
  8
Defpoints
370
               0
390
0
 62
               0
100
AcDbPoint
 10
617.4415719044307
 20
-387.51740451005924
 30
0.0
  0
POINT
  5
8C
100
AcDbEntity
  8
Defpoints
370
               0
390
0
 62
               0
100
AcDbPoint
 10
617.4415719044307
 20
-379.51740413005928
 30
0.0
  0
POINT
  5
8D
100
AcDbEntity
  8
Defpoints
370
               0
390
0
 62
               0
100
AcDbPoint
 10
720.6155788433307
 20
-379.51740413005928
 30
0.0
  0
ENDBLK
  5
8E
100
AcDbEntity
  8
notes
390
0
100
AcDbBlockEnd
  0
BLOCK
  5
8F
100
AcDbEntity
  8
notes
390
0
100
AcDbBlockBegin
  2
*D7
 70
               1
 10
0.0
 20
0.0
 30
0.0
  3
*D7
  1

  0
LINE
  5
90
100
AcDbEntity
  8
0
370
              -2
390
0
  6
Continuous
 62
               0
100
AcDbLine
 10
-637.0300249092229
 20
509.27762964450437
 30
0.0
 11
-637.0300249092229
 21
352.38023850600825
 31
0.0
  0
LINE
  5
91
100
AcDbEntity
  8
0
370
              -2
390
0
  6
Continuous
 62
               0
100
AcDbLine
 10
-262.03002490922285
 20
513.65365215470933
 30
0.0
 11
-262.03002490922285
 21
352.38023850600825
 31
0.0
  0
LINE
  5
92
100
AcDbEntity
  8
0
370
              -2
390
0
  6
Continuous
 62
               0
100
AcDbLine
 10
-637.0300249092229
 20
352.38023850600825
 30
0.0
 11
-262.03002490922285
 21
352.38023850600825
 31
0.0
  0
CIRCLE
  5
93
102
{ACAD_REACTORS
330
94
102
}
100
AcDbEntity
  8
0
370
              -2
390
0
  6
Continuous
 62
               0
100
AcDbCircle
 10
-637.0300249092229
 20
352.38023850600825
 30
0.0
 40
4.99969482421875
  0
HATCH
  5
94
100
AcDbEntity
  8
0
370
              -2
390
0
  6
Continuous
 62
               0
100
AcDbHatch
 10
0.0
 20
0.0
 30
0.0
210
0.0
220
0.0
230
1.0
  2
SOLID
 70
               1
 71
               1
 91
        1
 92
        1
 93
        1
 72
               2
 10
-637.0300249092229
 20
352.38023850600825
 40
4.99969482421875
 50
0.0
 51
360.0
 73
               0
 97
        1
330
93
 75
               0
 76
               1
 98
        1
 10
0.0
 20
0.0
  0
CIRCLE
  5
95
102
{ACAD_REACTORS
330
96
102
}
100
AcDbEntity
  8
0
370
              -2
390
0
  6
Continuous
 62
               0
100
AcDbCircle
 10
-262.03002490922285
 20
352.38023850600825
 30
0.0
 40
4.99969482421875
  0
HATCH
  5
96
100
AcDbEntity
  8
0
370
              -2
390
0
  6
Continuous
 62
               0
100
AcDbHatch
 10
0.0
 20
0.0
 30
0.0
210
0.0
220
0.0
230
1.0
  2
SOLID
 70
               1
 71
               1
 91
        1
 92
        1
 93
        1
 72
               2
 10
-262.03002490922285
 20
352.38023850600825
 40
4.99969482421875
 50
0.0
 51
360.0
 73
               0
 97
        1
330
95
 75
               0
 76
               1
 98
        1
 10
0.0
 20
0.0
  0
MTEXT
  5
97
100
AcDbEntity
  8
0
390
0
 62
               0
100
AcDbMText
 10
-473.34252659139844
 20
386.25785569350819
 30
0.0
 40
24.432617187500004
 41
0.0
 71
               1
 72
               1
  1
375
  7
ＭＳ ゴシック
 73
               1
 44
0.7828267384257843
  0
POINT
  5
98
100
AcDbEntity
  8
Defpoints
370
               0
390
0
 62
               0
100
AcDbPoint
 10
-262.03002490922285
 20
538.65365215470933
 30
0.0
  0
POINT
  5
99
100
AcDbEntity
  8
Defpoints
370
               0
390
0
 62
               0
100
AcDbPoint
 10
-637.0300249092229
 20
534.27762964450437
 30
0.0
  0
POINT
  5
9A
100
AcDbEntity
  8
Defpoints
370
               0
390
0
 62
               0
100
AcDbPoint
 10
-637.0300249092229
 20
352.38023850600825
 30
0.0
  0
ENDBLK
  5
9B
100
AcDbEntity
  8
notes
390
0
100
AcDbBlockEnd
  0
BLOCK
  5
9C
100
AcDbEntity
  8
notes
390
0
100
AcDbBlockBegin
  2
*D8
 70
               1
 10
0.0
 20
0.0
 30
0.0
  3
*D8
  1

  0
LINE
  5
9D
100
AcDbEntity
  8
0
370
              -2
390
0
  6
Continuous
 62
               0
100
AcDbLine
 10
-587.99205579682302
 20
752.35662817809816
 30
0.0
 11
-762.03002490922302
 21
752.35662817809816
 31
0.0
  0
LINE
  5
9E
100
AcDbEntity
  8
0
370
              -2
390
0
  6
Continuous
 62
               0
100
AcDbLine
 10
-587.84403410599452
 20
477.40104280769924
 30
0.0
 11
-762.03002490922302
 21
477.40104280769924
 31
0.0
  0
LINE
  5
9F
100
AcDbEntity
  8
0
370
              -2
390
0
  6
Continuous
 62
               0
100
AcDbLine
 10
-762.03002490922302
 20
752.35662817809816
 30
0.0
 11
-762.03002490922302
 21
477.40104280769924
 31
0.0
  0
CIRCLE
  5
A0
102
{ACAD_REACTORS
330
A1
102
}
100
AcDbEntity
  8
0
370
              -2
390
0
  6
Continuous
 62
               0
100
AcDbCircle
 10
-762.03002490922302
 20
752.35662817809816
 30
0.0
 40
4.99969482421875
  0
HATCH
  5
A1
100
AcDbEntity
  8
0
370
              -2
390
0
  6
Continuous
 62
               0
100
AcDbHatch
 10
0.0
 20
0.0
 30
0.0
210
0.0
220
0.0
230
1.0
  2
SOLID
 70
               1
 71
               1
 91
        1
 92
        1
 93
        1
 72
               2
 10
-762.03002490922302
 20
752.35662817809816
 40
4.99969482421875
 50
0.0
 51
360.0
 73
               0
 97
        1
330
A0
 75
               0
 76
               1
 98
        1
 10
0.0
 20
0.0
  0
CIRCLE
  5
A2
102
{ACAD_REACTORS
330
A3
102
}
100
AcDbEntity
  8
0
370
              -2
390
0
  6
Continuous
 62
               0
100
AcDbCircle
 10
-762.03002490922302
 20
477.40104280769924
 30
0.0
 40
4.99969482421875
  0
HATCH
  5
A3
100
AcDbEntity
  8
0
370
              -2
390
0
  6
Continuous
 62
               0
100
AcDbHatch
 10
0.0
 20
0.0
 30
0.0
210
0.0
220
0.0
230
1.0
  2
SOLID
 70
               1
 71
               1
 91
        1
 92
        1
 93
        1
 72
               2
 10
-762.03002490922302
 20
477.40104280769924
 40
4.99969482421875
 50
0.0
 51
360.0
 73
               0
 97
        1
330
A2
 75
               0
 76
               1
 98
        1
 10
0.0
 20
0.0
  0
MTEXT
  5
A4
100
AcDbEntity
  8
0
390
0
 62
               0
100
AcDbMText
 10
-795.90764209672307
 20
591.06633381072322
 30
0.0
 40
24.432617187500004
 41
0.0
 71
               1
 72
               1
  1
275
  7
ＭＳ ゴシック
 11
0.0
 21
1.0
 31
0.0
 73
               1
 44
0.7828267384257843
  0
POINT
  5
A5
100
AcDbEntity
  8
Defpoints
370
               0
390
0
 62
               0
100
AcDbPoint
 10
-562.84403410599452
 20
477.40104280769924
 30
0.0
  0
POINT
  5
A6
100
AcDbEntity
  8
Defpoints
370
               0
390
0
 62
               0
100
AcDbPoint
 10
-562.99205579682302
 20
752.35662817809816
 30
0.0
  0
POINT
  5
A7
100
AcDbEntity
  8
Defpoints
370
               0
390
0
 62
               0
100
AcDbPoint
 10
-762.03002490922302
 20
752.35662817809816
 30
0.0
  0
ENDBLK
  5
A8
100
AcDbEntity
  8
notes
390
0
100
AcDbBlockEnd
  0
BLOCK
  5
A9
100
AcDbEntity
  8
notes
390
0
100
AcDbBlockBegin
  2
*D9
 70
               1
 10
0.0
 20
0.0
 30
0.0
  3
*D9
  1

  0
LINE
  5
AA
100
AcDbEntity
  8
0
370
              -2
390
0
  6
Continuous
 62
               0
100
AcDbLine
 10
-215.53748407282285
 20
-379.51740413005928
 30
0.0
 11
-137.0300249092229
 21
-379.51740413005928
 31
0.0
  0
LINE
  5
AB
100
AcDbEntity
  8
0
370
              -2
390
0
  6
Continuous
 62
               0
100
AcDbLine
 10
-387.02998020572289
 20
-529.5174041300578
 30
0.0
 11
-137.0300249092229
 21
-529.5174041300578
 31
0.0
  0
LINE
  5
AC
100
AcDbEntity
  8
0
370
              -2
390
0
  6
Continuous
 62
               0
100
AcDbLine
 10
-137.0300249092229
 20
-379.51740413005928
 30
0.0
 11
-137.0300249092229
 21
-529.5174041300578
 31
0.0
  0
CIRCLE
  5
AD
102
{ACAD_REACTORS
330
AE
102
}
100
AcDbEntity
  8
0
370
              -2
390
0
  6
Continuous
 62
               0
100
AcDbCircle
 10
-137.0300249092229
 20
-379.51740413005928
 30
0.0
 40
4.99969482421875
  0
HATCH
  5
AE
100
AcDbEntity
  8
0
370
              -2
390
0
  6
Continuous
 62
               0
100
AcDbHatch
 10
0.0
 20
0.0
 30
0.0
210
0.0
220
0.0
230
1.0
  2
SOLID
 70
               1
 71
               1
 91
        1
 92
        1
 93
        1
 72
               2
 10
-137.0300249092229
 20
-379.51740413005928
 40
4.99969482421875
 50
0.0
 51
360.0
 73
               0
 97
        1
330
AD
 75
               0
 76
               1
 98
        1
 10
0.0
 20
0.0
  0
CIRCLE
  5
AF
102
{ACAD_REACTORS
330
B0
102
}
100
AcDbEntity
  8
0
370
              -2
390
0
  6
Continuous
 62
               0
100
AcDbCircle
 10
-137.0300249092229
 20
-529.5174041300578
 30
0.0
 40
4.99969482421875
  0
HATCH
  5
B0
100
AcDbEntity
  8
0
370
              -2
390
0
  6
Continuous
 62
               0
100
AcDbHatch
 10
0.0
 20
0.0
 30
0.0
210
0.0
220
0.0
230
1.0
  2
SOLID
 70
               1
 71
               1
 91
        1
 92
        1
 93
        1
 72
               2
 10
-137.0300249092229
 20
-529.5174041300578
 40
4.99969482421875
 50
0.0
 51
360.0
 73
               0
 97
        1
330
AF
 75
               0
 76
               1
 98
        1
 10
0.0
 20
0.0
  0
MTEXT
  5
B1
100
AcDbEntity
  8
0
390
0
 62
               0
100
AcDbMText
 10
-170.9076420967229
 20
-478.32990581223407
 30
0.0
 40
24.432617187500004
 41
0.0
 71
               1
 72
               1
  1
150
  7
ＭＳ ゴシック
 11
0.0
 21
1.0
 31
0.0
 73
               1
 44
0.7828267384257843
  0
POINT
  5
B2
100
AcDbEntity
  8
Defpoints
370
               0
390
0
 62
               0
100
AcDbPoint
 10
-412.02998020572289
 20
-529.5174041300578
 30
0.0
  0
POINT
  5
B3
100
AcDbEntity
  8
Defpoints
370
               0
390
0
 62
               0
100
AcDbPoint
 10
-240.53748407282285
 20
-379.51740413005928
 30
0.0
  0
POINT
  5
B4
100
AcDbEntity
  8
Defpoints
370
               0
390
0
 62
               0
100
AcDbPoint
 10
-137.0300249092229
 20
-379.51740413005928
 30
0.0
  0
ENDBLK
  5
B5
100
AcDbEntity
  8
notes
390
0
100
AcDbBlockEnd
  0
BLOCK
  5
B6
100
AcDbEntity
  8
FAN70-0310
390
0
100
AcDbBlockBegin
  2
グループ-1
 70
               0
 10
0.0
 20
0.0
 30
0.0
  3
グループ-1
  1

  0
POLYLINE
  5
B7
100
AcDbEntity
  8
0
370
              15
390
0
  6
Continuous
 62
               7
100
AcDb2dPolyline
 66
               1
 10
0.0
 20
0.0
 30
0.0
 70
               1
 75
               5
  0
VERTEX
  5
B8
100
AcDbEntity
  8
0
370
              15
390
0
  6
Continuous
 62
               7
100
AcDbVertex
100
AcDb2dVertex
 10
-487.02998020572289
 20
-479.88702803362384
 30
0.0
  0
VERTEX
  5
B9
100
AcDbEntity
  8
0
370
              15
390
0
  6
Continuous
 62
               7
100
AcDbVertex
100
AcDb2dVertex
 10
-412.02998020572289
 20
-479.88702803362384
 30
0.0
  0
VERTEX
  5
BA
100
AcDbEntity
  8
0
370
              15
390
0
  6
Continuous
 62
               7
100
AcDbVertex
100
AcDb2dVertex
 10
-412.02998020572289
 20
-529.51740380606645
 30
0.0
  0
VERTEX
  5
BB
100
AcDbEntity
  8
0
370
              15
390
0
  6
Continuous
 62
               7
100
AcDbVertex
100
AcDb2dVertex
 10
-487.02998020572289
 20
-529.51740380606645
 30
0.0
  0
SEQEND
  5
BC
100
AcDbEntity
  8
0
370
              15
390
0
  6
Continuous
 62
               7
  0
LINE
  5
BD
100
AcDbEntity
  8
0
370
              15
390
0
  6
Continuous
 62
               7
100
AcDbLine
 10
-487.02998020572289
 20
-493.88702803362355
 30
0.0
 11
-412.02998020572289
 21
-493.88702803362355
 31
0.0
  0
ENDBLK
  5
BE
100
AcDbEntity
  8
FAN70-0310
390
0
100
AcDbBlockEnd
  0
BLOCK
  5
BF
100
AcDbEntity
  8
FAN70-0310
390
0
100
AcDbBlockBegin
  2
グループ-2
 70
               0
 10
0.0
 20
0.0
 30
0.0
  3
グループ-2
  1

  0
POLYLINE
  5
C0
100
AcDbEntity
  8
0
370
              15
390
0
  6
Continuous
 62
               7
100
AcDb2dPolyline
 66
               1
 10
0.0
 20
0.0
 30
0.0
 70
               1
 75
               5
  0
VERTEX
  5
C1
100
AcDbEntity
  8
0
370
              15
390
0
  6
Continuous
 62
               7
100
AcDbVertex
100
AcDb2dVertex
 10
421.0462879669808
 20
-479.88702803362384
 30
0.0
  0
VERTEX
  5
C2
100
AcDbEntity
  8
0
370
              15
390
0
  6
Continuous
 62
               7
100
AcDbVertex
100
AcDb2dVertex
 10
496.0462879669808
 20
-479.88702803362384
 30
0.0
  0
VERTEX
  5
C3
100
AcDbEntity
  8
0
370
              15
390
0
  6
Continuous
 62
               7
100
AcDbVertex
100
AcDb2dVertex
 10
496.0462879669808
 20
-529.51740380606645
 30
0.0
  0
VERTEX
  5
C4
100
AcDbEntity
  8
0
370
              15
390
0
  6
Continuous
 62
               7
100
AcDbVertex
100
AcDb2dVertex
 10
421.0462879669808
 20
-529.51740380606645
 30
0.0
  0
SEQEND
  5
C5
100
AcDbEntity
  8
0
370
              15
390
0
  6
Continuous
 62
               7
  0
LINE
  5
C6
100
AcDbEntity
  8
0
370
              15
390
0
  6
Continuous
 62
               7
100
AcDbLine
 10
421.0462879669808
 20
-493.88702803362355
 30
0.0
 11
496.0462879669808
 21
-493.88702803362355
 31
0.0
  0
ENDBLK
  5
C7
100
AcDbEntity
  8
FAN70-0310
390
0
100
AcDbBlockEnd
  0
BLOCK
  5
C8
100
AcDbEntity
  8
FAN70-0310
390
0
100
AcDbBlockBegin
  2
*D12
 70
               1
 10
0.0
 20
0.0
 30
0.0
  3
*D12
  1

  0
LINE
  5
C9
100
AcDbEntity
  8
0
370
              -2
390
0
  6
Continuous
 62
               0
100
AcDbLine
 10
-449.52998020572289
 20
-554.5174041300578
 30
0.0
 11
-449.52998020572289
 21
-629.5174041300578
 31
0.0
  0
LINE
  5
CA
100
AcDbEntity
  8
0
370
              -2
390
0
  6
Continuous
 62
               0
100
AcDbLine
 10
-662.02970304412293
 20
-411.8159314154592
 30
0.0
 11
-662.02970304412293
 21
-629.5174041300578
 31
0.0
  0
LINE
  5
CB
100
AcDbEntity
  8
0
370
              -2
390
0
  6
Continuous
 62
               0
100
AcDbLine
 10
-449.52998020572289
 20
-629.5174041300578
 30
0.0
 11
-662.02970304412293
 21
-629.5174041300578
 31
0.0
  0
CIRCLE
  5
CC
102
{ACAD_REACTORS
330
CD
102
}
100
AcDbEntity
  8
0
370
              -2
390
0
  6
Continuous
 62
               0
100
AcDbCircle
 10
-449.52998020572289
 20
-629.5174041300578
 30
0.0
 40
4.99969482421875
  0
HATCH
  5
CD
100
AcDbEntity
  8
0
370
              -2
390
0
  6
Continuous
 62
               0
100
AcDbHatch
 10
0.0
 20
0.0
 30
0.0
210
0.0
220
0.0
230
1.0
  2
SOLID
 70
               1
 71
               1
 91
        1
 92
        1
 93
        1
 72
               2
 10
-449.52998020572289
 20
-629.5174041300578
 40
4.99969482421875
 50
0.0
 51
360.0
 73
               0
 97
        1
330
CC
 75
               0
 76
               1
 98
        1
 10
0.0
 20
0.0
  0
CIRCLE
  5
CE
102
{ACAD_REACTORS
330
CF
102
}
100
AcDbEntity
  8
0
370
              -2
390
0
  6
Continuous
 62
               0
100
AcDbCircle
 10
-662.02970304412293
 20
-629.5174041300578
 30
0.0
 40
4.99969482421875
  0
HATCH
  5
CF
100
AcDbEntity
  8
0
370
              -2
390
0
  6
Continuous
 62
               0
100
AcDbHatch
 10
0.0
 20
0.0
 30
0.0
210
0.0
220
0.0
230
1.0
  2
SOLID
 70
               1
 71
               1
 91
        1
 92
        1
 93
        1
 72
               2
 10
-662.02970304412293
 20
-629.5174041300578
 40
4.99969482421875
 50
0.0
 51
360.0
 73
               0
 97
        1
330
CE
 75
               0
 76
               1
 98
        1
 10
0.0
 20
0.0
  0
MTEXT
  5
D0
100
AcDbEntity
  8
0
390
0
 62
               0
100
AcDbMText
 10
-595.46734162492294
 20
-595.63978694255775
 30
0.0
 40
24.432617187500004
 41
0.0
 71
               1
 72
               1
  1
212.5
  7
ＭＳ ゴシック
 73
               1
 44
0.7828267384257843
  0
POINT
  5
D1
100
AcDbEntity
  8
Defpoints
370
               0
390
0
 62
               0
100
AcDbPoint
 10
-662.02970304412293
 20
-386.8159314154592
 30
0.0
  0
POINT
  5
D2
100
AcDbEntity
  8
Defpoints
370
               0
390
0
 62
               0
100
AcDbPoint
 10
-449.52998020572289
 20
-529.5174041300578
 30
0.0
  0
POINT
  5
D3
100
AcDbEntity
  8
Defpoints
370
               0
390
0
 62
               0
100
AcDbPoint
 10
-449.52998020572289
 20
-629.5174041300578
 30
0.0
  0
ENDBLK
  5
D4
100
AcDbEntity
  8
FAN70-0310
390
0
100
AcDbBlockEnd
  0
BLOCK
  5
D5
100
AcDbEntity
  8
FAN70-0310
390
0
100
AcDbBlockBegin
  2
*D13
 70
               1
 10
0.0
 20
0.0
 30
0.0
  3
*D13
  1

  0
LINE
  5
D6
100
AcDbEntity
  8
0
370
              -2
390
0
  6
Continuous
 62
               0
100
AcDbLine
 10
296.04656214833068
 20
-411.83663005975916
 30
0.0
 11
296.04656214833068
 21
-629.5174041300578
 31
0.0
  0
LINE
  5
D7
100
AcDbEntity
  8
0
370
              -2
390
0
  6
Continuous
 62
               0
100
AcDbLine
 10
458.5462879669808
 20
-554.5174041300578
 30
0.0
 11
458.5462879669808
 21
-629.5174041300578
 31
0.0
  0
LINE
  5
D8
100
AcDbEntity
  8
0
370
              -2
390
0
  6
Continuous
 62
               0
100
AcDbLine
 10
296.04656214833068
 20
-629.5174041300578
 30
0.0
 11
458.5462879669808
 21
-629.5174041300578
 31
0.0
  0
CIRCLE
  5
D9
102
{ACAD_REACTORS
330
DA
102
}
100
AcDbEntity
  8
0
370
              -2
390
0
  6
Continuous
 62
               0
100
AcDbCircle
 10
296.04656214833068
 20
-629.5174041300578
 30
0.0
 40
4.99969482421875
  0
HATCH
  5
DA
100
AcDbEntity
  8
0
370
              -2
390
0
  6
Continuous
 62
               0
100
AcDbHatch
 10
0.0
 20
0.0
 30
0.0
210
0.0
220
0.0
230
1.0
  2
SOLID
 70
               1
 71
               1
 91
        1
 92
        1
 93
        1
 72
               2
 10
296.04656214833068
 20
-629.5174041300578
 40
4.99969482421875
 50
0.0
 51
360.0
 73
               0
 97
        1
330
D9
 75
               0
 76
               1
 98
        1
 10
0.0
 20
0.0
  0
CIRCLE
  5
DB
102
{ACAD_REACTORS
330
DC
102
}
100
AcDbEntity
  8
0
370
              -2
390
0
  6
Continuous
 62
               0
100
AcDbCircle
 10
458.5462879669808
 20
-629.5174041300578
 30
0.0
 40
4.99969482421875
  0
HATCH
  5
DC
100
AcDbEntity
  8
0
370
              -2
390
0
  6
Continuous
 62
               0
100
AcDbHatch
 10
0.0
 20
0.0
 30
0.0
210
0.0
220
0.0
230
1.0
  2
SOLID
 70
               1
 71
               1
 91
        1
 92
        1
 93
        1
 72
               2
 10
458.5462879669808
 20
-629.5174041300578
 40
4.99969482421875
 50
0.0
 51
360.0
 73
               0
 97
        1
330
DB
 75
               0
 76
               1
 98
        1
 10
0.0
 20
0.0
  0
MTEXT
  5
DD
100
AcDbEntity
  8
0
390
0
 62
               0
100
AcDbMText
 10
337.60892505765571
 20
-595.63978694255775
 30
0.0
 40
24.432617187500004
 41
0.0
 71
               1
 72
               1
  1
162.5
  7
ＭＳ ゴシック
 73
               1
 44
0.7828267384257843
  0
POINT
  5
DE
100
AcDbEntity
  8
Defpoints
370
               0
390
0
 62
               0
100
AcDbPoint
 10
458.5462879669808
 20
-529.5174041300578
 30
0.0
  0
POINT
  5
DF
100
AcDbEntity
  8
Defpoints
370
               0
390
0
 62
               0
100
AcDbPoint
 10
296.04656214833068
 20
-386.83663005975916
 30
0.0
  0
POINT
  5
E0
100
AcDbEntity
  8
Defpoints
370
               0
390
0
 62
               0
100
AcDbPoint
 10
296.04656214833068
 20
-629.5174041300578
 30
0.0
  0
ENDBLK
  5
E1
100
AcDbEntity
  8
FAN70-0310
390
0
100
AcDbBlockEnd
  0
ENDSEC
  0
SECTION
  2
ENTITIES
  0
MTEXT
  5
E2
100
AcDbEntity
  8
template
390
0
 62
               7
100
AcDbMText
 10
-967.99999999975921
 20
-1147.4176292337004
 30
0.0
 40
16.288411458333332
 41
0.0
 71
               1
 72
               1
  1
品名
  7
ＭＳ ゴシック
 73
               1
 44
0.7828267384257843
  0
MTEXT
  5
E3
100
AcDbEntity
  8
template
390
0
 62
               7
100
AcDbMText
 10
-967.99999999975921
 20
-1232.4176292337004
 30
0.0
 40
16.288411458333332
 41
0.0
 71
               1
 72
               1
  1
仕様
  7
ＭＳ ゴシック
 73
               1
 44
0.7828267384257843
  0
MTEXT
  5
E4
100
AcDbEntity
  8
template
390
0
 62
               7
100
AcDbMText
 10
-914.99999999975921
 20
-1176.0000901712006
 30
0.0
 40
24.432617187500004
 41
0.0
 71
               1
 72
               1
  1
洗面器 -ALAPE-
  7
ＭＳ ゴシック
 73
               1
 44
0.7828267384257843
  0
LINE
  5
E5
100
AcDbEntity
  8
template
370
               5
390
0
  6
Continuous
 62
               7
100
AcDbLine
 10
974.99999999975876
 20
-1224.0027073587005
 30
0.0
 11
-975.00000000024124
 21
-1224.0027073587005
 31
0.0
  0
LWPOLYLINE
  5
E6
100
AcDbEntity
  8
template
370
               5
390
0
  6
Continuous
 62
               7
100
AcDbPolyline
 90
        5
 70
             128
 10
975.00000000024124
 20
1405.9972926412995
 10
-974.99999999975921
 20
1405.9972926412995
 10
-974.99999999975921
 20
-1394.0027073587005
 10
975.00000000024124
 20
-1394.0027073587005
 10
975.00000000024124
 20
1405.9972926412995
  0
LINE
  5
E7
100
AcDbEntity
  8
template
370
               5
390
0
  6
Continuous
 62
               7
100
AcDbLine
 10
974.99999999975876
 20
-1139.0027073587005
 30
0.0
 11
-975.00000000024124
 21
-1139.0027073587005
 31
0.0
  0
LINE
  5
E8
100
AcDbEntity
  8
template
370
               5
390
0
  6
Continuous
 62
               7
100
AcDbLine
 10
975.00000000024124
 20
-1309.0027073587005
 30
0.0
 11
222.00000000024124
 21
-1309.0027073587005
 31
0.0
  0
MTEXT
  5
E9
100
AcDbEntity
  8
template
390
0
 62
               7
100
AcDbMText
 10
-974.99999999955594
 20
-1405.8565294155574
 30
0.0
 40
21.717881944444446
 41
0.0
 71
               1
 72
               1
  1
120515SH
  7
ＭＳ ゴシック
 73
               1
 44
0.7828267384257843
  0
MTEXT
  5
EA
100
AcDbEntity
  8
template
390
0
 62
               7
100
AcDbMText
 10
251.87140625250089
 20
-1338.9131018320081
 30
0.0
 40
24.432617187500004
 41
0.0
 71
               1
 72
               1
  1
大洋金物株式会社 ティーフォルム事業部
  7
ＭＳ ゴシック
 73
               1
 44
0.7828267384257843
  0
INSERT
  5
EB
100
AcDbEntity
  8
template
390
0
 62
               7
100
AcDbBlockReference
  2
グループ
 10
0.0000000000000142
 20
-0.0000003239913724
 30
0.0
  0
MTEXT
  5
EC
100
AcDbEntity
  8
template
390
0
 62
               7
100
AcDbMText
 10
784.00000000049999
 20
-1261.0000901712006
 30
0.0
 40
24.432617187500004
 41
0.0
 71
               1
 72
               1
  1
1:10
  7
ＭＳ ゴシック
 73
               1
 44
0.7828267384257843
  0
MTEXT
  5
ED
100
AcDbEntity
  8
template
390
0
 62
               7
100
AcDbMText
 10
731.00000000049999
 20
-1232.4176292337004
 30
0.0
 40
16.288411458333332
 41
0.0
 71
               1
 72
               1
  1
縮尺
  7
ＭＳ ゴシック
 73
               1
 44
0.7828267384257843
  0
LINE
  5
EE
100
AcDbEntity
  8
template
370
               5
390
0
  6
Continuous
 62
               7
100
AcDbLine
 10
724.00000000049999
 20
-1309.0027073587005
 30
0.0
 11
724.00000000049999
 21
-1224.0027073587005
 31
0.0
  0
MTEXT
  5
EF
100
AcDbEntity
  8
template
390
0
 62
               7
100
AcDbMText
 10
480.00000000049999
 20
-1232.4176292337004
 30
0.0
 40
16.288411458333332
 41
0.0
 71
               1
 72
               1
  1
容量
  7
ＭＳ ゴシック
 73
               1
 44
0.7828267384257843
  0
LINE
  5
F0
100
AcDbEntity
  8
template
370
               5
390
0
  6
Continuous
 62
               7
100
AcDbLine
 10
473.00000000049999
 20
-1309.0027073587005
 30
0.0
 11
473.00000000049999
 21
-1224.0027073587005
 31
0.0
  0
MTEXT
  5
F1
100
AcDbEntity
  8
template
390
0
 62
               7
100
AcDbMText
 10
229.00000000049999
 20
-1147.4176292337004
 30
0.0
 40
16.288411458333332
 41
0.0
 71
               1
 72
               1
  1
品番
  7
ＭＳ ゴシック
 73
               1
 44
0.7828267384257843
  0
MTEXT
  5
F2
100
AcDbEntity
  8
template
390
0
 62
               7
100
AcDbMText
 10
229.00000000049999
 20
-1232.4176292337004
 30
0.0
 40
16.288411458333332
 41
0.0
 71
               1
 72
               1
  1
重量
  7
ＭＳ ゴシック
 73
               1
 44
0.7828267384257843
  0
MTEXT
  5
F3
100
AcDbEntity
  8
template
390
0
 62
               7
100
AcDbMText
 10
282.00000000049999
 20
-1176.0000901712006
 30
0.0
 40
24.432617187500004
 41
0.0
 71
               1
 72
               1
  1
FAN70-0310
  7
ＭＳ ゴシック
 73
               1
 44
0.7828267384257843
  0
MTEXT
  5
F4
100
AcDbEntity
  8
template
390
0
 62
               7
100
AcDbMText
 10
282.00000000049999
 20
-1261.0000901712006
 30
0.0
 40
24.432617187500004
 41
0.0
 71
               1
 72
               1
  1
1.7kg
  7
ＭＳ ゴシック
 73
               1
 44
0.7828267384257843
  0
LINE
  5
F5
100
AcDbEntity
  8
template
370
               5
390
0
  6
Continuous
 62
               7
100
AcDbLine
 10
222.00000000049999
 20
-1394.0027073587005
 30
0.0
 11
222.00000000049999
 21
-1139.0027073587005
 31
0.0
  0
MTEXT
  5
F6
100
AcDbEntity
  8
template
390
0
 62
               7
100
AcDbMText
 10
-914.99999999975921
 20
-1261.0000901711999
 30
0.0
 40
24.432617187500004
 41
0.0
 71
               1
 72
               1
  1
オーバーカウンター,アンダーカウンタ ー/オーバーフロー付き/型 紙付属/\P鋼板ホーロー/ホワイト
  7
ＭＳ ゴシック
 73
               1
 44
1.1307497332816883
  0
DIMENSION
  5
F7
100
AcDbEntity
  8
notes
370
               5
390
0
  6
Continuous
 62
               7
100
AcDbDimension
  2
*D3
 10
-137.0300249092229
 20
777.38023850600825
 30
0.0
 11
-132.0300249092229
 21
618.38650146280827
 31
0.0
 70
             128
 71
               5
 72
               1
 41
1.0
 42
0.0
  3
tfrom線あり
100
AcDbAlignedDimension
 13
-424.53002490922285
 23
452.38023850600825
 33
0.0
 14
-424.53002490922285
 24
777.38023850600825
 34
0.0
 50
90.0
100
AcDbRotatedDimension
1001
ACAD
1000
DSTYLE
1002
{
1070
             271
1070
               2
1070
             279
1070
               2
1070
             340
1005
2F
1070
             147
1040
5.0
1002
}
  0
DIMENSION
  5
F8
100
AcDbEntity
  8
notes
370
               5
390
0
  6
Continuous
 62
               7
100
AcDbDimension
  2
*D4
 10
-237.0300249092229
 20
877.38023850600825
 30
0.0
 11
-449.5300249092229
 21
877.38023850600825
 31
0.0
 71
               5
 72
               1
 41
1.0
 42
0.0
  3
tfrom線あり
100
AcDbAlignedDimension
 13
-662.0300249092229
 23
614.88023850600825
 33
0.0
 14
-237.0300249092229
 24
614.88023850600825
 34
0.0
100
AcDbRotatedDimension
1001
ACAD
1000
DSTYLE
1002
{
1070
             271
1070
               2
1070
             279
1070
               2
1070
             340
1005
2F
1070
             147
1040
5.0
1002
}
  0
DIMENSION
  5
F9
100
AcDbEntity
  8
notes
370
               5
390
0
  6
Continuous
 62
               7
100
AcDbDimension
  2
*D5
 10
458.67128796693072
 20
-379.51740413005928
 30
0.0
 11
463.67128796693072
 21
-374.26451811076822
 31
0.0
 70
             128
 71
               5
 72
               1
 41
1.0
 42
0.0
  3
tfrom線あり
100
AcDbAlignedDimension
 13
458.54628796693072
 23
-479.51740413005859
 33
0.0
 14
458.52476323963072
 24
-379.51740413005928
 34
0.0
 50
90.0
100
AcDbRotatedDimension
1001
ACAD
1000
DSTYLE
1002
{
1070
             279
1070
               2
1070
             340
1005
2F
1070
               3
1000
<>(深さ)
1070
             174
1070
               0
1070
             147
1040
5.0
1002
}
  0
DIMENSION
  5
FA
100
AcDbEntity
  8
notes
370
               5
390
0
  6
Continuous
 62
               7
100
AcDbDimension
  2
*D6
 10
720.6155788433307
 20
-379.51740413005928
 30
0.0
 11
725.6155788433307
 21
-360.26451811076822
 31
0.0
 70
             128
 71
               5
 72
               1
 41
1.0
 42
0.0
  3
tfrom線あり
100
AcDbAlignedDimension
 13
617.4415719044307
 23
-387.51740451005924
 33
0.0
 14
617.4415719044307
 24
-379.51740413005928
 34
0.0
 50
90.0
100
AcDbRotatedDimension
1001
ACAD
1000
DSTYLE
1002
{
1070
             279
1070
               2
1070
             340
1005
2F
1070
             174
1070
               0
1070
             147
1040
5.0
1002
}
  0
DIMENSION
  5
FB
100
AcDbEntity
  8
notes
370
               5
390
0
  6
Continuous
 62
               7
100
AcDbDimension
  2
*D7
 10
-637.0300249092229
 20
352.38023850600825
 30
0.0
 11
-449.5300249092229
 21
352.38023850600825
 31
0.0
 71
               5
 72
               1
 41
1.0
 42
0.0
  3
tfrom線あり
100
AcDbAlignedDimension
 13
-262.03002490922285
 23
538.65365215470933
 33
0.0
 14
-637.0300249092229
 24
534.27762964450437
 34
0.0
100
AcDbRotatedDimension
1001
ACAD
1000
DSTYLE
1002
{
1070
             279
1070
               2
1070
             340
1005
2F
1070
             147
1040
5.0
1002
}
  0
DIMENSION
  5
FC
100
AcDbEntity
  8
notes
370
               5
390
0
  6
Continuous
 62
               7
100
AcDbDimension
  2
*D8
 10
-762.03002490922302
 20
752.35662817809816
 30
0.0
 11
-762.03002490922302
 21
614.8788354928987
 31
0.0
 71
               5
 72
               1
 41
1.0
 42
0.0
  3
tfrom線あり
100
AcDbAlignedDimension
 13
-562.84403410599452
 23
477.40104280769924
 33
0.0
 14
-562.99205579682302
 24
752.35662817809816
 34
0.0
 50
90.0
100
AcDbRotatedDimension
1001
ACAD
1000
DSTYLE
1002
{
1070
             279
1070
               2
1070
             340
1005
2F
1070
             147
1040
5.0
1002
}
  0
DIMENSION
  5
FD
100
AcDbEntity
  8
notes
370
               5
390
0
  6
Continuous
 62
               7
100
AcDbDimension
  2
*D9
 10
-137.0300249092229
 20
-379.51740413005928
 30
0.0
 11
-137.0300249092229
 21
-454.51740413005859
 31
0.0
 71
               5
 72
               1
 41
1.0
 42
0.0
  3
tfrom線あり
100
AcDbAlignedDimension
 13
-412.02998020572289
 23
-529.5174041300578
 33
0.0
 14
-240.53748407282285
 24
-379.51740413005928
 34
0.0
 50
90.0
100
AcDbRotatedDimension
1001
ACAD
1000
DSTYLE
1002
{
1070
             279
1070
               2
1070
             340
1005
2F
1070
             147
1040
5.0
1002
}
  0
POLYLINE
  5
FE
100
AcDbEntity
  8
FAN70-0310
370
              15
390
0
  6
Continuous
 62
               7
100
AcDb2dPolyline
 66
               1
 10
0.0
 20
0.0
 30
0.0
 75
               5
  0
VERTEX
  5
FF
100
AcDbEntity
  8
FAN70-0310
370
              15
390
0
  6
Continuous
 62
               7
100
AcDbVertex
100
AcDb2dVertex
 10
-662.02994146272295
 20
-383.01741867355918
 30
0.0
  0
VERTEX
  5
100
100
AcDbEntity
  8
FAN70-0310
370
              15
390
0
  6
Continuous
 62
               7
100
AcDbVertex
100
AcDb2dVertex
 10
-661.96249880712298
 20
-382.33361602795924
 30
0.0
  0
VERTEX
  5
101
100
AcDbEntity
  8
FAN70-0310
370
              15
390
0
  6
Continuous
 62
               7
100
AcDbVertex
100
AcDb2dVertex
 10
-661.76274874132287
 20
-381.67616794845924
 30
0.0
  0
VERTEX
  5
102
100
AcDbEntity
  8
FAN70-0310
370
              15
390
0
  6
Continuous
 62
               7
100
AcDbVertex
100
AcDb2dVertex
 10
-661.43841006682283
 20
-381.0704130449592
 30
0.0
  0
VERTEX
  5
103
100
AcDbEntity
  8
FAN70-0310
370
              15
390
0
  6
Continuous
 62
               7
100
AcDbVertex
100
AcDb2dVertex
 10
-661.00198485772285
 20
-380.53969829375922
 30
0.0
  0
VERTEX
  5
104
100
AcDbEntity
  8
FAN70-0310
370
              15
390
0
  6
Continuous
 62
               7
100
AcDbVertex
100
AcDb2dVertex
 10
-660.470266722823
 20
-380.1044784489593
 30
0.0
  0
VERTEX
  5
105
100
AcDbEntity
  8
FAN70-0310
370
              15
390
0
  6
Continuous
 62
               7
100
AcDbVertex
100
AcDb2dVertex
 10
-659.86377456112291
 20
-379.7815274159592
 30
0.0
  0
VERTEX
  5
106
100
AcDbEntity
  8
FAN70-0310
370
              15
390
0
  6
Continuous
 62
               7
100
AcDbVertex
100
AcDb2dVertex
 10
-659.20587339322287
 20
-379.5832922699592
 30
0.0
  0
VERTEX
  5
107
100
AcDbEntity
  8
FAN70-0310
370
              15
390
0
  6
Continuous
 62
               7
100
AcDbVertex
100
AcDb2dVertex
 10
-658.52977790752288
 20
-379.51740413385915
 30
0.0
  0
SEQEND
  5
108
100
AcDbEntity
  8
FAN70-0310
370
              15
390
0
  6
Continuous
 62
               7
  0
POLYLINE
  5
109
100
AcDbEntity
  8
FAN70-0310
370
              15
390
0
  6
Continuous
 62
               7
100
AcDb2dPolyline
 66
               1
 10
0.0
 20
0.0
 30
0.0
 75
               5
  0
VERTEX
  5
10A
100
AcDbEntity
  8
FAN70-0310
370
              15
390
0
  6
Continuous
 62
               7
100
AcDbVertex
100
AcDb2dVertex
 10
-237.03019776262283
 20
-383.01510177585908
 30
0.0
  0
VERTEX
  5
10B
100
AcDbEntity
  8
FAN70-0310
370
              15
390
0
  6
Continuous
 62
               7
100
AcDbVertex
100
AcDb2dVertex
 10
-237.09908583082279
 20
-382.3263894303592
 30
0.0
  0
VERTEX
  5
10C
100
AcDbEntity
  8
FAN70-0310
370
              15
390
0
  6
Continuous
 62
               7
100
AcDbVertex
100
AcDb2dVertex
 10
-237.30215885562291
 20
-381.66470127215916
 30
0.0
  0
VERTEX
  5
10D
100
AcDbEntity
  8
FAN70-0310
370
              15
390
0
  6
Continuous
 62
               7
100
AcDbVertex
100
AcDb2dVertex
 10
-237.63147451802286
 20
-381.05591444795925
 30
0.0
  0
VERTEX
  5
10E
100
AcDbEntity
  8
FAN70-0310
370
              15
390
0
  6
Continuous
 62
               7
100
AcDbVertex
100
AcDb2dVertex
 10
-238.07415821472296
 20
-380.52383705535931
 30
0.0
  0
VERTEX
  5
10F
100
AcDbEntity
  8
FAN70-0310
370
              15
390
0
  6
Continuous
 62
               7
100
AcDbVertex
100
AcDb2dVertex
 10
-238.61287989542291
 20
-380.0892776346592
 30
0.0
  0
VERTEX
  5
110
100
AcDbEntity
  8
FAN70-0310
370
              15
390
0
  6
Continuous
 62
               7
100
AcDbVertex
100
AcDb2dVertex
 10
-239.22659912032293
 20
-379.76923078565926
 30
0.0
  0
VERTEX
  5
111
100
AcDbEntity
  8
FAN70-0310
370
              15
390
0
  6
Continuous
 62
               7
100
AcDbVertex
100
AcDb2dVertex
 10
-239.89128031652285
 20
-379.57621286505923
 30
0.0
  0
VERTEX
  5
112
100
AcDbEntity
  8
FAN70-0310
370
              15
390
0
  6
Continuous
 62
               7
100
AcDbVertex
100
AcDb2dVertex
 10
-240.53052523062286
 20
-379.51740414555911
 30
0.0
  0
SEQEND
  5
113
100
AcDbEntity
  8
FAN70-0310
370
              15
390
0
  6
Continuous
 62
               7
  0
LINE
  5
114
100
AcDbEntity
  8
FAN70-0310
370
              15
390
0
  6
Continuous
 62
               7
100
AcDbLine
 10
-237.03001894872284
 20
-386.81740430215916
 30
0.0
 11
-237.03001894872284
 21
-383.01740423805916
 31
0.0
  0
LINE
  5
115
100
AcDbEntity
  8
FAN70-0310
370
              15
390
0
  6
Continuous
 62
               7
100
AcDbLine
 10
-662.02994056572288
 20
-383.01741865935912
 30
0.0
 11
-662.03003086962281
 21
-386.81740430215916
 31
0.0
  0
POLYLINE
  5
116
100
AcDbEntity
  8
FAN70-0310
370
              15
390
0
  6
Continuous
 62
               7
100
AcDb2dPolyline
 66
               1
 10
0.0
 20
0.0
 30
0.0
 75
               5
  0
VERTEX
  5
117
100
AcDbEntity
  8
FAN70-0310
370
              15
390
0
  6
Continuous
 62
               7
100
AcDbVertex
100
AcDb2dVertex
 10
-661.32906534592303
 20
-387.51740357865913
 30
0.0
  0
VERTEX
  5
118
100
AcDbEntity
  8
FAN70-0310
370
              15
390
0
  6
Continuous
 62
               7
100
AcDbVertex
100
AcDb2dVertex
 10
-661.40109755912295
 20
-387.51375465685919
 30
0.0
  0
VERTEX
  5
119
100
AcDbEntity
  8
FAN70-0310
370
              15
390
0
  6
Continuous
 62
               7
100
AcDbVertex
100
AcDb2dVertex
 10
-661.54475965422284
 20
-387.48355186575918
 30
0.0
  0
VERTEX
  5
11A
100
AcDbEntity
  8
FAN70-0310
370
              15
390
0
  6
Continuous
 62
               7
100
AcDbVertex
100
AcDb2dVertex
 10
-661.67895951192281
 20
-387.42405059775911
 30
0.0
  0
VERTEX
  5
11B
100
AcDbEntity
  8
FAN70-0310
370
              15
390
0
  6
Continuous
 62
               7
100
AcDbVertex
100
AcDb2dVertex
 10
-661.79779627242283
 20
-387.33786786935923
 30
0.0
  0
VERTEX
  5
11C
100
AcDbEntity
  8
FAN70-0310
370
              15
390
0
  6
Continuous
 62
               7
100
AcDbVertex
100
AcDb2dVertex
 10
-661.89605452932301
 20
-387.22879416335911
 30
0.0
  0
VERTEX
  5
11D
100
AcDbEntity
  8
FAN70-0310
370
              15
390
0
  6
Continuous
 62
               7
100
AcDbVertex
100
AcDb2dVertex
 10
-661.96939804472299
 20
-387.10162625675923
 30
0.0
  0
VERTEX
  5
11E
100
AcDbEntity
  8
FAN70-0310
370
              15
390
0
  6
Continuous
 62
               7
100
AcDbVertex
100
AcDb2dVertex
 10
-662.01460816782287
 20
-386.96195767295922
 30
0.0
  0
VERTEX
  5
11F
100
AcDbEntity
  8
FAN70-0310
370
              15
390
0
  6
Continuous
 62
               7
100
AcDbVertex
100
AcDb2dVertex
 10
-662.02970304412293
 20
-386.8159314154592
 30
0.0
  0
SEQEND
  5
120
100
AcDbEntity
  8
FAN70-0310
370
              15
390
0
  6
Continuous
 62
               7
  0
POLYLINE
  5
121
100
AcDbEntity
  8
FAN70-0310
370
              15
390
0
  6
Continuous
 62
               7
100
AcDb2dPolyline
 66
               1
 10
0.0
 20
0.0
 30
0.0
 75
               5
  0
VERTEX
  5
122
100
AcDbEntity
  8
FAN70-0310
370
              15
390
0
  6
Continuous
 62
               7
100
AcDbVertex
100
AcDb2dVertex
 10
-237.47292616292293
 20
-387.46841787395931
 30
0.0
  0
VERTEX
  5
123
100
AcDbEntity
  8
FAN70-0310
370
              15
390
0
  6
Continuous
 62
               7
100
AcDbVertex
100
AcDb2dVertex
 10
-237.36680009282293
 20
-387.41569384035927
 30
0.0
  0
VERTEX
  5
124
100
AcDbEntity
  8
FAN70-0310
370
              15
390
0
  6
Continuous
 62
               7
100
AcDbVertex
100
AcDb2dVertex
 10
-237.27108993452282
 20
-387.34582229545924
 30
0.0
  0
VERTEX
  5
125
100
AcDbEntity
  8
FAN70-0310
370
              15
390
0
  6
Continuous
 62
               7
100
AcDbVertex
100
AcDb2dVertex
 10
-237.18852260032293
 20
-387.26080558295916
 30
0.0
  0
VERTEX
  5
126
100
AcDbEntity
  8
FAN70-0310
370
              15
390
0
  6
Continuous
 62
               7
100
AcDbVertex
100
AcDb2dVertex
 10
-237.12149717732279
 20
-387.16308143955928
 30
0.0
  0
VERTEX
  5
127
100
AcDbEntity
  8
FAN70-0310
370
              15
390
0
  6
Continuous
 62
               7
100
AcDbVertex
100
AcDb2dVertex
 10
-237.07190611282283
 20
-387.05545035225907
 30
0.0
  0
VERTEX
  5
128
100
AcDbEntity
  8
FAN70-0310
370
              15
390
0
  6
Continuous
 62
               7
100
AcDbVertex
100
AcDb2dVertex
 10
-237.04117991842281
 20
-386.94099639575916
 30
0.0
  0
VERTEX
  5
129
100
AcDbEntity
  8
FAN70-0310
370
              15
390
0
  6
Continuous
 62
               7
100
AcDbVertex
100
AcDb2dVertex
 10
-237.03021266382291
 20
-386.82300061945909
 30
0.0
  0
VERTEX
  5
12A
100
AcDbEntity
  8
FAN70-0310
370
              15
390
0
  6
Continuous
 62
               7
100
AcDbVertex
100
AcDb2dVertex
 10
-237.03930237212285
 20
-386.70484419015918
 30
0.0
  0
SEQEND
  5
12B
100
AcDbEntity
  8
FAN70-0310
370
              15
390
0
  6
Continuous
 62
               7
  0
POLYLINE
  5
12C
100
AcDbEntity
  8
FAN70-0310
370
              15
390
0
  6
Continuous
 62
               7
100
AcDb2dPolyline
 66
               1
 10
0.0
 20
0.0
 30
0.0
 75
               5
  0
VERTEX
  5
12D
100
AcDbEntity
  8
FAN70-0310
370
              15
390
0
  6
Continuous
 62
               7
100
AcDbVertex
100
AcDb2dVertex
 10
-489.27998998082285
 20
-481.86346679025849
 30
0.0
  0
VERTEX
  5
12E
100
AcDbEntity
  8
FAN70-0310
370
              15
390
0
  6
Continuous
 62
               7
100
AcDbVertex
100
AcDb2dVertex
 10
-484.95612376252285
 20
-482.77389048625844
 30
0.0
  0
VERTEX
  5
12F
100
AcDbEntity
  8
FAN70-0310
370
              15
390
0
  6
Continuous
 62
               7
100
AcDbVertex
100
AcDb2dVertex
 10
-481.08511500872288
 20
-484.90464477825856
 30
0.0
  0
SEQEND
  5
130
100
AcDbEntity
  8
FAN70-0310
370
              15
390
0
  6
Continuous
 62
               7
  0
POLYLINE
  5
131
100
AcDbEntity
  8
FAN70-0310
370
              15
390
0
  6
Continuous
 62
               7
100
AcDb2dPolyline
 66
               1
 10
0.0
 20
0.0
 30
0.0
 75
               5
  0
VERTEX
  5
132
100
AcDbEntity
  8
FAN70-0310
370
              15
390
0
  6
Continuous
 62
               7
100
AcDbVertex
100
AcDb2dVertex
 10
-417.97493480962288
 20
-484.90464477825856
 30
0.0
  0
VERTEX
  5
133
100
AcDbEntity
  8
FAN70-0310
370
              15
390
0
  6
Continuous
 62
               7
100
AcDbVertex
100
AcDb2dVertex
 10
-414.10392605582285
 20
-482.77389048625844
 30
0.0
  0
VERTEX
  5
134
100
AcDbEntity
  8
FAN70-0310
370
              15
390
0
  6
Continuous
 62
               7
100
AcDbVertex
100
AcDb2dVertex
 10
-409.78005611222289
 20
-481.86346679025849
 30
0.0
  0
SEQEND
  5
135
100
AcDbEntity
  8
FAN70-0310
370
              15
390
0
  6
Continuous
 62
               7
  0
POLYLINE
  5
136
100
AcDbEntity
  8
FAN70-0310
370
              15
390
0
  6
Continuous
 62
               7
100
AcDb2dPolyline
 66
               1
 10
0.0
 20
0.0
 30
0.0
 75
               5
  0
VERTEX
  5
137
100
AcDbEntity
  8
FAN70-0310
370
              15
390
0
  6
Continuous
 62
               7
100
AcDbVertex
100
AcDb2dVertex
 10
-481.08511500872288
 20
-484.90464477825856
 30
0.0
  0
VERTEX
  5
138
100
AcDbEntity
  8
FAN70-0310
370
              15
390
0
  6
Continuous
 62
               7
100
AcDbVertex
100
AcDb2dVertex
 10
-479.12553594332286
 20
-486.39744310665844
 30
0.0
  0
VERTEX
  5
139
100
AcDbEntity
  8
FAN70-0310
370
              15
390
0
  6
Continuous
 62
               7
100
AcDbVertex
100
AcDb2dVertex
 10
-477.16595501522283
 20
-487.89024143505844
 30
0.0
  0
SEQEND
  5
13A
100
AcDbEntity
  8
FAN70-0310
370
              15
390
0
  6
Continuous
 62
               7
  0
POLYLINE
  5
13B
100
AcDbEntity
  8
FAN70-0310
370
              15
390
0
  6
Continuous
 62
               7
100
AcDb2dPolyline
 66
               1
 10
0.0
 20
0.0
 30
0.0
 75
               5
  0
VERTEX
  5
13C
100
AcDbEntity
  8
FAN70-0310
370
              15
390
0
  6
Continuous
 62
               7
100
AcDbVertex
100
AcDb2dVertex
 10
-421.89409480312287
 20
-487.89024143505844
 30
0.0
  0
VERTEX
  5
13D
100
AcDbEntity
  8
FAN70-0310
370
              15
390
0
  6
Continuous
 62
               7
100
AcDbVertex
100
AcDb2dVertex
 10
-419.9345138750229
 20
-486.39744310665844
 30
0.0
  0
VERTEX
  5
13E
100
AcDbEntity
  8
FAN70-0310
370
              15
390
0
  6
Continuous
 62
               7
100
AcDbVertex
100
AcDb2dVertex
 10
-417.97493480962288
 20
-484.90464477825856
 30
0.0
  0
SEQEND
  5
13F
100
AcDbEntity
  8
FAN70-0310
370
              15
390
0
  6
Continuous
 62
               7
  0
POLYLINE
  5
140
100
AcDbEntity
  8
FAN70-0310
370
              15
390
0
  6
Continuous
 62
               7
100
AcDb2dPolyline
 66
               1
 10
0.0
 20
0.0
 30
0.0
 75
               5
  0
VERTEX
  5
141
100
AcDbEntity
  8
FAN70-0310
370
              15
390
0
  6
Continuous
 62
               7
100
AcDbVertex
100
AcDb2dVertex
 10
-434.97061346542284
 20
-489.10926817945847
 30
0.0
  0
VERTEX
  5
142
100
AcDbEntity
  8
FAN70-0310
370
              15
390
0
  6
Continuous
 62
               7
100
AcDbVertex
100
AcDb2dVertex
 10
-433.35441210192283
 20
-489.10338222075825
 30
0.0
  0
VERTEX
  5
143
100
AcDbEntity
  8
FAN70-0310
370
              15
390
0
  6
Continuous
 62
               7
100
AcDbVertex
100
AcDb2dVertex
 10
-430.40881761232282
 20
-489.07644837195835
 30
0.0
  0
VERTEX
  5
144
100
AcDbEntity
  8
FAN70-0310
370
              15
390
0
  6
Continuous
 62
               7
100
AcDbVertex
100
AcDb2dVertex
 10
-428.01791512292289
 20
-489.02593343545846
 30
0.0
  0
VERTEX
  5
145
100
AcDbEntity
  8
FAN70-0310
370
              15
390
0
  6
Continuous
 62
               7
100
AcDbVertex
100
AcDb2dVertex
 10
-426.15278706772284
 20
-488.94543736275841
 30
0.0
  0
VERTEX
  5
146
100
AcDbEntity
  8
FAN70-0310
370
              15
390
0
  6
Continuous
 62
               7
100
AcDbVertex
100
AcDb2dVertex
 10
-424.21015434782288
 20
-488.76131861505837
 30
0.0
  0
VERTEX
  5
147
100
AcDbEntity
  8
FAN70-0310
370
              15
390
0
  6
Continuous
 62
               7
100
AcDbVertex
100
AcDb2dVertex
 10
-423.04532685202287
 20
-488.5055923371583
 30
0.0
  0
VERTEX
  5
148
100
AcDbEntity
  8
FAN70-0310
370
              15
390
0
  6
Continuous
 62
               7
100
AcDbVertex
100
AcDb2dVertex
 10
-422.35496350452286
 20
-488.20189922145823
 30
0.0
  0
VERTEX
  5
149
100
AcDbEntity
  8
FAN70-0310
370
              15
390
0
  6
Continuous
 62
               7
100
AcDbVertex
100
AcDb2dVertex
 10
-422.10618675572289
 20
-488.04413317735839
 30
0.0
  0
VERTEX
  5
14A
100
AcDbEntity
  8
FAN70-0310
370
              15
390
0
  6
Continuous
 62
               7
100
AcDbVertex
100
AcDb2dVertex
 10
-421.99622363672285
 20
-487.96631931355842
 30
0.0
  0
VERTEX
  5
14B
100
AcDbEntity
  8
FAN70-0310
370
              15
390
0
  6
Continuous
 62
               7
100
AcDbVertex
100
AcDb2dVertex
 10
-421.94421672142289
 20
-487.92801587875829
 30
0.0
  0
VERTEX
  5
14C
100
AcDbEntity
  8
FAN70-0310
370
              15
390
0
  6
Continuous
 62
               7
100
AcDbVertex
100
AcDb2dVertex
 10
-421.89409480312287
 20
-487.89024143505844
 30
0.0
  0
SEQEND
  5
14D
100
AcDbEntity
  8
FAN70-0310
370
              15
390
0
  6
Continuous
 62
               7
  0
POLYLINE
  5
14E
100
AcDbEntity
  8
FAN70-0310
370
              15
390
0
  6
Continuous
 62
               7
100
AcDb2dPolyline
 66
               1
 10
0.0
 20
0.0
 30
0.0
 75
               5
  0
VERTEX
  5
14F
100
AcDbEntity
  8
FAN70-0310
370
              15
390
0
  6
Continuous
 62
               7
100
AcDbVertex
100
AcDb2dVertex
 10
-477.16595501522283
 20
-487.89024143505844
 30
0.0
  0
VERTEX
  5
150
100
AcDbEntity
  8
FAN70-0310
370
              15
390
0
  6
Continuous
 62
               7
100
AcDbVertex
100
AcDb2dVertex
 10
-477.14059992437478
 20
-487.90926388584148
 30
0.0
  0
VERTEX
  5
151
100
AcDbEntity
  8
FAN70-0310
370
              15
390
0
  6
Continuous
 62
               7
100
AcDbVertex
100
AcDb2dVertex
 10
-477.11476916383879
 20
-487.92842194206128
 30
0.0
  0
VERTEX
  5
152
100
AcDbEntity
  8
FAN70-0310
370
              15
390
0
  6
Continuous
 62
               7
100
AcDbVertex
100
AcDb2dVertex
 10
-477.06162735918514
 20
-487.9671147368648
 30
0.0
  0
VERTEX
  5
153
100
AcDbEntity
  8
FAN70-0310
370
              15
390
0
  6
Continuous
 62
               7
100
AcDbVertex
100
AcDb2dVertex
 10
-476.94852074553086
 20
-488.04567557473547
 30
0.0
  0
VERTEX
  5
154
100
AcDbEntity
  8
FAN70-0310
370
              15
390
0
  6
Continuous
 62
               7
100
AcDbVertex
100
AcDb2dVertex
 10
-476.68078346702947
 20
-488.20476353168431
 30
0.0
  0
VERTEX
  5
155
100
AcDbEntity
  8
FAN70-0310
370
              15
390
0
  6
Continuous
 62
               7
100
AcDbVertex
100
AcDb2dVertex
 10
-476.31516861194228
 20
-488.36158386179727
 30
0.0
  0
VERTEX
  5
156
100
AcDbEntity
  8
FAN70-0310
370
              15
390
0
  6
Continuous
 62
               7
100
AcDbVertex
100
AcDb2dVertex
 10
-475.78460677051669
 20
-488.51070480787814
 30
0.0
  0
VERTEX
  5
157
100
AcDbEntity
  8
FAN70-0310
370
              15
390
0
  6
Continuous
 62
               7
100
AcDbVertex
100
AcDb2dVertex
 10
-474.69122698240636
 20
-488.68975692101446
 30
0.0
  0
VERTEX
  5
158
100
AcDbEntity
  8
FAN70-0310
370
              15
390
0
  6
Continuous
 62
               7
100
AcDbVertex
100
AcDb2dVertex
 10
-473.00584787091913
 20
-488.83909634272891
 30
0.0
  0
VERTEX
  5
159
100
AcDbEntity
  8
FAN70-0310
370
              15
390
0
  6
Continuous
 62
               7
100
AcDbVertex
100
AcDb2dVertex
 10
-470.60991164884365
 20
-488.95466997290123
 30
0.0
  0
VERTEX
  5
15A
100
AcDbEntity
  8
FAN70-0310
370
              15
390
0
  6
Continuous
 62
               7
100
AcDbVertex
100
AcDb2dVertex
 10
-468.31845529705703
 20
-489.0190600267166
 30
0.0
  0
VERTEX
  5
15B
100
AcDbEntity
  8
FAN70-0310
370
              15
390
0
  6
Continuous
 62
               7
100
AcDbVertex
100
AcDb2dVertex
 10
-465.61629822545336
 20
-489.06577615217088
 30
0.0
  0
VERTEX
  5
15C
100
AcDbEntity
  8
FAN70-0310
370
              15
390
0
  6
Continuous
 62
               7
100
AcDbVertex
100
AcDb2dVertex
 10
-462.54738183782888
 20
-489.09712364421466
 30
0.0
  0
VERTEX
  5
15D
100
AcDbEntity
  8
FAN70-0310
370
              15
390
0
  6
Continuous
 62
               7
100
AcDbVertex
100
AcDb2dVertex
 10
-459.17963365167998
 20
-489.1160858257914
 30
0.0
  0
VERTEX
  5
15E
100
AcDbEntity
  8
FAN70-0310
370
              15
390
0
  6
Continuous
 62
               7
100
AcDbVertex
100
AcDb2dVertex
 10
-458.70355785712286
 20
-489.11740421345849
 30
0.0
  0
SEQEND
  5
15F
100
AcDbEntity
  8
FAN70-0310
370
              15
390
0
  6
Continuous
 62
               7
  0
LINE
  5
160
100
AcDbEntity
  8
FAN70-0310
370
              15
390
0
  6
Continuous
 62
               7
100
AcDbLine
 10
-658.52363862912284
 20
-379.51740413005928
 30
0.0
 11
-240.53748407282285
 21
-379.51740413005928
 31
0.0
  0
LINE
  5
161
100
AcDbEntity
  8
FAN70-0310
370
              15
390
0
  6
Continuous
 62
               7
100
AcDbLine
 10
-662.03003086962281
 20
-386.81740430215916
 30
0.0
 11
-662.01502540032288
 21
-386.81740430215916
 31
0.0
  0
LINE
  5
162
100
AcDbEntity
  8
FAN70-0310
370
              15
390
0
  6
Continuous
 62
               7
100
AcDbLine
 10
-237.73003079812281
 20
-387.51740451005924
 30
0.0
 11
-661.31508805672297
 21
-387.51740451005924
 31
0.0
  0
POLYLINE
  5
163
100
AcDbEntity
  8
FAN70-0310
370
              15
390
0
  6
Continuous
 62
               7
100
AcDb2dPolyline
 66
               1
 10
0.0
 20
0.0
 30
0.0
 75
               5
  0
VERTEX
  5
164
100
AcDbEntity
  8
FAN70-0310
370
              15
390
0
  6
Continuous
 62
               7
100
AcDbVertex
100
AcDb2dVertex
 10
-449.53002490922285
 20
-480.32136051945849
 30
0.0
  0
VERTEX
  5
165
100
AcDbEntity
  8
FAN70-0310
370
              15
390
0
  6
Continuous
 62
               7
100
AcDbVertex
100
AcDb2dVertex
 10
-444.37477168512288
 20
-480.33272265485857
 30
0.0
  0
VERTEX
  5
166
100
AcDbEntity
  8
FAN70-0310
370
              15
390
0
  6
Continuous
 62
               7
100
AcDbVertex
100
AcDb2dVertex
 10
-439.30575334352289
 20
-480.37359654005854
 30
0.0
  0
VERTEX
  5
167
100
AcDbEntity
  8
FAN70-0310
370
              15
390
0
  6
Continuous
 62
               7
100
AcDbVertex
100
AcDb2dVertex
 10
-434.4066101021229
 20
-480.45106022645859
 30
0.0
  0
VERTEX
  5
168
100
AcDbEntity
  8
FAN70-0310
370
              15
390
0
  6
Continuous
 62
               7
100
AcDbVertex
100
AcDb2dVertex
 10
-429.75803547422288
 20
-480.56751280125854
 30
0.0
  0
VERTEX
  5
169
100
AcDbEntity
  8
FAN70-0310
370
              15
390
0
  6
Continuous
 62
               7
100
AcDbVertex
100
AcDb2dVertex
 10
-425.43915741962286
 20
-480.72072654065846
 30
0.0
  0
VERTEX
  5
16A
100
AcDbEntity
  8
FAN70-0310
370
              15
390
0
  6
Continuous
 62
               7
100
AcDbVertex
100
AcDb2dVertex
 10
-421.5233334235229
 20
-480.90433864885858
 30
0.0
  0
VERTEX
  5
16B
100
AcDbEntity
  8
FAN70-0310
370
              15
390
0
  6
Continuous
 62
               7
100
AcDbVertex
100
AcDb2dVertex
 10
-418.07775282182291
 20
-481.10822378685862
 30
0.0
  0
VERTEX
  5
16C
100
AcDbEntity
  8
FAN70-0310
370
              15
390
0
  6
Continuous
 62
               7
100
AcDbVertex
100
AcDb2dVertex
 10
-415.16626709022285
 20
-481.31882934865848
 30
0.0
  0
VERTEX
  5
16D
100
AcDbEntity
  8
FAN70-0310
370
              15
390
0
  6
Continuous
 62
               7
100
AcDbVertex
100
AcDb2dVertex
 10
-412.84128733792289
 20
-481.52006953055866
 30
0.0
  0
VERTEX
  5
16E
100
AcDbEntity
  8
FAN70-0310
370
              15
390
0
  6
Continuous
 62
               7
100
AcDbVertex
100
AcDb2dVertex
 10
-411.15282186192286
 20
-481.69259517485852
 30
0.0
  0
VERTEX
  5
16F
100
AcDbEntity
  8
FAN70-0310
370
              15
390
0
  6
Continuous
 62
               7
100
AcDbVertex
100
AcDb2dVertex
 10
-410.12475722352286
 20
-481.81579797555855
 30
0.0
  0
VERTEX
  5
170
100
AcDbEntity
  8
FAN70-0310
370
              15
390
0
  6
Continuous
 62
               7
100
AcDbVertex
100
AcDb2dVertex
 10
-409.78002630992285
 20
-481.86346679025849
 30
0.0
  0
SEQEND
  5
171
100
AcDbEntity
  8
FAN70-0310
370
              15
390
0
  6
Continuous
 62
               7
  0
POLYLINE
  5
172
100
AcDbEntity
  8
FAN70-0310
370
              15
390
0
  6
Continuous
 62
               7
100
AcDb2dPolyline
 66
               1
 10
0.0
 20
0.0
 30
0.0
 75
               5
  0
VERTEX
  5
173
100
AcDbEntity
  8
FAN70-0310
370
              15
390
0
  6
Continuous
 62
               7
100
AcDbVertex
100
AcDb2dVertex
 10
-409.78002630992285
 20
-481.86346679025849
 30
0.0
  0
VERTEX
  5
174
100
AcDbEntity
  8
FAN70-0310
370
              15
390
0
  6
Continuous
 62
               7
100
AcDbVertex
100
AcDb2dVertex
 10
-393.02239649812287
 20
-478.08432369525849
 30
0.0
  0
VERTEX
  5
175
100
AcDbEntity
  8
FAN70-0310
370
              15
390
0
  6
Continuous
 62
               7
100
AcDbVertex
100
AcDb2dVertex
 10
-376.68367185512284
 20
-473.05242507745868
 30
0.0
  0
VERTEX
  5
176
100
AcDbEntity
  8
FAN70-0310
370
              15
390
0
  6
Continuous
 62
               7
100
AcDbVertex
100
AcDb2dVertex
 10
-360.83008804242286
 20
-466.80594026145877
 30
0.0
  0
VERTEX
  5
177
100
AcDbEntity
  8
FAN70-0310
370
              15
390
0
  6
Continuous
 62
               7
100
AcDbVertex
100
AcDb2dVertex
 10
-345.52789934792287
 20
-459.38302367025904
 30
0.0
  0
VERTEX
  5
178
100
AcDbEntity
  8
FAN70-0310
370
              15
390
0
  6
Continuous
 62
               7
100
AcDbVertex
100
AcDb2dVertex
 10
-330.84333398262282
 20
-450.82183717775911
 30
0.0
  0
VERTEX
  5
179
100
AcDbEntity
  8
FAN70-0310
370
              15
390
0
  6
Continuous
 62
               7
100
AcDbVertex
100
AcDb2dVertex
 10
-316.84263505862288
 20
-441.16053893265916
 30
0.0
  0
VERTEX
  5
17A
100
AcDbEntity
  8
FAN70-0310
370
              15
390
0
  6
Continuous
 62
               7
100
AcDbVertex
100
AcDb2dVertex
 10
-304.32786502762281
 20
-431.0779960363592
 30
0.0
  0
VERTEX
  5
17B
100
AcDbEntity
  8
FAN70-0310
370
              15
390
0
  6
Continuous
 62
               7
100
AcDbVertex
100
AcDb2dVertex
 10
-292.53545858782286
 20
-420.08339031625917
 30
0.0
  0
VERTEX
  5
17C
100
AcDbEntity
  8
FAN70-0310
370
              15
390
0
  6
Continuous
 62
               7
100
AcDbVertex
100
AcDb2dVertex
 10
-281.52092256472292
 20
-408.20870525235921
 30
0.0
  0
VERTEX
  5
17D
100
AcDbEntity
  8
FAN70-0310
370
              15
390
0
  6
Continuous
 62
               7
100
AcDbVertex
100
AcDb2dVertex
 10
-271.33979358592285
 20
-395.48592804965915
 30
0.0
  0
VERTEX
  5
17E
100
AcDbEntity
  8
FAN70-0310
370
              15
390
0
  6
Continuous
 62
               7
100
AcDbVertex
100
AcDb2dVertex
 10
-265.87072470112287
 20
-387.51740451005924
 30
0.0
  0
SEQEND
  5
17F
100
AcDbEntity
  8
FAN70-0310
370
              15
390
0
  6
Continuous
 62
               7
  0
POLYLINE
  5
180
100
AcDbEntity
  8
FAN70-0310
370
              15
390
0
  6
Continuous
 62
               7
100
AcDb2dPolyline
 66
               1
 10
0.0
 20
0.0
 30
0.0
 75
               5
  0
VERTEX
  5
181
100
AcDbEntity
  8
FAN70-0310
370
              15
390
0
  6
Continuous
 62
               7
100
AcDbVertex
100
AcDb2dVertex
 10
-489.28002350852285
 20
-481.86346679025849
 30
0.0
  0
VERTEX
  5
182
100
AcDbEntity
  8
FAN70-0310
370
              15
390
0
  6
Continuous
 62
               7
100
AcDbVertex
100
AcDb2dVertex
 10
-488.93531122132288
 20
-481.81581287675863
 30
0.0
  0
VERTEX
  5
183
100
AcDbEntity
  8
FAN70-0310
370
              15
390
0
  6
Continuous
 62
               7
100
AcDbVertex
100
AcDb2dVertex
 10
-487.90717952772286
 20
-481.6925877242586
 30
0.0
  0
VERTEX
  5
184
100
AcDbEntity
  8
FAN70-0310
370
              15
390
0
  6
Continuous
 62
               7
100
AcDbVertex
100
AcDb2dVertex
 10
-486.21879600802288
 20
-481.52007698115858
 30
0.0
  0
VERTEX
  5
185
100
AcDbEntity
  8
FAN70-0310
370
              15
390
0
  6
Continuous
 62
               7
100
AcDbVertex
100
AcDb2dVertex
 10
-483.89370822232286
 20
-481.31882934865848
 30
0.0
  0
VERTEX
  5
186
100
AcDbEntity
  8
FAN70-0310
370
              15
390
0
  6
Continuous
 62
               7
100
AcDbVertex
100
AcDb2dVertex
 10
-480.98138802572282
 20
-481.10815673165871
 30
0.0
  0
VERTEX
  5
187
100
AcDbEntity
  8
FAN70-0310
370
              15
390
0
  6
Continuous
 62
               7
100
AcDbVertex
100
AcDb2dVertex
 10
-477.53672943332288
 20
-480.90433864885858
 30
0.0
  0
VERTEX
  5
188
100
AcDbEntity
  8
FAN70-0310
370
              15
390
0
  6
Continuous
 62
               7
100
AcDbVertex
100
AcDb2dVertex
 10
-473.62031497882288
 20
-480.72070418885846
 30
0.0
  0
VERTEX
  5
189
100
AcDbEntity
  8
FAN70-0310
370
              15
390
0
  6
Continuous
 62
               7
100
AcDbVertex
100
AcDb2dVertex
 10
-469.30126556082286
 20
-480.56747554835852
 30
0.0
  0
VERTEX
  5
18A
100
AcDbEntity
  8
FAN70-0310
370
              15
390
0
  6
Continuous
 62
               7
100
AcDbVertex
100
AcDb2dVertex
 10
-464.65335682852287
 20
-480.45105277595871
 30
0.0
  0
VERTEX
  5
18B
100
AcDbEntity
  8
FAN70-0310
370
              15
390
0
  6
Continuous
 62
               7
100
AcDbVertex
100
AcDb2dVertex
 10
-459.75416608972284
 20
-480.37358908945862
 30
0.0
  0
VERTEX
  5
18C
100
AcDbEntity
  8
FAN70-0310
370
              15
390
0
  6
Continuous
 62
               7
100
AcDbVertex
100
AcDb2dVertex
 10
-454.6852730110229
 20
-480.33272265485857
 30
0.0
  0
VERTEX
  5
18D
100
AcDbEntity
  8
FAN70-0310
370
              15
390
0
  6
Continuous
 62
               7
100
AcDbVertex
100
AcDb2dVertex
 10
-449.53002490922285
 20
-480.32136051945849
 30
0.0
  0
SEQEND
  5
18E
100
AcDbEntity
  8
FAN70-0310
370
              15
390
0
  6
Continuous
 62
               7
  0
POLYLINE
  5
18F
100
AcDbEntity
  8
FAN70-0310
370
              15
390
0
  6
Continuous
 62
               7
100
AcDb2dPolyline
 66
               1
 10
0.0
 20
0.0
 30
0.0
 75
               5
  0
VERTEX
  5
190
100
AcDbEntity
  8
FAN70-0310
370
              15
390
0
  6
Continuous
 62
               7
100
AcDbVertex
100
AcDb2dVertex
 10
-633.17110099712295
 20
-387.51740451005924
 30
0.0
  0
VERTEX
  5
191
100
AcDbEntity
  8
FAN70-0310
370
              15
390
0
  6
Continuous
 62
               7
100
AcDbVertex
100
AcDb2dVertex
 10
-627.12796487732294
 20
-396.28055854735919
 30
0.0
  0
VERTEX
  5
192
100
AcDbEntity
  8
FAN70-0310
370
              15
390
0
  6
Continuous
 62
               7
100
AcDbVertex
100
AcDb2dVertex
 10
-616.24731578752289
 20
-409.69386673565918
 30
0.0
  0
VERTEX
  5
193
100
AcDbEntity
  8
FAN70-0310
370
              15
390
0
  6
Continuous
 62
               7
100
AcDbVertex
100
AcDb2dVertex
 10
-604.43675973342283
 20
-422.14880674175924
 30
0.0
  0
VERTEX
  5
194
100
AcDbEntity
  8
FAN70-0310
370
              15
390
0
  6
Continuous
 62
               7
100
AcDbVertex
100
AcDb2dVertex
 10
-591.76251747532297
 20
-433.60721855455915
 30
0.0
  0
VERTEX
  5
195
100
AcDbEntity
  8
FAN70-0310
370
              15
390
0
  6
Continuous
 62
               7
100
AcDbVertex
100
AcDb2dVertex
 10
-578.29085447712282
 20
-444.03093843755914
 30
0.0
  0
VERTEX
  5
196
100
AcDbEntity
  8
FAN70-0310
370
              15
390
0
  6
Continuous
 62
               7
100
AcDbVertex
100
AcDb2dVertex
 10
-564.08801385082302
 20
-453.38181196745916
 30
0.0
  0
VERTEX
  5
197
100
AcDbEntity
  8
FAN70-0310
370
              15
390
0
  6
Continuous
 62
               7
100
AcDbVertex
100
AcDb2dVertex
 10
-550.08656986872302
 20
-461.18142246295906
 30
0.0
  0
VERTEX
  5
198
100
AcDbEntity
  8
FAN70-0310
370
              15
390
0
  6
Continuous
 62
               7
100
AcDbVertex
100
AcDb2dVertex
 10
-535.54952599922285
 20
-467.96137630035878
 30
0.0
  0
VERTEX
  5
199
100
AcDbEntity
  8
FAN70-0310
370
              15
390
0
  6
Continuous
 62
               7
100
AcDbVertex
100
AcDb2dVertex
 10
-520.53240396902288
 20
-473.68968813705862
 30
0.0
  0
VERTEX
  5
19A
100
AcDbEntity
  8
FAN70-0310
370
              15
390
0
  6
Continuous
 62
               7
100
AcDbVertex
100
AcDb2dVertex
 10
-505.09072922982284
 20
-478.33438008125859
 30
0.0
  0
VERTEX
  5
19B
100
AcDbEntity
  8
FAN70-0310
370
              15
390
0
  6
Continuous
 62
               7
100
AcDbVertex
100
AcDb2dVertex
 10
-489.28002350852285
 20
-481.86346679025849
 30
0.0
  0
SEQEND
  5
19C
100
AcDbEntity
  8
FAN70-0310
370
              15
390
0
  6
Continuous
 62
               7
  0
LINE
  5
19D
100
AcDbEntity
  8
FAN70-0310
370
              15
390
0
  6
Continuous
 62
               7
100
AcDbLine
 10
-435.19167684832286
 20
-489.11740421345849
 30
0.0
 11
-458.70355785712286
 21
-489.11740421345849
 31
0.0
  0
POLYLINE
  5
19E
100
AcDbEntity
  8
FAN70-0310
370
              15
390
0
  6
Continuous
 62
               7
100
AcDb2dPolyline
 66
               1
 10
0.0
 20
0.0
 30
0.0
 75
               5
  0
VERTEX
  5
19F
100
AcDbEntity
  8
FAN70-0310
370
              15
390
0
  6
Continuous
 62
               7
100
AcDbVertex
100
AcDb2dVertex
 10
-237.03001894872284
 20
614.90050757526706
 30
0.0
  0
VERTEX
  5
1A0
100
AcDbEntity
  8
FAN70-0310
370
              15
390
0
  6
Continuous
 62
               7
100
AcDbVertex
100
AcDb2dVertex
 10
-237.37425067342281
 20
605.68545638928322
 30
0.0
  0
VERTEX
  5
1A1
100
AcDbEntity
  8
FAN70-0310
370
              15
390
0
  6
Continuous
 62
               7
100
AcDbVertex
100
AcDb2dVertex
 10
-238.39694716852284
 20
596.50804132296821
 30
0.0
  0
VERTEX
  5
1A2
100
AcDbEntity
  8
FAN70-0310
370
              15
390
0
  6
Continuous
 62
               7
100
AcDbVertex
100
AcDb2dVertex
 10
-240.08314766802289
 20
587.44157892372959
 30
0.0
  0
VERTEX
  5
1A3
100
AcDbEntity
  8
FAN70-0310
370
              15
390
0
  6
Continuous
 62
               7
100
AcDbVertex
100
AcDb2dVertex
 10
-242.82521464742285
 20
577.19287240529729
 30
0.0
  0
VERTEX
  5
1A4
100
AcDbEntity
  8
FAN70-0310
370
              15
390
0
  6
Continuous
 62
               7
100
AcDbVertex
100
AcDb2dVertex
 10
-246.77512504972287
 20
566.24430400807796
 30
0.0
  0
VERTEX
  5
1A5
100
AcDbEntity
  8
FAN70-0310
370
              15
390
0
  6
Continuous
 62
               7
100
AcDbVertex
100
AcDb2dVertex
 10
-251.65014424242281
 20
555.65074538592148
 30
0.0
  0
VERTEX
  5
1A6
100
AcDbEntity
  8
FAN70-0310
370
              15
390
0
  6
Continuous
 62
               7
100
AcDbVertex
100
AcDb2dVertex
 10
-257.36248948492289
 20
545.50578650138186
 30
0.0
  0
VERTEX
  5
1A7
100
AcDbEntity
  8
FAN70-0310
370
              15
390
0
  6
Continuous
 62
               7
100
AcDbVertex
100
AcDb2dVertex
 10
-265.0108829967229
 20
534.27762964450437
 30
0.0
  0
VERTEX
  5
1A8
100
AcDbEntity
  8
FAN70-0310
370
              15
390
0
  6
Continuous
 62
               7
100
AcDbVertex
100
AcDb2dVertex
 10
-273.62396278302282
 20
523.71115441903964
 30
0.0
  0
VERTEX
  5
1A9
100
AcDbEntity
  8
FAN70-0310
370
              15
390
0
  6
Continuous
 62
               7
100
AcDbVertex
100
AcDb2dVertex
 10
-283.06384839932286
 20
513.86337497149611
 30
0.0
  0
VERTEX
  5
1AA
100
AcDbEntity
  8
FAN70-0310
370
              15
390
0
  6
Continuous
 62
               7
100
AcDbVertex
100
AcDb2dVertex
 10
-293.19271900572289
 20
504.79129054063549
 30
0.0
  0
VERTEX
  5
1AB
100
AcDbEntity
  8
FAN70-0310
370
              15
390
0
  6
Continuous
 62
               7
100
AcDbVertex
100
AcDb2dVertex
 10
-304.21619572562287
 20
496.28625424616303
 30
0.0
  0
VERTEX
  5
1AC
100
AcDbEntity
  8
FAN70-0310
370
              15
390
0
  6
Continuous
 62
               7
100
AcDbVertex
100
AcDb2dVertex
 10
-315.83875873012283
 20
488.54387626521032
 30
0.0
  0
VERTEX
  5
1AD
100
AcDbEntity
  8
FAN70-0310
370
              15
390
0
  6
Continuous
 62
               7
100
AcDbVertex
100
AcDb2dVertex
 10
-327.9630140297229
 20
481.56932208416868
 30
0.0
  0
VERTEX
  5
1AE
100
AcDbEntity
  8
FAN70-0310
370
              15
390
0
  6
Continuous
 62
               7
100
AcDbVertex
100
AcDb2dVertex
 10
-340.49157508532289
 20
475.36772737373519
 30
0.0
  0
VERTEX
  5
1AF
100
AcDbEntity
  8
FAN70-0310
370
              15
390
0
  6
Continuous
 62
               7
100
AcDbVertex
100
AcDb2dVertex
 10
-353.32704790752291
 20
469.94425016637786
 30
0.0
  0
VERTEX
  5
1B0
100
AcDbEntity
  8
FAN70-0310
370
              15
390
0
  6
Continuous
 62
               7
100
AcDbVertex
100
AcDb2dVertex
 10
-370.62282570522285
 20
463.95717593394977
 30
0.0
  0
VERTEX
  5
1B1
100
AcDbEntity
  8
FAN70-0310
370
              15
390
0
  6
Continuous
 62
               7
100
AcDbVertex
100
AcDb2dVertex
 10
-388.36834662482283
 20
459.21765977803898
 30
0.0
  0
VERTEX
  5
1B2
100
AcDbEntity
  8
FAN70-0310
370
              15
390
0
  6
Continuous
 62
               7
100
AcDbVertex
100
AcDb2dVertex
 10
-406.42820381442289
 20
455.71806900342142
 30
0.0
  0
VERTEX
  5
1B3
100
AcDbEntity
  8
FAN70-0310
370
              15
390
0
  6
Continuous
 62
               7
100
AcDbVertex
100
AcDb2dVertex
 10
-424.66699228502296
 20
453.4507709146726
 30
0.0
  0
VERTEX
  5
1B4
100
AcDbEntity
  8
FAN70-0310
370
              15
390
0
  6
Continuous
 62
               7
100
AcDbVertex
100
AcDb2dVertex
 10
-442.94930099392286
 20
452.40817753950819
 30
0.0
  0
VERTEX
  5
1B5
100
AcDbEntity
  8
FAN70-0310
370
              15
390
0
  6
Continuous
 62
               7
100
AcDbVertex
100
AcDb2dVertex
 10
-458.53229415492285
 20
452.47797495978523
 30
0.0
  0
VERTEX
  5
1B6
100
AcDbEntity
  8
FAN70-0310
370
              15
390
0
  6
Continuous
 62
               7
100
AcDbVertex
100
AcDb2dVertex
 10
-474.1254624806229
 20
453.42679948113505
 30
0.0
  0
VERTEX
  5
1B7
100
AcDbEntity
  8
FAN70-0310
370
              15
390
0
  6
Continuous
 62
               7
100
AcDbVertex
100
AcDb2dVertex
 10
-489.65109222452293
 20
455.25799040772483
 30
0.0
  0
VERTEX
  5
1B8
100
AcDbEntity
  8
FAN70-0310
370
              15
390
0
  6
Continuous
 62
               7
100
AcDbVertex
100
AcDb2dVertex
 10
-505.03146731182289
 20
457.9748274133342
 30
0.0
  0
VERTEX
  5
1B9
100
AcDbEntity
  8
FAN70-0310
370
              15
390
0
  6
Continuous
 62
               7
100
AcDbVertex
100
AcDb2dVertex
 10
-520.18887259882285
 20
461.58063489438359
 30
0.0
  0
VERTEX
  5
1BA
100
AcDbEntity
  8
FAN70-0310
370
              15
390
0
  6
Continuous
 62
               7
100
AcDbVertex
100
AcDb2dVertex
 10
-534.87828829212299
 20
466.02262501151154
 30
0.0
  0
VERTEX
  5
1BB
100
AcDbEntity
  8
FAN70-0310
370
              15
390
0
  6
Continuous
 62
               7
100
AcDbVertex
100
AcDb2dVertex
 10
-549.31544967812283
 20
471.37678184198717
 30
0.0
  0
VERTEX
  5
1BC
100
AcDbEntity
  8
FAN70-0310
370
              15
390
0
  6
Continuous
 62
               7
100
AcDbVertex
100
AcDb2dVertex
 10
-563.39054264942297
 20
477.6444023478756
 30
0.0
  0
VERTEX
  5
1BD
100
AcDbEntity
  8
FAN70-0310
370
              15
390
0
  6
Continuous
 62
               7
100
AcDbVertex
100
AcDb2dVertex
 10
-576.99370839522294
 20
484.82679839858883
 30
0.0
  0
VERTEX
  5
1BE
100
AcDbEntity
  8
FAN70-0310
370
              15
390
0
  6
Continuous
 62
               7
100
AcDbVertex
100
AcDb2dVertex
 10
-590.01511790672294
 20
492.92527440991546
 30
0.0
  0
VERTEX
  5
1BF
100
AcDbEntity
  8
FAN70-0310
370
              15
390
0
  6
Continuous
 62
               7
100
AcDbVertex
100
AcDb2dVertex
 10
-599.67487015642291
 20
499.86375217987734
 30
0.0
  0
VERTEX
  5
1C0
100
AcDbEntity
  8
FAN70-0310
370
              15
390
0
  6
Continuous
 62
               7
100
AcDbVertex
100
AcDb2dVertex
 10
-608.92583885112299
 20
507.40248478271224
 30
0.0
  0
VERTEX
  5
1C1
100
AcDbEntity
  8
FAN70-0310
370
              15
390
0
  6
Continuous
 62
               7
100
AcDbVertex
100
AcDb2dVertex
 10
-617.68419005792293
 20
515.51817162738553
 30
0.0
  0
VERTEX
  5
1C2
100
AcDbEntity
  8
FAN70-0310
370
              15
390
0
  6
Continuous
 62
               7
100
AcDbVertex
100
AcDb2dVertex
 10
-625.86614944852295
 20
524.18750466873917
 30
0.0
  0
VERTEX
  5
1C3
100
AcDbEntity
  8
FAN70-0310
370
              15
390
0
  6
Continuous
 62
               7
100
AcDbVertex
100
AcDb2dVertex
 10
-633.38789799132292
 20
533.38718331583846
 30
0.0
  0
VERTEX
  5
1C4
100
AcDbEntity
  8
FAN70-0310
370
              15
390
0
  6
Continuous
 62
               7
100
AcDbVertex
100
AcDb2dVertex
 10
-639.67672445692301
 20
542.33136792450262
 30
0.0
  0
VERTEX
  5
1C5
100
AcDbEntity
  8
FAN70-0310
370
              15
390
0
  6
Continuous
 62
               7
100
AcDbVertex
100
AcDb2dVertex
 10
-645.32049455562287
 20
551.73188186541142
 30
0.0
  0
VERTEX
  5
1C6
100
AcDbEntity
  8
FAN70-0310
370
              15
390
0
  6
Continuous
 62
               7
100
AcDbVertex
100
AcDb2dVertex
 10
-650.24334647582282
 20
561.5240223933572
 30
0.0
  0
VERTEX
  5
1C7
100
AcDbEntity
  8
FAN70-0310
370
              15
390
0
  6
Continuous
 62
               7
100
AcDbVertex
100
AcDb2dVertex
 10
-654.36935880102283
 20
571.64312030503675
 30
0.0
  0
VERTEX
  5
1C8
100
AcDbEntity
  8
FAN70-0310
370
              15
390
0
  6
Continuous
 62
               7
100
AcDbVertex
100
AcDb2dVertex
 10
-657.66296245972285
 20
582.1536435511224
 30
0.0
  0
VERTEX
  5
1C9
100
AcDbEntity
  8
FAN70-0310
370
              15
390
0
  6
Continuous
 62
               7
100
AcDbVertex
100
AcDb2dVertex
 10
-660.06336071412284
 20
592.94560752707184
 30
0.0
  0
VERTEX
  5
1CA
100
AcDbEntity
  8
FAN70-0310
370
              15
390
0
  6
Continuous
 62
               7
100
AcDbVertex
100
AcDb2dVertex
 10
-661.53191485322282
 20
603.90067657306724
 30
0.0
  0
VERTEX
  5
1CB
100
AcDbEntity
  8
FAN70-0310
370
              15
390
0
  6
Continuous
 62
               7
100
AcDbVertex
100
AcDb2dVertex
 10
-662.03003086962281
 20
614.90050757526706
 30
0.0
  0
VERTEX
  5
1CC
100
AcDbEntity
  8
FAN70-0310
370
              15
390
0
  6
Continuous
 62
               7
100
AcDbVertex
100
AcDb2dVertex
 10
-661.72427394312285
 20
623.61825866368497
 30
0.0
  0
VERTEX
  5
1CD
100
AcDbEntity
  8
FAN70-0310
370
              15
390
0
  6
Continuous
 62
               7
100
AcDbVertex
100
AcDb2dVertex
 10
-660.49109854622293
 20
634.36873849380424
 30
0.0
  0
VERTEX
  5
1CE
100
AcDbEntity
  8
FAN70-0310
370
              15
390
0
  6
Continuous
 62
               7
100
AcDbVertex
100
AcDb2dVertex
 10
-658.335511469023
 20
645.01228791565472
 30
0.0
  0
VERTEX
  5
1CF
100
AcDbEntity
  8
FAN70-0310
370
              15
390
0
  6
Continuous
 62
               7
100
AcDbVertex
100
AcDb2dVertex
 10
-655.30565836352298
 20
655.44400954613991
 30
0.0
  0
VERTEX
  5
1D0
100
AcDbEntity
  8
FAN70-0310
370
              15
390
0
  6
Continuous
 62
               7
100
AcDbVertex
100
AcDb2dVertex
 10
-651.44968488142285
 20
665.55900041194616
 30
0.0
  0
VERTEX
  5
1D1
100
AcDbEntity
  8
FAN70-0310
370
              15
390
0
  6
Continuous
 62
               7
100
AcDbVertex
100
AcDb2dVertex
 10
-646.04321577472297
 20
676.74697753858209
 30
0.0
  0
VERTEX
  5
1D2
100
AcDbEntity
  8
FAN70-0310
370
              15
390
0
  6
Continuous
 62
               7
100
AcDbVertex
100
AcDb2dVertex
 10
-639.67027225412289
 20
687.46454137032754
 30
0.0
  0
VERTEX
  5
1D3
100
AcDbEntity
  8
FAN70-0310
370
              15
390
0
  6
Continuous
 62
               7
100
AcDbVertex
100
AcDb2dVertex
 10
-632.44350709832293
 20
697.63529414351706
 30
0.0
  0
VERTEX
  5
1D4
100
AcDbEntity
  8
FAN70-0310
370
              15
390
0
  6
Continuous
 62
               7
100
AcDbVertex
100
AcDb2dVertex
 10
-624.47555818482283
 20
707.1828120061034
 30
0.0
  0
VERTEX
  5
1D5
100
AcDbEntity
  8
FAN70-0310
370
              15
390
0
  6
Continuous
 62
               7
100
AcDbVertex
100
AcDb2dVertex
 10
-615.94254233762285
 20
715.99358097768197
 30
0.0
  0
VERTEX
  5
1D6
100
AcDbEntity
  8
FAN70-0310
370
              15
390
0
  6
Continuous
 62
               7
100
AcDbVertex
100
AcDb2dVertex
 10
-606.79704406182304
 20
724.22108233553308
 30
0.0
  0
VERTEX
  5
1D7
100
AcDbEntity
  8
FAN70-0310
370
              15
390
0
  6
Continuous
 62
               7
100
AcDbVertex
100
AcDb2dVertex
 10
-597.12224163932297
 20
731.8499016131409
 30
0.0
  0
VERTEX
  5
1D8
100
AcDbEntity
  8
FAN70-0310
370
              15
390
0
  6
Continuous
 62
               7
100
AcDbVertex
100
AcDb2dVertex
 10
-587.00134315412288
 20
738.86463179751263
 30
0.0
  0
VERTEX
  5
1D9
100
AcDbEntity
  8
FAN70-0310
370
              15
390
0
  6
Continuous
 62
               7
100
AcDbVertex
100
AcDb2dVertex
 10
-576.51757159152294
 20
745.2498584223323
 30
0.0
  0
VERTEX
  5
1DA
100
AcDbEntity
  8
FAN70-0310
370
              15
390
0
  6
Continuous
 62
               7
100
AcDbVertex
100
AcDb2dVertex
 10
-562.99205579682302
 20
752.35662817809816
 30
0.0
  0
VERTEX
  5
1DB
100
AcDbEntity
  8
FAN70-0310
370
              15
390
0
  6
Continuous
 62
               7
100
AcDbVertex
100
AcDb2dVertex
 10
-549.00814303082302
 20
758.55628489945707
 30
0.0
  0
VERTEX
  5
1DC
100
AcDbEntity
  8
FAN70-0310
370
              15
390
0
  6
Continuous
 62
               7
100
AcDbVertex
100
AcDb2dVertex
 10
-534.67290558732293
 20
763.85090074390394
 30
0.0
  0
VERTEX
  5
1DD
100
AcDbEntity
  8
FAN70-0310
370
              15
390
0
  6
Continuous
 62
               7
100
AcDbVertex
100
AcDb2dVertex
 10
-519.49208685082294
 20
768.40677007788156
 30
0.0
  0
VERTEX
  5
1DE
100
AcDbEntity
  8
FAN70-0310
370
              15
390
0
  6
Continuous
 62
               7
100
AcDbVertex
100
AcDb2dVertex
 10
-504.04626586362292
 20
772.02931880270557
 30
0.0
  0
VERTEX
  5
1DF
100
AcDbEntity
  8
FAN70-0310
370
              15
390
0
  6
Continuous
 62
               7
100
AcDbVertex
100
AcDb2dVertex
 10
-488.42584797062284
 20
774.72428634746609
 30
0.0
  0
VERTEX
  5
1E0
100
AcDbEntity
  8
FAN70-0310
370
              15
390
0
  6
Continuous
 62
               7
100
AcDbVertex
100
AcDb2dVertex
 10
-471.87247023802286
 20
776.5675524365048
 30
0.0
  0
VERTEX
  5
1E1
100
AcDbEntity
  8
FAN70-0310
370
              15
390
0
  6
Continuous
 62
               7
100
AcDbVertex
100
AcDb2dVertex
 10
-455.19217838422287
 20
777.40817753950819
 30
0.0
  0
VERTEX
  5
1E2
100
AcDbEntity
  8
FAN70-0310
370
              15
390
0
  6
Continuous
 62
               7
100
AcDbVertex
100
AcDb2dVertex
 10
-438.47622805162291
 20
777.2458038740549
 30
0.0
  0
VERTEX
  5
1E3
100
AcDbEntity
  8
FAN70-0310
370
              15
390
0
  6
Continuous
 62
               7
100
AcDbVertex
100
AcDb2dVertex
 10
-421.81587488272294
 20
776.08010347261677
 30
0.0
  0
VERTEX
  5
1E4
100
AcDbEntity
  8
FAN70-0310
370
              15
390
0
  6
Continuous
 62
               7
100
AcDbVertex
100
AcDb2dVertex
 10
-405.30237265752294
 20
773.91070364512598
 30
0.0
  0
VERTEX
  5
1E5
100
AcDbEntity
  8
FAN70-0310
370
              15
390
0
  6
Continuous
 62
               7
100
AcDbVertex
100
AcDb2dVertex
 10
-389.15541105792289
 20
770.76780720515137
 30
0.0
  0
VERTEX
  5
1E6
100
AcDbEntity
  8
FAN70-0310
370
              15
390
0
  6
Continuous
 62
               7
100
AcDbVertex
100
AcDb2dVertex
 10
-373.18251737282287
 20
766.60830135065817
 30
0.0
  0
VERTEX
  5
1E7
100
AcDbEntity
  8
FAN70-0310
370
              15
390
0
  6
Continuous
 62
               7
100
AcDbVertex
100
AcDb2dVertex
 10
-357.49927618422288
 20
761.42652119048989
 30
0.0
  0
VERTEX
  5
1E8
100
AcDbEntity
  8
FAN70-0310
370
              15
390
0
  6
Continuous
 62
               7
100
AcDbVertex
100
AcDb2dVertex
 10
-342.22129442612288
 20
755.21674220340333
 30
0.0
  0
VERTEX
  5
1E9
100
AcDbEntity
  8
FAN70-0310
370
              15
390
0
  6
Continuous
 62
               7
100
AcDbVertex
100
AcDb2dVertex
 10
-327.46416040582284
 20
747.97331440578864
 30
0.0
  0
VERTEX
  5
1EA
100
AcDbEntity
  8
FAN70-0310
370
              15
390
0
  6
Continuous
 62
               7
100
AcDbVertex
100
AcDb2dVertex
 10
-316.31264545842288
 20
741.55326360891399
 30
0.0
  0
VERTEX
  5
1EB
100
AcDbEntity
  8
FAN70-0310
370
              15
390
0
  6
Continuous
 62
               7
100
AcDbVertex
100
AcDb2dVertex
 10
-305.53493359012282
 20
734.44450368751006
 30
0.0
  0
VERTEX
  5
1EC
100
AcDbEntity
  8
FAN70-0310
370
              15
390
0
  6
Continuous
 62
               7
100
AcDbVertex
100
AcDb2dVertex
 10
-295.22404529972289
 20
726.66230003212559
 30
0.0
  0
VERTEX
  5
1ED
100
AcDbEntity
  8
FAN70-0310
370
              15
390
0
  6
Continuous
 62
               7
100
AcDbVertex
100
AcDb2dVertex
 10
-285.47303833882285
 20
718.22188821791565
 30
0.0
  0
VERTEX
  5
1EE
100
AcDbEntity
  8
FAN70-0310
370
              15
390
0
  6
Continuous
 62
               7
100
AcDbVertex
100
AcDb2dVertex
 10
-276.3749406568229
 20
709.13851872788257
 30
0.0
  0
VERTEX
  5
1EF
100
AcDbEntity
  8
FAN70-0310
370
              15
390
0
  6
Continuous
 62
               7
100
AcDbVertex
100
AcDb2dVertex
 10
-269.12616648592285
 20
700.80527770699496
 30
0.0
  0
VERTEX
  5
1F0
100
AcDbEntity
  8
FAN70-0310
370
              15
390
0
  6
Continuous
 62
               7
100
AcDbVertex
100
AcDb2dVertex
 10
-262.44160988252293
 20
691.97828180425381
 30
0.0
  0
VERTEX
  5
1F1
100
AcDbEntity
  8
FAN70-0310
370
              15
390
0
  6
Continuous
 62
               7
100
AcDbVertex
100
AcDb2dVertex
 10
-256.39997877992289
 20
682.70484031324804
 30
0.0
  0
VERTEX
  5
1F2
100
AcDbEntity
  8
FAN70-0310
370
              15
390
0
  6
Continuous
 62
               7
100
AcDbVertex
100
AcDb2dVertex
 10
-251.07993640822292
 20
673.0322886160485
 30
0.0
  0
VERTEX
  5
1F3
100
AcDbEntity
  8
FAN70-0310
370
              15
390
0
  6
Continuous
 62
               7
100
AcDbVertex
100
AcDb2dVertex
 10
-246.7367247573228
 20
663.45345359609973
 30
0.0
  0
VERTEX
  5
1F4
100
AcDbEntity
  8
FAN70-0310
370
              15
390
0
  6
Continuous
 62
               7
100
AcDbVertex
100
AcDb2dVertex
 10
-243.13299813192282
 20
653.53741966561552
 30
0.0
  0
VERTEX
  5
1F5
100
AcDbEntity
  8
FAN70-0310
370
              15
390
0
  6
Continuous
 62
               7
100
AcDbVertex
100
AcDb2dVertex
 10
-240.32214739242283
 20
643.37165162385043
 30
0.0
  0
VERTEX
  5
1F6
100
AcDbEntity
  8
FAN70-0310
370
              15
390
0
  6
Continuous
 62
               7
100
AcDbVertex
100
AcDb2dVertex
 10
-238.35750379482283
 20
633.04361986017659
 30
0.0
  0
VERTEX
  5
1F7
100
AcDbEntity
  8
FAN70-0310
370
              15
390
0
  6
Continuous
 62
               7
100
AcDbVertex
100
AcDb2dVertex
 10
-237.36350693622285
 20
623.99619540801154
 30
0.0
  0
VERTEX
  5
1F8
100
AcDbEntity
  8
FAN70-0310
370
              15
390
0
  6
Continuous
 62
               7
100
AcDbVertex
100
AcDb2dVertex
 10
-237.03001894872284
 20
614.90050757526706
 30
0.0
  0
SEQEND
  5
1F9
100
AcDbEntity
  8
FAN70-0310
370
              15
390
0
  6
Continuous
 62
               7
  0
POLYLINE
  5
1FA
100
AcDbEntity
  8
FAN70-0310
370
              15
390
0
  6
Continuous
 62
               7
100
AcDb2dPolyline
 66
               1
 10
0.0
 20
0.0
 30
0.0
 75
               5
  0
VERTEX
  5
1FB
100
AcDbEntity
  8
FAN70-0310
370
              15
390
0
  6
Continuous
 62
               7
100
AcDbVertex
100
AcDb2dVertex
 10
-449.53002490922285
 20
575.13023990670831
 30
0.0
  0
VERTEX
  5
1FC
100
AcDbEntity
  8
FAN70-0310
370
              15
390
0
  6
Continuous
 62
               7
100
AcDbVertex
100
AcDb2dVertex
 10
-444.37477168512288
 20
575.46557191290822
 30
0.0
  0
VERTEX
  5
1FD
100
AcDbEntity
  8
FAN70-0310
370
              15
390
0
  6
Continuous
 62
               7
100
AcDbVertex
100
AcDb2dVertex
 10
-439.30575334352289
 20
576.46762657440831
 30
0.0
  0
VERTEX
  5
1FE
100
AcDbEntity
  8
FAN70-0310
370
              15
390
0
  6
Continuous
 62
               7
100
AcDbVertex
100
AcDb2dVertex
 10
-434.4066101021229
 20
578.11959910670828
 30
0.0
  0
VERTEX
  5
1FF
100
AcDbEntity
  8
FAN70-0310
370
              15
390
0
  6
Continuous
 62
               7
100
AcDbVertex
100
AcDb2dVertex
 10
-429.75803547422288
 20
580.39603087580826
 30
0.0
  0
VERTEX
  5
200
100
AcDbEntity
  8
FAN70-0310
370
              15
390
0
  6
Continuous
 62
               7
100
AcDbVertex
100
AcDb2dVertex
 10
-425.43915741962286
 20
583.26233628670821
 30
0.0
  0
VERTEX
  5
201
100
AcDbEntity
  8
FAN70-0310
370
              15
390
0
  6
Continuous
 62
               7
100
AcDbVertex
100
AcDb2dVertex
 10
-421.5233334235229
 20
586.67220811820823
 30
0.0
  0
VERTEX
  5
202
100
AcDbEntity
  8
FAN70-0310
370
              15
390
0
  6
Continuous
 62
               7
100
AcDbVertex
100
AcDb2dVertex
 10
-418.07775282182291
 20
590.57289067190823
 30
0.0
  0
VERTEX
  5
203
100
AcDbEntity
  8
FAN70-0310
370
              15
390
0
  6
Continuous
 62
               7
100
AcDbVertex
100
AcDb2dVertex
 10
-415.16626709022285
 20
594.9003797350083
 30
0.0
  0
VERTEX
  5
204
100
AcDbEntity
  8
FAN70-0310
370
              15
390
0
  6
Continuous
 62
               7
100
AcDbVertex
100
AcDb2dVertex
 10
-412.84128733792289
 20
599.58317487960824
 30
0.0
  0
VERTEX
  5
205
100
AcDbEntity
  8
FAN70-0310
370
              15
390
0
  6
Continuous
 62
               7
100
AcDbVertex
100
AcDb2dVertex
 10
-411.15282186192286
 20
604.52393985810829
 30
0.0
  0
VERTEX
  5
206
100
AcDbEntity
  8
FAN70-0310
370
              15
390
0
  6
Continuous
 62
               7
100
AcDbVertex
100
AcDb2dVertex
 10
-410.1247534982229
 20
609.65368043160834
 30
0.0
  0
VERTEX
  5
207
100
AcDbEntity
  8
FAN70-0310
370
              15
390
0
  6
Continuous
 62
               7
100
AcDbVertex
100
AcDb2dVertex
 10
-409.78002630992285
 20
614.88023850600825
 30
0.0
  0
SEQEND
  5
208
100
AcDbEntity
  8
FAN70-0310
370
              15
390
0
  6
Continuous
 62
               7
  0
POLYLINE
  5
209
100
AcDbEntity
  8
FAN70-0310
370
              15
390
0
  6
Continuous
 62
               7
100
AcDb2dPolyline
 66
               1
 10
0.0
 20
0.0
 30
0.0
 75
               5
  0
VERTEX
  5
20A
100
AcDbEntity
  8
FAN70-0310
370
              15
390
0
  6
Continuous
 62
               7
100
AcDbVertex
100
AcDb2dVertex
 10
-449.53002490922285
 20
726.02563056620829
 30
0.0
  0
VERTEX
  5
20B
100
AcDbEntity
  8
FAN70-0310
370
              15
390
0
  6
Continuous
 62
               7
100
AcDbVertex
100
AcDb2dVertex
 10
-453.60797493602286
 20
726.2441933481083
 30
0.0
  0
VERTEX
  5
20C
100
AcDbEntity
  8
FAN70-0310
370
              15
390
0
  6
Continuous
 62
               7
100
AcDbVertex
100
AcDb2dVertex
 10
-457.52883319632286
 20
726.89068022640822
 30
0.0
  0
VERTEX
  5
20D
100
AcDbEntity
  8
FAN70-0310
370
              15
390
0
  6
Continuous
 62
               7
100
AcDbVertex
100
AcDb2dVertex
 10
-461.14264045722285
 20
727.93723348060826
 30
0.0
  0
VERTEX
  5
20E
100
AcDbEntity
  8
FAN70-0310
370
              15
390
0
  6
Continuous
 62
               7
100
AcDbVertex
100
AcDb2dVertex
 10
-464.30958424582286
 20
729.33743599330819
 30
0.0
  0
VERTEX
  5
20F
100
AcDbEntity
  8
FAN70-0310
370
              15
390
0
  6
Continuous
 62
               7
100
AcDbVertex
100
AcDb2dVertex
 10
-466.90863826192287
 20
731.0295150009083
 30
0.0
  0
VERTEX
  5
210
100
AcDbEntity
  8
FAN70-0310
370
              15
390
0
  6
Continuous
 62
               7
100
AcDbVertex
100
AcDb2dVertex
 10
-468.83949161392286
 20
732.93840590390823
 30
0.0
  0
VERTEX
  5
211
100
AcDbEntity
  8
FAN70-0310
370
              15
390
0
  6
Continuous
 62
               7
100
AcDbVertex
100
AcDb2dVertex
 10
-470.02850369432286
 20
734.98152646700828
 30
0.0
  0
VERTEX
  5
212
100
AcDbEntity
  8
FAN70-0310
370
              15
390
0
  6
Continuous
 62
               7
100
AcDbVertex
100
AcDb2dVertex
 10
-470.43002479592286
 20
737.07277033010826
 30
0.0
  0
VERTEX
  5
213
100
AcDbEntity
  8
FAN70-0310
370
              15
390
0
  6
Continuous
 62
               7
100
AcDbVertex
100
AcDb2dVertex
 10
-470.02861917832286
 20
739.12648561870833
 30
0.0
  0
VERTEX
  5
214
100
AcDbEntity
  8
FAN70-0310
370
              15
390
0
  6
Continuous
 62
               7
100
AcDbVertex
100
AcDb2dVertex
 10
-468.83932770112284
 20
741.06401655350828
 30
0.0
  0
VERTEX
  5
215
100
AcDbEntity
  8
FAN70-0310
370
              15
390
0
  6
Continuous
 62
               7
100
AcDbVertex
100
AcDb2dVertex
 10
-466.90819681502285
 20
742.8143963543082
 30
0.0
  0
VERTEX
  5
216
100
AcDbEntity
  8
FAN70-0310
370
              15
390
0
  6
Continuous
 62
               7
100
AcDbVertex
100
AcDb2dVertex
 10
-464.3091111339229
 20
744.31924972210822
 30
0.0
  0
VERTEX
  5
217
100
AcDbEntity
  8
FAN70-0310
370
              15
390
0
  6
Continuous
 62
               7
100
AcDbVertex
100
AcDb2dVertex
 10
-461.14205465532285
 20
745.53265127810823
 30
0.0
  0
VERTEX
  5
218
100
AcDbEntity
  8
FAN70-0310
370
              15
390
0
  6
Continuous
 62
               7
100
AcDbVertex
100
AcDb2dVertex
 10
-457.52882853962285
 20
746.42110321200835
 30
0.0
  0
VERTEX
  5
219
100
AcDbEntity
  8
FAN70-0310
370
              15
390
0
  6
Continuous
 62
               7
100
AcDbVertex
100
AcDb2dVertex
 10
-453.60763314062285
 20
746.96253690400818
 30
0.0
  0
VERTEX
  5
21A
100
AcDbEntity
  8
FAN70-0310
370
              15
390
0
  6
Continuous
 62
               7
100
AcDbVertex
100
AcDb2dVertex
 10
-449.53002490922285
 20
747.14434597170828
 30
0.0
  0
SEQEND
  5
21B
100
AcDbEntity
  8
FAN70-0310
370
              15
390
0
  6
Continuous
 62
               7
  0
POLYLINE
  5
21C
100
AcDbEntity
  8
FAN70-0310
370
              15
390
0
  6
Continuous
 62
               7
100
AcDb2dPolyline
 66
               1
 10
0.0
 20
0.0
 30
0.0
 75
               5
  0
VERTEX
  5
21D
100
AcDbEntity
  8
FAN70-0310
370
              15
390
0
  6
Continuous
 62
               7
100
AcDbVertex
100
AcDb2dVertex
 10
-449.53002490922285
 20
654.6302371053082
 30
0.0
  0
VERTEX
  5
21E
100
AcDbEntity
  8
FAN70-0310
370
              15
390
0
  6
Continuous
 62
               7
100
AcDbVertex
100
AcDb2dVertex
 10
-456.19543957412287
 20
654.06334105410826
 30
0.0
  0
VERTEX
  5
21F
100
AcDbEntity
  8
FAN70-0310
370
              15
390
0
  6
Continuous
 62
               7
100
AcDbVertex
100
AcDb2dVertex
 10
-462.67278482092286
 20
652.39465314420818
 30
0.0
  0
VERTEX
  5
220
100
AcDbEntity
  8
FAN70-0310
370
              15
390
0
  6
Continuous
 62
               7
100
AcDbVertex
100
AcDb2dVertex
 10
-468.77148643952285
 20
649.65831938660824
 30
0.0
  0
VERTEX
  5
221
100
AcDbEntity
  8
FAN70-0310
370
              15
390
0
  6
Continuous
 62
               7
100
AcDbVertex
100
AcDb2dVertex
 10
-474.32823561952284
 20
645.94650160050833
 30
0.0
  0
VERTEX
  5
222
100
AcDbEntity
  8
FAN70-0310
370
              15
390
0
  6
Continuous
 62
               7
100
AcDbVertex
100
AcDb2dVertex
 10
-479.18008723182282
 20
641.34952317450825
 30
0.0
  0
VERTEX
  5
223
100
AcDbEntity
  8
FAN70-0310
370
              15
390
0
  6
Continuous
 62
               7
100
AcDbVertex
100
AcDb2dVertex
 10
-483.19885962532288
 20
636.01016703520827
 30
0.0
  0
VERTEX
  5
224
100
AcDbEntity
  8
FAN70-0310
370
              15
390
0
  6
Continuous
 62
               7
100
AcDbVertex
100
AcDb2dVertex
 10
-486.26671069182288
 20
630.0512429652083
 30
0.0
  0
VERTEX
  5
225
100
AcDbEntity
  8
FAN70-0310
370
              15
390
0
  6
Continuous
 62
               7
100
AcDbVertex
100
AcDb2dVertex
 10
-488.29787679832287
 20
623.66193517570832
 30
0.0
  0
VERTEX
  5
226
100
AcDbEntity
  8
FAN70-0310
370
              15
390
0
  6
Continuous
 62
               7
100
AcDbVertex
100
AcDb2dVertex
 10
-489.03450080082285
 20
619.29886260530827
 30
0.0
  0
VERTEX
  5
227
100
AcDbEntity
  8
FAN70-0310
370
              15
390
0
  6
Continuous
 62
               7
100
AcDbVertex
100
AcDb2dVertex
 10
-489.28002350852285
 20
614.88023850600825
 30
0.0
  0
SEQEND
  5
228
100
AcDbEntity
  8
FAN70-0310
370
              15
390
0
  6
Continuous
 62
               7
  0
POLYLINE
  5
229
100
AcDbEntity
  8
FAN70-0310
370
              15
390
0
  6
Continuous
 62
               7
100
AcDb2dPolyline
 66
               1
 10
0.0
 20
0.0
 30
0.0
 75
               5
  0
VERTEX
  5
22A
100
AcDbEntity
  8
FAN70-0310
370
              15
390
0
  6
Continuous
 62
               7
100
AcDbVertex
100
AcDb2dVertex
 10
-489.28002350852285
 20
614.88023850600825
 30
0.0
  0
VERTEX
  5
22B
100
AcDbEntity
  8
FAN70-0310
370
              15
390
0
  6
Continuous
 62
               7
100
AcDbVertex
100
AcDb2dVertex
 10
-488.93531494662284
 20
609.65383363420824
 30
0.0
  0
VERTEX
  5
22C
100
AcDbEntity
  8
FAN70-0310
370
              15
390
0
  6
Continuous
 62
               7
100
AcDbVertex
100
AcDb2dVertex
 10
-487.90717952772286
 20
604.5236790878082
 30
0.0
  0
VERTEX
  5
22D
100
AcDbEntity
  8
FAN70-0310
370
              15
390
0
  6
Continuous
 62
               7
100
AcDbVertex
100
AcDb2dVertex
 10
-486.21879600802288
 20
599.5831897808082
 30
0.0
  0
VERTEX
  5
22E
100
AcDbEntity
  8
FAN70-0310
370
              15
390
0
  6
Continuous
 62
               7
100
AcDbVertex
100
AcDb2dVertex
 10
-483.89370822232286
 20
594.89956762170823
 30
0.0
  0
VERTEX
  5
22F
100
AcDbEntity
  8
FAN70-0310
370
              15
390
0
  6
Continuous
 62
               7
100
AcDbVertex
100
AcDb2dVertex
 10
-480.98138802572282
 20
590.57235981800818
 30
0.0
  0
VERTEX
  5
230
100
AcDbEntity
  8
FAN70-0310
370
              15
390
0
  6
Continuous
 62
               7
100
AcDbVertex
100
AcDb2dVertex
 10
-477.53672943332288
 20
586.67219135440826
 30
0.0
  0
VERTEX
  5
231
100
AcDbEntity
  8
FAN70-0310
370
              15
390
0
  6
Continuous
 62
               7
100
AcDbVertex
100
AcDb2dVertex
 10
-473.62031497882288
 20
583.26145339290827
 30
0.0
  0
VERTEX
  5
232
100
AcDbEntity
  8
FAN70-0310
370
              15
390
0
  6
Continuous
 62
               7
100
AcDbVertex
100
AcDb2dVertex
 10
-469.30126556082286
 20
580.39602715050819
 30
0.0
  0
VERTEX
  5
233
100
AcDbEntity
  8
FAN70-0310
370
              15
390
0
  6
Continuous
 62
               7
100
AcDbVertex
100
AcDb2dVertex
 10
-464.65335682852287
 20
578.11956185380825
 30
0.0
  0
VERTEX
  5
234
100
AcDbEntity
  8
FAN70-0310
370
              15
390
0
  6
Continuous
 62
               7
100
AcDbVertex
100
AcDb2dVertex
 10
-459.75416608972284
 20
576.46761539850831
 30
0.0
  0
VERTEX
  5
235
100
AcDbEntity
  8
FAN70-0310
370
              15
390
0
  6
Continuous
 62
               7
100
AcDbVertex
100
AcDb2dVertex
 10
-454.6852730110229
 20
575.46556818760826
 30
0.0
  0
VERTEX
  5
236
100
AcDbEntity
  8
FAN70-0310
370
              15
390
0
  6
Continuous
 62
               7
100
AcDbVertex
100
AcDb2dVertex
 10
-449.53002490922285
 20
575.13023990670831
 30
0.0
  0
SEQEND
  5
237
100
AcDbEntity
  8
FAN70-0310
370
              15
390
0
  6
Continuous
 62
               7
  0
POLYLINE
  5
238
100
AcDbEntity
  8
FAN70-0310
370
              15
390
0
  6
Continuous
 62
               7
100
AcDb2dPolyline
 66
               1
 10
0.0
 20
0.0
 30
0.0
 75
               5
  0
VERTEX
  5
239
100
AcDbEntity
  8
FAN70-0310
370
              15
390
0
  6
Continuous
 62
               7
100
AcDbVertex
100
AcDb2dVertex
 10
-409.78002630992285
 20
614.88023850600825
 30
0.0
  0
VERTEX
  5
23A
100
AcDbEntity
  8
FAN70-0310
370
              15
390
0
  6
Continuous
 62
               7
100
AcDbVertex
100
AcDb2dVertex
 10
-409.78006728812284
 20
614.93731894640825
 30
0.0
  0
VERTEX
  5
23B
100
AcDbEntity
  8
FAN70-0310
370
              15
390
0
  6
Continuous
 62
               7
100
AcDbVertex
100
AcDb2dVertex
 10
-410.13480805672287
 20
620.18196548800825
 30
0.0
  0
VERTEX
  5
23C
100
AcDbEntity
  8
FAN70-0310
370
              15
390
0
  6
Continuous
 62
               7
100
AcDbVertex
100
AcDb2dVertex
 10
-411.17738642612289
 20
625.32722003290826
 30
0.0
  0
VERTEX
  5
23D
100
AcDbEntity
  8
FAN70-0310
370
              15
390
0
  6
Continuous
 62
               7
100
AcDbVertex
100
AcDb2dVertex
 10
-412.88358055872283
 20
630.27843165670822
 30
0.0
  0
VERTEX
  5
23E
100
AcDbEntity
  8
FAN70-0310
370
              15
390
0
  6
Continuous
 62
               7
100
AcDbVertex
100
AcDb2dVertex
 10
-415.21897249742284
 20
634.95113033330824
 30
0.0
  0
VERTEX
  5
23F
100
AcDbEntity
  8
FAN70-0310
370
              15
390
0
  6
Continuous
 62
               7
100
AcDbVertex
100
AcDb2dVertex
 10
-418.13815467872286
 20
639.2648935643083
 30
0.0
  0
VERTEX
  5
240
100
AcDbEntity
  8
FAN70-0310
370
              15
390
0
  6
Continuous
 62
               7
100
AcDbVertex
100
AcDb2dVertex
 10
-421.58569478312285
 20
643.15008822360824
 30
0.0
  0
VERTEX
  5
241
100
AcDbEntity
  8
FAN70-0310
370
              15
390
0
  6
Continuous
 62
               7
100
AcDbVertex
100
AcDb2dVertex
 10
-425.50060980842284
 20
646.54529544990828
 30
0.0
  0
VERTEX
  5
242
100
AcDbEntity
  8
FAN70-0310
370
              15
390
0
  6
Continuous
 62
               7
100
AcDbVertex
100
AcDb2dVertex
 10
-429.81384032292289
 20
649.3959546415083
 30
0.0
  0
VERTEX
  5
243
100
AcDbEntity
  8
FAN70-0310
370
              15
390
0
  6
Continuous
 62
               7
100
AcDbVertex
100
AcDb2dVertex
 10
-434.45197389342286
 20
651.65951180730826
 30
0.0
  0
VERTEX
  5
244
100
AcDbEntity
  8
FAN70-0310
370
              15
390
0
  6
Continuous
 62
               7
100
AcDbVertex
100
AcDb2dVertex
 10
-439.33808793202286
 20
653.30141860520826
 30
0.0
  0
VERTEX
  5
245
100
AcDbEntity
  8
FAN70-0310
370
              15
390
0
  6
Continuous
 62
               7
100
AcDbVertex
100
AcDb2dVertex
 10
-444.39151593372287
 20
654.29709556970829
 30
0.0
  0
VERTEX
  5
246
100
AcDbEntity
  8
FAN70-0310
370
              15
390
0
  6
Continuous
 62
               7
100
AcDbVertex
100
AcDb2dVertex
 10
-449.53002490922285
 20
654.6302371053082
 30
0.0
  0
SEQEND
  5
247
100
AcDbEntity
  8
FAN70-0310
370
              15
390
0
  6
Continuous
 62
               7
  0
POLYLINE
  5
248
100
AcDbEntity
  8
FAN70-0310
370
              15
390
0
  6
Continuous
 62
               7
100
AcDb2dPolyline
 66
               1
 10
0.0
 20
0.0
 30
0.0
 75
               5
  0
VERTEX
  5
249
100
AcDbEntity
  8
FAN70-0310
370
              15
390
0
  6
Continuous
 62
               7
100
AcDbVertex
100
AcDb2dVertex
 10
-449.53002490922285
 20
747.14434597170828
 30
0.0
  0
VERTEX
  5
24A
100
AcDbEntity
  8
FAN70-0310
370
              15
390
0
  6
Continuous
 62
               7
100
AcDbVertex
100
AcDb2dVertex
 10
-445.45219641992287
 20
746.9625071017083
 30
0.0
  0
VERTEX
  5
24B
100
AcDbEntity
  8
FAN70-0310
370
              15
390
0
  6
Continuous
 62
               7
100
AcDbVertex
100
AcDb2dVertex
 10
-441.53148018642287
 20
746.42113301430823
 30
0.0
  0
VERTEX
  5
24C
100
AcDbEntity
  8
FAN70-0310
370
              15
390
0
  6
Continuous
 62
               7
100
AcDbVertex
100
AcDb2dVertex
 10
-437.91778375282286
 20
745.53259167350825
 30
0.0
  0
VERTEX
  5
24D
100
AcDbEntity
  8
FAN70-0310
370
              15
390
0
  6
Continuous
 62
               7
100
AcDbVertex
100
AcDb2dVertex
 10
-434.75083717032288
 20
744.31923482100831
 30
0.0
  0
VERTEX
  5
24E
100
AcDbEntity
  8
FAN70-0310
370
              15
390
0
  6
Continuous
 62
               7
100
AcDbVertex
100
AcDb2dVertex
 10
-432.15167046412284
 20
742.81424734270831
 30
0.0
  0
VERTEX
  5
24F
100
AcDbEntity
  8
FAN70-0310
370
              15
390
0
  6
Continuous
 62
               7
100
AcDbVertex
100
AcDb2dVertex
 10
-430.22067927642286
 20
741.06398675120818
 30
0.0
  0
VERTEX
  5
250
100
AcDbEntity
  8
FAN70-0310
370
              15
390
0
  6
Continuous
 62
               7
100
AcDbVertex
100
AcDb2dVertex
 10
-429.03158337692281
 20
739.12684324660825
 30
0.0
  0
VERTEX
  5
251
100
AcDbEntity
  8
FAN70-0310
370
              15
390
0
  6
Continuous
 62
               7
100
AcDbVertex
100
AcDb2dVertex
 10
-428.63002502242284
 20
737.07281503360821
 30
0.0
  0
VERTEX
  5
252
100
AcDbEntity
  8
FAN70-0310
370
              15
390
0
  6
Continuous
 62
               7
100
AcDbVertex
100
AcDb2dVertex
 10
-429.03139524982282
 20
734.98189899600834
 30
0.0
  0
VERTEX
  5
253
100
AcDbEntity
  8
FAN70-0310
370
              15
390
0
  6
Continuous
 62
               7
100
AcDbVertex
100
AcDb2dVertex
 10
-430.22060104532289
 20
732.9383686510082
 30
0.0
  0
VERTEX
  5
254
100
AcDbEntity
  8
FAN70-0310
370
              15
390
0
  6
Continuous
 62
               7
100
AcDbVertex
100
AcDb2dVertex
 10
-432.15159409562284
 20
731.02935108820827
 30
0.0
  0
VERTEX
  5
255
100
AcDbEntity
  8
FAN70-0310
370
              15
390
0
  6
Continuous
 62
               7
100
AcDbVertex
100
AcDb2dVertex
 10
-434.75056615542286
 20
729.33740619100831
 30
0.0
  0
VERTEX
  5
256
100
AcDbEntity
  8
FAN70-0310
370
              15
390
0
  6
Continuous
 62
               7
100
AcDbVertex
100
AcDb2dVertex
 10
-437.91761984002284
 20
727.9371589748082
 30
0.0
  0
VERTEX
  5
257
100
AcDbEntity
  8
FAN70-0310
370
              15
390
0
  6
Continuous
 62
               7
100
AcDbVertex
100
AcDb2dVertex
 10
-441.53095585182285
 20
726.89073238050833
 30
0.0
  0
VERTEX
  5
258
100
AcDbEntity
  8
FAN70-0310
370
              15
390
0
  6
Continuous
 62
               7
100
AcDbVertex
100
AcDb2dVertex
 10
-445.45229281182287
 20
726.24415609510822
 30
0.0
  0
VERTEX
  5
259
100
AcDbEntity
  8
FAN70-0310
370
              15
390
0
  6
Continuous
 62
               7
100
AcDbVertex
100
AcDb2dVertex
 10
-449.53002370132288
 20
726.02563056620829
 30
0.0
  0
SEQEND
  5
25A
100
AcDbEntity
  8
FAN70-0310
370
              15
390
0
  6
Continuous
 62
               7
  0
POLYLINE
  5
25B
100
AcDbEntity
  8
FAN70-0310
370
              15
390
0
  6
Continuous
 62
               7
100
AcDb2dPolyline
 66
               1
 10
0.0
 20
0.0
 30
0.0
 75
               5
  0
VERTEX
  5
25C
100
AcDbEntity
  8
FAN70-0310
370
              15
390
0
  6
Continuous
 62
               7
100
AcDbVertex
100
AcDb2dVertex
 10
-449.53002490922285
 20
638.88023871460825
 30
0.0
  0
VERTEX
  5
25D
100
AcDbEntity
  8
FAN70-0310
370
              15
390
0
  6
Continuous
 62
               7
100
AcDbVertex
100
AcDb2dVertex
 10
-454.16765649692286
 20
638.42789906540827
 30
0.0
  0
VERTEX
  5
25E
100
AcDbEntity
  8
FAN70-0310
370
              15
390
0
  6
Continuous
 62
               7
100
AcDbVertex
100
AcDb2dVertex
 10
-458.63379527702284
 20
637.08657476580822
 30
0.0
  0
VERTEX
  5
25F
100
AcDbEntity
  8
FAN70-0310
370
              15
390
0
  6
Continuous
 62
               7
100
AcDbVertex
100
AcDb2dVertex
 10
-462.76414477152287
 20
634.90167337930825
 30
0.0
  0
VERTEX
  5
260
100
AcDbEntity
  8
FAN70-0310
370
              15
390
0
  6
Continuous
 62
               7
100
AcDbVertex
100
AcDb2dVertex
 10
-466.40202299572286
 20
631.94877918340831
 30
0.0
  0
VERTEX
  5
261
100
AcDbEntity
  8
FAN70-0310
370
              15
390
0
  6
Continuous
 62
               7
100
AcDbVertex
100
AcDb2dVertex
 10
-469.40719605312285
 20
628.33006478380821
 30
0.0
  0
VERTEX
  5
262
100
AcDbEntity
  8
FAN70-0310
370
              15
390
0
  6
Continuous
 62
               7
100
AcDbVertex
100
AcDb2dVertex
 10
-471.65614263042283
 20
624.17726296460819
 30
0.0
  0
VERTEX
  5
263
100
AcDbEntity
  8
FAN70-0310
370
              15
390
0
  6
Continuous
 62
               7
100
AcDbVertex
100
AcDb2dVertex
 10
-473.0520889989229
 20
619.64598096440818
 30
0.0
  0
VERTEX
  5
264
100
AcDbEntity
  8
FAN70-0310
370
              15
390
0
  6
Continuous
 62
               7
100
AcDbVertex
100
AcDb2dVertex
 10
-473.52999904082287
 20
614.91497694350824
 30
0.0
  0
VERTEX
  5
265
100
AcDbEntity
  8
FAN70-0310
370
              15
390
0
  6
Continuous
 62
               7
100
AcDbVertex
100
AcDb2dVertex
 10
-473.06563601712287
 20
610.18192287060833
 30
0.0
  0
VERTEX
  5
266
100
AcDbEntity
  8
FAN70-0310
370
              15
390
0
  6
Continuous
 62
               7
100
AcDbVertex
100
AcDb2dVertex
 10
-471.68170929772288
 20
605.64429670100822
 30
0.0
  0
VERTEX
  5
267
100
AcDbEntity
  8
FAN70-0310
370
              15
390
0
  6
Continuous
 62
               7
100
AcDbVertex
100
AcDb2dVertex
 10
-469.44088199062287
 20
601.48032646160823
 30
0.0
  0
VERTEX
  5
268
100
AcDbEntity
  8
FAN70-0310
370
              15
390
0
  6
Continuous
 62
               7
100
AcDbVertex
100
AcDb2dVertex
 10
-466.43968568072285
 20
597.84901406150834
 30
0.0
  0
VERTEX
  5
269
100
AcDbEntity
  8
FAN70-0310
370
              15
390
0
  6
Continuous
 62
               7
100
AcDbVertex
100
AcDb2dVertex
 10
-462.79878531472286
 20
594.88174210760826
 30
0.0
  0
VERTEX
  5
26A
100
AcDbEntity
  8
FAN70-0310
370
              15
390
0
  6
Continuous
 62
               7
100
AcDbVertex
100
AcDb2dVertex
 10
-458.66109327302286
 20
592.68511350730819
 30
0.0
  0
VERTEX
  5
26B
100
AcDbEntity
  8
FAN70-0310
370
              15
390
0
  6
Continuous
 62
               7
100
AcDbVertex
100
AcDb2dVertex
 10
-454.18255672672285
 20
591.33551720060825
 30
0.0
  0
VERTEX
  5
26C
100
AcDbEntity
  8
FAN70-0310
370
              15
390
0
  6
Continuous
 62
               7
100
AcDbVertex
100
AcDb2dVertex
 10
-449.53001909612283
 20
590.88023829730832
 30
0.0
  0
VERTEX
  5
26D
100
AcDbEntity
  8
FAN70-0310
370
              15
390
0
  6
Continuous
 62
               7
100
AcDbVertex
100
AcDb2dVertex
 10
-444.87746841162283
 20
591.33552278850823
 30
0.0
  0
VERTEX
  5
26E
100
AcDbEntity
  8
FAN70-0310
370
              15
390
0
  6
Continuous
 62
               7
100
AcDbVertex
100
AcDb2dVertex
 10
-440.39890625402285
 20
592.68513399640824
 30
0.0
  0
VERTEX
  5
26F
100
AcDbEntity
  8
FAN70-0310
370
              15
390
0
  6
Continuous
 62
               7
100
AcDbVertex
100
AcDb2dVertex
 10
-436.26057905032286
 20
594.88219845570825
 30
0.0
  0
VERTEX
  5
270
100
AcDbEntity
  8
FAN70-0310
370
              15
390
0
  6
Continuous
 62
               7
100
AcDbVertex
100
AcDb2dVertex
 10
-432.6203622750229
 20
597.84901219880828
 30
0.0
  0
VERTEX
  5
271
100
AcDbEntity
  8
FAN70-0310
370
              15
390
0
  6
Continuous
 62
               7
100
AcDbVertex
100
AcDb2dVertex
 10
-429.61871893032287
 20
601.48099608250823
 30
0.0
  0
VERTEX
  5
272
100
AcDbEntity
  8
FAN70-0310
370
              15
390
0
  6
Continuous
 62
               7
100
AcDbVertex
100
AcDb2dVertex
 10
-427.37834610862291
 20
605.64427993720824
 30
0.0
  0
VERTEX
  5
273
100
AcDbEntity
  8
FAN70-0310
370
              15
390
0
  6
Continuous
 62
               7
100
AcDbVertex
100
AcDb2dVertex
 10
-425.99441752652285
 20
610.18183439500831
 30
0.0
  0
VERTEX
  5
274
100
AcDbEntity
  8
FAN70-0310
370
              15
390
0
  6
Continuous
 62
               7
100
AcDbVertex
100
AcDb2dVertex
 10
-425.53004891492287
 20
614.91470190500831
 30
0.0
  0
VERTEX
  5
275
100
AcDbEntity
  8
FAN70-0310
370
              15
390
0
  6
Continuous
 62
               7
100
AcDbVertex
100
AcDb2dVertex
 10
-426.00795709412284
 20
619.64590413030828
 30
0.0
  0
VERTEX
  5
276
100
AcDbEntity
  8
FAN70-0310
370
              15
390
0
  6
Continuous
 62
               7
100
AcDbVertex
100
AcDb2dVertex
 10
-427.40390160002289
 20
624.17724620080821
 30
0.0
  0
VERTEX
  5
277
100
AcDbEntity
  8
FAN70-0310
370
              15
390
0
  6
Continuous
 62
               7
100
AcDbVertex
100
AcDb2dVertex
 10
-429.65329707482283
 20
628.33072509150827
 30
0.0
  0
VERTEX
  5
278
100
AcDbEntity
  8
FAN70-0310
370
              15
390
0
  6
Continuous
 62
               7
100
AcDbVertex
100
AcDb2dVertex
 10
-432.65802682262284
 20
631.94877359550833
 30
0.0
  0
VERTEX
  5
279
100
AcDbEntity
  8
FAN70-0310
370
              15
390
0
  6
Continuous
 62
               7
100
AcDbVertex
100
AcDb2dVertex
 10
-436.29658398102288
 20
634.90212600210828
 30
0.0
  0
VERTEX
  5
27A
100
AcDbEntity
  8
FAN70-0310
370
              15
390
0
  6
Continuous
 62
               7
100
AcDbVertex
100
AcDb2dVertex
 10
-440.42629645092285
 20
637.08659152960831
 30
0.0
  0
VERTEX
  5
27B
100
AcDbEntity
  8
FAN70-0310
370
              15
390
0
  6
Continuous
 62
               7
100
AcDbVertex
100
AcDb2dVertex
 10
-444.89240589432285
 20
638.42790279070823
 30
0.0
  0
VERTEX
  5
27C
100
AcDbEntity
  8
FAN70-0310
370
              15
390
0
  6
Continuous
 62
               7
100
AcDbVertex
100
AcDb2dVertex
 10
-449.53002490922285
 20
638.88023871460825
 30
0.0
  0
SEQEND
  5
27D
100
AcDbEntity
  8
FAN70-0310
370
              15
390
0
  6
Continuous
 62
               7
  0
POLYLINE
  5
27E
100
AcDbEntity
  8
FAN70-0310
370
              15
390
0
  6
Continuous
 62
               7
100
AcDb2dPolyline
 66
               1
 10
0.0
 20
0.0
 30
0.0
 75
               5
  0
VERTEX
  5
27F
100
AcDbEntity
  8
FAN70-0310
370
              15
390
0
  6
Continuous
 62
               7
100
AcDbVertex
100
AcDb2dVertex
 10
296.74630577683075
 20
-387.51740451005924
 30
0.0
  0
VERTEX
  5
280
100
AcDbEntity
  8
FAN70-0310
370
              15
390
0
  6
Continuous
 62
               7
100
AcDbVertex
100
AcDb2dVertex
 10
296.61715741273071
 20
-387.50539044875927
 30
0.0
  0
VERTEX
  5
281
100
AcDbEntity
  8
FAN70-0310
370
              15
390
0
  6
Continuous
 62
               7
100
AcDbVertex
100
AcDb2dVertex
 10
296.48696596743065
 20
-387.46759737875925
 30
0.0
  0
VERTEX
  5
282
100
AcDbEntity
  8
FAN70-0310
370
              15
390
0
  6
Continuous
 62
               7
100
AcDbVertex
100
AcDb2dVertex
 10
296.3665049803306
 20
-387.40541762705925
 30
0.0
  0
VERTEX
  5
283
100
AcDbEntity
  8
FAN70-0310
370
              15
390
0
  6
Continuous
 62
               7
100
AcDbVertex
100
AcDb2dVertex
 10
296.26028950333063
 20
-387.32118415675927
 30
0.0
  0
VERTEX
  5
284
100
AcDbEntity
  8
FAN70-0310
370
              15
390
0
  6
Continuous
 62
               7
100
AcDbVertex
100
AcDb2dVertex
 10
296.17228324533068
 20
-387.21805508275918
 30
0.0
  0
VERTEX
  5
285
100
AcDbEntity
  8
FAN70-0310
370
              15
390
0
  6
Continuous
 62
               7
100
AcDbVertex
100
AcDb2dVertex
 10
296.10582406643067
 20
-387.09989911905916
 30
0.0
  0
VERTEX
  5
286
100
AcDbEntity
  8
FAN70-0310
370
              15
390
0
  6
Continuous
 62
               7
100
AcDbVertex
100
AcDb2dVertex
 10
296.0633855593307
 20
-386.97114796405924
 30
0.0
  0
VERTEX
  5
287
100
AcDbEntity
  8
FAN70-0310
370
              15
390
0
  6
Continuous
 62
               7
100
AcDbVertex
100
AcDb2dVertex
 10
296.04656214833068
 20
-386.83663005975916
 30
0.0
  0
SEQEND
  5
288
100
AcDbEntity
  8
FAN70-0310
370
              15
390
0
  6
Continuous
 62
               7
  0
POLYLINE
  5
289
100
AcDbEntity
  8
FAN70-0310
370
              15
390
0
  6
Continuous
 62
               7
100
AcDb2dPolyline
 66
               1
 10
0.0
 20
0.0
 30
0.0
 75
               5
  0
VERTEX
  5
28A
100
AcDbEntity
  8
FAN70-0310
370
              15
390
0
  6
Continuous
 62
               7
100
AcDbVertex
100
AcDb2dVertex
 10
620.35477872013075
 20
-387.51735235595925
 30
0.0
  0
VERTEX
  5
28B
100
AcDbEntity
  8
FAN70-0310
370
              15
390
0
  6
Continuous
 62
               7
100
AcDbVertex
100
AcDb2dVertex
 10
620.48775668263079
 20
-387.50295690295923
 30
0.0
  0
VERTEX
  5
28C
100
AcDbEntity
  8
FAN70-0310
370
              15
390
0
  6
Continuous
 62
               7
100
AcDbVertex
100
AcDb2dVertex
 10
620.6155788433307
 20
-387.46353122435914
 30
0.0
  0
VERTEX
  5
28D
100
AcDbEntity
  8
FAN70-0310
370
              15
390
0
  6
Continuous
 62
               7
100
AcDbVertex
100
AcDb2dVertex
 10
620.73355133653081
 20
-387.40051607635917
 30
0.0
  0
VERTEX
  5
28E
100
AcDbEntity
  8
FAN70-0310
370
              15
390
0
  6
Continuous
 62
               7
100
AcDbVertex
100
AcDb2dVertex
 10
620.83739752893075
 20
-387.3162104285592
 30
0.0
  0
VERTEX
  5
28F
100
AcDbEntity
  8
FAN70-0310
370
              15
390
0
  6
Continuous
 62
               7
100
AcDbVertex
100
AcDb2dVertex
 10
620.92330272313075
 20
-387.21369369915919
 30
0.0
  0
VERTEX
  5
290
100
AcDbEntity
  8
FAN70-0310
370
              15
390
0
  6
Continuous
 62
               7
100
AcDbVertex
100
AcDb2dVertex
 10
620.98813767553065
 20
-387.09670840795923
 30
0.0
  0
VERTEX
  5
291
100
AcDbEntity
  8
FAN70-0310
370
              15
390
0
  6
Continuous
 62
               7
100
AcDbVertex
100
AcDb2dVertex
 10
621.02954800253065
 20
-386.9695260658591
 30
0.0
  0
VERTEX
  5
292
100
AcDbEntity
  8
FAN70-0310
370
              15
390
0
  6
Continuous
 62
               7
100
AcDbVertex
100
AcDb2dVertex
 10
621.04601378563075
 20
-386.83678931585916
 30
0.0
  0
SEQEND
  5
293
100
AcDbEntity
  8
FAN70-0310
370
              15
390
0
  6
Continuous
 62
               7
  0
LINE
  5
294
100
AcDbEntity
  8
FAN70-0310
370
              15
390
0
  6
Continuous
 62
               7
100
AcDbLine
 10
621.04628200653087
 20
-386.81740430215916
 30
0.0
 11
621.04628200653087
 21
-383.01740423805916
 31
0.0
  0
LINE
  5
295
100
AcDbEntity
  8
FAN70-0310
370
              15
390
0
  6
Continuous
 62
               7
100
AcDbLine
 10
296.04629392743067
 20
-383.01740423805916
 30
0.0
 11
296.04629392743067
 21
-386.81740430215916
 31
0.0
  0
POLYLINE
  5
296
100
AcDbEntity
  8
FAN70-0310
370
              15
390
0
  6
Continuous
 62
               7
100
AcDb2dPolyline
 66
               1
 10
0.0
 20
0.0
 30
0.0
 75
               5
  0
VERTEX
  5
297
100
AcDbEntity
  8
FAN70-0310
370
              15
390
0
  6
Continuous
 62
               7
100
AcDbVertex
100
AcDb2dVertex
 10
617.56295676353079
 20
-379.51744447185922
 30
0.0
  0
VERTEX
  5
298
100
AcDbEntity
  8
FAN70-0310
370
              15
390
0
  6
Continuous
 62
               7
100
AcDbVertex
100
AcDb2dVertex
 10
618.24140663263074
 20
-379.58715410085915
 30
0.0
  0
VERTEX
  5
299
100
AcDbEntity
  8
FAN70-0310
370
              15
390
0
  6
Continuous
 62
               7
100
AcDbVertex
100
AcDb2dVertex
 10
618.89345164423071
 20
-379.78711791245917
 30
0.0
  0
VERTEX
  5
29A
100
AcDbEntity
  8
FAN70-0310
370
              15
390
0
  6
Continuous
 62
               7
100
AcDbVertex
100
AcDb2dVertex
 10
619.49435587053063
 20
-380.10974280795915
 30
0.0
  0
VERTEX
  5
29B
100
AcDbEntity
  8
FAN70-0310
370
              15
390
0
  6
Continuous
 62
               7
100
AcDbVertex
100
AcDb2dVertex
 10
620.02126093033075
 20
-380.54277806105915
 30
0.0
  0
VERTEX
  5
29C
100
AcDbEntity
  8
FAN70-0310
370
              15
390
0
  6
Continuous
 62
               7
100
AcDbVertex
100
AcDb2dVertex
 10
620.45419926763088
 20
-381.06978032765926
 30
0.0
  0
VERTEX
  5
29D
100
AcDbEntity
  8
FAN70-0310
370
              15
390
0
  6
Continuous
 62
               7
100
AcDbVertex
100
AcDb2dVertex
 10
620.77670509933068
 20
-381.67073810505929
 30
0.0
  0
VERTEX
  5
29E
100
AcDbEntity
  8
FAN70-0310
370
              15
390
0
  6
Continuous
 62
               7
100
AcDbVertex
100
AcDb2dVertex
 10
620.97652967093086
 20
-382.32283201095925
 30
0.0
  0
VERTEX
  5
29F
100
AcDbEntity
  8
FAN70-0310
370
              15
390
0
  6
Continuous
 62
               7
100
AcDbVertex
100
AcDb2dVertex
 10
621.04610319253061
 20
-383.00130004095922
 30
0.0
  0
SEQEND
  5
2A0
100
AcDbEntity
  8
FAN70-0310
370
              15
390
0
  6
Continuous
 62
               7
  0
POLYLINE
  5
2A1
100
AcDbEntity
  8
FAN70-0310
370
              15
390
0
  6
Continuous
 62
               7
100
AcDb2dPolyline
 66
               1
 10
0.0
 20
0.0
 30
0.0
 75
               5
  0
VERTEX
  5
2A2
100
AcDbEntity
  8
FAN70-0310
370
              15
390
0
  6
Continuous
 62
               7
100
AcDbVertex
100
AcDb2dVertex
 10
299.5387088787308
 20
-379.51741233675921
 30
0.0
  0
VERTEX
  5
2A3
100
AcDbEntity
  8
FAN70-0310
370
              15
390
0
  6
Continuous
 62
               7
100
AcDbVertex
100
AcDb2dVertex
 10
298.85921592833068
 20
-379.58550658395927
 30
0.0
  0
VERTEX
  5
2A4
100
AcDbEntity
  8
FAN70-0310
370
              15
390
0
  6
Continuous
 62
               7
100
AcDbVertex
100
AcDb2dVertex
 10
298.20587451573073
 20
-379.7842533679592
 30
0.0
  0
VERTEX
  5
2A5
100
AcDbEntity
  8
FAN70-0310
370
              15
390
0
  6
Continuous
 62
               7
100
AcDbVertex
100
AcDb2dVertex
 10
297.6035546791307
 20
-380.10608637735925
 30
0.0
  0
VERTEX
  5
2A6
100
AcDbEntity
  8
FAN70-0310
370
              15
390
0
  6
Continuous
 62
               7
100
AcDbVertex
100
AcDb2dVertex
 10
297.07520420673058
 20
-380.53875346695918
 30
0.0
  0
VERTEX
  5
2A7
100
AcDbEntity
  8
FAN70-0310
370
              15
390
0
  6
Continuous
 62
               7
100
AcDbVertex
100
AcDb2dVertex
 10
296.6409247648308
 20
-381.06578285835917
 30
0.0
  0
VERTEX
  5
2A8
100
AcDbEntity
  8
FAN70-0310
370
              15
390
0
  6
Continuous
 62
               7
100
AcDbVertex
100
AcDb2dVertex
 10
296.31725664263075
 20
-381.66711060365913
 30
0.0
  0
VERTEX
  5
2A9
100
AcDbEntity
  8
FAN70-0310
370
              15
390
0
  6
Continuous
 62
               7
100
AcDbVertex
100
AcDb2dVertex
 10
296.1165081989306
 20
-382.31984409535926
 30
0.0
  0
VERTEX
  5
2AA
100
AcDbEntity
  8
FAN70-0310
370
              15
390
0
  6
Continuous
 62
               7
100
AcDbVertex
100
AcDb2dVertex
 10
296.04633863093073
 20
-382.99913378465919
 30
0.0
  0
SEQEND
  5
2AB
100
AcDbEntity
  8
FAN70-0310
370
              15
390
0
  6
Continuous
 62
               7
  0
LINE
  5
2AC
100
AcDbEntity
  8
FAN70-0310
370
              15
390
0
  6
Continuous
 62
               7
100
AcDbLine
 10
296.84631584203072
 20
-387.51740412975914
 30
0.0
 11
296.83781859243066
 21
-387.51735277975911
 31
0.0
  0
POLYLINE
  5
2AD
100
AcDbEntity
  8
FAN70-0310
370
              15
390
0
  6
Continuous
 62
               7
100
AcDb2dPolyline
 66
               1
 10
0.0
 20
0.0
 30
0.0
 75
               5
  0
VERTEX
  5
2AE
100
AcDbEntity
  8
FAN70-0310
370
              15
390
0
  6
Continuous
 62
               7
100
AcDbVertex
100
AcDb2dVertex
 10
418.79628936763078
 20
-480.08445440825858
 30
0.0
  0
VERTEX
  5
2AF
100
AcDbEntity
  8
FAN70-0310
370
              15
390
0
  6
Continuous
 62
               7
100
AcDbVertex
100
AcDb2dVertex
 10
421.53821478603066
 20
-481.10966919955854
 30
0.0
  0
VERTEX
  5
2B0
100
AcDbEntity
  8
FAN70-0310
370
              15
390
0
  6
Continuous
 62
               7
100
AcDbVertex
100
AcDb2dVertex
 10
424.02880604383068
 20
-482.64790861895847
 30
0.0
  0
SEQEND
  5
2B1
100
AcDbEntity
  8
FAN70-0310
370
              15
390
0
  6
Continuous
 62
               7
  0
POLYLINE
  5
2B2
100
AcDbEntity
  8
FAN70-0310
370
              15
390
0
  6
Continuous
 62
               7
100
AcDb2dPolyline
 66
               1
 10
0.0
 20
0.0
 30
0.0
 75
               5
  0
VERTEX
  5
2B3
100
AcDbEntity
  8
FAN70-0310
370
              15
390
0
  6
Continuous
 62
               7
100
AcDbVertex
100
AcDb2dVertex
 10
492.6016252768307
 20
-482.99996345335842
 30
0.0
  0
VERTEX
  5
2B4
100
AcDbEntity
  8
FAN70-0310
370
              15
390
0
  6
Continuous
 62
               7
100
AcDbVertex
100
AcDb2dVertex
 10
495.30690128923067
 20
-481.35866015245847
 30
0.0
  0
VERTEX
  5
2B5
100
AcDbEntity
  8
FAN70-0310
370
              15
390
0
  6
Continuous
 62
               7
100
AcDbVertex
100
AcDb2dVertex
 10
498.29628656623072
 20
-480.32136051945849
 30
0.0
  0
SEQEND
  5
2B6
100
AcDbEntity
  8
FAN70-0310
370
              15
390
0
  6
Continuous
 62
               7
  0
POLYLINE
  5
2B7
100
AcDbEntity
  8
FAN70-0310
370
              15
390
0
  6
Continuous
 62
               7
100
AcDb2dPolyline
 66
               1
 10
0.0
 20
0.0
 30
0.0
 75
               5
  0
VERTEX
  5
2B8
100
AcDbEntity
  8
FAN70-0310
370
              15
390
0
  6
Continuous
 62
               7
100
AcDbVertex
100
AcDb2dVertex
 10
424.02880604383068
 20
-482.64790861895847
 30
0.0
  0
VERTEX
  5
2B9
100
AcDbEntity
  8
FAN70-0310
370
              15
390
0
  6
Continuous
 62
               7
100
AcDbVertex
100
AcDb2dVertex
 10
427.46958288373077
 20
-485.26907502705842
 30
0.0
  0
VERTEX
  5
2BA
100
AcDbEntity
  8
FAN70-0310
370
              15
390
0
  6
Continuous
 62
               7
100
AcDbVertex
100
AcDb2dVertex
 10
430.91035786093079
 20
-487.89024143505844
 30
0.0
  0
SEQEND
  5
2BB
100
AcDbEntity
  8
FAN70-0310
370
              15
390
0
  6
Continuous
 62
               7
  0
POLYLINE
  5
2BC
100
AcDbEntity
  8
FAN70-0310
370
              15
390
0
  6
Continuous
 62
               7
100
AcDb2dPolyline
 66
               1
 10
0.0
 20
0.0
 30
0.0
 75
               5
  0
VERTEX
  5
2BD
100
AcDbEntity
  8
FAN70-0310
370
              15
390
0
  6
Continuous
 62
               7
100
AcDbVertex
100
AcDb2dVertex
 10
486.1822180730307
 20
-487.89024143505844
 30
0.0
  0
VERTEX
  5
2BE
100
AcDbEntity
  8
FAN70-0310
370
              15
390
0
  6
Continuous
 62
               7
100
AcDbVertex
100
AcDb2dVertex
 10
489.39192260623071
 20
-485.4451024442584
 30
0.0
  0
VERTEX
  5
2BF
100
AcDbEntity
  8
FAN70-0310
370
              15
390
0
  6
Continuous
 62
               7
100
AcDbVertex
100
AcDb2dVertex
 10
492.6016252768307
 20
-482.99996345335842
 30
0.0
  0
SEQEND
  5
2C0
100
AcDbEntity
  8
FAN70-0310
370
              15
390
0
  6
Continuous
 62
               7
  0
POLYLINE
  5
2C1
100
AcDbEntity
  8
FAN70-0310
370
              15
390
0
  6
Continuous
 62
               7
100
AcDb2dPolyline
 66
               1
 10
0.0
 20
0.0
 30
0.0
 75
               5
  0
VERTEX
  5
2C2
100
AcDbEntity
  8
FAN70-0310
370
              15
390
0
  6
Continuous
 62
               7
100
AcDbVertex
100
AcDb2dVertex
 10
481.13580386163068
 20
-489.03357028055848
 30
0.0
  0
VERTEX
  5
2C3
100
AcDbEntity
  8
FAN70-0310
370
              15
390
0
  6
Continuous
 62
               7
100
AcDbVertex
100
AcDb2dVertex
 10
481.14573921083064
 20
-489.02208148535829
 30
0.0
  0
VERTEX
  5
2C4
100
AcDbEntity
  8
FAN70-0310
370
              15
390
0
  6
Continuous
 62
               7
100
AcDbVertex
100
AcDb2dVertex
 10
481.16137797953076
 20
-489.01556967785837
 30
0.0
  0
VERTEX
  5
2C5
100
AcDbEntity
  8
FAN70-0310
370
              15
390
0
  6
Continuous
 62
               7
100
AcDbVertex
100
AcDb2dVertex
 10
481.18380236443062
 20
-489.00877474835829
 30
0.0
  0
VERTEX
  5
2C6
100
AcDbEntity
  8
FAN70-0310
370
              15
390
0
  6
Continuous
 62
               7
100
AcDbVertex
100
AcDb2dVertex
 10
481.21288198053065
 20
-489.00168924625837
 30
0.0
  0
VERTEX
  5
2C7
100
AcDbEntity
  8
FAN70-0310
370
              15
390
0
  6
Continuous
 62
               7
100
AcDbVertex
100
AcDb2dVertex
 10
481.24846409083062
 20
-488.99430572085839
 30
0.0
  0
VERTEX
  5
2C8
100
AcDbEntity
  8
FAN70-0310
370
              15
390
0
  6
Continuous
 62
               7
100
AcDbVertex
100
AcDb2dVertex
 10
481.29037360673061
 20
-488.98663162285834
 30
0.0
  0
VERTEX
  5
2C9
100
AcDbEntity
  8
FAN70-0310
370
              15
390
0
  6
Continuous
 62
               7
100
AcDbVertex
100
AcDb2dVertex
 10
481.33841308773066
 20
-488.97865950155824
 30
0.0
  0
VERTEX
  5
2CA
100
AcDbEntity
  8
FAN70-0310
370
              15
390
0
  6
Continuous
 62
               7
100
AcDbVertex
100
AcDb2dVertex
 10
481.45199718893065
 20
-488.96180628825823
 30
0.0
  0
VERTEX
  5
2CB
100
AcDbEntity
  8
FAN70-0310
370
              15
390
0
  6
Continuous
 62
               7
100
AcDbVertex
100
AcDb2dVertex
 10
481.74213397323075
 20
-488.92438202195831
 30
0.0
  0
VERTEX
  5
2CC
100
AcDbEntity
  8
FAN70-0310
370
              15
390
0
  6
Continuous
 62
               7
100
AcDbVertex
100
AcDb2dVertex
 10
482.10104334173064
 20
-488.88191371255834
 30
0.0
  0
VERTEX
  5
2CD
100
AcDbEntity
  8
FAN70-0310
370
              15
390
0
  6
Continuous
 62
               7
100
AcDbVertex
100
AcDb2dVertex
 10
483.3898373228306
 20
-488.72436373525829
 30
0.0
  0
VERTEX
  5
2CE
100
AcDbEntity
  8
FAN70-0310
370
              15
390
0
  6
Continuous
 62
               7
100
AcDbVertex
100
AcDb2dVertex
 10
484.6110787523308
 20
-488.52536617805845
 30
0.0
  0
VERTEX
  5
2CF
100
AcDbEntity
  8
FAN70-0310
370
              15
390
0
  6
Continuous
 62
               7
100
AcDbVertex
100
AcDb2dVertex
 10
485.22622476343071
 20
-488.37464838315827
 30
0.0
  0
VERTEX
  5
2D0
100
AcDbEntity
  8
FAN70-0310
370
              15
390
0
  6
Continuous
 62
               7
100
AcDbVertex
100
AcDb2dVertex
 10
485.66003668133072
 20
-488.21475147295837
 30
0.0
  0
VERTEX
  5
2D1
100
AcDbEntity
  8
FAN70-0310
370
              15
390
0
  6
Continuous
 62
               7
100
AcDbVertex
100
AcDb2dVertex
 10
485.95672811393064
 20
-488.05122613005824
 30
0.0
  0
VERTEX
  5
2D2
100
AcDbEntity
  8
FAN70-0310
370
              15
390
0
  6
Continuous
 62
               7
100
AcDbVertex
100
AcDb2dVertex
 10
486.07478442613063
 20
-487.97001480155836
 30
0.0
  0
VERTEX
  5
2D3
100
AcDbEntity
  8
FAN70-0310
370
              15
390
0
  6
Continuous
 62
               7
100
AcDbVertex
100
AcDb2dVertex
 10
486.12954805613066
 20
-487.9299008756584
 30
0.0
  0
VERTEX
  5
2D4
100
AcDbEntity
  8
FAN70-0310
370
              15
390
0
  6
Continuous
 62
               7
100
AcDbVertex
100
AcDb2dVertex
 10
486.1561261397307
 20
-487.91000782545825
 30
0.0
  0
VERTEX
  5
2D5
100
AcDbEntity
  8
FAN70-0310
370
              15
390
0
  6
Continuous
 62
               7
100
AcDbVertex
100
AcDb2dVertex
 10
486.1692317110307
 20
-487.90011345435823
 30
0.0
  0
VERTEX
  5
2D6
100
AcDbEntity
  8
FAN70-0310
370
              15
390
0
  6
Continuous
 62
               7
100
AcDbVertex
100
AcDb2dVertex
 10
486.1822180730307
 20
-487.89024143505844
 30
0.0
  0
SEQEND
  5
2D7
100
AcDbEntity
  8
FAN70-0310
370
              15
390
0
  6
Continuous
 62
               7
  0
POLYLINE
  5
2D8
100
AcDbEntity
  8
FAN70-0310
370
              15
390
0
  6
Continuous
 62
               7
100
AcDb2dPolyline
 66
               1
 10
0.0
 20
0.0
 30
0.0
 75
               5
  0
VERTEX
  5
2D9
100
AcDbEntity
  8
FAN70-0310
370
              15
390
0
  6
Continuous
 62
               7
100
AcDbVertex
100
AcDb2dVertex
 10
430.91035786093079
 20
-487.89024143505844
 30
0.0
  0
VERTEX
  5
2DA
100
AcDbEntity
  8
FAN70-0310
370
              15
390
0
  6
Continuous
 62
               7
100
AcDbVertex
100
AcDb2dVertex
 10
431.01714144473061
 20
-487.96972422895828
 30
0.0
  0
VERTEX
  5
2DB
100
AcDbEntity
  8
FAN70-0310
370
              15
390
0
  6
Continuous
 62
               7
100
AcDbVertex
100
AcDb2dVertex
 10
431.37697841053063
 20
-488.2109293251583
 30
0.0
  0
VERTEX
  5
2DC
100
AcDbEntity
  8
FAN70-0310
370
              15
390
0
  6
Continuous
 62
               7
100
AcDbVertex
100
AcDb2dVertex
 10
431.64622004153074
 20
-488.36730956125825
 30
0.0
  0
VERTEX
  5
2DD
100
AcDbEntity
  8
FAN70-0310
370
              15
390
0
  6
Continuous
 62
               7
100
AcDbVertex
100
AcDb2dVertex
 10
431.78721296613065
 20
-488.44231455615841
 30
0.0
  0
VERTEX
  5
2DE
100
AcDbEntity
  8
FAN70-0310
370
              15
390
0
  6
Continuous
 62
               7
100
AcDbVertex
100
AcDb2dVertex
 10
431.93096260543069
 20
-488.51447342925826
 30
0.0
  0
VERTEX
  5
2DF
100
AcDbEntity
  8
FAN70-0310
370
              15
390
0
  6
Continuous
 62
               7
100
AcDbVertex
100
AcDb2dVertex
 10
432.07650410953073
 20
-488.58330934335845
 30
0.0
  0
VERTEX
  5
2E0
100
AcDbEntity
  8
FAN70-0310
370
              15
390
0
  6
Continuous
 62
               7
100
AcDbVertex
100
AcDb2dVertex
 10
432.22336995423058
 20
-488.64841996725841
 30
0.0
  0
VERTEX
  5
2E1
100
AcDbEntity
  8
FAN70-0310
370
              15
390
0
  6
Continuous
 62
               7
100
AcDbVertex
100
AcDb2dVertex
 10
432.37199599863067
 20
-488.70944767285823
 30
0.0
  0
VERTEX
  5
2E2
100
AcDbEntity
  8
FAN70-0310
370
              15
390
0
  6
Continuous
 62
               7
100
AcDbVertex
100
AcDb2dVertex
 10
432.52419832173058
 20
-488.76611678895824
 30
0.0
  0
VERTEX
  5
2E3
100
AcDbEntity
  8
FAN70-0310
370
              15
390
0
  6
Continuous
 62
               7
100
AcDbVertex
100
AcDb2dVertex
 10
432.85686860803065
 20
-488.86567144685841
 30
0.0
  0
VERTEX
  5
2E4
100
AcDbEntity
  8
FAN70-0310
370
              15
390
0
  6
Continuous
 62
               7
100
AcDbVertex
100
AcDb2dVertex
 10
433.28592705553064
 20
-488.94635378415842
 30
0.0
  0
VERTEX
  5
2E5
100
AcDbEntity
  8
FAN70-0310
370
              15
390
0
  6
Continuous
 62
               7
100
AcDbVertex
100
AcDb2dVertex
 10
433.93896671953081
 20
-489.0085735826583
 30
0.0
  0
VERTEX
  5
2E6
100
AcDbEntity
  8
FAN70-0310
370
              15
390
0
  6
Continuous
 62
               7
100
AcDbVertex
100
AcDb2dVertex
 10
435.02959015783068
 20
-489.05378370575841
 30
0.0
  0
VERTEX
  5
2E7
100
AcDbEntity
  8
FAN70-0310
370
              15
390
0
  6
Continuous
 62
               7
100
AcDbVertex
100
AcDb2dVertex
 10
436.15212257023069
 20
-489.0755543022583
 30
0.0
  0
VERTEX
  5
2E8
100
AcDbEntity
  8
FAN70-0310
370
              15
390
0
  6
Continuous
 62
               7
100
AcDbVertex
100
AcDb2dVertex
 10
437.72890011783062
 20
-489.09158050115843
 30
0.0
  0
VERTEX
  5
2E9
100
AcDbEntity
  8
FAN70-0310
370
              15
390
0
  6
Continuous
 62
               7
100
AcDbVertex
100
AcDb2dVertex
 10
439.8971066159308
 20
-489.10275637205837
 30
0.0
  0
VERTEX
  5
2EA
100
AcDbEntity
  8
FAN70-0310
370
              15
390
0
  6
Continuous
 62
               7
100
AcDbVertex
100
AcDb2dVertex
 10
441.0231314879307
 20
-489.10584091235842
 30
0.0
  0
SEQEND
  5
2EB
100
AcDbEntity
  8
FAN70-0310
370
              15
390
0
  6
Continuous
 62
               7
  0
LINE
  5
2EC
100
AcDbEntity
  8
FAN70-0310
370
              15
390
0
  6
Continuous
 62
               7
100
AcDbLine
 10
296.74630577683075
 20
-387.51740451005924
 30
0.0
 11
620.26210839863074
 21
-387.51740451005924
 31
0.0
  0
LINE
  5
2ED
100
AcDbEntity
  8
FAN70-0310
370
              15
390
0
  6
Continuous
 62
               7
100
AcDbLine
 10
620.9401559365308
 20
-383.01740423805916
 30
0.0
 11
620.93888933783069
 21
-383.01740423805916
 31
0.0
  0
LINE
  5
2EE
100
AcDbEntity
  8
FAN70-0310
370
              15
390
0
  6
Continuous
 62
               7
100
AcDbLine
 10
617.4415719044307
 20
-379.51740413005928
 30
0.0
 11
299.60795457483079
 21
-379.51740413005928
 31
0.0
  0
POLYLINE
  5
2EF
100
AcDbEntity
  8
FAN70-0310
370
              15
390
0
  6
Continuous
 62
               7
100
AcDb2dPolyline
 66
               1
 10
0.0
 20
0.0
 30
0.0
 75
               5
  0
VERTEX
  5
2F0
100
AcDbEntity
  8
FAN70-0310
370
              15
390
0
  6
Continuous
 62
               7
100
AcDbVertex
100
AcDb2dVertex
 10
418.79628936763078
 20
-480.08445440825858
 30
0.0
  0
VERTEX
  5
2F1
100
AcDbEntity
  8
FAN70-0310
370
              15
390
0
  6
Continuous
 62
               7
100
AcDbVertex
100
AcDb2dVertex
 10
419.12943462853076
 20
-480.09964614205865
 30
0.0
  0
VERTEX
  5
2F2
100
AcDbEntity
  8
FAN70-0310
370
              15
390
0
  6
Continuous
 62
               7
100
AcDbVertex
100
AcDb2dVertex
 10
420.12511531833064
 20
-480.15118925865863
 30
0.0
  0
VERTEX
  5
2F3
100
AcDbEntity
  8
FAN70-0310
370
              15
390
0
  6
Continuous
 62
               7
100
AcDbVertex
100
AcDb2dVertex
 10
421.76704819323066
 20
-480.24502187065855
 30
0.0
  0
VERTEX
  5
2F4
100
AcDbEntity
  8
FAN70-0310
370
              15
390
0
  6
Continuous
 62
               7
100
AcDbVertex
100
AcDb2dVertex
 10
424.03055320503069
 20
-480.38247018155857
 30
0.0
  0
VERTEX
  5
2F5
100
AcDbEntity
  8
FAN70-0310
370
              15
390
0
  6
Continuous
 62
               7
100
AcDbVertex
100
AcDb2dVertex
 10
426.88209529043075
 20
-480.56029318865853
 30
0.0
  0
VERTEX
  5
2F6
100
AcDbEntity
  8
FAN70-0310
370
              15
390
0
  6
Continuous
 62
               7
100
AcDbVertex
100
AcDb2dVertex
 10
430.27646060113062
 20
-480.77106266315855
 30
0.0
  0
VERTEX
  5
2F7
100
AcDbEntity
  8
FAN70-0310
370
              15
390
0
  6
Continuous
 62
               7
100
AcDbVertex
100
AcDb2dVertex
 10
434.16214141073073
 20
-481.00350587655862
 30
0.0
  0
VERTEX
  5
2F8
100
AcDbEntity
  8
FAN70-0310
370
              15
390
0
  6
Continuous
 62
               7
100
AcDbVertex
100
AcDb2dVertex
 10
438.47621756613063
 20
-481.24270676665856
 30
0.0
  0
VERTEX
  5
2F9
100
AcDbEntity
  8
FAN70-0310
370
              15
390
0
  6
Continuous
 62
               7
100
AcDbVertex
100
AcDb2dVertex
 10
443.14808270903069
 20
-481.47097020435854
 30
0.0
  0
VERTEX
  5
2FA
100
AcDbEntity
  8
FAN70-0310
370
              15
390
0
  6
Continuous
 62
               7
100
AcDbVertex
100
AcDb2dVertex
 10
448.0994209927307
 20
-481.66748671825849
 30
0.0
  0
VERTEX
  5
2FB
100
AcDbEntity
  8
FAN70-0310
370
              15
390
0
  6
Continuous
 62
               7
100
AcDbVertex
100
AcDb2dVertex
 10
453.2441111561306
 20
-481.80820583395848
 30
0.0
  0
VERTEX
  5
2FC
100
AcDbEntity
  8
FAN70-0310
370
              15
390
0
  6
Continuous
 62
               7
100
AcDbVertex
100
AcDb2dVertex
 10
458.48875198613069
 20
-481.86345188905841
 30
0.0
  0
VERTEX
  5
2FD
100
AcDbEntity
  8
FAN70-0310
370
              15
390
0
  6
Continuous
 62
               7
100
AcDbVertex
100
AcDb2dVertex
 10
458.54628796693072
 20
-481.86346679025849
 30
0.0
  0
SEQEND
  5
2FE
100
AcDbEntity
  8
FAN70-0310
370
              15
390
0
  6
Continuous
 62
               7
  0
POLYLINE
  5
2FF
100
AcDbEntity
  8
FAN70-0310
370
              15
390
0
  6
Continuous
 62
               7
100
AcDb2dPolyline
 66
               1
 10
0.0
 20
0.0
 30
0.0
 75
               5
  0
VERTEX
  5
300
100
AcDbEntity
  8
FAN70-0310
370
              15
390
0
  6
Continuous
 62
               7
100
AcDbVertex
100
AcDb2dVertex
 10
418.79628936763078
 20
-480.08445440825858
 30
0.0
  0
VERTEX
  5
301
100
AcDbEntity
  8
FAN70-0310
370
              15
390
0
  6
Continuous
 62
               7
100
AcDbVertex
100
AcDb2dVertex
 10
406.91024403093076
 20
-476.12193017295874
 30
0.0
  0
VERTEX
  5
302
100
AcDbEntity
  8
FAN70-0310
370
              15
390
0
  6
Continuous
 62
               7
100
AcDbVertex
100
AcDb2dVertex
 10
395.48303152443071
 20
-471.16961865715871
 30
0.0
  0
VERTEX
  5
303
100
AcDbEntity
  8
FAN70-0310
370
              15
390
0
  6
Continuous
 62
               7
100
AcDbVertex
100
AcDb2dVertex
 10
384.57126881003063
 20
-465.27230530075883
 30
0.0
  0
VERTEX
  5
304
100
AcDbEntity
  8
FAN70-0310
370
              15
390
0
  6
Continuous
 62
               7
100
AcDbVertex
100
AcDb2dVertex
 10
374.2315765750306
 20
-458.4747680931589
 30
0.0
  0
VERTEX
  5
305
100
AcDbEntity
  8
FAN70-0310
370
              15
390
0
  6
Continuous
 62
               7
100
AcDbVertex
100
AcDb2dVertex
 10
364.07479609373075
 20
-450.43680607375927
 30
0.0
  0
VERTEX
  5
306
100
AcDbEntity
  8
FAN70-0310
370
              15
390
0
  6
Continuous
 62
               7
100
AcDbVertex
100
AcDb2dVertex
 10
354.67310960413073
 20
-441.51150225695926
 30
0.0
  0
VERTEX
  5
307
100
AcDbEntity
  8
FAN70-0310
370
              15
390
0
  6
Continuous
 62
               7
100
AcDbVertex
100
AcDb2dVertex
 10
346.09161282893064
 20
-431.75035878115921
 30
0.0
  0
SEQEND
  5
308
100
AcDbEntity
  8
FAN70-0310
370
              15
390
0
  6
Continuous
 62
               7
  0
POLYLINE
  5
309
100
AcDbEntity
  8
FAN70-0310
370
              15
390
0
  6
Continuous
 62
               7
100
AcDb2dPolyline
 66
               1
 10
0.0
 20
0.0
 30
0.0
 75
               5
  0
VERTEX
  5
30A
100
AcDbEntity
  8
FAN70-0310
370
              15
390
0
  6
Continuous
 62
               7
100
AcDbVertex
100
AcDb2dVertex
 10
346.09161282893064
 20
-431.75035878115921
 30
0.0
  0
VERTEX
  5
30B
100
AcDbEntity
  8
FAN70-0310
370
              15
390
0
  6
Continuous
 62
               7
100
AcDbVertex
100
AcDb2dVertex
 10
345.95791216013077
 20
-431.54347850975921
 30
0.0
  0
VERTEX
  5
30C
100
AcDbEntity
  8
FAN70-0310
370
              15
390
0
  6
Continuous
 62
               7
100
AcDbVertex
100
AcDb2dVertex
 10
345.55187786933078
 20
-430.91517104795923
 30
0.0
  0
VERTEX
  5
30D
100
AcDbEntity
  8
FAN70-0310
370
              15
390
0
  6
Continuous
 62
               7
100
AcDbVertex
100
AcDb2dVertex
 10
344.88836641433073
 20
-429.88537414965913
 30
0.0
  0
VERTEX
  5
30E
100
AcDbEntity
  8
FAN70-0310
370
              15
390
0
  6
Continuous
 62
               7
100
AcDbVertex
100
AcDb2dVertex
 10
343.89146382933069
 20
-428.33138047745922
 30
0.0
  0
VERTEX
  5
30F
100
AcDbEntity
  8
FAN70-0310
370
              15
390
0
  6
Continuous
 62
               7
100
AcDbVertex
100
AcDb2dVertex
 10
342.64379705313064
 20
-426.3720342426592
 30
0.0
  0
VERTEX
  5
310
100
AcDbEntity
  8
FAN70-0310
370
              15
390
0
  6
Continuous
 62
               7
100
AcDbVertex
100
AcDb2dVertex
 10
341.1858972442306
 20
-424.05953793815911
 30
0.0
  0
VERTEX
  5
311
100
AcDbEntity
  8
FAN70-0310
370
              15
390
0
  6
Continuous
 62
               7
100
AcDbVertex
100
AcDb2dVertex
 10
339.56514264463073
 20
-421.45652486975916
 30
0.0
  0
VERTEX
  5
312
100
AcDbEntity
  8
FAN70-0310
370
              15
390
0
  6
Continuous
 62
               7
100
AcDbVertex
100
AcDb2dVertex
 10
337.83460373993074
 20
-418.63420396145921
 30
0.0
  0
VERTEX
  5
313
100
AcDbEntity
  8
FAN70-0310
370
              15
390
0
  6
Continuous
 62
               7
100
AcDbVertex
100
AcDb2dVertex
 10
336.04722435593072
 20
-415.66842957425922
 30
0.0
  0
VERTEX
  5
314
100
AcDbEntity
  8
FAN70-0310
370
              15
390
0
  6
Continuous
 62
               7
100
AcDbVertex
100
AcDb2dVertex
 10
334.25679023383071
 20
-412.63849078705925
 30
0.0
  0
VERTEX
  5
315
100
AcDbEntity
  8
FAN70-0310
370
              15
390
0
  6
Continuous
 62
               7
100
AcDbVertex
100
AcDb2dVertex
 10
332.51600678083065
 20
-409.63062248225913
 30
0.0
  0
VERTEX
  5
316
100
AcDbEntity
  8
FAN70-0310
370
              15
390
0
  6
Continuous
 62
               7
100
AcDbVertex
100
AcDb2dVertex
 10
330.87443525913073
 20
-406.73013567025919
 30
0.0
  0
VERTEX
  5
317
100
AcDbEntity
  8
FAN70-0310
370
              15
390
0
  6
Continuous
 62
               7
100
AcDbVertex
100
AcDb2dVertex
 10
329.37439496633073
 20
-404.02105986175923
 30
0.0
  0
VERTEX
  5
318
100
AcDbEntity
  8
FAN70-0310
370
              15
390
0
  6
Continuous
 62
               7
100
AcDbVertex
100
AcDb2dVertex
 10
328.05771346213072
 20
-401.5902725517592
 30
0.0
  0
VERTEX
  5
319
100
AcDbEntity
  8
FAN70-0310
370
              15
390
0
  6
Continuous
 62
               7
100
AcDbVertex
100
AcDb2dVertex
 10
326.94854552863063
 20
-399.50182079365914
 30
0.0
  0
VERTEX
  5
31A
100
AcDbEntity
  8
FAN70-0310
370
              15
390
0
  6
Continuous
 62
               7
100
AcDbVertex
100
AcDb2dVertex
 10
326.07208902953079
 20
-397.82241894895924
 30
0.0
  0
VERTEX
  5
31B
100
AcDbEntity
  8
FAN70-0310
370
              15
390
0
  6
Continuous
 62
               7
100
AcDbVertex
100
AcDb2dVertex
 10
325.44299180623074
 20
-396.59985690405915
 30
0.0
  0
VERTEX
  5
31C
100
AcDbEntity
  8
FAN70-0310
370
              15
390
0
  6
Continuous
 62
               7
100
AcDbVertex
100
AcDb2dVertex
 10
325.09160752413067
 20
-395.91098739795916
 30
0.0
  0
VERTEX
  5
31D
100
AcDbEntity
  8
FAN70-0310
370
              15
390
0
  6
Continuous
 62
               7
100
AcDbVertex
100
AcDb2dVertex
 10
324.97315819383067
 20
-395.67749178995916
 30
0.0
  0
SEQEND
  5
31E
100
AcDbEntity
  8
FAN70-0310
370
              15
390
0
  6
Continuous
 62
               7
  0
POLYLINE
  5
31F
100
AcDbEntity
  8
FAN70-0310
370
              15
390
0
  6
Continuous
 62
               7
100
AcDb2dPolyline
 66
               1
 10
0.0
 20
0.0
 30
0.0
 75
               5
  0
VERTEX
  5
320
100
AcDbEntity
  8
FAN70-0310
370
              15
390
0
  6
Continuous
 62
               7
100
AcDbVertex
100
AcDb2dVertex
 10
324.97315819383067
 20
-395.67749178995916
 30
0.0
  0
VERTEX
  5
321
100
AcDbEntity
  8
FAN70-0310
370
              15
390
0
  6
Continuous
 62
               7
100
AcDbVertex
100
AcDb2dVertex
 10
322.24839146253061
 20
-388.3508748843592
 30
0.0
  0
VERTEX
  5
322
100
AcDbEntity
  8
FAN70-0310
370
              15
390
0
  6
Continuous
 62
               7
100
AcDbVertex
100
AcDb2dVertex
 10
321.98379154323067
 20
-387.51740451005924
 30
0.0
  0
SEQEND
  5
323
100
AcDbEntity
  8
FAN70-0310
370
              15
390
0
  6
Continuous
 62
               7
  0
POLYLINE
  5
324
100
AcDbEntity
  8
FAN70-0310
370
              15
390
0
  6
Continuous
 62
               7
100
AcDb2dPolyline
 66
               1
 10
0.0
 20
0.0
 30
0.0
 75
               5
  0
VERTEX
  5
325
100
AcDbEntity
  8
FAN70-0310
370
              15
390
0
  6
Continuous
 62
               7
100
AcDbVertex
100
AcDb2dVertex
 10
458.54628796693072
 20
-481.86346679025849
 30
0.0
  0
VERTEX
  5
326
100
AcDbEntity
  8
FAN70-0310
370
              15
390
0
  6
Continuous
 62
               7
100
AcDbVertex
100
AcDb2dVertex
 10
463.77269283873073
 20
-481.81581287675863
 30
0.0
  0
VERTEX
  5
327
100
AcDbEntity
  8
FAN70-0310
370
              15
390
0
  6
Continuous
 62
               7
100
AcDbVertex
100
AcDb2dVertex
 10
468.90284738513077
 20
-481.6925877242586
 30
0.0
  0
VERTEX
  5
328
100
AcDbEntity
  8
FAN70-0310
370
              15
390
0
  6
Continuous
 62
               7
100
AcDbVertex
100
AcDb2dVertex
 10
473.84333669213066
 20
-481.52007698115858
 30
0.0
  0
VERTEX
  5
329
100
AcDbEntity
  8
FAN70-0310
370
              15
390
0
  6
Continuous
 62
               7
100
AcDbVertex
100
AcDb2dVertex
 10
478.52695885123075
 20
-481.31882934865848
 30
0.0
  0
VERTEX
  5
32A
100
AcDbEntity
  8
FAN70-0310
370
              15
390
0
  6
Continuous
 62
               7
100
AcDbVertex
100
AcDb2dVertex
 10
482.85416665493068
 20
-481.10815673165871
 30
0.0
  0
VERTEX
  5
32B
100
AcDbEntity
  8
FAN70-0310
370
              15
390
0
  6
Continuous
 62
               7
100
AcDbVertex
100
AcDb2dVertex
 10
486.75433511853072
 20
-480.90433864885858
 30
0.0
  0
VERTEX
  5
32C
100
AcDbEntity
  8
FAN70-0310
370
              15
390
0
  6
Continuous
 62
               7
100
AcDbVertex
100
AcDb2dVertex
 10
490.1650730800306
 20
-480.72070418885846
 30
0.0
  0
VERTEX
  5
32D
100
AcDbEntity
  8
FAN70-0310
370
              15
390
0
  6
Continuous
 62
               7
100
AcDbVertex
100
AcDb2dVertex
 10
493.03049932243067
 20
-480.56747554835852
 30
0.0
  0
VERTEX
  5
32E
100
AcDbEntity
  8
FAN70-0310
370
              15
390
0
  6
Continuous
 62
               7
100
AcDbVertex
100
AcDb2dVertex
 10
495.30696461913072
 20
-480.45105277595871
 30
0.0
  0
VERTEX
  5
32F
100
AcDbEntity
  8
FAN70-0310
370
              15
390
0
  6
Continuous
 62
               7
100
AcDbVertex
100
AcDb2dVertex
 10
496.95891107443066
 20
-480.37358908945862
 30
0.0
  0
VERTEX
  5
330
100
AcDbEntity
  8
FAN70-0310
370
              15
390
0
  6
Continuous
 62
               7
100
AcDbVertex
100
AcDb2dVertex
 10
497.96095828533066
 20
-480.33272265485857
 30
0.0
  0
VERTEX
  5
331
100
AcDbEntity
  8
FAN70-0310
370
              15
390
0
  6
Continuous
 62
               7
100
AcDbVertex
100
AcDb2dVertex
 10
498.29628656623072
 20
-480.32136051945849
 30
0.0
  0
SEQEND
  5
332
100
AcDbEntity
  8
FAN70-0310
370
              15
390
0
  6
Continuous
 62
               7
  0
POLYLINE
  5
333
100
AcDbEntity
  8
FAN70-0310
370
              15
390
0
  6
Continuous
 62
               7
100
AcDb2dPolyline
 66
               1
 10
0.0
 20
0.0
 30
0.0
 75
               5
  0
VERTEX
  5
334
100
AcDbEntity
  8
FAN70-0310
370
              15
390
0
  6
Continuous
 62
               7
100
AcDbVertex
100
AcDb2dVertex
 10
595.02290899873083
 20
-387.51740451005924
 30
0.0
  0
VERTEX
  5
335
100
AcDbEntity
  8
FAN70-0310
370
              15
390
0
  6
Continuous
 62
               7
100
AcDbVertex
100
AcDb2dVertex
 10
592.26433153273069
 20
-395.64471668595922
 30
0.0
  0
VERTEX
  5
336
100
AcDbEntity
  8
FAN70-0310
370
              15
390
0
  6
Continuous
 62
               7
100
AcDbVertex
100
AcDb2dVertex
 10
586.60792524933072
 20
-408.15769298965915
 30
0.0
  0
VERTEX
  5
337
100
AcDbEntity
  8
FAN70-0310
370
              15
390
0
  6
Continuous
 62
               7
100
AcDbVertex
100
AcDb2dVertex
 10
579.84100247743072
 20
-419.94860558805919
 30
0.0
  0
VERTEX
  5
338
100
AcDbEntity
  8
FAN70-0310
370
              15
390
0
  6
Continuous
 62
               7
100
AcDbVertex
100
AcDb2dVertex
 10
572.03693653463074
 20
-430.95942749675919
 30
0.0
  0
VERTEX
  5
339
100
AcDbEntity
  8
FAN70-0310
370
              15
390
0
  6
Continuous
 62
               7
100
AcDbVertex
100
AcDb2dVertex
 10
563.26907093643081
 20
-441.13213359405916
 30
0.0
  0
VERTEX
  5
33A
100
AcDbEntity
  8
FAN70-0310
370
              15
390
0
  6
Continuous
 62
               7
100
AcDbVertex
100
AcDb2dVertex
 10
553.6107566488306
 20
-450.40870248365923
 30
0.0
  0
VERTEX
  5
33B
100
AcDbEntity
  8
FAN70-0310
370
              15
390
0
  6
Continuous
 62
               7
100
AcDbVertex
100
AcDb2dVertex
 10
543.75468160033074
 20
-458.28224509055894
 30
0.0
  0
VERTEX
  5
33C
100
AcDbEntity
  8
FAN70-0310
370
              15
390
0
  6
Continuous
 62
               7
100
AcDbVertex
100
AcDb2dVertex
 10
533.23371673943075
 20
-465.25892405805882
 30
0.0
  0
VERTEX
  5
33D
100
AcDbEntity
  8
FAN70-0310
370
              15
390
0
  6
Continuous
 62
               7
100
AcDbVertex
100
AcDb2dVertex
 10
522.10933680653079
 20
-471.29008709485879
 30
0.0
  0
VERTEX
  5
33E
100
AcDbEntity
  8
FAN70-0310
370
              15
390
0
  6
Continuous
 62
               7
100
AcDbVertex
100
AcDb2dVertex
 10
510.44303516863056
 20
-476.32711171205858
 30
0.0
  0
VERTEX
  5
33F
100
AcDbEntity
  8
FAN70-0310
370
              15
390
0
  6
Continuous
 62
               7
100
AcDbVertex
100
AcDb2dVertex
 10
498.29628656623072
 20
-480.32136051945849
 30
0.0
  0
SEQEND
  5
340
100
AcDbEntity
  8
FAN70-0310
370
              15
390
0
  6
Continuous
 62
               7
  0
LINE
  5
341
100
AcDbEntity
  8
FAN70-0310
370
              15
390
0
  6
Continuous
 62
               7
100
AcDbLine
 10
482.54628817563065
 20
-489.11740421345849
 30
0.0
 11
441.31317514003064
 21
-489.11740421345849
 31
0.0
  0
ARC
  5
342
100
AcDbEntity
  8
FAN70-0310
370
              15
390
0
  6
STYLE_12
 62
               7
100
AcDbCircle
 10
-448.0087999862609
 20
-261.75754819817848
 30
0.0
 40
222.10000000000011
100
AcDbArc
 50
212.09154277505129
 51
259.46448074086874
  0
ARC
  5
343
100
AcDbEntity
  8
FAN70-0310
370
              15
390
0
  6
STYLE_12
 62
               7
100
AcDbCircle
 10
-491.97687590010474
 20
-505.41227284793956
 30
0.0
 40
25.52085370000335
100
AcDbArc
 50
48.614531626070161
 51
82.438735638578436
  0
LINE
  5
344
100
AcDbEntity
  8
FAN70-0310
370
              15
390
0
  6
STYLE_12
 62
               7
100
AcDbLine
 10
-475.10448833633427
 20
-486.26451811076743
 30
0.0
 11
-473.91833727132286
 21
-488.75478818110832
 31
0.0
  0
ARC
  5
345
100
AcDbEntity
  8
FAN70-0310
370
              15
390
0
  6
STYLE_12
 62
               7
100
AcDbCircle
 10
-451.05124983218479
 20
-261.75754819817848
 30
0.0
 40
222.09999999999937
100
AcDbArc
 50
280.53551925913126
 51
327.90845722494868
  0
ARC
  5
346
100
AcDbEntity
  8
FAN70-0310
370
              15
390
0
  6
STYLE_12
 62
               7
100
AcDbCircle
 10
-407.08317391834095
 20
-505.41227284793956
 30
0.0
 40
25.520853700003162
100
AcDbArc
 50
97.561264361421578
 51
131.38546837392983
  0
LINE
  5
347
100
AcDbEntity
  8
FAN70-0310
370
              15
390
0
  6
STYLE_12
 62
               7
100
AcDbLine
 10
-423.95556148211142
 20
-486.26451811076743
 30
0.0
 11
-425.14171254712284
 21
-488.75478818110832
 31
0.0
  0
ARC
  5
348
100
AcDbEntity
  8
FAN70-0310
370
              15
390
0
  6
STYLE_12
 62
               7
100
AcDbCircle
 10
460.34963811129478
 20
-343.96124667372351
 30
0.0
 40
139.79999999999944
100
AcDbArc
 50
287.0235625793548
 51
345.26576289784663
  0
ARC
  5
349
100
AcDbEntity
  8
FAN70-0310
370
              15
390
0
  6
STYLE_12
 62
               7
100
AcDbCircle
 10
509.73256415992194
 20
-510.56978443160187
 30
0.0
 40
34.001792676781491
100
AcDbArc
 50
104.39736141566316
 51
126.57729074432757
  0
LINE
  5
34A
100
AcDbEntity
  8
FAN70-0310
370
              15
390
0
  6
STYLE_12
 62
               7
100
AcDbLine
 10
489.39192260623071
 20
-483.32312947325704
 30
0.0
 11
481.79467297304831
 21
-488.99475895653575
 31
0.0
  0
ARC
  5
34B
100
AcDbEntity
  8
FAN70-0310
370
              15
390
0
  6
STYLE_12
 62
               7
100
AcDbCircle
 10
456.74293782256666
 20
-343.96124667372351
 30
0.0
 40
139.80000000000001
100
AcDbArc
 50
194.7342371021534
 51
252.97643742064525
  0
ARC
  5
34C
100
AcDbEntity
  8
FAN70-0310
370
              15
390
0
  6
STYLE_12
 62
               7
100
AcDbCircle
 10
407.3600117739395
 20
-510.56978443160187
 30
0.0
 40
34.001792676781662
100
AcDbArc
 50
53.422709255672444
 51
75.602638584336773
  0
LINE
  5
34D
100
AcDbEntity
  8
FAN70-0310
370
              15
390
0
  6
STYLE_12
 62
               7
100
AcDbLine
 10
427.70065332763073
 20
-483.32312947325704
 30
0.0
 11
435.29790296081313
 21
-488.99475895653575
 31
0.0
  0
SPLINE
  5
34E
100
AcDbEntity
  8
FAN70-0310
370
              15
390
0
  6
Continuous
 62
               7
100
AcDbSpline
210
0.0
220
0.0
230
1.0
 70
               9
 71
               2
 72
              17
 73
              14
 74
               0
 42
0.000001
 43
0.000001
 40
0.0
 40
0.0
 40
0.0
 40
1.0
 40
2.0
 40
3.0
 40
4.0
 40
5.0
 40
6.0
 40
7.0
 40
8.0
 40
9.0
 40
10.0
 40
11.0
 40
12.0
 40
12.0
 40
12.0
 10
-543.2800249092229
 20
733.97953582805962
 30
0.0
 10
-499.7704984900584
 20
752.40104280769935
 30
0.0
 10
-399.28955132838735
 20
752.40104280769935
 30
0.0
 10
-312.27049849005834
 20
715.55802884842001
 30
0.0
 10
-262.03002490922285
 20
651.7440567669787
 30
0.0
 10
-262.03002490922285
 20
578.05802884842001
 30
0.0
 10
-312.27049849005834
 20
514.2440567669787
 30
0.0
 10
-399.28955132838735
 20
477.40104280769924
 30
0.0
 10
-499.7704984900584
 20
477.40104280769924
 30
0.0
 10
-586.78955132838735
 20
514.2440567669787
 30
0.0
 10
-637.0300249092229
 20
578.05802884842001
 30
0.0
 10
-637.0300249092229
 20
651.7440567669787
 30
0.0
 10
-586.78955132838735
 20
715.55802884842001
 30
0.0
 10
-543.2800249092229
 20
733.97953582805962
 30
0.0
  0
INSERT
  5
34F
100
AcDbEntity
  8
FAN70-0310
390
0
 62
               7
100
AcDbBlockReference
  2
グループ-1
 10
0.0000000000000142
 20
-0.0000003239913724
 30
0.0
  0
INSERT
  5
350
100
AcDbEntity
  8
FAN70-0310
390
0
 62
               7
100
AcDbBlockReference
  2
グループ-2
 10
0.0000000000000142
 20
-0.0000003239913724
 30
0.0
  0
MTEXT
  5
351
100
AcDbEntity
  8
FAN70-0310
390
0
 62
               7
100
AcDbMText
 10
244.0
 20
-1007.8723828124999
 30
0.0
 40
24.432617187500004
 41
0.0
 71
               1
 72
               1
  1
※カウンターの切込は、商品に付属する型紙を\P　ご参照の上、加工を行ってください。
  7
MS-Gothic
 73
               1
 44
1.1742401076386764
  0
DIMENSION
  5
352
100
AcDbEntity
  8
FAN70-0310
370
               5
390
0
  6
Continuous
 62
               7
100
AcDbDimension
  2
*D12
 10
-449.52998020572289
 20
-629.5174041300578
 30
0.0
 11
-555.77984162492294
 21
-629.5174041300578
 31
0.0
 71
               5
 72
               1
 41
1.0
 42
0.0
  3
tfrom線あり
100
AcDbAlignedDimension
 13
-662.02970304412293
 23
-386.8159314154592
 33
0.0
 14
-449.52998020572289
 24
-529.5174041300578
 34
0.0
100
AcDbRotatedDimension
1001
ACAD
1000
DSTYLE
1002
{
1070
             279
1070
               2
1070
             340
1005
2F
1070
             147
1040
5.0
1002
}
  0
DIMENSION
  5
353
100
AcDbEntity
  8
FAN70-0310
370
               5
390
0
  6
Continuous
 62
               7
100
AcDbDimension
  2
*D13
 10
296.04656214833068
 20
-629.5174041300578
 30
0.0
 11
377.29642505765571
 21
-629.5174041300578
 31
0.0
 71
               5
 72
               1
 41
1.0
 42
0.0
  3
tfrom線あり
100
AcDbAlignedDimension
 13
458.5462879669808
 23
-529.5174041300578
 33
0.0
 14
296.04656214833068
 24
-386.83663005975916
 34
0.0
100
AcDbRotatedDimension
1001
ACAD
1000
DSTYLE
1002
{
1070
             279
1070
               2
1070
             340
1005
2F
1070
             147
1040
5.0
1002
}
  0
ENDSEC
  0
SECTION
  2
OBJECTS
  0
DICTIONARY
  5
19
100
AcDbDictionary
280
               0
281
               1
  3
ACAD_GROUP
350
1A
  3
ACAD_MLINESTYLE
350
1B
  3
ACAD_LAYOUT
350
1E
  3
ACAD_PLOTSETTINGS
350
22
  3
ACAD_PLOTSTYLENAME
350
1F
  0
DICTIONARY
  5
1A
102
{ACAD_REACTORS
330
19
102
}
100
AcDbDictionary
280
               0
281
               1
  0
DICTIONARY
  5
1B
102
{ACAD_REACTORS
330
19
102
}
100
AcDbDictionary
280
               0
281
               1
  3
Standard
350
1C
  0
MLINESTYLE
  5
1C
102
{ACAD_REACTORS
330
1B
102
}
100
AcDbMlineStyle
  2
Standard
 70
               0
  3

 62
               0
 51
90.0
 52
90.0
 71
               2
 49
0.5
 62
             256
  6
ByLayer
 49
-0.5
 62
             256
  6
ByLayer
  0
ACDBDICTIONARYWDFLT
  5
1F
102
{ACAD_REACTORS
330
19
102
}
100
AcDbDictionary
281
               1
  3
Normal
350
1D
100
AcDbDictionaryWithDefault
340
1D
  0
ACDBPLACEHOLDER
  5
1D
102
{ACAD_REACTORS
330
1F
102
}
  0
LAYOUT
  5
20
102
{ACAD_REACTORS
330
1E
102
}
100
AcDbPlotSettings
  1

  2

  4

  6

 40
0.0
 41
0.0
 42
0.0
 43
0.0
 44
0.0
 45
0.0
 46
0.0
 47
0.0
 48
0.0
 49
0.0
140
0.0
141
0.0
142
1.0
143
1.0
 70
            1024
 72
               0
 73
               0
 74
               0
  7

 75
               0
147
1.0
148
0.0
149
0.0
100
AcDbLayout
  1
Model
 70
               0
 71
               0
 10
0.0
 20
0.0
 11
0.0
 21
0.0
 12
0.0
 22
0.0
 32
0.0
 14
0.0
 24
0.0
 34
0.0
 15
0.0
 25
0.0
 35
0.0
146
0.0
 13
0.0
 23
0.0
 33
0.0
 16
0.0
 26
0.0
 36
0.0
 17
0.0
 27
0.0
 37
0.0
 76
               0
330
A
331
0
345
0
346
0
  0
LAYOUT
  5
21
102
{ACAD_REACTORS
330
1E
102
}
100
AcDbPlotSettings
  1

  2

  4

  6

 40
0.0
 41
0.0
 42
0.0
 43
0.0
 44
0.0
 45
0.0
 46
0.0
 47
0.0
 48
0.0
 49
0.0
140
0.0
141
0.0
142
1.0
143
1.0
 70
               0
 72
               0
 73
               0
 74
               0
  7

 75
               0
147
1.0
148
0.0
149
0.0
100
AcDbLayout
  1
Layout1
 70
               0
 71
               0
 10
0.0
 20
0.0
 11
0.0
 21
0.0
 12
0.0
 22
0.0
 32
0.0
 14
0.0
 24
0.0
 34
0.0
 15
0.0
 25
0.0
 35
0.0
146
0.0
 13
0.0
 23
0.0
 33
0.0
 16
0.0
 26
0.0
 36
0.0
 17
0.0
 27
0.0
 37
0.0
 76
               0
330
B
331
0
345
0
346
0
  0
DICTIONARY
  5
1E
102
{ACAD_REACTORS
330
19
102
}
100
AcDbDictionary
280
               0
281
               1
  3
Layout1
350
21
  3
Model
350
20
  0
DICTIONARY
  5
22
102
{ACAD_REACTORS
330
19
102
}
100
AcDbDictionary
280
               0
281
               1
  0
ENDSEC
  0
EOF
