  0
SECTION
  2
HEADER
  9
$ACADVER
  1
AC1015
  9
$ACADMAINTVER
 70
               6
  9
$DWGCODEPAGE
  3
ANSI_932
  9
$INSBASE
 10
0.0
 20
0.0
 30
0.0
  9
$EXTMIN
 10
-975.00000000024124
 20
-1431.5255224711129
 30
-14.428611111111111
  9
$EXTMAX
 10
975.00000000024124
 20
1405.9972926412995
 30
14.428611111111111
  9
$LIMMIN
 10
0.0
 20
0.0
  9
$LIMMAX
 10
0.0
 20
0.0
  9
$ORTHOMODE
 70
               0
  9
$REGENMODE
 70
               1
  9
$FILLMODE
 70
               1
  9
$QTEXTMODE
 70
               0
  9
$MIRRTEXT
 70
               1
  9
$LTSCALE
 40
50.799999999999997
  9
$ATTMODE
 70
               1
  9
$TEXTSIZE
 40
0.2
  9
$TRACEWID
 40
1.0
  9
$TEXTSTYLE
  7
Standard
  9
$CLAYER
  8
FAN70-0311
  9
$CELTYPE
  6
Continuous
  9
$CECOLOR
 62
             256
  9
$CELTSCALE
 40
1.0
  9
$DISPSILH
 70
               0
  9
$DIMSCALE
 40
1.0
  9
$DIMASZ
 40
31.75
  9
$DIMEXO
 40
0.0
  9
$DIMDLI
 40
6.9999999999999396
  9
$DIMRND
 40
0.0
  9
$DIMDLE
 40
0.0
  9
$DIMEXE
 40
19.999999999996199
  9
$DIMTP
 40
0.0
  9
$DIMTM
 40
0.0
  9
$DIMTXT
 40
24.432617187500004
  9
$DIMCEN
 40
0.0
  9
$DIMTSZ
 40
0.0
  9
$DIMTOL
 70
               0
  9
$DIMLIM
 70
               0
  9
$DIMTIH
 70
               0
  9
$DIMTOH
 70
               0
  9
$DIMSE1
 70
               0
  9
$DIMSE2
 70
               0
  9
$DIMTAD
 70
               1
  9
$DIMZIN
 70
              11
  9
$DIMBLK
  1
VW_FILLEDARROW
  9
$DIMASO
 70
               1
  9
$DIMSHO
 70
               1
  9
$DIMPOST
  1
<>
  9
$DIMAPOST
  1
[]
  9
$DIMALT
 70
               0
  9
$DIMALTD
 70
               1
  9
$DIMALTF
 40
1.0
  9
$DIMLFAC
 40
1.0
  9
$DIMTOFL
 70
               0
  9
$DIMTVP
 40
0.0
  9
$DIMTIX
 70
               1
  9
$DIMSOXD
 70
               0
  9
$DIMSAH
 70
               0
  9
$DIMBLK1
  1

  9
$DIMBLK2
  1

  9
$DIMSTYLE
  2
JIS
  9
$DIMCLRD
 70
               0
  9
$DIMCLRE
 70
               0
  9
$DIMCLRT
 70
               0
  9
$DIMTFAC
 40
1.0
  9
$DIMGAP
 40
1.00000000000108
  9
$DIMJUST
 70
               0
  9
$DIMSD1
 70
               0
  9
$DIMSD2
 70
               0
  9
$DIMTOLJ
 70
               1
  9
$DIMTZIN
 70
              11
  9
$DIMALTZ
 70
              11
  9
$DIMALTTZ
 70
              11
  9
$DIMUPT
 70
               0
  9
$DIMDEC
 70
               1
  9
$DIMTDEC
 70
               1
  9
$DIMALTU
 70
               2
  9
$DIMALTTD
 70
               2
  9
$DIMTXSTY
  7
ＭＳ ゴシック
  9
$DIMAUNIT
 70
               0
  9
$DIMADEC
 70
               2
  9
$DIMALTRND
 40
0.0
  9
$DIMAZIN
 70
               0
  9
$DIMDSEP
 70
              46
  9
$DIMATFIT
 70
               0
  9
$DIMFRAC
 70
               2
  9
$DIMLDRBLK
  1

  9
$DIMLUNIT
 70
               2
  9
$DIMLWD
 70
              -2
  9
$DIMLWE
 70
              -2
  9
$DIMTMOVE
 70
               0
  9
$LUNITS
 70
               2
  9
$LUPREC
 70
               4
  9
$SKETCHINC
 40
0.1
  9
$FILLETRAD
 40
0.0
  9
$AUNITS
 70
               0
  9
$AUPREC
 70
               0
  9
$MENU
  1
acad
  9
$ELEVATION
 40
0.0
  9
$PELEVATION
 40
0.0
  9
$THICKNESS
 40
0.0
  9
$LIMCHECK
 70
               0
  9
$CHAMFERA
 40
0.0
  9
$CHAMFERB
 40
0.0
  9
$CHAMFERC
 40
0.0
  9
$CHAMFERD
 40
0.0
  9
$SKPOLY
 70
               0
  9
$TDCREATE
 40
2456069.471770833
  9
$TDUCREATE
 40
0.000000000
  9
$TDUPDATE
 40
2456069.471770833
  9
$TDUUPDATE
 40
0.000000000
  9
$TDINDWG
 40
0.0000000000
  9
$TDUSRTIMER
 40
0.0000000000
  9
$USRTIMER
 70
               1
  9
$ANGBASE
 50
0.0
  9
$ANGDIR
 70
               0
  9
$PDMODE
 70
               1
  9
$PDSIZE
 40
-2.0
  9
$PLINEWID
 40
0.0
  9
$SPLFRAME
 70
               0
  9
$SPLINETYPE
 70
               6
  9
$SPLINESEGS
 70
               8
  9
$HANDSEED
  5
30B
  9
$SURFTAB1
 70
               6
  9
$SURFTAB2
 70
               6
  9
$SURFTYPE
 70
               6
  9
$SURFU
 70
               6
  9
$SURFV
 70
               6
  9
$UCSBASE
  2

  9
$UCSNAME
  2

  9
$UCSORG
 10
0.0
 20
0.0
 30
0.0
  9
$UCSXDIR
 10
1.0
 20
0.0
 30
0.0
  9
$UCSYDIR
 10
0.0
 20
1.0
 30
0.0
  9
$UCSORTHOREF
  2

  9
$UCSORTHOVIEW
 70
               0
  9
$UCSORGTOP
 10
0.0
 20
0.0
 30
0.0
  9
$UCSORGBOTTOM
 10
0.0
 20
0.0
 30
0.0
  9
$UCSORGLEFT
 10
0.0
 20
0.0
 30
0.0
  9
$UCSORGRIGHT
 10
0.0
 20
0.0
 30
0.0
  9
$UCSORGFRONT
 10
0.0
 20
0.0
 30
0.0
  9
$UCSORGBACK
 10
0.0
 20
0.0
 30
0.0
  9
$PUCSBASE
  2

  9
$PUCSNAME
  2

  9
$PUCSORG
 10
0.0
 20
0.0
 30
0.0
  9
$PUCSXDIR
 10
1.0
 20
0.0
 30
0.0
  9
$PUCSYDIR
 10
0.0
 20
1.0
 30
0.0
  9
$PUCSORTHOREF
  2

  9
$PUCSORTHOVIEW
 70
               0
  9
$PUCSORGTOP
 10
0.0
 20
0.0
 30
0.0
  9
$PUCSORGBOTTOM
 10
0.0
 20
0.0
 30
0.0
  9
$PUCSORGLEFT
 10
0.0
 20
0.0
 30
0.0
  9
$PUCSORGRIGHT
 10
0.0
 20
0.0
 30
0.0
  9
$PUCSORGFRONT
 10
0.0
 20
0.0
 30
0.0
  9
$PUCSORGBACK
 10
0.0
 20
0.0
 30
0.0
  9
$USERI1
 70
               0
  9
$USERI2
 70
               0
  9
$USERI3
 70
               0
  9
$USERI4
 70
               0
  9
$USERI5
 70
               0
  9
$USERR1
 40
0.0
  9
$USERR2
 40
0.0
  9
$USERR3
 40
0.0
  9
$USERR4
 40
0.0
  9
$USERR5
 40
0.0
  9
$WORLDVIEW
 70
               1
  9
$SHADEDGE
 70
               3
  9
$SHADEDIF
 70
              70
  9
$TILEMODE
 70
               1
  9
$MAXACTVP
 70
              64
  9
$PINSBASE
 10
0.0
 20
0.0
 30
0.0
  9
$PLIMCHECK
 70
               0
  9
$PEXTMIN
 10
1.0000000000000000E+20
 20
1.0000000000000000E+20
 30
1.0000000000000000E+20
  9
$PEXTMAX
 10
-1.0000000000000000E+20
 20
-1.0000000000000000E+20
 30
-1.0000000000000000E+20
  9
$PLIMMIN
 10
0.0
 20
0.0
  9
$PLIMMAX
 10
12.0
 20
9.0
  9
$UNITMODE
 70
               0
  9
$VISRETAIN
 70
               0
  9
$PLINEGEN
 70
               1
  9
$PSLTSCALE
 70
               0
  9
$TREEDEPTH
 70
            3020
  9
$CMLSTYLE
  2
Standard
  9
$CMLJUST
 70
               0
  9
$CMLSCALE
 40
1.0
  9
$PROXYGRAPHICS
 70
               0
  9
$MEASUREMENT
 70
               1
  9
$CELWEIGHT
370
               0
  9
$ENDCAPS
280
               0
  9
$JOINSTYLE
280
               0
  9
$LWDISPLAY
290
               1
  9
$INSUNITS
 70
               4
  9
$HYPERLINKBASE
  1

  9
$STYLESHEET
  1

  9
$XEDIT
290
               1
  9
$CEPSNTYPE
380
               0
  9
$PSTYLEMODE
290
               1
  9
$FINGERPRINTGUID
  2

  9
$VERSIONGUID
  2

  9
$EXTNAMES
290
               1
  9
$PSVPSCALE
 40
0.0
  0
ENDSEC
  0
SECTION
  2
CLASSES
  0
CLASS
  1
LWPOLYLINE
  2
AcDbPolyline
  3
AutoCAD 2000
 90
        0
280
               0
281
               1
  0
CLASS
  1
IMAGE
  2
AcDbRasterImage
  3
ISM
 90
      127
280
               0
281
               1
  0
CLASS
  1
OLE2FRAME
  2
AcDbOle2Frame
  3
AutoCAD 2000
 90
        0
280
               0
281
               1
  0
CLASS
  1
HATCH
  2
AcDbHatch
  3
AutoCAD 2000
 90
        0
280
               0
281
               1
  0
CLASS
  1
DICTIONARYVAR
  2
AcDbDictionaryVar
  3
AutoCAD 2000
 90
        0
280
               0
281
               0
  0
CLASS
  1
RASTERVARIABLES
  2
AcDbRasterVariables
  3
ISM
 90
        0
280
               0
281
               0
  0
CLASS
  1
IMAGEDEF
  2
AcDbRasterImageDef
  3
ISM
 90
        0
280
               0
281
               0
  0
CLASS
  1
IMAGEDEF_REACTOR
  2
AcDbRasterImageDefReactor
  3
ISM
 90
        1
280
               0
281
               0
  0
CLASS
  1
IDBUFFER
  2
AcDbIdBuffer
  3
AutoCAD 2000
 90
        0
280
               0
281
               0
  0
CLASS
  1
SPATIAL_FILTER
  2
AcDbSpatialFilter
  3
AutoCAD 2000
 90
        0
280
               0
281
               0
  0
CLASS
  1
XRECORD
  2
AcDbXrecord
  3
AutoCAD 2000
 90
        0
280
               0
281
               0
  0
CLASS
  1
SORTENTSTABLE
  2
AcDbSortentsTable
  3
AutoCAD 2000
 90
        0
280
               0
281
               0
  0
CLASS
  1
LAYER_INDEX
  2
AcDbLayerIndex
  3
AutoCAD 2000
 90
        0
280
               0
281
               0
  0
CLASS
  1
SPATIAL_INDEX
  2
AcDbSpatialIndex
  3
AutoCAD 2000
 90
        0
280
               0
281
               0
  0
CLASS
  1
OBJECT_PTR
  2
CAseDLPNTableRecord
  3
"ASE-LPNTableRecord"
 90
        1
280
               0
281
               0
  0
CLASS
  1
LAYOUT
  2
AcDbLayout
  3
AutoCAD 2000
 90
        0
280
               0
281
               0
  0
CLASS
  1
PLOTSETTINGS
  2
AcDbPlotSettings
  3
AutoCAD 2000
 90
        0
280
               0
281
               0
  0
CLASS
  1
ACDBDICTIONARYWDFLT
  2
AcDbDictionaryWithDefault
  3
AutoCAD 2000
 90
        0
280
               0
281
               0
  0
CLASS
  1
ACDBPLACEHOLDER
  2
AcDbPlaceHolder
  3
AutoCAD 2000
 90
        0
280
               0
281
               0
  0
ENDSEC
  0
SECTION
  2
TABLES
  0
TABLE
  2
VPORT
  5
7
100
AcDbSymbolTable
 70
               1
  0
VPORT
  5
15
100
AcDbSymbolTableRecord
100
AcDbViewportTableRecord
  2
*ACTIVE
 70
               0
 10
0.0
 20
0.0
 11
1.0
 21
1.0
 12
0.0
 22
-12.764114914906713
 13
0.0
 23
0.0
 14
1.0
 24
1.0
 15
0.0
 25
0.0
 16
0.0
 26
0.0
 36
1.0
 17
0.0
 27
0.0
 37
0.0
 40
2837.5228151124124
 41
0.688564
 42
50.0
 43
0.0
 44
0.0
 50
0.0
 51
0.0
 71
               0
 72
            2000
 73
               1
 74
               1
 75
               0
 76
               0
 77
               0
 78
               0
281
               0
 65
               0
110
0.0
120
0.0
130
0.0
111
1.0
121
0.0
131
0.0
112
0.0
122
1.0
132
0.0
345
0
346
0
 79
               0
146
0.0
  0
ENDTAB
  0
TABLE
  2
LTYPE
  5
4
100
AcDbSymbolTable
 70
              17
  0
LTYPE
  5
11
100
AcDbSymbolTableRecord
100
AcDbLinetypeTableRecord
  2
ByBlock
 70
              64
  3

 72
              65
 73
               0
 40
0.0
  0
LTYPE
  5
12
100
AcDbSymbolTableRecord
100
AcDbLinetypeTableRecord
  2
ByLayer
 70
              64
  3

 72
              65
 73
               0
 40
0.0
  0
LTYPE
  5
13
100
AcDbSymbolTableRecord
100
AcDbLinetypeTableRecord
  2
Continuous
 70
              64
  3
Solid line
 72
              65
 73
               0
 40
0.0
  0
LTYPE
  5
31
100
AcDbSymbolTableRecord
100
AcDbLinetypeTableRecord
  2
STYLE_01
 70
               0
  3

 72
              65
 73
               4
 40
0.3999999999999999
 49
0.25
 74
               0
 49
-0.05
 74
               0
 49
0.05
 74
               0
 49
-0.05
 74
               0
  0
LTYPE
  5
32
100
AcDbSymbolTableRecord
100
AcDbLinetypeTableRecord
  2
STYLE_02
 70
               0
  3

 72
              65
 73
               2
 40
0.6944250000000001
 49
0.48607
 74
               0
 49
-0.2083550000000001
 74
               0
  0
LTYPE
  5
33
100
AcDbSymbolTableRecord
100
AcDbLinetypeTableRecord
  2
STYLE_03
 70
               0
  3

 72
              65
 73
               2
 40
1.25
 49
1.0416400000000001
 74
               0
 49
-0.2083599999999999
 74
               0
  0
LTYPE
  5
34
100
AcDbSymbolTableRecord
100
AcDbLinetypeTableRecord
  2
STYLE_04
 70
               0
  3

 72
              65
 73
               2
 40
1.5277099999999999
 49
1.3194249999999998
 74
               0
 49
-0.208285
 74
               0
  0
LTYPE
  5
35
100
AcDbSymbolTableRecord
100
AcDbLinetypeTableRecord
  2
STYLE_05
 70
               0
  3

 72
              65
 73
               2
 40
0.20828
 49
0.069425
 74
               0
 49
-0.138855
 74
               0
  0
LTYPE
  5
36
100
AcDbSymbolTableRecord
100
AcDbLinetypeTableRecord
  2
STYLE_06
 70
               0
  3

 72
              65
 73
               4
 40
1.0416400000000001
 49
0.625
 74
               0
 49
-0.20828
 74
               0
 49
0.06943
 74
               0
 49
-0.13893
 74
               0
  0
LTYPE
  5
37
100
AcDbSymbolTableRecord
100
AcDbLinetypeTableRecord
  2
STYLE_07
 70
               0
  3

 72
              65
 73
               6
 40
1.875
 49
0.625
 74
               0
 49
-0.20828
 74
               0
 49
0.6250000000000001
 74
               0
 49
-0.2083599999999999
 74
               0
 49
0.06943
 74
               0
 49
-0.1389299999999999
 74
               0
  0
LTYPE
  5
38
100
AcDbSymbolTableRecord
100
AcDbLinetypeTableRecord
  2
STYLE_08
 70
               0
  3

 72
              65
 73
               6
 40
1.25
 49
0.625
 74
               0
 49
-0.20828
 74
               0
 49
0.06943
 74
               0
 49
-0.13893
 74
               0
 49
0.0694299999999999
 74
               0
 49
-0.13893
 74
               0
  0
LTYPE
  5
39
100
AcDbSymbolTableRecord
100
AcDbLinetypeTableRecord
  2
STYLE_09
 70
               0
  3

 72
              65
 73
               4
 40
5.0
 49
3.75
 74
               0
 49
-0.2777849999999998
 74
               0
 49
0.6944300000000003
 74
               0
 49
-0.2777849999999998
 74
               0
  0
LTYPE
  5
3A
100
AcDbSymbolTableRecord
100
AcDbLinetypeTableRecord
  2
STYLE_10
 70
               0
  3

 72
              65
 73
               6
 40
5.9375
 49
3.75
 74
               0
 49
-0.2777849999999998
 74
               0
 49
0.6944300000000003
 74
               0
 49
-0.2777849999999998
 74
               0
 49
0.625
 74
               0
 49
-0.3125
 74
               0
  0
LTYPE
  5
3B
100
AcDbSymbolTableRecord
100
AcDbLinetypeTableRecord
  2
STYLE_11
 70
               0
  3

 72
              65
 73
               2
 40
0.0694444881889764
 49
0.0347222440944882
 74
               0
 49
-0.0347222440944882
 74
               0
  0
LTYPE
  5
3C
100
AcDbSymbolTableRecord
100
AcDbLinetypeTableRecord
  2
STYLE_12
 70
               0
  3

 72
              65
 73
               2
 40
0.3937007874015748
 49
0.1968503937007874
 74
               0
 49
-0.1968503937007874
 74
               0
  0
LTYPE
  5
3D
100
AcDbSymbolTableRecord
100
AcDbLinetypeTableRecord
  2
STYLE_13
 70
               0
  3

 72
              65
 73
               2
 40
0.5905511811023622
 49
0.2952755905511811
 74
               0
 49
-0.2952755905511811
 74
               0
  0
LTYPE
  5
3E
100
AcDbSymbolTableRecord
100
AcDbLinetypeTableRecord
  2
STYLE_14
 70
               0
  3

 72
              65
 73
               2
 40
1.9685039370078738
 49
0.9842519685039369
 74
               0
 49
-0.9842519685039369
 74
               0
  0
ENDTAB
  0
TABLE
  2
LAYER
  5
2
100
AcDbSymbolTable
 70
               5
  0
LAYER
  5
14
100
AcDbSymbolTableRecord
100
AcDbLayerTableRecord
  2
0
 70
               0
 62
               7
  6
Continuous
290
               1
370
              -3
390
1D
  0
LAYER
  5
3F
100
AcDbSymbolTableRecord
100
AcDbLayerTableRecord
  2
Defpoints
 70
               0
 62
               7
  6
Continuous
290
               0
370
              -3
390
1D
  0
LAYER
  5
40
100
AcDbSymbolTableRecord
100
AcDbLayerTableRecord
  2
template
 70
               0
 62
               7
  6
Continuous
290
               1
370
              -3
390
1D
  0
LAYER
  5
41
100
AcDbSymbolTableRecord
100
AcDbLayerTableRecord
  2
notes
 70
               0
 62
               7
  6
Continuous
290
               1
370
              -3
390
1D
  0
LAYER
  5
42
100
AcDbSymbolTableRecord
100
AcDbLayerTableRecord
  2
FAN70-0311
 70
               0
 62
               7
  6
Continuous
290
               1
370
              -3
390
1D
  0
ENDTAB
  0
TABLE
  2
STYLE
  5
3
100
AcDbSymbolTable
 70
               3
  0
STYLE
  5
17
100
AcDbSymbolTableRecord
100
AcDbTextStyleTableRecord
  2
Standard
 70
               0
 40
0.0
 41
1.0
 50
0.0
 71
               0
 42
0.0
  3
txt
  4
BIGFONT.SHX
  0
STYLE
  5
2F
100
AcDbSymbolTableRecord
100
AcDbTextStyleTableRecord
  2
MS-Gothic
 70
               0
 40
0.0
 41
1.0
 50
0.0
 71
               0
 42
0.0
  3

  4
MS-Gothic
1001
ACAD
1000
MS-Gothic
1071
        0
  0
STYLE
  5
30
100
AcDbSymbolTableRecord
100
AcDbTextStyleTableRecord
  2
ＭＳ ゴシック
 70
               0
 40
0.0
 41
1.0
 50
0.0
 71
               0
 42
0.0
  3

  4
ＭＳ ゴシック
1001
ACAD
1000
ＭＳ ゴシック
1071
        0
  0
ENDTAB
  0
TABLE
  2
VIEW
  5
5
100
AcDbSymbolTable
 70
               0
  0
ENDTAB
  0
TABLE
  2
UCS
  5
6
100
AcDbSymbolTable
 70
               0
  0
ENDTAB
  0
TABLE
  2
APPID
  5
8
100
AcDbSymbolTable
 70
               1
  0
APPID
  5
16
100
AcDbSymbolTableRecord
100
AcDbRegAppTableRecord
  2
ACAD
 70
               0
  0
ENDTAB
  0
TABLE
  2
DIMSTYLE
  5
9
100
AcDbSymbolTable
 70
               3
100
AcDbDimStyleTable
 71
               0
  0
DIMSTYLE
105
18
100
AcDbSymbolTableRecord
100
AcDbDimStyleTableRecord
  2
Standard
 70
               0
  3

  4

 40
1.0
 41
0.18
 42
0.0625
 43
0.38
 44
0.18
 45
0.0
 46
0.0
 47
0.0
 48
0.0
 71
               0
 72
               0
 73
               1
 74
               1
 75
               0
 76
               0
 77
               0
 78
               0
 79
               0
140
0.18
141
0.09
142
0.0
143
25.399999999999999
144
1.0
145
0.0
146
1.0
147
0.09
148
0.0
170
               0
171
               2
172
               0
173
               0
174
               0
175
               0
176
               0
177
               0
178
               0
179
               0
271
               4
272
               4
273
               2
274
               2
275
               0
276
               0
277
               2
278
              46
279
               0
280
               0
281
               0
282
               0
283
               1
284
               0
285
               0
286
               0
288
               0
289
               3
340
17
341
0
342
0
343
0
344
0
371
              -2
372
              -2
  0
DIMSTYLE
105
4B
100
AcDbSymbolTableRecord
100
AcDbDimStyleTableRecord
  2
tfrom線あり
 70
               0
  3
<>
  4
[]
 40
1.0
 41
9.9993896484374982
 42
24.999999999999996
 43
0.9999999999999999
 44
0.0
 45
0.0
 46
0.0
 47
0.0
 48
0.0
 71
               0
 72
               0
 73
               0
 74
               0
 75
               0
 76
               0
 77
               1
 78
              11
 79
               0
140
24.432617187500004
141
0.0
142
0.0
143
1.0
144
1.0
145
0.0
146
1.0
147
0.4999999999999999
148
0.0
170
               0
171
               1
172
               0
173
               0
174
               1
175
               0
176
               0
177
               0
178
               0
179
               2
271
               1
272
               1
273
               2
274
               2
275
               0
276
               2
277
               2
278
              46
279
               0
280
               0
281
               0
282
               0
283
               1
284
              11
285
              11
286
              11
288
               0
289
               0
340
30
341
43
342
43
343
0
344
0
371
              -2
372
              -2
  0
DIMSTYLE
105
50
100
AcDbSymbolTableRecord
100
AcDbDimStyleTableRecord
  2
JIS
 70
               0
  3
<>
  4
[]
 40
1.0
 41
31.75
 42
0.0
 43
6.9999999999999396
 44
19.999999999996199
 45
0.0
 46
0.0
 47
0.0
 48
0.0
 71
               0
 72
               0
 73
               0
 74
               0
 75
               0
 76
               0
 77
               1
 78
              11
 79
               0
140
24.432617187500004
141
0.0
142
0.0
143
1.0
144
1.0
145
0.0
146
1.0
147
1.00000000000108
148
0.0
170
               0
171
               1
172
               0
173
               0
174
               1
175
               0
176
               0
177
               0
178
               0
179
               2
271
               1
272
               1
273
               2
274
               2
275
               0
276
               2
277
               2
278
              46
279
               0
280
               0
281
               0
282
               0
283
               1
284
              11
285
              11
286
              11
288
               0
289
               0
340
30
341
4C
342
4C
343
0
344
0
371
              -2
372
              -2
  0
ENDTAB
  0
TABLE
  2
BLOCK_RECORD
  5
1
100
AcDbSymbolTable
 70
              14
  0
BLOCK_RECORD
  5
A
100
AcDbSymbolTableRecord
100
AcDbBlockTableRecord
  2
*MODEL_SPACE
340
20
  0
BLOCK_RECORD
  5
B
100
AcDbSymbolTableRecord
100
AcDbBlockTableRecord
  2
*PAPER_SPACE
340
21
  0
BLOCK_RECORD
  5
43
100
AcDbSymbolTableRecord
100
AcDbBlockTableRecord
  2
_DOT
340
0
  0
BLOCK_RECORD
  5
4C
100
AcDbSymbolTableRecord
100
AcDbBlockTableRecord
  2
VW_FILLEDARROW
340
0
  0
BLOCK_RECORD
  5
23
100
AcDbSymbolTableRecord
100
AcDbBlockTableRecord
  2
グループ
340
0
102
{BLKREFS
331
EB
102
}
  0
BLOCK_RECORD
  5
24
100
AcDbSymbolTableRecord
100
AcDbBlockTableRecord
  2
*D3
340
0
  0
BLOCK_RECORD
  5
25
100
AcDbSymbolTableRecord
100
AcDbBlockTableRecord
  2
*D4
340
0
  0
BLOCK_RECORD
  5
26
100
AcDbSymbolTableRecord
100
AcDbBlockTableRecord
  2
*D5
340
0
  0
BLOCK_RECORD
  5
27
100
AcDbSymbolTableRecord
100
AcDbBlockTableRecord
  2
*D6
340
0
  0
BLOCK_RECORD
  5
28
100
AcDbSymbolTableRecord
100
AcDbBlockTableRecord
  2
*D7
340
0
  0
BLOCK_RECORD
  5
29
100
AcDbSymbolTableRecord
100
AcDbBlockTableRecord
  2
*D8
340
0
  0
BLOCK_RECORD
  5
2A
100
AcDbSymbolTableRecord
100
AcDbBlockTableRecord
  2
*D9
340
0
  0
BLOCK_RECORD
  5
2B
100
AcDbSymbolTableRecord
100
AcDbBlockTableRecord
  2
*D10
340
0
  0
BLOCK_RECORD
  5
2C
100
AcDbSymbolTableRecord
100
AcDbBlockTableRecord
  2
*D11
340
0
  0
BLOCK_RECORD
  5
2D
100
AcDbSymbolTableRecord
100
AcDbBlockTableRecord
  2
グループ-1
340
0
102
{BLKREFS
331
307
102
}
  0
BLOCK_RECORD
  5
2E
100
AcDbSymbolTableRecord
100
AcDbBlockTableRecord
  2
グループ-2
340
0
102
{BLKREFS
331
308
102
}
  0
ENDTAB
  0
ENDSEC
  0
SECTION
  2
BLOCKS
  0
BLOCK
  5
D
100
AcDbEntity
  8
0
390
0
100
AcDbBlockBegin
  2
*MODEL_SPACE
 70
               0
 10
0.0
 20
0.0
 30
0.0
  3
*MODEL_SPACE
  1

  0
ENDBLK
  5
E
100
AcDbEntity
  8
0
390
0
100
AcDbBlockEnd
  0
BLOCK
  5
F
100
AcDbEntity
 67
               1
  8
0
390
0
100
AcDbBlockBegin
  2
*PAPER_SPACE
 70
               0
 10
0.0
 20
0.0
 30
0.0
  3
*PAPER_SPACE
  1

  0
ENDBLK
  5
10
100
AcDbEntity
 67
               1
  8
0
390
0
100
AcDbBlockEnd
  0
BLOCK
  5
44
100
AcDbEntity
  8
0
390
0
100
AcDbBlockBegin
  2
_DOT
 70
               0
 10
0.0
 20
0.0
 30
0.0
  3
_DOT
  1

  0
POLYLINE
  5
45
100
AcDbEntity
  8
0
370
              -2
390
0
  6
ByBlock
 62
               0
100
AcDb2dPolyline
 66
               1
 10
0.0
 20
0.0
 30
0.0
 70
               1
 40
0.5
 41
0.5
  0
VERTEX
  5
46
100
AcDbEntity
  8
0
370
              -2
390
0
  6
ByBlock
 62
               0
100
AcDbVertex
100
AcDb2dVertex
 10
-0.25
 20
0.0
 30
0.0
 42
1.0
  0
VERTEX
  5
47
100
AcDbEntity
  8
0
370
              -2
390
0
  6
ByBlock
 62
               0
100
AcDbVertex
100
AcDb2dVertex
 10
0.25
 20
0.0
 30
0.0
 42
1.0
  0
SEQEND
  5
48
100
AcDbEntity
  8
0
390
0
  0
LINE
  5
49
100
AcDbEntity
  8
0
370
              -2
390
0
  6
ByBlock
 62
               0
100
AcDbLine
 10
-0.5
 20
0.0
 30
0.0
 11
-1.0
 21
0.0
 31
0.0
  0
ENDBLK
  5
4A
100
AcDbEntity
  8
0
390
0
100
AcDbBlockEnd
  0
BLOCK
  5
4D
100
AcDbEntity
  8
0
370
              -2
390
0
  6
ByBlock
 62
               0
100
AcDbBlockBegin
  2
VW_FILLEDARROW
 70
               0
 10
0.0
 20
0.0
 30
0.0
  3
VW_FILLEDARROW
  1

  0
SOLID
  5
4E
100
AcDbEntity
  8
0
370
              -2
390
0
 62
               0
100
AcDbTrace
 10
0.0
 20
0.0
 30
0.0
 11
-0.9921874999999999
 21
-0.2658558393652545
 31
0.0
 12
-0.9921874999999999
 22
0.2658558393652548
 32
0.0
 13
-0.9921874999999999
 23
0.2658558393652548
 33
0.0
  0
ENDBLK
  5
4F
100
AcDbEntity
  8
0
390
0
100
AcDbBlockEnd
  0
BLOCK
  5
51
100
AcDbEntity
  8
template
390
0
100
AcDbBlockBegin
  2
グループ
 70
               0
 10
0.0
 20
0.0
 30
0.0
  3
グループ
  1

  0
LWPOLYLINE
  5
52
100
AcDbEntity
  8
0
370
              15
390
0
  6
Continuous
 62
               7
100
AcDbPolyline
 90
        8
 70
             129
 10
887.42850780307481
 20
-1262.2796279496395
 10
887.42850780307481
 20
-1268.2770166432153
 10
877.92731088507151
 20
-1268.2770166432153
 10
877.92731088507151
 20
-1292.7279799067242
 10
869.57193362328871
 20
-1292.7279799067242
 10
869.57193362328871
 20
-1268.2770166432153
 10
860.23897667697929
 20
-1268.2770166432153
 10
860.23897667697929
 20
-1262.2796279496395
  0
LWPOLYLINE
  5
53
100
AcDbEntity
  8
0
370
              15
390
0
  6
Continuous
 62
               7
100
AcDbPolyline
 90
      101
 70
             128
 10
900.15679963363175
 20
-1263.0078764425759
 10
900.17214966241681
 20
-1263.0035156858908
 42
-0.0222221607812283
 10
900.46215423908779
 20
-1262.9348912206463
 10
900.47794800308122
 20
-1262.9318877975493
 42
-0.0146883565586854
 10
900.74065070830557
 20
-1262.8898846105999
 42
-0.0127458844187406
 10
901.00528967545358
 20
-1262.8623476425278
 10
901.06774475377142
 20
-1262.8574542199392
 42
-0.0198099018566901
 10
901.45859386324832
 20
-1262.8423690625427
 10
901.51040533269202
 20
-1262.8424228382078
 42
-0.0147617382765175
 10
902.00502879366343
 20
-1262.8575428634524
 10
902.07772024853898
 20
-1262.8619154703401
 42
-0.0162624549004703
 10
902.46787387800578
 20
-1262.8981483456125
 10
902.58940626927017
 20
-1262.9134349046096
 42
-0.0080020874660664
 10
902.73498530035658
 20
-1262.9341177518775
 10
902.77330477094858
 20
-1262.9401890296881
 42
-0.005382192967833
 10
902.84178887626638
 20
-1262.9517965535101
 10
902.11538317706777
 20
-1265.132725009224
 42
0.0108667757394062
 10
902.04806610693299
 20
-1265.1195378940033
 10
902.01059808374748
 20
-1265.1130401514097
 42
0.017066320330763
 10
901.8673812968334
 20
-1265.0932105541181
 10
901.79950596414892
 20
-1265.0861633835304
 42
0.0220162375276641
 10
901.51912655629246
 20
-1265.0694810227603
 10
901.44127098924173
 20
-1265.0682816554938
 42
0.0282606915783738
 10
901.10563466566362
 20
-1265.0820849324627
 10
901.06172139189118
 20
-1265.0863849224666
 42
0.0169677213690595
 10
900.8157968969324
 20
-1265.1189219720186
 42
0.0190576269865484
 10
900.57288893435555
 20
-1265.169068844124
 10
900.56662974624146
 20
-1265.1706118182342
 42
0.0213685642844021
 10
900.3162452617612
 20
-1265.2438121033397
 10
900.3107553668475
 20
-1265.2456750993979
 42
0.0237595297591213
 10
900.05726048194606
 20
-1265.3453596212946
 10
900.05215840791914
 20
-1265.3476513967717
 42
0.0261857468810989
 10
899.79998763168908
 20
-1265.4771877341461
 10
899.78956144260292
 20
-1265.4832532086141
 42
0.0272553062019101
 10
899.55313166736369
 20
-1265.6386254145591
 10
899.51836865385121
 20
-1265.6642865626536
 42
0.0325996893180971
 10
899.36821331020269
 20
-1265.7910344356226
 10
899.34450388107427
 20
-1265.8138524641406
 42
0.0138050960639914
 10
899.25262072486953
 20
-1265.9073021256872
 42
0.0125280103805281
 10
899.16577819203565
 20
-1266.0054654522876
 10
899.14209774712765
 20
-1266.0336239504745
 42
0.0205218024729119
 10
899.01699767161574
 20
-1266.1954172647011
 10
898.99453133112684
 20
-1266.2270769945305
 42
0.0163110129581913
 10
898.83882095187528
 20
-1266.4624074296007
 10
898.83609705582455
 20
-1266.4668311915859
 42
0.0131897341896935
 10
898.68929653491978
 20
-1266.7199632839481
 10
898.68759643955218
 20
-1266.723081523086
 42
0.0107895576059858
 10
898.54981973734516
 20
-1266.9892967327137
 10
898.5490868478164
 20
-1266.9907909653678
 42
0.0091371507219095
 10
898.42060689916514
 20
-1267.2653161631313
 10
898.3908612677576
 20
-1267.3320226702863
 42
0.0135418326351206
 10
898.21914732868856
 20
-1267.7469604555483
 10
898.1855425202524
 20
-1267.8348265978345
 42
0.0092834542409608
 10
898.01431346033087
 20
-1268.3087250961416
 10
897.98869633261734
 20
-1268.3839661659229
 42
0.0054261043577207
 10
897.88105818432018
 20
-1268.7117301389999
 10
897.86353219811349
 20
-1268.7671183013226
 42
0.0008225090822076
 10
897.79486214631277
 20
-1268.9853870593793
 10
896.8101730143793
 20
-1272.0102783526359
 10
900.04279685445317
 20
-1272.0102783526359
 10
899.53860442459973
 20
-1273.9147566509882
 10
896.28254814261641
 20
-1273.9147566509882
 10
890.45339911026258
 20
-1292.7279797169931
 10
888.62830149995227
 20
-1292.7279797169931
 10
894.4629795354532
 20
-1273.9147566509882
 10
892.05786316641286
 20
-1273.9147566509882
 10
892.5620555962663
 20
-1272.0102783526359
 10
894.99060440721632
 20
-1272.0102783526359
 10
895.85075932540497
 20
-1269.373865351937
 42
-0.0005863560650262
 10
895.88749400353095
 20
-1269.257038931891
 10
895.96358183726886
 20
-1269.0160466322598
 42
-0.0087522378925693
 10
896.16304998072576
 20
-1268.4207705451131
 10
896.25531425613713
 20
-1268.1606303766059
 42
-0.0077400953830536
 10
896.51324791527031
 20
-1267.467625699052
 10
896.52901288684689
 20
-1267.4271948156718
 42
-0.0082369946330518
 10
896.77609735746114
 20
-1266.8231157494702
 42
-0.0085725238363833
 10
897.0433434534657
 20
-1266.2276897101797
 10
897.14497305447333
 20
-1266.0112686081941
 42
-0.0168109410595879
 10
897.43191748320146
 20
-1265.4500610820937
 10
897.55776087367406
 20
-1265.2230970490716
 42
-0.0007817726859269
 10
897.61204522371713
 20
-1265.1255528040651
 10
897.61217352973449
 20
-1265.1253230953287
 42
-0.0036626142157143
 10
897.6670613937556
 20
-1265.0287252153603
 42
-0.0080221150679748
 10
897.72418564916165
 20
-1264.9334459806087
 10
897.75488560052349
 20
-1264.8840550314853
 42
-0.020213932556849
 10
897.88254134033025
 20
-1264.6960734308038
 10
897.93660880551784
 20
-1264.622994566563
 42
-0.0249323791798447
 10
898.1957715992371
 20
-1264.3069493244084
 10
898.219911413364
 20
-1264.280335051496
 42
-0.0242132121536684
 10
898.55959215490498
 20
-1263.940451565293
 10
898.60750372765756
 20
-1263.8969424291051
 42
-0.025101752785879
 10
898.8914854282973
 20
-1263.6639496833413
 10
898.8929309051116
 20
-1263.6628804257621
 42
-0.0130868069040762
 10
899.19119155506837
 20
-1263.4540999572198
 10
899.19275337420993
 20
-1263.4530665169455
 42
-0.0290329526391372
 10
899.50386451560439
 20
-1263.2722410153156
 10
899.53371007759586
 20
-1263.2571386324732
 42
-0.0160250190043653
 10
899.79961449135521
 20
-1263.1331225222625
 42
-0.0267600374781006
 10
900.07489056882639
 20
-1263.0323742017133
 10
900.10162648834478
 20
-1263.0241816428884
 42
-0.0049981587670053
 10
900.15679963363175
 20
-1263.0078764425759
 42
-0.0049981587670053
  0
LWPOLYLINE
  5
54
100
AcDbEntity
  8
0
370
              15
390
0
  6
Continuous
 62
               7
100
AcDbPolyline
 90
      118
 70
             128
 10
919.97116719807866
 20
-1272.0842616804632
 10
921.84628912257813
 20
-1272.0842616804632
 10
921.00825021697824
 20
-1274.7658282068633
 42
-0.0010587229211422
 10
921.03970603257619
 20
-1274.7289236734773
 10
921.09790012318217
 20
-1274.6609414173322
 42
-0.0071874740407281
 10
921.24827534128485
 20
-1274.4903007252981
 10
921.38999811454244
 20
-1274.3340645839899
 42
-0.0148118053512363
 10
921.84012740725746
 20
-1273.8664507379747
 10
921.92734974215796
 20
-1273.7810534171224
 42
-0.0086273358692412
 10
922.26289854316542
 20
-1273.463677783107
 10
922.30673225939188
 20
-1273.4236281387734
 42
-0.0103138323110657
 10
922.56475596162477
 20
-1273.1974650014356
 10
922.61053036794067
 20
-1273.1589829541847
 42
-0.0060206748566775
 10
922.78337843206407
 20
-1273.0171883034209
 10
922.78540956294921
 20
-1273.0155625977902
 42
-0.0067069027288388
 10
922.95770237761258
 20
-1272.8814119639947
 10
922.96025114353938
 20
-1272.8794817941186
 42
-0.0076184352042701
 10
923.13115640940987
 20
-1272.7541069188756
 42
-0.0089652861674684
 10
923.30611737214042
 20
-1272.6344736585459
 10
923.34246909229182
 20
-1272.6105624450586
 42
-0.0156916245935726
 10
923.5384285894495
 20
-1272.4902999585856
 42
-0.002329901106332
 10
923.7386906333893
 20
-1272.3771220190672
 10
923.75407476580915
 20
-1272.3685220239802
 42
-0.0107669341484053
 10
923.98831159090878
 20
-1272.2441218906315
 10
924.0105763919853
 20
-1272.2329051406807
 42
-0.0078058045895926
 10
924.29416650993699
 20
-1272.0955436850427
 10
924.30407359764718
 20
-1272.0909345571738
 42
-0.0181829330473932
 10
924.61438300225871
 20
-1271.9600708160797
 10
924.66843844483174
 20
-1271.9395556961338
 42
-0.0208411536025736
 10
925.01752341227984
 20
-1271.8234652336414
 10
925.03187951240682
 20
-1271.8193467886881
 42
-0.0222799817135775
 10
925.3605993063245
 20
-1271.7407052225476
 10
925.36948826956063
 20
-1271.7389932119627
 42
-0.0215509523883926
 10
925.68595923784142
 20
-1271.6920775234285
 10
925.72844119889146
 20
-1271.6876399966375
 42
-0.018254592487324
 10
925.96254997819551
 20
-1271.6717961712466
 10
926.00195099454572
 20
-1271.6705716261672
 42
-0.0072962856529054
 10
926.15787387423256
 20
-1271.6680022976452
 10
926.18697354479764
 20
-1271.6679474622415
 42
-0.0059227516312875
 10
926.2847230439495
 20
-1271.6689211740318
 10
926.31396526140736
 20
-1271.6695589406347
 42
-0.0011833111893234
 10
926.35321654515383
 20
-1271.6705079449453
 10
925.55782994954666
 20
-1274.2092418900443
 42
0.0143932051524636
 10
925.53142856719489
 20
-1274.1990429199984
 10
925.52415659477879
 20
-1274.1964717011415
 42
0.0234388603494022
 10
925.48232572884672
 20
-1274.1838524654263
 10
925.47364406593397
 20
-1274.1816715034213
 42
0.0199162742988474
 10
925.41335523185239
 20
-1274.169054768086
 10
925.39254129404776
 20
-1274.1655575686577
 42
0.0293643550669223
 10
925.28946643528752
 20
-1274.1544075230045
 10
925.26478125456833
 20
-1274.153195905986
 42
0.0214606686870228
 10
925.11164033861701
 20
-1274.1522573455686
 10
925.10226842779787
 20
-1274.1526022571129
 42
0.0167564054187993
 10
924.93074823669042
 20
-1274.1646792994809
 10
924.92228844393048
 20
-1274.1655606399081
 42
0.0137677553246399
 10
924.73493513066614
 20
-1274.1903099484514
 10
924.72758339115785
 20
-1274.1914878684195
 42
0.0118497261481205
 10
924.52708562705527
 20
-1274.2285052186087
 10
924.52093561980928
 20
-1274.2297920813287
 42
0.0106421143891936
 10
924.31005473252526
 20
-1274.2786244569033
 10
924.30514592413522
 20
-1274.2798717995886
 42
0.0099746379706426
 10
924.08668745497073
 20
-1274.340046327904
 10
924.02513941480242
 20
-1274.358328206534
 42
0.0191613675860962
 10
923.68915495228782
 20
-1274.4723055868208
 10
923.60109517953936
 20
-1274.5059924971461
 42
0.0205274080147135
 10
923.21578840764073
 20
-1274.6718209049716
 10
923.15813912565523
 20
-1274.6994888695456
 42
0.0181256912193595
 10
922.89986218499178
 20
-1274.8351726885217
 10
922.84690680167512
 20
-1274.865490301738
 42
0.0140709242412418
 10
922.7019518670495
 20
-1274.9539849751709
 10
922.6757029984326
 20
-1274.9710417938854
 42
0.0086667884399223
 10
922.58677683688848
 20
-1275.0310444617692
 42
0.003640819201488
 10
922.4993435988797
 20
-1275.0932253195438
 10
922.46411672438649
 20
-1275.1186662654743
 42
0.0052260781283436
 10
922.30788802698567
 20
-1275.2339986521158
 10
922.29168117073573
 20
-1275.2462267627266
 42
0.0050024435892504
 10
922.1056778276743
 20
-1275.3895093309909
 10
922.09035967116176
 20
-1275.4015553534346
 42
0.0136138710277092
 10
921.87991840283541
 20
-1275.576521858349
 10
921.84625052704291
 20
-1275.6061008310621
 42
0.0172815186909998
 10
921.58184698538162
 20
-1275.8550975036842
 10
921.57928463953772
 20
-1275.8576833208326
 42
0.0189403857991616
 10
921.32870284095702
 20
-1276.1304885856389
 10
921.29607134742253
 20
-1276.1688325171344
 42
0.0185044199506342
 10
921.10411490844263
 20
-1276.4120810982572
 42
0.0088565243901835
 10
920.92565480181418
 20
-1276.6655975184071
 10
920.91647682216569
 20
-1276.6791388981671
 42
0.0157195347233255
 10
920.73325621582558
 20
-1276.9686611074931
 10
920.68717327389959
 20
-1277.0468133045056
 42
0.009545187978228
 10
920.52208772376309
 20
-1277.3394079468603
 10
920.51093980483051
 20
-1277.3600786189977
 42
0.0100351706259463
 10
920.3788960556742
 20
-1277.6171341794829
 42
0.0086935915427105
 10
920.25656490388042
 20
-1277.8789673248868
 10
920.25324416246565
 20
-1277.8864096478592
 42
0.0072580174868562
 10
920.13289771051973
 20
-1278.1670016394446
 10
920.1296360772144
 20
-1278.1749216654603
 42
0.0060005122612748
 10
920.01043540887395
 20
-1278.4745313360593
 10
920.00722443053007
 20
-1278.4828928639699
 42
0.0049017786976095
 10
919.88832427167415
 20
-1278.8018218445702
 10
919.88515846528219
 20
-1278.8105747818049
 42
0.0039415167601332
 10
919.76572218722583
 20
-1279.1491168442171
 10
919.76259108457339
 20
-1279.1582200450941
 42
0.003103583876369
 10
919.64178629887749
 20
-1279.5166599068759
 10
919.63867625434989
 20
-1279.5260805282423
 42
0.0025070747152459
 10
919.51577490304032
 20
-1279.9047277451684
 10
919.47848100660917
 20
-1280.0216194104394
 42
0.0029081910285026
 10
919.28646270879403
 20
-1280.6357830687448
 10
919.24565954028128
 20
-1280.7690063110069
 42
0.000926645373586
 10
918.97724216595384
 20
-1281.6512307709725
 10
918.95635469337412
 20
-1281.7203426500068
 42
-0.0005809993666905
 10
918.67901801273479
 20
-1282.6341507568054
 10
918.61273621446674
 20
-1282.8516356889488
 42
-0.001201870816555
 10
918.46575190503268
 20
-1283.3297983534858
 10
918.41343205330679
 20
-1283.4985574948678
 42
-0.0002691059611808
 10
918.36986257229853
 20
-1283.6388251146934
 10
915.53690667400929
 20
-1292.7279797169931
 10
913.71891778203076
 20
-1292.7279797169931
 10
919.97116719807866
 20
-1272.0842616804632
  0
SPLINE
  5
55
100
AcDbEntity
  8
0
370
              15
390
0
  6
Continuous
 62
               7
100
AcDbSpline
210
0.0
220
0.0
230
1.0
 70
              13
 71
               2
 72
             782
 73
             779
 74
               0
 42
0.000001
 43
0.000001
 40
0.0
 40
0.0
 40
0.0
 40
1.0
 40
1.0
 40
2.0
 40
2.0
 40
3.0
 40
3.0
 40
4.0
 40
4.0
 40
5.0
 40
5.0
 40
6.0
 40
6.0
 40
7.0
 40
7.0
 40
8.0
 40
8.0
 40
9.0
 40
9.0
 40
10.0
 40
10.0
 40
11.0
 40
11.0
 40
12.0
 40
12.0
 40
13.0
 40
13.0
 40
14.0
 40
14.0
 40
15.0
 40
15.0
 40
16.0
 40
16.0
 40
17.0
 40
17.0
 40
18.0
 40
18.0
 40
19.0
 40
19.0
 40
20.0
 40
20.0
 40
21.0
 40
21.0
 40
22.0
 40
22.0
 40
23.0
 40
23.0
 40
24.0
 40
24.0
 40
25.0
 40
25.0
 40
26.0
 40
26.0
 40
27.0
 40
27.0
 40
28.0
 40
28.0
 40
29.0
 40
29.0
 40
30.0
 40
30.0
 40
31.0
 40
31.0
 40
32.0
 40
32.0
 40
33.0
 40
33.0
 40
34.0
 40
34.0
 40
35.0
 40
35.0
 40
36.0
 40
36.0
 40
37.0
 40
37.0
 40
38.0
 40
38.0
 40
39.0
 40
39.0
 40
40.0
 40
40.0
 40
41.0
 40
41.0
 40
42.0
 40
42.0
 40
43.0
 40
43.0
 40
44.0
 40
44.0
 40
45.0
 40
45.0
 40
46.0
 40
46.0
 40
47.0
 40
47.0
 40
48.0
 40
48.0
 40
49.0
 40
49.0
 40
50.0
 40
50.0
 40
51.0
 40
51.0
 40
52.0
 40
52.0
 40
53.0
 40
53.0
 40
54.0
 40
54.0
 40
55.0
 40
55.0
 40
56.0
 40
56.0
 40
57.0
 40
57.0
 40
58.0
 40
58.0
 40
59.0
 40
59.0
 40
60.0
 40
60.0
 40
61.0
 40
61.0
 40
62.0
 40
62.0
 40
63.0
 40
63.0
 40
64.0
 40
64.0
 40
65.0
 40
65.0
 40
66.0
 40
66.0
 40
67.0
 40
67.0
 40
68.0
 40
68.0
 40
69.0
 40
69.0
 40
70.0
 40
70.0
 40
71.0
 40
71.0
 40
72.0
 40
72.0
 40
73.0
 40
73.0
 40
74.0
 40
74.0
 40
75.0
 40
75.0
 40
76.0
 40
76.0
 40
77.0
 40
77.0
 40
78.0
 40
78.0
 40
79.0
 40
79.0
 40
80.0
 40
80.0
 40
81.0
 40
81.0
 40
82.0
 40
82.0
 40
83.0
 40
83.0
 40
84.0
 40
84.0
 40
85.0
 40
85.0
 40
86.0
 40
86.0
 40
87.0
 40
87.0
 40
88.0
 40
88.0
 40
89.0
 40
89.0
 40
90.0
 40
90.0
 40
91.0
 40
91.0
 40
92.0
 40
92.0
 40
93.0
 40
93.0
 40
94.0
 40
94.0
 40
95.0
 40
95.0
 40
96.0
 40
96.0
 40
97.0
 40
97.0
 40
98.0
 40
98.0
 40
99.0
 40
99.0
 40
100.0
 40
100.0
 40
101.0
 40
101.0
 40
102.0
 40
102.0
 40
103.0
 40
103.0
 40
104.0
 40
104.0
 40
105.0
 40
105.0
 40
106.0
 40
106.0
 40
107.0
 40
107.0
 40
108.0
 40
108.0
 40
109.0
 40
109.0
 40
110.0
 40
110.0
 40
111.0
 40
111.0
 40
112.0
 40
112.0
 40
113.0
 40
113.0
 40
114.0
 40
114.0
 40
115.0
 40
115.0
 40
116.0
 40
116.0
 40
117.0
 40
117.0
 40
118.0
 40
118.0
 40
119.0
 40
119.0
 40
120.0
 40
120.0
 40
121.0
 40
121.0
 40
122.0
 40
122.0
 40
123.0
 40
123.0
 40
124.0
 40
124.0
 40
125.0
 40
125.0
 40
126.0
 40
126.0
 40
127.0
 40
127.0
 40
128.0
 40
128.0
 40
129.0
 40
129.0
 40
130.0
 40
130.0
 40
131.0
 40
131.0
 40
132.0
 40
132.0
 40
133.0
 40
133.0
 40
134.0
 40
134.0
 40
135.0
 40
135.0
 40
136.0
 40
136.0
 40
137.0
 40
137.0
 40
138.0
 40
138.0
 40
139.0
 40
139.0
 40
140.0
 40
140.0
 40
141.0
 40
141.0
 40
142.0
 40
142.0
 40
143.0
 40
143.0
 40
144.0
 40
144.0
 40
145.0
 40
145.0
 40
146.0
 40
146.0
 40
147.0
 40
147.0
 40
148.0
 40
148.0
 40
149.0
 40
149.0
 40
150.0
 40
150.0
 40
151.0
 40
151.0
 40
152.0
 40
152.0
 40
153.0
 40
153.0
 40
154.0
 40
154.0
 40
155.0
 40
155.0
 40
156.0
 40
156.0
 40
157.0
 40
157.0
 40
158.0
 40
158.0
 40
159.0
 40
159.0
 40
160.0
 40
160.0
 40
161.0
 40
161.0
 40
162.0
 40
162.0
 40
163.0
 40
163.0
 40
164.0
 40
164.0
 40
165.0
 40
165.0
 40
166.0
 40
166.0
 40
167.0
 40
167.0
 40
168.0
 40
168.0
 40
169.0
 40
169.0
 40
170.0
 40
170.0
 40
171.0
 40
171.0
 40
172.0
 40
172.0
 40
173.0
 40
173.0
 40
174.0
 40
174.0
 40
175.0
 40
175.0
 40
176.0
 40
176.0
 40
177.0
 40
177.0
 40
178.0
 40
178.0
 40
179.0
 40
179.0
 40
180.0
 40
180.0
 40
181.0
 40
181.0
 40
182.0
 40
182.0
 40
183.0
 40
183.0
 40
184.0
 40
184.0
 40
185.0
 40
185.0
 40
186.0
 40
186.0
 40
187.0
 40
187.0
 40
188.0
 40
188.0
 40
189.0
 40
189.0
 40
190.0
 40
190.0
 40
191.0
 40
191.0
 40
192.0
 40
192.0
 40
193.0
 40
193.0
 40
194.0
 40
194.0
 40
195.0
 40
195.0
 40
196.0
 40
196.0
 40
197.0
 40
197.0
 40
198.0
 40
198.0
 40
199.0
 40
199.0
 40
200.0
 40
200.0
 40
201.0
 40
201.0
 40
202.0
 40
202.0
 40
203.0
 40
203.0
 40
204.0
 40
204.0
 40
205.0
 40
205.0
 40
206.0
 40
206.0
 40
207.0
 40
207.0
 40
208.0
 40
208.0
 40
209.0
 40
209.0
 40
210.0
 40
210.0
 40
211.0
 40
211.0
 40
212.0
 40
212.0
 40
213.0
 40
213.0
 40
214.0
 40
214.0
 40
215.0
 40
215.0
 40
216.0
 40
216.0
 40
217.0
 40
217.0
 40
218.0
 40
218.0
 40
219.0
 40
219.0
 40
220.0
 40
220.0
 40
221.0
 40
221.0
 40
222.0
 40
222.0
 40
223.0
 40
223.0
 40
224.0
 40
224.0
 40
225.0
 40
225.0
 40
226.0
 40
226.0
 40
227.0
 40
227.0
 40
228.0
 40
228.0
 40
229.0
 40
229.0
 40
230.0
 40
230.0
 40
231.0
 40
231.0
 40
232.0
 40
232.0
 40
233.0
 40
233.0
 40
234.0
 40
234.0
 40
235.0
 40
235.0
 40
236.0
 40
236.0
 40
237.0
 40
237.0
 40
238.0
 40
238.0
 40
239.0
 40
239.0
 40
240.0
 40
240.0
 40
241.0
 40
241.0
 40
242.0
 40
242.0
 40
243.0
 40
243.0
 40
244.0
 40
244.0
 40
245.0
 40
245.0
 40
246.0
 40
246.0
 40
247.0
 40
247.0
 40
248.0
 40
248.0
 40
249.0
 40
249.0
 40
250.0
 40
250.0
 40
251.0
 40
251.0
 40
252.0
 40
252.0
 40
253.0
 40
253.0
 40
254.0
 40
254.0
 40
255.0
 40
255.0
 40
256.0
 40
256.0
 40
257.0
 40
257.0
 40
258.0
 40
258.0
 40
259.0
 40
259.0
 40
260.0
 40
260.0
 40
261.0
 40
261.0
 40
262.0
 40
262.0
 40
263.0
 40
263.0
 40
264.0
 40
264.0
 40
265.0
 40
265.0
 40
266.0
 40
266.0
 40
267.0
 40
267.0
 40
268.0
 40
268.0
 40
269.0
 40
269.0
 40
270.0
 40
270.0
 40
271.0
 40
271.0
 40
272.0
 40
272.0
 40
273.0
 40
273.0
 40
274.0
 40
274.0
 40
275.0
 40
275.0
 40
276.0
 40
276.0
 40
277.0
 40
277.0
 40
278.0
 40
278.0
 40
279.0
 40
279.0
 40
280.0
 40
280.0
 40
281.0
 40
281.0
 40
282.0
 40
282.0
 40
283.0
 40
283.0
 40
284.0
 40
284.0
 40
285.0
 40
285.0
 40
286.0
 40
286.0
 40
287.0
 40
287.0
 40
288.0
 40
288.0
 40
289.0
 40
289.0
 40
290.0
 40
290.0
 40
291.0
 40
291.0
 40
292.0
 40
292.0
 40
293.0
 40
293.0
 40
294.0
 40
294.0
 40
295.0
 40
295.0
 40
296.0
 40
296.0
 40
297.0
 40
297.0
 40
298.0
 40
298.0
 40
299.0
 40
299.0
 40
300.0
 40
300.0
 40
301.0
 40
301.0
 40
302.0
 40
302.0
 40
303.0
 40
303.0
 40
304.0
 40
304.0
 40
305.0
 40
305.0
 40
306.0
 40
306.0
 40
307.0
 40
307.0
 40
308.0
 40
308.0
 40
309.0
 40
309.0
 40
310.0
 40
310.0
 40
311.0
 40
311.0
 40
312.0
 40
312.0
 40
313.0
 40
313.0
 40
314.0
 40
314.0
 40
315.0
 40
315.0
 40
316.0
 40
316.0
 40
317.0
 40
317.0
 40
318.0
 40
318.0
 40
319.0
 40
319.0
 40
320.0
 40
320.0
 40
321.0
 40
321.0
 40
322.0
 40
322.0
 40
323.0
 40
323.0
 40
324.0
 40
324.0
 40
325.0
 40
325.0
 40
326.0
 40
326.0
 40
327.0
 40
327.0
 40
328.0
 40
328.0
 40
329.0
 40
329.0
 40
330.0
 40
330.0
 40
331.0
 40
331.0
 40
332.0
 40
332.0
 40
333.0
 40
333.0
 40
334.0
 40
334.0
 40
335.0
 40
335.0
 40
336.0
 40
336.0
 40
337.0
 40
337.0
 40
338.0
 40
338.0
 40
339.0
 40
339.0
 40
340.0
 40
340.0
 40
341.0
 40
341.0
 40
342.0
 40
342.0
 40
343.0
 40
343.0
 40
344.0
 40
344.0
 40
345.0
 40
345.0
 40
346.0
 40
346.0
 40
347.0
 40
347.0
 40
348.0
 40
348.0
 40
349.0
 40
349.0
 40
350.0
 40
350.0
 40
351.0
 40
351.0
 40
352.0
 40
352.0
 40
353.0
 40
353.0
 40
354.0
 40
354.0
 40
355.0
 40
355.0
 40
356.0
 40
356.0
 40
357.0
 40
357.0
 40
358.0
 40
358.0
 40
359.0
 40
359.0
 40
360.0
 40
360.0
 40
361.0
 40
361.0
 40
362.0
 40
362.0
 40
363.0
 40
363.0
 40
364.0
 40
364.0
 40
365.0
 40
365.0
 40
366.0
 40
366.0
 40
367.0
 40
367.0
 40
368.0
 40
368.0
 40
369.0
 40
369.0
 40
370.0
 40
370.0
 40
371.0
 40
371.0
 40
372.0
 40
372.0
 40
373.0
 40
373.0
 40
374.0
 40
374.0
 40
375.0
 40
375.0
 40
376.0
 40
376.0
 40
377.0
 40
377.0
 40
378.0
 40
378.0
 40
379.0
 40
379.0
 40
380.0
 40
380.0
 40
381.0
 40
381.0
 40
382.0
 40
382.0
 40
383.0
 40
383.0
 40
384.0
 40
384.0
 40
385.0
 40
385.0
 40
386.0
 40
386.0
 40
387.0
 40
387.0
 40
388.0
 40
388.0
 40
389.0
 40
389.0
 40
389.0
 10
930.29987164881129
 20
-1272.0733353171008
 30
0.0
 41
1.0
 10
931.11829575753177
 20
-1272.0733353171008
 30
0.0
 41
1.0
 10
931.93671986625225
 20
-1272.0733353171008
 30
0.0
 41
1.0
 10
931.52296613073554
 20
-1273.4159615813505
 30
0.0
 41
1.0
 10
931.10921239521872
 20
-1274.7585878456002
 30
0.0
 41
1.0
 10
931.12755189036329
 20
-1274.7298870727245
 30
0.0
 41
0.9999957264449635
 10
931.14605888718995
 20
-1274.7012940225804
 30
0.0
 41
1.0
 10
931.17648821134094
 20
-1274.6542811441834
 30
0.0
 41
1.0
 10
931.20691753549204
 20
-1274.6072682657864
 30
0.0
 41
1.0
 10
931.2862831805985
 20
-1274.4846494588821
 30
0.0
 41
0.9995394069080581
 10
931.3729415721516
 20
-1274.3670713971392
 30
0.0
 41
1.0
 10
931.40869843440998
 20
-1274.3185565045476
 30
0.0
 41
1.0
 10
931.44445529666837
 20
-1274.270041611956
 30
0.0
 41
1.0
 10
931.57818196448693
 20
-1274.0886013368286
 30
0.0
 41
0.9994460617143366
 10
931.72368244577569
 20
-1273.916458939178
 30
0.0
 41
1.0
 10
931.72807062675201
 20
-1273.9112672587939
 30
0.0
 41
1.0
 10
931.73245880772845
 20
-1273.9060755784096
 30
0.0
 41
1.0
 10
931.86918292706423
 20
-1273.7443165415277
 30
0.0
 41
0.9994359394934378
 10
932.01645715741506
 20
-1273.5921003403637
 30
0.0
 41
1.0
 10
932.0188405113704
 20
-1273.5896370099886
 30
0.0
 41
1.0
 10
932.02122386532574
 20
-1273.5871736796132
 30
0.0
 41
1.0
 10
932.16373138776817
 20
-1273.4398841391974
 30
0.0
 41
0.9995293688567949
 10
932.31500306874864
 20
-1273.3016109270347
 30
0.0
 41
1.0
 10
932.33429682801216
 20
-1273.2839750413834
 30
0.0
 41
1.0
 10
932.35359058727568
 20
-1273.2663391557321
 30
0.0
 41
1.0
 10
932.46627474973195
 20
-1273.1633377148698
 30
0.0
 41
0.9997087614803569
 10
932.58379763868584
 20
-1273.0658934340729
 30
0.0
 41
1.0
 10
932.6029637118711
 20
-1273.0500018555567
 30
0.0
 41
1.0
 10
932.62212978505647
 20
-1273.0341102770408
 30
0.0
 41
1.0
 10
932.70132052764779
 20
-1272.9684491532694
 30
0.0
 41
0.9999595338701152
 10
932.78167979849604
 20
-1272.9042234226199
 30
0.0
 41
1.0
 10
932.86203906936078
 20
-1272.8399976919577
 30
0.0
 41
0.9999749417497325
 10
932.94329960370794
 20
-1272.7769161380083
 30
0.0
 41
1.0
 10
932.96428574986498
 20
-1272.7606248507109
 30
0.0
 41
1.0
 10
932.98527189602214
 20
-1272.7443335634134
 30
0.0
 41
1.0
 10
933.06983978132359
 20
-1272.6786845535728
 30
0.0
 41
0.9999792037126249
 10
933.15524738109707
 20
-1272.6141317719262
 30
0.0
 41
1.0
 10
933.17607220707259
 20
-1272.5983919496198
 30
0.0
 41
1.0
 10
933.19689703304812
 20
-1272.5826521273136
 30
0.0
 41
1.0
 10
933.2406549809275
 20
-1272.5495789902363
 30
0.0
 41
0.9999993373911212
 10
933.28433666700971
 20
-1272.5164051948584
 30
0.0
 41
1.0
 10
933.32801835315365
 20
-1272.4832313994339
 30
0.0
 41
0.9999160953814502
 10
933.37254476407406
 20
-1272.451200334235
 30
0.0
 41
1.0
 10
933.40536665149284
 20
-1272.4275891786506
 30
0.0
 41
1.0
 10
933.4381885389115
 20
-1272.4039780230664
 30
0.0
 41
1.0
 10
933.54835872467049
 20
-1272.3247246466981
 30
0.0
 41
0.9980964527231465
 10
933.66744771817071
 20
-1272.2596371738425
 30
0.0
 41
1.0
 10
933.70448032510012
 20
-1272.2393971942488
 30
0.0
 41
1.0
 10
933.74151293202942
 20
-1272.2191572146548
 30
0.0
 41
1.0
 10
933.92083994530083
 20
-1272.1211469639545
 30
0.0
 41
0.9984572810572661
 10
934.10992851165884
 20
-1272.0436247026087
 30
0.0
 41
1.0
 10
934.11357478105367
 20
-1272.042129810271
 30
0.0
 41
1.0
 10
934.11722105044851
 20
-1272.0406349179336
 30
0.0
 41
1.0
 10
934.29901707801673
 20
-1271.9661024412626
 30
0.0
 41
0.9987838528033862
 10
934.48726973657699
 20
-1271.9098368010964
 30
0.0
 41
1.0
 10
934.4915076857742
 20
-1271.9085701474066
 30
0.0
 41
1.0
 10
934.49574563497151
 20
-1271.9073034937169
 30
0.0
 41
1.0
 10
934.67552239513429
 20
-1271.8535711609311
 30
0.0
 41
0.9990652816207043
 10
934.85926832685209
 20
-1271.8155674813886
 30
0.0
 41
1.0
 10
934.86445672788182
 20
-1271.8144943782825
 30
0.0
 41
1.0
 10
934.86964512891166
 20
-1271.8134212751763
 30
0.0
 41
1.0
 10
935.04301425856613
 20
-1271.7775638018468
 30
0.0
 41
0.9992909934270049
 10
935.21859002502629
 20
-1271.75485336938
 30
0.0
 41
1.0
 10
935.39416579148281
 20
-1271.7321429369135
 30
0.0
 41
0.9994553539448754
 10
935.57085722457441
 20
-1271.7210636327075
 30
0.0
 41
1.0
 10
935.60629163237218
 20
-1271.7188417446596
 30
0.0
 41
1.0
 10
935.64172604016983
 20
-1271.7166198566117
 30
0.0
 41
1.0
 10
935.80795180673897
 20
-1271.7061967942
 30
0.0
 41
0.9990928098293119
 10
935.97446159864103
 20
-1271.7099564354344
 30
0.0
 41
1.0
 10
936.01302343391262
 20
-1271.7108271269674
 30
0.0
 41
1.0
 10
936.05158526918422
 20
-1271.7116978185004
 30
0.0
 41
1.0
 10
936.14097139054343
 20
-1271.713716076669
 30
0.0
 41
0.9998382089205965
 10
936.23022707332984
 20
-1271.7189482031972
 30
0.0
 41
1.0
 10
936.23065697954962
 20
-1271.7189734040994
 30
0.0
 41
1.0
 10
936.2310868857694
 20
-1271.7189986050016
 30
0.0
 41
1.0
 10
936.31948275611592
 20
-1271.7241803297252
 30
0.0
 41
0.9997558016758341
 10
936.40756333331683
 20
-1271.7332628450918
 30
0.0
 41
1.0
 10
936.40803947174948
 20
-1271.7333119425748
 30
0.0
 41
1.0
 10
936.40851561018212
 20
-1271.7333610400576
 30
0.0
 41
1.0
 10
936.4956439105207
 20
-1271.7423453604586
 30
0.0
 41
0.9996565144182291
 10
936.58218176385981
 20
-1271.755882667147
 30
0.0
 41
1.0
 10
936.58264768923573
 20
-1271.7559555528783
 30
0.0
 41
1.0
 10
936.58311361461176
 20
-1271.7560284386093
 30
0.0
 41
1.0
 10
936.66871961720017
 20
-1271.7694199738357
 30
0.0
 41
0.9995321806867199
 10
936.75334669752976
 20
-1271.7880204622654
 30
0.0
 41
1.0
 10
936.75373589210267
 20
-1271.7881060047316
 30
0.0
 41
1.0
 10
936.75412508667546
 20
-1271.7881915471976
 30
0.0
 41
1.0
 10
936.83797377785879
 20
-1271.8066209506951
 30
0.0
 41
0.9993819199219466
 10
936.92032031205395
 20
-1271.8308963339555
 30
0.0
 41
1.0
 10
936.92055874555172
 20
-1271.8309666230648
 30
0.0
 41
1.0
 10
936.92079717904949
 20
-1271.8310369121741
 30
0.0
 41
1.0
 10
937.00266684624944
 20
-1271.8551717172156
 30
0.0
 41
0.9992088568504867
 10
937.0823593652384
 20
-1271.8857369530106
 30
0.0
 41
1.0
 10
937.16204035611736
 20
-1271.9162965537437
 30
0.0
 41
0.9990226101773279
 10
937.23871102602459
 20
-1271.9537739853581
 30
0.0
 41
1.0
 10
937.31537016782215
 20
-1271.9912457819112
 30
0.0
 41
0.9988424273972592
 10
937.38807379503442
 20
-1272.0359105571642
 30
0.0
 41
1.0
 10
937.38834150341404
 20
-1272.0360750212367
 30
0.0
 41
1.0
 10
937.38860921179366
 20
-1272.0362394853091
 30
0.0
 41
1.0
 10
937.46184825576483
 20
-1272.0812331887066
 30
0.0
 41
0.9986928844490697
 10
937.53011112247441
 20
-1272.1334689229861
 30
0.0
 41
1.0
 10
937.53069241469711
 20
-1272.133913736214
 30
0.0
 41
1.0
 10
937.53127370691982
 20
-1272.1343585494419
 30
0.0
 41
1.0
 10
937.6006991580748
 20
-1272.187483910177
 30
0.0
 41
0.9986007262277985
 10
937.66412532784125
 20
-1272.2476446798703
 30
0.0
 41
1.0
 10
937.66501974329879
 20
-1272.2484930477058
 30
0.0
 41
1.0
 10
937.66591415875632
 20
-1272.249341415541
 30
0.0
 41
1.0
 10
937.73112915943818
 20
-1272.3111989209053
 30
0.0
 41
0.9985581491381195
 10
937.78933677113935
 20
-1272.3796914111765
 30
0.0
 41
1.0
 10
937.79859522473498
 20
-1272.3905857688783
 30
0.0
 41
1.0
 10
937.80785367833073
 20
-1272.4014801265798
 30
0.0
 41
1.0
 10
937.8845781972243
 20
-1272.4917613322552
 30
0.0
 41
0.9970460233520636
 10
937.9465700983842
 20
-1272.5927284164375
 30
0.0
 41
1.0
 10
937.96103946346375
 20
-1272.6162948755186
 30
0.0
 41
1.0
 10
937.9755088285433
 20
-1272.6398613346
 30
0.0
 41
1.0
 10
938.01524552855506
 20
-1272.7045810586312
 30
0.0
 41
0.9988468816637008
 10
938.0485918993063
 20
-1272.7728135110583
 30
0.0
 41
1.0
 10
938.05562792179842
 20
-1272.7872104321968
 30
0.0
 41
1.0
 10
938.06266394429053
 20
-1272.8016073533356
 30
0.0
 41
1.0
 10
938.08193827005812
 20
-1272.8410459634867
 30
0.0
 41
0.9998431189996929
 10
938.09980359755286
 20
-1272.8811425179267
 30
0.0
 41
1.0
 10
938.11766892506489
 20
-1272.921239072406
 30
0.0
 41
0.9999989989972418
 10
938.13564764850821
 20
-1272.9612849100372
 30
0.0
 41
1.0
 10
938.14181996008324
 20
-1272.9750331268069
 30
0.0
 41
1.0
 10
938.14799227165827
 20
-1272.9887813435766
 30
0.0
 41
1.0
 10
938.17831561826631
 20
-1273.0563236147796
 30
0.0
 41
0.999879035632118
 10
938.20652349840441
 20
-1273.1247763667175
 30
0.0
 41
1.0
 10
938.21335867969003
 20
-1273.141363468148
 30
0.0
 41
1.0
 10
938.22019386097566
 20
-1273.1579505695786
 30
0.0
 41
1.0
 10
938.24375152335676
 20
-1273.2151185244661
 30
0.0
 41
0.9998227574560588
 10
938.26514027174494
 20
-1273.2731328327404
 30
0.0
 41
1.0
 10
938.28652902013471
 20
-1273.3311471410195
 30
0.0
 41
0.9996797971041512
 10
938.30495530509313
 20
-1273.3901692601351
 30
0.0
 41
1.0
 10
938.30885910781876
 20
-1273.4026737183044
 30
0.0
 41
1.0
 10
938.31276291054451
 20
-1273.415178176474
 30
0.0
 41
1.0
 10
938.33899680095487
 20
-1273.4992092119301
 30
0.0
 41
0.9979274938734355
 10
938.35422132443409
 20
-1273.5859135705905
 30
0.0
 41
1.0
 10
938.35644501169509
 20
-1273.5985775714107
 30
0.0
 41
1.0
 10
938.35866869895608
 20
-1273.6112415722307
 30
0.0
 41
1.0
 10
938.36959863865457
 20
-1273.6734880795218
 30
0.0
 41
0.999498598213714
 10
938.37656680383157
 20
-1273.736301580665
 30
0.0
 41
1.0
 10
938.38353496900834
 20
-1273.7991150818023
 30
0.0
 41
0.9996372611201243
 10
938.38711083477608
 20
-1273.8622126604846
 30
0.0
 41
1.0
 10
938.38727941226557
 20
-1273.865187277569
 30
0.0
 41
1.0
 10
938.38744798975495
 20
-1273.8681618946534
 30
0.0
 41
1.0
 10
938.39136101050144
 20
-1273.9372087074989
 30
0.0
 41
0.9997730630736228
 10
938.39232932398932
 20
-1274.0063595315321
 30
0.0
 41
1.0
 10
938.39238643040744
 20
-1274.0104377106748
 30
0.0
 41
1.0
 10
938.39244353682557
 20
-1274.0145158898174
 30
0.0
 41
1.0
 10
938.39352606314992
 20
-1274.09182307214
 30
0.0
 41
0.9998772614071323
 10
938.39218597641786
 20
-1274.1691262187162
 30
0.0
 41
1.0
 10
938.39209671321919
 20
-1274.1742753825429
 30
0.0
 41
1.0
 10
938.39200745002063
 20
-1274.1794245463695
 30
0.0
 41
1.0
 10
938.39048883689111
 20
-1274.2670260206121
 30
0.0
 41
0.9999415567331412
 10
938.38707652664527
 20
-1274.3545741822848
 30
0.0
 41
1.0
 10
938.3868352059701
 20
-1274.360765642019
 30
0.0
 41
1.0
 10
938.38659388529481
 20
-1274.3669571017535
 30
0.0
 41
1.0
 10
938.38269893369886
 20
-1274.4668881828945
 30
0.0
 41
0.9999716810429059
 10
938.37730035057996
 20
-1274.5667493211279
 30
0.0
 41
1.0
 10
938.37408755179115
 20
-1274.6261785707861
 30
0.0
 41
1.0
 10
938.37087475300234
 20
-1274.6856078204444
 30
0.0
 41
1.0
 10
938.36280084384907
 20
-1274.8349562217354
 30
0.0
 41
0.9999819129914191
 10
938.35293105223286
 20
-1274.9841966994391
 30
0.0
 41
1.0
 10
938.34306126061631
 20
-1275.1334371771504
 30
0.0
 41
1.0
 10
938.34062194005242
 20
-1275.1706302229998
 30
0.0
 41
1.0
 10
938.36332017385212
 20
-1275.1318892257227
 30
0.0
 41
0.9999982128158768
 10
938.38616473258503
 20
-1275.0932343318032
 30
0.0
 41
1.0
 10
938.41307429249673
 20
-1275.0477011177024
 30
0.0
 41
1.0
 10
938.43998385240855
 20
-1275.0021679036017
 30
0.0
 41
1.0
 10
938.51664753093371
 20
-1274.8724465815328
 30
0.0
 41
0.9998609190058981
 10
938.59759484379924
 20
-1274.7453541995978
 30
0.0
 41
1.0
 10
938.62724316527749
 20
-1274.6988044666462
 30
0.0
 41
1.0
 10
938.65689148675574
 20
-1274.6522547336945
 30
0.0
 41
1.0
 10
938.7391637069951
 20
-1274.5230821636956
 30
0.0
 41
0.9999067609731702
 10
938.82493271646081
 20
-1274.396204474252
 30
0.0
 41
1.0
 10
938.82733741966513
 20
-1274.3926472081921
 30
0.0
 41
1.0
 10
938.82974212286945
 20
-1274.3890899421324
 30
0.0
 41
1.0
 10
938.91070172592958
 20
-1274.269326784804
 30
0.0
 41
0.9998784952151018
 10
938.99535533560618
 20
-1274.1521455681018
 30
0.0
 41
1.0
 10
939.08000894528914
 20
-1274.0349643513912
 30
0.0
 41
0.9998532968284247
 10
939.16862656611295
 20
-1273.9207514429193
 30
0.0
 41
1.0
 10
939.18858835510332
 20
-1273.8950241219
 30
0.0
 41
1.0
 10
939.20855014409381
 20
-1273.8692968008806
 30
0.0
 41
1.0
 10
939.32703419385189
 20
-1273.7165911899133
 30
0.0
 41
0.9991551975795382
 10
939.45765864347482
 20
-1273.5741316278304
 30
0.0
 41
1.0
 10
939.46116825945796
 20
-1273.5703040262024
 30
0.0
 41
1.0
 10
939.46467787544111
 20
-1273.5664764245744
 30
0.0
 41
1.0
 10
939.58828309310161
 20
-1273.4316720657437
 30
0.0
 41
0.9997418144180776
 10
939.71788523279884
 20
-1273.3026226551344
 30
0.0
 41
1.0
 10
939.84748737249856
 20
-1273.1735732445227
 30
0.0
 41
0.9989238204632881
 10
939.98848992074863
 20
-1273.0570882824848
 30
0.0
 41
1.0
 10
940.03373759889155
 20
-1273.0197082908733
 30
0.0
 41
1.0
 10
940.07898527703435
 20
-1272.9823282992618
 30
0.0
 41
1.0
 10
940.21922533425413
 20
-1272.8664732459724
 30
0.0
 41
0.9990825084096954
 10
940.36886526685498
 20
-1272.7630442481418
 30
0.0
 41
1.0
 10
940.37891063091308
 20
-1272.7561010350614
 30
0.0
 41
1.0
 10
940.38895599497118
 20
-1272.749157821981
 30
0.0
 41
1.0
 10
940.51850519945867
 20
-1272.6596152503089
 30
0.0
 41
0.9998164899825629
 10
940.65138940283521
 20
-1272.5751010087924
 30
0.0
 41
1.0
 10
940.66323496335917
 20
-1272.5675672422681
 30
0.0
 41
1.0
 10
940.67508052388314
 20
-1272.5600334757437
 30
0.0
 41
1.0
 10
940.78427360621083
 20
-1272.4905867672762
 30
0.0
 41
0.9997473449130689
 10
940.89647756346085
 20
-1272.4261178094603
 30
0.0
 41
1.0
 10
941.00868152070495
 20
-1272.3616488516475
 30
0.0
 41
0.999932786114679
 10
941.12235013146881
 20
-1272.2997988599659
 30
0.0
 41
1.0
 10
941.12290213403207
 20
-1272.2994985012854
 30
0.0
 41
1.0
 10
941.12345413659523
 20
-1272.2991981426048
 30
0.0
 41
1.0
 10
941.23822675248164
 20
-1272.2367474335645
 30
0.0
 41
0.9996956420484265
 10
941.35594007832333
 20
-1272.180033966589
 30
0.0
 41
1.0
 10
941.38638048321604
 20
-1272.1653679898591
 30
0.0
 41
1.0
 10
941.41682088810865
 20
-1272.1507020131291
 30
0.0
 41
1.0
 10
941.51979799485105
 20
-1272.1010883546862
 30
0.0
 41
0.9998070570176726
 10
941.6246443837905
 20
-1272.055557767786
 30
0.0
 41
1.0
 10
941.72949077272949
 20
-1272.0100271808856
 30
0.0
 41
0.9997827436147982
 10
941.83614370933537
 20
-1271.9689060095754
 30
0.0
 41
1.0
 10
941.85536655896976
 20
-1271.9614944359419
 30
0.0
 41
1.0
 10
941.87458940860415
 20
-1271.9540828623083
 30
0.0
 41
1.0
 10
942.01968804447711
 20
-1271.8981385437314
 30
0.0
 41
0.9988031841976705
 10
942.16955840708192
 20
-1271.8566384795636
 30
0.0
 41
1.0
 10
942.1944756554459
 20
-1271.8497387337566
 30
0.0
 41
1.0
 10
942.21939290380988
 20
-1271.8428389879496
 30
0.0
 41
1.0
 10
942.38666292945641
 20
-1271.796520845543
 30
0.0
 41
0.9984748040550251
 10
942.55801983810409
 20
-1271.7689266132784
 30
0.0
 41
1.0
 10
942.56275897435319
 20
-1271.7681634527648
 30
0.0
 41
1.0
 10
942.56749811060229
 20
-1271.7674002922515
 30
0.0
 41
1.0
 10
942.72937674675313
 20
-1271.7413323810135
 30
0.0
 41
0.9984436495479865
 10
942.89315149047775
 20
-1271.7334544271948
 30
0.0
 41
1.0
 10
942.91484869860903
 20
-1271.7324107399952
 30
0.0
 41
1.0
 10
942.93654590674032
 20
-1271.7313670527956
 30
0.0
 41
1.0
 10
943.05692623420248
 20
-1271.7255764733761
 30
0.0
 41
0.9987954789335237
 10
943.17729447911233
 20
-1271.7316130011184
 30
0.0
 41
1.0
 10
943.19725927160812
 20
-1271.7326142454572
 30
0.0
 41
1.0
 10
943.21722406410402
 20
-1271.7336154897957
 30
0.0
 41
1.0
 10
943.29766272402355
 20
-1271.7376495288609
 30
0.0
 41
0.9997941595876596
 10
943.37787150211659
 20
-1271.7449435947817
 30
0.0
 41
1.0
 10
943.45808028021474
 20
-1271.7522376607033
 30
0.0
 41
0.9998589466238764
 10
943.53799882707324
 20
-1271.7622215151537
 30
0.0
 41
1.0
 10
943.57040502887787
 20
-1271.7662698720724
 30
0.0
 41
1.0
 10
943.60281123068251
 20
-1271.7703182289913
 30
0.0
 41
1.0
 10
943.74754218115129
 20
-1271.7883987972793
 30
0.0
 41
0.9993495063249205
 10
943.8905934249143
 20
-1271.8168645070205
 30
0.0
 41
1.0
 10
943.9235271220673
 20
-1271.8234179702354
 30
0.0
 41
1.0
 10
943.9564608192203
 20
-1271.8299714334505
 30
0.0
 41
1.0
 10
944.06575464242678
 20
-1271.851719767586
 30
0.0
 41
0.9996788715560496
 10
944.17380621438463
 20
-1271.8789775669495
 30
0.0
 41
1.0
 10
944.17586921692441
 20
-1271.8794979935226
 30
0.0
 41
1.0
 10
944.1779322194642
 20
-1271.8800184200957
 30
0.0
 41
1.0
 10
944.28185778634236
 20
-1271.906235366313
 30
0.0
 41
0.9995480654492276
 10
944.38402002157045
 20
-1271.9386503229371
 30
0.0
 41
1.0
 10
944.38570966369957
 20
-1271.9391864278509
 30
0.0
 41
1.0
 10
944.38739930582869
 20
-1271.939722532765
 30
0.0
 41
1.0
 10
944.48618225680048
 20
-1271.9710652795616
 30
0.0
 41
0.9993867959456048
 10
944.58252941524245
 20
-1272.0092446488511
 30
0.0
 41
1.0
 10
944.58377236432659
 20
-1272.009737190747
 30
0.0
 41
1.0
 10
944.58501531341074
 20
-1272.010229732643
 30
0.0
 41
1.0
 10
944.6788765736834
 20
-1272.0474240181402
 30
0.0
 41
0.9992050256521992
 10
944.76947624871832
 20
-1272.0919779173796
 30
0.0
 41
1.0
 10
944.77021093143162
 20
-1272.0923392098409
 30
0.0
 41
1.0
 10
944.77094561414503
 20
-1272.0927005023023
 30
0.0
 41
1.0
 10
944.86007592375188
 20
-1272.1365318166183
 30
0.0
 41
0.999022235074129
 10
944.94498598514542
 20
-1272.1880650843168
 30
0.0
 41
1.0
 10
944.94516987042812
 20
-1272.1881766872216
 30
0.0
 41
1.0
 10
944.94535375571081
 20
-1272.1882882901264
 30
0.0
 41
1.0
 10
945.02989604653919
 20
-1272.239598352015
 30
0.0
 41
0.9988642743805237
 10
945.10917058115797
 20
-1272.2987225395402
 30
0.0
 41
1.0
 10
945.18844511577709
 20
-1272.3578467270656
 30
0.0
 41
0.9987681233311242
 10
945.26146890005339
 20
-1272.4245374184663
 30
0.0
 41
1.0
 10
945.2617978280191
 20
-1272.4248378196803
 30
0.0
 41
1.0
 10
945.26212675598481
 20
-1272.4251382208945
 30
0.0
 41
1.0
 10
945.33580839619231
 20
-1272.4924297147236
 30
0.0
 41
0.9987496570898801
 10
945.40240220151941
 20
-1272.5667425288102
 30
0.0
 41
1.0
 10
945.40317437127999
 20
-1272.5676042021682
 30
0.0
 41
1.0
 10
945.40394654104057
 20
-1272.5684658755263
 30
0.0
 41
1.0
 10
945.47208468588781
 20
-1272.6445020363274
 30
0.0
 41
0.9988147669826533
 10
945.53250694011274
 20
-1272.7268030431699
 30
0.0
 41
1.0
 10
945.53362626619094
 20
-1272.7283276745229
 30
0.0
 41
1.0
 10
945.53474559226913
 20
-1272.7298523058762
 30
0.0
 41
1.0
 10
945.59740649864955
 20
-1272.8152025754237
 30
0.0
 41
0.9989452636216141
 10
945.65197341161104
 20
-1272.9059412645815
 30
0.0
 41
1.0
 10
945.6533221376967
 20
-1272.9081840456076
 30
0.0
 41
1.0
 10
945.65467086378226
 20
-1272.9104268266337
 30
0.0
 41
1.0
 10
945.71193522891485
 20
-1273.0056510778438
 30
0.0
 41
0.9991046436070412
 10
945.76094444223747
 20
-1273.1053755108712
 30
0.0
 41
1.0
 10
945.76240830382699
 20
-1273.1083541909429
 30
0.0
 41
1.0
 10
945.76387216541661
 20
-1273.1113328710144
 30
0.0
 41
1.0
 10
945.81580910191849
 20
-1273.2170146641859
 30
0.0
 41
0.9992763831101611
 10
945.85956223047424
 20
-1273.3263387261427
 30
0.0
 41
1.0
 10
945.86104150013716
 20
-1273.3300349136753
 30
0.0
 41
1.0
 10
945.86252076980008
 20
-1273.3337311012081
 30
0.0
 41
1.0
 10
945.90923243768168
 20
-1273.4504475382314
 30
0.0
 41
0.9994163472884043
 10
945.94786546887065
 20
-1273.5700811266925
 30
0.0
 41
1.0
 10
945.94910362111807
 20
-1273.5739152704773
 30
0.0
 41
1.0
 10
945.95034177336549
 20
-1273.5777494142621
 30
0.0
 41
1.0
 10
945.99022533438188
 20
-1273.7012554757375
 30
0.0
 41
0.9997268055891129
 10
946.02429339029436
 20
-1273.8264905076899
 30
0.0
 41
1.0
 10
946.02522357056375
 20
-1273.829909873798
 30
0.0
 41
1.0
 10
946.02615375083315
 20
-1273.8333292399063
 30
0.0
 41
1.0
 10
946.05836144620616
 20
-1273.9517255396397
 30
0.0
 41
0.9996701319000749
 10
946.08444706297678
 20
-1274.0716194929041
 30
0.0
 41
1.0
 10
946.11053267974785
 20
-1274.1915134461701
 30
0.0
 41
0.9995785451109355
 10
946.12961625708795
 20
-1274.3127192072047
 30
0.0
 41
1.0
 10
946.13383603926115
 20
-1274.3395203619666
 30
0.0
 41
1.0
 10
946.13805582143436
 20
-1274.3663215167282
 30
0.0
 41
1.0
 10
946.16463079737321
 20
-1274.5351074904329
 30
0.0
 41
0.9979925101216325
 10
946.16965638329941
 20
-1274.7058988185238
 30
0.0
 41
1.0
 10
946.17048119572405
 20
-1274.7339295420052
 30
0.0
 41
1.0
 10
946.17130600814869
 20
-1274.7619602654863
 30
0.0
 41
1.0
 10
946.17468196922584
 20
-1274.8766901466151
 30
0.0
 41
0.9995314902263194
 10
946.17103177708725
 20
-1274.9914116303676
 30
0.0
 41
1.0
 10
946.16738158494866
 20
-1275.1061331141188
 30
0.0
 41
0.9996245486944176
 10
946.15745248981796
 20
-1275.2204823852435
 30
0.0
 41
1.0
 10
946.15728944182365
 20
-1275.2223601413787
 30
0.0
 41
1.0
 10
946.15712639382946
 20
-1275.2242378975138
 30
0.0
 41
1.0
 10
946.14687120270969
 20
-1275.3423426809104
 30
0.0
 41
0.9997286095000868
 10
946.13112587913815
 20
-1275.459841589806
 30
0.0
 41
1.0
 10
946.13073238648803
 20
-1275.4627780145065
 30
0.0
 41
1.0
 10
946.13033889383792
 20
-1275.4657144392067
 30
0.0
 41
1.0
 10
946.11380658496682
 20
-1275.5890861974992
 30
0.0
 41
0.9998265533969816
 10
946.09269112623417
 20
-1275.7117566722875
 30
0.0
 41
1.0
 10
946.09201458409643
 20
-1275.7156870507979
 30
0.0
 41
1.0
 10
946.09133804195881
 20
-1275.7196174293085
 30
0.0
 41
1.0
 10
946.06886949895136
 20
-1275.8501486611149
 30
0.0
 41
0.9999022530851953
 10
946.0427600343412
 20
-1275.9800006297544
 30
0.0
 41
1.0
 10
946.04178139317628
 20
-1275.9848677721398
 30
0.0
 41
1.0
 10
946.04080275201125
 20
-1275.9897349145251
 30
0.0
 41
1.0
 10
946.01273600506806
 20
-1276.1293211679495
 30
0.0
 41
0.9999524761938338
 10
945.98195303623356
 20
-1276.268333661113
 30
0.0
 41
1.0
 10
945.9806769290592
 20
-1276.2740964204104
 30
0.0
 41
1.0
 10
945.97940082188484
 20
-1276.2798591797077
 30
0.0
 41
1.0
 10
945.94606563869854
 20
-1276.4303971914792
 30
0.0
 41
0.9999813588717741
 10
945.91089463790593
 20
-1276.5805169041219
 30
0.0
 41
1.0
 10
945.90934071244806
 20
-1276.5871494945495
 30
0.0
 41
1.0
 10
945.9077867869903
 20
-1276.5937820849774
 30
0.0
 41
1.0
 10
945.86950793528104
 20
-1276.7571669784793
 30
0.0
 41
0.9999955237627469
 10
945.8302520572995
 20
-1276.9203198820903
 30
0.0
 41
1.0
 10
945.81797042166579
 20
-1276.9713640726104
 30
0.0
 41
1.0
 10
945.80568878603208
 20
-1277.0224082631307
 30
0.0
 41
1.0
 10
945.74186963678403
 20
-1277.2876495477781
 30
0.0
 41
0.9999993604774109
 10
945.67745068963688
 20
-1277.5527457983765
 30
0.0
 41
1.0
 10
945.67273185407885
 20
-1277.5721647064624
 30
0.0
 41
1.0
 10
945.66801301852081
 20
-1277.5915836145482
 30
0.0
 41
1.0
 10
945.5941564002577
 20
-1277.8955176813174
 30
0.0
 41
0.9999659914736995
 10
945.51529680437352
 20
-1278.1981922278724
 30
0.0
 41
1.0
 10
945.51034411544367
 20
-1278.2172013650518
 30
0.0
 41
1.0
 10
945.50539142651382
 20
-1278.2362105022312
 30
0.0
 41
1.0
 10
945.41662645276972
 20
-1278.5769033231454
 30
0.0
 41
0.9999441976024407
 10
945.32068341980698
 20
-1278.9156447484422
 30
0.0
 41
1.0
 10
945.30398290138044
 20
-1278.9746084609733
 30
0.0
 41
1.0
 10
945.28728238295389
 20
-1279.0335721735046
 30
0.0
 41
1.0
 10
945.15793831314215
 20
-1279.490241023849
 30
0.0
 41
0.9999625120733445
 10
945.02070554581849
 20
-1279.9446015578462
 30
0.0
 41
1.0
 10
944.98491560272782
 20
-1280.0630975844988
 30
0.0
 41
1.0
 10
944.94912565963705
 20
-1280.1815936111511
 30
0.0
 41
1.0
 10
944.87460545560293
 20
-1280.4283206892301
 30
0.0
 41
0.9999793386319124
 10
944.79691943247121
 20
-1280.6740693284473
 30
0.0
 41
1.0
 10
944.7192334093337
 20
-1280.9198179676835
 30
0.0
 41
1.0
 10
944.708453850463
 20
-1280.9538358720581
 30
0.0
 41
1.0
 10
942.85808079719391
 20
-1286.8409077945257
 30
0.0
 41
1.0
 10
941.0077077439247
 20
-1292.7279797169931
 30
0.0
 41
1.0
 10
940.04645105390114
 20
-1292.7279797169931
 30
0.0
 41
1.0
 10
939.08519436387758
 20
-1292.7279797169931
 30
0.0
 41
1.0
 10
940.70413914255596
 20
-1287.5799512152037
 30
0.0
 41
1.0
 10
942.32308392123446
 20
-1282.4319227134142
 30
0.0
 41
1.0
 10
942.36824974441424
 20
-1282.2878914911269
 30
0.0
 41
1.0
 10
942.41341556759403
 20
-1282.1438602688395
 30
0.0
 41
1.0
 10
942.58371998495204
 20
-1281.6007692396925
 30
0.0
 41
0.9999911657882764
 10
942.74945279662597
 20
-1281.0562657083483
 30
0.0
 41
1.0
 10
942.77914874012822
 20
-1280.958701768292
 30
0.0
 41
1.0
 10
942.80884468363047
 20
-1280.8611378282355
 30
0.0
 41
1.0
 10
942.91518560830821
 20
-1280.5117621769782
 30
0.0
 41
0.9999952428193707
 10
943.01936919763125
 20
-1280.1617371526349
 30
0.0
 41
1.0
 10
943.02442866795548
 20
-1280.1447388783877
 30
0.0
 41
1.0
 10
943.0294881382797
 20
-1280.1277406041402
 30
0.0
 41
1.0
 10
943.12355278694929
 20
-1279.811712128308
 30
0.0
 41
0.9999931687465478
 10
943.21527862482981
 20
-1279.494996915015
 30
0.0
 41
1.0
 10
943.22021388928897
 20
-1279.4779562057452
 30
0.0
 41
1.0
 10
943.22514915374813
 20
-1279.4609154964753
 30
0.0
 41
1.0
 10
943.30700446270021
 20
-1279.1782817017561
 30
0.0
 41
0.9999893840818839
 10
943.3862516891603
 20
-1278.8949055724979
 30
0.0
 41
1.0
 10
943.46549891561563
 20
-1278.6115294432566
 30
0.0
 41
0.9999833980071855
 10
943.54147515635339
 20
-1278.3272588602438
 30
0.0
 41
1.0
 10
943.55047909307996
 20
-1278.2935699817494
 30
0.0
 41
1.0
 10
943.55948302980642
 20
-1278.2598811032551
 30
0.0
 41
1.0
 10
943.62844757867265
 20
-1278.0018452709587
 30
0.0
 41
0.9999233658068563
 10
943.69100254989064
 20
-1277.7421811122449
 30
0.0
 41
1.0
 10
943.75355752111091
 20
-1277.4825169535225
 30
0.0
 41
1.0
 10
943.79304093996848
 20
-1277.3187102890963
 30
0.0
 41
1.0
 10
943.7980195439427
 20
-1277.2980553272382
 30
0.0
 41
1.0
 10
943.80299814791704
 20
-1277.2774003653801
 30
0.0
 41
1.0
 10
943.83252435882378
 20
-1277.1549036246799
 30
0.0
 41
0.9999868670850101
 10
943.86079344282223
 20
-1277.0321106790248
 30
0.0
 41
1.0
 10
943.86469092998459
 20
-1277.0151810915872
 30
0.0
 41
1.0
 10
943.86858841714707
 20
-1276.9982515041497
 30
0.0
 41
1.0
 10
943.8890625268225
 20
-1276.9093177333618
 30
0.0
 41
0.9999778173347331
 10
943.9083501249338
 20
-1276.8201191161488
 30
0.0
 41
1.0
 10
943.92763772305011
 20
-1276.7309204989153
 30
0.0
 41
0.9999602692868953
 10
943.94533208168241
 20
-1276.6413922104803
 30
0.0
 41
1.0
 10
943.94853591375886
 20
-1276.6251817556004
 30
0.0
 41
1.0
 10
943.95173974583531
 20
-1276.6089713007207
 30
0.0
 41
1.0
 10
943.97584176862176
 20
-1276.4870221025212
 30
0.0
 41
0.9995617985319965
 10
943.99268511584046
 20
-1276.3638603548138
 30
0.0
 41
1.0
 10
943.99514960574629
 20
-1276.345839537451
 30
0.0
 41
1.0
 10
943.99761409565212
 20
-1276.3278187200881
 30
0.0
 41
1.0
 10
944.01789735670059
 20
-1276.1795036703859
 30
0.0
 41
0.9991121410639693
 10
944.0256227102891
 20
-1276.0300075715782
 30
0.0
 41
1.0
 10
944.02654150031367
 20
-1276.0122277350029
 30
0.0
 41
1.0
 10
944.02746029033813
 20
-1275.9944478984276
 30
0.0
 41
1.0
 10
944.03334806387716
 20
-1275.8805114727741
 30
0.0
 41
0.998979249490619
 10
944.02892897176002
 20
-1275.7665086368738
 30
0.0
 41
1.0
 10
944.02828099989142
 20
-1275.7497923909486
 30
0.0
 41
1.0
 10
944.02763302802293
 20
-1275.7330761450237
 30
0.0
 41
1.0
 10
944.02450987964278
 20
-1275.6525058009745
 30
0.0
 41
0.999782029539269
 10
944.01802588226701
 20
-1275.5721360792313
 30
0.0
 41
1.0
 10
944.01154188489159
 20
-1275.4917663574897
 30
0.0
 41
0.9998335105972758
 10
944.00212968938013
 20
-1275.4116867410419
 30
0.0
 41
1.0
 10
944.0005347647035
 20
-1275.3981170105567
 30
0.0
 41
1.0
 10
943.99893984002688
 20
-1275.3845472800713
 30
0.0
 41
1.0
 10
943.98633779516274
 20
-1275.2773282026562
 30
0.0
 41
0.9996876457879326
 10
943.96839388236458
 20
-1275.1708727749417
 30
0.0
 41
1.0
 10
943.9661622192192
 20
-1275.1576330396992
 30
0.0
 41
1.0
 10
943.96393055607382
 20
-1275.1443933044566
 30
0.0
 41
1.0
 10
943.95013473465247
 20
-1275.0625471604974
 30
0.0
 41
0.9995547496495519
 10
943.93148141275992
 20
-1274.9816696633059
 30
0.0
 41
1.0
 10
943.93110745588888
 20
-1274.9800482526016
 30
0.0
 41
1.0
 10
943.93073349901783
 20
-1274.9784268418971
 30
0.0
 41
1.0
 10
943.91282809086761
 20
-1274.9007921661157
 30
0.0
 41
0.9994899427175379
 10
943.89000318218791
 20
-1274.8244588832804
 30
0.0
 41
1.0
 10
943.8895446554468
 20
-1274.8229254334906
 30
0.0
 41
1.0
 10
943.88908612870569
 20
-1274.821391983701
 30
0.0
 41
1.0
 10
943.86717827350833
 20
-1274.7481256004451
 30
0.0
 41
0.9993784877590231
 10
943.84016263840203
 20
-1274.6765848952869
 30
0.0
 41
1.0
 10
943.83963094742512
 20
-1274.6751769125663
 30
0.0
 41
1.0
 10
943.83909925644821
 20
-1274.6737689298457
 30
0.0
 41
1.0
 10
943.81314700329528
 20
-1274.6050441901273
 30
0.0
 41
0.9992430832254525
 10
943.78193046813612
 20
-1274.5385450380595
 30
0.0
 41
1.0
 10
943.7813483520797
 20
-1274.5373049829427
 30
0.0
 41
1.0
 10
943.78076623602328
 20
-1274.5360649278257
 30
0.0
 41
1.0
 10
943.75071393297685
 20
-1274.4720458859917
 30
0.0
 41
0.9990789632799295
 10
943.71528330620004
 20
-1274.4108392742417
 30
0.0
 41
1.0
 10
943.71468760001767
 20
-1274.4098101883819
 30
0.0
 41
1.0
 10
943.71409189383542
 20
-1274.4087811025222
 30
0.0
 41
1.0
 10
943.67985267942231
 20
-1274.3496326624902
 30
0.0
 41
0.9988874801120632
 10
943.64019340339132
 20
-1274.293972950074
 30
0.0
 41
1.0
 10
943.63963787732769
 20
-1274.2931932984002
 30
0.0
 41
1.0
 10
943.63908235126394
 20
-1274.2924136467261
 30
0.0
 41
1.0
 10
943.60053412736033
 20
-1274.2383132376576
 30
0.0
 41
0.998676206069311
 10
943.55663165608303
 20
-1274.1884595232173
 30
0.0
 41
1.0
 10
943.55618769575131
 20
-1274.187955381401
 30
0.0
 41
1.0
 10
943.55574373541958
 20
-1274.187451239585
 30
0.0
 41
1.0
 10
943.51272918480731
 20
-1274.1386058087785
 30
0.0
 41
0.9984621642488807
 10
943.46457162802903
 20
-1274.0948225083068
 30
0.0
 41
1.0
 10
943.46432499351272
 20
-1274.0945982761436
 30
0.0
 41
1.0
 10
943.46407835899629
 20
-1274.0943740439802
 30
0.0
 41
1.0
 10
943.41641407125087
 20
-1274.0510392078354
 30
0.0
 41
0.998272469385192
 10
943.36399543940979
 20
-1274.0135948573179
 30
0.0
 41
1.0
 10
943.31157680756894
 20
-1273.9761505068006
 30
0.0
 41
0.9981399180158652
 10
943.25499074417519
 20
-1273.945363987357
 30
0.0
 41
1.0
 10
943.25494508209658
 20
-1273.9453391441998
 30
0.0
 41
1.0
 10
943.25489942001809
 20
-1273.9453143010426
 30
0.0
 41
1.0
 10
943.19822203246781
 20
-1273.9144780952847
 30
0.0
 41
0.9980927086837029
 10
943.13817668140155
 20
-1273.8908612864323
 30
0.0
 41
1.0
 10
943.13773651168981
 20
-1273.8906881605571
 30
0.0
 41
1.0
 10
943.13729634197807
 20
-1273.8905150346823
 30
0.0
 41
1.0
 10
943.07637065148765
 20
-1273.8665519740796
 30
0.0
 41
0.9981411356560805
 10
943.01298213008727
 20
-1273.8501793325738
 30
0.0
 41
1.0
 10
943.01210001338666
 20
-1273.8499514903685
 30
0.0
 41
1.0
 10
943.01121789668605
 20
-1273.8497236481633
 30
0.0
 41
1.0
 10
942.9460651418832
 20
-1273.8328953222465
 30
0.0
 41
0.9983031812935216
 10
942.87939771288757
 20
-1273.8237559610702
 30
0.0
 41
1.0
 10
942.87052668748595
 20
-1273.8225398423992
 30
0.0
 41
1.0
 10
942.86165566208433
 20
-1273.8213237237283
 30
0.0
 41
1.0
 10
942.80730601957862
 20
-1273.813872993737
 30
0.0
 41
0.9983887708263813
 10
942.75246217028428
 20
-1273.8126283201036
 30
0.0
 41
1.0
 10
942.74439876507051
 20
-1273.8124453222288
 30
0.0
 41
1.0
 10
942.73633535985675
 20
-1273.8122623243539
 30
0.0
 41
1.0
 10
942.69761832099516
 20
-1273.8113836464702
 30
0.0
 41
0.9998869563076511
 10
942.65889236778878
 20
-1273.8116695158299
 30
0.0
 41
1.0
 10
942.62016641454193
 20
-1273.8119553851898
 30
0.0
 41
0.9999972320085628
 10
942.58144223528654
 20
-1273.8124234847196
 30
0.0
 41
1.0
 10
942.562089218751
 20
-1273.8126574248085
 30
0.0
 41
1.0
 10
942.54273620221534
 20
-1273.8128913648975
 30
0.0
 41
1.0
 10
942.4653059898435
 20
-1273.8138273446052
 30
0.0
 41
0.9997304945087551
 10
942.38800268360478
 20
-1273.8183564383912
 30
0.0
 41
1.0
 10
942.3789530419017
 20
-1273.8188866443811
 30
0.0
 41
1.0
 10
942.3699034001985
 20
-1273.819416850371
 30
0.0
 41
1.0
 10
942.2745008105511
 20
-1273.825006356137
 30
0.0
 41
0.9997888306415476
 10
942.17940847470788
 20
-1273.8345113206265
 30
0.0
 41
1.0
 10
942.17068741313608
 20
-1273.8353830352585
 30
0.0
 41
1.0
 10
942.16196635156427
 20
-1273.8362547498905
 30
0.0
 41
1.0
 10
942.0494318925754
 20
-1273.8475031436437
 30
0.0
 41
0.998417023819027
 10
941.93887274522331
 20
-1273.8713192255798
 30
0.0
 41
1.0
 10
941.90249161423731
 20
-1273.8791562613858
 30
0.0
 41
1.0
 10
941.86611048325142
 20
-1273.8869932971918
 30
0.0
 41
1.0
 10
941.75091941483038
 20
-1273.9118071637013
 30
0.0
 41
0.9976592854198687
 10
941.64019124842548
 20
-1273.9521058408486
 30
0.0
 41
1.0
 10
941.52946308201967
 20
-1273.992404517996
 30
0.0
 41
0.9993255074351625
 10
941.42199128322716
 20
-1274.0407214164893
 30
0.0
 41
1.0
 10
941.41736610430507
 20
-1274.0428007926885
 30
0.0
 41
1.0
 10
941.4127409253831
 20
-1274.0448801688876
 30
0.0
 41
1.0
 10
941.29601876874528
 20
-1274.0973558197798
 30
0.0
 41
0.9976475078274926
 10
941.18757142443451
 20
-1274.1653038094382
 30
0.0
 41
1.0
 10
941.16922903030127
 20
-1274.1767962882518
 30
0.0
 41
1.0
 10
941.15088663616814
 20
-1274.1882887670652
 30
0.0
 41
1.0
 10
941.06668444461548
 20
-1274.2410458878339
 30
0.0
 41
0.9995131336406915
 10
940.98593672965615
 20
-1274.2989520997885
 30
0.0
 41
1.0
 10
940.9051890146992
 20
-1274.3568583117412
 30
0.0
 41
0.9995810107606254
 10
940.82792736697081
 20
-1274.4193399942069
 30
0.0
 41
1.0
 10
940.82495733576025
 20
-1274.4217418656717
 30
0.0
 41
1.0
 10
940.82198730454979
 20
-1274.4241437371365
 30
0.0
 41
1.0
 10
940.73878559440129
 20
-1274.4914291625314
 30
0.0
 41
0.9996617837954557
 10
940.65919490726583
 20
-1274.5629496180914
 30
0.0
 41
1.0
 10
940.6470641563883
 20
-1274.5738503510825
 30
0.0
 41
1.0
 10
940.63493340551065
 20
-1274.5847510840738
 30
0.0
 41
1.0
 10
940.56665787811448
 20
-1274.6461036995456
 30
0.0
 41
0.9997267750052974
 10
940.5013243698304
 20
-1274.7105802360716
 30
0.0
 41
1.0
 10
940.43599086154632
 20
-1274.7750567725971
 30
0.0
 41
0.9999667288965898
 10
940.37171791839887
 20
-1274.8405905794923
 30
0.0
 41
1.0
 10
940.30289047062433
 20
-1274.9107682382501
 30
0.0
 41
1.0
 10
940.2340630228498
 20
-1274.9809458970076
 30
0.0
 41
1.0
 10
940.03213518415453
 20
-1275.1868350214168
 30
0.0
 41
0.998820533517514
 10
939.85112956717626
 20
-1275.4113392534757
 30
0.0
 41
1.0
 10
939.82048960227019
 20
-1275.4493425039072
 30
0.0
 41
1.0
 10
939.78984963736411
 20
-1275.487345754339
 30
0.0
 41
1.0
 10
939.54756409057325
 20
-1275.7878564872619
 30
0.0
 41
0.9997077826754861
 10
939.32008613946687
 20
-1276.0997262814801
 30
0.0
 41
1.0
 10
939.31836272433793
 20
-1276.1020890648574
 30
0.0
 41
1.0
 10
939.31663930920899
 20
-1276.1044518482349
 30
0.0
 41
1.0
 10
939.08571452784452
 20
-1276.4210472092082
 30
0.0
 41
0.9989147567078999
 10
938.88525102496089
 20
-1276.7577566703926
 30
0.0
 41
1.0
 10
938.86050987965189
 20
-1276.7993132509487
 30
0.0
 41
1.0
 10
938.83576873434288
 20
-1276.8408698315045
 30
0.0
 41
1.0
 10
938.68055743570767
 20
-1277.1015712159538
 30
0.0
 41
0.9997476598181253
 10
938.53721244819849
 20
-1277.3689809645352
 30
0.0
 41
1.0
 10
938.39386746068806
 20
-1277.6363907131192
 30
0.0
 41
0.9996258967109512
 10
938.26535920875733
 20
-1277.9112386497413
 30
0.0
 41
1.0
 10
938.25215929930755
 20
-1277.9394700498372
 30
0.0
 41
1.0
 10
938.23895938985777
 20
-1277.967701449933
 30
0.0
 41
1.0
 10
938.09875066885945
 20
-1278.2675738478827
 30
0.0
 41
0.9998735413945121
 10
937.96814932213738
 20
-1278.5717534473542
 30
0.0
 41
1.0
 10
937.96470649407593
 20
-1278.579772032821
 30
0.0
 41
1.0
 10
937.96126366601459
 20
-1278.5877906182877
 30
0.0
 41
1.0
 10
937.8375479754186
 20
-1278.8759330468183
 30
0.0
 41
0.9999377418864015
 10
937.72029317324223
 20
-1279.1667645144967
 30
0.0
 41
1.0
 10
937.60303837106551
 20
-1279.4575959821764
 30
0.0
 41
0.9999508299509609
 10
937.49157442768796
 20
-1279.7506956589989
 30
0.0
 41
1.0
 10
937.4884936590264
 20
-1279.7587966849605
 30
0.0
 41
1.0
 10
937.48541289036484
 20
-1279.766897710922
 30
0.0
 41
1.0
 10
937.3677874096644
 20
-1280.0761994396657
 30
0.0
 41
0.9999609228431653
 10
937.25564880679542
 20
-1280.3875324556675
 30
0.0
 41
1.0
 10
937.25269279644226
 20
-1280.3957392960865
 30
0.0
 41
1.0
 10
937.24973678608922
 20
-1280.4039461365055
 30
0.0
 41
1.0
 10
937.13168616251278
 20
-1280.7316928333489
 30
0.0
 41
0.9999674607402643
 10
937.01893863644489
 20
-1281.0613014533435
 30
0.0
 41
1.0
 10
936.96754024588472
 20
-1281.2115606490288
 30
0.0
 41
1.0
 10
936.91614185532444
 20
-1281.3618198447141
 30
0.0
 41
1.0
 10
936.80013124856566
 20
-1281.7009678272198
 30
0.0
 41
0.9999287532307414
 10
936.69224984459424
 20
-1282.0427885661975
 30
0.0
 41
1.0
 10
936.64577258847521
 20
-1282.1900511105046
 30
0.0
 41
1.0
 10
936.59929533235606
 20
-1282.3373136548116
 30
0.0
 41
1.0
 10
936.5843684406691
 20
-1282.3846093050288
 30
0.0
 41
0.9999998223906256
 10
936.56949793189301
 20
-1282.4319227134142
 30
0.0
 41
1.0
 10
934.94884179509756
 20
-1287.5799512152037
 30
0.0
 41
1.0
 10
933.32818565830212
 20
-1292.7279797169931
 30
0.0
 41
1.0
 10
932.42287721441119
 20
-1292.7279797169931
 30
0.0
 41
1.0
 10
931.51756877052026
 20
-1292.7279797169931
 30
0.0
 41
1.0
 10
933.3696531819063
 20
-1286.8409077945257
 30
0.0
 41
1.0
 10
935.22173759329235
 20
-1280.9538358720581
 30
0.0
 41
1.0
 10
935.23185935159506
 20
-1280.9217926586084
 30
0.0
 41
1.0
 10
935.3044670204448
 20
-1280.6914931167826
 30
0.0
 41
1.0
 10
935.37707468929659
 20
-1280.4611935749504
 30
0.0
 41
0.9999825681973988
 10
935.44695772851026
 20
-1280.2300526798779
 30
0.0
 41
1.0
 10
935.49524879066848
 20
-1280.0703280963903
 30
0.0
 41
1.0
 10
935.54353985282671
 20
-1279.910603512903
 30
0.0
 41
1.0
 10
935.64069220614124
 20
-1279.5892682911358
 30
0.0
 41
0.9999672528966247
 10
935.7326310117669
 20
-1279.2664027455417
 30
0.0
 41
1.0
 10
935.73541989542923
 20
-1279.256608900178
 30
0.0
 41
1.0
 10
935.73820877909145
 20
-1279.2468150548141
 30
0.0
 41
1.0
 10
935.82456981738642
 20
-1278.9435371999687
 30
0.0
 41
0.9999899749146598
 10
935.90821142692494
 20
-1278.6394981115031
 30
0.0
 41
1.0
 10
935.91831734594246
 20
-1278.6027628738248
 30
0.0
 41
1.0
 10
935.92842326495997
 20
-1278.5660276361464
 30
0.0
 41
1.0
 10
935.99185303645891
 20
-1278.3354590230529
 30
0.0
 41
0.999921420050221
 10
936.04948246483741
 20
-1278.1033726808414
 30
0.0
 41
1.0
 10
936.06224831702048
 20
-1278.0519617954351
 30
0.0
 41
1.0
 10
936.07501416920354
 20
-1278.0005509100288
 30
0.0
 41
1.0
 10
936.10711189321501
 20
-1277.8712863386324
 30
0.0
 41
0.9999828681675399
 10
936.1376941452105
 20
-1277.7416548641645
 30
0.0
 41
1.0
 10
936.16827639720327
 20
-1277.6120233897077
 30
0.0
 41
0.9999389844483548
 10
936.19598738599063
 20
-1277.481747933818
 30
0.0
 41
1.0
 10
936.20312512971304
 20
-1277.44819182997
 30
0.0
 41
1.0
 10
936.21026287343557
 20
-1277.414635726122
 30
0.0
 41
1.0
 10
936.25224934966684
 20
-1277.2172480625393
 30
0.0
 41
0.9998933699441034
 10
936.288453614069
 20
-1277.0187184547804
 30
0.0
 41
1.0
 10
936.28982643928452
 20
-1277.0111904340879
 30
0.0
 41
1.0
 10
936.29119926450016
 20
-1277.0036624133954
 30
0.0
 41
1.0
 10
936.33014917933508
 20
-1276.7900767642441
 30
0.0
 41
0.9996850305193759
 10
936.35833285559374
 20
-1276.5748057588078
 30
0.0
 41
1.0
 10
936.36032788896284
 20
-1276.5595674046872
 30
0.0
 41
1.0
 10
936.36232292233194
 20
-1276.5443290505666
 30
0.0
 41
1.0
 10
936.38973078479125
 20
-1276.3349838234101
 30
0.0
 41
0.999469793670707
 10
936.40345534401104
 20
-1276.1242986280777
 30
0.0
 41
1.0
 10
936.40393241326069
 20
-1276.1169751558668
 30
0.0
 41
1.0
 10
936.40440948251035
 20
-1276.109651683656
 30
0.0
 41
1.0
 10
936.41717990323059
 20
-1275.9136134327475
 30
0.0
 41
0.9991804893137241
 10
936.41405158695784
 20
-1275.7171845827736
 30
0.0
 41
1.0
 10
936.41396770813571
 20
-1275.7119177813611
 30
0.0
 41
1.0
 10
936.41388382931359
 20
-1275.7066509799483
 30
0.0
 41
1.0
 10
936.41092327068509
 20
-1275.5207557328001
 30
0.0
 41
0.9988448329321498
 10
936.39013172506134
 20
-1275.3360031429668
 30
0.0
 41
1.0
 10
936.38853765135832
 20
-1275.3218382871958
 30
0.0
 41
1.0
 10
936.3869435776553
 20
-1275.3076734314247
 30
0.0
 41
1.0
 10
936.36934017943759
 20
-1275.1512505531339
 30
0.0
 41
0.9985503209458699
 10
936.33502390713807
 20
-1274.9976263690442
 30
0.0
 41
1.0
 10
936.32743791506709
 20
-1274.9636660416454
 30
0.0
 41
1.0
 10
936.31985192299624
 20
-1274.9297057142464
 30
0.0
 41
1.0
 10
936.300707634839
 20
-1274.8440021849576
 30
0.0
 41
0.9991036781371003
 10
936.2743827731872
 20
-1274.7602250976299
 30
0.0
 41
1.0
 10
936.27040054773101
 20
-1274.7475519351187
 30
0.0
 41
1.0
 10
936.26641832227483
 20
-1274.7348787726075
 30
0.0
 41
1.0
 10
936.24805791153574
 20
-1274.6764480103041
 30
0.0
 41
0.9998874504368696
 10
936.22795270385768
 20
-1274.6185944080817
 30
0.0
 41
1.0
 10
936.20784749617826
 20
-1274.5607408058563
 30
0.0
 41
0.9994041637544384
 10
936.18379888324409
 20
-1274.5044121019664
 30
0.0
 41
1.0
 10
936.17960209902037
 20
-1274.4945820374853
 30
0.0
 41
1.0
 10
936.17540531479665
 20
-1274.4847519730042
 30
0.0
 41
1.0
 10
936.14752648380215
 20
-1274.4194518070371
 30
0.0
 41
0.9991846840701656
 10
936.11447012710926
 20
-1274.3566137757573
 30
0.0
 41
1.0
 10
936.11333352071449
 20
-1274.3544531593031
 30
0.0
 41
1.0
 10
936.11219691431972
 20
-1274.352292542849
 30
0.0
 41
1.0
 10
936.08141377041682
 20
-1274.2937757444784
 30
0.0
 41
0.9989253167923567
 10
936.04534434636116
 20
-1274.2383608160867
 30
0.0
 41
1.0
 10
936.04429022168711
 20
-1274.2367413213246
 30
0.0
 41
1.0
 10
936.04323609701316
 20
-1274.2351218265628
 30
0.0
 41
1.0
 10
936.00927492230687
 20
-1274.1829458876978
 30
0.0
 41
0.9986467172838246
 10
935.97007776966893
 20
-1274.1345798540669
 30
0.0
 41
1.0
 10
935.9692036409682
 20
-1274.1335012517889
 30
0.0
 41
1.0
 10
935.96832951226747
 20
-1274.1324226495105
 30
0.0
 41
1.0
 10
935.93088061703133
 20
-1274.0862138204373
 30
0.0
 41
0.998400110426685
 10
935.8884538865143
 20
-1274.0445287130688
 30
0.0
 41
1.0
 10
935.88786674840503
 20
-1274.0439518381877
 30
0.0
 41
1.0
 10
935.88727961029588
 20
-1274.0433749633066
 30
0.0
 41
1.0
 10
935.84602715599783
 20
-1274.0028436057005
 30
0.0
 41
0.9982442159082329
 10
935.80027105466161
 20
-1273.9674750444397
 30
0.0
 41
1.0
 10
935.80005625919966
 20
-1273.9673090117963
 30
0.0
 41
1.0
 10
935.79984146373772
 20
-1273.9671429791529
 30
0.0
 41
1.0
 10
935.75451495332584
 20
-1273.9321064831795
 30
0.0
 41
0.9982450060837329
 10
935.70536397425417
 20
-1273.9026747001458
 30
0.0
 41
1.0
 10
935.65621299518284
 20
-1273.8732429171125
 30
0.0
 41
0.9983922639635626
 10
935.60404668901776
 20
-1273.8495632824583
 30
0.0
 41
1.0
 10
935.60381981169326
 20
-1273.8494602969768
 30
0.0
 41
1.0
 10
935.60359293436863
 20
-1273.8493573114954
 30
0.0
 41
1.0
 10
935.55097287355466
 20
-1273.8254717058785
 30
0.0
 41
0.9986517147149977
 10
935.49615990068673
 20
-1273.8071705867567
 30
0.0
 41
1.0
 10
935.49548197925901
 20
-1273.8069442403253
 30
0.0
 41
1.0
 10
935.49480405783129
 20
-1273.8067178938938
 30
0.0
 41
1.0
 10
935.43863524210735
 20
-1273.7879640819092
 30
0.0
 41
0.9989435598956645
 10
935.38098185495573
 20
-1273.7744463796746
 30
0.0
 41
1.0
 10
935.37990173537423
 20
-1273.7741931294217
 30
0.0
 41
1.0
 10
935.37882161579273
 20
-1273.7739398791687
 30
0.0
 41
1.0
 10
935.31900798947754
 20
-1273.7599156764281
 30
0.0
 41
0.9992249241240742
 10
935.25827648058032
 20
-1273.7506403337127
 30
0.0
 41
1.0
 10
935.25686279228944
 20
-1273.750424425305
 30
0.0
 41
1.0
 10
935.25544910399856
 20
-1273.7502085168971
 30
0.0
 41
1.0
 10
935.19189021851855
 20
-1273.7405013573664
 30
0.0
 41
0.9994396597833952
 10
935.12782428198057
 20
-1273.7350684350206
 30
0.0
 41
1.0
 10
935.10868361450355
 20
-1273.7334452673022
 30
0.0
 41
1.0
 10
935.08954294702653
 20
-1273.7318220995835
 30
0.0
 41
1.0
 10
934.98719567553417
 20
-1273.7231428418004
 30
0.0
 41
0.998769340312155
 10
934.8844920519474
 20
-1273.7246459052528
 30
0.0
 41
1.0
 10
934.87423771771842
 20
-1273.724795977027
 30
0.0
 41
1.0
 10
934.86398338348943
 20
-1273.7249460488013
 30
0.0
 41
1.0
 10
934.75442761731222
 20
-1273.7265493930888
 30
0.0
 41
0.9989753644966141
 10
934.64546561729708
 20
-1273.7380524000141
 30
0.0
 41
1.0
 10
934.53650361727944
 20
-1273.7495554069394
 30
0.0
 41
0.9983190067305373
 10
934.42960480631359
 20
-1273.7735903987264
 30
0.0
 41
1.0
 10
934.42070385470788
 20
-1273.775591677289
 30
0.0
 41
1.0
 10
934.41180290310217
 20
-1273.7775929558513
 30
0.0
 41
1.0
 10
934.28710218892331
 20
-1273.8056305047635
 30
0.0
 41
0.9985539388302972
 10
934.16613243524512
 20
-1273.8468941808094
 30
0.0
 41
1.0
 10
934.16378700428515
 20
-1273.8476942246252
 30
0.0
 41
1.0
 10
934.16144157332519
 20
-1273.8484942684408
 30
0.0
 41
1.0
 10
934.03578095772764
 20
-1273.8913580321178
 30
0.0
 41
0.9988468746493737
 10
933.91481061542822
 20
-1273.9460761171795
 30
0.0
 41
1.0
 10
933.91162779343858
 20
-1273.94751579174
 30
0.0
 41
1.0
 10
933.90844497144894
 20
-1273.9489554663003
 30
0.0
 41
1.0
 10
933.78110898517116
 20
-1274.0065529004826
 30
0.0
 41
0.9991322885918755
 10
933.6590084011151
 20
-1274.0745482326643
 30
0.0
 41
1.0
 10
933.64140639006996
 20
-1274.0843504346547
 30
0.0
 41
1.0
 10
933.62380437902482
 20
-1274.094152636645
 30
0.0
 41
1.0
 10
933.52162769796848
 20
-1274.1510527524251
 30
0.0
 41
0.9993860037849144
 10
933.423686693896
 20
-1274.2149687680133
 30
0.0
 41
1.0
 10
933.41806838104276
 20
-1274.2186352627086
 30
0.0
 41
1.0
 10
933.41245006818951
 20
-1274.2223017574042
 30
0.0
 41
1.0
 10
933.32574568982352
 20
-1274.2788847836011
 30
0.0
 41
0.9998821494955138
 10
933.24081931400974
 20
-1274.3381030136784
 30
0.0
 41
1.0
 10
933.15589293819244
 20
-1274.3973212437584
 30
0.0
 41
0.9997976482744052
 10
933.07341730778421
 20
-1274.4599076518039
 30
0.0
 41
1.0
 10
933.05878104298381
 20
-1274.4710143415803
 30
0.0
 41
1.0
 10
933.04414477818352
 20
-1274.4821210313567
 30
0.0
 41
1.0
 10
932.93239661817063
 20
-1274.5669208189577
 30
0.0
 41
0.9998091630799529
 10
932.82404634014642
 20
-1274.656021169656
 30
0.0
 41
1.0
 10
932.81104058766709
 20
-1274.6667162701037
 30
0.0
 41
1.0
 10
932.79803483518776
 20
-1274.6774113705515
 30
0.0
 41
1.0
 10
932.66367305220615
 20
-1274.7879019221448
 30
0.0
 41
0.9995035112317322
 10
932.53653717444479
 20
-1274.9066357391573
 30
0.0
 41
1.0
 10
932.5268898640561
 20
-1274.9156454853164
 30
0.0
 41
1.0
 10
932.5172425536673
 20
-1274.9246552314758
 30
0.0
 41
1.0
 10
932.39381949090239
 20
-1275.0399216032315
 30
0.0
 41
0.9994630424299369
 10
932.2782110851183
 20
-1275.1630243464667
 30
0.0
 41
1.0
 10
932.2745282463477
 20
-1275.1669459259788
 30
0.0
 41
1.0
 10
932.27084540757721
 20
-1275.1708675054908
 30
0.0
 41
1.0
 10
932.16260267933535
 20
-1275.2861270897006
 30
0.0
 41
0.9995160693749906
 10
932.06173664980236
 20
-1275.4078945075744
 30
0.0
 41
1.0
 10
932.05980292972504
 20
-1275.4102289317784
 30
0.0
 41
1.0
 10
932.05786920964772
 20
-1275.4125633559825
 30
0.0
 41
1.0
 10
931.96087062027323
 20
-1275.5296619254436
 30
0.0
 41
0.9996561470514556
 10
931.87014440160453
 20
-1275.6516846878962
 30
0.0
 41
1.0
 10
931.86398673570034
 20
-1275.6599664769415
 30
0.0
 41
1.0
 10
931.85782906979614
 20
-1275.6682482659869
 30
0.0
 41
1.0
 10
931.77941818293448
 20
-1275.7737074503511
 30
0.0
 41
0.99983490551725
 10
931.70489090100637
 20
-1275.8819460340087
 30
0.0
 41
1.0
 10
931.63036361907075
 20
-1275.9901846176776
 30
0.0
 41
0.9999728109573848
 10
931.557440723166
 20
-1276.0995105432246
 30
0.0
 41
1.0
 10
931.55612550775322
 20
-1276.1014823127284
 30
0.0
 41
1.0
 10
931.55481029234056
 20
-1276.1034540822325
 30
0.0
 41
1.0
 10
931.47925696561629
 20
-1276.2167235467789
 30
0.0
 41
0.9999972147395209
 10
931.40423915525093
 20
-1276.3303483896011
 30
0.0
 41
1.0
 10
931.3992676126195
 20
-1276.3378784780871
 30
0.0
 41
1.0
 10
931.39429606998817
 20
-1276.345408566573
 30
0.0
 41
1.0
 10
931.30933517437552
 20
-1276.4740935863442
 30
0.0
 41
0.9999371979007919
 10
931.22727982497349
 20
-1276.6046505001177
 30
0.0
 41
1.0
 10
931.22377094060732
 20
-1276.6102334281898
 30
0.0
 41
1.0
 10
931.22026205624115
 20
-1276.6158163562618
 30
0.0
 41
1.0
 10
931.13118893811179
 20
-1276.7575391261717
 30
0.0
 41
0.9998272025611418
 10
931.0474455472314
 20
-1276.9024750029112
 30
0.0
 41
1.0
 10
931.03223037520684
 20
-1276.9288081173686
 30
0.0
 41
1.0
 10
931.01701520318238
 20
-1276.955141231826
 30
0.0
 41
1.0
 10
930.90284146825195
 20
-1277.1527433374827
 30
0.0
 41
0.9995217214838064
 10
930.80110177869619
 20
-1277.357025665345
 30
0.0
 41
1.0
 10
930.79345821606103
 20
-1277.372373115048
 30
0.0
 41
1.0
 10
930.78581465342586
 20
-1277.3877205647514
 30
0.0
 41
1.0
 10
930.69890936083664
 20
-1277.5622170228316
 30
0.0
 41
0.9998269762607343
 10
930.6185548945648
 20
-1277.7398253095548
 30
0.0
 41
1.0
 10
930.53820042829329
 20
-1277.9174335962766
 30
0.0
 41
0.9998944747386324
 10
930.46303963372668
 20
-1278.0973013219109
 30
0.0
 41
1.0
 10
930.45808596413485
 20
-1278.1091559768302
 30
0.0
 41
1.0
 10
930.45313229454291
 20
-1278.1210106317492
 30
0.0
 41
1.0
 10
930.37248523399148
 20
-1278.3140075717643
 30
0.0
 41
0.999950673441408
 10
930.29568770508899
 20
-1278.5085683766179
 30
0.0
 41
1.0
 10
930.28108773981705
 20
-1278.5455562984266
 30
0.0
 41
1.0
 10
930.26648777454511
 20
-1278.5825442202351
 30
0.0
 41
1.0
 10
930.21889017618196
 20
-1278.7031291814824
 30
0.0
 41
0.9999912393922585
 10
930.17230373216285
 20
-1278.8241083841697
 30
0.0
 41
1.0
 10
930.12571728813487
 20
-1278.9450875868802
 30
0.0
 41
0.9999927113965598
 10
930.0800559937453
 20
-1279.06641899437
 30
0.0
 41
1.0
 10
930.066087562348
 20
-1279.1035359763678
 30
0.0
 41
1.0
 10
930.05211913095081
 20
-1279.1406529583653
 30
0.0
 41
1.0
 10
929.97852097376051
 20
-1279.3362183298666
 30
0.0
 41
0.9999487550947976
 10
929.90889734878874
 20
-1279.5332336950496
 30
0.0
 41
1.0
 10
929.88530373885487
 20
-1279.599997005334
 30
0.0
 41
1.0
 10
929.861710128921
 20
-1279.6667603156181
 30
0.0
 41
1.0
 10
929.7670244945482
 20
-1279.9346941504496
 30
0.0
 41
0.9999808436942207
 10
929.67566290590366
 20
-1280.2037795817225
 30
0.0
 41
1.0
 10
929.58430131726232
 20
-1280.4728650129869
 30
0.0
 41
0.9999873932890966
 10
929.49564660854458
 20
-1280.7428543679991
 30
0.0
 41
1.0
 10
929.47555425167502
 20
-1280.8040437007526
 30
0.0
 41
1.0
 10
929.45546189480547
 20
-1280.8652330335062
 30
0.0
 41
1.0
 10
929.32662247234953
 20
-1281.2576010540222
 30
0.0
 41
0.999979488302439
 10
929.20281968739164
 20
-1281.6515872602997
 30
0.0
 41
1.0
 10
929.19166742795346
 20
-1281.6870778705388
 30
0.0
 41
1.0
 10
929.1805151685154
 20
-1281.7225684807779
 30
0.0
 41
1.0
 10
929.03795700461239
 20
-1282.1762412328815
 30
0.0
 41
0.9999982761701056
 10
928.89708456460289
 20
-1282.6304402549865
 30
0.0
 41
1.0
 10
927.30894423203029
 20
-1287.6792099859899
 30
0.0
 41
1.0
 10
925.72080389945768
 20
-1292.7279797169931
 30
0.0
 41
1.0
 10
924.77205328798129
 20
-1292.7279797169931
 30
0.0
 41
1.0
 10
923.82330267650491
 20
-1292.7279797169931
 30
0.0
 41
1.0
 10
927.06158716265804
 20
-1282.400657517047
 30
0.0
 41
1.0
 10
930.29987164881129
 20
-1272.0733353171008
 30
0.0
 41
1.0
  0
LWPOLYLINE
  5
56
100
AcDbEntity
  8
0
370
              15
390
0
  6
Continuous
 62
               7
100
AcDbPolyline
 90
      232
 70
             128
 10
904.59632587498425
 20
-1273.157678148616
 42
0.0004370800691959
 10
904.54344870091234
 20
-1273.226344787872
 10
904.50416446978477
 20
-1273.2774519007689
 42
0.003048199217171
 10
904.37382575268362
 20
-1273.4491735930892
 10
904.33531408091517
 20
-1273.5005603769011
 42
0.0042058245764033
 10
904.131329030232
 20
-1273.7775661219932
 10
904.07892390774464
 20
-1273.8499989687557
 42
0.0120948898744094
 10
903.78287999098211
 20
-1274.2807485733063
 10
903.68668749186156
 20
-1274.4282293085289
 42
0.0141601263947062
 10
903.38304344493929
 20
-1274.9238986452649
 10
903.34350617750772
 20
-1274.9927426127063
 42
0.007113108130372
 10
903.13823385427486
 20
-1275.3622454115348
 42
0.0068458791003417
 10
902.9433543274306
 20
-1275.7373369750132
 10
902.93654246497408
 20
-1275.7508986887347
 42
0.0064120880289223
 10
902.73840021493447
 20
-1276.1583231636434
 10
902.73086552941277
 20
-1276.1743350203747
 42
0.0058857236448259
 10
902.52811013754138
 20
-1276.6187111314091
 10
902.51993521124712
 20
-1276.6372012850436
 42
0.0053189741896757
 10
902.31123089858136
 20
-1277.1231647589573
 10
902.30248309289823
 20
-1277.1441466371575
 42
0.0047503650417849
 10
902.08650936674803
 20
-1277.6763460703658
 10
902.07724111839934
 20
-1277.6998224464751
 42
0.0042071762169229
 10
901.85269373467156
 20
-1278.2829160405452
 10
901.84294433232299
 20
-1278.3088822154145
 42
0.003668008648511
 10
901.60848968901075
 20
-1278.9475175999467
 10
901.59828190916312
 20
-1278.9759661342905
 42
0.0032573142627999
 10
901.35264962319297
 20
-1279.6748187940539
 10
901.28399910235282
 20
-1279.8742818781054
 42
0.0026133366650121
 10
900.93555390359779
 20
-1280.9041451617686
 10
900.87229711609712
 20
-1281.0943759971615
 42
0.0020592950739362
 10
900.65843404712996
 20
-1281.7464796497748
 10
900.65538225597163
 20
-1281.7559161381696
 42
0.0025609928533873
 10
900.45356175448103
 20
-1282.3910613605503
 10
900.45097038735128
 20
-1282.3993637015008
 42
0.0031362356242951
 10
900.26147960167737
 20
-1283.0201265576704
 10
900.25934855875028
 20
-1283.0272678638805
 42
0.0037229918030943
 10
900.08254817182365
 20
-1283.6362531658556
 10
900.08086958261606
 20
-1283.6422000560342
 42
0.0043077623707283
 10
899.91712878055216
 20
-1284.2420187877992
 42
0.0047654161821928
 10
899.76430005803581
 20
-1284.8447048767025
 10
899.72983544919703
 20
-1284.9862666538511
 42
0.0112969368443199
 10
899.53397109105424
 20
-1285.8779588144716
 10
899.50596470195683
 20
-1286.0207868605733
 42
0.0130056762570148
 10
899.30512745831015
 20
-1287.2077279322182
 10
899.28458770816292
 20
-1287.3518060456968
 42
0.0138721532145176
 10
899.18088470362522
 20
-1288.2586355315209
 10
899.16158921571719
 20
-1288.482133253448
 42
0.0071254697009206
 10
899.12824256979479
 20
-1288.9453202622931
 10
899.12328159563219
 20
-1289.0313242568409
 42
0.0028881799202236
 10
899.10814330234166
 20
-1289.323065966696
 42
0.0060297297134847
 10
899.09821110256621
 20
-1289.6150149028069
 10
899.09714882089884
 20
-1289.6634072747486
 42
0.0229523164157624
 10
899.10487984868473
 20
-1289.9861621210275
 10
899.10910562220511
 20
-1290.046565655043
 42
0.0123673300666928
 10
899.12818426872343
 20
-1290.2476863802185
 42
0.0128577674467638
 10
899.15737965912933
 20
-1290.4475842301429
 10
899.16450553251673
 20
-1290.4889130447423
 42
0.0285717853763926
 10
899.22899953421245
 20
-1290.7670291960553
 10
899.24266805787886
 20
-1290.8136839655326
 42
0.0316283099153373
 10
899.35847863779304
 20
-1291.1326984673585
 10
899.36152732954861
 20
-1291.1396848396842
 42
0.0338984824234845
 10
899.51095904051579
 20
-1291.4272508038732
 10
899.51326776988617
 20
-1291.4310418331499
 42
0.0350228718351254
 10
899.69562806055922
 20
-1291.688093817826
 10
899.6965133123341
 20
-1291.68917289559
 42
0.0347476747530243
 10
899.91093799957434
 20
-1291.91635794281
 42
0.0331337701909162
 10
900.15418132532091
 20
-1292.1124866048879
 10
900.15528142383687
 20
-1292.1132593080602
 42
0.0305233319079248
 10
900.42382611941002
 20
-1292.2783874781512
 10
900.4270561639114
 20
-1292.280111490014
 42
0.0273744481157507
 10
900.71960987548698
 20
-1292.416249633905
 10
900.72471441062328
 20
-1292.4182932183742
 42
0.0240964406197849
 10
901.04019148627094
 20
-1292.527276944656
 10
901.04677481547901
 20
-1292.5292016843305
 42
0.0209636179812975
 10
901.38417496813292
 20
-1292.612669832263
 10
901.39180742858025
 20
-1292.6142217452641
 42
0.0181388704693399
 10
901.75012982057876
 20
-1292.673637838478
 10
901.75841066895691
 20
-1292.6747040222951
 42
0.015608654758589
 10
902.13659803314567
 20
-1292.7114402088719
 10
902.17979328547915
 20
-1292.7142787113512
 42
0.0137148329026488
 10
902.50746643077161
 20
-1292.726798966602
 10
902.55340262071343
 20
-1292.7272933997172
 42
0.0051057823887168
 10
902.78954820728984
 20
-1292.7274236541266
 42
0.0052256693311818
 10
903.02564549107444
 20
-1292.7226748296621
 10
903.09587227481791
 20
-1292.7205278636482
 42
0.0161507179048104
 10
903.47160935291924
 20
-1292.6968774933216
 10
903.49162231329228
 20
-1292.694967298034
 42
0.0101216737832719
 10
903.90564953478167
 20
-1292.6469743676687
 10
903.93970282420969
 20
-1292.6423266708589
 42
0.0245291776397457
 10
904.41649247975909
 20
-1292.553251592783
 10
904.50131579528295
 20
-1292.5330556724373
 42
0.014350921255892
 10
904.85794689922443
 20
-1292.4372510386579
 42
0.0156557857041937
 10
905.20816296395094
 20
-1292.3202398228393
 10
905.21566417844633
 20
-1292.3174696610849
 42
0.0170137333631318
 10
905.57226017412859
 20
-1292.1718120462135
 10
905.57936409653519
 20
-1292.1686242106503
 42
0.0183105364409703
 10
905.93871376470281
 20
-1291.9912891688252
 10
905.94566052934022
 20
-1291.9875387339539
 42
0.0194899958149863
 10
906.30414127032441
 20
-1291.7755597520629
 10
906.31115514966086
 20
-1291.7710344097682
 42
0.0204869852950445
 10
906.66516945175624
 20
-1291.5215143946812
 10
906.67243506034185
 20
-1291.515934329334
 42
0.0212516938555694
 10
907.01842499145016
 20
-1291.226030332439
 10
907.0649416855241
 20
-1291.183563022347
 42
0.0215248918250838
 10
907.32496785441322
 20
-1290.9247987433509
 10
907.36999758878915
 20
-1290.8759546220062
 42
0.0114578554953019
 10
907.52478974247106
 20
-1290.700131688543
 10
907.53598427844099
 20
-1290.6868129250174
 42
0.0061531305117666
 10
907.66245892445215
 20
-1290.5325233916919
 42
0.0006325587120629
 10
907.78683740858332
 20
-1290.3765200160419
 10
907.80987754365538
 20
-1290.3475464953567
 42
0.0041897761554223
 10
907.97833294762052
 20
-1290.1320271193047
 10
908.0367950675203
 20
-1290.0559257723098
 42
0.0092993880039111
 10
908.31340699474765
 20
-1289.6816470084207
 10
908.39580148794039
 20
-1289.5657100048606
 42
0.0159321727087909
 10
908.7424079705853
 20
-1289.0435357841011
 10
908.7867641059712
 20
-1288.9718562198561
 42
0.0085547317020393
 10
909.02127587130008
 20
-1288.5779812706264
 42
0.0084601156889796
 10
909.24225204874233
 20
-1288.1763544215942
 10
909.25036752257256
 20
-1288.1609947393213
 42
0.0081429654285291
 10
909.47361679301139
 20
-1287.7212732267778
 10
909.48247695719408
 20
-1287.7030943847612
 42
0.0076574581328677
 10
909.70888446776098
 20
-1287.2199115095075
 10
909.71836410848448
 20
-1287.1988470312049
 42
0.0070682724199216
 10
909.94880901629006
 20
-1286.6668097264269
 10
909.95879930027297
 20
-1286.6428205374123
 42
0.0064559514449726
 10
910.19413250845673
 20
-1286.0565082708877
 10
910.20454186661959
 20
-1286.0295733454509
 42
0.0058311413906422
 10
910.44558860337986
 20
-1285.3835412510746
 10
910.45634368076992
 20
-1285.3536569099069
 42
0.0052312425819601
 10
910.70392495881345
 20
-1284.6424544960641
 10
910.71496879519054
 20
-1284.6096277840024
 42
0.0046680544797109
 10
910.96989722292221
 20
-1283.8278014682567
 10
911.01188937296331
 20
-1283.6948182309725
 42
0.004166685644559
 10
911.21517538536364
 20
-1283.0318494559501
 10
911.25283782602673
 20
-1282.9052683482987
 42
0.0015170975158235
 10
911.37402440444043
 20
-1282.4933999968027
 42
-0.0004887993109788
 10
911.49436417760501
 20
-1282.0812815846191
 10
911.57084143505858
 20
-1281.8203241988197
 42
0.0002583378927851
 10
911.84405600512878
 20
-1280.8862674956206
 10
911.92582885467425
 20
-1280.6061682361442
 42
0.0006636169672048
 10
912.11969661471085
 20
-1279.9388153124705
 10
912.12479326907146
 20
-1279.9211837295436
 42
0.001058913132359
 10
912.30624196997451
 20
-1279.2884523865416
 10
912.31122404044811
 20
-1279.2709394795459
 42
0.0015655524461306
 10
912.47949424763783
 20
-1278.6723228003207
 10
912.48432444805621
 20
-1278.6549306413726
 42
0.0021640440476036
 10
912.63861442003872
 20
-1278.0899036233668
 10
912.64324863947218
 20
-1278.0726388933599
 42
0.0028763871852557
 10
912.78276435752173
 20
-1277.5406709425258
 10
912.78715022168842
 20
-1277.5235469643735
 42
0.0037310511946031
 10
912.91110691352583
 20
-1277.0240993703474
 10
912.91518213381289
 20
-1277.00713909911
 42
0.0047652197767401
 10
913.02280603432325
 20
-1276.5396613307969
 10
913.02649663364798
 20
-1276.5229017756405
 42
0.0060276699306858
 10
913.11702673280024
 20
-1276.0868259805027
 10
913.12024542308689
 20
-1276.0703247662066
 42
0.0075824337756349
 10
913.19293473250491
 20
-1275.6650576017673
 10
913.19558010988442
 20
-1275.6489026543218
 42
0.009513062460807
 10
913.24969534551633
 20
-1275.2738133012449
 10
913.25668156939889
 20
-1275.2178797431282
 42
0.0121054653234112
 10
913.28327289997685
 20
-1274.9529839146546
 10
913.28413938973688
 20
-1274.9415804717182
 42
0.0069050827395746
 10
913.29922820777415
 20
-1274.6986392448812
 10
913.30036350744228
 20
-1274.6751129878437
 42
0.016906397669626
 10
913.30319078642287
 20
-1274.4789202605357
 10
913.30202013489156
 20
-1274.418584499181
 42
0.0052007732902467
 10
913.29976668629865
 20
-1274.3429911090345
 42
0.0054038123292089
 10
913.27980317446122
 20
-1274.2229728130324
 10
913.27471731858941
 20
-1274.1943143264434
 42
0.0112050460458512
 10
913.23933295653046
 20
-1274.0179878881029
 10
913.22150799449014
 20
-1273.9384463013835
 42
0.024076446800975
 10
913.13061062834413
 20
-1273.6082092658828
 10
913.11205186553093
 20
-1273.5515891008895
 42
0.0256812331834053
 10
912.968688945341
 20
-1273.1798648946312
 10
912.96327951951946
 20
-1273.1677335596412
 42
0.0268360501217043
 10
912.79385227866976
 20
-1272.8367404256205
 10
912.78831587103537
 20
-1272.8272207553093
 42
0.0274670231731511
 10
912.59611489462145
 20
-1272.5349333803911
 10
912.59073359465879
 20
-1272.5276542328497
 42
0.0275035967101781
 10
912.37916071509699
 20
-1272.2721383425455
 10
912.37409121413066
 20
-1272.2666592549153
 42
0.0269557673526001
 10
912.14668767069088
 20
-1272.0460169689527
 10
912.14194461290776
 20
-1272.0418870144915
 42
0.0259124802208897
 10
911.9023897814775
 20
-1271.8541964873398
 10
911.89785893629505
 20
-1271.851010985009
 42
0.0245162153003859
 10
911.64994258320075
 20
-1271.6942779758988
 10
911.64541603687599
 20
-1271.6917177786977
 42
0.0229282588838199
 10
911.39299648004919
 20
-1271.563849586199
 10
911.38821598621178
 20
-1271.5616972864368
 42
0.0212984135693725
 10
911.13517803375066
 20
-1271.4604983691947
 10
911.12987374878207
 20
-1271.4586348064352
 42
0.0197555462341033
 10
910.88009541105816
 20
-1271.3818193884699
 42
0.0183511896788373
 10
910.62516668559488
 20
-1271.3242364815046
 10
910.53880148887231
 20
-1271.3080336911196
 42
0.0338057877150354
 10
910.25329413961174
 20
-1271.2742252859794
 10
910.16228873457555
 20
-1271.2696456307181
 42
0.0091990524488461
 10
910.0564416259358
 20
-1271.2662697747958
 42
0.0028333980777286
 10
909.9505277099438
 20
-1271.265441667279
 10
909.94961225689349
 20
-1271.2654396974549
 42
-0.002361982781212
 10
909.84186624179131
 20
-1271.2646988563765
 10
909.80546107161172
 20
-1271.2642765499136
 42
0.0008824598485455
 10
909.62490508169446
 20
-1271.2625007716747
 10
909.58104364935593
 20
-1271.2621468101497
 42
0.0038132665768092
 10
909.31276075349149
 20
-1271.2620278740828
 10
909.29622709868363
 20
-1271.2621466402265
 42
0.0060665569335465
 10
908.9949466070974
 20
-1271.2679669396473
 10
908.98069627506698
 20
-1271.2684152476149
 42
0.0080356953336912
 10
908.65123755872389
 20
-1271.284082969682
 10
908.6391675436405
 20
-1271.2848515526223
 42
0.0098996399105945
 10
908.28640445898736
 20
-1271.3143367818207
 10
908.27635874961493
 20
-1271.3153770780186
 42
0.0117740981366489
 10
907.90520189126732
 20
-1271.3626693255483
 10
907.89697919478363
 20
-1271.3639144421193
 42
0.0137435215135065
 10
907.51239037529808
 20
-1271.433011415681
 10
907.50573333617513
 20
-1271.4343973119144
 42
0.015835986938262
 10
907.11273624237356
 20
-1271.5292894003949
 10
907.1073230555055
 20
-1271.5307793412658
 42
0.018055412402713
 10
906.71100801089335
 20
-1271.6554173575043
 10
906.70645122280973
 20
-1271.6570333937707
 42
0.0203657431282945
 10
906.3119737049991
 20
-1271.8152937352863
 10
906.30783016599105
 20
-1271.8171553567286
 42
0.022681968465513
 10
905.92039410978794
 20
-1272.012797935399
 10
905.91619431876927
 20
-1272.0151635273191
 42
0.0248634984606092
 10
905.5410123775888
 20
-1272.251790173266
 10
905.49281744880352
 20
-1272.2856472150927
 42
0.0267044190885524
 10
905.21852475188757
 20
-1272.5010875909602
 42
0.0139303002197481
 10
904.9623575859506
 20
-1272.7383264318705
 10
904.95750420022785
 20
-1272.7430790947324
 42
0.0283460963442526
 10
904.71343160599974
 20
-1273.0108097551786
 10
904.6737631008441
 20
-1273.0596113326505
 42
0.0070695364826285
 10
904.59632587498425
 20
-1273.157678148616
 42
0.0070695364826285
  0
LWPOLYLINE
  5
57
100
AcDbEntity
  8
0
370
              15
390
0
  6
Continuous
 62
               7
100
AcDbPolyline
 90
      226
 70
             128
 10
901.06750543773785
 20
-1288.8792669548
 42
-0.0026277636613606
 10
901.06742755393782
 20
-1288.8124950290426
 10
901.06764491216984
 20
-1288.7593398116137
 42
-0.008868029673182
 10
901.07142152846291
 20
-1288.5863240292103
 10
901.07376788757529
 20
-1288.5270440037571
 42
-0.0077381705617092
 10
901.08981399833817
 20
-1288.2357835079627
 10
901.09068190951155
 20
-1288.2234952742738
 42
-0.006887253053131
 10
901.11731398925883
 20
-1287.9082735222144
 10
901.11851821344578
 20
-1287.8960325431863
 42
-0.0062130021484136
 10
901.15611193027439
 20
-1287.557162851941
 10
901.15761583380868
 20
-1287.5449889800311
 42
-0.005672692966261
 10
901.20653769331216
 20
-1287.1827937579094
 10
901.20831113895542
 20
-1287.1706999576722
 42
-0.0052341884491334
 10
901.26892172521434
 20
-1286.7855067021605
 10
901.27093971399199
 20
-1286.773501772162
 42
-0.0049768450170808
 10
901.3436783954179
 20
-1286.3656572047325
 10
901.36792741014017
 20
-1286.2371092217236
 42
-0.0089029805624026
 10
901.5050082619357
 20
-1285.5753337742976
 10
901.53775363725345
 20
-1285.4303023437776
 42
-0.0080318257100698
 10
901.76730225159565
 20
-1284.4845927119181
 10
901.77928717804241
 20
-1284.4384620767337
 42
-0.0074265721319319
 10
902.06329871689195
 20
-1283.4083974983548
 10
902.08317826000621
 20
-1283.340263437774
 42
-0.00697119227034
 10
902.41048283851569
 20
-1282.273995697436
 10
902.47043478562171
 20
-1282.087974339064
 42
-0.005207042289633
 10
902.69986001088046
 20
-1281.400702262034
 10
902.71714120305626
 20
-1281.3506749814067
 42
-0.0009167004448166
 10
902.92023309034221
 20
-1280.7662191332629
 42
-0.0025162726947047
 10
903.12733072059621
 20
-1280.1831778691239
 10
903.16455533241003
 20
-1280.0800283231949
 42
-0.0028212681457016
 10
903.41273125137332
 20
-1279.4042976910237
 10
903.42256201412999
 20
-1279.3779902463307
 42
-0.00319649168192
 10
903.65885427178625
 20
-1278.75778548422
 10
903.66848872578657
 20
-1278.7329754940731
 42
-0.0036281836450875
 10
903.89359468688644
 20
-1278.1655348131835
 10
903.90303309704564
 20
-1278.1422373816765
 42
-0.0041269166833236
 10
904.11765079370309
 20
-1277.6247964857025
 10
904.15028375012298
 20
-1277.5479180393434
 42
-0.004747221305617
 10
904.30732855567749
 20
-1277.187496571458
 10
904.31422263688773
 20
-1277.1720759741215
 42
-0.0025651659996072
 10
904.46258067073586
 20
-1276.8447479183776
 42
-0.0057144634997853
 10
904.61633036450633
 20
-1276.5199382450166
 10
904.6443610699049
 20
-1276.4624298626281
 42
-0.0065388068375537
 10
904.82782809764819
 20
-1276.0981973659559
 10
904.83628655342488
 20
-1276.0819377865898
 42
-0.0074510843021667
 10
905.01246879930454
 20
-1275.7552495054638
 10
905.02064846983785
 20
-1275.7406087281909
 42
-0.0084648979862929
 10
905.19028232293567
 20
-1275.4486997172337
 10
905.19813844941734
 20
-1275.4356927255935
 42
-0.0095638542813491
 10
905.36197389701795
 20
-1275.1758038536043
 10
905.36944884069146
 20
-1275.1644344921463
 42
-0.0107191626802504
 10
905.52825042107725
 20
-1274.9338232576047
 10
905.53526715480757
 20
-1274.924087165241
 42
-0.0118458573901384
 10
905.68981525332083
 20
-1274.7200149699295
 42
-0.0129184518193446
 10
905.85426787692177
 20
-1274.5238544537599
 10
905.88441264928747
 20
-1274.4897283748573
 42
-0.02177425796298
 10
906.06102497162078
 20
-1274.3065216046093
 10
906.0717705160755
 20
-1274.2963047714118
 42
-0.0097266568651055
 10
906.23782813493699
 20
-1274.1444571969691
 42
-0.0187720905728109
 10
906.41217571082154
 20
-1274.0023883435838
 10
906.44288170149798
 20
-1273.9792292611858
 42
-0.017942820752072
 10
906.67530242149678
 20
-1273.8166770840721
 10
906.67895474841396
 20
-1273.8143131491836
 42
-0.0170047877699502
 10
906.91471838594293
 20
-1273.672852635033
 10
906.91850137469214
 20
-1273.6707543299951
 42
-0.0160190788367999
 10
907.15540992232479
 20
-1273.5491030280086
 42
-0.0151102861496382
 10
907.39944170477122
 20
-1273.442420251954
 10
907.45182820698324
 20
-1273.4213801190592
 42
-0.0271945441887192
 10
907.81049076604165
 20
-1273.2995153083532
 10
907.87955556653117
 20
-1273.2801657670866
 42
-0.0237596594021696
 10
908.29535241355211
 20
-1273.1847150551052
 10
908.36341526728256
 20
-1273.1724603669786
 42
-0.0213715440554746
 10
908.64929019872784
 20
-1273.1335133354687
 10
908.70943736494155
 20
-1273.1279236207681
 42
-0.010146565581566
 10
908.87692989693994
 20
-1273.1157800775036
 10
908.88627028313556
 20
-1273.1152931625065
 42
-0.0100375910879903
 10
909.03542438370073
 20
-1273.1105173445812
 10
909.04568365337718
 20
-1273.1103949055669
 42
-0.0103625633384181
 10
909.17439164803591
 20
-1273.1115263390934
 10
909.19665729930318
 20
-1273.1121836975583
 42
-0.0115689250225718
 10
909.28070803683079
 20
-1273.1166132038034
 42
-0.0072438037433685
 10
909.36454631627089
 20
-1273.124202403553
 10
909.38134682574275
 20
-1273.125968946277
 42
-0.0217917313134732
 10
909.49791658905451
 20
-1273.1433888389977
 10
909.56351667962645
 20
-1273.1561354474131
 42
-0.0332943556749213
 10
909.7679088446514
 20
-1273.2101757387195
 10
909.79808141320382
 20
-1273.2203438158388
 42
-0.0184824084788148
 10
909.93658646966696
 20
-1273.2727948312245
 42
-0.0198002050689465
 10
910.07066081016615
 20
-1273.3356788914239
 10
910.07254744754323
 20
-1273.3366566783038
 42
-0.0212242342982324
 10
910.20468638994589
 20
-1273.4124194170975
 10
910.20650168548855
 20
-1273.4135652193054
 42
-0.0226090605805313
 10
910.33500558671074
 20
-1273.5030448628702
 10
910.33685002844777
 20
-1273.5044571158573
 42
-0.0238457052245872
 10
910.4600321097405
 20
-1273.6084530117196
 10
910.46198483829971
 20
-1273.6102678894858
 42
-0.0248160564157572
 10
910.57818634559987
 20
-1273.729542490694
 10
910.58028997900237
 20
-1273.731927824399
 42
-0.0254109591459934
 10
910.68789519686845
 20
-1273.8672162103635
 10
910.6901432187824
 20
-1273.8703577587639
 42
-0.0255528488285827
 10
910.78758989758001
 20
-1274.0223848129988
 10
910.78992099749576
 20
-1274.0264664246056
 42
-0.0252146793219262
 10
910.87570202350503
 20
-1274.1959686706032
 10
910.87800426266244
 20
-1274.2011507525156
 42
-0.0244265635947783
 10
910.95065895642415
 20
-1274.3888973245625
 10
910.95990535789269
 20
-1274.416762742901
 42
-0.0231319612902914
 10
911.00582813688436
 20
-1274.5800637897016
 42
-0.0112130424358419
 10
911.04046415942298
 20
-1274.7462673898915
 10
911.04166668453513
 20
-1274.7527639767777
 42
-0.0210527881241506
 10
911.06735315990591
 20
-1274.9338196222193
 10
911.07086375472772
 20
-1274.9692251707661
 42
-0.0190029892420315
 10
911.08630522827241
 20
-1275.2227610170387
 10
911.08711520471638
 20
-1275.2582366314073
 42
-0.0137974553662238
 10
911.08556635188097
 20
-1275.5832680381372
 10
911.08472089692555
 20
-1275.6093867827251
 42
-0.0081336634217735
 10
911.06986156170274
 20
-1275.9147342503329
 42
-0.0073526923576519
 10
911.0455530283283
 20
-1276.2194824946168
 10
911.04429160454538
 20
-1276.2328191692841
 42
-0.0066886138696373
 10
911.00855601850117
 20
-1276.5634052127625
 10
911.00689892902892
 20
-1276.5770268317729
 42
-0.0061359187361477
 10
910.95904832698011
 20
-1276.9337908118584
 10
910.95701082590517
 20
-1276.9476856147021
 42
-0.005669861006001
 10
910.89636049513717
 20
-1277.330964183546
 10
910.89395506181518
 20
-1277.3451233027708
 42
-0.0052721077271153
 10
910.81982286101743
 20
-1277.7552506424388
 10
910.81705971217377
 20
-1277.7696672778347
 42
-0.0049289272177728
 10
910.72876559407416
 20
-1278.2069757889551
 10
910.72565309939114
 20
-1278.2216446417729
 42
-0.0047415956711864
 10
910.62241510785884
 20
-1278.6864413991834
 10
910.5876468974991
 20
-1278.8362484945667
 42
-0.0084404470905287
 10
910.39763045392795
 20
-1279.5964725190952
 10
910.39150376594159
 20
-1279.6193366432512
 42
-0.0039635940257047
 10
910.17005008165768
 20
-1280.4203255074983
 10
910.15667328647805
 20
-1280.4672571240903
 42
-0.0072475040837385
 10
909.88922639861846
 20
-1281.3564768404697
 10
909.81901407179146
 20
-1281.5782171904409
 42
-0.0051345458829167
 10
909.5322546997287
 20
-1282.4525423782638
 10
909.51072843295651
 20
-1282.5159686454078
 42
-0.0019150016601091
 10
909.2551950260945
 20
-1283.2595177656199
 10
909.24872742170169
 20
-1283.2781052305311
 42
-0.0021524362752881
 10
909.00024937063449
 20
-1283.9824310522495
 10
908.99103894992834
 20
-1284.0081846305782
 42
-0.0024331286818218
 10
908.75478369090206
 20
-1284.6587839386689
 10
908.74573573834994
 20
-1284.6833272450276
 42
-0.0027449721789461
 10
908.52112116751607
 20
-1285.2824571239478
 10
908.51223116013296
 20
-1285.3057797137762
 42
-0.0031083229770231
 10
908.29868867351388
 20
-1285.8557037513797
 10
908.28995254183644
 20
-1285.8777934672421
 42
-0.0035311343283131
 10
908.08691135624645
 20
-1286.3807765929675
 10
908.07832601709913
 20
-1286.4016193164771
 42
-0.0040245640948877
 10
907.88521421330438
 20
-1286.8599286390704
 10
907.87677809969796
 20
-1286.8795080071502
 42
-0.0046015135849637
 10
907.69302180653756
 20
-1287.2954130367846
 10
907.6847356287127
 20
-1287.3137101762293
 42
-0.0052768638267054
 10
907.50975810975365
 20
-1287.689483060507
 10
907.50162589912986
 20
-1287.7064763990436
 42
-0.0060672675646069
 10
907.33484628636074
 20
-1288.0443920221644
 10
907.32687680588197
 20
-1288.0600572811561
 42
-0.0069904648875863
 10
907.16770841187781
 20
-1288.3623930878252
 10
907.15991701226267
 20
-1288.3767036370605
 42
-0.0080637022764263
 10
907.00776515192115
 20
-1288.6457389402058
 10
907.00017611929013
 20
-1288.6586668058062
 42
-0.0093006455662364
 10
906.85443544275836
 20
-1288.8966812043095
 10
906.84708477601657
 20
-1288.9081991734797
 42
-0.0107060778059551
 10
906.7071362325762
 20
-1289.1174694908618
 10
906.70007446429724
 20
-1289.1275550334269
 42
-0.012272311141508
 10
906.56528074609855
 20
-1289.3103483629166
 10
906.56495452253762
 20
-1289.310768750735
 42
-0.0141836319627482
 10
906.42137291957033
 20
-1289.4853385085557
 10
906.41442516391794
 20
-1289.4933135088211
 42
-0.0175957477207174
 10
906.27451899588368
 20
-1289.6429343972254
 42
-0.0080466359680596
 10
906.12705523085583
 20
-1289.7852569253744
 10
906.08102068633605
 20
-1289.8282773634678
 42
-0.0269600260395902
 10
905.82774044035352
 20
-1290.0406006219766
 10
905.76117330405248
 20
-1290.0905520366036
 42
-0.0178362839751624
 10
905.52122881440027
 20
-1290.2575699628533
 10
905.51398384340109
 20
-1290.2622384750573
 42
-0.0174650732652146
 10
905.2776476459585
 20
-1290.4030994400173
 42
-0.0169240130163348
 10
905.03218140009903
 20
-1290.5273916997955
 10
904.98619524454307
 20
-1290.5487536553619
 42
-0.03188830368418
 10
904.63584438892519
 20
-1290.6850919648714
 10
904.56747885375785
 20
-1290.7067925853476
 42
-0.0284435909903825
 10
904.19142872746727
 20
-1290.8030100208221
 10
904.15627056696667
 20
-1290.8099036166509
 42
-0.0243909341014052
 10
903.84282710604975
 20
-1290.8556246476808
 10
903.79254637928307
 20
-1290.8604701945821
 42
-0.0196639292931181
 10
903.57695080175131
 20
-1290.872718480096
 10
903.52512673058823
 20
-1290.8736217408327
 42
-0.010050151068119
 10
903.41270344892359
 20
-1290.8733213424796
 10
903.38104358754617
 20
-1290.8726002705935
 42
-0.0019752031102539
 10
903.33195125089821
 20
-1290.8712881103847
 10
903.32919094767999
 20
-1290.8712034185585
 42
0.0065378751992094
 10
903.28561437292137
 20
-1290.8704365273434
 42
-0.0167974694686865
 10
903.24208354999348
 20
-1290.8687766288174
 10
903.23800421072747
 20
-1290.8684836179223
 42
-0.0081283276280967
 10
903.18644441298738
 20
-1290.8639366242844
 10
903.17470483911029
 20
-1290.8627087067061
 42
-0.0126703440183889
 10
903.09998654331741
 20
-1290.8529739156347
 10
903.07719867564015
 20
-1290.8494156597194
 42
-0.0117852088426585
 10
902.95765968980265
 20
-1290.8278526645613
 10
902.90227923804468
 20
-1290.8165091243277
 42
-0.025177459229294
 10
902.67543519903802
 20
-1290.7580111148952
 10
902.63071600918363
 20
-1290.7440442955588
 42
-0.014652519988295
 10
902.44432302164728
 20
-1290.6797777683614
 42
-0.0166929435854634
 10
902.26234536552101
 20
-1290.603970635307
 10
902.25768873424749
 20
-1290.6018457346927
 42
-0.0191684358438663
 10
902.07250510299923
 20
-1290.5086096509033
 10
902.06917251724121
 20
-1290.5067684033493
 42
-0.0221181781813434
 10
901.88586221333844
 20
-1290.3946349049781
 10
901.88351240933059
 20
-1290.3930506069876
 42
-0.0254984685387022
 10
901.70722225894519
 20
-1290.2606394570178
 10
901.6847401112434
 20
-1290.2418871480818
 42
-0.0292492648806343
 10
901.55997117240031
 20
-1290.1247943484386
 42
-0.0159048957495093
 10
901.44613117495066
 20
-1289.9967743568402
 10
901.44481238437083
 20
-1289.9951927438196
 42
-0.0343813379558462
 10
901.34217512274461
 20
-1289.85332141805
 10
901.31068359138294
 20
-1289.8028180259548
 42
-0.0369117275698362
 10
901.22479108948653
 20
-1289.6393407850076
 42
-0.0191751379920098
 10
901.1575977039297
 20
-1289.4669361790018
 10
901.15583438017006
 20
-1289.4618428343267
 42
-0.0378178042228349
 10
901.10603966138569
 20
-1289.2729020582449
 10
901.10004436565589
 20
-1289.2403414400508
 42
-0.0184846046476622
 10
901.07932716636105
 20
-1289.0985886195035
 42
-0.0179866351323981
 10
901.06899416128738
 20
-1288.9556978064204
 10
901.06893771884165
 20
-1288.9541401198098
 42
-0.0085497186109164
 10
901.06750543773785
 20
-1288.8792669548
 42
-0.0085497186109164
  0
ENDBLK
  5
58
100
AcDbEntity
  8
template
390
0
100
AcDbBlockEnd
  0
BLOCK
  5
59
100
AcDbEntity
  8
notes
390
0
100
AcDbBlockBegin
  2
*D3
 70
               1
 10
0.0
 20
0.0
 30
0.0
  3
*D3
  1

  0
LINE
  5
5A
100
AcDbEntity
  8
0
370
              -2
390
0
  6
Continuous
 62
               0
100
AcDbLine
 10
-157.03002490922296
 20
730.1701457559534
 30
0.0
 11
-157.03002490922296
 21
805.1701457559534
 31
0.0
  0
LINE
  5
5B
100
AcDbEntity
  8
0
370
              -2
390
0
  6
Continuous
 62
               0
100
AcDbLine
 10
-742.03002490922302
 20
730.1701457559534
 30
0.0
 11
-742.03002490922302
 21
805.1701457559534
 31
0.0
  0
LINE
  5
5C
100
AcDbEntity
  8
0
370
              -2
390
0
  6
Continuous
 62
               0
100
AcDbLine
 10
-157.03002490922296
 20
805.1701457559534
 30
0.0
 11
-742.03002490922302
 21
805.1701457559534
 31
0.0
  0
CIRCLE
  5
5D
102
{ACAD_REACTORS
330
5E
102
}
100
AcDbEntity
  8
0
370
              -2
390
0
  6
Continuous
 62
               0
100
AcDbCircle
 10
-157.03002490922296
 20
805.1701457559534
 30
0.0
 40
4.99969482421875
  0
HATCH
  5
5E
100
AcDbEntity
  8
0
370
              -2
390
0
  6
Continuous
 62
               0
100
AcDbHatch
 10
0.0
 20
0.0
 30
0.0
210
0.0
220
0.0
230
1.0
  2
SOLID
 70
               1
 71
               1
 91
        1
 92
        1
 93
        1
 72
               2
 10
-157.03002490922296
 20
805.1701457559534
 40
4.99969482421875
 50
0.0
 51
360.0
 73
               0
 97
        1
330
5D
 75
               0
 76
               1
 98
        1
 10
0.0
 20
0.0
  0
CIRCLE
  5
5F
102
{ACAD_REACTORS
330
60
102
}
100
AcDbEntity
  8
0
370
              -2
390
0
  6
Continuous
 62
               0
100
AcDbCircle
 10
-742.03002490922302
 20
805.1701457559534
 30
0.0
 40
4.99969482421875
  0
HATCH
  5
60
100
AcDbEntity
  8
0
370
              -2
390
0
  6
Continuous
 62
               0
100
AcDbHatch
 10
0.0
 20
0.0
 30
0.0
210
0.0
220
0.0
230
1.0
  2
SOLID
 70
               1
 71
               1
 91
        1
 92
        1
 93
        1
 72
               2
 10
-742.03002490922302
 20
805.1701457559534
 40
4.99969482421875
 50
0.0
 51
360.0
 73
               0
 97
        1
330
5F
 75
               0
 76
               1
 98
        1
 10
0.0
 20
0.0
  0
MTEXT
  5
61
100
AcDbEntity
  8
0
390
0
 62
               0
100
AcDbMText
 10
-459.77960206710645
 20
839.04776294345345
 30
0.0
 40
24.432617187500004
 41
0.0
 71
               1
 72
               1
  1
585
  7
ＭＳ ゴシック
 73
               1
 44
0.7828267384257843
  0
POINT
  5
62
100
AcDbEntity
  8
Defpoints
370
               0
390
0
 62
               0
100
AcDbPoint
 10
-742.03002490922302
 20
705.1701457559534
 30
0.0
  0
POINT
  5
63
100
AcDbEntity
  8
Defpoints
370
               0
390
0
 62
               0
100
AcDbPoint
 10
-157.03002490922296
 20
705.1701457559534
 30
0.0
  0
POINT
  5
64
100
AcDbEntity
  8
Defpoints
370
               0
390
0
 62
               0
100
AcDbPoint
 10
-157.03002490922296
 20
805.1701457559534
 30
0.0
  0
ENDBLK
  5
65
100
AcDbEntity
  8
notes
390
0
100
AcDbBlockEnd
  0
BLOCK
  5
66
100
AcDbEntity
  8
notes
390
0
100
AcDbBlockBegin
  2
*D4
 70
               1
 10
0.0
 20
0.0
 30
0.0
  3
*D4
  1

  0
LINE
  5
67
100
AcDbEntity
  8
0
370
              -2
390
0
  6
Continuous
 62
               0
100
AcDbLine
 10
-137.03002490922296
 20
705.1701457559534
 30
0.0
 11
-57.030024909222959
 21
705.1701457559534
 31
0.0
  0
LINE
  5
68
100
AcDbEntity
  8
0
370
              -2
390
0
  6
Continuous
 62
               0
100
AcDbLine
 10
-137.03002490922296
 20
358.17014575595329
 30
0.0
 11
-57.030024909222959
 21
358.17014575595329
 31
0.0
  0
LINE
  5
69
100
AcDbEntity
  8
0
370
              -2
390
0
  6
Continuous
 62
               0
100
AcDbLine
 10
-57.030024909222959
 20
705.1701457559534
 30
0.0
 11
-57.030024909222959
 21
358.17014575595329
 31
0.0
  0
CIRCLE
  5
6A
102
{ACAD_REACTORS
330
6B
102
}
100
AcDbEntity
  8
0
370
              -2
390
0
  6
Continuous
 62
               0
100
AcDbCircle
 10
-57.030024909222959
 20
705.1701457559534
 30
0.0
 40
4.99969482421875
  0
HATCH
  5
6B
100
AcDbEntity
  8
0
370
              -2
390
0
  6
Continuous
 62
               0
100
AcDbHatch
 10
0.0
 20
0.0
 30
0.0
210
0.0
220
0.0
230
1.0
  2
SOLID
 70
               1
 71
               1
 91
        1
 92
        1
 93
        1
 72
               2
 10
-57.030024909222959
 20
705.1701457559534
 40
4.99969482421875
 50
0.0
 51
360.0
 73
               0
 97
        1
330
6A
 75
               0
 76
               1
 98
        1
 10
0.0
 20
0.0
  0
CIRCLE
  5
6C
102
{ACAD_REACTORS
330
6D
102
}
100
AcDbEntity
  8
0
370
              -2
390
0
  6
Continuous
 62
               0
100
AcDbCircle
 10
-57.030024909222959
 20
358.17014575595329
 30
0.0
 40
4.99969482421875
  0
HATCH
  5
6D
100
AcDbEntity
  8
0
370
              -2
390
0
  6
Continuous
 62
               0
100
AcDbHatch
 10
0.0
 20
0.0
 30
0.0
210
0.0
220
0.0
230
1.0
  2
SOLID
 70
               1
 71
               1
 91
        1
 92
        1
 93
        1
 72
               2
 10
-57.030024909222959
 20
358.17014575595329
 40
4.99969482421875
 50
0.0
 51
360.0
 73
               0
 97
        1
330
6C
 75
               0
 76
               1
 98
        1
 10
0.0
 20
0.0
  0
MTEXT
  5
6E
100
AcDbEntity
  8
0
390
0
 62
               0
100
AcDbMText
 10
-90.907642096722967
 20
506.64645733557779
 30
0.0
 40
24.432617187500004
 41
0.0
 71
               1
 72
               1
  1
347
  7
ＭＳ ゴシック
 11
0.0
 21
1.0
 31
0.0
 73
               1
 44
0.7828267384257843
  0
POINT
  5
6F
100
AcDbEntity
  8
Defpoints
370
               0
390
0
 62
               0
100
AcDbPoint
 10
-162.03002490922296
 20
358.17014575595329
 30
0.0
  0
POINT
  5
70
100
AcDbEntity
  8
Defpoints
370
               0
390
0
 62
               0
100
AcDbPoint
 10
-162.03002490922296
 20
705.1701457559534
 30
0.0
  0
POINT
  5
71
100
AcDbEntity
  8
Defpoints
370
               0
390
0
 62
               0
100
AcDbPoint
 10
-57.030024909222959
 20
705.1701457559534
 30
0.0
  0
ENDBLK
  5
72
100
AcDbEntity
  8
notes
390
0
100
AcDbBlockEnd
  0
BLOCK
  5
73
100
AcDbEntity
  8
notes
390
0
100
AcDbBlockBegin
  2
*D5
 70
               1
 10
0.0
 20
0.0
 30
0.0
  3
*D5
  1

  0
LINE
  5
74
100
AcDbEntity
  8
0
370
              -2
390
0
  6
Continuous
 62
               0
100
AcDbLine
 10
732.68863808113247
 20
-452.25
 30
0.0
 11
732.68863808113247
 21
-677.44224306095396
 31
0.0
  0
LINE
  5
75
100
AcDbEntity
  8
0
370
              -2
390
0
  6
Continuous
 62
               0
100
AcDbLine
 10
616.68863808113247
 20
-588.32970146394996
 30
0.0
 11
616.68863808113247
 21
-677.44224306095396
 31
0.0
  0
LINE
  5
76
100
AcDbEntity
  8
0
370
              -2
390
0
  6
Continuous
 62
               0
100
AcDbLine
 10
732.68863808113247
 20
-677.44224306095396
 30
0.0
 11
616.68863808113247
 21
-677.44224306095396
 31
0.0
  0
CIRCLE
  5
77
102
{ACAD_REACTORS
330
78
102
}
100
AcDbEntity
  8
0
370
              -2
390
0
  6
Continuous
 62
               0
100
AcDbCircle
 10
732.68863808113247
 20
-677.44224306095396
 30
0.0
 40
4.99969482421875
  0
HATCH
  5
78
100
AcDbEntity
  8
0
370
              -2
390
0
  6
Continuous
 62
               0
100
AcDbHatch
 10
0.0
 20
0.0
 30
0.0
210
0.0
220
0.0
230
1.0
  2
SOLID
 70
               1
 71
               1
 91
        1
 92
        1
 93
        1
 72
               2
 10
732.68863808113247
 20
-677.44224306095396
 40
4.99969482421875
 50
0.0
 51
360.0
 73
               0
 97
        1
330
77
 75
               0
 76
               1
 98
        1
 10
0.0
 20
0.0
  0
CIRCLE
  5
79
102
{ACAD_REACTORS
330
7A
102
}
100
AcDbEntity
  8
0
370
              -2
390
0
  6
Continuous
 62
               0
100
AcDbCircle
 10
616.68863808113247
 20
-677.44224306095396
 30
0.0
 40
4.99969482421875
  0
HATCH
  5
7A
100
AcDbEntity
  8
0
370
              -2
390
0
  6
Continuous
 62
               0
100
AcDbHatch
 10
0.0
 20
0.0
 30
0.0
210
0.0
220
0.0
230
1.0
  2
SOLID
 70
               1
 71
               1
 91
        1
 92
        1
 93
        1
 72
               2
 10
616.68863808113247
 20
-677.44224306095396
 40
4.99969482421875
 50
0.0
 51
360.0
 73
               0
 97
        1
330
79
 75
               0
 76
               1
 98
        1
 10
0.0
 20
0.0
  0
MTEXT
  5
7B
100
AcDbEntity
  8
0
390
0
 62
               0
100
AcDbMText
 10
650.87613639895699
 20
-643.56462587345391
 30
0.0
 40
24.432617187500004
 41
0.0
 71
               1
 72
               1
  1
116
  7
ＭＳ ゴシック
 73
               1
 44
0.7828267384257843
  0
POINT
  5
7C
100
AcDbEntity
  8
Defpoints
370
               0
390
0
 62
               0
100
AcDbPoint
 10
616.68863808113247
 20
-563.32970146395007
 30
0.0
  0
POINT
  5
7D
100
AcDbEntity
  8
Defpoints
370
               0
390
0
 62
               0
100
AcDbPoint
 10
732.68863808113247
 20
-427.25
 30
0.0
  0
POINT
  5
7E
100
AcDbEntity
  8
Defpoints
370
               0
390
0
 62
               0
100
AcDbPoint
 10
732.68863808113247
 20
-677.44224306095396
 30
0.0
  0
ENDBLK
  5
7F
100
AcDbEntity
  8
notes
390
0
100
AcDbBlockEnd
  0
BLOCK
  5
80
100
AcDbEntity
  8
notes
390
0
100
AcDbBlockBegin
  2
*D6
 70
               1
 10
0.0
 20
0.0
 30
0.0
  3
*D6
  1

  0
LINE
  5
81
100
AcDbEntity
  8
0
370
              -2
390
0
  6
Continuous
 62
               0
100
AcDbLine
 10
641.68863808113247
 20
-420.0
 30
0.0
 11
623.12571355684042
 21
-420.0
 31
0.0
  0
LINE
  5
82
100
AcDbEntity
  8
0
370
              -2
390
0
  6
Continuous
 62
               0
100
AcDbLine
 10
641.68863808113247
 20
-550.0
 30
0.0
 11
623.12571355684042
 21
-550.0
 31
0.0
  0
LINE
  5
83
100
AcDbEntity
  8
0
370
              -2
390
0
  6
Continuous
 62
               0
100
AcDbLine
 10
623.12571355684042
 20
-420.0
 30
0.0
 11
623.12571355684042
 21
-266.56724306095401
 31
0.0
  0
LINE
  5
84
100
AcDbEntity
  8
0
370
              -2
390
0
  6
Continuous
 62
               0
100
AcDbLine
 10
623.12571355684042
 20
-420.0
 30
0.0
 11
623.12571355684042
 21
-550.0
 31
0.0
  0
CIRCLE
  5
85
102
{ACAD_REACTORS
330
86
102
}
100
AcDbEntity
  8
0
370
              -2
390
0
  6
Continuous
 62
               0
100
AcDbCircle
 10
623.12571355684042
 20
-420.0
 30
0.0
 40
4.99969482421875
  0
HATCH
  5
86
100
AcDbEntity
  8
0
370
              -2
390
0
  6
Continuous
 62
               0
100
AcDbHatch
 10
0.0
 20
0.0
 30
0.0
210
0.0
220
0.0
230
1.0
  2
SOLID
 70
               1
 71
               1
 91
        1
 92
        1
 93
        1
 72
               2
 10
623.12571355684042
 20
-420.0
 40
4.99969482421875
 50
0.0
 51
360.0
 73
               0
 97
        1
330
85
 75
               0
 76
               1
 98
        1
 10
0.0
 20
0.0
  0
CIRCLE
  5
87
102
{ACAD_REACTORS
330
88
102
}
100
AcDbEntity
  8
0
370
              -2
390
0
  6
Continuous
 62
               0
100
AcDbCircle
 10
623.12571355684042
 20
-550.0
 30
0.0
 40
4.99969482421875
  0
HATCH
  5
88
100
AcDbEntity
  8
0
370
              -2
390
0
  6
Continuous
 62
               0
100
AcDbHatch
 10
0.0
 20
0.0
 30
0.0
210
0.0
220
0.0
230
1.0
  2
SOLID
 70
               1
 71
               1
 91
        1
 92
        1
 93
        1
 72
               2
 10
623.12571355684042
 20
-550.0
 40
4.99969482421875
 50
0.0
 51
360.0
 73
               0
 97
        1
330
87
 75
               0
 76
               1
 98
        1
 10
0.0
 20
0.0
  0
MTEXT
  5
89
100
AcDbEntity
  8
0
390
0
 62
               0
100
AcDbMText
 10
589.24809636934037
 20
-409.44224306095401
 30
0.0
 40
24.432617187500004
 41
0.0
 71
               1
 72
               1
  1
130(深さ)
  7
ＭＳ ゴシック
 11
0.0
 21
1.0
 31
0.0
 73
               1
 44
0.7828267384257843
  0
POINT
  5
8A
100
AcDbEntity
  8
Defpoints
370
               0
390
0
 62
               0
100
AcDbPoint
 10
616.68863808113247
 20
-550.0
 30
0.0
  0
POINT
  5
8B
100
AcDbEntity
  8
Defpoints
370
               0
390
0
 62
               0
100
AcDbPoint
 10
616.68863808113247
 20
-420.0
 30
0.0
  0
POINT
  5
8C
100
AcDbEntity
  8
Defpoints
370
               0
390
0
 62
               0
100
AcDbPoint
 10
623.12571355684042
 20
-420.0
 30
0.0
  0
ENDBLK
  5
8D
100
AcDbEntity
  8
notes
390
0
100
AcDbBlockEnd
  0
BLOCK
  5
8E
100
AcDbEntity
  8
notes
390
0
100
AcDbBlockBegin
  2
*D7
 70
               1
 10
0.0
 20
0.0
 30
0.0
  3
*D7
  1

  0
LINE
  5
8F
100
AcDbEntity
  8
0
370
              -2
390
0
  6
Continuous
 62
               0
100
AcDbLine
 10
-199.56710038493094
 20
333.17014575595329
 30
0.0
 11
-199.56710038493094
 21
258.17014575595323
 31
0.0
  0
LINE
  5
90
100
AcDbEntity
  8
0
370
              -2
390
0
  6
Continuous
 62
               0
100
AcDbLine
 10
-699.56710038202925
 20
333.17014575595329
 30
0.0
 11
-699.56710038202925
 21
258.17014575595323
 31
0.0
  0
LINE
  5
91
100
AcDbEntity
  8
0
370
              -2
390
0
  6
Continuous
 62
               0
100
AcDbLine
 10
-199.56710038493094
 20
258.17014575595323
 30
0.0
 11
-699.56710038202925
 21
258.17014575595323
 31
0.0
  0
CIRCLE
  5
92
102
{ACAD_REACTORS
330
93
102
}
100
AcDbEntity
  8
0
370
              -2
390
0
  6
Continuous
 62
               0
100
AcDbCircle
 10
-199.56710038493094
 20
258.17014575595323
 30
0.0
 40
4.99969482421875
  0
HATCH
  5
93
100
AcDbEntity
  8
0
370
              -2
390
0
  6
Continuous
 62
               0
100
AcDbHatch
 10
0.0
 20
0.0
 30
0.0
210
0.0
220
0.0
230
1.0
  2
SOLID
 70
               1
 71
               1
 91
        1
 92
        1
 93
        1
 72
               2
 10
-199.56710038493094
 20
258.17014575595323
 40
4.99969482421875
 50
0.0
 51
360.0
 73
               0
 97
        1
330
92
 75
               0
 76
               1
 98
        1
 10
0.0
 20
0.0
  0
CIRCLE
  5
94
102
{ACAD_REACTORS
330
95
102
}
100
AcDbEntity
  8
0
370
              -2
390
0
  6
Continuous
 62
               0
100
AcDbCircle
 10
-699.56710038202925
 20
258.17014575595323
 30
0.0
 40
4.99969482421875
  0
HATCH
  5
95
100
AcDbEntity
  8
0
370
              -2
390
0
  6
Continuous
 62
               0
100
AcDbHatch
 10
0.0
 20
0.0
 30
0.0
210
0.0
220
0.0
230
1.0
  2
SOLID
 70
               1
 71
               1
 91
        1
 92
        1
 93
        1
 72
               2
 10
-699.56710038202925
 20
258.17014575595323
 40
4.99969482421875
 50
0.0
 51
360.0
 73
               0
 97
        1
330
94
 75
               0
 76
               1
 98
        1
 10
0.0
 20
0.0
  0
MTEXT
  5
96
100
AcDbEntity
  8
0
390
0
 62
               0
100
AcDbMText
 10
-473.3796020656556
 20
292.04776294345322
 30
0.0
 40
24.432617187500004
 41
0.0
 71
               1
 72
               1
  1
500
  7
ＭＳ ゴシック
 73
               1
 44
0.7828267384257843
  0
POINT
  5
97
100
AcDbEntity
  8
Defpoints
370
               0
390
0
 62
               0
100
AcDbPoint
 10
-699.56710038202925
 20
358.17014575595329
 30
0.0
  0
POINT
  5
98
100
AcDbEntity
  8
Defpoints
370
               0
390
0
 62
               0
100
AcDbPoint
 10
-199.56710038493094
 20
358.17014575595329
 30
0.0
  0
POINT
  5
99
100
AcDbEntity
  8
Defpoints
370
               0
390
0
 62
               0
100
AcDbPoint
 10
-199.56710038493094
 20
258.17014575595323
 30
0.0
  0
ENDBLK
  5
9A
100
AcDbEntity
  8
notes
390
0
100
AcDbBlockEnd
  0
BLOCK
  5
9B
100
AcDbEntity
  8
notes
390
0
100
AcDbBlockBegin
  2
*D8
 70
               1
 10
0.0
 20
0.0
 30
0.0
  3
*D8
  1

  0
LINE
  5
9C
100
AcDbEntity
  8
0
370
              -2
390
0
  6
Continuous
 62
               0
100
AcDbLine
 10
-767.03002490922302
 20
661.6701457559534
 30
0.0
 11
-842.03002490922313
 21
661.6701457559534
 31
0.0
  0
LINE
  5
9D
100
AcDbEntity
  8
0
370
              -2
390
0
  6
Continuous
 62
               0
100
AcDbLine
 10
-767.03002490922302
 20
401.6701457559534
 30
0.0
 11
-842.03002490922313
 21
401.6701457559534
 31
0.0
  0
LINE
  5
9E
100
AcDbEntity
  8
0
370
              -2
390
0
  6
Continuous
 62
               0
100
AcDbLine
 10
-842.03002490922313
 20
661.6701457559534
 30
0.0
 11
-842.03002490922313
 21
401.6701457559534
 31
0.0
  0
CIRCLE
  5
9F
102
{ACAD_REACTORS
330
A0
102
}
100
AcDbEntity
  8
0
370
              -2
390
0
  6
Continuous
 62
               0
100
AcDbCircle
 10
-842.03002490922313
 20
661.6701457559534
 30
0.0
 40
4.99969482421875
  0
HATCH
  5
A0
100
AcDbEntity
  8
0
370
              -2
390
0
  6
Continuous
 62
               0
100
AcDbHatch
 10
0.0
 20
0.0
 30
0.0
210
0.0
220
0.0
230
1.0
  2
SOLID
 70
               1
 71
               1
 91
        1
 92
        1
 93
        1
 72
               2
 10
-842.03002490922313
 20
661.6701457559534
 40
4.99969482421875
 50
0.0
 51
360.0
 73
               0
 97
        1
330
9F
 75
               0
 76
               1
 98
        1
 10
0.0
 20
0.0
  0
CIRCLE
  5
A1
102
{ACAD_REACTORS
330
A2
102
}
100
AcDbEntity
  8
0
370
              -2
390
0
  6
Continuous
 62
               0
100
AcDbCircle
 10
-842.03002490922313
 20
401.6701457559534
 30
0.0
 40
4.99969482421875
  0
HATCH
  5
A2
100
AcDbEntity
  8
0
370
              -2
390
0
  6
Continuous
 62
               0
100
AcDbHatch
 10
0.0
 20
0.0
 30
0.0
210
0.0
220
0.0
230
1.0
  2
SOLID
 70
               1
 71
               1
 91
        1
 92
        1
 93
        1
 72
               2
 10
-842.03002490922313
 20
401.6701457559534
 40
4.99969482421875
 50
0.0
 51
360.0
 73
               0
 97
        1
330
A1
 75
               0
 76
               1
 98
        1
 10
0.0
 20
0.0
  0
MTEXT
  5
A3
100
AcDbEntity
  8
0
390
0
 62
               0
100
AcDbMText
 10
-875.90764209672318
 20
507.85764407377792
 30
0.0
 40
24.432617187500004
 41
0.0
 71
               1
 72
               1
  1
260
  7
ＭＳ ゴシック
 11
0.0
 21
1.0
 31
0.0
 73
               1
 44
0.7828267384257843
  0
POINT
  5
A4
100
AcDbEntity
  8
Defpoints
370
               0
390
0
 62
               0
100
AcDbPoint
 10
-742.03002490922302
 20
401.6701457559534
 30
0.0
  0
POINT
  5
A5
100
AcDbEntity
  8
Defpoints
370
               0
390
0
 62
               0
100
AcDbPoint
 10
-742.03002490922302
 20
661.6701457559534
 30
0.0
  0
POINT
  5
A6
100
AcDbEntity
  8
Defpoints
370
               0
390
0
 62
               0
100
AcDbPoint
 10
-842.03002490922313
 20
661.6701457559534
 30
0.0
  0
ENDBLK
  5
A7
100
AcDbEntity
  8
notes
390
0
100
AcDbBlockEnd
  0
BLOCK
  5
A8
100
AcDbEntity
  8
notes
390
0
100
AcDbBlockBegin
  2
*D9
 70
               1
 10
0.0
 20
0.0
 30
0.0
  3
*D9
  1

  0
LINE
  5
A9
100
AcDbEntity
  8
0
370
              -2
390
0
  6
Continuous
 62
               0
100
AcDbLine
 10
365.68863808113247
 20
-420.0
 30
0.0
 11
285.68863808113247
 21
-420.0
 31
0.0
  0
LINE
  5
AA
100
AcDbEntity
  8
0
370
              -2
390
0
  6
Continuous
 62
               0
100
AcDbLine
 10
361.43863808113247
 20
-430.0
 30
0.0
 11
285.68863808113247
 21
-430.0
 31
0.0
  0
LINE
  5
AB
100
AcDbEntity
  8
0
370
              -2
390
0
  6
Continuous
 62
               0
100
AcDbLine
 10
285.68863808113247
 20
-420.0
 30
0.0
 11
285.68863808113247
 21
-384.3125
 31
0.0
  0
LINE
  5
AC
100
AcDbEntity
  8
0
370
              -2
390
0
  6
Continuous
 62
               0
100
AcDbLine
 10
285.68863808113247
 20
-420.0
 30
0.0
 11
285.68863808113247
 21
-430.0
 31
0.0
  0
CIRCLE
  5
AD
102
{ACAD_REACTORS
330
AE
102
}
100
AcDbEntity
  8
0
370
              -2
390
0
  6
Continuous
 62
               0
100
AcDbCircle
 10
285.68863808113247
 20
-420.0
 30
0.0
 40
4.99969482421875
  0
HATCH
  5
AE
100
AcDbEntity
  8
0
370
              -2
390
0
  6
Continuous
 62
               0
100
AcDbHatch
 10
0.0
 20
0.0
 30
0.0
210
0.0
220
0.0
230
1.0
  2
SOLID
 70
               1
 71
               1
 91
        1
 92
        1
 93
        1
 72
               2
 10
285.68863808113247
 20
-420.0
 40
4.99969482421875
 50
0.0
 51
360.0
 73
               0
 97
        1
330
AD
 75
               0
 76
               1
 98
        1
 10
0.0
 20
0.0
  0
CIRCLE
  5
AF
102
{ACAD_REACTORS
330
B0
102
}
100
AcDbEntity
  8
0
370
              -2
390
0
  6
Continuous
 62
               0
100
AcDbCircle
 10
285.68863808113247
 20
-430.0
 30
0.0
 40
4.99969482421875
  0
HATCH
  5
B0
100
AcDbEntity
  8
0
370
              -2
390
0
  6
Continuous
 62
               0
100
AcDbHatch
 10
0.0
 20
0.0
 30
0.0
210
0.0
220
0.0
230
1.0
  2
SOLID
 70
               1
 71
               1
 91
        1
 92
        1
 93
        1
 72
               2
 10
285.68863808113247
 20
-430.0
 40
4.99969482421875
 50
0.0
 51
360.0
 73
               0
 97
        1
330
AF
 75
               0
 76
               1
 98
        1
 10
0.0
 20
0.0
  0
MTEXT
  5
B1
100
AcDbEntity
  8
0
390
0
 62
               0
100
AcDbMText
 10
251.8110208936325
 20
-416.0625
 30
0.0
 40
24.432617187500004
 41
0.0
 71
               1
 72
               1
  1
10
  7
ＭＳ ゴシック
 11
0.0
 21
1.0
 31
0.0
 73
               1
 44
0.7828267384257843
  0
POINT
  5
B2
100
AcDbEntity
  8
Defpoints
370
               0
390
0
 62
               0
100
AcDbPoint
 10
386.43863808113247
 20
-430.0
 30
0.0
  0
POINT
  5
B3
100
AcDbEntity
  8
Defpoints
370
               0
390
0
 62
               0
100
AcDbPoint
 10
390.68863808113247
 20
-420.0
 30
0.0
  0
POINT
  5
B4
100
AcDbEntity
  8
Defpoints
370
               0
390
0
 62
               0
100
AcDbPoint
 10
285.68863808113247
 20
-420.0
 30
0.0
  0
ENDBLK
  5
B5
100
AcDbEntity
  8
notes
390
0
100
AcDbBlockEnd
  0
BLOCK
  5
B6
100
AcDbEntity
  8
notes
390
0
100
AcDbBlockBegin
  2
*D10
 70
               1
 10
0.0
 20
0.0
 30
0.0
  3
*D10
  1

  0
LINE
  5
B7
100
AcDbEntity
  8
0
370
              -2
390
0
  6
Continuous
 62
               0
100
AcDbLine
 10
-387.03002490922302
 20
-600.00000000000011
 30
0.0
 11
-43.999999999999972
 21
-600.00000000000011
 31
0.0
  0
LINE
  5
B8
100
AcDbEntity
  8
0
370
              -2
390
0
  6
Continuous
 62
               0
100
AcDbLine
 10
-137.03002490922296
 20
-420.0
 30
0.0
 11
-43.999999999999972
 21
-420.0
 31
0.0
  0
LINE
  5
B9
100
AcDbEntity
  8
0
370
              -2
390
0
  6
Continuous
 62
               0
100
AcDbLine
 10
-43.999999999999972
 20
-600.00000000000011
 30
0.0
 11
-43.999999999999972
 21
-420.0
 31
0.0
  0
CIRCLE
  5
BA
102
{ACAD_REACTORS
330
BB
102
}
100
AcDbEntity
  8
0
370
              -2
390
0
  6
Continuous
 62
               0
100
AcDbCircle
 10
-43.999999999999972
 20
-600.00000000000011
 30
0.0
 40
4.99969482421875
  0
HATCH
  5
BB
100
AcDbEntity
  8
0
370
              -2
390
0
  6
Continuous
 62
               0
100
AcDbHatch
 10
0.0
 20
0.0
 30
0.0
210
0.0
220
0.0
230
1.0
  2
SOLID
 70
               1
 71
               1
 91
        1
 92
        1
 93
        1
 72
               2
 10
-43.999999999999972
 20
-600.00000000000011
 40
4.99969482421875
 50
0.0
 51
360.0
 73
               0
 97
        1
330
BA
 75
               0
 76
               1
 98
        1
 10
0.0
 20
0.0
  0
CIRCLE
  5
BC
102
{ACAD_REACTORS
330
BD
102
}
100
AcDbEntity
  8
0
370
              -2
390
0
  6
Continuous
 62
               0
100
AcDbCircle
 10
-43.999999999999972
 20
-420.0
 30
0.0
 40
4.99969482421875
  0
HATCH
  5
BD
100
AcDbEntity
  8
0
370
              -2
390
0
  6
Continuous
 62
               0
100
AcDbHatch
 10
0.0
 20
0.0
 30
0.0
210
0.0
220
0.0
230
1.0
  2
SOLID
 70
               1
 71
               1
 91
        1
 92
        1
 93
        1
 72
               2
 10
-43.999999999999972
 20
-420.0
 40
4.99969482421875
 50
0.0
 51
360.0
 73
               0
 97
        1
330
BC
 75
               0
 76
               1
 98
        1
 10
0.0
 20
0.0
  0
MTEXT
  5
BE
100
AcDbEntity
  8
0
390
0
 62
               0
100
AcDbMText
 10
-77.877617187499979
 20
-533.81250168217559
 30
0.0
 40
24.432617187500004
 41
0.0
 71
               1
 72
               1
  1
180
  7
ＭＳ ゴシック
 11
0.0
 21
1.0
 31
0.0
 73
               1
 44
0.7828267384257843
  0
POINT
  5
BF
100
AcDbEntity
  8
Defpoints
370
               0
390
0
 62
               0
100
AcDbPoint
 10
-162.03002490922296
 20
-420.0
 30
0.0
  0
POINT
  5
C0
100
AcDbEntity
  8
Defpoints
370
               0
390
0
 62
               0
100
AcDbPoint
 10
-412.03002490922302
 20
-600.00000000000011
 30
0.0
  0
POINT
  5
C1
100
AcDbEntity
  8
Defpoints
370
               0
390
0
 62
               0
100
AcDbPoint
 10
-43.999999999999972
 20
-600.00000000000011
 30
0.0
  0
ENDBLK
  5
C2
100
AcDbEntity
  8
notes
390
0
100
AcDbBlockEnd
  0
BLOCK
  5
C3
100
AcDbEntity
  8
notes
390
0
100
AcDbBlockBegin
  2
*D11
 70
               1
 10
0.0
 20
0.0
 30
0.0
  3
*D11
  1

  0
LINE
  5
C4
100
AcDbEntity
  8
0
370
              -2
390
0
  6
Continuous
 62
               0
100
AcDbLine
 10
-769.0
 20
705.1701457559534
 30
0.0
 11
-842.03002490922313
 21
705.1701457559534
 31
0.0
  0
LINE
  5
C5
100
AcDbEntity
  8
0
370
              -2
390
0
  6
Continuous
 62
               0
100
AcDbLine
 10
-769.0
 20
661.6701457559534
 30
0.0
 11
-842.03002490922313
 21
661.6701457559534
 31
0.0
  0
LINE
  5
C6
100
AcDbEntity
  8
0
370
              -2
390
0
  6
Continuous
 62
               0
100
AcDbLine
 10
-842.03002490922313
 20
705.1701457559534
 30
0.0
 11
-842.03002490922313
 21
661.6701457559534
 31
0.0
  0
CIRCLE
  5
C7
102
{ACAD_REACTORS
330
C8
102
}
100
AcDbEntity
  8
0
370
              -2
390
0
  6
Continuous
 62
               0
100
AcDbCircle
 10
-842.03002490922313
 20
705.1701457559534
 30
0.0
 40
4.99969482421875
  0
HATCH
  5
C8
100
AcDbEntity
  8
0
370
              -2
390
0
  6
Continuous
 62
               0
100
AcDbHatch
 10
0.0
 20
0.0
 30
0.0
210
0.0
220
0.0
230
1.0
  2
SOLID
 70
               1
 71
               1
 91
        1
 92
        1
 93
        1
 72
               2
 10
-842.03002490922313
 20
705.1701457559534
 40
4.99969482421875
 50
0.0
 51
360.0
 73
               0
 97
        1
330
C7
 75
               0
 76
               1
 98
        1
 10
0.0
 20
0.0
  0
CIRCLE
  5
C9
102
{ACAD_REACTORS
330
CA
102
}
100
AcDbEntity
  8
0
370
              -2
390
0
  6
Continuous
 62
               0
100
AcDbCircle
 10
-842.03002490922313
 20
661.6701457559534
 30
0.0
 40
4.99969482421875
  0
HATCH
  5
CA
100
AcDbEntity
  8
0
370
              -2
390
0
  6
Continuous
 62
               0
100
AcDbHatch
 10
0.0
 20
0.0
 30
0.0
210
0.0
220
0.0
230
1.0
  2
SOLID
 70
               1
 71
               1
 91
        1
 92
        1
 93
        1
 72
               2
 10
-842.03002490922313
 20
661.6701457559534
 40
4.99969482421875
 50
0.0
 51
360.0
 73
               0
 97
        1
330
C9
 75
               0
 76
               1
 98
        1
 10
0.0
 20
0.0
  0
MTEXT
  5
CB
100
AcDbEntity
  8
0
390
0
 62
               0
100
AcDbMText
 10
-875.90764209672318
 20
651.6701457559534
 30
0.0
 40
24.432617187500004
 41
0.0
 71
               1
 72
               1
  1
43.5
  7
ＭＳ ゴシック
 11
0.0
 21
1.0
 31
0.0
 73
               1
 44
0.7828267384257843
  0
POINT
  5
CC
100
AcDbEntity
  8
Defpoints
370
               0
390
0
 62
               0
100
AcDbPoint
 10
-744.0
 20
661.6701457559534
 30
0.0
  0
POINT
  5
CD
100
AcDbEntity
  8
Defpoints
370
               0
390
0
 62
               0
100
AcDbPoint
 10
-744.0
 20
705.1701457559534
 30
0.0
  0
POINT
  5
CE
100
AcDbEntity
  8
Defpoints
370
               0
390
0
 62
               0
100
AcDbPoint
 10
-842.03002490922313
 20
705.1701457559534
 30
0.0
  0
ENDBLK
  5
CF
100
AcDbEntity
  8
notes
390
0
100
AcDbBlockEnd
  0
BLOCK
  5
D0
100
AcDbEntity
  8
FAN70-0311
390
0
100
AcDbBlockBegin
  2
グループ-1
 70
               0
 10
0.0
 20
0.0
 30
0.0
  3
グループ-1
  1

  0
POLYLINE
  5
D1
100
AcDbEntity
  8
0
370
              15
390
0
  6
Continuous
 62
               7
100
AcDb2dPolyline
 66
               1
 10
0.0
 20
0.0
 30
0.0
 70
               1
 75
               5
  0
VERTEX
  5
D2
100
AcDbEntity
  8
0
370
              15
390
0
  6
Continuous
 62
               7
100
AcDbVertex
100
AcDb2dVertex
 10
-487.03002490922302
 20
-480.88990692595377
 30
0.0
  0
VERTEX
  5
D3
100
AcDbEntity
  8
0
370
              15
390
0
  6
Continuous
 62
               7
100
AcDbVertex
100
AcDb2dVertex
 10
-412.03002490922302
 20
-480.88990692595377
 30
0.0
  0
VERTEX
  5
D4
100
AcDbEntity
  8
0
370
              15
390
0
  6
Continuous
 62
               7
100
AcDbVertex
100
AcDb2dVertex
 10
-412.03002490922302
 20
-527.7899069259538
 30
0.0
  0
VERTEX
  5
D5
100
AcDbEntity
  8
0
370
              15
390
0
  6
Continuous
 62
               7
100
AcDbVertex
100
AcDb2dVertex
 10
-487.03002490922302
 20
-527.7899069259538
 30
0.0
  0
SEQEND
  5
D6
100
AcDbEntity
  8
0
370
              15
390
0
  6
Continuous
 62
               7
  0
LINE
  5
D7
100
AcDbEntity
  8
0
370
              15
390
0
  6
Continuous
 62
               7
100
AcDbLine
 10
-487.03002490922302
 20
-494.85953115351089
 30
0.0
 11
-412.03002490922302
 21
-494.85953115351089
 31
0.0
  0
ENDBLK
  5
D8
100
AcDbEntity
  8
FAN70-0311
390
0
100
AcDbBlockEnd
  0
BLOCK
  5
D9
100
AcDbEntity
  8
FAN70-0311
390
0
100
AcDbBlockBegin
  2
グループ-2
 70
               0
 10
0.0
 20
0.0
 30
0.0
  3
グループ-2
  1

  0
POLYLINE
  5
DA
100
AcDbEntity
  8
0
370
              15
390
0
  6
Continuous
 62
               7
100
AcDb2dPolyline
 66
               1
 10
0.0
 20
0.0
 30
0.0
 70
               1
 75
               5
  0
VERTEX
  5
DB
100
AcDbEntity
  8
0
370
              15
390
0
  6
Continuous
 62
               7
100
AcDbVertex
100
AcDb2dVertex
 10
579.18863808113247
 20
-480.88990692595377
 30
0.0
  0
VERTEX
  5
DC
100
AcDbEntity
  8
0
370
              15
390
0
  6
Continuous
 62
               7
100
AcDbVertex
100
AcDb2dVertex
 10
654.18863808113247
 20
-480.88990692595377
 30
0.0
  0
VERTEX
  5
DD
100
AcDbEntity
  8
0
370
              15
390
0
  6
Continuous
 62
               7
100
AcDbVertex
100
AcDb2dVertex
 10
654.18863808113247
 20
-527.7899069259538
 30
0.0
  0
VERTEX
  5
DE
100
AcDbEntity
  8
0
370
              15
390
0
  6
Continuous
 62
               7
100
AcDbVertex
100
AcDb2dVertex
 10
579.18863808113247
 20
-527.7899069259538
 30
0.0
  0
SEQEND
  5
DF
100
AcDbEntity
  8
0
370
              15
390
0
  6
Continuous
 62
               7
  0
LINE
  5
E0
100
AcDbEntity
  8
0
370
              15
390
0
  6
Continuous
 62
               7
100
AcDbLine
 10
654.18863808113247
 20
-494.85953115351089
 30
0.0
 11
579.18863808113247
 21
-494.85953115351089
 31
0.0
  0
ENDBLK
  5
E1
100
AcDbEntity
  8
FAN70-0311
390
0
100
AcDbBlockEnd
  0
ENDSEC
  0
SECTION
  2
ENTITIES
  0
MTEXT
  5
E2
100
AcDbEntity
  8
template
390
0
 62
               7
100
AcDbMText
 10
-967.99999999975921
 20
-1147.4176292337004
 30
0.0
 40
16.288411458333332
 41
0.0
 71
               1
 72
               1
  1
品名
  7
ＭＳ ゴシック
 73
               1
 44
0.7828267384257843
  0
MTEXT
  5
E3
100
AcDbEntity
  8
template
390
0
 62
               7
100
AcDbMText
 10
-967.99999999975921
 20
-1232.4176292337004
 30
0.0
 40
16.288411458333332
 41
0.0
 71
               1
 72
               1
  1
仕様
  7
ＭＳ ゴシック
 73
               1
 44
0.7828267384257843
  0
MTEXT
  5
E4
100
AcDbEntity
  8
template
390
0
 62
               7
100
AcDbMText
 10
-914.99999999975921
 20
-1176.0000901712006
 30
0.0
 40
24.432617187500004
 41
0.0
 71
               1
 72
               1
  1
洗面器 -ALAPE-
  7
ＭＳ ゴシック
 73
               1
 44
0.7828267384257843
  0
LINE
  5
E5
100
AcDbEntity
  8
template
370
               5
390
0
  6
Continuous
 62
               7
100
AcDbLine
 10
974.99999999975876
 20
-1224.0027073587005
 30
0.0
 11
-975.00000000024124
 21
-1224.0027073587005
 31
0.0
  0
LWPOLYLINE
  5
E6
100
AcDbEntity
  8
template
370
               5
390
0
  6
Continuous
 62
               7
100
AcDbPolyline
 90
        5
 70
             128
 10
975.00000000024124
 20
1405.9972926412995
 10
-974.99999999975921
 20
1405.9972926412995
 10
-974.99999999975921
 20
-1394.0027073587005
 10
975.00000000024124
 20
-1394.0027073587005
 10
975.00000000024124
 20
1405.9972926412995
  0
LINE
  5
E7
100
AcDbEntity
  8
template
370
               5
390
0
  6
Continuous
 62
               7
100
AcDbLine
 10
974.99999999975876
 20
-1139.0027073587005
 30
0.0
 11
-975.00000000024124
 21
-1139.0027073587005
 31
0.0
  0
LINE
  5
E8
100
AcDbEntity
  8
template
370
               5
390
0
  6
Continuous
 62
               7
100
AcDbLine
 10
975.00000000024124
 20
-1309.0027073587005
 30
0.0
 11
222.00000000024124
 21
-1309.0027073587005
 31
0.0
  0
MTEXT
  5
E9
100
AcDbEntity
  8
template
390
0
 62
               7
100
AcDbMText
 10
-974.99999999955594
 20
-1405.8565294155574
 30
0.0
 40
21.717881944444446
 41
0.0
 71
               1
 72
               1
  1
120521SH
  7
ＭＳ ゴシック
 73
               1
 44
0.7828267384257843
  0
MTEXT
  5
EA
100
AcDbEntity
  8
template
390
0
 62
               7
100
AcDbMText
 10
251.87140625250089
 20
-1338.9131018320081
 30
0.0
 40
24.432617187500004
 41
0.0
 71
               1
 72
               1
  1
大洋金物株式会社 ティーフォルム事業部
  7
ＭＳ ゴシック
 73
               1
 44
0.7828267384257843
  0
INSERT
  5
EB
100
AcDbEntity
  8
template
390
0
 62
               7
100
AcDbBlockReference
  2
グループ
 10
0.0000000000000284
 20
-72.210093074046327
 30
0.0
  0
MTEXT
  5
EC
100
AcDbEntity
  8
template
390
0
 62
               7
100
AcDbMText
 10
784.00000000049999
 20
-1261.0000901712006
 30
0.0
 40
24.432617187500004
 41
0.0
 71
               1
 72
               1
  1
1:10
  7
ＭＳ ゴシック
 73
               1
 44
0.7828267384257843
  0
MTEXT
  5
ED
100
AcDbEntity
  8
template
390
0
 62
               7
100
AcDbMText
 10
731.00000000049999
 20
-1232.4176292337004
 30
0.0
 40
16.288411458333332
 41
0.0
 71
               1
 72
               1
  1
縮尺
  7
ＭＳ ゴシック
 73
               1
 44
0.7828267384257843
  0
LINE
  5
EE
100
AcDbEntity
  8
template
370
               5
390
0
  6
Continuous
 62
               7
100
AcDbLine
 10
724.00000000049999
 20
-1309.0027073587005
 30
0.0
 11
724.00000000049999
 21
-1224.0027073587005
 31
0.0
  0
MTEXT
  5
EF
100
AcDbEntity
  8
template
390
0
 62
               7
100
AcDbMText
 10
480.00000000049999
 20
-1232.4176292337004
 30
0.0
 40
16.288411458333332
 41
0.0
 71
               1
 72
               1
  1
容量
  7
ＭＳ ゴシック
 73
               1
 44
0.7828267384257843
  0
LINE
  5
F0
100
AcDbEntity
  8
template
370
               5
390
0
  6
Continuous
 62
               7
100
AcDbLine
 10
473.00000000049999
 20
-1309.0027073587005
 30
0.0
 11
473.00000000049999
 21
-1224.0027073587005
 31
0.0
  0
MTEXT
  5
F1
100
AcDbEntity
  8
template
390
0
 62
               7
100
AcDbMText
 10
229.00000000049999
 20
-1147.4176292337004
 30
0.0
 40
16.288411458333332
 41
0.0
 71
               1
 72
               1
  1
品番
  7
ＭＳ ゴシック
 73
               1
 44
0.7828267384257843
  0
MTEXT
  5
F2
100
AcDbEntity
  8
template
390
0
 62
               7
100
AcDbMText
 10
229.00000000049999
 20
-1232.4176292337004
 30
0.0
 40
16.288411458333332
 41
0.0
 71
               1
 72
               1
  1
重量
  7
ＭＳ ゴシック
 73
               1
 44
0.7828267384257843
  0
MTEXT
  5
F3
100
AcDbEntity
  8
template
390
0
 62
               7
100
AcDbMText
 10
282.00000000049999
 20
-1176.0000901712006
 30
0.0
 40
24.432617187500004
 41
0.0
 71
               1
 72
               1
  1
FAN70-0311
  7
ＭＳ ゴシック
 73
               1
 44
0.7828267384257843
  0
MTEXT
  5
F4
100
AcDbEntity
  8
template
390
0
 62
               7
100
AcDbMText
 10
282.00000000049999
 20
-1261.0000901712006
 30
0.0
 40
24.432617187500004
 41
0.0
 71
               1
 72
               1
  1
3.8kg
  7
ＭＳ ゴシック
 73
               1
 44
0.7828267384257843
  0
LINE
  5
F5
100
AcDbEntity
  8
template
370
               5
390
0
  6
Continuous
 62
               7
100
AcDbLine
 10
222.00000000049999
 20
-1394.0027073587005
 30
0.0
 11
222.00000000049999
 21
-1139.0027073587005
 31
0.0
  0
MTEXT
  5
F6
100
AcDbEntity
  8
template
390
0
 62
               7
100
AcDbMText
 10
-914.99999999975921
 20
-1261.0000901712001
 30
0.0
 40
24.432617187500004
 41
0.0
 71
               1
 72
               1
  1
オーバーカウンター,アンダーカウンタ ー/オーバーフロー付き/型 紙付属/\P鋼板ホーロー/ホワイト
  7
ＭＳ ゴシック
 73
               1
 44
1.1307497332816883
  0
DIMENSION
  5
F7
100
AcDbEntity
  8
notes
370
               5
390
0
  6
Continuous
 62
               7
100
AcDbDimension
  2
*D3
 10
-157.03002490922296
 20
805.1701457559534
 30
0.0
 11
-435.96710038493097
 21
810.1701457559534
 31
0.0
 70
             128
 71
               5
 72
               1
 41
1.0
 42
0.0
  3
tfrom線あり
100
AcDbAlignedDimension
 13
-742.03002490922302
 23
705.1701457559534
 33
0.0
 14
-157.03002490922296
 24
705.1701457559534
 34
0.0
100
AcDbRotatedDimension
1001
ACAD
1000
DSTYLE
1002
{
1070
             271
1070
               2
1070
             279
1070
               2
1070
             340
1005
2F
1070
             147
1040
5.0
1002
}
  0
DIMENSION
  5
F8
100
AcDbEntity
  8
notes
370
               5
390
0
  6
Continuous
 62
               7
100
AcDbDimension
  2
*D4
 10
-57.030024909222959
 20
705.1701457559534
 30
0.0
 11
-52.030024909222959
 21
530.45895901775327
 31
0.0
 70
             128
 71
               5
 72
               1
 41
1.0
 42
0.0
  3
tfrom線あり
100
AcDbAlignedDimension
 13
-162.03002490922296
 23
358.17014575595329
 33
0.0
 14
-162.03002490922296
 24
705.1701457559534
 34
0.0
 50
90.0
100
AcDbRotatedDimension
1001
ACAD
1000
DSTYLE
1002
{
1070
             271
1070
               2
1070
             279
1070
               2
1070
             340
1005
2F
1070
             147
1040
5.0
1002
}
  0
DIMENSION
  5
F9
100
AcDbEntity
  8
notes
370
               5
390
0
  6
Continuous
 62
               7
100
AcDbDimension
  2
*D5
 10
732.68863808113247
 20
-677.44224306095396
 30
0.0
 11
674.68863808113247
 21
-677.44224306095396
 31
0.0
 71
               5
 72
               1
 41
1.0
 42
0.0
  3
tfrom線あり
100
AcDbAlignedDimension
 13
616.68863808113247
 23
-563.32970146395007
 33
0.0
 14
732.68863808113247
 24
-427.25
 34
0.0
100
AcDbRotatedDimension
1001
ACAD
1000
DSTYLE
1002
{
1070
             279
1070
               2
1070
             340
1005
2F
1070
             147
1040
5.0
1002
}
  0
DIMENSION
  5
FA
100
AcDbEntity
  8
notes
370
               5
390
0
  6
Continuous
 62
               7
100
AcDbDimension
  2
*D6
 10
623.12571355684042
 20
-420.0
 30
0.0
 11
628.12571355684042
 21
-409.44224306095401
 31
0.0
 70
             128
 71
               5
 72
               1
 41
1.0
 42
0.0
  3
tfrom線あり
100
AcDbAlignedDimension
 13
616.68863808113247
 23
-550.0
 33
0.0
 14
616.68863808113247
 24
-420.0
 34
0.0
 50
90.0
100
AcDbRotatedDimension
1001
ACAD
1000
DSTYLE
1002
{
1070
             279
1070
               2
1070
             340
1005
2F
1070
               3
1000
<>(深さ)
1070
             174
1070
               0
1070
             147
1040
5.0
1002
}
  0
DIMENSION
  5
FB
100
AcDbEntity
  8
notes
370
               5
390
0
  6
Continuous
 62
               7
100
AcDbDimension
  2
*D7
 10
-199.56710038493094
 20
258.17014575595323
 30
0.0
 11
-449.56710038348012
 21
258.17014575595323
 31
0.0
 71
               5
 72
               1
 41
1.0
 42
0.0
  3
tfrom線あり
100
AcDbAlignedDimension
 13
-699.56710038202925
 23
358.17014575595329
 33
0.0
 14
-199.56710038493094
 24
358.17014575595329
 34
0.0
100
AcDbRotatedDimension
1001
ACAD
1000
DSTYLE
1002
{
1070
             279
1070
               2
1070
             340
1005
2F
1070
             147
1040
5.0
1002
}
  0
DIMENSION
  5
FC
100
AcDbEntity
  8
notes
370
               5
390
0
  6
Continuous
 62
               7
100
AcDbDimension
  2
*D8
 10
-842.03002490922313
 20
661.6701457559534
 30
0.0
 11
-842.03002490922313
 21
531.6701457559534
 31
0.0
 71
               5
 72
               1
 41
1.0
 42
0.0
  3
tfrom線あり
100
AcDbAlignedDimension
 13
-742.03002490922302
 23
401.6701457559534
 33
0.0
 14
-742.03002490922302
 24
661.6701457559534
 34
0.0
 50
90.0
100
AcDbRotatedDimension
1001
ACAD
1000
DSTYLE
1002
{
1070
             279
1070
               2
1070
             340
1005
2F
1070
             147
1040
5.0
1002
}
  0
DIMENSION
  5
FD
100
AcDbEntity
  8
notes
370
               5
390
0
  6
Continuous
 62
               7
100
AcDbDimension
  2
*D9
 10
285.68863808113247
 20
-420.0
 30
0.0
 11
280.68863808113247
 21
-416.0625
 31
0.0
 70
             128
 71
               5
 72
               1
 41
1.0
 42
0.0
  3
tfrom線あり
100
AcDbAlignedDimension
 13
386.43863808113247
 23
-430.0
 33
0.0
 14
390.68863808113247
 24
-420.0
 34
0.0
 50
90.0
100
AcDbRotatedDimension
1001
ACAD
1000
DSTYLE
1002
{
1070
             279
1070
               2
1070
             340
1005
2F
1070
             174
1070
               0
1070
             147
1040
5.0
1002
}
  0
DIMENSION
  5
FE
100
AcDbEntity
  8
notes
370
               5
390
0
  6
Continuous
 62
               7
100
AcDbDimension
  2
*D10
 10
-43.999999999999972
 20
-600.00000000000011
 30
0.0
 11
-43.999999999999972
 21
-510.00000000000006
 31
0.0
 71
               5
 72
               1
 41
1.0
 42
0.0
  3
tfrom線あり
100
AcDbAlignedDimension
 13
-162.03002490922296
 23
-420.0
 33
0.0
 14
-412.03002490922302
 24
-600.00000000000011
 34
0.0
 50
90.0
100
AcDbRotatedDimension
1001
ACAD
1000
DSTYLE
1002
{
1070
             279
1070
               2
1070
             340
1005
2F
1070
             147
1040
5.0
1002
}
  0
DIMENSION
  5
FF
100
AcDbEntity
  8
notes
370
               5
390
0
  6
Continuous
 62
               7
100
AcDbDimension
  2
*D11
 10
-842.03002490922313
 20
705.1701457559534
 30
0.0
 11
-842.03002490922313
 21
683.4201457559534
 31
0.0
 71
               5
 72
               1
 41
1.0
 42
0.0
  3
tfrom線あり
100
AcDbAlignedDimension
 13
-744.0
 23
661.6701457559534
 33
0.0
 14
-744.0
 24
705.1701457559534
 34
0.0
 50
90.0
100
AcDbRotatedDimension
1001
ACAD
1000
DSTYLE
1002
{
1070
             279
1070
               2
1070
             340
1005
2F
1070
             147
1040
5.0
1002
}
  0
MTEXT
  5
100
100
AcDbEntity
  8
notes
390
0
 62
               7
100
AcDbMText
 10
246.55527070769378
 20
-1025.1433081163248
 30
0.0
 40
24.432617187500004
 41
0.0
 71
               1
 72
               1
  1
※カウンターの切込は、商品に付属する型紙を\P　ご参照の上、加工を行ってください。
  7
MS-Gothic
 73
               1
 44
1.1742401076386764
  0
LINE
  5
101
100
AcDbEntity
  8
FAN70-0311
370
              15
390
0
  6
Continuous
 62
               7
100
AcDbLine
 10
-484.59028124922293
 20
-551.37978918880015
 30
0.0
 11
-474.51324192852292
 21
-563.36965233110016
 31
0.0
  0
LINE
  5
102
100
AcDbEntity
  8
FAN70-0311
370
              15
390
0
  6
Continuous
 62
               7
100
AcDbLine
 10
-424.546807889923
 20
-563.36965233110016
 30
0.0
 11
-414.46976856922299
 21
-551.37978918880015
 31
0.0
  0
POLYLINE
  5
103
100
AcDbEntity
  8
FAN70-0311
370
              15
390
0
  6
Continuous
 62
               7
100
AcDb2dPolyline
 66
               1
 10
0.0
 20
0.0
 30
0.0
 75
               5
  0
VERTEX
  5
104
100
AcDbEntity
  8
FAN70-0311
370
              15
390
0
  6
Continuous
 62
               7
100
AcDbVertex
100
AcDb2dVertex
 10
-659.96700817282294
 20
-469.94770812370007
 30
0.0
  0
VERTEX
  5
105
100
AcDbEntity
  8
FAN70-0311
370
              15
390
0
  6
Continuous
 62
               7
100
AcDbVertex
100
AcDb2dVertex
 10
-656.74028909162303
 20
-473.09644154440002
 30
0.0
  0
VERTEX
  5
106
100
AcDbEntity
  8
FAN70-0311
370
              15
390
0
  6
Continuous
 62
               7
100
AcDbVertex
100
AcDb2dVertex
 10
-649.52190087192298
 20
-479.69913038850007
 30
0.0
  0
VERTEX
  5
107
100
AcDbEntity
  8
FAN70-0311
370
              15
390
0
  6
Continuous
 62
               7
100
AcDbVertex
100
AcDb2dVertex
 10
-642.09675053772298
 20
-486.06253687679998
 30
0.0
  0
VERTEX
  5
108
100
AcDbEntity
  8
FAN70-0311
370
              15
390
0
  6
Continuous
 62
               7
100
AcDbVertex
100
AcDb2dVertex
 10
-634.47850855912293
 20
-492.17476456610007
 30
0.0
  0
VERTEX
  5
109
100
AcDbEntity
  8
FAN70-0311
370
              15
390
0
  6
Continuous
 62
               7
100
AcDbVertex
100
AcDb2dVertex
 10
-626.68094777782301
 20
-498.02492627700013
 30
0.0
  0
VERTEX
  5
10A
100
AcDbEntity
  8
FAN70-0311
370
              15
390
0
  6
Continuous
 62
               7
100
AcDbVertex
100
AcDb2dVertex
 10
-618.71640733392303
 20
-503.60403236010012
 30
0.0
  0
VERTEX
  5
10B
100
AcDbEntity
  8
FAN70-0311
370
              15
390
0
  6
Continuous
 62
               7
100
AcDbVertex
100
AcDb2dVertex
 10
-610.60351480792303
 20
-508.89858111320001
 30
0.0
  0
VERTEX
  5
10C
100
AcDbEntity
  8
FAN70-0311
370
              15
390
0
  6
Continuous
 62
               7
100
AcDbVertex
100
AcDb2dVertex
 10
-602.34813205092303
 20
-513.91120617960007
 30
0.0
  0
VERTEX
  5
10D
100
AcDbEntity
  8
FAN70-0311
370
              15
390
0
  6
Continuous
 62
               7
100
AcDbVertex
100
AcDb2dVertex
 10
-593.88121677032302
 20
-518.68623760320008
 30
0.0
  0
VERTEX
  5
10E
100
AcDbEntity
  8
FAN70-0311
370
              15
390
0
  6
Continuous
 62
               7
100
AcDbVertex
100
AcDb2dVertex
 10
-585.222080130623
 20
-523.20975959210011
 30
0.0
  0
VERTEX
  5
10F
100
AcDbEntity
  8
FAN70-0311
370
              15
390
0
  6
Continuous
 62
               7
100
AcDbVertex
100
AcDb2dVertex
 10
-576.39109242932295
 20
-527.46863576990006
 30
0.0
  0
VERTEX
  5
110
100
AcDbEntity
  8
FAN70-0311
370
              15
390
0
  6
Continuous
 62
               7
100
AcDbVertex
100
AcDb2dVertex
 10
-567.40988158502296
 20
-531.4504608842002
 30
0.0
  0
VERTEX
  5
111
100
AcDbEntity
  8
FAN70-0311
370
              15
390
0
  6
Continuous
 62
               7
100
AcDbVertex
100
AcDb2dVertex
 10
-558.30179659952296
 20
-535.14347823200012
 30
0.0
  0
VERTEX
  5
112
100
AcDbEntity
  8
FAN70-0311
370
              15
390
0
  6
Continuous
 62
               7
100
AcDbVertex
100
AcDb2dVertex
 10
-549.09449220272302
 20
-538.53587725760019
 30
0.0
  0
VERTEX
  5
113
100
AcDbEntity
  8
FAN70-0311
370
              15
390
0
  6
Continuous
 62
               7
100
AcDbVertex
100
AcDb2dVertex
 10
-539.81199039912292
 20
-541.61897396990014
 30
0.0
  0
VERTEX
  5
114
100
AcDbEntity
  8
FAN70-0311
370
              15
390
0
  6
Continuous
 62
               7
100
AcDbVertex
100
AcDb2dVertex
 10
-530.47837515542301
 20
-544.38546032420015
 30
0.0
  0
VERTEX
  5
115
100
AcDbEntity
  8
FAN70-0311
370
              15
390
0
  6
Continuous
 62
               7
100
AcDbVertex
100
AcDb2dVertex
 10
-521.12566428622301
 20
-546.82805398000016
 30
0.0
  0
VERTEX
  5
116
100
AcDbEntity
  8
FAN70-0311
370
              15
390
0
  6
Continuous
 62
               7
100
AcDbVertex
100
AcDb2dVertex
 10
-511.73357182592292
 20
-548.96191251400012
 30
0.0
  0
VERTEX
  5
117
100
AcDbEntity
  8
FAN70-0311
370
              15
390
0
  6
Continuous
 62
               7
100
AcDbVertex
100
AcDb2dVertex
 10
-502.14671695672291
 20
-550.81847444660013
 30
0.0
  0
VERTEX
  5
118
100
AcDbEntity
  8
FAN70-0311
370
              15
390
0
  6
Continuous
 62
               7
100
AcDbVertex
100
AcDb2dVertex
 10
-492.51395901752301
 20
-552.36198152210011
 30
0.0
  0
VERTEX
  5
119
100
AcDbEntity
  8
FAN70-0311
370
              15
390
0
  6
Continuous
 62
               7
100
AcDbVertex
100
AcDb2dVertex
 10
-482.83193590152291
 20
-553.59332294310013
 30
0.0
  0
VERTEX
  5
11A
100
AcDbEntity
  8
FAN70-0311
370
              15
390
0
  6
Continuous
 62
               7
100
AcDbVertex
100
AcDb2dVertex
 10
-482.7210864585229
 20
-553.60379457500005
 30
0.0
  0
SEQEND
  5
11B
100
AcDbEntity
  8
FAN70-0311
370
              15
390
0
  6
Continuous
 62
               7
  0
POLYLINE
  5
11C
100
AcDbEntity
  8
FAN70-0311
370
              15
390
0
  6
Continuous
 62
               7
100
AcDb2dPolyline
 66
               1
 10
0.0
 20
0.0
 30
0.0
 75
               5
  0
VERTEX
  5
11D
100
AcDbEntity
  8
FAN70-0311
370
              15
390
0
  6
Continuous
 62
               7
100
AcDbVertex
100
AcDb2dVertex
 10
-416.31963670912296
 20
-553.58079933900001
 30
0.0
  0
VERTEX
  5
11E
100
AcDbEntity
  8
FAN70-0311
370
              15
390
0
  6
Continuous
 62
               7
100
AcDbVertex
100
AcDb2dVertex
 10
-408.4169160720229
 20
-552.62476408920008
 30
0.0
  0
VERTEX
  5
11F
100
AcDbEntity
  8
FAN70-0311
370
              15
390
0
  6
Continuous
 62
               7
100
AcDbVertex
100
AcDb2dVertex
 10
-398.78256951662297
 20
-551.14306649210005
 30
0.0
  0
VERTEX
  5
120
100
AcDbEntity
  8
FAN70-0311
370
              15
390
0
  6
Continuous
 62
               7
100
AcDbVertex
100
AcDb2dVertex
 10
-389.20229683942296
 20
-549.3505761171001
 30
0.0
  0
VERTEX
  5
121
100
AcDbEntity
  8
FAN70-0311
370
              15
390
0
  6
Continuous
 62
               7
100
AcDbVertex
100
AcDb2dVertex
 10
-379.67533461442304
 20
-547.24736665590001
 30
0.0
  0
VERTEX
  5
122
100
AcDbEntity
  8
FAN70-0311
370
              15
390
0
  6
Continuous
 62
               7
100
AcDbVertex
100
AcDb2dVertex
 10
-370.18517866962293
 20
-544.82749345550008
 30
0.0
  0
VERTEX
  5
123
100
AcDbEntity
  8
FAN70-0311
370
              15
390
0
  6
Continuous
 62
               7
100
AcDbVertex
100
AcDb2dVertex
 10
-360.85983677792296
 20
-542.12042215400004
 30
0.0
  0
VERTEX
  5
124
100
AcDbEntity
  8
FAN70-0311
370
              15
390
0
  6
Continuous
 62
               7
100
AcDbVertex
100
AcDb2dVertex
 10
-351.63827299122295
 20
-539.11619958210019
 30
0.0
  0
VERTEX
  5
125
100
AcDbEntity
  8
FAN70-0311
370
              15
390
0
  6
Continuous
 62
               7
100
AcDbVertex
100
AcDb2dVertex
 10
-342.46474135282301
 20
-535.79777520260006
 30
0.0
  0
VERTEX
  5
126
100
AcDbEntity
  8
FAN70-0311
370
              15
390
0
  6
Continuous
 62
               7
100
AcDbVertex
100
AcDb2dVertex
 10
-333.36322263302304
 20
-532.17117480500008
 30
0.0
  0
VERTEX
  5
127
100
AcDbEntity
  8
FAN70-0311
370
              15
390
0
  6
Continuous
 62
               7
100
AcDbVertex
100
AcDb2dVertex
 10
-324.35768649582303
 20
-528.24376070200003
 30
0.0
  0
VERTEX
  5
128
100
AcDbEntity
  8
FAN70-0311
370
              15
390
0
  6
Continuous
 62
               7
100
AcDbVertex
100
AcDb2dVertex
 10
-315.47208440652298
 20
-524.02427089090008
 30
0.0
  0
VERTEX
  5
129
100
AcDbEntity
  8
FAN70-0311
370
              15
390
0
  6
Continuous
 62
               7
100
AcDbVertex
100
AcDb2dVertex
 10
-306.73309996472301
 20
-519.52436810280017
 30
0.0
  0
VERTEX
  5
12A
100
AcDbEntity
  8
FAN70-0311
370
              15
390
0
  6
Continuous
 62
               7
100
AcDbVertex
100
AcDb2dVertex
 10
-298.16501102992299
 20
-514.75637092460022
 30
0.0
  0
VERTEX
  5
12B
100
AcDbEntity
  8
FAN70-0311
370
              15
390
0
  6
Continuous
 62
               7
100
AcDbVertex
100
AcDb2dVertex
 10
-289.78952039792296
 20
-509.73283730229997
 30
0.0
  0
VERTEX
  5
12C
100
AcDbEntity
  8
FAN70-0311
370
              15
390
0
  6
Continuous
 62
               7
100
AcDbVertex
100
AcDb2dVertex
 10
-281.62707985752297
 20
-504.46709661300002
 30
0.0
  0
VERTEX
  5
12D
100
AcDbEntity
  8
FAN70-0311
370
              15
390
0
  6
Continuous
 62
               7
100
AcDbVertex
100
AcDb2dVertex
 10
-273.69971911712298
 20
-498.97703289859993
 30
0.0
  0
VERTEX
  5
12E
100
AcDbEntity
  8
FAN70-0311
370
              15
390
0
  6
Continuous
 62
               7
100
AcDbVertex
100
AcDb2dVertex
 10
-265.94863792882302
 20
-493.22931589850009
 30
0.0
  0
VERTEX
  5
12F
100
AcDbEntity
  8
FAN70-0311
370
              15
390
0
  6
Continuous
 62
               7
100
AcDbVertex
100
AcDb2dVertex
 10
-258.33537438532301
 20
-487.1936032433
 30
0.0
  0
VERTEX
  5
130
100
AcDbEntity
  8
FAN70-0311
370
              15
390
0
  6
Continuous
 62
               7
100
AcDbVertex
100
AcDb2dVertex
 10
-250.90055638872295
 20
-480.89821164130001
 30
0.0
  0
VERTEX
  5
131
100
AcDbEntity
  8
FAN70-0311
370
              15
390
0
  6
Continuous
 62
               7
100
AcDbVertex
100
AcDb2dVertex
 10
-243.65801475042301
 20
-474.35319234560006
 30
0.0
  0
VERTEX
  5
132
100
AcDbEntity
  8
FAN70-0311
370
              15
390
0
  6
Continuous
 62
               7
100
AcDbVertex
100
AcDb2dVertex
 10
-238.95757323572295
 20
-469.82167483450007
 30
0.0
  0
SEQEND
  5
133
100
AcDbEntity
  8
FAN70-0311
370
              15
390
0
  6
Continuous
 62
               7
  0
LINE
  5
134
100
AcDbEntity
  8
FAN70-0311
370
              15
390
0
  6
Continuous
 62
               7
100
AcDbLine
 10
-737.03002490922302
 20
-430.0
 30
0.0
 11
-162.03002490922296
 21
-430.0
 31
0.0
  0
LINE
  5
135
100
AcDbEntity
  8
FAN70-0311
370
              15
390
0
  6
Continuous
 62
               7
100
AcDbLine
 10
-737.03002490922302
 20
-420.0
 30
0.0
 11
-162.03002490922296
 21
-420.0
 31
0.0
  0
ARC
  5
136
100
AcDbEntity
  8
FAN70-0311
370
              15
390
0
  6
Continuous
 62
               7
100
AcDbCircle
 10
-738.53002490922302
 20
-423.5
 30
0.0
 40
3.5
100
AcDbArc
 50
90.0
 51
180.0
  0
LINE
  5
137
100
AcDbEntity
  8
FAN70-0311
370
              15
390
0
  6
Continuous
 62
               7
100
AcDbLine
 10
-738.53002490922302
 20
-420.0
 30
0.0
 11
-737.03002490922302
 21
-420.0
 31
0.0
  0
LINE
  5
138
100
AcDbEntity
  8
FAN70-0311
370
              15
390
0
  6
Continuous
 62
               7
100
AcDbLine
 10
-741.28002490922302
 20
-430.0
 30
0.0
 11
-737.03002490922302
 21
-430.0
 31
0.0
  0
ARC
  5
139
100
AcDbEntity
  8
FAN70-0311
370
              15
390
0
  6
Continuous
 62
               7
100
AcDbCircle
 10
-741.28002490922302
 20
-429.25
 30
0.0
 40
0.75
100
AcDbArc
 50
180.0
 51
270.0
  0
LINE
  5
13A
100
AcDbEntity
  8
FAN70-0311
370
              15
390
0
  6
Continuous
 62
               7
100
AcDbLine
 10
-742.03002490922302
 20
-429.25
 30
0.0
 11
-742.03002490922302
 21
-423.5
 31
0.0
  0
LINE
  5
13B
100
AcDbEntity
  8
FAN70-0311
370
              15
390
0
  6
Continuous
 62
               7
100
AcDbLine
 10
-160.53002490922296
 20
-420.0
 30
0.0
 11
-162.03002490922296
 21
-420.0
 31
0.0
  0
ARC
  5
13C
100
AcDbEntity
  8
FAN70-0311
370
              15
390
0
  6
Continuous
 62
               7
100
AcDbCircle
 10
-160.53002490922296
 20
-423.5
 30
0.0
 40
3.5
100
AcDbArc
 50
0.0
 51
90.0
  0
LINE
  5
13D
100
AcDbEntity
  8
FAN70-0311
370
              15
390
0
  6
Continuous
 62
               7
100
AcDbLine
 10
-162.03002490922296
 20
-430.0
 30
0.0
 11
-157.78002490922296
 21
-430.0
 31
0.0
  0
ARC
  5
13E
100
AcDbEntity
  8
FAN70-0311
370
              15
390
0
  6
Continuous
 62
               7
100
AcDbCircle
 10
-157.78002490922296
 20
-429.25
 30
0.0
 40
0.75
100
AcDbArc
 50
270.0
 51
0.0
  0
LINE
  5
13F
100
AcDbEntity
  8
FAN70-0311
370
              15
390
0
  6
Continuous
 62
               7
100
AcDbLine
 10
-157.03002490922296
 20
-429.25
 30
0.0
 11
-157.03002490922296
 21
-423.5
 31
0.0
  0
POLYLINE
  5
140
100
AcDbEntity
  8
FAN70-0311
370
              15
390
0
  6
Continuous
 62
               7
100
AcDb2dPolyline
 66
               1
 10
0.0
 20
0.0
 30
0.0
 75
               5
  0
VERTEX
  5
141
100
AcDbEntity
  8
FAN70-0311
370
              15
390
0
  6
Continuous
 62
               7
100
AcDbVertex
100
AcDb2dVertex
 10
-482.83163154902297
 20
-553.47226581320012
 30
0.0
  0
VERTEX
  5
142
100
AcDbEntity
  8
FAN70-0311
370
              15
390
0
  6
Continuous
 62
               7
100
AcDbVertex
100
AcDb2dVertex
 10
-486.36304065232298
 20
-553.13593318980008
 30
0.0
  0
VERTEX
  5
143
100
AcDbEntity
  8
FAN70-0311
370
              15
390
0
  6
Continuous
 62
               7
100
AcDbVertex
100
AcDb2dVertex
 10
-503.17679496882295
 20
-550.58253668639998
 30
0.0
  0
VERTEX
  5
144
100
AcDbEntity
  8
FAN70-0311
370
              15
390
0
  6
Continuous
 62
               7
100
AcDbVertex
100
AcDb2dVertex
 10
-519.82260849332295
 20
-547.09973071350021
 30
0.0
  0
VERTEX
  5
145
100
AcDbEntity
  8
FAN70-0311
370
              15
390
0
  6
Continuous
 62
               7
100
AcDbVertex
100
AcDb2dVertex
 10
-536.22185608672294
 20
-542.7016480796002
 30
0.0
  0
VERTEX
  5
146
100
AcDbEntity
  8
FAN70-0311
370
              15
390
0
  6
Continuous
 62
               7
100
AcDbVertex
100
AcDb2dVertex
 10
-552.29591261002304
 20
-537.40242159370007
 30
0.0
  0
VERTEX
  5
147
100
AcDbEntity
  8
FAN70-0311
370
              15
390
0
  6
Continuous
 62
               7
100
AcDbVertex
100
AcDb2dVertex
 10
-565.88084863392294
 20
-532.11420236640004
 30
0.0
  0
VERTEX
  5
148
100
AcDbEntity
  8
FAN70-0311
370
              15
390
0
  6
Continuous
 62
               7
100
AcDbVertex
100
AcDb2dVertex
 10
-579.20234049672297
 20
-526.17359335399999
 30
0.0
  0
VERTEX
  5
149
100
AcDbEntity
  8
FAN70-0311
370
              15
390
0
  6
Continuous
 62
               7
100
AcDbVertex
100
AcDb2dVertex
 10
-592.21368994132297
 20
-519.60118683420012
 30
0.0
  0
VERTEX
  5
14A
100
AcDbEntity
  8
FAN70-0311
370
              15
390
0
  6
Continuous
 62
               7
100
AcDbVertex
100
AcDb2dVertex
 10
-608.51120472062291
 20
-510.19536084190014
 30
0.0
  0
VERTEX
  5
14B
100
AcDbEntity
  8
FAN70-0311
370
              15
390
0
  6
Continuous
 62
               7
100
AcDbVertex
100
AcDb2dVertex
 10
-624.22018418162304
 20
-499.77108753570002
 30
0.0
  0
VERTEX
  5
14C
100
AcDbEntity
  8
FAN70-0311
370
              15
390
0
  6
Continuous
 62
               7
100
AcDbVertex
100
AcDb2dVertex
 10
-639.25040266932297
 20
-488.39151659370009
 30
0.0
  0
VERTEX
  5
14D
100
AcDbEntity
  8
FAN70-0311
370
              15
390
0
  6
Continuous
 62
               7
100
AcDbVertex
100
AcDb2dVertex
 10
-653.51163452862295
 20
-476.11979769410004
 30
0.0
  0
VERTEX
  5
14E
100
AcDbEntity
  8
FAN70-0311
370
              15
390
0
  6
Continuous
 62
               7
100
AcDbVertex
100
AcDb2dVertex
 10
-659.91840725222301
 20
-469.88433922139996
 30
0.0
  0
VERTEX
  5
14F
100
AcDbEntity
  8
FAN70-0311
370
              15
390
0
  6
Continuous
 62
               7
100
AcDbVertex
100
AcDb2dVertex
 10
-666.22856993052301
 20
-463.7429074846001
 30
0.0
  0
VERTEX
  5
150
100
AcDbEntity
  8
FAN70-0311
370
              15
390
0
  6
Continuous
 62
               7
100
AcDbVertex
100
AcDb2dVertex
 10
-678.213242185323
 20
-450.61464716859996
 30
0.0
  0
VERTEX
  5
151
100
AcDbEntity
  8
FAN70-0311
370
              15
390
0
  6
Continuous
 62
               7
100
AcDbVertex
100
AcDb2dVertex
 10
-689.404552726823
 20
-436.80497426220006
 30
0.0
  0
VERTEX
  5
152
100
AcDbEntity
  8
FAN70-0311
370
              15
390
0
  6
Continuous
 62
               7
100
AcDbVertex
100
AcDb2dVertex
 10
-695.71582745022295
 20
-428.0
 30
0.0
  0
SEQEND
  5
153
100
AcDbEntity
  8
FAN70-0311
370
              15
390
0
  6
Continuous
 62
               7
  0
POLYLINE
  5
154
100
AcDbEntity
  8
FAN70-0311
370
              15
390
0
  6
Continuous
 62
               7
100
AcDb2dPolyline
 66
               1
 10
0.0
 20
0.0
 30
0.0
 75
               5
  0
VERTEX
  5
155
100
AcDbEntity
  8
FAN70-0311
370
              15
390
0
  6
Continuous
 62
               7
100
AcDbVertex
100
AcDb2dVertex
 10
-484.58359484112293
 20
-551.37413294010014
 30
0.0
  0
VERTEX
  5
156
100
AcDbEntity
  8
FAN70-0311
370
              15
390
0
  6
Continuous
 62
               7
100
AcDbVertex
100
AcDb2dVertex
 10
-484.59709926892299
 20
-551.36779057360002
 30
0.0
  0
VERTEX
  5
157
100
AcDbEntity
  8
FAN70-0311
370
              15
390
0
  6
Continuous
 62
               7
100
AcDbVertex
100
AcDb2dVertex
 10
-484.339928737023
 20
-551.16445851970013
 30
0.0
  0
VERTEX
  5
158
100
AcDbEntity
  8
FAN70-0311
370
              15
390
0
  6
Continuous
 62
               7
100
AcDbVertex
100
AcDb2dVertex
 10
-483.157691353823
 20
-551.06873775220004
 30
0.0
  0
VERTEX
  5
159
100
AcDbEntity
  8
FAN70-0311
370
              15
390
0
  6
Continuous
 62
               7
100
AcDbVertex
100
AcDb2dVertex
 10
-481.10787793952295
 20
-551.07074770990005
 30
0.0
  0
VERTEX
  5
15A
100
AcDbEntity
  8
FAN70-0311
370
              15
390
0
  6
Continuous
 62
               7
100
AcDbVertex
100
AcDb2dVertex
 10
-478.27468549342302
 20
-551.15265849790001
 30
0.0
  0
VERTEX
  5
15B
100
AcDbEntity
  8
FAN70-0311
370
              15
390
0
  6
Continuous
 62
               7
100
AcDbVertex
100
AcDb2dVertex
 10
-474.74779460662296
 20
-551.28786065660017
 30
0.0
  0
VERTEX
  5
15C
100
AcDbEntity
  8
FAN70-0311
370
              15
390
0
  6
Continuous
 62
               7
100
AcDbVertex
100
AcDb2dVertex
 10
-470.417797890923
 20
-551.45709206310005
 30
0.0
  0
VERTEX
  5
15D
100
AcDbEntity
  8
FAN70-0311
370
              15
390
0
  6
Continuous
 62
               7
100
AcDbVertex
100
AcDb2dVertex
 10
-465.56528282302293
 20
-551.62481421080008
 30
0.0
  0
VERTEX
  5
15E
100
AcDbEntity
  8
FAN70-0311
370
              15
390
0
  6
Continuous
 62
               7
100
AcDbVertex
100
AcDb2dVertex
 10
-460.05809386362296
 20
-551.76888567310004
 30
0.0
  0
VERTEX
  5
15F
100
AcDbEntity
  8
FAN70-0311
370
              15
390
0
  6
Continuous
 62
               7
100
AcDbVertex
100
AcDb2dVertex
 10
-454.27202648972298
 20
-551.85950412120008
 30
0.0
  0
VERTEX
  5
160
100
AcDbEntity
  8
FAN70-0311
370
              15
390
0
  6
Continuous
 62
               7
100
AcDbVertex
100
AcDb2dVertex
 10
-449.5300249092229
 20
-551.8827244455
 30
0.0
  0
SEQEND
  5
161
100
AcDbEntity
  8
FAN70-0311
370
              15
390
0
  6
Continuous
 62
               7
  0
POLYLINE
  5
162
100
AcDbEntity
  8
FAN70-0311
370
              15
390
0
  6
Continuous
 62
               7
100
AcDb2dPolyline
 66
               1
 10
0.0
 20
0.0
 30
0.0
 75
               5
  0
VERTEX
  5
163
100
AcDbEntity
  8
FAN70-0311
370
              15
390
0
  6
Continuous
 62
               7
100
AcDbVertex
100
AcDb2dVertex
 10
-416.22841826942295
 20
-553.47226581320012
 30
0.0
  0
VERTEX
  5
164
100
AcDbEntity
  8
FAN70-0311
370
              15
390
0
  6
Continuous
 62
               7
100
AcDbVertex
100
AcDb2dVertex
 10
-412.69700916612294
 20
-553.13593318980008
 30
0.0
  0
VERTEX
  5
165
100
AcDbEntity
  8
FAN70-0311
370
              15
390
0
  6
Continuous
 62
               7
100
AcDbVertex
100
AcDb2dVertex
 10
-395.88325484962297
 20
-550.58253668639998
 30
0.0
  0
VERTEX
  5
166
100
AcDbEntity
  8
FAN70-0311
370
              15
390
0
  6
Continuous
 62
               7
100
AcDbVertex
100
AcDb2dVertex
 10
-379.23744132512297
 20
-547.09973071350021
 30
0.0
  0
VERTEX
  5
167
100
AcDbEntity
  8
FAN70-0311
370
              15
390
0
  6
Continuous
 62
               7
100
AcDbVertex
100
AcDb2dVertex
 10
-362.83819373172298
 20
-542.7016480796002
 30
0.0
  0
VERTEX
  5
168
100
AcDbEntity
  8
FAN70-0311
370
              15
390
0
  6
Continuous
 62
               7
100
AcDbVertex
100
AcDb2dVertex
 10
-346.76413720842288
 20
-537.40242159370007
 30
0.0
  0
VERTEX
  5
169
100
AcDbEntity
  8
FAN70-0311
370
              15
390
0
  6
Continuous
 62
               7
100
AcDbVertex
100
AcDb2dVertex
 10
-333.17920118452298
 20
-532.11420236640004
 30
0.0
  0
VERTEX
  5
16A
100
AcDbEntity
  8
FAN70-0311
370
              15
390
0
  6
Continuous
 62
               7
100
AcDbVertex
100
AcDb2dVertex
 10
-319.85770932172295
 20
-526.17359335399999
 30
0.0
  0
VERTEX
  5
16B
100
AcDbEntity
  8
FAN70-0311
370
              15
390
0
  6
Continuous
 62
               7
100
AcDbVertex
100
AcDb2dVertex
 10
-306.84635987712295
 20
-519.60118683420012
 30
0.0
  0
VERTEX
  5
16C
100
AcDbEntity
  8
FAN70-0311
370
              15
390
0
  6
Continuous
 62
               7
100
AcDbVertex
100
AcDb2dVertex
 10
-290.548845097823
 20
-510.19536084190014
 30
0.0
  0
VERTEX
  5
16D
100
AcDbEntity
  8
FAN70-0311
370
              15
390
0
  6
Continuous
 62
               7
100
AcDbVertex
100
AcDb2dVertex
 10
-274.83986563682299
 20
-499.77108753570002
 30
0.0
  0
VERTEX
  5
16E
100
AcDbEntity
  8
FAN70-0311
370
              15
390
0
  6
Continuous
 62
               7
100
AcDbVertex
100
AcDb2dVertex
 10
-259.80964714912295
 20
-488.39151659370009
 30
0.0
  0
VERTEX
  5
16F
100
AcDbEntity
  8
FAN70-0311
370
              15
390
0
  6
Continuous
 62
               7
100
AcDbVertex
100
AcDb2dVertex
 10
-245.54841528982294
 20
-476.11979769410004
 30
0.0
  0
VERTEX
  5
170
100
AcDbEntity
  8
FAN70-0311
370
              15
390
0
  6
Continuous
 62
               7
100
AcDbVertex
100
AcDb2dVertex
 10
-239.00909908212302
 20
-469.75533989109999
 30
0.0
  0
VERTEX
  5
171
100
AcDbEntity
  8
FAN70-0311
370
              15
390
0
  6
Continuous
 62
               7
100
AcDbVertex
100
AcDb2dVertex
 10
-232.83147988792297
 20
-463.7429074846001
 30
0.0
  0
VERTEX
  5
172
100
AcDbEntity
  8
FAN70-0311
370
              15
390
0
  6
Continuous
 62
               7
100
AcDbVertex
100
AcDb2dVertex
 10
-220.84680763312286
 20
-450.61464716859996
 30
0.0
  0
VERTEX
  5
173
100
AcDbEntity
  8
FAN70-0311
370
              15
390
0
  6
Continuous
 62
               7
100
AcDbVertex
100
AcDb2dVertex
 10
-209.65549709162286
 20
-436.80497426220006
 30
0.0
  0
VERTEX
  5
174
100
AcDbEntity
  8
FAN70-0311
370
              15
390
0
  6
Continuous
 62
               7
100
AcDbVertex
100
AcDb2dVertex
 10
-203.34422236822292
 20
-428.0
 30
0.0
  0
SEQEND
  5
175
100
AcDbEntity
  8
FAN70-0311
370
              15
390
0
  6
Continuous
 62
               7
  0
POLYLINE
  5
176
100
AcDbEntity
  8
FAN70-0311
370
              15
390
0
  6
Continuous
 62
               7
100
AcDb2dPolyline
 66
               1
 10
0.0
 20
0.0
 30
0.0
 75
               5
  0
VERTEX
  5
177
100
AcDbEntity
  8
FAN70-0311
370
              15
390
0
  6
Continuous
 62
               7
100
AcDbVertex
100
AcDb2dVertex
 10
-414.47645497732287
 20
-551.37413294010014
 30
0.0
  0
VERTEX
  5
178
100
AcDbEntity
  8
FAN70-0311
370
              15
390
0
  6
Continuous
 62
               7
100
AcDbVertex
100
AcDb2dVertex
 10
-414.46295054952293
 20
-551.36779057360002
 30
0.0
  0
VERTEX
  5
179
100
AcDbEntity
  8
FAN70-0311
370
              15
390
0
  6
Continuous
 62
               7
100
AcDbVertex
100
AcDb2dVertex
 10
-414.72012108142292
 20
-551.16445851970013
 30
0.0
  0
VERTEX
  5
17A
100
AcDbEntity
  8
FAN70-0311
370
              15
390
0
  6
Continuous
 62
               7
100
AcDbVertex
100
AcDb2dVertex
 10
-415.90235846462292
 20
-551.06873775220004
 30
0.0
  0
VERTEX
  5
17B
100
AcDbEntity
  8
FAN70-0311
370
              15
390
0
  6
Continuous
 62
               7
100
AcDbVertex
100
AcDb2dVertex
 10
-417.95217187892297
 20
-551.07074770990005
 30
0.0
  0
VERTEX
  5
17C
100
AcDbEntity
  8
FAN70-0311
370
              15
390
0
  6
Continuous
 62
               7
100
AcDbVertex
100
AcDb2dVertex
 10
-420.78536432502301
 20
-551.15265849790001
 30
0.0
  0
VERTEX
  5
17D
100
AcDbEntity
  8
FAN70-0311
370
              15
390
0
  6
Continuous
 62
               7
100
AcDbVertex
100
AcDb2dVertex
 10
-424.31225521182296
 20
-551.28786065660017
 30
0.0
  0
VERTEX
  5
17E
100
AcDbEntity
  8
FAN70-0311
370
              15
390
0
  6
Continuous
 62
               7
100
AcDbVertex
100
AcDb2dVertex
 10
-428.64225192752292
 20
-551.45709206310005
 30
0.0
  0
VERTEX
  5
17F
100
AcDbEntity
  8
FAN70-0311
370
              15
390
0
  6
Continuous
 62
               7
100
AcDbVertex
100
AcDb2dVertex
 10
-433.49476699542299
 20
-551.62481421080008
 30
0.0
  0
VERTEX
  5
180
100
AcDbEntity
  8
FAN70-0311
370
              15
390
0
  6
Continuous
 62
               7
100
AcDbVertex
100
AcDb2dVertex
 10
-439.00195595482296
 20
-551.76888567310004
 30
0.0
  0
VERTEX
  5
181
100
AcDbEntity
  8
FAN70-0311
370
              15
390
0
  6
Continuous
 62
               7
100
AcDbVertex
100
AcDb2dVertex
 10
-444.78802332872294
 20
-551.85950412120008
 30
0.0
  0
VERTEX
  5
182
100
AcDbEntity
  8
FAN70-0311
370
              15
390
0
  6
Continuous
 62
               7
100
AcDbVertex
100
AcDb2dVertex
 10
-449.5300249092229
 20
-551.8827244455
 30
0.0
  0
SEQEND
  5
183
100
AcDbEntity
  8
FAN70-0311
370
              15
390
0
  6
Continuous
 62
               7
  0
POLYLINE
  5
184
100
AcDbEntity
  8
FAN70-0311
370
              15
390
0
  6
Continuous
 62
               7
100
AcDb2dPolyline
 66
               1
 10
0.0
 20
0.0
 30
0.0
 75
               5
  0
VERTEX
  5
185
100
AcDbEntity
  8
FAN70-0311
370
              15
390
0
  6
Continuous
 62
               7
100
AcDbVertex
100
AcDb2dVertex
 10
-449.5300249092229
 20
-564.42018614810002
 30
0.0
  0
VERTEX
  5
186
100
AcDbEntity
  8
FAN70-0311
370
              15
390
0
  6
Continuous
 62
               7
100
AcDbVertex
100
AcDb2dVertex
 10
-446.57319563622298
 20
-564.41253214080018
 30
0.0
  0
VERTEX
  5
187
100
AcDbEntity
  8
FAN70-0311
370
              15
390
0
  6
Continuous
 62
               7
100
AcDbVertex
100
AcDb2dVertex
 10
-443.65787376472304
 20
-564.38967756430009
 30
0.0
  0
VERTEX
  5
188
100
AcDbEntity
  8
FAN70-0311
370
              15
390
0
  6
Continuous
 62
               7
100
AcDbVertex
100
AcDb2dVertex
 10
-440.82498402332294
 20
-564.35194324700012
 30
0.0
  0
VERTEX
  5
189
100
AcDbEntity
  8
FAN70-0311
370
              15
390
0
  6
Continuous
 62
               7
100
AcDbVertex
100
AcDb2dVertex
 10
-438.11429397442305
 20
-564.29985889580018
 30
0.0
  0
VERTEX
  5
18A
100
AcDbEntity
  8
FAN70-0311
370
              15
390
0
  6
Continuous
 62
               7
100
AcDbVertex
100
AcDb2dVertex
 10
-435.56385576412288
 20
-564.23415566080018
 30
0.0
  0
VERTEX
  5
18B
100
AcDbEntity
  8
FAN70-0311
370
              15
390
0
  6
Continuous
 62
               7
100
AcDbVertex
100
AcDb2dVertex
 10
-433.20947195442295
 20
-564.15575587160004
 30
0.0
  0
VERTEX
  5
18C
100
AcDbEntity
  8
FAN70-0311
370
              15
390
0
  6
Continuous
 62
               7
100
AcDbVertex
100
AcDb2dVertex
 10
-431.08419293322299
 20
-564.06576008910008
 30
0.0
  0
VERTEX
  5
18D
100
AcDbEntity
  8
FAN70-0311
370
              15
390
0
  6
Continuous
 62
               7
100
AcDbVertex
100
AcDb2dVertex
 10
-429.21785295912298
 20
-563.96543165710011
 30
0.0
  0
VERTEX
  5
18E
100
AcDbEntity
  8
FAN70-0311
370
              15
390
0
  6
Continuous
 62
               7
100
AcDbVertex
100
AcDb2dVertex
 10
-427.63665135432302
 20
-563.85617896660017
 30
0.0
  0
VERTEX
  5
18F
100
AcDbEntity
  8
FAN70-0311
370
              15
390
0
  6
Continuous
 62
               7
100
AcDbVertex
100
AcDb2dVertex
 10
-426.36278472342292
 20
-563.73953568610011
 30
0.0
  0
VERTEX
  5
190
100
AcDbEntity
  8
FAN70-0311
370
              15
390
0
  6
Continuous
 62
               7
100
AcDbVertex
100
AcDb2dVertex
 10
-425.41413536152299
 20
-563.61713923140007
 30
0.0
  0
VERTEX
  5
191
100
AcDbEntity
  8
FAN70-0311
370
              15
390
0
  6
Continuous
 62
               7
100
AcDbVertex
100
AcDb2dVertex
 10
-424.80402022612293
 20
-563.49070778060002
 30
0.0
  0
VERTEX
  5
192
100
AcDbEntity
  8
FAN70-0311
370
              15
390
0
  6
Continuous
 62
               7
100
AcDbVertex
100
AcDb2dVertex
 10
-424.54100399652293
 20
-563.36201615400012
 30
0.0
  0
VERTEX
  5
193
100
AcDbEntity
  8
FAN70-0311
370
              15
390
0
  6
Continuous
 62
               7
100
AcDbVertex
100
AcDb2dVertex
 10
-424.62877884382294
 20
-563.23287090010001
 30
0.0
  0
VERTEX
  5
194
100
AcDbEntity
  8
FAN70-0311
370
              15
390
0
  6
Continuous
 62
               7
100
AcDbVertex
100
AcDb2dVertex
 10
-425.06611260172292
 20
-563.10508493490022
 30
0.0
  0
VERTEX
  5
195
100
AcDbEntity
  8
FAN70-0311
370
              15
390
0
  6
Continuous
 62
               7
100
AcDbVertex
100
AcDb2dVertex
 10
-425.84686606282298
 20
-562.98045209350005
 30
0.0
  0
VERTEX
  5
196
100
AcDbEntity
  8
FAN70-0311
370
              15
390
0
  6
Continuous
 62
               7
100
AcDbVertex
100
AcDb2dVertex
 10
-426.96007916012297
 20
-562.8607219477002
 30
0.0
  0
VERTEX
  5
197
100
AcDbEntity
  8
FAN70-0311
370
              15
390
0
  6
Continuous
 62
               7
100
AcDbVertex
100
AcDb2dVertex
 10
-428.39012482162298
 20
-562.7475752462002
 30
0.0
  0
VERTEX
  5
198
100
AcDbEntity
  8
FAN70-0311
370
              15
390
0
  6
Continuous
 62
               7
100
AcDbVertex
100
AcDb2dVertex
 10
-430.116928341223
 20
-562.64260032080017
 30
0.0
  0
VERTEX
  5
199
100
AcDbEntity
  8
FAN70-0311
370
              15
390
0
  6
Continuous
 62
               7
100
AcDbVertex
100
AcDb2dVertex
 10
-432.11624918262294
 20
-562.54727078940016
 30
0.0
  0
VERTEX
  5
19A
100
AcDbEntity
  8
FAN70-0311
370
              15
390
0
  6
Continuous
 62
               7
100
AcDbVertex
100
AcDb2dVertex
 10
-434.36002126372296
 20
-562.46292486940013
 30
0.0
  0
VERTEX
  5
19B
100
AcDbEntity
  8
FAN70-0311
370
              15
390
0
  6
Continuous
 62
               7
100
AcDbVertex
100
AcDb2dVertex
 10
-436.81674694302296
 20
-562.39074659289997
 30
0.0
  0
VERTEX
  5
19C
100
AcDbEntity
  8
FAN70-0311
370
              15
390
0
  6
Continuous
 62
               7
100
AcDbVertex
100
AcDb2dVertex
 10
-439.45193917702295
 20
-562.3317491846002
 30
0.0
  0
VERTEX
  5
19D
100
AcDbEntity
  8
FAN70-0311
370
              15
390
0
  6
Continuous
 62
               7
100
AcDbVertex
100
AcDb2dVertex
 10
-442.22860564332302
 20
-562.28676083870016
 30
0.0
  0
VERTEX
  5
19E
100
AcDbEntity
  8
FAN70-0311
370
              15
390
0
  6
Continuous
 62
               7
100
AcDbVertex
100
AcDb2dVertex
 10
-445.10776803112299
 20
-562.25641309300011
 30
0.0
  0
VERTEX
  5
19F
100
AcDbEntity
  8
FAN70-0311
370
              15
390
0
  6
Continuous
 62
               7
100
AcDbVertex
100
AcDb2dVertex
 10
-448.04900921192302
 20
-562.24113196340011
 30
0.0
  0
VERTEX
  5
1A0
100
AcDbEntity
  8
FAN70-0311
370
              15
390
0
  6
Continuous
 62
               7
100
AcDbVertex
100
AcDb2dVertex
 10
-451.01104060652301
 20
-562.24113196340011
 30
0.0
  0
VERTEX
  5
1A1
100
AcDbEntity
  8
FAN70-0311
370
              15
390
0
  6
Continuous
 62
               7
100
AcDbVertex
100
AcDb2dVertex
 10
-453.95228178732293
 20
-562.25641309300011
 30
0.0
  0
VERTEX
  5
1A2
100
AcDbEntity
  8
FAN70-0311
370
              15
390
0
  6
Continuous
 62
               7
100
AcDbVertex
100
AcDb2dVertex
 10
-456.83144417512301
 20
-562.28676083870016
 30
0.0
  0
VERTEX
  5
1A3
100
AcDbEntity
  8
FAN70-0311
370
              15
390
0
  6
Continuous
 62
               7
100
AcDbVertex
100
AcDb2dVertex
 10
-459.60811064142297
 20
-562.3317491846002
 30
0.0
  0
VERTEX
  5
1A4
100
AcDbEntity
  8
FAN70-0311
370
              15
390
0
  6
Continuous
 62
               7
100
AcDbVertex
100
AcDb2dVertex
 10
-462.24330287542296
 20
-562.39074659289997
 30
0.0
  0
VERTEX
  5
1A5
100
AcDbEntity
  8
FAN70-0311
370
              15
390
0
  6
Continuous
 62
               7
100
AcDbVertex
100
AcDb2dVertex
 10
-464.70002855472296
 20
-562.46292486940013
 30
0.0
  0
VERTEX
  5
1A6
100
AcDbEntity
  8
FAN70-0311
370
              15
390
0
  6
Continuous
 62
               7
100
AcDbVertex
100
AcDb2dVertex
 10
-466.94380063582298
 20
-562.54727078940016
 30
0.0
  0
VERTEX
  5
1A7
100
AcDbEntity
  8
FAN70-0311
370
              15
390
0
  6
Continuous
 62
               7
100
AcDbVertex
100
AcDb2dVertex
 10
-468.94312147712299
 20
-562.64260032080017
 30
0.0
  0
VERTEX
  5
1A8
100
AcDbEntity
  8
FAN70-0311
370
              15
390
0
  6
Continuous
 62
               7
100
AcDbVertex
100
AcDb2dVertex
 10
-470.6699249967229
 20
-562.7475752462002
 30
0.0
  0
VERTEX
  5
1A9
100
AcDbEntity
  8
FAN70-0311
370
              15
390
0
  6
Continuous
 62
               7
100
AcDbVertex
100
AcDb2dVertex
 10
-472.09997065832295
 20
-562.8607219477002
 30
0.0
  0
VERTEX
  5
1AA
100
AcDbEntity
  8
FAN70-0311
370
              15
390
0
  6
Continuous
 62
               7
100
AcDbVertex
100
AcDb2dVertex
 10
-473.213183755523
 20
-562.98045209350005
 30
0.0
  0
VERTEX
  5
1AB
100
AcDbEntity
  8
FAN70-0311
370
              15
390
0
  6
Continuous
 62
               7
100
AcDbVertex
100
AcDb2dVertex
 10
-473.993937216723
 20
-563.10508493490022
 30
0.0
  0
VERTEX
  5
1AC
100
AcDbEntity
  8
FAN70-0311
370
              15
390
0
  6
Continuous
 62
               7
100
AcDbVertex
100
AcDb2dVertex
 10
-474.43127097462298
 20
-563.23287090010001
 30
0.0
  0
VERTEX
  5
1AD
100
AcDbEntity
  8
FAN70-0311
370
              15
390
0
  6
Continuous
 62
               7
100
AcDbVertex
100
AcDb2dVertex
 10
-474.51904582192299
 20
-563.36201615400012
 30
0.0
  0
VERTEX
  5
1AE
100
AcDbEntity
  8
FAN70-0311
370
              15
390
0
  6
Continuous
 62
               7
100
AcDbVertex
100
AcDb2dVertex
 10
-474.25602959222294
 20
-563.49070778060002
 30
0.0
  0
VERTEX
  5
1AF
100
AcDbEntity
  8
FAN70-0311
370
              15
390
0
  6
Continuous
 62
               7
100
AcDbVertex
100
AcDb2dVertex
 10
-473.64591445692292
 20
-563.61713923140007
 30
0.0
  0
VERTEX
  5
1B0
100
AcDbEntity
  8
FAN70-0311
370
              15
390
0
  6
Continuous
 62
               7
100
AcDbVertex
100
AcDb2dVertex
 10
-472.697265095023
 20
-563.73953568610011
 30
0.0
  0
VERTEX
  5
1B1
100
AcDbEntity
  8
FAN70-0311
370
              15
390
0
  6
Continuous
 62
               7
100
AcDbVertex
100
AcDb2dVertex
 10
-471.42339846412301
 20
-563.85617896660017
 30
0.0
  0
VERTEX
  5
1B2
100
AcDbEntity
  8
FAN70-0311
370
              15
390
0
  6
Continuous
 62
               7
100
AcDbVertex
100
AcDb2dVertex
 10
-469.84219685932294
 20
-563.96543165710011
 30
0.0
  0
VERTEX
  5
1B3
100
AcDbEntity
  8
FAN70-0311
370
              15
390
0
  6
Continuous
 62
               7
100
AcDbVertex
100
AcDb2dVertex
 10
-467.97585688522292
 20
-564.06576008910008
 30
0.0
  0
VERTEX
  5
1B4
100
AcDbEntity
  8
FAN70-0311
370
              15
390
0
  6
Continuous
 62
               7
100
AcDbVertex
100
AcDb2dVertex
 10
-465.85057786402297
 20
-564.15575587160004
 30
0.0
  0
VERTEX
  5
1B5
100
AcDbEntity
  8
FAN70-0311
370
              15
390
0
  6
Continuous
 62
               7
100
AcDbVertex
100
AcDb2dVertex
 10
-463.49619405432293
 20
-564.23415566080018
 30
0.0
  0
VERTEX
  5
1B6
100
AcDbEntity
  8
FAN70-0311
370
              15
390
0
  6
Continuous
 62
               7
100
AcDbVertex
100
AcDb2dVertex
 10
-460.94575584402298
 20
-564.29985889580018
 30
0.0
  0
VERTEX
  5
1B7
100
AcDbEntity
  8
FAN70-0311
370
              15
390
0
  6
Continuous
 62
               7
100
AcDbVertex
100
AcDb2dVertex
 10
-458.23506579512298
 20
-564.35194324700012
 30
0.0
  0
VERTEX
  5
1B8
100
AcDbEntity
  8
FAN70-0311
370
              15
390
0
  6
Continuous
 62
               7
100
AcDbVertex
100
AcDb2dVertex
 10
-455.402176053723
 20
-564.38967756430009
 30
0.0
  0
VERTEX
  5
1B9
100
AcDbEntity
  8
FAN70-0311
370
              15
390
0
  6
Continuous
 62
               7
100
AcDbVertex
100
AcDb2dVertex
 10
-452.48685418222294
 20
-564.41253214080018
 30
0.0
  0
VERTEX
  5
1BA
100
AcDbEntity
  8
FAN70-0311
370
              15
390
0
  6
Continuous
 62
               7
100
AcDbVertex
100
AcDb2dVertex
 10
-449.5300249092229
 20
-564.42018614810002
 30
0.0
  0
SEQEND
  5
1BB
100
AcDbEntity
  8
FAN70-0311
370
              15
390
0
  6
Continuous
 62
               7
  0
POLYLINE
  5
1BC
100
AcDbEntity
  8
FAN70-0311
370
              15
390
0
  6
Continuous
 62
               7
100
AcDb2dPolyline
 66
               1
 10
0.0
 20
0.0
 30
0.0
 75
               5
  0
VERTEX
  5
1BD
100
AcDbEntity
  8
FAN70-0311
370
              15
390
0
  6
Continuous
 62
               7
100
AcDbVertex
100
AcDb2dVertex
 10
-449.5300249092229
 20
-564.33477454870001
 30
0.0
  0
VERTEX
  5
1BE
100
AcDbEntity
  8
FAN70-0311
370
              15
390
0
  6
Continuous
 62
               7
100
AcDbVertex
100
AcDb2dVertex
 10
-452.41793937332295
 20
-564.32684924720013
 30
0.0
  0
VERTEX
  5
1BF
100
AcDbEntity
  8
FAN70-0311
370
              15
390
0
  6
Continuous
 62
               7
100
AcDbVertex
100
AcDb2dVertex
 10
-455.26030970112299
 20
-564.30319832960015
 30
0.0
  0
VERTEX
  5
1C0
100
AcDbEntity
  8
FAN70-0311
370
              15
390
0
  6
Continuous
 62
               7
100
AcDbVertex
100
AcDb2dVertex
 10
-458.01231001462293
 20
-564.2641947848
 30
0.0
  0
VERTEX
  5
1C1
100
AcDbEntity
  8
FAN70-0311
370
              15
390
0
  6
Continuous
 62
               7
100
AcDbVertex
100
AcDb2dVertex
 10
-460.63053962502295
 20
-564.21045372210017
 30
0.0
  0
VERTEX
  5
1C2
100
AcDbEntity
  8
FAN70-0311
370
              15
390
0
  6
Continuous
 62
               7
100
AcDbVertex
100
AcDb2dVertex
 10
-463.07370748722303
 20
-564.14282267010014
 30
0.0
  0
VERTEX
  5
1C3
100
AcDbEntity
  8
FAN70-0311
370
              15
390
0
  6
Continuous
 62
               7
100
AcDbVertex
100
AcDb2dVertex
 10
-465.30328338452296
 20
-564.06236821100003
 30
0.0
  0
VERTEX
  5
1C4
100
AcDbEntity
  8
FAN70-0311
370
              15
390
0
  6
Continuous
 62
               7
100
AcDbVertex
100
AcDb2dVertex
 10
-467.28410557312293
 20
-563.97035915960021
 30
0.0
  0
VERTEX
  5
1C5
100
AcDbEntity
  8
FAN70-0311
370
              15
390
0
  6
Continuous
 62
               7
100
AcDbVertex
100
AcDb2dVertex
 10
-468.98493530392295
 20
-563.86824655370003
 30
0.0
  0
VERTEX
  5
1C6
100
AcDbEntity
  8
FAN70-0311
370
              15
390
0
  6
Continuous
 62
               7
100
AcDbVertex
100
AcDb2dVertex
 10
-470.37894947602297
 20
-563.75764076990015
 30
0.0
  0
VERTEX
  5
1C7
100
AcDbEntity
  8
FAN70-0311
370
              15
390
0
  6
Continuous
 62
               7
100
AcDbVertex
100
AcDb2dVertex
 10
-471.44416365322297
 20
-563.64028612770005
 30
0.0
  0
VERTEX
  5
1C8
100
AcDbEntity
  8
FAN70-0311
370
              15
390
0
  6
Continuous
 62
               7
100
AcDbVertex
100
AcDb2dVertex
 10
-472.16377877142293
 20
-563.51803337980016
 30
0.0
  0
VERTEX
  5
1C9
100
AcDbEntity
  8
FAN70-0311
370
              15
390
0
  6
Continuous
 62
               7
100
AcDbVertex
100
AcDb2dVertex
 10
-472.52644607052298
 20
-563.39281052510012
 30
0.0
  0
VERTEX
  5
1CA
100
AcDbEntity
  8
FAN70-0311
370
              15
390
0
  6
Continuous
 62
               7
100
AcDbVertex
100
AcDb2dVertex
 10
-472.52644607052298
 20
-563.26659240280003
 30
0.0
  0
VERTEX
  5
1CB
100
AcDbEntity
  8
FAN70-0311
370
              15
390
0
  6
Continuous
 62
               7
100
AcDbVertex
100
AcDb2dVertex
 10
-472.16377877142293
 20
-563.14136954800017
 30
0.0
  0
VERTEX
  5
1CC
100
AcDbEntity
  8
FAN70-0311
370
              15
390
0
  6
Continuous
 62
               7
100
AcDbVertex
100
AcDb2dVertex
 10
-471.44416365322297
 20
-563.01911680010005
 30
0.0
  0
VERTEX
  5
1CD
100
AcDbEntity
  8
FAN70-0311
370
              15
390
0
  6
Continuous
 62
               7
100
AcDbVertex
100
AcDb2dVertex
 10
-470.37894947602297
 20
-562.90176215790018
 30
0.0
  0
VERTEX
  5
1CE
100
AcDbEntity
  8
FAN70-0311
370
              15
390
0
  6
Continuous
 62
               7
100
AcDbVertex
100
AcDb2dVertex
 10
-468.98493530392295
 20
-562.79115637420011
 30
0.0
  0
VERTEX
  5
1CF
100
AcDbEntity
  8
FAN70-0311
370
              15
390
0
  6
Continuous
 62
               7
100
AcDbVertex
100
AcDb2dVertex
 10
-467.28410557312293
 20
-562.68904376820012
 30
0.0
  0
VERTEX
  5
1D0
100
AcDbEntity
  8
FAN70-0311
370
              15
390
0
  6
Continuous
 62
               7
100
AcDbVertex
100
AcDb2dVertex
 10
-465.30328338452296
 20
-562.59703471680007
 30
0.0
  0
VERTEX
  5
1D1
100
AcDbEntity
  8
FAN70-0311
370
              15
390
0
  6
Continuous
 62
               7
100
AcDbVertex
100
AcDb2dVertex
 10
-463.07370748722303
 20
-562.51658025770018
 30
0.0
  0
VERTEX
  5
1D2
100
AcDbEntity
  8
FAN70-0311
370
              15
390
0
  6
Continuous
 62
               7
100
AcDbVertex
100
AcDb2dVertex
 10
-460.63053962502295
 20
-562.44894920579998
 30
0.0
  0
VERTEX
  5
1D3
100
AcDbEntity
  8
FAN70-0311
370
              15
390
0
  6
Continuous
 62
               7
100
AcDbVertex
100
AcDb2dVertex
 10
-458.01231001462293
 20
-562.39520814310015
 30
0.0
  0
VERTEX
  5
1D4
100
AcDbEntity
  8
FAN70-0311
370
              15
390
0
  6
Continuous
 62
               7
100
AcDbVertex
100
AcDb2dVertex
 10
-455.26030970112299
 20
-562.3562045983
 30
0.0
  0
VERTEX
  5
1D5
100
AcDbEntity
  8
FAN70-0311
370
              15
390
0
  6
Continuous
 62
               7
100
AcDbVertex
100
AcDb2dVertex
 10
-452.41793937332295
 20
-562.3325536806002
 30
0.0
  0
VERTEX
  5
1D6
100
AcDbEntity
  8
FAN70-0311
370
              15
390
0
  6
Continuous
 62
               7
100
AcDbVertex
100
AcDb2dVertex
 10
-449.5300249092229
 20
-562.32462837910009
 30
0.0
  0
VERTEX
  5
1D7
100
AcDbEntity
  8
FAN70-0311
370
              15
390
0
  6
Continuous
 62
               7
100
AcDbVertex
100
AcDb2dVertex
 10
-446.64211044512297
 20
-562.3325536806002
 30
0.0
  0
VERTEX
  5
1D8
100
AcDbEntity
  8
FAN70-0311
370
              15
390
0
  6
Continuous
 62
               7
100
AcDbVertex
100
AcDb2dVertex
 10
-443.79974011732293
 20
-562.3562045983
 30
0.0
  0
VERTEX
  5
1D9
100
AcDbEntity
  8
FAN70-0311
370
              15
390
0
  6
Continuous
 62
               7
100
AcDbVertex
100
AcDb2dVertex
 10
-441.04773980382299
 20
-562.39520814310015
 30
0.0
  0
VERTEX
  5
1DA
100
AcDbEntity
  8
FAN70-0311
370
              15
390
0
  6
Continuous
 62
               7
100
AcDbVertex
100
AcDb2dVertex
 10
-438.42951019342297
 20
-562.44894920579998
 30
0.0
  0
VERTEX
  5
1DB
100
AcDbEntity
  8
FAN70-0311
370
              15
390
0
  6
Continuous
 62
               7
100
AcDbVertex
100
AcDb2dVertex
 10
-435.986342331223
 20
-562.51658025770018
 30
0.0
  0
VERTEX
  5
1DC
100
AcDbEntity
  8
FAN70-0311
370
              15
390
0
  6
Continuous
 62
               7
100
AcDbVertex
100
AcDb2dVertex
 10
-433.75676643392296
 20
-562.59703471680007
 30
0.0
  0
VERTEX
  5
1DD
100
AcDbEntity
  8
FAN70-0311
370
              15
390
0
  6
Continuous
 62
               7
100
AcDbVertex
100
AcDb2dVertex
 10
-431.77594424532299
 20
-562.68904376820012
 30
0.0
  0
VERTEX
  5
1DE
100
AcDbEntity
  8
FAN70-0311
370
              15
390
0
  6
Continuous
 62
               7
100
AcDbVertex
100
AcDb2dVertex
 10
-430.07511451452297
 20
-562.79115637420011
 30
0.0
  0
VERTEX
  5
1DF
100
AcDbEntity
  8
FAN70-0311
370
              15
390
0
  6
Continuous
 62
               7
100
AcDbVertex
100
AcDb2dVertex
 10
-428.68110034242295
 20
-562.90176215790018
 30
0.0
  0
VERTEX
  5
1E0
100
AcDbEntity
  8
FAN70-0311
370
              15
390
0
  6
Continuous
 62
               7
100
AcDbVertex
100
AcDb2dVertex
 10
-427.61588616522295
 20
-563.01911680010005
 30
0.0
  0
VERTEX
  5
1E1
100
AcDbEntity
  8
FAN70-0311
370
              15
390
0
  6
Continuous
 62
               7
100
AcDbVertex
100
AcDb2dVertex
 10
-426.89627104702299
 20
-563.14136954800017
 30
0.0
  0
VERTEX
  5
1E2
100
AcDbEntity
  8
FAN70-0311
370
              15
390
0
  6
Continuous
 62
               7
100
AcDbVertex
100
AcDb2dVertex
 10
-426.53360374782301
 20
-563.26659240280003
 30
0.0
  0
VERTEX
  5
1E3
100
AcDbEntity
  8
FAN70-0311
370
              15
390
0
  6
Continuous
 62
               7
100
AcDbVertex
100
AcDb2dVertex
 10
-426.53360374782301
 20
-563.39281052510012
 30
0.0
  0
VERTEX
  5
1E4
100
AcDbEntity
  8
FAN70-0311
370
              15
390
0
  6
Continuous
 62
               7
100
AcDbVertex
100
AcDb2dVertex
 10
-426.89627104702299
 20
-563.51803337980016
 30
0.0
  0
VERTEX
  5
1E5
100
AcDbEntity
  8
FAN70-0311
370
              15
390
0
  6
Continuous
 62
               7
100
AcDbVertex
100
AcDb2dVertex
 10
-427.61588616522295
 20
-563.64028612770005
 30
0.0
  0
VERTEX
  5
1E6
100
AcDbEntity
  8
FAN70-0311
370
              15
390
0
  6
Continuous
 62
               7
100
AcDbVertex
100
AcDb2dVertex
 10
-428.68110034242295
 20
-563.75764076990015
 30
0.0
  0
VERTEX
  5
1E7
100
AcDbEntity
  8
FAN70-0311
370
              15
390
0
  6
Continuous
 62
               7
100
AcDbVertex
100
AcDb2dVertex
 10
-430.07511451452297
 20
-563.86824655370003
 30
0.0
  0
VERTEX
  5
1E8
100
AcDbEntity
  8
FAN70-0311
370
              15
390
0
  6
Continuous
 62
               7
100
AcDbVertex
100
AcDb2dVertex
 10
-431.77594424532299
 20
-563.97035915960021
 30
0.0
  0
VERTEX
  5
1E9
100
AcDbEntity
  8
FAN70-0311
370
              15
390
0
  6
Continuous
 62
               7
100
AcDbVertex
100
AcDb2dVertex
 10
-433.75676643392296
 20
-564.06236821100003
 30
0.0
  0
VERTEX
  5
1EA
100
AcDbEntity
  8
FAN70-0311
370
              15
390
0
  6
Continuous
 62
               7
100
AcDbVertex
100
AcDb2dVertex
 10
-435.986342331223
 20
-564.14282267010014
 30
0.0
  0
VERTEX
  5
1EB
100
AcDbEntity
  8
FAN70-0311
370
              15
390
0
  6
Continuous
 62
               7
100
AcDbVertex
100
AcDb2dVertex
 10
-438.42951019342297
 20
-564.21045372210017
 30
0.0
  0
VERTEX
  5
1EC
100
AcDbEntity
  8
FAN70-0311
370
              15
390
0
  6
Continuous
 62
               7
100
AcDbVertex
100
AcDb2dVertex
 10
-441.04773980382299
 20
-564.2641947848
 30
0.0
  0
VERTEX
  5
1ED
100
AcDbEntity
  8
FAN70-0311
370
              15
390
0
  6
Continuous
 62
               7
100
AcDbVertex
100
AcDb2dVertex
 10
-443.79974011732293
 20
-564.30319832960015
 30
0.0
  0
VERTEX
  5
1EE
100
AcDbEntity
  8
FAN70-0311
370
              15
390
0
  6
Continuous
 62
               7
100
AcDbVertex
100
AcDb2dVertex
 10
-446.64211044512297
 20
-564.32684924720013
 30
0.0
  0
VERTEX
  5
1EF
100
AcDbEntity
  8
FAN70-0311
370
              15
390
0
  6
Continuous
 62
               7
100
AcDbVertex
100
AcDb2dVertex
 10
-449.5300249092229
 20
-564.33477454870001
 30
0.0
  0
SEQEND
  5
1F0
100
AcDbEntity
  8
FAN70-0311
370
              15
390
0
  6
Continuous
 62
               7
  0
POLYLINE
  5
1F1
100
AcDbEntity
  8
FAN70-0311
370
              15
390
0
  6
Continuous
 62
               7
100
AcDb2dPolyline
 66
               1
 10
0.0
 20
0.0
 30
0.0
 75
               5
  0
VERTEX
  5
1F2
100
AcDbEntity
  8
FAN70-0311
370
              15
390
0
  6
Continuous
 62
               7
100
AcDbVertex
100
AcDb2dVertex
 10
-451.44504422602677
 20
404.48490843105105
 30
0.0
  0
VERTEX
  5
1F3
100
AcDbEntity
  8
FAN70-0311
370
              15
390
0
  6
Continuous
 62
               7
100
AcDbVertex
100
AcDb2dVertex
 10
-448.36884586652684
 20
404.4844854392511
 30
0.0
  0
VERTEX
  5
1F4
100
AcDbEntity
  8
FAN70-0311
370
              15
390
0
  6
Continuous
 62
               7
100
AcDbVertex
100
AcDb2dVertex
 10
-428.68144875412679
 20
404.46139152835099
 30
0.0
  0
VERTEX
  5
1F5
100
AcDbEntity
  8
FAN70-0311
370
              15
390
0
  6
Continuous
 62
               7
100
AcDbVertex
100
AcDb2dVertex
 10
-409.03170099802685
 20
404.40334303675104
 30
0.0
  0
VERTEX
  5
1F6
100
AcDbEntity
  8
FAN70-0311
370
              15
390
0
  6
Continuous
 62
               7
100
AcDbVertex
100
AcDb2dVertex
 10
-389.55141256052684
 20
404.31096735935103
 30
0.0
  0
VERTEX
  5
1F7
100
AcDbEntity
  8
FAN70-0311
370
              15
390
0
  6
Continuous
 62
               7
100
AcDbVertex
100
AcDb2dVertex
 10
-370.37239340392682
 20
404.18489189105117
 30
0.0
  0
VERTEX
  5
1F8
100
AcDbEntity
  8
FAN70-0311
370
              15
390
0
  6
Continuous
 62
               7
100
AcDbVertex
100
AcDb2dVertex
 10
-351.62645349022682
 20
404.02574402665118
 30
0.0
  0
VERTEX
  5
1F9
100
AcDbEntity
  8
FAN70-0311
370
              15
390
0
  6
Continuous
 62
               7
100
AcDbVertex
100
AcDb2dVertex
 10
-335.39617958292683
 20
403.85706726955118
 30
0.0
  0
VERTEX
  5
1FA
100
AcDbEntity
  8
FAN70-0311
370
              15
390
0
  6
Continuous
 62
               7
100
AcDbVertex
100
AcDb2dVertex
 10
-319.55040124822688
 20
403.66303456345099
 30
0.0
  0
VERTEX
  5
1FB
100
AcDbEntity
  8
FAN70-0311
370
              15
390
0
  6
Continuous
 62
               7
100
AcDbVertex
100
AcDb2dVertex
 10
-304.17189996242678
 20
403.44475126245106
 30
0.0
  0
VERTEX
  5
1FC
100
AcDbEntity
  8
FAN70-0311
370
              15
390
0
  6
Continuous
 62
               7
100
AcDbVertex
100
AcDb2dVertex
 10
-289.34345720152692
 20
403.20332272035103
 30
0.0
  0
VERTEX
  5
1FD
100
AcDbEntity
  8
FAN70-0311
370
              15
390
0
  6
Continuous
 62
               7
100
AcDbVertex
100
AcDb2dVertex
 10
-273.08052992632679
 20
402.89884650465115
 30
0.0
  0
VERTEX
  5
1FE
100
AcDbEntity
  8
FAN70-0311
370
              15
390
0
  6
Continuous
 62
               7
100
AcDbVertex
100
AcDb2dVertex
 10
-257.61111344112692
 20
402.56532231875121
 30
0.0
  0
VERTEX
  5
1FF
100
AcDbEntity
  8
FAN70-0311
370
              15
390
0
  6
Continuous
 62
               7
100
AcDbVertex
100
AcDb2dVertex
 10
-243.03873132962693
 20
402.20517291665101
 30
0.0
  0
VERTEX
  5
200
100
AcDbEntity
  8
FAN70-0311
370
              15
390
0
  6
Continuous
 62
               7
100
AcDbVertex
100
AcDb2dVertex
 10
-229.46690717542685
 20
401.82082105225095
 30
0.0
  0
SEQEND
  5
201
100
AcDbEntity
  8
FAN70-0311
370
              15
390
0
  6
Continuous
 62
               7
  0
POLYLINE
  5
202
100
AcDbEntity
  8
FAN70-0311
370
              15
390
0
  6
Continuous
 62
               7
100
AcDb2dPolyline
 66
               1
 10
0.0
 20
0.0
 30
0.0
 75
               5
  0
VERTEX
  5
203
100
AcDbEntity
  8
FAN70-0311
370
              15
390
0
  6
Continuous
 62
               7
100
AcDbVertex
100
AcDb2dVertex
 10
-200.11128921676161
 20
424.02082106155171
 30
0.0
  0
VERTEX
  5
204
100
AcDbEntity
  8
FAN70-0311
370
              15
390
0
  6
Continuous
 62
               7
100
AcDbVertex
100
AcDb2dVertex
 10
-211.0556285318298
 20
424.25844122123681
 30
0.0
  0
VERTEX
  5
205
100
AcDbEntity
  8
FAN70-0311
370
              15
390
0
  6
Continuous
 62
               7
100
AcDbVertex
100
AcDb2dVertex
 10
-222.77068239179908
 20
424.48569555059134
 30
0.0
  0
VERTEX
  5
206
100
AcDbEntity
  8
FAN70-0311
370
              15
390
0
  6
Continuous
 62
               7
100
AcDbVertex
100
AcDb2dVertex
 10
-235.19847475367752
 20
424.70163466740041
 30
0.0
  0
VERTEX
  5
207
100
AcDbEntity
  8
FAN70-0311
370
              15
390
0
  6
Continuous
 62
               7
100
AcDbVertex
100
AcDb2dVertex
 10
-248.28102957417227
 20
424.90530918934815
 30
0.0
  0
VERTEX
  5
208
100
AcDbEntity
  8
FAN70-0311
370
              15
390
0
  6
Continuous
 62
               7
100
AcDbVertex
100
AcDb2dVertex
 10
-261.96037081019108
 20
425.09576973391768
 30
0.0
  0
VERTEX
  5
209
100
AcDbEntity
  8
FAN70-0311
370
              15
390
0
  6
Continuous
 62
               7
100
AcDbVertex
100
AcDb2dVertex
 10
-276.1785224187422
 20
425.2720669189946
 30
0.0
  0
VERTEX
  5
20A
100
AcDbEntity
  8
FAN70-0311
370
              15
390
0
  6
Continuous
 62
               7
100
AcDbVertex
100
AcDb2dVertex
 10
-292.07557540859057
 20
425.44581991787504
 30
0.0
  0
VERTEX
  5
20B
100
AcDbEntity
  8
FAN70-0311
370
              15
390
0
  6
Continuous
 62
               7
100
AcDbVertex
100
AcDb2dVertex
 10
-308.56201327278734
 20
425.60295436022398
 30
0.0
  0
VERTEX
  5
20C
100
AcDbEntity
  8
FAN70-0311
370
              15
390
0
  6
Continuous
 62
               7
100
AcDbVertex
100
AcDb2dVertex
 10
-325.54906830833022
 20
425.74266303596914
 30
0.0
  0
VERTEX
  5
20D
100
AcDbEntity
  8
FAN70-0311
370
              15
390
0
  6
Continuous
 62
               7
100
AcDbVertex
100
AcDb2dVertex
 10
-342.94797281261822
 20
425.86413873523907
 30
0.0
  0
VERTEX
  5
20E
100
AcDbEntity
  8
FAN70-0311
370
              15
390
0
  6
Continuous
 62
               7
100
AcDbVertex
100
AcDb2dVertex
 10
-360.81344995143036
 20
425.96751150927162
 30
0.0
  0
VERTEX
  5
20F
100
AcDbEntity
  8
FAN70-0311
370
              15
390
0
  6
Continuous
 62
               7
100
AcDbVertex
100
AcDb2dVertex
 10
-379.01447449866293
 20
426.05199384009575
 30
0.0
  0
VERTEX
  5
210
100
AcDbEntity
  8
FAN70-0311
370
              15
390
0
  6
Continuous
 62
               7
100
AcDbVertex
100
AcDb2dVertex
 10
-397.45331058489114
 20
426.11712194739152
 30
0.0
  0
VERTEX
  5
211
100
AcDbEntity
  8
FAN70-0311
370
              15
390
0
  6
Continuous
 62
               7
100
AcDbVertex
100
AcDb2dVertex
 10
-414.85616505451094
 20
426.1602604864479
 30
0.0
  0
VERTEX
  5
212
100
AcDbEntity
  8
FAN70-0311
370
              15
390
0
  6
Continuous
 62
               7
100
AcDbVertex
100
AcDb2dVertex
 10
-432.38252184690236
 20
426.18623372112279
 30
0.0
  0
VERTEX
  5
213
100
AcDbEntity
  8
FAN70-0311
370
              15
390
0
  6
Continuous
 62
               7
100
AcDbVertex
100
AcDb2dVertex
 10
-449.95013912400248
 20
426.19491877245105
 30
0.0
  0
SEQEND
  5
214
100
AcDbEntity
  8
FAN70-0311
370
              15
390
0
  6
Continuous
 62
               7
  0
POLYLINE
  5
215
100
AcDbEntity
  8
FAN70-0311
370
              15
390
0
  6
Continuous
 62
               7
100
AcDb2dPolyline
 66
               1
 10
0.0
 20
0.0
 30
0.0
 75
               5
  0
VERTEX
  5
216
100
AcDbEntity
  8
FAN70-0311
370
              15
390
0
  6
Continuous
 62
               7
100
AcDbVertex
100
AcDb2dVertex
 10
-451.44504422602677
 20
404.48490843105105
 30
0.0
  0
VERTEX
  5
217
100
AcDbEntity
  8
FAN70-0311
370
              15
390
0
  6
Continuous
 62
               7
100
AcDbVertex
100
AcDb2dVertex
 10
-454.52124258552681
 20
404.4844854392511
 30
0.0
  0
VERTEX
  5
218
100
AcDbEntity
  8
FAN70-0311
370
              15
390
0
  6
Continuous
 62
               7
100
AcDbVertex
100
AcDb2dVertex
 10
-474.20863969792686
 20
404.46139152835099
 30
0.0
  0
VERTEX
  5
219
100
AcDbEntity
  8
FAN70-0311
370
              15
390
0
  6
Continuous
 62
               7
100
AcDbVertex
100
AcDb2dVertex
 10
-493.8583874540268
 20
404.40334303675104
 30
0.0
  0
VERTEX
  5
21A
100
AcDbEntity
  8
FAN70-0311
370
              15
390
0
  6
Continuous
 62
               7
100
AcDbVertex
100
AcDb2dVertex
 10
-513.33867589152692
 20
404.31096735935103
 30
0.0
  0
VERTEX
  5
21B
100
AcDbEntity
  8
FAN70-0311
370
              15
390
0
  6
Continuous
 62
               7
100
AcDbVertex
100
AcDb2dVertex
 10
-532.51769504812682
 20
404.18489189105117
 30
0.0
  0
VERTEX
  5
21C
100
AcDbEntity
  8
FAN70-0311
370
              15
390
0
  6
Continuous
 62
               7
100
AcDbVertex
100
AcDb2dVertex
 10
-551.26363496182694
 20
404.02574402665118
 30
0.0
  0
VERTEX
  5
21D
100
AcDbEntity
  8
FAN70-0311
370
              15
390
0
  6
Continuous
 62
               7
100
AcDbVertex
100
AcDb2dVertex
 10
-567.49390886912693
 20
403.85706726955118
 30
0.0
  0
VERTEX
  5
21E
100
AcDbEntity
  8
FAN70-0311
370
              15
390
0
  6
Continuous
 62
               7
100
AcDbVertex
100
AcDb2dVertex
 10
-583.339687203827
 20
403.66303456345099
 30
0.0
  0
VERTEX
  5
21F
100
AcDbEntity
  8
FAN70-0311
370
              15
390
0
  6
Continuous
 62
               7
100
AcDbVertex
100
AcDb2dVertex
 10
-598.71818848962698
 20
403.44475126245106
 30
0.0
  0
VERTEX
  5
220
100
AcDbEntity
  8
FAN70-0311
370
              15
390
0
  6
Continuous
 62
               7
100
AcDbVertex
100
AcDb2dVertex
 10
-613.54663125052684
 20
403.20332272035103
 30
0.0
  0
VERTEX
  5
221
100
AcDbEntity
  8
FAN70-0311
370
              15
390
0
  6
Continuous
 62
               7
100
AcDbVertex
100
AcDb2dVertex
 10
-629.80955852572697
 20
402.89884650465115
 30
0.0
  0
VERTEX
  5
222
100
AcDbEntity
  8
FAN70-0311
370
              15
390
0
  6
Continuous
 62
               7
100
AcDbVertex
100
AcDb2dVertex
 10
-645.27897501092684
 20
402.56532231875121
 30
0.0
  0
VERTEX
  5
223
100
AcDbEntity
  8
FAN70-0311
370
              15
390
0
  6
Continuous
 62
               7
100
AcDbVertex
100
AcDb2dVertex
 10
-659.85135712242686
 20
402.20517291665101
 30
0.0
  0
VERTEX
  5
224
100
AcDbEntity
  8
FAN70-0311
370
              15
390
0
  6
Continuous
 62
               7
100
AcDbVertex
100
AcDb2dVertex
 10
-673.42318127662679
 20
401.82082105225095
 30
0.0
  0
SEQEND
  5
225
100
AcDbEntity
  8
FAN70-0311
370
              15
390
0
  6
Continuous
 62
               7
  0
POLYLINE
  5
226
100
AcDbEntity
  8
FAN70-0311
370
              15
390
0
  6
Continuous
 62
               7
100
AcDb2dPolyline
 66
               1
 10
0.0
 20
0.0
 30
0.0
 75
               5
  0
VERTEX
  5
227
100
AcDbEntity
  8
FAN70-0311
370
              15
390
0
  6
Continuous
 62
               7
100
AcDbVertex
100
AcDb2dVertex
 10
-699.98721459680883
 20
424.02082106155171
 30
0.0
  0
VERTEX
  5
228
100
AcDbEntity
  8
FAN70-0311
370
              15
390
0
  6
Continuous
 62
               7
100
AcDbVertex
100
AcDb2dVertex
 10
-689.03419189302326
 20
424.25844122123681
 30
0.0
  0
VERTEX
  5
229
100
AcDbEntity
  8
FAN70-0311
370
              15
390
0
  6
Continuous
 62
               7
100
AcDbVertex
100
AcDb2dVertex
 10
-677.30984314875968
 20
424.48569555059134
 30
0.0
  0
VERTEX
  5
22A
100
AcDbEntity
  8
FAN70-0311
370
              15
390
0
  6
Continuous
 62
               7
100
AcDbVertex
100
AcDb2dVertex
 10
-664.87219040629793
 20
424.70163466740041
 30
0.0
  0
VERTEX
  5
22B
100
AcDbEntity
  8
FAN70-0311
370
              15
390
0
  6
Continuous
 62
               7
100
AcDbVertex
100
AcDb2dVertex
 10
-651.77925570761658
 20
424.90530918934815
 30
0.0
  0
VERTEX
  5
22C
100
AcDbEntity
  8
FAN70-0311
370
              15
390
0
  6
Continuous
 62
               7
100
AcDbVertex
100
AcDb2dVertex
 10
-638.08906109489476
 20
425.09576973391768
 30
0.0
  0
VERTEX
  5
22D
100
AcDbEntity
  8
FAN70-0311
370
              15
390
0
  6
Continuous
 62
               7
100
AcDbVertex
100
AcDb2dVertex
 10
-623.85962861011126
 20
425.2720669189946
 30
0.0
  0
VERTEX
  5
22E
100
AcDbEntity
  8
FAN70-0311
370
              15
390
0
  6
Continuous
 62
               7
100
AcDbVertex
100
AcDb2dVertex
 10
-607.94996268067825
 20
425.44581991787504
 30
0.0
  0
VERTEX
  5
22F
100
AcDbEntity
  8
FAN70-0311
370
              15
390
0
  6
Continuous
 62
               7
100
AcDbVertex
100
AcDb2dVertex
 10
-591.45044425086485
 20
425.60295436022398
 30
0.0
  0
VERTEX
  5
230
100
AcDbEntity
  8
FAN70-0311
370
              15
390
0
  6
Continuous
 62
               7
100
AcDbVertex
100
AcDb2dVertex
 10
-574.44991145318477
 20
425.74266303596914
 30
0.0
  0
VERTEX
  5
231
100
AcDbEntity
  8
FAN70-0311
370
              15
390
0
  6
Continuous
 62
               7
100
AcDbVertex
100
AcDb2dVertex
 10
-557.03720241974975
 20
425.86413873523907
 30
0.0
  0
VERTEX
  5
232
100
AcDbEntity
  8
FAN70-0311
370
              15
390
0
  6
Continuous
 62
               7
100
AcDbVertex
100
AcDb2dVertex
 10
-539.15755056667172
 20
425.96751150927162
 30
0.0
  0
VERTEX
  5
233
100
AcDbEntity
  8
FAN70-0311
370
              15
390
0
  6
Continuous
 62
               7
100
AcDbVertex
100
AcDb2dVertex
 10
-520.94208507726353
 20
426.05199384009575
 30
0.0
  0
VERTEX
  5
234
100
AcDbEntity
  8
FAN70-0311
370
              15
390
0
  6
Continuous
 62
               7
100
AcDbVertex
100
AcDb2dVertex
 10
-502.48861936592721
 20
426.11712194739152
 30
0.0
  0
VERTEX
  5
235
100
AcDbEntity
  8
FAN70-0311
370
              15
390
0
  6
Continuous
 62
               7
100
AcDbVertex
100
AcDb2dVertex
 10
-485.07195723320388
 20
426.1602604864479
 30
0.0
  0
VERTEX
  5
236
100
AcDbEntity
  8
FAN70-0311
370
              15
390
0
  6
Continuous
 62
               7
100
AcDbVertex
100
AcDb2dVertex
 10
-467.53169478927452
 20
426.18623372112279
 30
0.0
  0
VERTEX
  5
237
100
AcDbEntity
  8
FAN70-0311
370
              15
390
0
  6
Continuous
 62
               7
100
AcDbVertex
100
AcDb2dVertex
 10
-449.95013912400248
 20
426.19491877245105
 30
0.0
  0
SEQEND
  5
238
100
AcDbEntity
  8
FAN70-0311
370
              15
390
0
  6
Continuous
 62
               7
  0
POLYLINE
  5
239
100
AcDbEntity
  8
FAN70-0311
370
              15
390
0
  6
Continuous
 62
               7
100
AcDb2dPolyline
 66
               1
 10
0.0
 20
0.0
 30
0.0
 75
               5
  0
VERTEX
  5
23A
100
AcDbEntity
  8
FAN70-0311
370
              15
390
0
  6
Continuous
 62
               7
100
AcDbVertex
100
AcDb2dVertex
 10
-449.95013912400248
 20
634.30692219805326
 30
0.0
  0
VERTEX
  5
23B
100
AcDbEntity
  8
FAN70-0311
370
              15
390
0
  6
Continuous
 62
               7
100
AcDbVertex
100
AcDb2dVertex
 10
-446.93692885384507
 20
634.30750558964121
 30
0.0
  0
VERTEX
  5
23C
100
AcDbEntity
  8
FAN70-0311
370
              15
390
0
  6
Continuous
 62
               7
100
AcDbVertex
100
AcDb2dVertex
 10
-426.65919728475887
 20
634.34231451093262
 30
0.0
  0
VERTEX
  5
23D
100
AcDbEntity
  8
FAN70-0311
370
              15
390
0
  6
Continuous
 62
               7
100
AcDbVertex
100
AcDb2dVertex
 10
-406.41946671840583
 20
634.43043751772063
 30
0.0
  0
VERTEX
  5
23E
100
AcDbEntity
  8
FAN70-0311
370
              15
390
0
  6
Continuous
 62
               7
100
AcDbVertex
100
AcDb2dVertex
 10
-386.35346742945512
 20
634.57094530950496
 30
0.0
  0
VERTEX
  5
23F
100
AcDbEntity
  8
FAN70-0311
370
              15
390
0
  6
Continuous
 62
               7
100
AcDbVertex
100
AcDb2dVertex
 10
-366.59692969277717
 20
634.76290858588561
 30
0.0
  0
VERTEX
  5
240
100
AcDbEntity
  8
FAN70-0311
370
              15
390
0
  6
Continuous
 62
               7
100
AcDbVertex
100
AcDb2dVertex
 10
-347.28558378314165
 20
635.0053980464628
 30
0.0
  0
VERTEX
  5
241
100
AcDbEntity
  8
FAN70-0311
370
              15
390
0
  6
Continuous
 62
               7
100
AcDbVertex
100
AcDb2dVertex
 10
-333.71409730613345
 20
635.21055563177299
 30
0.0
  0
VERTEX
  5
242
100
AcDbEntity
  8
FAN70-0311
370
              15
390
0
  6
Continuous
 62
               7
100
AcDbVertex
100
AcDb2dVertex
 10
-320.40579328432477
 20
635.44105114776528
 30
0.0
  0
VERTEX
  5
243
100
AcDbEntity
  8
FAN70-0311
370
              15
390
0
  6
Continuous
 62
               7
100
AcDbVertex
100
AcDb2dVertex
 10
-307.40732363185555
 20
635.69609252442513
 30
0.0
  0
VERTEX
  5
244
100
AcDbEntity
  8
FAN70-0311
370
              15
390
0
  6
Continuous
 62
               7
100
AcDbVertex
100
AcDb2dVertex
 10
-291.1260660598092
 20
636.06113896493491
 30
0.0
  0
VERTEX
  5
245
100
AcDbEntity
  8
FAN70-0311
370
              15
390
0
  6
Continuous
 62
               7
100
AcDbVertex
100
AcDb2dVertex
 10
-275.43275063916349
 20
636.46577597087708
 30
0.0
  0
VERTEX
  5
246
100
AcDbEntity
  8
FAN70-0311
370
              15
390
0
  6
Continuous
 62
               7
100
AcDbVertex
100
AcDb2dVertex
 10
-260.41751275292324
 20
636.90755112649481
 30
0.0
  0
VERTEX
  5
247
100
AcDbEntity
  8
FAN70-0311
370
              15
390
0
  6
Continuous
 62
               7
100
AcDbVertex
100
AcDb2dVertex
 10
-246.17048778429384
 20
637.38401201603165
 30
0.0
  0
VERTEX
  5
248
100
AcDbEntity
  8
FAN70-0311
370
              15
390
0
  6
Continuous
 62
               7
100
AcDbVertex
100
AcDb2dVertex
 10
-233.46636636117503
 20
637.8645894572652
 30
0.0
  0
VERTEX
  5
249
100
AcDbEntity
  8
FAN70-0311
370
              15
390
0
  6
Continuous
 62
               7
100
AcDbVertex
100
AcDb2dVertex
 10
-221.49375559839908
 20
638.37432739302176
 30
0.0
  0
VERTEX
  5
24A
100
AcDbEntity
  8
FAN70-0311
370
              15
390
0
  6
Continuous
 62
               7
100
AcDbVertex
100
AcDb2dVertex
 10
-210.31369263247487
 20
638.91044107536345
 30
0.0
  0
VERTEX
  5
24B
100
AcDbEntity
  8
FAN70-0311
370
              15
390
0
  6
Continuous
 62
               7
100
AcDbVertex
100
AcDb2dVertex
 10
-199.9872145997106
 20
639.47014575595335
 30
0.0
  0
SEQEND
  5
24C
100
AcDbEntity
  8
FAN70-0311
370
              15
390
0
  6
Continuous
 62
               7
  0
POLYLINE
  5
24D
100
AcDbEntity
  8
FAN70-0311
370
              15
390
0
  6
Continuous
 62
               7
100
AcDb2dPolyline
 66
               1
 10
0.0
 20
0.0
 30
0.0
 75
               5
  0
VERTEX
  5
24E
100
AcDbEntity
  8
FAN70-0311
370
              15
390
0
  6
Continuous
 62
               7
100
AcDbVertex
100
AcDb2dVertex
 10
-226.35884247085261
 20
661.6701457559534
 30
0.0
  0
VERTEX
  5
24F
100
AcDbEntity
  8
FAN70-0311
370
              15
390
0
  6
Continuous
 62
               7
100
AcDbVertex
100
AcDb2dVertex
 10
-236.97377618718323
 20
660.89778480580219
 30
0.0
  0
VERTEX
  5
250
100
AcDbEntity
  8
FAN70-0311
370
              15
390
0
  6
Continuous
 62
               7
100
AcDbVertex
100
AcDb2dVertex
 10
-248.38171306262362
 20
660.1637846530333
 30
0.0
  0
VERTEX
  5
251
100
AcDbEntity
  8
FAN70-0311
370
              15
390
0
  6
Continuous
 62
               7
100
AcDbVertex
100
AcDb2dVertex
 10
-260.51906018651357
 20
659.47217377670552
 30
0.0
  0
VERTEX
  5
252
100
AcDbEntity
  8
FAN70-0311
370
              15
390
0
  6
Continuous
 62
               7
100
AcDbVertex
100
AcDb2dVertex
 10
-273.76174677737595
 20
658.80596767756015
 30
0.0
  0
VERTEX
  5
253
100
AcDbEntity
  8
FAN70-0311
370
              15
390
0
  6
Continuous
 62
               7
100
AcDbVertex
100
AcDb2dVertex
 10
-287.71839716900149
 20
658.18819288088821
 30
0.0
  0
VERTEX
  5
254
100
AcDbEntity
  8
FAN70-0311
370
              15
390
0
  6
Continuous
 62
               7
100
AcDbVertex
100
AcDb2dVertex
 10
-302.3052356930674
 20
657.62227586049528
 30
0.0
  0
VERTEX
  5
255
100
AcDbEntity
  8
FAN70-0311
370
              15
390
0
  6
Continuous
 62
               7
100
AcDbVertex
100
AcDb2dVertex
 10
-317.43848668095131
 20
657.11164309035348
 30
0.0
  0
VERTEX
  5
256
100
AcDbEntity
  8
FAN70-0311
370
              15
390
0
  6
Continuous
 62
               7
100
AcDbVertex
100
AcDb2dVertex
 10
-329.52173467208547
 20
656.75478807611466
 30
0.0
  0
VERTEX
  5
257
100
AcDbEntity
  8
FAN70-0311
370
              15
390
0
  6
Continuous
 62
               7
100
AcDbVertex
100
AcDb2dVertex
 10
-341.89299209114245
 20
656.43223598384122
 30
0.0
  0
VERTEX
  5
258
100
AcDbEntity
  8
FAN70-0311
370
              15
390
0
  6
Continuous
 62
               7
100
AcDbVertex
100
AcDb2dVertex
 10
-354.50889303107954
 20
656.14510450867806
 30
0.0
  0
VERTEX
  5
259
100
AcDbEntity
  8
FAN70-0311
370
              15
390
0
  6
Continuous
 62
               7
100
AcDbVertex
100
AcDb2dVertex
 10
-372.99658543103124
 20
655.79678610591941
 30
0.0
  0
VERTEX
  5
25A
100
AcDbEntity
  8
FAN70-0311
370
              15
390
0
  6
Continuous
 62
               7
100
AcDbVertex
100
AcDb2dVertex
 10
-391.92234703027782
 20
655.52342147009438
 30
0.0
  0
VERTEX
  5
25B
100
AcDbEntity
  8
FAN70-0311
370
              15
390
0
  6
Continuous
 62
               7
100
AcDbVertex
100
AcDb2dVertex
 10
-411.14838703870089
 20
655.32641823347342
 30
0.0
  0
VERTEX
  5
25C
100
AcDbEntity
  8
FAN70-0311
370
              15
390
0
  6
Continuous
 62
               7
100
AcDbVertex
100
AcDb2dVertex
 10
-430.53691466658199
 20
655.20718402799207
 30
0.0
  0
VERTEX
  5
25D
100
AcDbEntity
  8
FAN70-0311
370
              15
390
0
  6
Continuous
 62
               7
100
AcDbVertex
100
AcDb2dVertex
 10
-449.95013912400248
 20
655.16712648575333
 30
0.0
  0
SEQEND
  5
25E
100
AcDbEntity
  8
FAN70-0311
370
              15
390
0
  6
Continuous
 62
               7
  0
POLYLINE
  5
25F
100
AcDbEntity
  8
FAN70-0311
370
              15
390
0
  6
Continuous
 62
               7
100
AcDb2dPolyline
 66
               1
 10
0.0
 20
0.0
 30
0.0
 75
               5
  0
VERTEX
  5
260
100
AcDbEntity
  8
FAN70-0311
370
              15
390
0
  6
Continuous
 62
               7
100
AcDbVertex
100
AcDb2dVertex
 10
-449.95013912400248
 20
634.30692219805326
 30
0.0
  0
VERTEX
  5
261
100
AcDbEntity
  8
FAN70-0311
370
              15
390
0
  6
Continuous
 62
               7
100
AcDbVertex
100
AcDb2dVertex
 10
-452.95134021000251
 20
634.30750711375333
 30
0.0
  0
VERTEX
  5
262
100
AcDbEntity
  8
FAN70-0311
370
              15
390
0
  6
Continuous
 62
               7
100
AcDbVertex
100
AcDb2dVertex
 10
-473.1482546469025
 20
634.34240697345319
 30
0.0
  0
VERTEX
  5
263
100
AcDbEntity
  8
FAN70-0311
370
              15
390
0
  6
Continuous
 62
               7
100
AcDbVertex
100
AcDb2dVertex
 10
-493.30731953450254
 20
634.43076020185333
 30
0.0
  0
VERTEX
  5
264
100
AcDbEntity
  8
FAN70-0311
370
              15
390
0
  6
Continuous
 62
               7
100
AcDbVertex
100
AcDb2dVertex
 10
-513.2933455527027
 20
634.57163507065331
 30
0.0
  0
VERTEX
  5
265
100
AcDbEntity
  8
FAN70-0311
370
              15
390
0
  6
Continuous
 62
               7
100
AcDbVertex
100
AcDb2dVertex
 10
-532.97114338120264
 20
634.76409985165344
 30
0.0
  0
VERTEX
  5
266
100
AcDbEntity
  8
FAN70-0311
370
              15
390
0
  6
Continuous
 62
               7
100
AcDbVertex
100
AcDb2dVertex
 10
-552.2055236998026
 20
635.00722281665333
 30
0.0
  0
VERTEX
  5
267
100
AcDbEntity
  8
FAN70-0311
370
              15
390
0
  6
Continuous
 62
               7
100
AcDbVertex
100
AcDb2dVertex
 10
-565.72292086150264
 20
635.21291637675347
 30
0.0
  0
VERTEX
  5
268
100
AcDbEntity
  8
FAN70-0311
370
              15
390
0
  6
Continuous
 62
               7
100
AcDbVertex
100
AcDb2dVertex
 10
-578.97818448470252
 20
635.44401406295344
 30
0.0
  0
VERTEX
  5
269
100
AcDbEntity
  8
FAN70-0311
370
              15
390
0
  6
Continuous
 62
               7
100
AcDbVertex
100
AcDb2dVertex
 10
-591.92484858700254
 20
635.6997217359534
 30
0.0
  0
VERTEX
  5
26A
100
AcDbEntity
  8
FAN70-0311
370
              15
390
0
  6
Continuous
 62
               7
100
AcDbVertex
100
AcDb2dVertex
 10
-608.14121701990257
 20
636.06572186135338
 30
0.0
  0
VERTEX
  5
26B
100
AcDbEntity
  8
FAN70-0311
370
              15
390
0
  6
Continuous
 62
               7
100
AcDbVertex
100
AcDb2dVertex
 10
-623.77198655160259
 20
636.47141598265341
 30
0.0
  0
VERTEX
  5
26C
100
AcDbEntity
  8
FAN70-0311
370
              15
390
0
  6
Continuous
 62
               7
100
AcDbVertex
100
AcDb2dVertex
 10
-638.7273810347026
 20
636.9143452771533
 30
0.0
  0
VERTEX
  5
26D
100
AcDbEntity
  8
FAN70-0311
370
              15
390
0
  6
Continuous
 62
               7
100
AcDbVertex
100
AcDb2dVertex
 10
-652.91762432160272
 20
637.39205092215332
 30
0.0
  0
VERTEX
  5
26E
100
AcDbEntity
  8
FAN70-0311
370
              15
390
0
  6
Continuous
 62
               7
100
AcDbVertex
100
AcDb2dVertex
 10
-665.57111332270256
 20
637.87388387335329
 30
0.0
  0
VERTEX
  5
26F
100
AcDbEntity
  8
FAN70-0311
370
              15
390
0
  6
Continuous
 62
               7
100
AcDbVertex
100
AcDb2dVertex
 10
-677.49600710770255
 20
638.38495350095332
 30
0.0
  0
VERTEX
  5
270
100
AcDbEntity
  8
FAN70-0311
370
              15
390
0
  6
Continuous
 62
               7
100
AcDbVertex
100
AcDb2dVertex
 10
-688.63151180430259
 20
638.92246778185336
 30
0.0
  0
VERTEX
  5
271
100
AcDbEntity
  8
FAN70-0311
370
              15
390
0
  6
Continuous
 62
               7
100
AcDbVertex
100
AcDb2dVertex
 10
-698.91683354020256
 20
639.48363469255332
 30
0.0
  0
SEQEND
  5
272
100
AcDbEntity
  8
FAN70-0311
370
              15
390
0
  6
Continuous
 62
               7
  0
POLYLINE
  5
273
100
AcDbEntity
  8
FAN70-0311
370
              15
390
0
  6
Continuous
 62
               7
100
AcDb2dPolyline
 66
               1
 10
0.0
 20
0.0
 30
0.0
 75
               5
  0
VERTEX
  5
274
100
AcDbEntity
  8
FAN70-0311
370
              15
390
0
  6
Continuous
 62
               7
100
AcDbVertex
100
AcDb2dVertex
 10
-673.5588424708526
 20
661.6701457559534
 30
0.0
  0
VERTEX
  5
275
100
AcDbEntity
  8
FAN70-0311
370
              15
390
0
  6
Continuous
 62
               7
100
AcDbVertex
100
AcDb2dVertex
 10
-662.94308237665018
 20
660.89778480580219
 30
0.0
  0
VERTEX
  5
276
100
AcDbEntity
  8
FAN70-0311
370
              15
390
0
  6
Continuous
 62
               7
100
AcDbVertex
100
AcDb2dVertex
 10
-651.53425738764759
 20
660.1637846530333
 30
0.0
  0
VERTEX
  5
277
100
AcDbEntity
  8
FAN70-0311
370
              15
390
0
  6
Continuous
 62
               7
100
AcDbVertex
100
AcDb2dVertex
 10
-639.39596536524482
 20
659.47217377670552
 30
0.0
  0
VERTEX
  5
278
100
AcDbEntity
  8
FAN70-0311
370
              15
390
0
  6
Continuous
 62
               7
100
AcDbVertex
100
AcDb2dVertex
 10
-626.15224782464202
 20
658.80596767756015
 30
0.0
  0
VERTEX
  5
279
100
AcDbEntity
  8
FAN70-0311
370
              15
390
0
  6
Continuous
 62
               7
100
AcDbVertex
100
AcDb2dVertex
 10
-612.19451090083885
 20
658.18819288088821
 30
0.0
  0
VERTEX
  5
27A
100
AcDbEntity
  8
FAN70-0311
370
              15
390
0
  6
Continuous
 62
               7
100
AcDbVertex
100
AcDb2dVertex
 10
-597.60653678413564
 20
657.62227586049528
 30
0.0
  0
VERTEX
  5
27B
100
AcDbEntity
  8
FAN70-0311
370
              15
390
0
  6
Continuous
 62
               7
100
AcDbVertex
100
AcDb2dVertex
 10
-582.47210766513217
 20
657.11164309035348
 30
0.0
  0
VERTEX
  5
27C
100
AcDbEntity
  8
FAN70-0311
370
              15
390
0
  6
Continuous
 62
               7
100
AcDbVertex
100
AcDb2dVertex
 10
-570.38791898712952
 20
656.75478807611466
 30
0.0
  0
VERTEX
  5
27D
100
AcDbEntity
  8
FAN70-0311
370
              15
390
0
  6
Continuous
 62
               7
100
AcDbVertex
100
AcDb2dVertex
 10
-558.01569845952667
 20
656.43223598384122
 30
0.0
  0
VERTEX
  5
27E
100
AcDbEntity
  8
FAN70-0311
370
              15
390
0
  6
Continuous
 62
               7
100
AcDbVertex
100
AcDb2dVertex
 10
-545.39881536542384
 20
656.14510450867806
 30
0.0
  0
VERTEX
  5
27F
100
AcDbEntity
  8
FAN70-0311
370
              15
390
0
  6
Continuous
 62
               7
100
AcDbVertex
100
AcDb2dVertex
 10
-526.90968368931976
 20
655.79678610591941
 30
0.0
  0
VERTEX
  5
280
100
AcDbEntity
  8
FAN70-0311
370
              15
390
0
  6
Continuous
 62
               7
100
AcDbVertex
100
AcDb2dVertex
 10
-507.98244871021552
 20
655.52342147009438
 30
0.0
  0
VERTEX
  5
281
100
AcDbEntity
  8
FAN70-0311
370
              15
390
0
  6
Continuous
 62
               7
100
AcDbVertex
100
AcDb2dVertex
 10
-488.75491194501126
 20
655.32641823347342
 30
0.0
  0
VERTEX
  5
282
100
AcDbEntity
  8
FAN70-0311
370
              15
390
0
  6
Continuous
 62
               7
100
AcDbVertex
100
AcDb2dVertex
 10
-469.36487491060689
 20
655.20718402799207
 30
0.0
  0
VERTEX
  5
283
100
AcDbEntity
  8
FAN70-0311
370
              15
390
0
  6
Continuous
 62
               7
100
AcDbVertex
100
AcDb2dVertex
 10
-449.95013912400248
 20
655.16712648575333
 30
0.0
  0
SEQEND
  5
284
100
AcDbEntity
  8
FAN70-0311
370
              15
390
0
  6
Continuous
 62
               7
  0
POLYLINE
  5
285
100
AcDbEntity
  8
FAN70-0311
370
              15
390
0
  6
Continuous
 62
               7
100
AcDb2dPolyline
 66
               1
 10
0.0
 20
0.0
 30
0.0
 75
               5
  0
VERTEX
  5
286
100
AcDbEntity
  8
FAN70-0311
370
              15
390
0
  6
Continuous
 62
               7
100
AcDbVertex
100
AcDb2dVertex
 10
-449.95013912400248
 20
657.13832845255331
 30
0.0
  0
VERTEX
  5
287
100
AcDbEntity
  8
FAN70-0311
370
              15
390
0
  6
Continuous
 62
               7
100
AcDbVertex
100
AcDb2dVertex
 10
-447.43708672510252
 20
657.14460770505332
 30
0.0
  0
VERTEX
  5
288
100
AcDbEntity
  8
FAN70-0311
370
              15
390
0
  6
Continuous
 62
               7
100
AcDbVertex
100
AcDb2dVertex
 10
-444.97519282610256
 20
657.16331763525329
 30
0.0
  0
VERTEX
  5
289
100
AcDbEntity
  8
FAN70-0311
370
              15
390
0
  6
Continuous
 62
               7
100
AcDbVertex
100
AcDb2dVertex
 10
-442.61457448710246
 20
657.19407736285336
 30
0.0
  0
VERTEX
  5
28A
100
AcDbEntity
  8
FAN70-0311
370
              15
390
0
  6
Continuous
 62
               7
100
AcDbVertex
100
AcDb2dVertex
 10
-440.40328709000255
 20
657.23626070845341
 30
0.0
  0
VERTEX
  5
28B
100
AcDbEntity
  8
FAN70-0311
370
              15
390
0
  6
Continuous
 62
               7
100
AcDbVertex
100
AcDb2dVertex
 10
-438.3863460696025
 20
657.28900894085336
 30
0.0
  0
VERTEX
  5
28C
100
AcDbEntity
  8
FAN70-0311
370
              15
390
0
  6
Continuous
 62
               7
100
AcDbVertex
100
AcDb2dVertex
 10
-436.60481052850253
 20
657.3512482581533
 30
0.0
  0
VERTEX
  5
28D
100
AcDbEntity
  8
FAN70-0311
370
              15
390
0
  6
Continuous
 62
               7
100
AcDbVertex
100
AcDb2dVertex
 10
-435.09494739280262
 20
657.42171164725335
 30
0.0
  0
VERTEX
  5
28E
100
AcDbEntity
  8
FAN70-0311
370
              15
390
0
  6
Continuous
 62
               7
100
AcDbVertex
100
AcDb2dVertex
 10
-433.88749312200252
 20
657.49896467685335
 30
0.0
  0
VERTEX
  5
28F
100
AcDbEntity
  8
FAN70-0311
370
              15
390
0
  6
Continuous
 62
               7
100
AcDbVertex
100
AcDb2dVertex
 10
-433.00702800290253
 20
657.58143469805339
 30
0.0
  0
VERTEX
  5
290
100
AcDbEntity
  8
FAN70-0311
370
              15
390
0
  6
Continuous
 62
               7
100
AcDbVertex
100
AcDb2dVertex
 10
-432.47147576640248
 20
657.66744285895334
 30
0.0
  0
VERTEX
  5
291
100
AcDbEntity
  8
FAN70-0311
370
              15
390
0
  6
Continuous
 62
               7
100
AcDbVertex
100
AcDb2dVertex
 10
-432.29173871150249
 20
657.75523828145333
 30
0.0
  0
VERTEX
  5
292
100
AcDbEntity
  8
FAN70-0311
370
              15
390
0
  6
Continuous
 62
               7
100
AcDbVertex
100
AcDb2dVertex
 10
-432.47147576640248
 20
657.84303370405337
 30
0.0
  0
VERTEX
  5
293
100
AcDbEntity
  8
FAN70-0311
370
              15
390
0
  6
Continuous
 62
               7
100
AcDbVertex
100
AcDb2dVertex
 10
-433.00702800290253
 20
657.92904186495332
 30
0.0
  0
VERTEX
  5
294
100
AcDbEntity
  8
FAN70-0311
370
              15
390
0
  6
Continuous
 62
               7
100
AcDbVertex
100
AcDb2dVertex
 10
-433.88749312200252
 20
658.01151188615336
 30
0.0
  0
VERTEX
  5
295
100
AcDbEntity
  8
FAN70-0311
370
              15
390
0
  6
Continuous
 62
               7
100
AcDbVertex
100
AcDb2dVertex
 10
-435.09494739280262
 20
658.08876491575336
 30
0.0
  0
VERTEX
  5
296
100
AcDbEntity
  8
FAN70-0311
370
              15
390
0
  6
Continuous
 62
               7
100
AcDbVertex
100
AcDb2dVertex
 10
-436.60481052850253
 20
658.1592283048534
 30
0.0
  0
VERTEX
  5
297
100
AcDbEntity
  8
FAN70-0311
370
              15
390
0
  6
Continuous
 62
               7
100
AcDbVertex
100
AcDb2dVertex
 10
-438.3863460696025
 20
658.22146762215334
 30
0.0
  0
VERTEX
  5
298
100
AcDbEntity
  8
FAN70-0311
370
              15
390
0
  6
Continuous
 62
               7
100
AcDbVertex
100
AcDb2dVertex
 10
-440.40328709000255
 20
658.2742158545534
 30
0.0
  0
VERTEX
  5
299
100
AcDbEntity
  8
FAN70-0311
370
              15
390
0
  6
Continuous
 62
               7
100
AcDbVertex
100
AcDb2dVertex
 10
-442.61457448710246
 20
658.31639920015334
 30
0.0
  0
VERTEX
  5
29A
100
AcDbEntity
  8
FAN70-0311
370
              15
390
0
  6
Continuous
 62
               7
100
AcDbVertex
100
AcDb2dVertex
 10
-444.97519282610256
 20
658.34715892775341
 30
0.0
  0
VERTEX
  5
29B
100
AcDbEntity
  8
FAN70-0311
370
              15
390
0
  6
Continuous
 62
               7
100
AcDbVertex
100
AcDb2dVertex
 10
-447.43708672510252
 20
658.36586885795339
 30
0.0
  0
VERTEX
  5
29C
100
AcDbEntity
  8
FAN70-0311
370
              15
390
0
  6
Continuous
 62
               7
100
AcDbVertex
100
AcDb2dVertex
 10
-449.95013912400248
 20
658.3721481104534
 30
0.0
  0
VERTEX
  5
29D
100
AcDbEntity
  8
FAN70-0311
370
              15
390
0
  6
Continuous
 62
               7
100
AcDbVertex
100
AcDb2dVertex
 10
-452.46319152290255
 20
658.36586885795339
 30
0.0
  0
VERTEX
  5
29E
100
AcDbEntity
  8
FAN70-0311
370
              15
390
0
  6
Continuous
 62
               7
100
AcDbVertex
100
AcDb2dVertex
 10
-454.92508542190251
 20
658.34715892775341
 30
0.0
  0
VERTEX
  5
29F
100
AcDbEntity
  8
FAN70-0311
370
              15
390
0
  6
Continuous
 62
               7
100
AcDbVertex
100
AcDb2dVertex
 10
-457.28570376090261
 20
658.31639920015334
 30
0.0
  0
VERTEX
  5
2A0
100
AcDbEntity
  8
FAN70-0311
370
              15
390
0
  6
Continuous
 62
               7
100
AcDbVertex
100
AcDb2dVertex
 10
-459.49699115800252
 20
658.2742158545534
 30
0.0
  0
VERTEX
  5
2A1
100
AcDbEntity
  8
FAN70-0311
370
              15
390
0
  6
Continuous
 62
               7
100
AcDbVertex
100
AcDb2dVertex
 10
-461.51393217840257
 20
658.22146762215334
 30
0.0
  0
VERTEX
  5
2A2
100
AcDbEntity
  8
FAN70-0311
370
              15
390
0
  6
Continuous
 62
               7
100
AcDbVertex
100
AcDb2dVertex
 10
-463.29546771950254
 20
658.1592283048534
 30
0.0
  0
VERTEX
  5
2A3
100
AcDbEntity
  8
FAN70-0311
370
              15
390
0
  6
Continuous
 62
               7
100
AcDbVertex
100
AcDb2dVertex
 10
-464.80533085510251
 20
658.08876491575336
 30
0.0
  0
VERTEX
  5
2A4
100
AcDbEntity
  8
FAN70-0311
370
              15
390
0
  6
Continuous
 62
               7
100
AcDbVertex
100
AcDb2dVertex
 10
-466.01278512600254
 20
658.01151188615336
 30
0.0
  0
VERTEX
  5
2A5
100
AcDbEntity
  8
FAN70-0311
370
              15
390
0
  6
Continuous
 62
               7
100
AcDbVertex
100
AcDb2dVertex
 10
-466.8932502450026
 20
657.92904186495332
 30
0.0
  0
VERTEX
  5
2A6
100
AcDbEntity
  8
FAN70-0311
370
              15
390
0
  6
Continuous
 62
               7
100
AcDbVertex
100
AcDb2dVertex
 10
-467.42880248160259
 20
657.84303370405337
 30
0.0
  0
VERTEX
  5
2A7
100
AcDbEntity
  8
FAN70-0311
370
              15
390
0
  6
Continuous
 62
               7
100
AcDbVertex
100
AcDb2dVertex
 10
-467.60853953650258
 20
657.75523828145333
 30
0.0
  0
VERTEX
  5
2A8
100
AcDbEntity
  8
FAN70-0311
370
              15
390
0
  6
Continuous
 62
               7
100
AcDbVertex
100
AcDb2dVertex
 10
-467.42880248160259
 20
657.66744285895334
 30
0.0
  0
VERTEX
  5
2A9
100
AcDbEntity
  8
FAN70-0311
370
              15
390
0
  6
Continuous
 62
               7
100
AcDbVertex
100
AcDb2dVertex
 10
-466.8932502450026
 20
657.58143469805339
 30
0.0
  0
VERTEX
  5
2AA
100
AcDbEntity
  8
FAN70-0311
370
              15
390
0
  6
Continuous
 62
               7
100
AcDbVertex
100
AcDb2dVertex
 10
-466.01278512600254
 20
657.49896467685335
 30
0.0
  0
VERTEX
  5
2AB
100
AcDbEntity
  8
FAN70-0311
370
              15
390
0
  6
Continuous
 62
               7
100
AcDbVertex
100
AcDb2dVertex
 10
-464.80533085510251
 20
657.42171164725335
 30
0.0
  0
VERTEX
  5
2AC
100
AcDbEntity
  8
FAN70-0311
370
              15
390
0
  6
Continuous
 62
               7
100
AcDbVertex
100
AcDb2dVertex
 10
-463.29546771950254
 20
657.3512482581533
 30
0.0
  0
VERTEX
  5
2AD
100
AcDbEntity
  8
FAN70-0311
370
              15
390
0
  6
Continuous
 62
               7
100
AcDbVertex
100
AcDb2dVertex
 10
-461.51393217840257
 20
657.28900894085336
 30
0.0
  0
VERTEX
  5
2AE
100
AcDbEntity
  8
FAN70-0311
370
              15
390
0
  6
Continuous
 62
               7
100
AcDbVertex
100
AcDb2dVertex
 10
-459.49699115800252
 20
657.23626070845341
 30
0.0
  0
VERTEX
  5
2AF
100
AcDbEntity
  8
FAN70-0311
370
              15
390
0
  6
Continuous
 62
               7
100
AcDbVertex
100
AcDb2dVertex
 10
-457.28570376090261
 20
657.19407736285336
 30
0.0
  0
VERTEX
  5
2B0
100
AcDbEntity
  8
FAN70-0311
370
              15
390
0
  6
Continuous
 62
               7
100
AcDbVertex
100
AcDb2dVertex
 10
-454.92508542190251
 20
657.16331763525329
 30
0.0
  0
VERTEX
  5
2B1
100
AcDbEntity
  8
FAN70-0311
370
              15
390
0
  6
Continuous
 62
               7
100
AcDbVertex
100
AcDb2dVertex
 10
-452.46319152290255
 20
657.14460770505332
 30
0.0
  0
VERTEX
  5
2B2
100
AcDbEntity
  8
FAN70-0311
370
              15
390
0
  6
Continuous
 62
               7
100
AcDbVertex
100
AcDb2dVertex
 10
-449.95013912400248
 20
657.13832845255331
 30
0.0
  0
SEQEND
  5
2B3
100
AcDbEntity
  8
FAN70-0311
370
              15
390
0
  6
Continuous
 62
               7
  0
LINE
  5
2B4
100
AcDbEntity
  8
FAN70-0311
370
              15
390
0
  6
Continuous
 62
               7
100
AcDbLine
 10
-673.42318127662679
 20
401.82082105225095
 30
0.0
 11
-229.46690717542685
 21
401.82082105225095
 31
0.0
  0
LINE
  5
2B5
100
AcDbEntity
  8
FAN70-0311
370
              15
390
0
  6
Continuous
 62
               7
100
AcDbLine
 10
-737.03002490922302
 20
705.1701457559534
 30
0.0
 11
-162.03002490922296
 21
705.1701457559534
 31
0.0
  0
ARC
  5
2B6
100
AcDbEntity
  8
FAN70-0311
370
              15
390
0
  6
Continuous
 62
               7
100
AcDbCircle
 10
-162.03002490922296
 20
700.1701457559534
 30
0.0
 40
5.0
100
AcDbArc
 50
0.0
 51
90.0
  0
ARC
  5
2B7
100
AcDbEntity
  8
FAN70-0311
370
              15
390
0
  6
Continuous
 62
               7
100
AcDbCircle
 10
-737.03002490922302
 20
700.1701457559534
 30
0.0
 40
5.0
100
AcDbArc
 50
90.0
 51
180.0
  0
LINE
  5
2B8
100
AcDbEntity
  8
FAN70-0311
370
              15
390
0
  6
Continuous
 62
               7
100
AcDbLine
 10
-742.03002490922302
 20
363.17014575595329
 30
0.0
 11
-742.03002490922302
 21
700.1701457559534
 31
0.0
  0
LINE
  5
2B9
100
AcDbEntity
  8
FAN70-0311
370
              15
390
0
  6
Continuous
 62
               7
100
AcDbLine
 10
-157.03002490922296
 20
363.17014575595329
 30
0.0
 11
-157.03002490922296
 21
700.1701457559534
 31
0.0
  0
ARC
  5
2BA
100
AcDbEntity
  8
FAN70-0311
370
              15
390
0
  6
Continuous
 62
               7
100
AcDbCircle
 10
-162.03002490922296
 20
363.17014575595329
 30
0.0
 40
5.0
100
AcDbArc
 50
270.0
 51
0.0
  0
ARC
  5
2BB
100
AcDbEntity
  8
FAN70-0311
370
              15
390
0
  6
Continuous
 62
               7
100
AcDbCircle
 10
-737.03002490922302
 20
363.17014575595329
 30
0.0
 40
5.0
100
AcDbArc
 50
180.0
 51
270.0
  0
LINE
  5
2BC
100
AcDbEntity
  8
FAN70-0311
370
              15
390
0
  6
Continuous
 62
               7
100
AcDbLine
 10
-162.03002490922296
 20
358.17014575595329
 30
0.0
 11
-737.03002490922302
 21
358.17014575595329
 31
0.0
  0
LINE
  5
2BD
100
AcDbEntity
  8
FAN70-0311
370
              15
390
0
  6
Continuous
 62
               7
100
AcDbLine
 10
650.12134215623234
 20
-554.7957140507001
 30
0.0
 11
641.30213834003246
 21
-564.42018614810013
 31
0.0
  0
LINE
  5
2BE
100
AcDbEntity
  8
FAN70-0311
370
              15
390
0
  6
Continuous
 62
               7
100
AcDbLine
 10
591.34972726093235
 20
-562.23921677980002
 30
0.0
 11
583.4029111919325
 21
-551.88272444550012
 31
0.0
  0
LINE
  5
2BF
100
AcDbEntity
  8
FAN70-0311
370
              15
390
0
  6
Continuous
 62
               7
100
AcDbLine
 10
689.91525910903249
 20
-442.17285872729997
 30
0.0
 11
692.68863808113247
 21
-444.5
 31
0.0
  0
LINE
  5
2C0
100
AcDbEntity
  8
FAN70-0311
370
              15
390
0
  6
Continuous
 62
               7
100
AcDbLine
 10
692.68863808113247
 20
-475.5
 30
0.0
 11
688.63259963273242
 21
-478.90342036610002
 31
0.0
  0
LINE
  5
2C1
100
AcDbEntity
  8
FAN70-0311
370
              15
390
0
  6
Continuous
 62
               7
100
AcDbLine
 10
727.68863808113247
 20
-420.0
 30
0.0
 11
390.68863808113247
 21
-420.0
 31
0.0
  0
ARC
  5
2C2
100
AcDbEntity
  8
FAN70-0311
370
              15
390
0
  6
Continuous
 62
               7
100
AcDbCircle
 10
729.18863808113247
 20
-423.5
 30
0.0
 40
3.5
100
AcDbArc
 50
0.0
 51
90.0
  0
LINE
  5
2C3
100
AcDbEntity
  8
FAN70-0311
370
              15
390
0
  6
Continuous
 62
               7
100
AcDbLine
 10
729.18863808113247
 20
-420.0
 30
0.0
 11
727.68863808113247
 21
-420.0
 31
0.0
  0
LINE
  5
2C4
100
AcDbEntity
  8
FAN70-0311
370
              15
390
0
  6
Continuous
 62
               7
100
AcDbLine
 10
731.93863808113247
 20
-430.0
 30
0.0
 11
727.68863808113247
 21
-430.0
 31
0.0
  0
ARC
  5
2C5
100
AcDbEntity
  8
FAN70-0311
370
              15
390
0
  6
Continuous
 62
               7
100
AcDbCircle
 10
731.93863808113247
 20
-429.25
 30
0.0
 40
0.75
100
AcDbArc
 50
270.0
 51
0.0
  0
LINE
  5
2C6
100
AcDbEntity
  8
FAN70-0311
370
              15
390
0
  6
Continuous
 62
               7
100
AcDbLine
 10
732.68863808113247
 20
-429.25
 30
0.0
 11
732.68863808113247
 21
-423.5
 31
0.0
  0
LINE
  5
2C7
100
AcDbEntity
  8
FAN70-0311
370
              15
390
0
  6
Continuous
 62
               7
100
AcDbLine
 10
727.68863808113247
 20
-430.0
 30
0.0
 11
390.68863808113247
 21
-430.0
 31
0.0
  0
LINE
  5
2C8
100
AcDbEntity
  8
FAN70-0311
370
              15
390
0
  6
Continuous
 62
               7
100
AcDbLine
 10
390.68863808113247
 20
-420.0
 30
0.0
 11
389.18863808113247
 21
-420.0
 31
0.0
  0
ARC
  5
2C9
100
AcDbEntity
  8
FAN70-0311
370
              15
390
0
  6
Continuous
 62
               7
100
AcDbCircle
 10
389.18863808113247
 20
-423.5
 30
0.0
 40
3.5
100
AcDbArc
 50
90.0
 51
180.0
  0
LINE
  5
2CA
100
AcDbEntity
  8
FAN70-0311
370
              15
390
0
  6
Continuous
 62
               7
100
AcDbLine
 10
385.68863808113247
 20
-423.5
 30
0.0
 11
385.68863808113247
 21
-429.25
 31
0.0
  0
LINE
  5
2CB
100
AcDbEntity
  8
FAN70-0311
370
              15
390
0
  6
Continuous
 62
               7
100
AcDbLine
 10
390.68863808113247
 20
-430.0
 30
0.0
 11
386.43863808113247
 21
-430.0
 31
0.0
  0
ARC
  5
2CC
100
AcDbEntity
  8
FAN70-0311
370
              15
390
0
  6
Continuous
 62
               7
100
AcDbCircle
 10
386.43863808113247
 20
-429.25
 30
0.0
 40
0.75
100
AcDbArc
 50
180.0
 51
270.0
  0
ARC
  5
2CD
100
AcDbEntity
  8
FAN70-0311
370
              15
390
0
  6
Continuous
 62
               7
100
AcDbCircle
 10
665.19780227053241
 20
-533.93348378400015
 30
0.0
 40
21.499999999999993
100
AcDbArc
 50
267.50000000000006
 51
358.0
  0
LINE
  5
2CE
100
AcDbEntity
  8
FAN70-0311
370
              15
390
0
  6
Continuous
 62
               7
100
AcDbLine
 10
690.41018624163246
 20
-428.0
 30
0.0
 11
686.68470505143239
 21
-534.68382296310006
 31
0.0
  0
LINE
  5
2CF
100
AcDbEntity
  8
FAN70-0311
370
              15
390
0
  6
Continuous
 62
               7
100
AcDbLine
 10
430.44249106163238
 20
-525.18503853250013
 30
0.0
 11
427.89761126493249
 21
-428.0
 31
0.0
  0
ARC
  5
2D0
100
AcDbEntity
  8
FAN70-0311
370
              15
390
0
  6
Continuous
 62
               7
100
AcDbCircle
 10
451.93512354863242
 20
-524.62223414380014
 30
0.0
 40
21.500000000000089
100
AcDbArc
 50
181.49999999999997
 51
267.50000000000006
  0
LINE
  5
2D1
100
AcDbEntity
  8
FAN70-0311
370
              15
390
0
  6
Continuous
 62
               7
100
AcDbLine
 10
664.25998544223239
 20
-555.41302054800008
 30
0.0
 11
650.12134215623234
 21
-554.7957140507001
 31
0.0
  0
LINE
  5
2D2
100
AcDbEntity
  8
FAN70-0311
370
              15
390
0
  6
Continuous
 62
               7
100
AcDbLine
 10
583.4029111919325
 20
-551.88272444550012
 30
0.0
 11
450.99730672023247
 21
-546.10177090790012
 31
0.0
  0
POLYLINE
  5
2D3
100
AcDbEntity
  8
FAN70-0311
370
              15
390
0
  6
Continuous
 62
               7
100
AcDb2dPolyline
 66
               1
 10
0.0
 20
0.0
 30
0.0
 75
               5
  0
VERTEX
  5
2D4
100
AcDbEntity
  8
FAN70-0311
370
              15
390
0
  6
Continuous
 62
               7
100
AcDbVertex
100
AcDb2dVertex
 10
650.12134215623234
 20
-554.7957140507001
 30
0.0
  0
VERTEX
  5
2D5
100
AcDbEntity
  8
FAN70-0311
370
              15
390
0
  6
Continuous
 62
               7
100
AcDbVertex
100
AcDb2dVertex
 10
650.12108537053246
 20
-554.79567139990013
 30
0.0
  0
VERTEX
  5
2D6
100
AcDbEntity
  8
FAN70-0311
370
              15
390
0
  6
Continuous
 62
               7
100
AcDbVertex
100
AcDb2dVertex
 10
649.67190686843242
 20
-554.72112636340012
 30
0.0
  0
VERTEX
  5
2D7
100
AcDbEntity
  8
FAN70-0311
370
              15
390
0
  6
Continuous
 62
               7
100
AcDbVertex
100
AcDb2dVertex
 10
648.38342053503243
 20
-554.51260368520002
 30
0.0
  0
VERTEX
  5
2D8
100
AcDbEntity
  8
FAN70-0311
370
              15
390
0
  6
Continuous
 62
               7
100
AcDbVertex
100
AcDb2dVertex
 10
646.03031851013236
 20
-554.14676852690013
 30
0.0
  0
VERTEX
  5
2D9
100
AcDbEntity
  8
FAN70-0311
370
              15
390
0
  6
Continuous
 62
               7
100
AcDbVertex
100
AcDb2dVertex
 10
642.75560719503244
 20
-553.67212216079997
 30
0.0
  0
VERTEX
  5
2DA
100
AcDbEntity
  8
FAN70-0311
370
              15
390
0
  6
Continuous
 62
               7
100
AcDbVertex
100
AcDb2dVertex
 10
638.71077147693245
 20
-553.14054200880014
 30
0.0
  0
VERTEX
  5
2DB
100
AcDbEntity
  8
FAN70-0311
370
              15
390
0
  6
Continuous
 62
               7
100
AcDbVertex
100
AcDb2dVertex
 10
633.9549897815325
 20
-552.59241406110004
 30
0.0
  0
VERTEX
  5
2DC
100
AcDbEntity
  8
FAN70-0311
370
              15
390
0
  6
Continuous
 62
               7
100
AcDbVertex
100
AcDb2dVertex
 10
628.85214893183252
 20
-552.09848945440012
 30
0.0
  0
VERTEX
  5
2DD
100
AcDbEntity
  8
FAN70-0311
370
              15
390
0
  6
Continuous
 62
               7
100
AcDbVertex
100
AcDb2dVertex
 10
623.36317331883242
 20
-551.67326860310004
 30
0.0
  0
VERTEX
  5
2DE
100
AcDbEntity
  8
FAN70-0311
370
              15
390
0
  6
Continuous
 62
               7
100
AcDbVertex
100
AcDb2dVertex
 10
618.02286104153256
 20
-551.36779057360013
 30
0.0
  0
VERTEX
  5
2DF
100
AcDbEntity
  8
FAN70-0311
370
              15
390
0
  6
Continuous
 62
               7
100
AcDbVertex
100
AcDb2dVertex
 10
612.64450597963253
 20
-551.16445851970002
 30
0.0
  0
VERTEX
  5
2E0
100
AcDbEntity
  8
FAN70-0311
370
              15
390
0
  6
Continuous
 62
               7
100
AcDbVertex
100
AcDb2dVertex
 10
607.34222188173237
 20
-551.06873775220015
 30
0.0
  0
VERTEX
  5
2E1
100
AcDbEntity
  8
FAN70-0311
370
              15
390
0
  6
Continuous
 62
               7
100
AcDbVertex
100
AcDb2dVertex
 10
602.30936542403253
 20
-551.07074770990016
 30
0.0
  0
VERTEX
  5
2E2
100
AcDbEntity
  8
FAN70-0311
370
              15
390
0
  6
Continuous
 62
               7
100
AcDbVertex
100
AcDb2dVertex
 10
597.71687975253246
 20
-551.15265849790012
 30
0.0
  0
VERTEX
  5
2E3
100
AcDbEntity
  8
FAN70-0311
370
              15
390
0
  6
Continuous
 62
               7
100
AcDbVertex
100
AcDb2dVertex
 10
593.63277569753245
 20
-551.28786065660006
 30
0.0
  0
VERTEX
  5
2E4
100
AcDbEntity
  8
FAN70-0311
370
              15
390
0
  6
Continuous
 62
               7
100
AcDbVertex
100
AcDb2dVertex
 10
590.00846408363248
 20
-551.45709206310016
 30
0.0
  0
VERTEX
  5
2E5
100
AcDbEntity
  8
FAN70-0311
370
              15
390
0
  6
Continuous
 62
               7
100
AcDbVertex
100
AcDb2dVertex
 10
587.11904632083247
 20
-551.6248142108002
 30
0.0
  0
VERTEX
  5
2E6
100
AcDbEntity
  8
FAN70-0311
370
              15
390
0
  6
Continuous
 62
               7
100
AcDbVertex
100
AcDb2dVertex
 10
584.95581103443249
 20
-551.76888567310016
 30
0.0
  0
VERTEX
  5
2E7
100
AcDbEntity
  8
FAN70-0311
370
              15
390
0
  6
Continuous
 62
               7
100
AcDbVertex
100
AcDb2dVertex
 10
583.71157150333249
 20
-551.85950412120019
 30
0.0
  0
VERTEX
  5
2E8
100
AcDbEntity
  8
FAN70-0311
370
              15
390
0
  6
Continuous
 62
               7
100
AcDbVertex
100
AcDb2dVertex
 10
583.4029111919325
 20
-551.88272444550012
 30
0.0
  0
SEQEND
  5
2E9
100
AcDbEntity
  8
FAN70-0311
370
              15
390
0
  6
Continuous
 62
               7
  0
LINE
  5
2EA
100
AcDbEntity
  8
FAN70-0311
370
              15
390
0
  6
Continuous
 62
               7
100
AcDbLine
 10
591.34972726093235
 20
-562.23921677980002
 30
0.0
 11
641.30213834003246
 21
-564.42018614810013
 31
0.0
  0
LINE
  5
2EB
100
AcDbEntity
  8
FAN70-0311
370
              15
390
0
  6
Continuous
 62
               7
100
AcDbLine
 10
692.68863808113247
 20
-452.5
 30
0.0
 11
692.68863808113247
 21
-444.5
 31
0.0
  0
LINE
  5
2EC
100
AcDbEntity
  8
FAN70-0311
370
              15
390
0
  6
Continuous
 62
               7
100
AcDbLine
 10
692.68863808113247
 20
-475.5
 30
0.0
 11
692.68863808113247
 21
-467.5
 31
0.0
  0
LINE
  5
2ED
100
AcDbEntity
  8
FAN70-0311
370
              15
390
0
  6
Continuous
 62
               7
100
AcDbLine
 10
692.68863808113247
 20
-452.5
 30
0.0
 11
692.68863808113247
 21
-467.5
 31
0.0
  0
ARC
  5
2EE
100
AcDbEntity
  8
FAN70-0311
370
              15
390
0
  6
STYLE_12
 62
               7
100
AcDbCircle
 10
-448.65604296095273
 20
-252.44583178324064
 30
0.0
 40
301.40000000000003
100
AcDbArc
 50
213.76947186258107
 51
263.20810293922187
  0
LINE
  5
2EF
100
AcDbEntity
  8
FAN70-0311
370
              15
390
0
  6
Continuous
 62
               7
100
AcDbLine
 10
-472.52644607052298
 20
-563.26659240280003
 30
0.0
 11
-481.12382473447065
 21
-553.40911568736988
 31
0.0
  0
ARC
  5
2F0
100
AcDbEntity
  8
FAN70-0311
370
              15
390
0
  6
STYLE_12
 62
               7
100
AcDbCircle
 10
-484.89199130844418
 20
-556.69559110501609
 30
0.0
 40
5.0000000000004281
100
AcDbArc
 50
41.093905295268314
 51
83.208102939218534
  0
ARC
  5
2F1
100
AcDbEntity
  8
FAN70-0311
370
              15
390
0
  6
STYLE_12
 62
               7
100
AcDbCircle
 10
-450.40400685749307
 20
-252.44583178324064
 30
0.0
 40
301.40000000000003
100
AcDbArc
 50
276.79189706077807
 51
326.23052813741896
  0
LINE
  5
2F2
100
AcDbEntity
  8
FAN70-0311
370
              15
390
0
  6
Continuous
 62
               7
100
AcDbLine
 10
-426.53360374792283
 20
-563.26659240280003
 30
0.0
 11
-417.93622508397516
 21
-553.40911568736988
 31
0.0
  0
ARC
  5
2F3
100
AcDbEntity
  8
FAN70-0311
370
              15
390
0
  6
STYLE_12
 62
               7
100
AcDbCircle
 10
-414.16805851000163
 20
-556.69559110501609
 30
0.0
 40
5.000000000000508
100
AcDbArc
 50
96.791897060781494
 51
138.90609470473169
  0
LINE
  5
2F4
100
AcDbEntity
  8
FAN70-0311
370
              15
390
0
  6
STYLE_12
 62
               7
100
AcDbLine
 10
688.85370796341067
 20
-423.86040201318974
 30
0.0
 11
684.98574064549996
 21
-534.6244938187059
 31
0.0
  0
ARC
  5
2F5
100
AcDbEntity
  8
FAN70-0311
370
              15
390
0
  6
STYLE_12
 62
               7
100
AcDbCircle
 10
665.19780227053241
 20
-533.93348378400015
 30
0.0
 40
19.799999999999919
100
AcDbArc
 50
267.49999999999994
 51
358.0
  0
LINE
  5
2F6
100
AcDbEntity
  8
FAN70-0311
370
              15
390
0
  6
STYLE_12
 62
               7
100
AcDbLine
 10
664.33413840075343
 20
-553.71463857131096
 30
0.0
 11
652.08973193666816
 21
-553.18003623974585
 31
0.0
  0
LINE
  5
2F7
100
AcDbEntity
  8
FAN70-0311
370
              15
390
0
  6
STYLE_12
 62
               7
100
AcDbLine
 10
582.40557732630509
 20
-550.13756034375456
 30
0.0
 11
451.07145967875351
 21
-544.40338893121088
 31
0.0
  0
ARC
  5
2F8
100
AcDbEntity
  8
FAN70-0311
370
              15
390
0
  6
STYLE_12
 62
               7
100
AcDbCircle
 10
451.93512354863242
 20
-524.62223414380014
 30
0.0
 40
19.800000000000001
100
AcDbArc
 50
181.49999999999969
 51
267.49999999999994
  0
LINE
  5
2F9
100
AcDbEntity
  8
FAN70-0311
370
              15
390
0
  6
STYLE_12
 62
               7
100
AcDbLine
 10
432.1419085140908
 20
-525.14053772037664
 30
0.0
 11
429.69150417687047
 21
-423.90321013351911
 31
0.0
  0
ARC
  5
2FA
100
AcDbEntity
  8
FAN70-0311
370
              15
390
0
  6
STYLE_12
 62
               7
100
AcDbCircle
 10
692.85127127148701
 20
-424.0
 30
0.0
 40
4.0
100
AcDbArc
 50
90.0
 51
177.99999999999633
  0
ARC
  5
2FB
100
AcDbEntity
  8
FAN70-0311
370
              15
390
0
  6
STYLE_12
 62
               7
100
AcDbCircle
 10
425.69267538311772
 20
-424.0
 30
0.0
 40
3.9999999999999329
100
AcDbArc
 50
1.3865480427000594
 51
90.0
  0
LINE
  5
2FC
100
AcDbEntity
  8
FAN70-0311
370
              15
390
0
  6
STYLE_12
 62
               7
100
AcDbLine
 10
648.93228629319538
 20
-554.51128984907552
 30
0.0
 11
640.12571355684042
 21
-564.36882233280426
 31
0.0
  0
LINE
  5
2FD
100
AcDbEntity
  8
FAN70-0311
370
              15
390
0
  6
STYLE_12
 62
               7
100
AcDbLine
 10
593.56680747338487
 20
-562.33601659238104
 30
0.0
 11
585.40451313799485
 21
-551.69870751402891
 31
0.0
  0
ARC
  5
2FE
100
AcDbEntity
  8
FAN70-0311
370
              15
390
0
  6
STYLE_12
 62
               7
100
AcDbCircle
 10
582.23109977684385
 20
-554.13375323008199
 30
0.0
 40
4.000000000000024
100
AcDbArc
 50
37.500000000328328
 51
87.500000000001435
  0
ARC
  5
2FF
100
AcDbEntity
  8
FAN70-0311
370
              15
390
0
  6
STYLE_12
 62
               7
100
AcDbCircle
 10
651.91525438721078
 20
-557.17622912607351
 30
0.0
 40
4.0000000000000586
100
AcDbArc
 50
87.5000000000569
 51
138.22287277322863
  0
LINE
  5
300
100
AcDbEntity
  8
FAN70-0311
370
              15
390
0
  6
Continuous
 62
               7
100
AcDbLine
 10
-699.98721459971057
 20
424.0
 30
0.0
 11
-699.98721459971057
 21
639.47014575595335
 31
0.0
  0
LINE
  5
301
100
AcDbEntity
  8
FAN70-0311
370
              15
390
0
  6
Continuous
 62
               7
100
AcDbLine
 10
-199.98721459971057
 20
639.47014575595335
 30
0.0
 11
-199.98721459971057
 21
424.0
 31
0.0
  0
LINE
  5
302
100
AcDbEntity
  8
FAN70-0311
370
              15
390
0
  6
Continuous
 62
               7
100
AcDbLine
 10
-673.5588424708526
 20
661.6701457559534
 30
0.0
 11
-226.35884247085261
 21
661.6701457559534
 31
0.0
  0
SPLINE
  5
303
100
AcDbEntity
  8
FAN70-0311
370
              15
390
0
  6
Continuous
 62
               7
100
AcDbSpline
210
0.0
220
0.0
230
1.0
 70
               8
 71
               2
 72
               8
 73
               5
 74
               0
 42
0.000001
 43
0.000001
 40
0.0
 40
0.0
 40
0.0
 40
1.0
 40
2.0
 40
3.0
 40
3.0
 40
3.0
 10
-673.58721459884919
 20
661.6701457559534
 30
0.0
 10
-680.66107328111912
 20
661.67014575614746
 30
0.0
 10
-692.91335592355972
 20
655.72167368123576
 30
0.0
 10
-699.98721460261254
 20
645.4186178205739
 30
0.0
 10
-699.9872145997108
 20
639.47014574684681
 30
0.0
  0
SPLINE
  5
304
100
AcDbEntity
  8
FAN70-0311
370
              15
390
0
  6
Continuous
 62
               7
100
AcDbSpline
210
0.0
220
0.0
230
1.0
 70
               8
 71
               2
 72
               8
 73
               5
 74
               0
 42
0.000001
 43
0.000001
 40
0.0
 40
0.0
 40
0.0
 40
1.0
 40
2.0
 40
3.0
 40
3.0
 40
3.0
 10
-673.58721459594744
 20
401.82082105244513
 30
0.0
 10
-680.66107327821737
 20
401.82082105225095
 30
0.0
 10
-692.91335592065798
 20
407.76929312716288
 30
0.0
 10
-699.98721459971057
 20
418.07234898782463
 30
0.0
 10
-699.98721459680883
 20
424.02082106155171
 30
0.0
  0
SPLINE
  5
305
100
AcDbEntity
  8
FAN70-0311
370
              15
390
0
  6
Continuous
 62
               7
100
AcDbSpline
210
0.0
220
0.0
230
1.0
 70
               8
 71
               2
 72
               8
 73
               5
 74
               0
 42
0.000001
 43
0.000001
 40
0.0
 40
0.0
 40
0.0
 40
1.0
 40
2.0
 40
3.0
 40
3.0
 40
3.0
 10
-226.42404880972296
 20
661.6701457559534
 30
0.0
 10
-219.35019012745292
 20
661.67014575614746
 30
0.0
 10
-207.09790748501237
 20
655.72167368123576
 30
0.0
 10
-200.02404880595967
 20
645.4186178205739
 30
0.0
 10
-200.02404880886141
 20
639.47014574684681
 30
0.0
  0
SPLINE
  5
306
100
AcDbEntity
  8
FAN70-0311
370
              15
390
0
  6
Continuous
 62
               7
100
AcDbSpline
210
0.0
220
0.0
230
1.0
 70
               8
 71
               2
 72
               8
 73
               5
 74
               0
 42
0.000001
 43
0.000001
 40
0.0
 40
0.0
 40
0.0
 40
1.0
 40
2.0
 40
3.0
 40
3.0
 40
3.0
 10
-226.5112892176231
 20
401.82082105244513
 30
0.0
 10
-219.43743053535306
 20
401.82082105225095
 30
0.0
 10
-207.18514789291245
 20
407.76929312716288
 30
0.0
 10
-200.11128921385986
 20
418.07234898782463
 30
0.0
 10
-200.11128921676161
 20
424.02082106155171
 30
0.0
  0
INSERT
  5
307
100
AcDbEntity
  8
FAN70-0311
390
0
 62
               7
100
AcDbBlockReference
  2
グループ-1
 10
0.0000000000000284
 20
-72.210093074046327
 30
0.0
  0
INSERT
  5
308
100
AcDbEntity
  8
FAN70-0311
390
0
 62
               7
100
AcDbBlockReference
  2
グループ-2
 10
0.0000000000000284
 20
-72.210093074046327
 30
0.0
  0
CIRCLE
  5
309
100
AcDbEntity
  8
FAN70-0311
370
              15
390
0
  6
Continuous
 62
               7
100
AcDbCircle
 10
-449.53002490922302
 20
589.1701457559534
 30
0.0
 40
23.0
  0
CIRCLE
  5
30A
100
AcDbEntity
  8
FAN70-0311
370
              15
390
0
  6
Continuous
 62
               7
100
AcDbCircle
 10
-449.53002490922302
 20
589.1701457559534
 30
0.0
 40
32.649999999999977
  0
ENDSEC
  0
SECTION
  2
OBJECTS
  0
DICTIONARY
  5
19
100
AcDbDictionary
280
               0
281
               1
  3
ACAD_GROUP
350
1A
  3
ACAD_MLINESTYLE
350
1B
  3
ACAD_LAYOUT
350
1E
  3
ACAD_PLOTSETTINGS
350
22
  3
ACAD_PLOTSTYLENAME
350
1F
  0
DICTIONARY
  5
1A
102
{ACAD_REACTORS
330
19
102
}
100
AcDbDictionary
280
               0
281
               1
  0
DICTIONARY
  5
1B
102
{ACAD_REACTORS
330
19
102
}
100
AcDbDictionary
280
               0
281
               1
  3
Standard
350
1C
  0
MLINESTYLE
  5
1C
102
{ACAD_REACTORS
330
1B
102
}
100
AcDbMlineStyle
  2
Standard
 70
               0
  3

 62
               0
 51
90.0
 52
90.0
 71
               2
 49
0.5
 62
             256
  6
ByLayer
 49
-0.5
 62
             256
  6
ByLayer
  0
ACDBDICTIONARYWDFLT
  5
1F
102
{ACAD_REACTORS
330
19
102
}
100
AcDbDictionary
281
               1
  3
Normal
350
1D
100
AcDbDictionaryWithDefault
340
1D
  0
ACDBPLACEHOLDER
  5
1D
102
{ACAD_REACTORS
330
1F
102
}
  0
LAYOUT
  5
20
102
{ACAD_REACTORS
330
1E
102
}
100
AcDbPlotSettings
  1

  2

  4

  6

 40
0.0
 41
0.0
 42
0.0
 43
0.0
 44
0.0
 45
0.0
 46
0.0
 47
0.0
 48
0.0
 49
0.0
140
0.0
141
0.0
142
1.0
143
1.0
 70
            1024
 72
               0
 73
               0
 74
               0
  7

 75
               0
147
1.0
148
0.0
149
0.0
100
AcDbLayout
  1
Model
 70
               0
 71
               0
 10
0.0
 20
0.0
 11
0.0
 21
0.0
 12
0.0
 22
0.0
 32
0.0
 14
0.0
 24
0.0
 34
0.0
 15
0.0
 25
0.0
 35
0.0
146
0.0
 13
0.0
 23
0.0
 33
0.0
 16
0.0
 26
0.0
 36
0.0
 17
0.0
 27
0.0
 37
0.0
 76
               0
330
A
331
0
345
0
346
0
  0
LAYOUT
  5
21
102
{ACAD_REACTORS
330
1E
102
}
100
AcDbPlotSettings
  1

  2

  4

  6

 40
0.0
 41
0.0
 42
0.0
 43
0.0
 44
0.0
 45
0.0
 46
0.0
 47
0.0
 48
0.0
 49
0.0
140
0.0
141
0.0
142
1.0
143
1.0
 70
               0
 72
               0
 73
               0
 74
               0
  7

 75
               0
147
1.0
148
0.0
149
0.0
100
AcDbLayout
  1
Layout1
 70
               0
 71
               0
 10
0.0
 20
0.0
 11
0.0
 21
0.0
 12
0.0
 22
0.0
 32
0.0
 14
0.0
 24
0.0
 34
0.0
 15
0.0
 25
0.0
 35
0.0
146
0.0
 13
0.0
 23
0.0
 33
0.0
 16
0.0
 26
0.0
 36
0.0
 17
0.0
 27
0.0
 37
0.0
 76
               0
330
B
331
0
345
0
346
0
  0
DICTIONARY
  5
1E
102
{ACAD_REACTORS
330
19
102
}
100
AcDbDictionary
280
               0
281
               1
  3
Layout1
350
21
  3
Model
350
20
  0
DICTIONARY
  5
22
102
{ACAD_REACTORS
330
19
102
}
100
AcDbDictionary
280
               0
281
               1
  0
ENDSEC
  0
EOF
