  0
SECTION
  2
HEADER
  9
$ACADVER
  1
AC1015
  9
$ACADMAINTVER
 70
               6
  9
$DWGCODEPAGE
  3
ANSI_932
  9
$INSBASE
 10
0.0
 20
0.0
 30
0.0
  9
$EXTMIN
 10
-1049.9999999999998
 20
-1485.0
 30
-14.428611111111111
  9
$EXTMAX
 10
1049.9999999999998
 20
1485.0
 30
14.428611111111111
  9
$LIMMIN
 10
0.0
 20
0.0
  9
$LIMMAX
 10
0.0
 20
0.0
  9
$ORTHOMODE
 70
               0
  9
$REGENMODE
 70
               1
  9
$FILLMODE
 70
               1
  9
$QTEXTMODE
 70
               0
  9
$MIRRTEXT
 70
               1
  9
$LTSCALE
 40
50.799999999999997
  9
$ATTMODE
 70
               1
  9
$TEXTSIZE
 40
0.2
  9
$TRACEWID
 40
1.0
  9
$TEXTSTYLE
  7
Standard
  9
$CLAYER
  8
notes
  9
$CELTYPE
  6
Continuous
  9
$CECOLOR
 62
             256
  9
$CELTSCALE
 40
1.0
  9
$DISPSILH
 70
               0
  9
$DIMSCALE
 40
1.0
  9
$DIMASZ
 40
31.75
  9
$DIMEXO
 40
0.0
  9
$DIMDLI
 40
6.9999999999999396
  9
$DIMRND
 40
0.0
  9
$DIMDLE
 40
0.0
  9
$DIMEXE
 40
19.999999999996199
  9
$DIMTP
 40
0.0
  9
$DIMTM
 40
0.0
  9
$DIMTXT
 40
24.432617187500004
  9
$DIMCEN
 40
0.0
  9
$DIMTSZ
 40
0.0
  9
$DIMTOL
 70
               0
  9
$DIMLIM
 70
               0
  9
$DIMTIH
 70
               0
  9
$DIMTOH
 70
               0
  9
$DIMSE1
 70
               0
  9
$DIMSE2
 70
               0
  9
$DIMTAD
 70
               1
  9
$DIMZIN
 70
              11
  9
$DIMBLK
  1
VW_FILLEDARROW
  9
$DIMASO
 70
               1
  9
$DIMSHO
 70
               1
  9
$DIMPOST
  1
<>
  9
$DIMAPOST
  1
[]
  9
$DIMALT
 70
               0
  9
$DIMALTD
 70
               1
  9
$DIMALTF
 40
1.0
  9
$DIMLFAC
 40
1.0
  9
$DIMTOFL
 70
               0
  9
$DIMTVP
 40
0.0
  9
$DIMTIX
 70
               1
  9
$DIMSOXD
 70
               0
  9
$DIMSAH
 70
               0
  9
$DIMBLK1
  1

  9
$DIMBLK2
  1

  9
$DIMSTYLE
  2
JIS
  9
$DIMCLRD
 70
               0
  9
$DIMCLRE
 70
               0
  9
$DIMCLRT
 70
               0
  9
$DIMTFAC
 40
1.0
  9
$DIMGAP
 40
1.00000000000108
  9
$DIMJUST
 70
               0
  9
$DIMSD1
 70
               0
  9
$DIMSD2
 70
               0
  9
$DIMTOLJ
 70
               1
  9
$DIMTZIN
 70
              11
  9
$DIMALTZ
 70
              11
  9
$DIMALTTZ
 70
              11
  9
$DIMUPT
 70
               0
  9
$DIMDEC
 70
               1
  9
$DIMTDEC
 70
               1
  9
$DIMALTU
 70
               2
  9
$DIMALTTD
 70
               2
  9
$DIMTXSTY
  7
ＭＳ ゴシック
  9
$DIMAUNIT
 70
               0
  9
$DIMADEC
 70
               2
  9
$DIMALTRND
 40
0.0
  9
$DIMAZIN
 70
               0
  9
$DIMDSEP
 70
              46
  9
$DIMATFIT
 70
               0
  9
$DIMFRAC
 70
               2
  9
$DIMLDRBLK
  1

  9
$DIMLUNIT
 70
               2
  9
$DIMLWD
 70
              -2
  9
$DIMLWE
 70
              -2
  9
$DIMTMOVE
 70
               0
  9
$LUNITS
 70
               2
  9
$LUPREC
 70
               4
  9
$SKETCHINC
 40
0.1
  9
$FILLETRAD
 40
0.0
  9
$AUNITS
 70
               0
  9
$AUPREC
 70
               0
  9
$MENU
  1
acad
  9
$ELEVATION
 40
0.0
  9
$PELEVATION
 40
0.0
  9
$THICKNESS
 40
0.0
  9
$LIMCHECK
 70
               0
  9
$CHAMFERA
 40
0.0
  9
$CHAMFERB
 40
0.0
  9
$CHAMFERC
 40
0.0
  9
$CHAMFERD
 40
0.0
  9
$SKPOLY
 70
               0
  9
$TDCREATE
 40
2456064.754791667
  9
$TDUCREATE
 40
0.000000000
  9
$TDUPDATE
 40
2456064.754791667
  9
$TDUUPDATE
 40
0.000000000
  9
$TDINDWG
 40
0.0000000000
  9
$TDUSRTIMER
 40
0.0000000000
  9
$USRTIMER
 70
               1
  9
$ANGBASE
 50
0.0
  9
$ANGDIR
 70
               0
  9
$PDMODE
 70
               1
  9
$PDSIZE
 40
-2.0
  9
$PLINEWID
 40
0.0
  9
$SPLFRAME
 70
               0
  9
$SPLINETYPE
 70
               6
  9
$SPLINESEGS
 70
               8
  9
$HANDSEED
  5
32D
  9
$SURFTAB1
 70
               6
  9
$SURFTAB2
 70
               6
  9
$SURFTYPE
 70
               6
  9
$SURFU
 70
               6
  9
$SURFV
 70
               6
  9
$UCSBASE
  2

  9
$UCSNAME
  2

  9
$UCSORG
 10
0.0
 20
0.0
 30
0.0
  9
$UCSXDIR
 10
1.0
 20
0.0
 30
0.0
  9
$UCSYDIR
 10
0.0
 20
1.0
 30
0.0
  9
$UCSORTHOREF
  2

  9
$UCSORTHOVIEW
 70
               0
  9
$UCSORGTOP
 10
0.0
 20
0.0
 30
0.0
  9
$UCSORGBOTTOM
 10
0.0
 20
0.0
 30
0.0
  9
$UCSORGLEFT
 10
0.0
 20
0.0
 30
0.0
  9
$UCSORGRIGHT
 10
0.0
 20
0.0
 30
0.0
  9
$UCSORGFRONT
 10
0.0
 20
0.0
 30
0.0
  9
$UCSORGBACK
 10
0.0
 20
0.0
 30
0.0
  9
$PUCSBASE
  2

  9
$PUCSNAME
  2

  9
$PUCSORG
 10
0.0
 20
0.0
 30
0.0
  9
$PUCSXDIR
 10
1.0
 20
0.0
 30
0.0
  9
$PUCSYDIR
 10
0.0
 20
1.0
 30
0.0
  9
$PUCSORTHOREF
  2

  9
$PUCSORTHOVIEW
 70
               0
  9
$PUCSORGTOP
 10
0.0
 20
0.0
 30
0.0
  9
$PUCSORGBOTTOM
 10
0.0
 20
0.0
 30
0.0
  9
$PUCSORGLEFT
 10
0.0
 20
0.0
 30
0.0
  9
$PUCSORGRIGHT
 10
0.0
 20
0.0
 30
0.0
  9
$PUCSORGFRONT
 10
0.0
 20
0.0
 30
0.0
  9
$PUCSORGBACK
 10
0.0
 20
0.0
 30
0.0
  9
$USERI1
 70
               0
  9
$USERI2
 70
               0
  9
$USERI3
 70
               0
  9
$USERI4
 70
               0
  9
$USERI5
 70
               0
  9
$USERR1
 40
0.0
  9
$USERR2
 40
0.0
  9
$USERR3
 40
0.0
  9
$USERR4
 40
0.0
  9
$USERR5
 40
0.0
  9
$WORLDVIEW
 70
               1
  9
$SHADEDGE
 70
               3
  9
$SHADEDIF
 70
              70
  9
$TILEMODE
 70
               1
  9
$MAXACTVP
 70
              64
  9
$PINSBASE
 10
0.0
 20
0.0
 30
0.0
  9
$PLIMCHECK
 70
               0
  9
$PEXTMIN
 10
1.0000000000000000E+20
 20
1.0000000000000000E+20
 30
1.0000000000000000E+20
  9
$PEXTMAX
 10
-1.0000000000000000E+20
 20
-1.0000000000000000E+20
 30
-1.0000000000000000E+20
  9
$PLIMMIN
 10
0.0
 20
0.0
  9
$PLIMMAX
 10
12.0
 20
9.0
  9
$UNITMODE
 70
               0
  9
$VISRETAIN
 70
               0
  9
$PLINEGEN
 70
               1
  9
$PSLTSCALE
 70
               0
  9
$TREEDEPTH
 70
            3020
  9
$CMLSTYLE
  2
Standard
  9
$CMLJUST
 70
               0
  9
$CMLSCALE
 40
1.0
  9
$PROXYGRAPHICS
 70
               0
  9
$MEASUREMENT
 70
               1
  9
$CELWEIGHT
370
               0
  9
$ENDCAPS
280
               0
  9
$JOINSTYLE
280
               0
  9
$LWDISPLAY
290
               1
  9
$INSUNITS
 70
               4
  9
$HYPERLINKBASE
  1

  9
$STYLESHEET
  1

  9
$XEDIT
290
               1
  9
$CEPSNTYPE
380
               0
  9
$PSTYLEMODE
290
               1
  9
$FINGERPRINTGUID
  2

  9
$VERSIONGUID
  2

  9
$EXTNAMES
290
               1
  9
$PSVPSCALE
 40
0.0
  0
ENDSEC
  0
SECTION
  2
CLASSES
  0
CLASS
  1
LWPOLYLINE
  2
AcDbPolyline
  3
AutoCAD 2000
 90
        0
280
               0
281
               1
  0
CLASS
  1
IMAGE
  2
AcDbRasterImage
  3
ISM
 90
      127
280
               0
281
               1
  0
CLASS
  1
OLE2FRAME
  2
AcDbOle2Frame
  3
AutoCAD 2000
 90
        0
280
               0
281
               1
  0
CLASS
  1
HATCH
  2
AcDbHatch
  3
AutoCAD 2000
 90
        0
280
               0
281
               1
  0
CLASS
  1
DICTIONARYVAR
  2
AcDbDictionaryVar
  3
AutoCAD 2000
 90
        0
280
               0
281
               0
  0
CLASS
  1
RASTERVARIABLES
  2
AcDbRasterVariables
  3
ISM
 90
        0
280
               0
281
               0
  0
CLASS
  1
IMAGEDEF
  2
AcDbRasterImageDef
  3
ISM
 90
        0
280
               0
281
               0
  0
CLASS
  1
IMAGEDEF_REACTOR
  2
AcDbRasterImageDefReactor
  3
ISM
 90
        1
280
               0
281
               0
  0
CLASS
  1
IDBUFFER
  2
AcDbIdBuffer
  3
AutoCAD 2000
 90
        0
280
               0
281
               0
  0
CLASS
  1
SPATIAL_FILTER
  2
AcDbSpatialFilter
  3
AutoCAD 2000
 90
        0
280
               0
281
               0
  0
CLASS
  1
XRECORD
  2
AcDbXrecord
  3
AutoCAD 2000
 90
        0
280
               0
281
               0
  0
CLASS
  1
SORTENTSTABLE
  2
AcDbSortentsTable
  3
AutoCAD 2000
 90
        0
280
               0
281
               0
  0
CLASS
  1
LAYER_INDEX
  2
AcDbLayerIndex
  3
AutoCAD 2000
 90
        0
280
               0
281
               0
  0
CLASS
  1
SPATIAL_INDEX
  2
AcDbSpatialIndex
  3
AutoCAD 2000
 90
        0
280
               0
281
               0
  0
CLASS
  1
OBJECT_PTR
  2
CAseDLPNTableRecord
  3
"ASE-LPNTableRecord"
 90
        1
280
               0
281
               0
  0
CLASS
  1
LAYOUT
  2
AcDbLayout
  3
AutoCAD 2000
 90
        0
280
               0
281
               0
  0
CLASS
  1
PLOTSETTINGS
  2
AcDbPlotSettings
  3
AutoCAD 2000
 90
        0
280
               0
281
               0
  0
CLASS
  1
ACDBDICTIONARYWDFLT
  2
AcDbDictionaryWithDefault
  3
AutoCAD 2000
 90
        0
280
               0
281
               0
  0
CLASS
  1
ACDBPLACEHOLDER
  2
AcDbPlaceHolder
  3
AutoCAD 2000
 90
        0
280
               0
281
               0
  0
ENDSEC
  0
SECTION
  2
TABLES
  0
TABLE
  2
VPORT
  5
7
100
AcDbSymbolTable
 70
               1
  0
VPORT
  5
15
100
AcDbSymbolTableRecord
100
AcDbViewportTableRecord
  2
*ACTIVE
 70
               0
 10
0.0
 20
0.0
 11
1.0
 21
1.0
 12
0.0
 22
0.0
 13
0.0
 23
0.0
 14
1.0
 24
1.0
 15
0.0
 25
0.0
 16
0.0
 26
0.0
 36
1.0
 17
0.0
 27
0.0
 37
0.0
 40
2970.0
 41
0.688564
 42
50.0
 43
0.0
 44
0.0
 50
0.0
 51
0.0
 71
               0
 72
            2000
 73
               1
 74
               1
 75
               0
 76
               0
 77
               0
 78
               0
281
               0
 65
               0
110
0.0
120
0.0
130
0.0
111
1.0
121
0.0
131
0.0
112
0.0
122
1.0
132
0.0
345
0
346
0
 79
               0
146
0.0
  0
ENDTAB
  0
TABLE
  2
LTYPE
  5
4
100
AcDbSymbolTable
 70
              17
  0
LTYPE
  5
11
100
AcDbSymbolTableRecord
100
AcDbLinetypeTableRecord
  2
ByBlock
 70
              64
  3

 72
              65
 73
               0
 40
0.0
  0
LTYPE
  5
12
100
AcDbSymbolTableRecord
100
AcDbLinetypeTableRecord
  2
ByLayer
 70
              64
  3

 72
              65
 73
               0
 40
0.0
  0
LTYPE
  5
13
100
AcDbSymbolTableRecord
100
AcDbLinetypeTableRecord
  2
Continuous
 70
              64
  3
Solid line
 72
              65
 73
               0
 40
0.0
  0
LTYPE
  5
33
100
AcDbSymbolTableRecord
100
AcDbLinetypeTableRecord
  2
STYLE_01
 70
               0
  3

 72
              65
 73
               4
 40
0.3999999999999999
 49
0.25
 74
               0
 49
-0.05
 74
               0
 49
0.05
 74
               0
 49
-0.05
 74
               0
  0
LTYPE
  5
34
100
AcDbSymbolTableRecord
100
AcDbLinetypeTableRecord
  2
STYLE_02
 70
               0
  3

 72
              65
 73
               2
 40
0.6944250000000001
 49
0.48607
 74
               0
 49
-0.2083550000000001
 74
               0
  0
LTYPE
  5
35
100
AcDbSymbolTableRecord
100
AcDbLinetypeTableRecord
  2
STYLE_03
 70
               0
  3

 72
              65
 73
               2
 40
1.25
 49
1.0416400000000001
 74
               0
 49
-0.2083599999999999
 74
               0
  0
LTYPE
  5
36
100
AcDbSymbolTableRecord
100
AcDbLinetypeTableRecord
  2
STYLE_04
 70
               0
  3

 72
              65
 73
               2
 40
1.5277099999999999
 49
1.3194249999999998
 74
               0
 49
-0.208285
 74
               0
  0
LTYPE
  5
37
100
AcDbSymbolTableRecord
100
AcDbLinetypeTableRecord
  2
STYLE_05
 70
               0
  3

 72
              65
 73
               2
 40
0.20828
 49
0.069425
 74
               0
 49
-0.138855
 74
               0
  0
LTYPE
  5
38
100
AcDbSymbolTableRecord
100
AcDbLinetypeTableRecord
  2
STYLE_06
 70
               0
  3

 72
              65
 73
               4
 40
1.0416400000000001
 49
0.625
 74
               0
 49
-0.20828
 74
               0
 49
0.06943
 74
               0
 49
-0.13893
 74
               0
  0
LTYPE
  5
39
100
AcDbSymbolTableRecord
100
AcDbLinetypeTableRecord
  2
STYLE_07
 70
               0
  3

 72
              65
 73
               6
 40
1.875
 49
0.625
 74
               0
 49
-0.20828
 74
               0
 49
0.6250000000000001
 74
               0
 49
-0.2083599999999999
 74
               0
 49
0.06943
 74
               0
 49
-0.1389299999999999
 74
               0
  0
LTYPE
  5
3A
100
AcDbSymbolTableRecord
100
AcDbLinetypeTableRecord
  2
STYLE_08
 70
               0
  3

 72
              65
 73
               6
 40
1.25
 49
0.625
 74
               0
 49
-0.20828
 74
               0
 49
0.06943
 74
               0
 49
-0.13893
 74
               0
 49
0.0694299999999999
 74
               0
 49
-0.13893
 74
               0
  0
LTYPE
  5
3B
100
AcDbSymbolTableRecord
100
AcDbLinetypeTableRecord
  2
STYLE_09
 70
               0
  3

 72
              65
 73
               4
 40
5.0
 49
3.75
 74
               0
 49
-0.2777849999999998
 74
               0
 49
0.6944300000000003
 74
               0
 49
-0.2777849999999998
 74
               0
  0
LTYPE
  5
3C
100
AcDbSymbolTableRecord
100
AcDbLinetypeTableRecord
  2
STYLE_10
 70
               0
  3

 72
              65
 73
               6
 40
5.9375
 49
3.75
 74
               0
 49
-0.2777849999999998
 74
               0
 49
0.6944300000000003
 74
               0
 49
-0.2777849999999998
 74
               0
 49
0.625
 74
               0
 49
-0.3125
 74
               0
  0
LTYPE
  5
3D
100
AcDbSymbolTableRecord
100
AcDbLinetypeTableRecord
  2
STYLE_11
 70
               0
  3

 72
              65
 73
               2
 40
0.0694444881889764
 49
0.0347222440944882
 74
               0
 49
-0.0347222440944882
 74
               0
  0
LTYPE
  5
3E
100
AcDbSymbolTableRecord
100
AcDbLinetypeTableRecord
  2
STYLE_12
 70
               0
  3

 72
              65
 73
               2
 40
0.3937007874015748
 49
0.1968503937007874
 74
               0
 49
-0.1968503937007874
 74
               0
  0
LTYPE
  5
3F
100
AcDbSymbolTableRecord
100
AcDbLinetypeTableRecord
  2
STYLE_13
 70
               0
  3

 72
              65
 73
               2
 40
0.5905511811023622
 49
0.2952755905511811
 74
               0
 49
-0.2952755905511811
 74
               0
  0
LTYPE
  5
40
100
AcDbSymbolTableRecord
100
AcDbLinetypeTableRecord
  2
STYLE_14
 70
               0
  3

 72
              65
 73
               2
 40
1.9685039370078738
 49
0.9842519685039369
 74
               0
 49
-0.9842519685039369
 74
               0
  0
ENDTAB
  0
TABLE
  2
LAYER
  5
2
100
AcDbSymbolTable
 70
               5
  0
LAYER
  5
14
100
AcDbSymbolTableRecord
100
AcDbLayerTableRecord
  2
0
 70
               0
 62
               7
  6
Continuous
290
               1
370
              -3
390
1D
  0
LAYER
  5
41
100
AcDbSymbolTableRecord
100
AcDbLayerTableRecord
  2
Defpoints
 70
               0
 62
               7
  6
Continuous
290
               0
370
              -3
390
1D
  0
LAYER
  5
42
100
AcDbSymbolTableRecord
100
AcDbLayerTableRecord
  2
template
 70
               0
 62
               7
  6
Continuous
290
               1
370
              -3
390
1D
  0
LAYER
  5
43
100
AcDbSymbolTableRecord
100
AcDbLayerTableRecord
  2
notes
 70
               0
 62
               7
  6
Continuous
290
               1
370
              -3
390
1D
  0
LAYER
  5
44
100
AcDbSymbolTableRecord
100
AcDbLayerTableRecord
  2
FAN70-0312
 70
               0
 62
               7
  6
Continuous
290
               1
370
              -3
390
1D
  0
ENDTAB
  0
TABLE
  2
STYLE
  5
3
100
AcDbSymbolTable
 70
               3
  0
STYLE
  5
17
100
AcDbSymbolTableRecord
100
AcDbTextStyleTableRecord
  2
Standard
 70
               0
 40
0.0
 41
1.0
 50
0.0
 71
               0
 42
0.0
  3
txt
  4
BIGFONT.SHX
  0
STYLE
  5
31
100
AcDbSymbolTableRecord
100
AcDbTextStyleTableRecord
  2
MS-Gothic
 70
               0
 40
0.0
 41
1.0
 50
0.0
 71
               0
 42
0.0
  3

  4
MS-Gothic
1001
ACAD
1000
MS-Gothic
1071
        0
  0
STYLE
  5
32
100
AcDbSymbolTableRecord
100
AcDbTextStyleTableRecord
  2
ＭＳ ゴシック
 70
               0
 40
0.0
 41
1.0
 50
0.0
 71
               0
 42
0.0
  3

  4
ＭＳ ゴシック
1001
ACAD
1000
ＭＳ ゴシック
1071
        0
  0
ENDTAB
  0
TABLE
  2
VIEW
  5
5
100
AcDbSymbolTable
 70
               0
  0
ENDTAB
  0
TABLE
  2
UCS
  5
6
100
AcDbSymbolTable
 70
               0
  0
ENDTAB
  0
TABLE
  2
APPID
  5
8
100
AcDbSymbolTable
 70
               1
  0
APPID
  5
16
100
AcDbSymbolTableRecord
100
AcDbRegAppTableRecord
  2
ACAD
 70
               0
  0
ENDTAB
  0
TABLE
  2
DIMSTYLE
  5
9
100
AcDbSymbolTable
 70
               3
100
AcDbDimStyleTable
 71
               0
  0
DIMSTYLE
105
18
100
AcDbSymbolTableRecord
100
AcDbDimStyleTableRecord
  2
Standard
 70
               0
  3

  4

 40
1.0
 41
0.18
 42
0.0625
 43
0.38
 44
0.18
 45
0.0
 46
0.0
 47
0.0
 48
0.0
 71
               0
 72
               0
 73
               1
 74
               1
 75
               0
 76
               0
 77
               0
 78
               0
 79
               0
140
0.18
141
0.09
142
0.0
143
25.399999999999999
144
1.0
145
0.0
146
1.0
147
0.09
148
0.0
170
               0
171
               2
172
               0
173
               0
174
               0
175
               0
176
               0
177
               0
178
               0
179
               0
271
               4
272
               4
273
               2
274
               2
275
               0
276
               0
277
               2
278
              46
279
               0
280
               0
281
               0
282
               0
283
               1
284
               0
285
               0
286
               0
288
               0
289
               3
340
17
341
0
342
0
343
0
344
0
371
              -2
372
              -2
  0
DIMSTYLE
105
4D
100
AcDbSymbolTableRecord
100
AcDbDimStyleTableRecord
  2
tfrom線あり
 70
               0
  3
<>
  4
[]
 40
1.0
 41
9.9993896484374982
 42
24.999999999999996
 43
0.9999999999999999
 44
0.0
 45
0.0
 46
0.0
 47
0.0
 48
0.0
 71
               0
 72
               0
 73
               0
 74
               0
 75
               0
 76
               0
 77
               1
 78
              11
 79
               0
140
24.432617187500004
141
0.0
142
0.0
143
1.0
144
1.0
145
0.0
146
1.0
147
0.4999999999999999
148
0.0
170
               0
171
               1
172
               0
173
               0
174
               1
175
               0
176
               0
177
               0
178
               0
179
               2
271
               1
272
               1
273
               2
274
               2
275
               0
276
               2
277
               2
278
              46
279
               0
280
               0
281
               0
282
               0
283
               1
284
              11
285
              11
286
              11
288
               0
289
               0
340
32
341
45
342
45
343
0
344
0
371
              -2
372
              -2
  0
DIMSTYLE
105
52
100
AcDbSymbolTableRecord
100
AcDbDimStyleTableRecord
  2
JIS
 70
               0
  3
<>
  4
[]
 40
1.0
 41
31.75
 42
0.0
 43
6.9999999999999396
 44
19.999999999996199
 45
0.0
 46
0.0
 47
0.0
 48
0.0
 71
               0
 72
               0
 73
               0
 74
               0
 75
               0
 76
               0
 77
               1
 78
              11
 79
               0
140
24.432617187500004
141
0.0
142
0.0
143
1.0
144
1.0
145
0.0
146
1.0
147
1.00000000000108
148
0.0
170
               0
171
               1
172
               0
173
               0
174
               1
175
               0
176
               0
177
               0
178
               0
179
               2
271
               1
272
               1
273
               2
274
               2
275
               0
276
               2
277
               2
278
              46
279
               0
280
               0
281
               0
282
               0
283
               1
284
              11
285
              11
286
              11
288
               0
289
               0
340
32
341
4E
342
4E
343
0
344
0
371
              -2
372
              -2
  0
ENDTAB
  0
TABLE
  2
BLOCK_RECORD
  5
1
100
AcDbSymbolTable
 70
              16
  0
BLOCK_RECORD
  5
A
100
AcDbSymbolTableRecord
100
AcDbBlockTableRecord
  2
*MODEL_SPACE
340
20
  0
BLOCK_RECORD
  5
B
100
AcDbSymbolTableRecord
100
AcDbBlockTableRecord
  2
*PAPER_SPACE
340
21
  0
BLOCK_RECORD
  5
45
100
AcDbSymbolTableRecord
100
AcDbBlockTableRecord
  2
_DOT
340
0
  0
BLOCK_RECORD
  5
4E
100
AcDbSymbolTableRecord
100
AcDbBlockTableRecord
  2
VW_FILLEDARROW
340
0
  0
BLOCK_RECORD
  5
23
100
AcDbSymbolTableRecord
100
AcDbBlockTableRecord
  2
グループ
340
0
102
{BLKREFS
331
103
102
}
  0
BLOCK_RECORD
  5
24
100
AcDbSymbolTableRecord
100
AcDbBlockTableRecord
  2
*D3
340
0
  0
BLOCK_RECORD
  5
25
100
AcDbSymbolTableRecord
100
AcDbBlockTableRecord
  2
*D4
340
0
  0
BLOCK_RECORD
  5
26
100
AcDbSymbolTableRecord
100
AcDbBlockTableRecord
  2
*D5
340
0
  0
BLOCK_RECORD
  5
27
100
AcDbSymbolTableRecord
100
AcDbBlockTableRecord
  2
*D6
340
0
  0
BLOCK_RECORD
  5
28
100
AcDbSymbolTableRecord
100
AcDbBlockTableRecord
  2
*D7
340
0
  0
BLOCK_RECORD
  5
29
100
AcDbSymbolTableRecord
100
AcDbBlockTableRecord
  2
*D8
340
0
  0
BLOCK_RECORD
  5
2A
100
AcDbSymbolTableRecord
100
AcDbBlockTableRecord
  2
*D9
340
0
  0
BLOCK_RECORD
  5
2B
100
AcDbSymbolTableRecord
100
AcDbBlockTableRecord
  2
*D10
340
0
  0
BLOCK_RECORD
  5
2C
100
AcDbSymbolTableRecord
100
AcDbBlockTableRecord
  2
*D11
340
0
  0
BLOCK_RECORD
  5
2D
100
AcDbSymbolTableRecord
100
AcDbBlockTableRecord
  2
*D12
340
0
  0
BLOCK_RECORD
  5
2E
100
AcDbSymbolTableRecord
100
AcDbBlockTableRecord
  2
*D13
340
0
  0
BLOCK_RECORD
  5
2F
100
AcDbSymbolTableRecord
100
AcDbBlockTableRecord
  2
グループ-1
340
0
102
{BLKREFS
331
11A
102
}
  0
BLOCK_RECORD
  5
30
100
AcDbSymbolTableRecord
100
AcDbBlockTableRecord
  2
グループ-2
340
0
102
{BLKREFS
331
11B
102
}
  0
ENDTAB
  0
ENDSEC
  0
SECTION
  2
BLOCKS
  0
BLOCK
  5
D
100
AcDbEntity
  8
0
390
0
100
AcDbBlockBegin
  2
*MODEL_SPACE
 70
               0
 10
0.0
 20
0.0
 30
0.0
  3
*MODEL_SPACE
  1

  0
ENDBLK
  5
E
100
AcDbEntity
  8
0
390
0
100
AcDbBlockEnd
  0
BLOCK
  5
F
100
AcDbEntity
 67
               1
  8
0
390
0
100
AcDbBlockBegin
  2
*PAPER_SPACE
 70
               0
 10
0.0
 20
0.0
 30
0.0
  3
*PAPER_SPACE
  1

  0
ENDBLK
  5
10
100
AcDbEntity
 67
               1
  8
0
390
0
100
AcDbBlockEnd
  0
BLOCK
  5
46
100
AcDbEntity
  8
0
390
0
100
AcDbBlockBegin
  2
_DOT
 70
               0
 10
0.0
 20
0.0
 30
0.0
  3
_DOT
  1

  0
POLYLINE
  5
47
100
AcDbEntity
  8
0
370
              -2
390
0
  6
ByBlock
 62
               0
100
AcDb2dPolyline
 66
               1
 10
0.0
 20
0.0
 30
0.0
 70
               1
 40
0.5
 41
0.5
  0
VERTEX
  5
48
100
AcDbEntity
  8
0
370
              -2
390
0
  6
ByBlock
 62
               0
100
AcDbVertex
100
AcDb2dVertex
 10
-0.25
 20
0.0
 30
0.0
 42
1.0
  0
VERTEX
  5
49
100
AcDbEntity
  8
0
370
              -2
390
0
  6
ByBlock
 62
               0
100
AcDbVertex
100
AcDb2dVertex
 10
0.25
 20
0.0
 30
0.0
 42
1.0
  0
SEQEND
  5
4A
100
AcDbEntity
  8
0
390
0
  0
LINE
  5
4B
100
AcDbEntity
  8
0
370
              -2
390
0
  6
ByBlock
 62
               0
100
AcDbLine
 10
-0.5
 20
0.0
 30
0.0
 11
-1.0
 21
0.0
 31
0.0
  0
ENDBLK
  5
4C
100
AcDbEntity
  8
0
390
0
100
AcDbBlockEnd
  0
BLOCK
  5
4F
100
AcDbEntity
  8
0
370
              -2
390
0
  6
ByBlock
 62
               0
100
AcDbBlockBegin
  2
VW_FILLEDARROW
 70
               0
 10
0.0
 20
0.0
 30
0.0
  3
VW_FILLEDARROW
  1

  0
SOLID
  5
50
100
AcDbEntity
  8
0
370
              -2
390
0
 62
               0
100
AcDbTrace
 10
0.0
 20
0.0
 30
0.0
 11
-0.9921874999999999
 21
-0.2658558393652545
 31
0.0
 12
-0.9921874999999999
 22
0.2658558393652548
 32
0.0
 13
-0.9921874999999999
 23
0.2658558393652548
 33
0.0
  0
ENDBLK
  5
51
100
AcDbEntity
  8
0
390
0
100
AcDbBlockEnd
  0
BLOCK
  5
53
100
AcDbEntity
  8
template
390
0
100
AcDbBlockBegin
  2
グループ
 70
               0
 10
0.0
 20
0.0
 30
0.0
  3
グループ
  1

  0
LWPOLYLINE
  5
54
100
AcDbEntity
  8
0
370
              15
390
0
  6
Continuous
 62
               7
100
AcDbPolyline
 90
        8
 70
             129
 10
887.42850780307469
 20
-1262.3263830361964
 10
887.42850780307469
 20
-1268.3237717297723
 10
877.92731088507139
 20
-1268.3237717297723
 10
877.92731088507139
 20
-1292.7747349932811
 10
869.5719336232886
 20
-1292.7747349932811
 10
869.5719336232886
 20
-1268.3237717297723
 10
860.23897667697918
 20
-1268.3237717297723
 10
860.23897667697918
 20
-1262.3263830361964
  0
LWPOLYLINE
  5
55
100
AcDbEntity
  8
0
370
              15
390
0
  6
Continuous
 62
               7
100
AcDbPolyline
 90
      101
 70
             128
 10
900.15679963363164
 20
-1263.0546315291328
 10
900.17214966241568
 20
-1263.0502707724481
 42
-0.0222221607816945
 10
900.46215423908779
 20
-1262.9816463072032
 10
900.47794800308361
 20
-1262.9786428841057
 42
-0.0146883565585454
 10
900.74065070830557
 20
-1262.9366396971568
 42
-0.0127458844183843
 10
901.00528967545881
 20
-1262.9091027290842
 10
901.06774475377131
 20
-1262.9042093064961
 42
-0.0198099018567367
 10
901.45859386324776
 20
-1262.8891241490996
 10
901.51040533269202
 20
-1262.8891779247647
 42
-0.0147617382764832
 10
902.00502879366093
 20
-1262.9042979500091
 10
902.07772024854421
 20
-1262.9086705568973
 42
-0.016262454900135
 10
902.46787387800566
 20
-1262.9449034321694
 10
902.5894062692613
 20
-1262.9601899911656
 42
-0.0080020874671124
 10
902.73498530035636
 20
-1262.9808728384344
 10
902.77330477095279
 20
-1262.9869441162457
 42
-0.0053821929674282
 10
902.84178887626626
 20
-1262.998551640067
 10
902.11538317706766
 20
-1265.1794800957809
 42
0.0108667757393634
 10
902.0480661069389
 20
-1265.1662929805614
 10
902.01059808374725
 20
-1265.1597952379666
 42
0.0170663203308957
 10
901.86738129683192
 20
-1265.1399656406747
 10
901.79950596414881
 20
-1265.1329184700874
 42
0.0220162375276654
 10
901.51912655629258
 20
-1265.1162361093172
 10
901.44127098924184
 20
-1265.1150367420507
 42
0.0282606915783499
 10
901.1056346656635
 20
-1265.1288400190197
 10
901.06172139188845
 20
-1265.1331400090237
 42
0.0169677213690534
 10
900.81579689693217
 20
-1265.1656770585755
 42
0.0190576269874399
 10
900.57288893434679
 20
-1265.2158239306832
 10
900.56662974624135
 20
-1265.2173669047911
 42
0.0213685642841591
 10
900.31624526176608
 20
-1265.290567189895
 10
900.31075536684739
 20
-1265.2924301859548
 42
0.0237595297594327
 10
900.05726048194617
 20
-1265.3921147078515
 10
900.05215840791902
 20
-1265.3944064833286
 42
0.0261857468810864
 10
899.79998763168771
 20
-1265.5239428207037
 10
899.78956144260167
 20
-1265.5300082951717
 42
0.0272553062022781
 10
899.55313166736369
 20
-1265.685380501116
 10
899.51836865385712
 20
-1265.711041649206
 42
0.0325996893171852
 10
899.36821331020269
 20
-1265.8377895221795
 10
899.34450388108223
 20
-1265.8606075506898
 42
0.0138050960638505
 10
899.25262072486942
 20
-1265.9540572122442
 42
0.0125280103806079
 10
899.16577819203565
 20
-1266.0522205388443
 10
899.14209774712754
 20
-1266.0803790370314
 42
0.0205218024737163
 10
899.01699767161188
 20
-1266.2421723512632
 10
898.99453133112672
 20
-1266.2738320810874
 42
0.016311012958205
 10
898.83882095187562
 20
-1266.5091625161569
 10
898.83609705582444
 20
-1266.5135862781428
 42
0.0131897341897751
 10
898.68929653492012
 20
-1266.7667183705043
 10
898.68759643955207
 20
-1266.7698366096429
 42
0.0107895576060804
 10
898.54981973734311
 20
-1267.0360518192742
 10
898.54908684781617
 20
-1267.0375460519247
 42
0.0091371507216208
 10
898.42060689916866
 20
-1267.31207124968
 10
898.3908612677576
 20
-1267.3787777568432
 42
0.0135418326356483
 10
898.21914732868515
 20
-1267.7937155421137
 10
898.18554252025126
 20
-1267.8815816843942
 42
0.0092834542411365
 10
898.01431346033064
 20
-1268.3554801826986
 10
897.98869633260938
 20
-1268.4307212525025
 42
0.0054261043584229
 10
897.88105818432018
 20
-1268.7584852255568
 10
897.86353219812872
 20
-1268.8138733878313
 42
0.0008225090824692
 10
897.79486214631265
 20
-1269.0321421459362
 10
896.81017301437919
 20
-1272.0570334391928
 10
900.04279685445306
 20
-1272.0570334391928
 10
899.53860442459961
 20
-1273.9615117375452
 10
896.28254814261629
 20
-1273.9615117375452
 10
890.45339911026247
 20
-1292.77473480355
 10
888.62830149995216
 20
-1292.77473480355
 10
894.46297953545309
 20
-1273.9615117375452
 10
892.05786316641274
 20
-1273.9615117375452
 10
892.56205559626619
 20
-1272.0570334391928
 10
894.99060440721621
 20
-1272.0570334391928
 10
895.85075932540485
 20
-1269.4206204384939
 42
-0.0005863560644227
 10
895.88749400360109
 20
-1269.3037940182251
 10
895.96358183726875
 20
-1269.0628017188167
 42
-0.0087522378926352
 10
896.16304998072621
 20
-1268.4675256316684
 10
896.25531425613713
 20
-1268.2073854631626
 42
-0.0077400953830042
 10
896.5132479152702
 20
-1267.5143807856089
 10
896.52901288685075
 20
-1267.4739499022187
 42
-0.00823699463289
 10
896.77609735746103
 20
-1266.8698708360271
 42
-0.0085725238365606
 10
897.04334345346103
 20
-1266.2744447967464
 10
897.14497305447264
 20
-1266.0580236947521
 42
-0.0168109410596813
 10
897.43191748320123
 20
-1265.4968161686506
 10
897.5577608736387
 20
-1265.2698521356922
 42
-0.0007817726866636
 10
897.6120452237169
 20
-1265.1723078906221
 10
897.61217352973574
 20
-1265.1720781818829
 42
-0.0036626142149754
 10
897.66706139375549
 20
-1265.0754803019172
 42
-0.0080221150675007
 10
897.724185649162
 20
-1264.9802010671647
 10
897.75488560052338
 20
-1264.9308101180422
 42
-0.020213932558008
 10
897.88254134032661
 20
-1264.7428285173655
 10
897.93660880551772
 20
-1264.6697496531199
 42
-0.0249323791794206
 10
898.1957715992371
 20
-1264.3537044109651
 10
898.21991141336389
 20
-1264.3270901380529
 42
-0.0242132121537439
 10
898.55959215490554
 20
-1263.9872066518492
 10
898.60750372765665
 20
-1263.9436975156627
 42
-0.0251017527861896
 10
898.8914854282973
 20
-1263.7107047698983
 10
898.89293090511126
 20
-1263.7096355123192
 42
-0.0130868069041441
 10
899.19119155506837
 20
-1263.5008550437767
 10
899.19275337420913
 20
-1263.4998216035031
 42
-0.0290329526396235
 10
899.50386451560439
 20
-1263.3189961018725
 10
899.53371007758585
 20
-1263.3038937190352
 42
-0.0160250190052144
 10
899.79961449135499
 20
-1263.1798776088194
 42
-0.0267600374781935
 10
900.07489056882196
 20
-1263.0791292882716
 10
900.10162648834466
 20
-1263.0709367294453
 42
-0.0049981587669859
 10
900.15679963363164
 20
-1263.0546315291328
 42
-0.0049981587669859
  0
LWPOLYLINE
  5
56
100
AcDbEntity
  8
0
370
              15
390
0
  6
Continuous
 62
               7
100
AcDbPolyline
 90
      118
 70
             128
 10
919.97116719807855
 20
-1272.1310167670201
 10
921.84628912257801
 20
-1272.1310167670201
 10
921.00825021697813
 20
-1274.8125832934202
 42
-0.0010587229211422
 10
921.03970603256494
 20
-1274.7756787600472
 10
921.09790012318194
 20
-1274.7076965038891
 42
-0.007187474040984
 10
921.24827534127746
 20
-1274.537055811863
 10
921.38999811454232
 20
-1274.3808196705468
 42
-0.0148118053511983
 10
921.84012740724972
 20
-1273.9132058245389
 10
921.92734974216137
 20
-1273.8278085036759
 42
-0.0086273358689363
 10
922.26289854316519
 20
-1273.5104328696639
 10
922.30673225938813
 20
-1273.4703832253335
 42
-0.0103138323110846
 10
922.56475596162466
 20
-1273.2442200879925
 10
922.61053036795204
 20
-1273.2057380407321
 42
-0.0060206748566072
 10
922.78337843206396
 20
-1273.0639433899778
 10
922.7854095629508
 20
-1273.0623176843458
 42
-0.0067069027289351
 10
922.95770237761235
 20
-1272.9281670505516
 10
922.96025114353313
 20
-1272.9262368806801
 42
-0.0076184352043494
 10
923.13115640940975
 20
-1272.8008620054325
 42
-0.0089652861672996
 10
923.3061173721494
 20
-1272.6812287450966
 10
923.34246909228341
 20
-1272.6573175316209
 42
-0.0156916245938944
 10
923.53842858944927
 20
-1272.5370550451426
 42
-0.0023299011059656
 10
923.73869063342408
 20
-1272.4238771056046
 10
923.75407476580904
 20
-1272.4152771105371
 42
-0.0107669341494395
 10
923.98831159090253
 20
-1272.2908769771916
 10
924.0105763919853
 20
-1272.2796602272376
 42
-0.0078058045898477
 10
924.29416650994608
 20
-1272.1422987715955
 10
924.30407359764718
 20
-1272.1376896437307
 42
-0.0181829330468968
 10
924.614383002267
 20
-1272.0068259026334
 10
924.66843844482719
 20
-1271.9863107826925
 42
-0.0208411536029725
 10
925.01752341227973
 20
-1271.8702203201983
 10
925.03187951240523
 20
-1271.8661018752455
 42
-0.0222799817137944
 10
925.3605993063245
 20
-1271.7874603091045
 10
925.3694882695612
 20
-1271.7857482985196
 42
-0.0215509523885681
 10
925.68595923784119
 20
-1271.7388326099854
 10
925.72844119888555
 20
-1271.7343950831948
 42
-0.0182545924874907
 10
925.96254997819551
 20
-1271.7185512578035
 10
926.00195099453867
 20
-1271.7173267127243
 42
-0.0072962856532821
 10
926.15787387423234
 20
-1271.7147573842021
 10
926.18697354480139
 20
-1271.7147025487984
 42
-0.0059227516310942
 10
926.28472304394938
 20
-1271.7156762605887
 10
926.31396526140747
 20
-1271.7163140271916
 42
-0.0011833111891885
 10
926.35321654515371
 20
-1271.7172630315022
 10
925.55782994954654
 20
-1274.2559969766012
 42
0.0143932051549407
 10
925.53142856719501
 20
-1274.2457980065556
 10
925.52415659477867
 20
-1274.2432267876984
 42
0.0234388603514553
 10
925.48232572884683
 20
-1274.2306075519834
 10
925.47364406593385
 20
-1274.2284265899782
 42
0.019916274298414
 10
925.41335523185251
 20
-1274.2158098546429
 10
925.39254129404765
 20
-1274.2123126552146
 42
0.0293643550672645
 10
925.289466435289
 20
-1274.2011626095616
 10
925.26478125456811
 20
-1274.1999509925429
 42
0.0214606686869557
 10
925.11164033861905
 20
-1274.1990124321255
 10
925.10226842779775
 20
-1274.1993573436698
 42
0.0167564054187218
 10
924.93074823668667
 20
-1274.211434386038
 10
924.92228844393026
 20
-1274.212315726465
 42
0.0137677553248967
 10
924.73493513066319
 20
-1274.2370650350088
 10
924.72758339115785
 20
-1274.2382429549764
 42
0.0118497261485482
 10
924.52708562705811
 20
-1274.2752603051651
 10
924.52093561980928
 20
-1274.2765471678856
 42
0.0106421143890181
 10
924.31005473251707
 20
-1274.3253795434621
 10
924.3051459241351
 20
-1274.3266268861455
 42
0.0099746379699856
 10
924.08668745497448
 20
-1274.3868014144596
 10
924.02513941480242
 20
-1274.4050832930909
 42
0.019161367586453
 10
923.68915495228396
 20
-1274.519060673379
 10
923.60109517954538
 20
-1274.5527475837005
 42
0.0205274080143414
 10
923.21578840764073
 20
-1274.7185759915285
 10
923.1581391256592
 20
-1274.7462439561007
 42
0.0181256912193177
 10
922.89986218499166
 20
-1274.8819277750786
 10
922.84690680167648
 20
-1274.9122453882942
 42
0.014070924240996
 10
922.70195186704927
 20
-1275.0007400617278
 10
922.6757029984318
 20
-1275.0177968804426
 42
0.0086667884391078
 10
922.58677683688825
 20
-1275.0777995483261
 42
0.003640819203047
 10
922.49934359885276
 20
-1275.13998040612
 10
922.46411672438626
 20
-1275.1654213520312
 42
0.0052260781272999
 10
922.30788802700522
 20
-1275.2807537386579
 10
922.29168117073573
 20
-1275.2929818492835
 42
0.0050024435898247
 10
922.10567782767134
 20
-1275.4362644175501
 10
922.09035967116165
 20
-1275.4483104399915
 42
0.0136138710277485
 10
921.87991840283132
 20
-1275.6232769449093
 10
921.84625052704268
 20
-1275.652855917619
 42
0.0172815186912358
 10
921.58184698538128
 20
-1275.9018525902416
 10
921.57928463953772
 20
-1275.9044384073895
 42
0.0189403857991345
 10
921.32870284096157
 20
-1276.1772436721903
 10
921.29607134742253
 20
-1276.2155876036911
 42
0.0185044199506609
 10
921.10411490844251
 20
-1276.4588361848141
 42
0.0088565243901553
 10
920.92565480181463
 20
-1276.7123526049634
 10
920.91647682216558
 20
-1276.7258939847241
 42
0.0157195347226959
 10
920.73325621582978
 20
-1277.0154161940427
 10
920.68717327389959
 20
-1277.0935683910623
 42
0.0095451879780462
 10
920.52208772376298
 20
-1277.3861630334172
 10
920.51093980483404
 20
-1277.4068337055478
 42
0.0100351706252643
 10
920.37889605567398
 20
-1277.6638892660399
 42
0.0086935915420215
 10
920.25656490387871
 20
-1277.9257224114472
 10
920.25324416246553
 20
-1277.9331647344161
 42
0.0072580174863628
 10
920.13289771052223
 20
-1278.2137567259949
 10
920.12963607721417
 20
-1278.2216767520172
 42
0.0060005122617085
 10
920.01043540887076
 20
-1278.5212864226244
 10
920.00722443052996
 20
-1278.5296479505269
 42
0.0049017786978459
 10
919.88832427166903
 20
-1278.848576931141
 10
919.88515846528207
 20
-1278.8573298683618
 42
0.0039415167600663
 10
919.76572218722663
 20
-1279.1958719307713
 10
919.76259108457316
 20
-1279.2049751316511
 42
0.0031035838763041
 10
919.64178629887522
 20
-1279.5634149934394
 10
919.63867625434978
 20
-1279.5728356147993
 42
0.0025070747151573
 10
919.51577490303453
 20
-1279.9514828317426
 10
919.47848100660894
 20
-1280.0683744969963
 42
0.0029081910284167
 10
919.28646270879892
 20
-1280.6825381552853
 10
919.24565954028117
 20
-1280.8157613975638
 42
0.0009266453735186
 10
918.97724216596419
 20
-1281.6979858574946
 10
918.95635469334593
 20
-1281.7670977366565
 42
-0.0005809993666069
 10
918.67901801273467
 20
-1282.6809058433623
 10
918.61273621446855
 20
-1282.8983907754994
 42
-0.0012018708171265
 10
918.46575190503245
 20
-1283.3765534400427
 10
918.41343205351723
 20
-1283.5453125807462
 42
-0.0002691059618254
 10
918.36986257229842
 20
-1283.6855802012503
 10
915.53690667400917
 20
-1292.77473480355
 10
913.71891778203064
 20
-1292.77473480355
 10
919.97116719807855
 20
-1272.1310167670201
  0
SPLINE
  5
57
100
AcDbEntity
  8
0
370
              15
390
0
  6
Continuous
 62
               7
100
AcDbSpline
210
0.0
220
0.0
230
1.0
 70
              13
 71
               2
 72
             782
 73
             779
 74
               0
 42
0.000001
 43
0.000001
 40
0.0
 40
0.0
 40
0.0
 40
1.0
 40
1.0
 40
2.0
 40
2.0
 40
3.0
 40
3.0
 40
4.0
 40
4.0
 40
5.0
 40
5.0
 40
6.0
 40
6.0
 40
7.0
 40
7.0
 40
8.0
 40
8.0
 40
9.0
 40
9.0
 40
10.0
 40
10.0
 40
11.0
 40
11.0
 40
12.0
 40
12.0
 40
13.0
 40
13.0
 40
14.0
 40
14.0
 40
15.0
 40
15.0
 40
16.0
 40
16.0
 40
17.0
 40
17.0
 40
18.0
 40
18.0
 40
19.0
 40
19.0
 40
20.0
 40
20.0
 40
21.0
 40
21.0
 40
22.0
 40
22.0
 40
23.0
 40
23.0
 40
24.0
 40
24.0
 40
25.0
 40
25.0
 40
26.0
 40
26.0
 40
27.0
 40
27.0
 40
28.0
 40
28.0
 40
29.0
 40
29.0
 40
30.0
 40
30.0
 40
31.0
 40
31.0
 40
32.0
 40
32.0
 40
33.0
 40
33.0
 40
34.0
 40
34.0
 40
35.0
 40
35.0
 40
36.0
 40
36.0
 40
37.0
 40
37.0
 40
38.0
 40
38.0
 40
39.0
 40
39.0
 40
40.0
 40
40.0
 40
41.0
 40
41.0
 40
42.0
 40
42.0
 40
43.0
 40
43.0
 40
44.0
 40
44.0
 40
45.0
 40
45.0
 40
46.0
 40
46.0
 40
47.0
 40
47.0
 40
48.0
 40
48.0
 40
49.0
 40
49.0
 40
50.0
 40
50.0
 40
51.0
 40
51.0
 40
52.0
 40
52.0
 40
53.0
 40
53.0
 40
54.0
 40
54.0
 40
55.0
 40
55.0
 40
56.0
 40
56.0
 40
57.0
 40
57.0
 40
58.0
 40
58.0
 40
59.0
 40
59.0
 40
60.0
 40
60.0
 40
61.0
 40
61.0
 40
62.0
 40
62.0
 40
63.0
 40
63.0
 40
64.0
 40
64.0
 40
65.0
 40
65.0
 40
66.0
 40
66.0
 40
67.0
 40
67.0
 40
68.0
 40
68.0
 40
69.0
 40
69.0
 40
70.0
 40
70.0
 40
71.0
 40
71.0
 40
72.0
 40
72.0
 40
73.0
 40
73.0
 40
74.0
 40
74.0
 40
75.0
 40
75.0
 40
76.0
 40
76.0
 40
77.0
 40
77.0
 40
78.0
 40
78.0
 40
79.0
 40
79.0
 40
80.0
 40
80.0
 40
81.0
 40
81.0
 40
82.0
 40
82.0
 40
83.0
 40
83.0
 40
84.0
 40
84.0
 40
85.0
 40
85.0
 40
86.0
 40
86.0
 40
87.0
 40
87.0
 40
88.0
 40
88.0
 40
89.0
 40
89.0
 40
90.0
 40
90.0
 40
91.0
 40
91.0
 40
92.0
 40
92.0
 40
93.0
 40
93.0
 40
94.0
 40
94.0
 40
95.0
 40
95.0
 40
96.0
 40
96.0
 40
97.0
 40
97.0
 40
98.0
 40
98.0
 40
99.0
 40
99.0
 40
100.0
 40
100.0
 40
101.0
 40
101.0
 40
102.0
 40
102.0
 40
103.0
 40
103.0
 40
104.0
 40
104.0
 40
105.0
 40
105.0
 40
106.0
 40
106.0
 40
107.0
 40
107.0
 40
108.0
 40
108.0
 40
109.0
 40
109.0
 40
110.0
 40
110.0
 40
111.0
 40
111.0
 40
112.0
 40
112.0
 40
113.0
 40
113.0
 40
114.0
 40
114.0
 40
115.0
 40
115.0
 40
116.0
 40
116.0
 40
117.0
 40
117.0
 40
118.0
 40
118.0
 40
119.0
 40
119.0
 40
120.0
 40
120.0
 40
121.0
 40
121.0
 40
122.0
 40
122.0
 40
123.0
 40
123.0
 40
124.0
 40
124.0
 40
125.0
 40
125.0
 40
126.0
 40
126.0
 40
127.0
 40
127.0
 40
128.0
 40
128.0
 40
129.0
 40
129.0
 40
130.0
 40
130.0
 40
131.0
 40
131.0
 40
132.0
 40
132.0
 40
133.0
 40
133.0
 40
134.0
 40
134.0
 40
135.0
 40
135.0
 40
136.0
 40
136.0
 40
137.0
 40
137.0
 40
138.0
 40
138.0
 40
139.0
 40
139.0
 40
140.0
 40
140.0
 40
141.0
 40
141.0
 40
142.0
 40
142.0
 40
143.0
 40
143.0
 40
144.0
 40
144.0
 40
145.0
 40
145.0
 40
146.0
 40
146.0
 40
147.0
 40
147.0
 40
148.0
 40
148.0
 40
149.0
 40
149.0
 40
150.0
 40
150.0
 40
151.0
 40
151.0
 40
152.0
 40
152.0
 40
153.0
 40
153.0
 40
154.0
 40
154.0
 40
155.0
 40
155.0
 40
156.0
 40
156.0
 40
157.0
 40
157.0
 40
158.0
 40
158.0
 40
159.0
 40
159.0
 40
160.0
 40
160.0
 40
161.0
 40
161.0
 40
162.0
 40
162.0
 40
163.0
 40
163.0
 40
164.0
 40
164.0
 40
165.0
 40
165.0
 40
166.0
 40
166.0
 40
167.0
 40
167.0
 40
168.0
 40
168.0
 40
169.0
 40
169.0
 40
170.0
 40
170.0
 40
171.0
 40
171.0
 40
172.0
 40
172.0
 40
173.0
 40
173.0
 40
174.0
 40
174.0
 40
175.0
 40
175.0
 40
176.0
 40
176.0
 40
177.0
 40
177.0
 40
178.0
 40
178.0
 40
179.0
 40
179.0
 40
180.0
 40
180.0
 40
181.0
 40
181.0
 40
182.0
 40
182.0
 40
183.0
 40
183.0
 40
184.0
 40
184.0
 40
185.0
 40
185.0
 40
186.0
 40
186.0
 40
187.0
 40
187.0
 40
188.0
 40
188.0
 40
189.0
 40
189.0
 40
190.0
 40
190.0
 40
191.0
 40
191.0
 40
192.0
 40
192.0
 40
193.0
 40
193.0
 40
194.0
 40
194.0
 40
195.0
 40
195.0
 40
196.0
 40
196.0
 40
197.0
 40
197.0
 40
198.0
 40
198.0
 40
199.0
 40
199.0
 40
200.0
 40
200.0
 40
201.0
 40
201.0
 40
202.0
 40
202.0
 40
203.0
 40
203.0
 40
204.0
 40
204.0
 40
205.0
 40
205.0
 40
206.0
 40
206.0
 40
207.0
 40
207.0
 40
208.0
 40
208.0
 40
209.0
 40
209.0
 40
210.0
 40
210.0
 40
211.0
 40
211.0
 40
212.0
 40
212.0
 40
213.0
 40
213.0
 40
214.0
 40
214.0
 40
215.0
 40
215.0
 40
216.0
 40
216.0
 40
217.0
 40
217.0
 40
218.0
 40
218.0
 40
219.0
 40
219.0
 40
220.0
 40
220.0
 40
221.0
 40
221.0
 40
222.0
 40
222.0
 40
223.0
 40
223.0
 40
224.0
 40
224.0
 40
225.0
 40
225.0
 40
226.0
 40
226.0
 40
227.0
 40
227.0
 40
228.0
 40
228.0
 40
229.0
 40
229.0
 40
230.0
 40
230.0
 40
231.0
 40
231.0
 40
232.0
 40
232.0
 40
233.0
 40
233.0
 40
234.0
 40
234.0
 40
235.0
 40
235.0
 40
236.0
 40
236.0
 40
237.0
 40
237.0
 40
238.0
 40
238.0
 40
239.0
 40
239.0
 40
240.0
 40
240.0
 40
241.0
 40
241.0
 40
242.0
 40
242.0
 40
243.0
 40
243.0
 40
244.0
 40
244.0
 40
245.0
 40
245.0
 40
246.0
 40
246.0
 40
247.0
 40
247.0
 40
248.0
 40
248.0
 40
249.0
 40
249.0
 40
250.0
 40
250.0
 40
251.0
 40
251.0
 40
252.0
 40
252.0
 40
253.0
 40
253.0
 40
254.0
 40
254.0
 40
255.0
 40
255.0
 40
256.0
 40
256.0
 40
257.0
 40
257.0
 40
258.0
 40
258.0
 40
259.0
 40
259.0
 40
260.0
 40
260.0
 40
261.0
 40
261.0
 40
262.0
 40
262.0
 40
263.0
 40
263.0
 40
264.0
 40
264.0
 40
265.0
 40
265.0
 40
266.0
 40
266.0
 40
267.0
 40
267.0
 40
268.0
 40
268.0
 40
269.0
 40
269.0
 40
270.0
 40
270.0
 40
271.0
 40
271.0
 40
272.0
 40
272.0
 40
273.0
 40
273.0
 40
274.0
 40
274.0
 40
275.0
 40
275.0
 40
276.0
 40
276.0
 40
277.0
 40
277.0
 40
278.0
 40
278.0
 40
279.0
 40
279.0
 40
280.0
 40
280.0
 40
281.0
 40
281.0
 40
282.0
 40
282.0
 40
283.0
 40
283.0
 40
284.0
 40
284.0
 40
285.0
 40
285.0
 40
286.0
 40
286.0
 40
287.0
 40
287.0
 40
288.0
 40
288.0
 40
289.0
 40
289.0
 40
290.0
 40
290.0
 40
291.0
 40
291.0
 40
292.0
 40
292.0
 40
293.0
 40
293.0
 40
294.0
 40
294.0
 40
295.0
 40
295.0
 40
296.0
 40
296.0
 40
297.0
 40
297.0
 40
298.0
 40
298.0
 40
299.0
 40
299.0
 40
300.0
 40
300.0
 40
301.0
 40
301.0
 40
302.0
 40
302.0
 40
303.0
 40
303.0
 40
304.0
 40
304.0
 40
305.0
 40
305.0
 40
306.0
 40
306.0
 40
307.0
 40
307.0
 40
308.0
 40
308.0
 40
309.0
 40
309.0
 40
310.0
 40
310.0
 40
311.0
 40
311.0
 40
312.0
 40
312.0
 40
313.0
 40
313.0
 40
314.0
 40
314.0
 40
315.0
 40
315.0
 40
316.0
 40
316.0
 40
317.0
 40
317.0
 40
318.0
 40
318.0
 40
319.0
 40
319.0
 40
320.0
 40
320.0
 40
321.0
 40
321.0
 40
322.0
 40
322.0
 40
323.0
 40
323.0
 40
324.0
 40
324.0
 40
325.0
 40
325.0
 40
326.0
 40
326.0
 40
327.0
 40
327.0
 40
328.0
 40
328.0
 40
329.0
 40
329.0
 40
330.0
 40
330.0
 40
331.0
 40
331.0
 40
332.0
 40
332.0
 40
333.0
 40
333.0
 40
334.0
 40
334.0
 40
335.0
 40
335.0
 40
336.0
 40
336.0
 40
337.0
 40
337.0
 40
338.0
 40
338.0
 40
339.0
 40
339.0
 40
340.0
 40
340.0
 40
341.0
 40
341.0
 40
342.0
 40
342.0
 40
343.0
 40
343.0
 40
344.0
 40
344.0
 40
345.0
 40
345.0
 40
346.0
 40
346.0
 40
347.0
 40
347.0
 40
348.0
 40
348.0
 40
349.0
 40
349.0
 40
350.0
 40
350.0
 40
351.0
 40
351.0
 40
352.0
 40
352.0
 40
353.0
 40
353.0
 40
354.0
 40
354.0
 40
355.0
 40
355.0
 40
356.0
 40
356.0
 40
357.0
 40
357.0
 40
358.0
 40
358.0
 40
359.0
 40
359.0
 40
360.0
 40
360.0
 40
361.0
 40
361.0
 40
362.0
 40
362.0
 40
363.0
 40
363.0
 40
364.0
 40
364.0
 40
365.0
 40
365.0
 40
366.0
 40
366.0
 40
367.0
 40
367.0
 40
368.0
 40
368.0
 40
369.0
 40
369.0
 40
370.0
 40
370.0
 40
371.0
 40
371.0
 40
372.0
 40
372.0
 40
373.0
 40
373.0
 40
374.0
 40
374.0
 40
375.0
 40
375.0
 40
376.0
 40
376.0
 40
377.0
 40
377.0
 40
378.0
 40
378.0
 40
379.0
 40
379.0
 40
380.0
 40
380.0
 40
381.0
 40
381.0
 40
382.0
 40
382.0
 40
383.0
 40
383.0
 40
384.0
 40
384.0
 40
385.0
 40
385.0
 40
386.0
 40
386.0
 40
387.0
 40
387.0
 40
388.0
 40
388.0
 40
389.0
 40
389.0
 40
389.0
 10
930.29987164881118
 20
-1272.1200904036577
 30
0.0
 41
1.0
 10
931.11829575753165
 20
-1272.1200904036577
 30
0.0
 41
1.0
 10
931.93671986625213
 20
-1272.1200904036577
 30
0.0
 41
1.0
 10
931.52296613073531
 20
-1273.4627166679074
 30
0.0
 41
1.0
 10
931.10921239521861
 20
-1274.8053429321571
 30
0.0
 41
1.0
 10
931.12755189037546
 20
-1274.7766421592628
 30
0.0
 41
0.9999957264393589
 10
931.14605888721371
 20
-1274.7480491091005
 30
0.0
 41
1.0
 10
931.17648821135276
 20
-1274.7010362307219
 30
0.0
 41
1.0
 10
931.20691753549181
 20
-1274.6540233523433
 30
0.0
 41
1.0
 10
931.28628318059725
 20
-1274.5314045454411
 30
0.0
 41
0.9995394069082153
 10
931.37294157215058
 20
-1274.4138264836972
 30
0.0
 41
1.0
 10
931.40869843440919
 20
-1274.3653115911056
 30
0.0
 41
1.0
 10
931.44445529666768
 20
-1274.3167966985138
 30
0.0
 41
1.0
 10
931.57818196448545
 20
-1274.1353564233871
 30
0.0
 41
0.9994460617142956
 10
931.72368244577558
 20
-1273.9632140257349
 30
0.0
 41
1.0
 10
931.72807062675156
 20
-1273.9580223453513
 30
0.0
 41
1.0
 10
931.73245880772754
 20
-1273.9528306649675
 30
0.0
 41
1.0
 10
931.86918292706548
 20
-1273.7910716280833
 30
0.0
 41
0.9994359394934459
 10
932.01645715741483
 20
-1273.6388554269206
 30
0.0
 41
1.0
 10
932.0188405113679
 20
-1273.6363920965478
 30
0.0
 41
1.0
 10
932.02122386532108
 20
-1273.6339287661747
 30
0.0
 41
1.0
 10
932.16373138776555
 20
-1273.4866392257566
 30
0.0
 41
0.9995293688567886
 10
932.31500306874852
 20
-1273.3483660135917
 30
0.0
 41
1.0
 10
932.33429682801125
 20
-1273.330730127941
 30
0.0
 41
1.0
 10
932.35359058727408
 20
-1273.3130942422904
 30
0.0
 41
1.0
 10
932.46627474973093
 20
-1273.2100928014274
 30
0.0
 41
0.9997087614802885
 10
932.58379763868561
 20
-1273.1126485206298
 30
0.0
 41
1.0
 10
932.60296371186269
 20
-1273.0967569421205
 30
0.0
 41
1.0
 10
932.62212978503987
 20
-1273.0808653636111
 30
0.0
 41
1.0
 10
932.70132052763927
 20
-1273.0152042398331
 30
0.0
 41
0.9999595338694395
 10
932.78167979849582
 20
-1272.9509785091768
 30
0.0
 41
1.0
 10
932.86203906934497
 20
-1272.8867527785267
 30
0.0
 41
0.9999749417507167
 10
932.94329960368418
 20
-1272.8236712245837
 30
0.0
 41
1.0
 10
932.96428574986044
 20
-1272.8073799372714
 30
0.0
 41
1.0
 10
932.98527189603681
 20
-1272.791088649959
 30
0.0
 41
1.0
 10
933.06983978133519
 20
-1272.7254396401206
 30
0.0
 41
0.9999792037124324
 10
933.15524738109684
 20
-1272.6608868584831
 30
0.0
 41
1.0
 10
933.1760722070469
 20
-1272.6451470361962
 30
0.0
 41
1.0
 10
933.19689703299684
 20
-1272.6294072139094
 30
0.0
 41
1.0
 10
933.24065498090181
 20
-1272.5963340768126
 30
0.0
 41
0.9999993374165044
 10
933.2843366670096
 20
-1272.5631602814153
 30
0.0
 41
1.0
 10
933.32801835315354
 20
-1272.5299864859908
 30
0.0
 41
0.9999160953817907
 10
933.37254476407418
 20
-1272.4979554207919
 30
0.0
 41
1.0
 10
933.40536665149284
 20
-1272.4743442652075
 30
0.0
 41
1.0
 10
933.43818853891139
 20
-1272.4507331096233
 30
0.0
 41
1.0
 10
933.54835872466992
 20
-1272.3714797332552
 30
0.0
 41
0.9980964527231858
 10
933.66744771817071
 20
-1272.3063922603992
 30
0.0
 41
1.0
 10
933.70448032509921
 20
-1272.2861522808059
 30
0.0
 41
1.0
 10
933.7415129320276
 20
-1272.2659123012127
 30
0.0
 41
1.0
 10
933.9208399453006
 20
-1272.1679020505117
 30
0.0
 41
0.9984572810572721
 10
934.10992851165861
 20
-1272.0903797891656
 30
0.0
 41
1.0
 10
934.11357478105424
 20
-1272.0888848968277
 30
0.0
 41
1.0
 10
934.11722105044987
 20
-1272.0873900044899
 30
0.0
 41
1.0
 10
934.2990170780173
 20
-1272.0128575278191
 30
0.0
 41
0.9987838528033958
 10
934.48726973657676
 20
-1271.9565918876533
 30
0.0
 41
1.0
 10
934.49150768577397
 20
-1271.9553252339635
 30
0.0
 41
1.0
 10
934.49574563497117
 20
-1271.9540585802738
 30
0.0
 41
1.0
 10
934.67552239513441
 20
-1271.9003262474878
 30
0.0
 41
0.9990652816207046
 10
934.85926832685186
 20
-1271.8623225679455
 30
0.0
 41
1.0
 10
934.86445672788409
 20
-1271.8612494648387
 30
0.0
 41
1.0
 10
934.86964512891632
 20
-1271.8601763617321
 30
0.0
 41
1.0
 10
935.04301425856852
 20
-1271.8243188884035
 30
0.0
 41
0.9992909934270365
 10
935.21859002502606
 20
-1271.801608455937
 30
0.0
 41
1.0
 10
935.39416579148178
 20
-1271.7788980234707
 30
0.0
 41
0.9994553539448158
 10
935.57085722457202
 20
-1271.7678187192646
 30
0.0
 41
1.0
 10
935.6062916323724
 20
-1271.7655968312165
 30
0.0
 41
1.0
 10
935.64172604017267
 20
-1271.7633749431684
 30
0.0
 41
1.0
 10
935.80795180674022
 20
-1271.7529518807569
 30
0.0
 41
0.9990928098293059
 10
935.9744615986408
 20
-1271.7567115219913
 30
0.0
 41
1.0
 10
936.01302343391581
 20
-1271.7575822135245
 30
0.0
 41
1.0
 10
936.05158526919092
 20
-1271.7584529050575
 30
0.0
 41
1.0
 10
936.14097139054661
 20
-1271.7604711632262
 30
0.0
 41
0.9998382089203813
 10
936.23022707332973
 20
-1271.7657032897541
 30
0.0
 41
1.0
 10
936.23065697955474
 20
-1271.7657284906568
 30
0.0
 41
1.0
 10
936.23108688577975
 20
-1271.7657536915592
 30
0.0
 41
1.0
 10
936.31948275612103
 20
-1271.7709354162826
 30
0.0
 41
0.9997558016758485
 10
936.40756333331672
 20
-1271.7800179316487
 30
0.0
 41
1.0
 10
936.40803947174777
 20
-1271.7800670291313
 30
0.0
 41
1.0
 10
936.40851561017894
 20
-1271.7801161266141
 30
0.0
 41
1.0
 10
936.49564391051888
 20
-1271.7891004470152
 30
0.0
 41
0.9996565144181613
 10
936.58218176385958
 20
-1271.8026377537039
 30
0.0
 41
1.0
 10
936.58264768923721
 20
-1271.8027106394352
 30
0.0
 41
1.0
 10
936.58311361461483
 20
-1271.8027835251667
 30
0.0
 41
1.0
 10
936.66871961720187
 20
-1271.8161750603931
 30
0.0
 41
0.9995321806867369
 10
936.75334669752965
 20
-1271.8347755488223
 30
0.0
 41
1.0
 10
936.75373589210267
 20
-1271.8348610912885
 30
0.0
 41
1.0
 10
936.75412508667557
 20
-1271.8349466337545
 30
0.0
 41
1.0
 10
936.83797377785868
 20
-1271.853376037252
 30
0.0
 41
0.9993819199219238
 10
936.92032031205383
 20
-1271.8776514205124
 30
0.0
 41
1.0
 10
936.92055874555297
 20
-1271.8777217096222
 30
0.0
 41
1.0
 10
936.9207971790521
 20
-1271.8777919987317
 30
0.0
 41
1.0
 10
937.0026668462516
 20
-1271.9019268037734
 30
0.0
 41
0.9992088568505161
 10
937.08235936523829
 20
-1271.9324920395675
 30
0.0
 41
1.0
 10
937.16204035611713
 20
-1271.9630516403006
 30
0.0
 41
0.9990226101773391
 10
937.23871102602448
 20
-1272.000529071915
 30
0.0
 41
1.0
 10
937.31537016782249
 20
-1272.0380008684685
 30
0.0
 41
0.998842427397296
 10
937.38807379503464
 20
-1272.0826656437214
 30
0.0
 41
1.0
 10
937.38834150341404
 20
-1272.0828301077936
 30
0.0
 41
1.0
 10
937.38860921179355
 20
-1272.082994571866
 30
0.0
 41
1.0
 10
937.46184825576427
 20
-1272.1279882752633
 30
0.0
 41
0.9986928844491063
 10
937.53011112247464
 20
-1272.1802240095433
 30
0.0
 41
1.0
 10
937.53069241469723
 20
-1272.1806688227712
 30
0.0
 41
1.0
 10
937.53127370691982
 20
-1272.1811136359988
 30
0.0
 41
1.0
 10
937.60069915807469
 20
-1272.2342389967339
 30
0.0
 41
0.9986007262277377
 10
937.66412532784102
 20
-1272.2943997664272
 30
0.0
 41
1.0
 10
937.66501974329867
 20
-1272.2952481342627
 30
0.0
 41
1.0
 10
937.66591415875621
 20
-1272.296096502098
 30
0.0
 41
1.0
 10
937.73112915943761
 20
-1272.357954007462
 30
0.0
 41
0.9985581491381588
 10
937.78933677113957
 20
-1272.4264464977339
 30
0.0
 41
1.0
 10
937.79859522473521
 20
-1272.4373408554352
 30
0.0
 41
1.0
 10
937.80785367833073
 20
-1272.4482352131367
 30
0.0
 41
1.0
 10
937.88457819722419
 20
-1272.5385164188119
 30
0.0
 41
0.9970460233519912
 10
937.94657009838397
 20
-1272.6394835029944
 30
0.0
 41
1.0
 10
937.96103946346307
 20
-1272.6630499620749
 30
0.0
 41
1.0
 10
937.97550882854216
 20
-1272.6866164211553
 30
0.0
 41
1.0
 10
938.01524552855506
 20
-1272.7513361451884
 30
0.0
 41
0.9988468816637002
 10
938.04859189930619
 20
-1272.8195685976152
 30
0.0
 41
1.0
 10
938.0556279217983
 20
-1272.833965518754
 30
0.0
 41
1.0
 10
938.06266394429042
 20
-1272.8483624398928
 30
0.0
 41
1.0
 10
938.08193827005687
 20
-1272.8878010500409
 30
0.0
 41
0.9998431189997959
 10
938.09980359755264
 20
-1272.9278976044836
 30
0.0
 41
1.0
 10
938.11766892504488
 20
-1272.9679941589181
 30
0.0
 41
0.9999989989926319
 10
938.13564764843693
 20
-1273.0080399964352
 30
0.0
 41
1.0
 10
938.14181996004754
 20
-1273.0217882132843
 30
0.0
 41
1.0
 10
938.14799227165815
 20
-1273.0355364301336
 30
0.0
 41
1.0
 10
938.17831561826836
 20
-1273.1030787013419
 30
0.0
 41
0.9998790356323302
 10
938.20652349840884
 20
-1273.1715314532853
 30
0.0
 41
1.0
 10
938.21335867969242
 20
-1273.1881185547109
 30
0.0
 41
1.0
 10
938.22019386097588
 20
-1273.2047056561364
 30
0.0
 41
1.0
 10
938.24375152335585
 20
-1273.2618736110205
 30
0.0
 41
0.9998227574561462
 10
938.26514027174483
 20
-1273.3198879192973
 30
0.0
 41
1.0
 10
938.28652902013459
 20
-1273.3779022275767
 30
0.0
 41
0.999679797104286
 10
938.3049553050945
 20
-1273.4369243466965
 30
0.0
 41
1.0
 10
938.30885910781944
 20
-1273.4494288048636
 30
0.0
 41
1.0
 10
938.31276291054451
 20
-1273.4619332630309
 30
0.0
 41
1.0
 10
938.33899680095499
 20
-1273.5459642984881
 30
0.0
 41
0.9979274938735236
 10
938.35422132443398
 20
-1273.6326686571474
 30
0.0
 41
1.0
 10
938.35644501169509
 20
-1273.6453326579685
 30
0.0
 41
1.0
 10
938.35866869895631
 20
-1273.6579966587894
 30
0.0
 41
1.0
 10
938.36959863865445
 20
-1273.7202431660796
 30
0.0
 41
0.9994985982138241
 10
938.37656680383157
 20
-1273.7830566672219
 30
0.0
 41
1.0
 10
938.38353496900856
 20
-1273.8458701683651
 30
0.0
 41
0.9996372611202018
 10
938.38711083477642
 20
-1273.9089677470488
 30
0.0
 41
1.0
 10
938.38727941226557
 20
-1273.9119423641296
 30
0.0
 41
1.0
 10
938.38744798975483
 20
-1273.9149169812104
 30
0.0
 41
1.0
 10
938.3913610105011
 20
-1273.9839637940522
 30
0.0
 41
0.999773063073509
 10
938.39232932398932
 20
-1274.0531146180872
 30
0.0
 41
1.0
 10
938.39238643040744
 20
-1274.0571927972308
 30
0.0
 41
1.0
 10
938.39244353682557
 20
-1274.0612709763743
 30
0.0
 41
1.0
 10
938.39352606314981
 20
-1274.1385781587014
 30
0.0
 41
0.999877261407203
 10
938.39218597641775
 20
-1274.2158813052749
 30
0.0
 41
1.0
 10
938.39209671321919
 20
-1274.2210304691007
 30
0.0
 41
1.0
 10
938.39200745002063
 20
-1274.2261796329265
 30
0.0
 41
1.0
 10
938.39048883689145
 20
-1274.313781107156
 30
0.0
 41
0.9999415567322864
 10
938.3870765266455
 20
-1274.4013292688362
 30
0.0
 41
1.0
 10
938.3868352059701
 20
-1274.4075207285732
 30
0.0
 41
1.0
 10
938.38659388529481
 20
-1274.4137121883105
 30
0.0
 41
1.0
 10
938.38269893369772
 20
-1274.5136432694676
 30
0.0
 41
0.9999716810429246
 10
938.37730035057973
 20
-1274.6135044076866
 30
0.0
 41
1.0
 10
938.37408755179194
 20
-1274.6729336573248
 30
0.0
 41
1.0
 10
938.37087475300427
 20
-1274.7323629069631
 30
0.0
 41
1.0
 10
938.36280084385066
 20
-1274.8817113082637
 30
0.0
 41
0.9999819129899238
 10
938.35293105223286
 20
-1275.030951785996
 30
0.0
 41
1.0
 10
938.3430612606162
 20
-1275.1801922637073
 30
0.0
 41
1.0
 10
938.3406219400523
 20
-1275.2173853095567
 30
0.0
 41
1.0
 10
938.36332017388327
 20
-1275.1786443122269
 30
0.0
 41
0.999998212802608
 10
938.38616473264744
 20
-1275.1399894182543
 30
0.0
 41
1.0
 10
938.41307429252788
 20
-1275.0944562042064
 30
0.0
 41
1.0
 10
938.43998385240843
 20
-1275.0489229901586
 30
0.0
 41
1.0
 10
938.51664753093303
 20
-1274.9192016680909
 30
0.0
 41
0.9998609190058266
 10
938.5975948437947
 20
-1274.7921092861616
 30
0.0
 41
1.0
 10
938.62724316527306
 20
-1274.7455595532097
 30
0.0
 41
1.0
 10
938.65689148675153
 20
-1274.6990098202575
 30
0.0
 41
1.0
 10
938.73916370699487
 20
-1274.5698372502525
 30
0.0
 41
0.9999067609732547
 10
938.82493271646058
 20
-1274.442959560809
 30
0.0
 41
1.0
 10
938.82733741966319
 20
-1274.4394022947517
 30
0.0
 41
1.0
 10
938.82974212286581
 20
-1274.4358450286943
 30
0.0
 41
1.0
 10
938.91070172592572
 20
-1274.3160818713661
 30
0.0
 41
0.9998784952147943
 10
938.99535533560606
 20
-1274.1989006546587
 30
0.0
 41
1.0
 10
939.08000894528652
 20
-1274.0817194379513
 30
0.0
 41
0.9998532968281958
 10
939.16862656610829
 20
-1273.9675065294821
 30
0.0
 41
1.0
 10
939.18858835510014
 20
-1273.941779208461
 30
0.0
 41
1.0
 10
939.2085501440921
 20
-1273.9160518874398
 30
0.0
 41
1.0
 10
939.32703419385166
 20
-1273.7633462764702
 30
0.0
 41
0.9991551975795182
 10
939.45765864347459
 20
-1273.6208867143873
 30
0.0
 41
1.0
 10
939.46116825945626
 20
-1273.6170591127609
 30
0.0
 41
1.0
 10
939.46467787543793
 20
-1273.6132315111345
 30
0.0
 41
1.0
 10
939.58828309310002
 20
-1273.4784271523019
 30
0.0
 41
0.9997418144181178
 10
939.71788523279884
 20
-1273.3493777416913
 30
0.0
 41
1.0
 10
939.84748737249811
 20
-1273.2203283310801
 30
0.0
 41
0.9989238204633025
 10
939.98848992074772
 20
-1273.1038433690424
 30
0.0
 41
1.0
 10
940.03373759889109
 20
-1273.0664633774304
 30
0.0
 41
1.0
 10
940.07898527703435
 20
-1273.0290833858187
 30
0.0
 41
1.0
 10
940.21922533425334
 20
-1272.9132283325298
 30
0.0
 41
0.9990825084096421
 10
940.36886526685487
 20
-1272.8097993346987
 30
0.0
 41
1.0
 10
940.3789106309091
 20
-1272.8028561216211
 30
0.0
 41
1.0
 10
940.38895599496334
 20
-1272.7959129085434
 30
0.0
 41
1.0
 10
940.51850519945469
 20
-1272.7063703368683
 30
0.0
 41
0.9998164899824681
 10
940.65138940283509
 20
-1272.6218560953494
 30
0.0
 41
1.0
 10
940.6632349633594
 20
-1272.6143223288245
 30
0.0
 41
1.0
 10
940.67508052388382
 20
-1272.6067885622999
 30
0.0
 41
1.0
 10
940.78427360620879
 20
-1272.5373418538343
 30
0.0
 41
0.9997473449130384
 10
940.89647756346085
 20
-1272.4728728960172
 30
0.0
 41
1.0
 10
941.00868152070893
 20
-1272.4084039382024
 30
0.0
 41
0.9999327861141362
 10
941.12235013147631
 20
-1272.3465539465185
 30
0.0
 41
1.0
 10
941.12290213403571
 20
-1272.3462535878402
 30
0.0
 41
1.0
 10
941.12345413659511
 20
-1272.3459532291618
 30
0.0
 41
1.0
 10
941.23822675248164
 20
-1272.2835025201214
 30
0.0
 41
0.9996956420484106
 10
941.35594007832344
 20
-1272.2267890531457
 30
0.0
 41
1.0
 10
941.38638048321138
 20
-1272.212123076418
 30
0.0
 41
1.0
 10
941.41682088809932
 20
-1272.1974570996904
 30
0.0
 41
1.0
 10
941.51979799484525
 20
-1272.1478434412456
 30
0.0
 41
0.9998070570177102
 10
941.62464438379038
 20
-1272.1023128543429
 30
0.0
 41
1.0
 10
941.72949077273495
 20
-1272.0567822674404
 30
0.0
 41
0.9997827436147093
 10
941.83614370934663
 20
-1272.0156610961278
 30
0.0
 41
1.0
 10
941.85536655897522
 20
-1272.0082495224965
 30
0.0
 41
1.0
 10
941.87458940860392
 20
-1272.0008379488652
 30
0.0
 41
1.0
 10
942.01968804447631
 20
-1271.9448936302886
 30
0.0
 41
0.9988031841977038
 10
942.16955840708033
 20
-1271.9033935661209
 30
0.0
 41
1.0
 10
942.19447565544328
 20
-1271.8964938203142
 30
0.0
 41
1.0
 10
942.21939290380612
 20
-1271.8895940745074
 30
0.0
 41
1.0
 10
942.38666292945413
 20
-1271.8432759321004
 30
0.0
 41
0.998474804054995
 10
942.55801983810397
 20
-1271.8156816998353
 30
0.0
 41
1.0
 10
942.56275897435216
 20
-1271.814918539322
 30
0.0
 41
1.0
 10
942.56749811060047
 20
-1271.8141553788087
 30
0.0
 41
1.0
 10
942.72937674675211
 20
-1271.7880874675704
 30
0.0
 41
0.9984436495479767
 10
942.89315149047775
 20
-1271.7802095137517
 30
0.0
 41
1.0
 10
942.91484869860801
 20
-1271.7791658265521
 30
0.0
 41
1.0
 10
942.93654590673816
 20
-1271.7781221393525
 30
0.0
 41
1.0
 10
943.05692623420134
 20
-1271.772331559933
 30
0.0
 41
0.9987954789335215
 10
943.17729447911222
 20
-1271.7783680876753
 30
0.0
 41
1.0
 10
943.19725927160812
 20
-1271.7793693320141
 30
0.0
 41
1.0
 10
943.21722406410413
 20
-1271.7803705763527
 30
0.0
 41
1.0
 10
943.29766272402355
 20
-1271.7844046154178
 30
0.0
 41
0.9997941595878206
 10
943.37787150211648
 20
-1271.7916986813386
 30
0.0
 41
1.0
 10
943.45808028020815
 20
-1271.7989927472593
 30
0.0
 41
0.999858946623619
 10
943.53799882705994
 20
-1271.8089766017092
 30
0.0
 41
1.0
 10
943.57040502887116
 20
-1271.8130249586288
 30
0.0
 41
1.0
 10
943.60281123068239
 20
-1271.8170733155482
 30
0.0
 41
1.0
 10
943.74754218115447
 20
-1271.8351538838369
 30
0.0
 41
0.9993495063249621
 10
943.89059342492055
 20
-1271.8636195935787
 30
0.0
 41
1.0
 10
943.92352712207048
 20
-1271.8701730567932
 30
0.0
 41
1.0
 10
943.95646081922041
 20
-1271.8767265200074
 30
0.0
 41
1.0
 10
944.06575464242667
 20
-1271.8984748541429
 30
0.0
 41
0.9996788715561414
 10
944.17380621438451
 20
-1271.9257326535064
 30
0.0
 41
1.0
 10
944.17586921692441
 20
-1271.9262530800797
 30
0.0
 41
1.0
 10
944.17793221946431
 20
-1271.9267735066528
 30
0.0
 41
1.0
 10
944.28185778634247
 20
-1271.9529904528699
 30
0.0
 41
0.9995480654492135
 10
944.38402002157034
 20
-1271.985405409494
 30
0.0
 41
1.0
 10
944.38570966369809
 20
-1271.9859415144074
 30
0.0
 41
1.0
 10
944.38739930582585
 20
-1271.986477619321
 30
0.0
 41
1.0
 10
944.48618225679877
 20
-1272.0178203661178
 30
0.0
 41
0.9993867959456012
 10
944.58252941524233
 20
-1272.055999735408
 30
0.0
 41
1.0
 10
944.58377236432784
 20
-1272.0564922773046
 30
0.0
 41
1.0
 10
944.58501531341335
 20
-1272.056984819201
 30
0.0
 41
1.0
 10
944.67887657368578
 20
-1272.0941791046982
 30
0.0
 41
0.9992050256522287
 10
944.76947624871821
 20
-1272.1387330039365
 30
0.0
 41
1.0
 10
944.77021093143139
 20
-1272.1390942963976
 30
0.0
 41
1.0
 10
944.77094561414469
 20
-1272.1394555888589
 30
0.0
 41
1.0
 10
944.86007592375199
 20
-1272.1832869031755
 30
0.0
 41
0.9990222350741675
 10
944.94498598514519
 20
-1272.2348201708737
 30
0.0
 41
1.0
 10
944.94516987042766
 20
-1272.2349317737785
 30
0.0
 41
1.0
 10
944.94535375571002
 20
-1272.2350433766831
 30
0.0
 41
1.0
 10
945.02989604653828
 20
-1272.2863534385715
 30
0.0
 41
0.9988642743804996
 10
945.10917058115797
 20
-1272.3454776260971
 30
0.0
 41
1.0
 10
945.18844511577663
 20
-1272.4046018136221
 30
0.0
 41
0.9987681233310842
 10
945.26146890005248
 20
-1272.4712925050226
 30
0.0
 41
1.0
 10
945.26179782801853
 20
-1272.471592906237
 30
0.0
 41
1.0
 10
945.26212675598458
 20
-1272.4718933074514
 30
0.0
 41
1.0
 10
945.33580839619242
 20
-1272.539184801281
 30
0.0
 41
0.9987496570899449
 10
945.40240220152032
 20
-1272.613497615368
 30
0.0
 41
1.0
 10
945.40317437128044
 20
-1272.6143592887256
 30
0.0
 41
1.0
 10
945.40394654104057
 20
-1272.6152209620832
 30
0.0
 41
1.0
 10
945.4720846858894
 20
-1272.6912571228868
 30
0.0
 41
0.9988147669827986
 10
945.53250694011433
 20
-1272.7735581297291
 30
0.0
 41
1.0
 10
945.53362626619173
 20
-1272.7750827610812
 30
0.0
 41
1.0
 10
945.53474559226902
 20
-1272.7766073924331
 30
0.0
 41
1.0
 10
945.59740649864943
 20
-1272.8619576619806
 30
0.0
 41
0.9989452636215691
 10
945.65197341161092
 20
-1272.9526963511387
 30
0.0
 41
1.0
 10
945.65332213769648
 20
-1272.9549391321648
 30
0.0
 41
1.0
 10
945.65467086378214
 20
-1272.9571819131907
 30
0.0
 41
1.0
 10
945.71193522891599
 20
-1273.0524061644032
 30
0.0
 41
0.9991046436070938
 10
945.76094444223759
 20
-1273.1521305974286
 30
0.0
 41
1.0
 10
945.76240830382699
 20
-1273.1551092774998
 30
0.0
 41
1.0
 10
945.7638721654165
 20
-1273.1580879575713
 30
0.0
 41
1.0
 10
945.81580910191906
 20
-1273.2637697507444
 30
0.0
 41
0.9992763831101196
 10
945.85956223047424
 20
-1273.3730938127003
 30
0.0
 41
1.0
 10
945.86104150013705
 20
-1273.3767900002326
 30
0.0
 41
1.0
 10
945.86252076979986
 20
-1273.380486187765
 30
0.0
 41
1.0
 10
945.90923243768236
 20
-1273.4972026247897
 30
0.0
 41
0.9994163472883249
 10
945.94786546887258
 20
-1273.6168362132557
 30
0.0
 41
1.0
 10
945.94910362111841
 20
-1273.6206703570356
 30
0.0
 41
1.0
 10
945.95034177336424
 20
-1273.6245045008152
 30
0.0
 41
1.0
 10
945.99022533438119
 20
-1273.7480105622924
 30
0.0
 41
0.9997268055890557
 10
946.02429339029425
 20
-1273.8732455942468
 30
0.0
 41
1.0
 10
946.02522357056364
 20
-1273.8766649603549
 30
0.0
 41
1.0
 10
946.02615375083303
 20
-1273.8800843264632
 30
0.0
 41
1.0
 10
946.05836144620639
 20
-1273.9984806261987
 30
0.0
 41
0.9996701319000769
 10
946.08444706297678
 20
-1274.118374579461
 30
0.0
 41
1.0
 10
946.11053267974717
 20
-1274.2382685327252
 30
0.0
 41
0.9995785451109657
 10
946.1296162570867
 20
-1274.3594742937544
 30
0.0
 41
1.0
 10
946.13383603926036
 20
-1274.386275448519
 30
0.0
 41
1.0
 10
946.13805582143402
 20
-1274.4130766032833
 30
0.0
 41
1.0
 10
946.16463079737298
 20
-1274.5818625769871
 30
0.0
 41
0.9979925101215905
 10
946.1696563832993
 20
-1274.7526539050807
 30
0.0
 41
1.0
 10
946.17048119572405
 20
-1274.780684628563
 30
0.0
 41
1.0
 10
946.17130600814869
 20
-1274.8087153520451
 30
0.0
 41
1.0
 10
946.17468196922562
 20
-1274.9234452331748
 30
0.0
 41
0.9995314902263396
 10
946.17103177708714
 20
-1275.0381667169245
 30
0.0
 41
1.0
 10
946.16738158494877
 20
-1275.1528882006749
 30
0.0
 41
0.9996245486943873
 10
946.1574524898175
 20
-1275.2672374718022
 30
0.0
 41
1.0
 10
946.15728944182342
 20
-1275.2691152279365
 30
0.0
 41
1.0
 10
946.15712639382923
 20
-1275.2709929840707
 30
0.0
 41
1.0
 10
946.14687120270992
 20
-1275.3890977674657
 30
0.0
 41
0.9997286095000703
 10
946.13112587913861
 20
-1275.5065966763593
 30
0.0
 41
1.0
 10
946.13073238648826
 20
-1275.5095331010616
 30
0.0
 41
1.0
 10
946.1303388938378
 20
-1275.5124695257637
 30
0.0
 41
1.0
 10
946.11380658496626
 20
-1275.6358412840591
 30
0.0
 41
0.9998265533969125
 10
946.09269112623417
 20
-1275.7585117588444
 30
0.0
 41
1.0
 10
946.09201458409643
 20
-1275.7624421373548
 30
0.0
 41
1.0
 10
946.09133804195881
 20
-1275.7663725158654
 30
0.0
 41
1.0
 10
946.06886949895238
 20
-1275.8969037476661
 30
0.0
 41
0.9999022530853895
 10
946.04276003434177
 20
-1276.0267557163077
 30
0.0
 41
1.0
 10
946.04178139317651
 20
-1276.0316228586948
 30
0.0
 41
1.0
 10
946.04080275201113
 20
-1276.036490001082
 30
0.0
 41
1.0
 10
946.01273600506943
 20
-1276.1760762545
 30
0.0
 41
0.9999524761941129
 10
945.98195303623379
 20
-1276.3150887476681
 30
0.0
 41
1.0
 10
945.9806769290592
 20
-1276.3208515069664
 30
0.0
 41
1.0
 10
945.97940082188472
 20
-1276.3266142662646
 30
0.0
 41
1.0
 10
945.9460656387007
 20
-1276.4771522780266
 30
0.0
 41
0.9999813588732743
 10
945.91089463790615
 20
-1276.6272719906769
 30
0.0
 41
1.0
 10
945.90934071244817
 20
-1276.6339045811055
 30
0.0
 41
1.0
 10
945.90778678699019
 20
-1276.6405371715343
 30
0.0
 41
1.0
 10
945.86950793528081
 20
-1276.8039220650367
 30
0.0
 41
0.9999955237693088
 10
945.83025205729984
 20
-1276.9670749686454
 30
0.0
 41
1.0
 10
945.8179704216659
 20
-1277.0181191591664
 30
0.0
 41
1.0
 10
945.80568878603196
 20
-1277.0691633496876
 30
0.0
 41
1.0
 10
945.74186963678744
 20
-1277.3344046343209
 30
0.0
 41
0.9999993604392796
 10
945.67745068959243
 20
-1277.5995008851162
 30
0.0
 41
1.0
 10
945.67273185405656
 20
-1277.6189197931108
 30
0.0
 41
1.0
 10
945.6680130185207
 20
-1277.6383387011051
 30
0.0
 41
1.0
 10
945.59415640025861
 20
-1277.94227276787
 30
0.0
 41
0.9999659914726464
 10
945.51529680436863
 20
-1278.2449473144475
 30
0.0
 41
1.0
 10
945.51034411544106
 20
-1278.2639564516178
 30
0.0
 41
1.0
 10
945.5053914265136
 20
-1278.2829655887881
 30
0.0
 41
1.0
 10
945.41662645276961
 20
-1278.6236584097026
 30
0.0
 41
0.9999441976026983
 10
945.3206834198096
 20
-1278.9623998349891
 30
0.0
 41
1.0
 10
945.30398290138169
 20
-1279.0213635475252
 30
0.0
 41
1.0
 10
945.28728238295366
 20
-1279.0803272600615
 30
0.0
 41
1.0
 10
945.15793831314045
 20
-1279.5369961104111
 30
0.0
 41
0.9999625120734424
 10
945.02070554581883
 20
-1279.9913566444013
 30
0.0
 41
1.0
 10
944.98491560273555
 20
-1280.1098526710296
 30
0.0
 41
1.0
 10
944.94912565965228
 20
-1280.2283486976578
 30
0.0
 41
1.0
 10
944.87460545561066
 20
-1280.4750757757624
 30
0.0
 41
0.9999793386320434
 10
944.79691943247121
 20
-1280.7208244150042
 30
0.0
 41
1.0
 10
944.71923340933358
 20
-1280.9665730542404
 30
0.0
 41
1.0
 10
944.70845385046289
 20
-1281.000590958615
 30
0.0
 41
1.0
 10
942.85808079719368
 20
-1286.8876628810826
 30
0.0
 41
1.0
 10
941.00770774392458
 20
-1292.77473480355
 30
0.0
 41
1.0
 10
940.04645105390102
 20
-1292.77473480355
 30
0.0
 41
1.0
 10
939.08519436387746
 20
-1292.77473480355
 30
0.0
 41
1.0
 10
940.70413914255596
 20
-1287.6267063017606
 30
0.0
 41
1.0
 10
942.32308392123434
 20
-1282.4786777999711
 30
0.0
 41
1.0
 10
942.36824974441174
 20
-1282.3346465776913
 30
0.0
 41
1.0
 10
942.41341556758925
 20
-1282.1906153554112
 30
0.0
 41
1.0
 10
942.58371998494954
 20
-1281.6475243262566
 30
0.0
 41
0.9999911657914911
 10
942.74945279662597
 20
-1281.1030207949052
 30
0.0
 41
1.0
 10
942.77914874012708
 20
-1281.0054568548526
 30
0.0
 41
1.0
 10
942.80884468362819
 20
-1280.9078929147997
 30
0.0
 41
1.0
 10
942.91518560830514
 20
-1280.5585172635442
 30
0.0
 41
0.9999952428181242
 10
943.01936919763102
 20
-1280.2084922391919
 30
0.0
 41
1.0
 10
943.02442866797537
 20
-1280.1914939648768
 30
0.0
 41
1.0
 10
943.02948813831972
 20
-1280.1744956905616
 30
0.0
 41
1.0
 10
943.12355278697419
 20
-1279.8584672147817
 30
0.0
 41
0.9999931687487769
 10
943.21527862482969
 20
-1279.5417520015719
 30
0.0
 41
1.0
 10
943.2202138892892
 20
-1279.5247112923012
 30
0.0
 41
1.0
 10
943.22514915374859
 20
-1279.5076705830306
 30
0.0
 41
1.0
 10
943.30700446270339
 20
-1279.2250367883014
 30
0.0
 41
0.9999893840806493
 10
943.38625168916019
 20
-1278.9416606590548
 30
0.0
 41
1.0
 10
943.46549891561995
 20
-1278.658284529798
 30
0.0
 41
0.9999833980054891
 10
943.54147515636214
 20
-1278.374013946767
 30
0.0
 41
1.0
 10
943.55047909308394
 20
-1278.3403250682904
 30
0.0
 41
1.0
 10
943.55948302980573
 20
-1278.3066361898136
 30
0.0
 41
1.0
 10
943.6284475786714
 20
-1278.0486003575206
 30
0.0
 41
0.999923365806366
 10
943.69100254989053
 20
-1277.7889361988018
 30
0.0
 41
1.0
 10
943.75355752111079
 20
-1277.5292720400794
 30
0.0
 41
1.0
 10
943.79304093996836
 20
-1277.3654653756532
 30
0.0
 41
1.0
 10
943.79801954394725
 20
-1277.344810413776
 30
0.0
 41
1.0
 10
943.80299814792625
 20
-1277.3241554518988
 30
0.0
 41
1.0
 10
943.83252435882821
 20
-1277.2016587112171
 30
0.0
 41
0.9999868670860979
 10
943.86079344282211
 20
-1277.0788657655817
 30
0.0
 41
1.0
 10
943.86469092997788
 20
-1277.0619361781733
 30
0.0
 41
1.0
 10
943.86858841713365
 20
-1277.0450065907648
 30
0.0
 41
1.0
 10
943.88906252681556
 20
-1276.9560728199476
 30
0.0
 41
0.9999778173353349
 10
943.9083501249338
 20
-1276.8668742027057
 30
0.0
 41
1.0
 10
943.92763772305159
 20
-1276.7776755854643
 30
0.0
 41
0.9999602692862102
 10
943.94533208168298
 20
-1276.6881472970335
 30
0.0
 41
1.0
 10
943.94853591375909
 20
-1276.6719368421554
 30
0.0
 41
1.0
 10
943.9517397458352
 20
-1276.6557263872776
 30
0.0
 41
1.0
 10
943.97584176862108
 20
-1276.5337771890809
 30
0.0
 41
0.99956179853206
 10
943.99268511583966
 20
-1276.4106154413762
 30
0.0
 41
1.0
 10
943.99514960574629
 20
-1276.3925946240079
 30
0.0
 41
1.0
 10
943.99761409565292
 20
-1276.3745738066395
 30
0.0
 41
1.0
 10
944.01789735670081
 20
-1276.2262587569403
 30
0.0
 41
0.9991121410639752
 10
944.02562271028899
 20
-1276.0767626581351
 30
0.0
 41
1.0
 10
944.02654150031367
 20
-1276.058982821557
 30
0.0
 41
1.0
 10
944.02746029033824
 20
-1276.041202984979
 30
0.0
 41
1.0
 10
944.0333480638775
 20
-1275.927266559326
 30
0.0
 41
0.9989792494904267
 10
944.02892897175991
 20
-1275.8132637234307
 30
0.0
 41
1.0
 10
944.02828099989119
 20
-1275.7965474775028
 30
0.0
 41
1.0
 10
944.02763302802259
 20
-1275.7798312315751
 30
0.0
 41
1.0
 10
944.02450987964255
 20
-1275.6992608875344
 30
0.0
 41
0.9997820295394543
 10
944.0180258822669
 20
-1275.6188911657882
 30
0.0
 41
1.0
 10
944.01154188489159
 20
-1275.5385214440487
 30
0.0
 41
0.9998335105971294
 10
944.0021296893799
 20
-1275.458441827597
 30
0.0
 41
1.0
 10
944.00053476470339
 20
-1275.4448720971127
 30
0.0
 41
1.0
 10
943.99893984002688
 20
-1275.4313023666282
 30
0.0
 41
1.0
 10
943.98633779516308
 20
-1275.3240832892175
 30
0.0
 41
0.9996876457879624
 10
943.96839388236515
 20
-1275.2176278615023
 30
0.0
 41
1.0
 10
943.96616221921954
 20
-1275.2043881262589
 30
0.0
 41
1.0
 10
943.96393055607393
 20
-1275.1911483910153
 30
0.0
 41
1.0
 10
943.95013473465281
 20
-1275.1093022470552
 30
0.0
 41
0.9995547496494107
 10
943.93148141275981
 20
-1275.0284247498628
 30
0.0
 41
1.0
 10
943.9311074558882
 20
-1275.0268033391562
 30
0.0
 41
1.0
 10
943.9307334990167
 20
-1275.0251819284495
 30
0.0
 41
1.0
 10
943.91282809086692
 20
-1274.9475472526706
 30
0.0
 41
0.9994899427175527
 10
943.89000318218791
 20
-1274.8712139698373
 30
0.0
 41
1.0
 10
943.8895446554468
 20
-1274.8696805200475
 30
0.0
 41
1.0
 10
943.88908612870569
 20
-1274.8681470702577
 30
0.0
 41
1.0
 10
943.86717827350867
 20
-1274.7948806870036
 30
0.0
 41
0.9993784877591411
 10
943.84016263840192
 20
-1274.7233399818438
 30
0.0
 41
1.0
 10
943.83963094742489
 20
-1274.7219319991227
 30
0.0
 41
1.0
 10
943.83909925644775
 20
-1274.7205240164017
 30
0.0
 41
1.0
 10
943.81314700329506
 20
-1274.6517992766837
 30
0.0
 41
0.9992430832253623
 10
943.7819304681359
 20
-1274.5853001246164
 30
0.0
 41
1.0
 10
943.78134835207925
 20
-1274.5840600694987
 30
0.0
 41
1.0
 10
943.78076623602249
 20
-1274.5828200143812
 30
0.0
 41
1.0
 10
943.75071393297662
 20
-1274.518800972548
 30
0.0
 41
0.999078963279785
 10
943.71528330619992
 20
-1274.4575943607986
 30
0.0
 41
1.0
 10
943.71468760001835
 20
-1274.4565652749402
 30
0.0
 41
1.0
 10
943.71409189383689
 20
-1274.4555361890818
 30
0.0
 41
1.0
 10
943.67985267942356
 20
-1274.3963877490494
 30
0.0
 41
0.9988874801121229
 10
943.64019340339109
 20
-1274.3407280366309
 30
0.0
 41
1.0
 10
943.63963787732723
 20
-1274.3399483849566
 30
0.0
 41
1.0
 10
943.63908235126337
 20
-1274.3391687332826
 30
0.0
 41
1.0
 10
943.60053412735942
 20
-1274.2850683242134
 30
0.0
 41
0.9986762060692599
 10
943.55663165608303
 20
-1274.2352146097742
 30
0.0
 41
1.0
 10
943.55618769575062
 20
-1274.2347104679575
 30
0.0
 41
1.0
 10
943.55574373541833
 20
-1274.2342063261406
 30
0.0
 41
1.0
 10
943.51272918480743
 20
-1274.1853608953354
 30
0.0
 41
0.998462164248778
 10
943.46457162802903
 20
-1274.1415775948637
 30
0.0
 41
1.0
 10
943.46432499351249
 20
-1274.1413533627001
 30
0.0
 41
1.0
 10
943.46407835899595
 20
-1274.1411291305367
 30
0.0
 41
1.0
 10
943.41641407125121
 20
-1274.0977942943925
 30
0.0
 41
0.9982724693851822
 10
943.36399543940979
 20
-1274.0603499438748
 30
0.0
 41
1.0
 10
943.31157680756871
 20
-1274.0229055933576
 30
0.0
 41
0.9981399180160316
 10
943.25499074417496
 20
-1273.9921190739137
 30
0.0
 41
1.0
 10
943.25494508209658
 20
-1273.9920942307567
 30
0.0
 41
1.0
 10
943.25489942001809
 20
-1273.9920693875995
 30
0.0
 41
1.0
 10
943.1982220324677
 20
-1273.9612331818416
 30
0.0
 41
0.9980927086837397
 10
943.13817668140189
 20
-1273.9376163729894
 30
0.0
 41
1.0
 10
943.13773651169004
 20
-1273.9374432471143
 30
0.0
 41
1.0
 10
943.13729634197807
 20
-1273.9372701212392
 30
0.0
 41
1.0
 10
943.07637065148822
 20
-1273.9133070606367
 30
0.0
 41
0.9981411356562172
 10
943.0129821300884
 20
-1273.896934419131
 30
0.0
 41
1.0
 10
943.01210001338723
 20
-1273.8967065769257
 30
0.0
 41
1.0
 10
943.01121789668605
 20
-1273.8964787347202
 30
0.0
 41
1.0
 10
942.9460651418832
 20
-1273.8796504088034
 30
0.0
 41
0.998303181293425
 10
942.87939771288779
 20
-1273.8705110476274
 30
0.0
 41
1.0
 10
942.87052668748606
 20
-1273.8692949289562
 30
0.0
 41
1.0
 10
942.86165566208444
 20
-1273.8680788102852
 30
0.0
 41
1.0
 10
942.80730601957873
 20
-1273.860628080294
 30
0.0
 41
0.9983887708264385
 10
942.75246217028416
 20
-1273.8593834066605
 30
0.0
 41
1.0
 10
942.74439876507051
 20
-1273.8592004087857
 30
0.0
 41
1.0
 10
942.73633535985687
 20
-1273.8590174109108
 30
0.0
 41
1.0
 10
942.69761832099505
 20
-1273.8581387330271
 30
0.0
 41
0.9998869563079634
 10
942.65889236778867
 20
-1273.8584246023868
 30
0.0
 41
1.0
 10
942.62016641454125
 20
-1273.8587104717467
 30
0.0
 41
0.9999972320195265
 10
942.58144223528666
 20
-1273.8591785712765
 30
0.0
 41
1.0
 10
942.562089218751
 20
-1273.8594125113655
 30
0.0
 41
1.0
 10
942.54273620221522
 20
-1273.8596464514544
 30
0.0
 41
1.0
 10
942.4653059898435
 20
-1273.8605824311621
 30
0.0
 41
0.9997304945086343
 10
942.3880026836049
 20
-1273.8651115249481
 30
0.0
 41
1.0
 10
942.3789530419017
 20
-1273.865641730938
 30
0.0
 41
1.0
 10
942.36990340019838
 20
-1273.8661719369279
 30
0.0
 41
1.0
 10
942.27450081055133
 20
-1273.8717614426939
 30
0.0
 41
0.9997888306415184
 10
942.179408474708
 20
-1273.8812664071834
 30
0.0
 41
1.0
 10
942.17068741313608
 20
-1273.8821381218154
 30
0.0
 41
1.0
 10
942.16196635156416
 20
-1273.8830098364474
 30
0.0
 41
1.0
 10
942.0494318925754
 20
-1273.8942582302006
 30
0.0
 41
0.9984170238190521
 10
941.93887274522388
 20
-1273.9180743121365
 30
0.0
 41
1.0
 10
941.90249161423833
 20
-1273.9259113479425
 30
0.0
 41
1.0
 10
941.86611048325278
 20
-1273.9337483837485
 30
0.0
 41
1.0
 10
941.75091941483083
 20
-1273.9585622502582
 30
0.0
 41
0.997659285419874
 10
941.64019124842537
 20
-1273.9988609274055
 30
0.0
 41
1.0
 10
941.52946308201854
 20
-1274.0391596045531
 30
0.0
 41
0.9993255074351433
 10
941.42199128322727
 20
-1274.0874765030462
 30
0.0
 41
1.0
 10
941.41736610430507
 20
-1274.0895558792454
 30
0.0
 41
1.0
 10
941.41274092538299
 20
-1274.0916352554445
 30
0.0
 41
1.0
 10
941.29601876874563
 20
-1274.1441109063364
 30
0.0
 41
0.9976475078275501
 10
941.18757142443451
 20
-1274.2120588959949
 30
0.0
 41
1.0
 10
941.16922903029854
 20
-1274.2235513748101
 30
0.0
 41
1.0
 10
941.15088663616268
 20
-1274.2350438536255
 30
0.0
 41
1.0
 10
941.06668444461184
 20
-1274.2878009743931
 30
0.0
 41
0.999513133640685
 10
940.98593672965603
 20
-1274.3457071863454
 30
0.0
 41
1.0
 10
940.90518901470023
 20
-1274.4036133982972
 30
0.0
 41
0.9995810107606453
 10
940.82792736697081
 20
-1274.4660950807636
 30
0.0
 41
1.0
 10
940.82495733576025
 20
-1274.4684969522286
 30
0.0
 41
1.0
 10
940.82198730454968
 20
-1274.4708988236935
 30
0.0
 41
1.0
 10
940.7387855944022
 20
-1274.5381842490874
 30
0.0
 41
0.9996617837955157
 10
940.65919490726776
 20
-1274.6097047046464
 30
0.0
 41
1.0
 10
940.64706415638886
 20
-1274.6206054376389
 30
0.0
 41
1.0
 10
940.63493340550997
 20
-1274.6315061706312
 30
0.0
 41
1.0
 10
940.56665787811414
 20
-1274.692858786103
 30
0.0
 41
0.9997267750052833
 10
940.50132436983017
 20
-1274.7573353226285
 30
0.0
 41
1.0
 10
940.43599086155632
 20
-1274.821811859144
 30
0.0
 41
0.9999667288955831
 10
940.37171791841172
 20
-1274.887345666036
 30
0.0
 41
1.0
 10
940.3028904706307
 20
-1274.9575233248001
 30
0.0
 41
1.0
 10
940.23406302284957
 20
-1275.0277009835645
 30
0.0
 41
1.0
 10
940.032135184151
 20
-1275.2335901079773
 30
0.0
 41
0.9988205335175162
 10
939.85112956717069
 20
-1275.4580943400392
 30
0.0
 41
1.0
 10
939.82048960226734
 20
-1275.4960975904676
 30
0.0
 41
1.0
 10
939.78984963736389
 20
-1275.5341008408959
 30
0.0
 41
1.0
 10
939.54756409057472
 20
-1275.8346115738166
 30
0.0
 41
0.9997077826754484
 10
939.32008613946982
 20
-1276.1464813680327
 30
0.0
 41
1.0
 10
939.31836272433929
 20
-1276.1488441514123
 30
0.0
 41
1.0
 10
939.31663930920888
 20
-1276.1512069347918
 30
0.0
 41
1.0
 10
939.0857145278444
 20
-1276.4678022957651
 30
0.0
 41
0.9989147567079033
 10
938.88525102496078
 20
-1276.8045117569495
 30
0.0
 41
1.0
 10
938.86050987965177
 20
-1276.8460683375054
 30
0.0
 41
1.0
 10
938.83576873434288
 20
-1276.8876249180612
 30
0.0
 41
1.0
 10
938.68055743570642
 20
-1277.1483263025123
 30
0.0
 41
0.9997476598181757
 10
938.53721244819837
 20
-1277.4157360510922
 30
0.0
 41
1.0
 10
938.39386746068885
 20
-1277.6831457996743
 30
0.0
 41
0.9996258967110293
 10
938.26535920875733
 20
-1277.9579937362982
 30
0.0
 41
1.0
 10
938.25215929930755
 20
-1277.9862251363941
 30
0.0
 41
1.0
 10
938.23895938985765
 20
-1278.0144565364899
 30
0.0
 41
1.0
 10
938.09875066885934
 20
-1278.3143289344393
 30
0.0
 41
0.9998735413943553
 10
937.96814932213726
 20
-1278.6185085339112
 30
0.0
 41
1.0
 10
937.96470649407502
 20
-1278.6265271193797
 30
0.0
 41
1.0
 10
937.96126366601288
 20
-1278.6345457048483
 30
0.0
 41
1.0
 10
937.83754797541565
 20
-1278.9226881333811
 30
0.0
 41
0.9999377418856997
 10
937.72029317324223
 20
-1279.2135196010536
 30
0.0
 41
1.0
 10
937.60303837106574
 20
-1279.5043510687328
 30
0.0
 41
0.9999508299502461
 10
937.49157442768819
 20
-1279.7974507455549
 30
0.0
 41
1.0
 10
937.4884936590264
 20
-1279.805551771517
 30
0.0
 41
1.0
 10
937.48541289036461
 20
-1279.8136527974789
 30
0.0
 41
1.0
 10
937.36778740966179
 20
-1280.1229545262295
 30
0.0
 41
0.9999609228429388
 10
937.25564880678246
 20
-1280.4342875422601
 30
0.0
 41
1.0
 10
937.25269279643578
 20
-1280.4424943826612
 30
0.0
 41
1.0
 10
937.2497367860891
 20
-1280.4507012230624
 30
0.0
 41
1.0
 10
937.13168616251755
 20
-1280.7784479198922
 30
0.0
 41
0.9999674607400391
 10
937.018938636445
 20
-1281.1080565398995
 30
0.0
 41
1.0
 10
936.96754024588245
 20
-1281.2583157355916
 30
0.0
 41
1.0
 10
936.91614185531989
 20
-1281.4085749312837
 30
0.0
 41
1.0
 10
936.80013124856328
 20
-1281.7477229137828
 30
0.0
 41
0.9999287532307042
 10
936.69224984459402
 20
-1282.0895436527544
 30
0.0
 41
1.0
 10
936.64577258844497
 20
-1282.236806197157
 30
0.0
 41
1.0
 10
936.59929533229592
 20
-1282.3840687415595
 30
0.0
 41
1.0
 10
936.58436844063874
 20
-1282.4313643916812
 30
0.0
 41
0.999999822361862
 10
936.5694979318929
 20
-1282.4786777999711
 30
0.0
 41
1.0
 10
934.94884179509745
 20
-1287.6267063017606
 30
0.0
 41
1.0
 10
933.328185658302
 20
-1292.77473480355
 30
0.0
 41
1.0
 10
932.42287721441107
 20
-1292.77473480355
 30
0.0
 41
1.0
 10
931.51756877052014
 20
-1292.77473480355
 30
0.0
 41
1.0
 10
933.36965318190619
 20
-1286.8876628810826
 30
0.0
 41
1.0
 10
935.22173759329223
 20
-1281.000590958615
 30
0.0
 41
1.0
 10
935.23185935159495
 20
-1280.9685477451653
 30
0.0
 41
1.0
 10
935.30446702044469
 20
-1280.7382482033395
 30
0.0
 41
1.0
 10
935.37707468929
 20
-1280.5079486615277
 30
0.0
 41
0.9999825681970119
 10
935.44695772849741
 20
-1280.2768077664766
 30
0.0
 41
1.0
 10
935.49524879065757
 20
-1280.1170831829827
 30
0.0
 41
1.0
 10
935.54353985281773
 20
-1279.957358599489
 30
0.0
 41
1.0
 10
935.64069220614056
 20
-1279.6360233776945
 30
0.0
 41
0.9999672528959478
 10
935.73263101176678
 20
-1279.3131578320986
 30
0.0
 41
1.0
 10
935.73541989543651
 20
-1279.3033639867085
 30
0.0
 41
1.0
 10
935.73820877910634
 20
-1279.2935701413185
 30
0.0
 41
1.0
 10
935.8245698173946
 20
-1278.9902922864967
 30
0.0
 41
0.9999899749137989
 10
935.90821142692482
 20
-1278.6862531980601
 30
0.0
 41
1.0
 10
935.91831734594439
 20
-1278.6495179603739
 30
0.0
 41
1.0
 10
935.92842326496407
 20
-1278.6127827226878
 30
0.0
 41
1.0
 10
935.99185303646107
 20
-1278.382214109602
 30
0.0
 41
0.9999214200503979
 10
936.04948246483718
 20
-1278.1501277673983
 30
0.0
 41
1.0
 10
936.06224831701502
 20
-1278.0987168820134
 30
0.0
 41
1.0
 10
936.07501416919285
 20
-1278.0473059966284
 30
0.0
 41
1.0
 10
936.10711189321182
 20
-1277.9180414252016
 30
0.0
 41
0.9999828681681762
 10
936.13769414521039
 20
-1277.7884099507214
 30
0.0
 41
1.0
 10
936.1682763972085
 20
-1277.6587784762419
 30
0.0
 41
0.9999389844478189
 10
936.19598738599814
 20
-1277.5285030203395
 30
0.0
 41
1.0
 10
936.2031251297168
 20
-1277.4949469165092
 30
0.0
 41
1.0
 10
936.21026287343545
 20
-1277.4613908126789
 30
0.0
 41
1.0
 10
936.25224934966536
 20
-1277.2640031491028
 30
0.0
 41
0.9998933699438763
 10
936.28845361406911
 20
-1277.0654735413355
 30
0.0
 41
1.0
 10
936.28982643928452
 20
-1277.0579455206439
 30
0.0
 41
1.0
 10
936.29119926450005
 20
-1277.0504174999523
 30
0.0
 41
1.0
 10
936.33014917933508
 20
-1276.8368318508001
 30
0.0
 41
0.9996850305193636
 10
936.35833285559386
 20
-1276.6215608453629
 30
0.0
 41
1.0
 10
936.36032788896318
 20
-1276.6063224912414
 30
0.0
 41
1.0
 10
936.3623229223324
 20
-1276.5910841371199
 30
0.0
 41
1.0
 10
936.3897307847916
 20
-1276.381738909965
 30
0.0
 41
0.9994697936706218
 10
936.40345534401104
 20
-1276.1710537146346
 30
0.0
 41
1.0
 10
936.40393241326069
 20
-1276.1637302424247
 30
0.0
 41
1.0
 10
936.40440948251023
 20
-1276.1564067702147
 30
0.0
 41
1.0
 10
936.41717990323025
 20
-1275.9603685193067
 30
0.0
 41
0.9991804893137447
 10
936.41405158695784
 20
-1275.7639396693305
 30
0.0
 41
1.0
 10
936.41396770813571
 20
-1275.758672867918
 30
0.0
 41
1.0
 10
936.41388382931359
 20
-1275.7534060665052
 30
0.0
 41
1.0
 10
936.41092327068486
 20
-1275.5675108193582
 30
0.0
 41
0.998844832932225
 10
936.39013172506122
 20
-1275.3827582295237
 30
0.0
 41
1.0
 10
936.38853765135821
 20
-1275.3685933737527
 30
0.0
 41
1.0
 10
936.38694357765519
 20
-1275.3544285179817
 30
0.0
 41
1.0
 10
936.36934017943759
 20
-1275.1980056396917
 30
0.0
 41
0.9985503209458742
 10
936.33502390713784
 20
-1275.0443814556011
 30
0.0
 41
1.0
 10
936.32743791506664
 20
-1275.010421128201
 30
0.0
 41
1.0
 10
936.31985192299544
 20
-1274.9764608008006
 30
0.0
 41
1.0
 10
936.30070763483832
 20
-1274.8907572715118
 30
0.0
 41
0.999103678137057
 10
936.2743827731872
 20
-1274.8069801841868
 30
0.0
 41
1.0
 10
936.27040054773079
 20
-1274.7943070216747
 30
0.0
 41
1.0
 10
936.26641832227426
 20
-1274.7816338591629
 30
0.0
 41
1.0
 10
936.24805791153437
 20
-1274.7232030968567
 30
0.0
 41
0.9998874504369701
 10
936.22795270385745
 20
-1274.6653494946386
 30
0.0
 41
1.0
 10
936.20784749617928
 20
-1274.6074958924157
 30
0.0
 41
0.9994041637544252
 10
936.18379888324512
 20
-1274.5511671885261
 30
0.0
 41
1.0
 10
936.17960209902049
 20
-1274.5413371240429
 30
0.0
 41
1.0
 10
936.17540531479597
 20
-1274.5315070595595
 30
0.0
 41
1.0
 10
936.14752648380136
 20
-1274.466206893592
 30
0.0
 41
0.9991846840701105
 10
936.11447012710914
 20
-1274.4033688623142
 30
0.0
 41
1.0
 10
936.11333352071426
 20
-1274.4012082458598
 30
0.0
 41
1.0
 10
936.11219691431938
 20
-1274.3990476294052
 30
0.0
 41
1.0
 10
936.08141377041613
 20
-1274.3405308310341
 30
0.0
 41
0.9989253167923984
 10
936.04534434636116
 20
-1274.2851159026436
 30
0.0
 41
1.0
 10
936.04429022168733
 20
-1274.2834964078818
 30
0.0
 41
1.0
 10
936.04323609701339
 20
-1274.28187691312
 30
0.0
 41
1.0
 10
936.00927492230699
 20
-1274.2297009742547
 30
0.0
 41
0.9986467172837719
 10
935.97007776966871
 20
-1274.1813349406239
 30
0.0
 41
1.0
 10
935.96920364096786
 20
-1274.1802563383453
 30
0.0
 41
1.0
 10
935.96832951226702
 20
-1274.179177736067
 30
0.0
 41
1.0
 10
935.93088061703168
 20
-1274.1329689069948
 30
0.0
 41
0.9984001104268029
 10
935.88845388651418
 20
-1274.0912837996257
 30
0.0
 41
1.0
 10
935.88786674840526
 20
-1274.0907069247448
 30
0.0
 41
1.0
 10
935.88727961029633
 20
-1274.090130049864
 30
0.0
 41
1.0
 10
935.84602715599783
 20
-1274.0495986922576
 30
0.0
 41
0.9982442159083492
 10
935.80027105466138
 20
-1274.0142301309966
 30
0.0
 41
1.0
 10
935.80005625919944
 20
-1274.0140640983532
 30
0.0
 41
1.0
 10
935.79984146373738
 20
-1274.0138980657098
 30
0.0
 41
1.0
 10
935.7545149533255
 20
-1273.9788615697362
 30
0.0
 41
0.9982450060836449
 10
935.70536397425406
 20
-1273.9494297867027
 30
0.0
 41
1.0
 10
935.65621299518182
 20
-1273.919998003669
 30
0.0
 41
0.9983922639635454
 10
935.6040466890164
 20
-1273.8963183690146
 30
0.0
 41
1.0
 10
935.60381981169246
 20
-1273.8962153835334
 30
0.0
 41
1.0
 10
935.60359293436852
 20
-1273.8961123980523
 30
0.0
 41
1.0
 10
935.55097287355568
 20
-1273.8722267924359
 30
0.0
 41
0.9986517147150286
 10
935.49615990068844
 20
-1273.8539256733143
 30
0.0
 41
1.0
 10
935.49548197925969
 20
-1273.8536993268826
 30
0.0
 41
1.0
 10
935.49480405783106
 20
-1273.8534729804508
 30
0.0
 41
1.0
 10
935.43863524210724
 20
-1273.8347191684661
 30
0.0
 41
0.9989435598955889
 10
935.3809818549563
 20
-1273.8212014662317
 30
0.0
 41
1.0
 10
935.37990173537446
 20
-1273.8209482159787
 30
0.0
 41
1.0
 10
935.37882161579273
 20
-1273.8206949657256
 30
0.0
 41
1.0
 10
935.31900798947822
 20
-1273.806670762985
 30
0.0
 41
0.9992249241240415
 10
935.25827648058112
 20
-1273.7973954202698
 30
0.0
 41
1.0
 10
935.25686279228978
 20
-1273.7971795118619
 30
0.0
 41
1.0
 10
935.25544910399844
 20
-1273.7969636034541
 30
0.0
 41
1.0
 10
935.1918902185181
 20
-1273.7872564439231
 30
0.0
 41
0.9994396597833944
 10
935.12782428198068
 20
-1273.7818235215775
 30
0.0
 41
1.0
 10
935.10868361450355
 20
-1273.7802003538591
 30
0.0
 41
1.0
 10
935.08954294702642
 20
-1273.7785771861404
 30
0.0
 41
1.0
 10
934.98719567553235
 20
-1273.7698979283571
 30
0.0
 41
0.9987693403120899
 10
934.88449205194388
 20
-1273.77140099181
 30
0.0
 41
1.0
 10
934.87423771771728
 20
-1273.771551063584
 30
0.0
 41
1.0
 10
934.86398338349068
 20
-1273.7717011353582
 30
0.0
 41
1.0
 10
934.75442761731256
 20
-1273.7733044796457
 30
0.0
 41
0.9989753644966182
 10
934.64546561729696
 20
-1273.784807486571
 30
0.0
 41
1.0
 10
934.53650361727944
 20
-1273.7963104934963
 30
0.0
 41
0.9983190067305378
 10
934.42960480631371
 20
-1273.8203454852833
 30
0.0
 41
1.0
 10
934.42070385470788
 20
-1273.8223467638459
 30
0.0
 41
1.0
 10
934.41180290310206
 20
-1273.8243480424082
 30
0.0
 41
1.0
 10
934.2871021889232
 20
-1273.8523855913204
 30
0.0
 41
0.9985539388302818
 10
934.16613243524523
 20
-1273.8936492673663
 30
0.0
 41
1.0
 10
934.16378700428504
 20
-1273.8944493111821
 30
0.0
 41
1.0
 10
934.16144157332496
 20
-1273.8952493549978
 30
0.0
 41
1.0
 10
934.03578095772775
 20
-1273.9381131186744
 30
0.0
 41
0.998846874649357
 10
933.91481061542788
 20
-1273.9928312037366
 30
0.0
 41
1.0
 10
933.91162779343836
 20
-1273.9942708782969
 30
0.0
 41
1.0
 10
933.90844497144883
 20
-1273.9957105528572
 30
0.0
 41
1.0
 10
933.78110898517184
 20
-1274.053307987039
 30
0.0
 41
0.9991322885919471
 10
933.6590084011151
 20
-1274.1213033192209
 30
0.0
 41
1.0
 10
933.64140639006996
 20
-1274.1311055212113
 30
0.0
 41
1.0
 10
933.62380437902493
 20
-1274.140907723202
 30
0.0
 41
1.0
 10
933.5216276979686
 20
-1274.197807838982
 30
0.0
 41
0.9993860037849087
 10
933.42368669389589
 20
-1274.2617238545702
 30
0.0
 41
1.0
 10
933.41806838103867
 20
-1274.2653903492683
 30
0.0
 41
1.0
 10
933.41245006818156
 20
-1274.2690568439664
 30
0.0
 41
1.0
 10
933.32574568981931
 20
-1274.3256398701608
 30
0.0
 41
0.9998821494953409
 10
933.24081931400974
 20
-1274.3848581002353
 30
0.0
 41
1.0
 10
933.15589293819596
 20
-1274.4440763303128
 30
0.0
 41
0.9997976482743766
 10
933.07341730779126
 20
-1274.5066627383555
 30
0.0
 41
1.0
 10
933.05878104298733
 20
-1274.5177694281347
 30
0.0
 41
1.0
 10
933.04414477818341
 20
-1274.5288761179136
 30
0.0
 41
1.0
 10
932.93239661816813
 20
-1274.6136759055164
 30
0.0
 41
0.9998091630798436
 10
932.82404634013938
 20
-1274.7027762562186
 30
0.0
 41
1.0
 10
932.81104058766346
 20
-1274.7134713566634
 30
0.0
 41
1.0
 10
932.79803483518765
 20
-1274.7241664571084
 30
0.0
 41
1.0
 10
932.66367305220297
 20
-1274.8346570087042
 30
0.0
 41
0.9995035112317429
 10
932.53653717443706
 20
-1274.9533908257213
 30
0.0
 41
1.0
 10
932.52688986405235
 20
-1274.9624005718767
 30
0.0
 41
1.0
 10
932.51724255366764
 20
-1274.9714103180322
 30
0.0
 41
1.0
 10
932.39381949090182
 20
-1275.0866766897889
 30
0.0
 41
0.9994630424299646
 10
932.27821108511807
 20
-1275.2097794330236
 30
0.0
 41
1.0
 10
932.27452824634611
 20
-1275.2137010125373
 30
0.0
 41
1.0
 10
932.27084540757403
 20
-1275.2176225920509
 30
0.0
 41
1.0
 10
932.16260267933478
 20
-1275.3328821762582
 30
0.0
 41
0.999516069375011
 10
932.06173664980224
 20
-1275.4546495941313
 30
0.0
 41
1.0
 10
932.05980292972163
 20
-1275.4569840183394
 30
0.0
 41
1.0
 10
932.05786920964101
 20
-1275.4593184425473
 30
0.0
 41
1.0
 10
931.9608706202697
 20
-1275.5764170120046
 30
0.0
 41
0.9996561470514146
 10
931.87014440160442
 20
-1275.6984397744532
 30
0.0
 41
1.0
 10
931.86398673570181
 20
-1275.7067215634963
 30
0.0
 41
1.0
 10
931.85782906979921
 20
-1275.7150033525395
 30
0.0
 41
1.0
 10
931.77941818293743
 20
-1275.8204625369035
 30
0.0
 41
0.9998349055173698
 10
931.70489090100637
 20
-1275.9287011205656
 30
0.0
 41
1.0
 10
931.63036361906506
 20
-1276.0369397042423
 30
0.0
 41
0.9999728109563214
 10
931.55744072314769
 20
-1276.1462656298086
 30
0.0
 41
1.0
 10
931.55612550774413
 20
-1276.148237399299
 30
0.0
 41
1.0
 10
931.55481029234045
 20
-1276.1502091687894
 30
0.0
 41
1.0
 10
931.47925696563425
 20
-1276.2634786333088
 30
0.0
 41
0.9999972147470585
 10
931.40423915530982
 20
-1276.3771034760687
 30
0.0
 41
1.0
 10
931.39926761264894
 20
-1276.3846335645994
 30
0.0
 41
1.0
 10
931.39429606998806
 20
-1276.39216365313
 30
0.0
 41
1.0
 10
931.3093351743729
 20
-1276.520848672905
 30
0.0
 41
0.9999371979007391
 10
931.22727982496883
 20
-1276.6514055866819
 30
0.0
 41
1.0
 10
931.22377094060494
 20
-1276.6569885147503
 30
0.0
 41
1.0
 10
931.22026205624093
 20
-1276.6625714428187
 30
0.0
 41
1.0
 10
931.1311889381127
 20
-1276.8042942127272
 30
0.0
 41
0.9998272025608984
 10
931.04744554723322
 20
-1276.9492300894649
 30
0.0
 41
1.0
 10
931.03223037520775
 20
-1276.9755632039239
 30
0.0
 41
1.0
 10
931.01701520318238
 20
-1277.0018963183829
 30
0.0
 41
1.0
 10
930.9028414682507
 20
-1277.1994984240412
 30
0.0
 41
0.9995217214838198
 10
930.80110177869415
 20
-1277.4037807519055
 30
0.0
 41
1.0
 10
930.79345821606239
 20
-1277.4191282016018
 30
0.0
 41
1.0
 10
930.78581465343063
 20
-1277.4344756512983
 30
0.0
 41
1.0
 10
930.69890936084028
 20
-1277.6089721093811
 30
0.0
 41
0.9998269762608313
 10
930.61855489456468
 20
-1277.7865803961117
 30
0.0
 41
1.0
 10
930.53820042828988
 20
-1277.9641886828408
 30
0.0
 41
0.9998944747387677
 10
930.46303963372588
 20
-1278.1440564084696
 30
0.0
 41
1.0
 10
930.45808596413758
 20
-1278.1559110633802
 30
0.0
 41
1.0
 10
930.45313229454928
 20
-1278.1677657182906
 30
0.0
 41
1.0
 10
930.37248523399239
 20
-1278.3607626583184
 30
0.0
 41
0.9999506734412222
 10
930.29568770508888
 20
-1278.5553234631748
 30
0.0
 41
1.0
 10
930.2810877398241
 20
-1278.5923113849653
 30
0.0
 41
1.0
 10
930.26648777455932
 20
-1278.6292993067557
 30
0.0
 41
1.0
 10
930.21889017618446
 20
-1278.7498842680329
 30
0.0
 41
0.9999912393910578
 10
930.17230373216285
 20
-1278.8708634707266
 30
0.0
 41
1.0
 10
930.12571728813475
 20
-1278.9918426734366
 30
0.0
 41
0.9999927113953373
 10
930.08005599374599
 20
-1279.1131740809244
 30
0.0
 41
1.0
 10
930.06608756234823
 20
-1279.1502910629233
 30
0.0
 41
1.0
 10
930.05211913095059
 20
-1279.1874080449222
 30
0.0
 41
1.0
 10
929.97852097375994
 20
-1279.3829734164251
 30
0.0
 41
0.9999487550946988
 10
929.90889734879113
 20
-1279.5799887815992
 30
0.0
 41
1.0
 10
929.88530373885192
 20
-1279.6467520918986
 30
0.0
 41
1.0
 10
929.86171012891282
 20
-1279.7135154021978
 30
0.0
 41
1.0
 10
929.76702449454115
 20
-1279.9814492370258
 30
0.0
 41
0.9999808436929085
 10
929.67566290590355
 20
-1280.2505346682794
 30
0.0
 41
1.0
 10
929.58430131725481
 20
-1280.5196200995654
 30
0.0
 41
0.999987393289986
 10
929.49564660853639
 20
-1280.7896094545806
 30
0.0
 41
1.0
 10
929.47555425167081
 20
-1280.8507987873218
 30
0.0
 41
1.0
 10
929.45546189480524
 20
-1280.9119881200631
 30
0.0
 41
1.0
 10
929.32662247234498
 20
-1281.304356140593
 30
0.0
 41
0.9999794883039581
 10
929.20281968738789
 20
-1281.6983423468687
 30
0.0
 41
1.0
 10
929.1916674279571
 20
-1281.7338329570844
 30
0.0
 41
1.0
 10
929.1805151685262
 20
-1281.7693235673003
 30
0.0
 41
1.0
 10
929.03795700461774
 20
-1282.2229963194213
 30
0.0
 41
0.9999982761760098
 10
928.89708456460278
 20
-1282.6771953415434
 30
0.0
 41
1.0
 10
927.30894423203017
 20
-1287.7259650725468
 30
0.0
 41
1.0
 10
925.72080389945756
 20
-1292.77473480355
 30
0.0
 41
1.0
 10
924.77205328798118
 20
-1292.77473480355
 30
0.0
 41
1.0
 10
923.8233026765048
 20
-1292.77473480355
 30
0.0
 41
1.0
 10
927.06158716265804
 20
-1282.4474126036039
 30
0.0
 41
1.0
 10
930.29987164881118
 20
-1272.1200904036577
 30
0.0
 41
1.0
  0
LWPOLYLINE
  5
58
100
AcDbEntity
  8
0
370
              15
390
0
  6
Continuous
 62
               7
100
AcDbPolyline
 90
      232
 70
             128
 10
904.59632587498413
 20
-1273.2044332351729
 42
0.0004370800692117
 10
904.54344870091234
 20
-1273.2730998744289
 10
904.50416446978466
 20
-1273.3242069873259
 42
0.0030481992172802
 10
904.37382575268362
 20
-1273.4959286796459
 10
904.33531408091505
 20
-1273.5473154634581
 42
0.004205824576405
 10
904.131329030232
 20
-1273.8243212085501
 10
904.07892390774452
 20
-1273.8967540553126
 42
0.0120948898744582
 10
903.78287999098211
 20
-1274.3275036598629
 10
903.68668749185713
 20
-1274.4749843950926
 42
0.0141601263949862
 10
903.38304344493918
 20
-1274.9706537318218
 10
903.3435061775125
 20
-1275.0394976992548
 42
0.0071131081303798
 10
903.13823385427486
 20
-1275.4090004980917
 42
0.0068458791001765
 10
902.94335432743446
 20
-1275.7840920615624
 10
902.93654246497397
 20
-1275.7976537752916
 42
0.0064120880291929
 10
902.73840021492799
 20
-1276.205078250214
 10
902.73086552941265
 20
-1276.2210901069316
 42
0.0058857236446986
 10
902.52811013754797
 20
-1276.6654662179508
 10
902.519935211247
 20
-1276.6839563716005
 42
0.0053189741895909
 10
902.31123089858124
 20
-1277.169919845514
 10
902.30248309289811
 20
-1277.1909017237144
 42
0.0047503650420172
 10
902.08650936674405
 20
-1277.7231011569329
 10
902.07724111839934
 20
-1277.746577533032
 42
0.0042071762172264
 10
901.85269373466895
 20
-1278.3296711271084
 10
901.84294433232287
 20
-1278.3556373019715
 42
0.0036680086484012
 10
901.6084896890178
 20
-1278.9942726864833
 10
901.59828190916301
 20
-1279.0227212208474
 42
0.0032573142626912
 10
901.35264962319877
 20
-1279.7215738805935
 10
901.28399910234884
 20
-1279.9210369646732
 42
0.0026133366647917
 10
900.93555390359757
 20
-1280.9509002483255
 10
900.87229711610519
 20
-1281.1411310836938
 42
0.0020592950738823
 10
900.65843404712984
 20
-1281.7932347363317
 10
900.65538225597163
 20
-1281.8026712247265
 42
0.0025609928533846
 10
900.45356175448092
 20
-1282.4378164471073
 10
900.45097038735992
 20
-1282.4461187880297
 42
0.0031362356239234
 10
900.26147960167737
 20
-1283.0668816442274
 10
900.25934855874561
 20
-1283.0740229504529
 42
0.0037229918032434
 10
900.08254817182353
 20
-1283.6830082524125
 10
900.08086958261595
 20
-1283.6889551425911
 42
0.0043077623707315
 10
899.91712878055205
 20
-1284.2887738743561
 42
0.0047654161825962
 10
899.76430005803184
 20
-1284.8914599632758
 10
899.72983544919703
 20
-1285.033021740408
 42
0.0112969368445141
 10
899.53397109105504
 20
-1285.924713901024
 10
899.50596470195671
 20
-1286.0675419471302
 42
0.0130056762570143
 10
899.30512745831015
 20
-1287.2544830187751
 10
899.2845877081628
 20
-1287.3985611322537
 42
0.0138721532145176
 10
899.18088470362511
 20
-1288.3053906180778
 10
899.16158921571719
 20
-1288.528888340003
 42
0.0071254697004804
 10
899.12824256979457
 20
-1288.99207534885
 10
899.12328159563231
 20
-1289.0780793433923
 42
0.002888179919635
 10
899.10814330234143
 20
-1289.369821053253
 42
0.0060297297136619
 10
899.09821110256564
 20
-1289.6617699893802
 10
899.09714882089884
 20
-1289.7101623613037
 42
0.0229523164159369
 10
899.10487984868462
 20
-1290.0329172075844
 10
899.10910562220511
 20
-1290.0933207416017
 42
0.012367330066471
 10
899.12818426872332
 20
-1290.2944414667754
 42
0.0128577674466855
 10
899.15737965912956
 20
-1290.4943393167016
 10
899.16450553251661
 20
-1290.5356681312992
 42
0.0285717853763534
 10
899.22899953421211
 20
-1290.8137842826113
 10
899.24266805787852
 20
-1290.8604390520886
 42
0.0316283099162541
 10
899.35847863779304
 20
-1291.1794535539154
 10
899.36152732954884
 20
-1291.1864399262415
 42
0.0338984824238867
 10
899.51095904051567
 20
-1291.4740058904301
 10
899.51326776988526
 20
-1291.4777969197055
 42
0.0350228718354981
 10
899.6956280605591
 20
-1291.7348489043829
 10
899.69651331233501
 20
-1291.735927982148
 42
0.0347476747529485
 10
899.91093799957423
 20
-1291.9631130293669
 42
0.0331337701910574
 10
900.15418132532091
 20
-1292.1592416914448
 10
900.15528142383675
 20
-1292.1600143946171
 42
0.030523331908236
 10
900.42382611941048
 20
-1292.3251425647084
 10
900.4270561639114
 20
-1292.3268665765709
 42
0.027374448115647
 10
900.71960987548584
 20
-1292.4630047204614
 10
900.72471441062316
 20
-1292.4650483049311
 42
0.0240964406195471
 10
901.04019148626992
 20
-1292.5740320312127
 10
901.04677481547878
 20
-1292.5759567708874
 42
0.0209636179813237
 10
901.38417496812917
 20
-1292.659424918819
 10
901.39180742858014
 20
-1292.660976831821
 42
0.0181388704691495
 10
901.75012982057785
 20
-1292.720392925035
 10
901.75841066895669
 20
-1292.7214591088521
 42
0.0156086547585303
 10
902.13659803314545
 20
-1292.7581952954288
 10
902.17979328547926
 20
-1292.7610337979081
 42
0.0137148329027212
 10
902.5074664307715
 20
-1292.7735540531589
 10
902.55340262071354
 20
-1292.7740484862741
 42
0.00510578238871
 10
902.78954820728973
 20
-1292.7741787406835
 42
0.0052256693311566
 10
903.02564549107456
 20
-1292.769429916219
 10
903.09587227481779
 20
-1292.7672829502051
 42
0.0161507179049532
 10
903.47160935292118
 20
-1292.7436325798783
 10
903.49162231329205
 20
-1292.741722384591
 42
0.0101216737832356
 10
903.90564953478372
 20
-1292.6937294542254
 10
903.93970282420958
 20
-1292.6890817574158
 42
0.0245291776397392
 10
904.41649247975874
 20
-1292.6000066793399
 10
904.5013157952842
 20
-1292.5798107589937
 42
0.0143509212561325
 10
904.85794689922432
 20
-1292.4840061252148
 42
0.0156557857040894
 10
905.20816296395105
 20
-1292.3669949093962
 10
905.21566417844622
 20
-1292.3642247476419
 42
0.0170137333633094
 10
905.5722601741287
 20
-1292.2185671327702
 10
905.57936409653507
 20
-1292.2153792972072
 42
0.0183105364408231
 10
905.93871376469804
 20
-1292.0380442553846
 10
905.9456605293401
 20
-1292.0342938205108
 42
0.0194899958148876
 10
906.3041412703252
 20
-1291.8223148386194
 10
906.31115514966086
 20
-1291.8177894963251
 42
0.0204869852948548
 10
906.6651694517559
 20
-1291.5682694812383
 10
906.67243506034174
 20
-1291.5626894158909
 42
0.0212516938558301
 10
907.01842499145323
 20
-1291.272785418993
 10
907.06494168552445
 20
-1291.2303181089032
 42
0.0215248918254087
 10
907.32496785441299
 20
-1290.9715538299079
 10
907.36999758879028
 20
-1290.9227097085616
 42
0.011457855495211
 10
907.52478974247106
 20
-1290.7468867750999
 10
907.53598427845941
 20
-1290.7335680115525
 42
0.0061531305129475
 10
907.66245892445204
 20
-1290.5792784782489
 42
0.0006325587127869
 10
907.78683740873873
 20
-1290.4232751024033
 10
907.80987754365538
 20
-1290.3943015819136
 42
0.0041897761551672
 10
907.97833294763552
 20
-1290.178782205842
 10
908.03679506752019
 20
-1290.1026808588667
 42
0.0092993880040432
 10
908.31340699474902
 20
-1289.7284020949755
 10
908.39580148794448
 20
-1289.6124650914119
 42
0.0159321727086435
 10
908.74240797058519
 20
-1289.090290870658
 10
908.78676410597222
 20
-1289.0186113064112
 42
0.0085547317020677
 10
909.02127587130008
 20
-1288.6247363571833
 42
0.0084601156889394
 10
909.24225204874904
 20
-1288.2231095081384
 10
909.25036752257245
 20
-1288.2077498258782
 42
0.0081429654284541
 10
909.47361679300593
 20
-1287.7680283133457
 10
909.48247695719397
 20
-1287.7498494713182
 42
0.0076574581326765
 10
909.70888446776098
 20
-1287.2666665960644
 10
909.71836410848437
 20
-1287.2456021177618
 42
0.0070682724202456
 10
909.94880901629506
 20
-1286.7135648129713
 10
909.95879930027286
 20
-1286.6895756239692
 42
0.0064559514447597
 10
910.19413250845241
 20
-1286.1032633574555
 10
910.20454186661959
 20
-1286.0763284320078
 42
0.0058311413905565
 10
910.44558860338202
 20
-1285.4302963376251
 10
910.45634368076981
 20
-1285.4004119964638
 42
0.005231242581842
 10
910.70392495881435
 20
-1284.6892095826183
 10
910.71496879519054
 20
-1284.6563828705594
 42
0.0046680544798492
 10
910.96989722292494
 20
-1283.8745565548045
 10
911.01188937296979
 20
-1283.7415733175085
 42
0.0041666856443875
 10
911.21517538536341
 20
-1283.078604542507
 10
911.25283782602241
 20
-1282.9520234348693
 42
0.0015170975155537
 10
911.37402440444032
 20
-1282.5401550833597
 42
-0.0004887993110782
 10
911.49436417759705
 20
-1282.1280366712033
 10
911.57084143505858
 20
-1281.8670792853766
 42
0.0002583378927045
 10
911.84405600498542
 20
-1280.9330225826679
 10
911.92582885467459
 20
-1280.6529233226993
 42
0.0006636169672779
 10
912.11969661471073
 20
-1279.9855703990274
 10
912.1247932690718
 20
-1279.9679388160987
 42
0.0010589131324114
 10
912.30624196997439
 20
-1279.3352074730985
 10
912.31122404045334
 20
-1279.3176945660837
 42
0.0015655524461705
 10
912.4794942476376
 20
-1278.7190778868776
 10
912.48432444805326
 20
-1278.7016857279395
 42
0.0021640440477062
 10
912.63861442003872
 20
-1278.1366587099237
 10
912.64324863946706
 20
-1278.1193939799359
 42
0.0028763871850434
 10
912.7827643575215
 20
-1277.5874260290827
 10
912.78715022168819
 20
-1277.5703020509304
 42
0.0037310511946012
 10
912.9111069135256
 20
-1277.0708544569043
 10
912.91518213381664
 20
-1277.0538941856505
 42
0.0047652197774318
 10
913.02280603432314
 20
-1276.5864164173538
 10
913.02649663364389
 20
-1276.5696568622154
 42
0.0060276699300929
 10
913.11702673280024
 20
-1276.1335810670596
 10
913.12024542308893
 20
-1276.1170798527526
 42
0.0075824337759324
 10
913.1929347325048
 20
-1275.7118126883242
 10
913.19558010988487
 20
-1275.695657740875
 42
0.0095130624610748
 10
913.24969534551633
 20
-1275.3205683878018
 10
913.25668156939912
 20
-1275.2646348296832
 42
0.012105465322614
 10
913.28327289997674
 20
-1274.9997390012115
 10
913.28413938973642
 20
-1274.9883355582806
 42
0.0069050827385675
 10
913.29922820777392
 20
-1274.7453943314381
 10
913.30036350744274
 20
-1274.7218680743879
 42
0.0169063976711656
 10
913.30319078642287
 20
-1274.5256753470926
 10
913.3020201348919
 20
-1274.4653395857542
 42
0.0052007732882105
 10
913.29976668629854
 20
-1274.3897461955914
 42
0.0054038123303184
 10
913.27980317445815
 20
-1274.2697278995731
 10
913.27471731858918
 20
-1274.2410694130003
 42
0.0112050460467007
 10
913.23933295653001
 20
-1274.064742974658
 10
913.22150799449014
 20
-1273.9852013879404
 42
0.0240764468009222
 10
913.13061062834311
 20
-1273.6549643524372
 10
913.11205186553013
 20
-1273.5983441874446
 42
0.0256812331836272
 10
912.968688945341
 20
-1273.2266199811882
 10
912.96327951951923
 20
-1273.2144886461977
 42
0.0268360501212235
 10
912.79385227866965
 20
-1272.8834955121774
 10
912.78831587103411
 20
-1272.8739758418644
 42
0.0274670231731296
 10
912.59611489462122
 20
-1272.581688466948
 10
912.59073359465833
 20
-1272.5744093194062
 42
0.0275035967101002
 10
912.37916071509676
 20
-1272.3188934291024
 10
912.37409121413009
 20
-1272.3134143414718
 42
0.0269557673529378
 10
912.14668767069065
 20
-1272.0927720555096
 10
912.14194461290833
 20
-1272.0886421010491
 42
0.0259124802210078
 10
911.90238978147727
 20
-1271.9009515738967
 10
911.89785893629505
 20
-1271.8977660715661
 42
0.0245162153002886
 10
911.64994258320064
 20
-1271.7410330624557
 10
911.64541603687815
 20
-1271.7384728652557
 42
0.0229282588829592
 10
911.39299648004908
 20
-1271.6106046727559
 10
911.38821598621109
 20
-1271.6084523729935
 42
0.0212984135693904
 10
911.13517803375066
 20
-1271.5072534557517
 10
911.12987374878037
 20
-1271.5053898929914
 42
0.0197555462339784
 10
910.88009541105816
 20
-1271.4285744750268
 42
0.0183511896786855
 10
910.6251666855926
 20
-1271.3709915680611
 10
910.53880148887242
 20
-1271.3547887776765
 42
0.0338057877147859
 10
910.25329413961163
 20
-1271.3209803725363
 10
910.16228873457567
 20
-1271.316400717275
 42
0.009199052448828
 10
910.05644162593569
 20
-1271.3130248613527
 42
0.002833398077469
 10
909.95052770995073
 20
-1271.3121967538359
 10
909.94961225689349
 20
-1271.3121947840118
 42
-0.0023619827799722
 10
909.84186624176084
 20
-1271.3114539429332
 10
909.80546107161172
 20
-1271.3110316364705
 42
0.000882459848231
 10
909.62490508175199
 20
-1271.3092558582321
 10
909.58104364935582
 20
-1271.3089018967066
 42
0.0038132665768092
 10
909.3127607534916
 20
-1271.3087829606397
 10
909.29622709868352
 20
-1271.3089017267835
 42
0.0060665569335579
 10
908.99494660709752
 20
-1271.3147220262042
 10
908.98069627506686
 20
-1271.3151703341719
 42
0.0080356953336903
 10
908.65123755872401
 20
-1271.3308380562389
 10
908.63916754364038
 20
-1271.3316066391792
 42
0.0098996399106296
 10
908.28640445898748
 20
-1271.3610918683776
 10
908.27635874961481
 20
-1271.3621321645755
 42
0.0117740981366749
 10
907.90520189126744
 20
-1271.4094244121052
 10
907.89697919478351
 20
-1271.4106695286762
 42
0.0137435215134368
 10
907.51239037529638
 20
-1271.4797665022381
 10
907.50573333617513
 20
-1271.4811523984713
 42
0.0158359869385322
 10
907.11273624237276
 20
-1271.5760444869522
 10
907.1073230555055
 20
-1271.5775344278227
 42
0.0180554124026657
 10
906.71100801089426
 20
-1271.7021724440608
 10
906.70645122280962
 20
-1271.7037884803276
 42
0.0203657431281481
 10
906.31197370499922
 20
-1271.862048821843
 10
906.30783016599094
 20
-1271.8639104432855
 42
0.0226819684656461
 10
905.92039410978805
 20
-1272.0595530219559
 10
905.91619431876916
 20
-1272.0619186138761
 42
0.024863498460372
 10
905.5410123775888
 20
-1272.2985452598227
 10
905.49281744880352
 20
-1272.3324023016494
 42
0.0267044190884362
 10
905.21852475188746
 20
-1272.5478426775171
 42
0.0139303002197491
 10
904.9623575859506
 20
-1272.7850815184274
 10
904.95750420022773
 20
-1272.7898341812893
 42
0.0283460963440539
 10
904.71343160599974
 20
-1273.0575648417353
 10
904.67376310084398
 20
-1273.1063664192075
 42
0.0070695364826295
 10
904.59632587498413
 20
-1273.2044332351729
 42
0.0070695364826295
  0
LWPOLYLINE
  5
59
100
AcDbEntity
  8
0
370
              15
390
0
  6
Continuous
 62
               7
100
AcDbPolyline
 90
      226
 70
             128
 10
901.06750543773774
 20
-1288.9260220413569
 42
-0.002627763661828
 10
901.06742755393759
 20
-1288.8592501156304
 10
901.06764491216973
 20
-1288.8060948981706
 42
-0.0088680296734841
 10
901.07142152846279
 20
-1288.6330791157691
 10
901.07376788757529
 20
-1288.573799090314
 42
-0.0077381705619791
 10
901.08981399833795
 20
-1288.2825385945214
 10
901.09068190951143
 20
-1288.2702503608307
 42
-0.0068872530528821
 10
901.11731398925917
 20
-1287.9550286087658
 10
901.11851821344567
 20
-1287.9427876297432
 42
-0.0062130021492257
 10
901.15611193027325
 20
-1287.603917938507
 10
901.15761583380868
 20
-1287.591744066588
 42
-0.0056726929670023
 10
901.20653769330966
 20
-1287.2295488444827
 10
901.20831113895531
 20
-1287.2174550442292
 42
-0.0052341884496611
 10
901.26892172521582
 20
-1286.8322617887084
 10
901.27093971399199
 20
-1286.8202568587189
 42
-0.0049768450166527
 10
901.34367839541801
 20
-1286.4124122912876
 10
901.36792741014006
 20
-1286.2838643082805
 42
-0.0089029805625749
 10
901.50500826193593
 20
-1285.6220888608527
 10
901.53775363725333
 20
-1285.4770574303345
 42
-0.0080318257100698
 10
901.76730225159554
 20
-1284.5313477984751
 10
901.7792871780423
 20
-1284.4852171632906
 42
-0.0074265721316628
 10
902.06329871689354
 20
-1283.4551525849054
 10
902.08317826000746
 20
-1283.3870185243254
 42
-0.0069711922702056
 10
902.41048283851558
 20
-1282.3207507839929
 10
902.47043478562125
 20
-1282.1347294256218
 42
-0.0052070422895317
 10
902.69986001088046
 20
-1281.4474573485909
 10
902.71714120304114
 20
-1281.3974300680072
 42
-0.0009167004451345
 10
902.92023309034198
 20
-1280.8129742198198
 42
-0.002516272694178
 10
903.12733072061008
 20
-1280.2299329556417
 10
903.16455533240139
 20
-1280.1267834097755
 42
-0.0028212681457336
 10
903.41273125137309
 20
-1279.4510527775806
 10
903.42256201412442
 20
-1279.4247453329021
 42
-0.0031964916819808
 10
903.65885427178614
 20
-1278.8045405707769
 10
903.66848872578657
 20
-1278.77973058063
 42
-0.0036281836450875
 10
903.89359468688633
 20
-1278.2122898997404
 10
903.90303309703802
 20
-1278.1889924682516
 42
-0.0041269166835439
 10
904.11765079370298
 20
-1277.6715515722594
 10
904.15028375013048
 20
-1277.5946731258825
 42
-0.004747221305617
 10
904.30732855567737
 20
-1277.234251658015
 10
904.31422263687296
 20
-1277.2188310607112
 42
-0.0025651659999751
 10
904.46258067073575
 20
-1276.8915030049345
 42
-0.0057144634993287
 10
904.61633036451383
 20
-1276.5666933315583
 10
904.6443610699115
 20
-1276.5091849491712
 42
-0.0065388068371175
 10
904.82782809764808
 20
-1276.1449524525128
 10
904.83628655341829
 20
-1276.1286928731593
 42
-0.0074510843026147
 10
905.01246879930443
 20
-1275.8020045920207
 10
905.02064846983239
 20
-1275.7873638147573
 42
-0.0084648979861289
 10
905.19028232293545
 20
-1275.4954548037906
 10
905.19813844942382
 20
-1275.4824478121393
 42
-0.0095638542807547
 10
905.36197389701783
 20
-1275.2225589401612
 10
905.36944884068498
 20
-1275.2111895787129
 42
-0.0107191626807951
 10
905.52825042107713
 20
-1274.9805783441616
 10
905.53526715480803
 20
-1274.9708422517972
 42
-0.0118458573903916
 10
905.68981525332072
 20
-1274.7667700564864
 42
-0.0129184518191914
 10
905.85426787692325
 20
-1274.570609540315
 10
905.88441264928463
 20
-1274.5364834614172
 42
-0.0217742579637919
 10
906.06102497162078
 20
-1274.3532766911662
 10
906.07177051608096
 20
-1274.3430598579635
 42
-0.009726656865047
 10
906.23782813493676
 20
-1274.1912122835261
 42
-0.0187720905723319
 10
906.4121757108245
 20
-1274.0491434301382
 10
906.44288170149468
 20
-1274.025984347745
 42
-0.0179428207521487
 10
906.67530242149667
 20
-1273.863432170629
 10
906.67895474841396
 20
-1273.8610682357403
 42
-0.0170047877698121
 10
906.91471838594282
 20
-1273.7196077215899
 10
906.91850137468668
 20
-1273.717509416555
 42
-0.0160190788370492
 10
907.15540992232468
 20
-1273.5958581145655
 42
-0.0151102861494806
 10
907.39944170477133
 20
-1273.4891753385109
 10
907.45182820698312
 20
-1273.4681352056161
 42
-0.0271945441887161
 10
907.81049076604177
 20
-1273.3462703949101
 10
907.87955556653117
 20
-1273.3269208536433
 42
-0.0237596594018014
 10
908.29535241355188
 20
-1273.2314701416622
 10
908.36341526728143
 20
-1273.2192154535355
 42
-0.0213715440551938
 10
908.64929019872761
 20
-1273.1802684220256
 10
908.70943736494951
 20
-1273.1746787073243
 42
-0.0101465655813115
 10
908.87692989693983
 20
-1273.1625351640605
 10
908.88627028313567
 20
-1273.1620482490634
 42
-0.0100375910880512
 10
909.03542438370062
 20
-1273.1572724311382
 10
909.04568365338355
 20
-1273.1571499921238
 42
-0.0103625633381448
 10
909.17439164803591
 20
-1273.1582814256503
 10
909.19665729930955
 20
-1273.1589387841154
 42
-0.0115689250219177
 10
909.28070803683067
 20
-1273.1633682903603
 42
-0.0072438037430131
 10
909.364546316271
 20
-1273.1709574901099
 10
909.38134682574264
 20
-1273.1727240328339
 42
-0.0217917313136368
 10
909.49791658905644
 20
-1273.190143925555
 10
909.56351667962599
 20
-1273.20289053397
 42
-0.0332943556748368
 10
909.7679088446514
 20
-1273.2569308252764
 10
909.79808141320268
 20
-1273.2670989023952
 42
-0.0184824084790378
 10
909.93658646966674
 20
-1273.3195499177814
 42
-0.0198002050691055
 10
910.07066081016717
 20
-1273.3824339779815
 10
910.072547447543
 20
-1273.3834117648607
 42
-0.0212242342991324
 10
910.2046863899435
 20
-1273.459174503653
 10
910.20650168548855
 20
-1273.4603203058623
 42
-0.0226090605801857
 10
910.33500558670914
 20
-1273.549799949426
 10
910.33685002844754
 20
-1273.5512122024143
 42
-0.0238457052251052
 10
910.46003210974015
 20
-1273.6552080982763
 10
910.4619848382996
 20
-1273.6570229760428
 42
-0.0248160564155601
 10
910.57818634559931
 20
-1273.7762975772503
 10
910.58028997900237
 20
-1273.7786829109559
 42
-0.0254109591452879
 10
910.68789519686959
 20
-1273.913971296922
 10
910.6901432187824
 20
-1273.9171128453208
 42
-0.0255528488296913
 10
910.78758989757978
 20
-1274.0691398995557
 10
910.78992099749553
 20
-1274.0732215111625
 42
-0.0252146793226954
 10
910.87570202350457
 20
-1274.2427237571592
 10
910.87800426266233
 20
-1274.2479058390725
 42
-0.0244265635950346
 10
910.95065895642335
 20
-1274.4356524111174
 10
910.95990535789224
 20
-1274.463517829457
 42
-0.0231319612908046
 10
911.00582813688425
 20
-1274.6268188762585
 42
-0.011213042436201
 10
911.04046415942344
 20
-1274.7930224764521
 10
911.0416666845349
 20
-1274.7995190633346
 42
-0.0210527881231928
 10
911.06735315990613
 20
-1274.980574708778
 10
911.07086375472772
 20
-1275.015980257323
 42
-0.0190029892415525
 10
911.08630522827229
 20
-1275.2695161035974
 10
911.08711520471627
 20
-1275.3049917179642
 42
-0.0137974553663873
 10
911.08556635188097
 20
-1275.6300231246887
 10
911.08472089692543
 20
-1275.6561418692838
 42
-0.0081336634216233
 10
911.06986156170262
 20
-1275.9614893368898
 42
-0.0073526923574301
 10
911.04555302832898
 20
-1276.2662375811647
 10
911.04429160454526
 20
-1276.279574255841
 42
-0.0066886138697255
 10
911.00855601849912
 20
-1276.6101602993358
 10
911.00689892902892
 20
-1276.6237819183298
 42
-0.0061359187352192
 10
910.95904832697715
 20
-1276.9805458984354
 10
910.95701082590517
 20
-1276.994440701259
 42
-0.0056698610062103
 10
910.89636049513888
 20
-1277.377719270092
 10
910.89395506181495
 20
-1277.3918783893278
 42
-0.0052721077274364
 10
910.81982286101447
 20
-1277.80200572901
 10
910.81705971217366
 20
-1277.8164223643917
 42
-0.0049289272178629
 10
910.72876559407871
 20
-1278.2537308754902
 10
910.72565309939114
 20
-1278.2683997283298
 42
-0.0047415956711952
 10
910.6224151078635
 20
-1278.7331964857196
 10
910.58764689749898
 20
-1278.8830035811236
 42
-0.0084404470901134
 10
910.39763045392829
 20
-1279.6432276056505
 10
910.39150376594148
 20
-1279.6660917298082
 42
-0.003963594025752
 10
910.17005008165802
 20
-1280.4670805940534
 10
910.15667328647794
 20
-1280.5140122106473
 42
-0.0072475040836284
 10
909.889226398613
 20
-1281.4032319270436
 10
909.81901407178748
 20
-1281.6249722770096
 42
-0.0051345458829113
 10
909.53225469972858
 20
-1282.4992974648208
 10
909.51072843295663
 20
-1282.5627237319638
 42
-0.0019150016601598
 10
909.25519502609438
 20
-1283.3062728521768
 10
909.24872742169657
 20
-1283.3248603171025
 42
-0.0021524362751946
 10
909.00024937063426
 20
-1284.0291861388064
 10
908.99103894995028
 20
-1284.054939717073
 42
-0.0024331286823037
 10
908.75478369090183
 20
-1284.7055390252258
 10
908.74573573835505
 20
-1284.73008233157
 42
-0.0027449721791129
 10
908.52112116751596
 20
-1285.3292122105047
 10
908.51223116011431
 20
-1285.3525348003816
 42
-0.0031083229767217
 10
908.29868867351377
 20
-1285.9024588379366
 10
908.2899525418411
 20
-1285.9245485537872
 42
-0.0035311343283151
 10
908.08691135624645
 20
-1286.4275316795245
 10
908.07832601710174
 20
-1286.4483744030276
 42
-0.0040245640948463
 10
907.88521421330427
 20
-1286.9066837256273
 10
907.87677809969819
 20
-1286.9262630937062
 42
-0.0046015135851402
 10
907.69302180653744
 20
-1287.3421681233415
 10
907.68473562870793
 20
-1287.3604652627962
 42
-0.0052768638270841
 10
907.50975810975365
 20
-1287.7362381470639
 10
907.50162589913236
 20
-1287.7532314855953
 42
-0.0060672675638908
 10
907.33484628636074
 20
-1288.0911471087213
 10
907.32687680587628
 20
-1288.1068123677244
 42
-0.0069904648869141
 10
907.16770841187758
 20
-1288.4091481743822
 10
907.15991701227199
 20
-1288.4234587235999
 42
-0.0080637022775539
 10
907.00776515192092
 20
-1288.6924940267627
 10
907.00017611929138
 20
-1288.7054218923606
 42
-0.0093006455668454
 10
906.85443544275824
 20
-1288.9434362908664
 10
906.84708477601271
 20
-1288.9549542600425
 42
-0.010706077805079
 10
906.7071362325762
 20
-1289.1642245774187
 10
906.70007446429543
 20
-1289.1743101199863
 42
-0.0122723111414532
 10
906.56528074609832
 20
-1289.3571034494735
 10
906.5649545225441
 20
-1289.3575238372832
 42
-0.0141836319632481
 10
906.42137291957033
 20
-1289.5320935951127
 10
906.41442516391976
 20
-1289.5400685953757
 42
-0.017595747720518
 10
906.27451899588368
 20
-1289.6896894837823
 42
-0.0080466359673644
 10
906.12705523085378
 20
-1289.8320120119331
 10
906.08102068633593
 20
-1289.8750324500247
 42
-0.0269600260399761
 10
905.82774044035671
 20
-1290.0873557085313
 10
905.76117330405839
 20
-1290.137307123156
 42
-0.0178362839755629
 10
905.52122881440016
 20
-1290.3043250494102
 10
905.51398384340041
 20
-1290.3089935616147
 42
-0.0174650732647333
 10
905.2776476459585
 20
-1290.4498545265742
 42
-0.0169240130163476
 10
905.0321814001021
 20
-1290.5741467863511
 10
904.98619524454284
 20
-1290.5955087419188
 42
-0.031888303684346
 10
904.63584438892474
 20
-1290.7318470514283
 10
904.56747885375796
 20
-1290.7535476719045
 42
-0.0284435909902207
 10
904.19142872746716
 20
-1290.849765107379
 10
904.15627056696678
 20
-1290.8566587032078
 42
-0.0243909341013675
 10
903.84282710604964
 20
-1290.9023797342377
 10
903.79254637928261
 20
-1290.9072252811391
 42
-0.0196639292931739
 10
903.57695080175131
 20
-1290.9194735666529
 10
903.52512673058641
 20
-1290.9203768273896
 42
-0.010050151068195
 10
903.41270344892359
 20
-1290.9200764290365
 10
903.38104358754561
 20
-1290.9193553571504
 42
-0.001975203110131
 10
903.3319512508981
 20
-1290.9180431969417
 10
903.32919094768545
 20
-1290.9179585051156
 42
0.0065378751989588
 10
903.28561437292115
 20
-1290.9171916139003
 42
-0.0167974694654686
 10
903.24208354998871
 20
-1290.9155317153741
 10
903.23800421072724
 20
-1290.9152387044792
 42
-0.0081283276299983
 10
903.18644441299102
 20
-1290.9106917108415
 10
903.17470483911029
 20
-1290.9094637932631
 42
-0.0126703440171942
 10
903.09998654331355
 20
-1290.8997290021912
 10
903.07719867563992
 20
-1290.8961707462763
 42
-0.0117852088433778
 10
902.95765968980754
 20
-1290.8746077511191
 10
902.90227923804457
 20
-1290.8632642108846
 42
-0.0251774592294933
 10
902.67543519903813
 20
-1290.8047662014521
 10
902.63071600918374
 20
-1290.7907993821159
 42
-0.014652519987977
 10
902.44432302164716
 20
-1290.7265328549183
 42
-0.0166929435849291
 10
902.26234536551942
 20
-1290.6507257218632
 10
902.25768873424727
 20
-1290.6486008212496
 42
-0.0191684358440132
 10
902.07250510300094
 20
-1290.5553647374611
 10
902.06917251724121
 20
-1290.5535234899062
 42
-0.0221181781817596
 10
901.8858622133389
 20
-1290.4413899915355
 10
901.88351240933048
 20
-1290.4398056935445
 42
-0.0254984685380171
 10
901.70722225894519
 20
-1290.3073945435749
 10
901.6847401112434
 20
-1290.2886422346387
 42
-0.0292492648805348
 10
901.5599711724002
 20
-1290.1715494349955
 42
-0.0159048957504237
 10
901.44613117495214
 20
-1290.0435294433989
 10
901.44481238437083
 20
-1290.0419478303766
 42
-0.0343813379563006
 10
901.34217512274495
 20
-1289.9000765046078
 10
901.31068359138396
 20
-1289.8495731125133
 42
-0.0369117275705285
 10
901.22479108948642
 20
-1289.6860958715645
 42
-0.0191751379917656
 10
901.15759770393004
 20
-1289.5136912655605
 10
901.15583438016984
 20
-1289.5085979208836
 42
-0.0378178042234402
 10
901.10603966138569
 20
-1289.3196571448018
 10
901.10004436565464
 20
-1289.2870965266004
 42
-0.0184846046474123
 10
901.07932716636105
 20
-1289.1453437060604
 42
-0.017986635132436
 10
901.06899416128726
 20
-1289.0024528929791
 10
901.06893771884154
 20
-1289.0008952063667
 42
-0.0085497186109164
 10
901.06750543773774
 20
-1288.9260220413569
 42
-0.0085497186109164
  0
ENDBLK
  5
5A
100
AcDbEntity
  8
template
390
0
100
AcDbBlockEnd
  0
BLOCK
  5
5B
100
AcDbEntity
  8
notes
390
0
100
AcDbBlockBegin
  2
*D3
 70
               1
 10
0.0
 20
0.0
 30
0.0
  3
*D3
  1

  0
LINE
  5
5C
100
AcDbEntity
  8
0
370
              -2
390
0
  6
Continuous
 62
               0
100
AcDbLine
 10
-771.2862523756271
 20
745.42672379103556
 30
0.0
 11
-846.2862523756271
 21
745.42672379103556
 31
0.0
  0
LINE
  5
5D
100
AcDbEntity
  8
0
370
              -2
390
0
  6
Continuous
 62
               0
100
AcDbLine
 10
-766.2862523756271
 20
845.42672379103556
 30
0.0
 11
-846.2862523756271
 21
845.42672379103556
 31
0.0
  0
LINE
  5
5E
100
AcDbEntity
  8
0
370
              -2
390
0
  6
Continuous
 62
               0
100
AcDbLine
 10
-846.2862523756271
 20
745.42672379103556
 30
0.0
 11
-846.2862523756271
 21
845.42672379103556
 31
0.0
  0
CIRCLE
  5
5F
102
{ACAD_REACTORS
330
60
102
}
100
AcDbEntity
  8
0
370
              -2
390
0
  6
Continuous
 62
               0
100
AcDbCircle
 10
-846.2862523756271
 20
745.42672379103556
 30
0.0
 40
4.99969482421875
  0
HATCH
  5
60
100
AcDbEntity
  8
0
370
              -2
390
0
  6
Continuous
 62
               0
100
AcDbHatch
 10
0.0
 20
0.0
 30
0.0
210
0.0
220
0.0
230
1.0
  2
SOLID
 70
               1
 71
               1
 91
        1
 92
        1
 93
        1
 72
               2
 10
-846.2862523756271
 20
745.42672379103556
 40
4.99969482421875
 50
0.0
 51
360.0
 73
               0
 97
        1
330
5F
 75
               0
 76
               1
 98
        1
 10
0.0
 20
0.0
  0
CIRCLE
  5
61
102
{ACAD_REACTORS
330
62
102
}
100
AcDbEntity
  8
0
370
              -2
390
0
  6
Continuous
 62
               0
100
AcDbCircle
 10
-846.2862523756271
 20
845.42672379103556
 30
0.0
 40
4.99969482421875
  0
HATCH
  5
62
100
AcDbEntity
  8
0
370
              -2
390
0
  6
Continuous
 62
               0
100
AcDbHatch
 10
0.0
 20
0.0
 30
0.0
210
0.0
220
0.0
230
1.0
  2
SOLID
 70
               1
 71
               1
 91
        1
 92
        1
 93
        1
 72
               2
 10
-846.2862523756271
 20
845.42672379103556
 40
4.99969482421875
 50
0.0
 51
360.0
 73
               0
 97
        1
330
61
 75
               0
 76
               1
 98
        1
 10
0.0
 20
0.0
  0
MTEXT
  5
63
100
AcDbEntity
  8
0
390
0
 62
               0
100
AcDbMText
 10
-880.16386956312715
 20
771.61422210886008
 30
0.0
 40
24.432617187500004
 41
0.0
 71
               1
 72
               1
  1
100
  7
ＭＳ ゴシック
 11
0.0
 21
1.0
 31
0.0
 73
               1
 44
0.7828267384257843
  0
POINT
  5
64
100
AcDbEntity
  8
Defpoints
370
               0
390
0
 62
               0
100
AcDbPoint
 10
-741.2862523756271
 20
845.42672379103556
 30
0.0
  0
POINT
  5
65
100
AcDbEntity
  8
Defpoints
370
               0
390
0
 62
               0
100
AcDbPoint
 10
-746.2862523756271
 20
745.42672379103556
 30
0.0
  0
POINT
  5
66
100
AcDbEntity
  8
Defpoints
370
               0
390
0
 62
               0
100
AcDbPoint
 10
-846.2862523756271
 20
745.42672379103556
 30
0.0
  0
ENDBLK
  5
67
100
AcDbEntity
  8
notes
390
0
100
AcDbBlockEnd
  0
BLOCK
  5
68
100
AcDbEntity
  8
notes
390
0
100
AcDbBlockBegin
  2
*D4
 70
               1
 10
0.0
 20
0.0
 30
0.0
  3
*D4
  1

  0
LINE
  5
69
100
AcDbEntity
  8
0
370
              -2
390
0
  6
Continuous
 62
               0
100
AcDbLine
 10
-771.2862523756271
 20
745.42672379103556
 30
0.0
 11
-846.2862523756271
 21
745.42672379103556
 31
0.0
  0
LINE
  5
6A
100
AcDbEntity
  8
0
370
              -2
390
0
  6
Continuous
 62
               0
100
AcDbLine
 10
-771.2862523756271
 20
485.4267237945424
 30
0.0
 11
-846.2862523756271
 21
485.4267237945424
 31
0.0
  0
LINE
  5
6B
100
AcDbEntity
  8
0
370
              -2
390
0
  6
Continuous
 62
               0
100
AcDbLine
 10
-846.2862523756271
 20
745.42672379103556
 30
0.0
 11
-846.2862523756271
 21
485.4267237945424
 31
0.0
  0
CIRCLE
  5
6C
102
{ACAD_REACTORS
330
6D
102
}
100
AcDbEntity
  8
0
370
              -2
390
0
  6
Continuous
 62
               0
100
AcDbCircle
 10
-846.2862523756271
 20
745.42672379103556
 30
0.0
 40
4.99969482421875
  0
HATCH
  5
6D
100
AcDbEntity
  8
0
370
              -2
390
0
  6
Continuous
 62
               0
100
AcDbHatch
 10
0.0
 20
0.0
 30
0.0
210
0.0
220
0.0
230
1.0
  2
SOLID
 70
               1
 71
               1
 91
        1
 92
        1
 93
        1
 72
               2
 10
-846.2862523756271
 20
745.42672379103556
 40
4.99969482421875
 50
0.0
 51
360.0
 73
               0
 97
        1
330
6C
 75
               0
 76
               1
 98
        1
 10
0.0
 20
0.0
  0
CIRCLE
  5
6E
102
{ACAD_REACTORS
330
6F
102
}
100
AcDbEntity
  8
0
370
              -2
390
0
  6
Continuous
 62
               0
100
AcDbCircle
 10
-846.2862523756271
 20
485.4267237945424
 30
0.0
 40
4.99969482421875
  0
HATCH
  5
6F
100
AcDbEntity
  8
0
370
              -2
390
0
  6
Continuous
 62
               0
100
AcDbHatch
 10
0.0
 20
0.0
 30
0.0
210
0.0
220
0.0
230
1.0
  2
SOLID
 70
               1
 71
               1
 91
        1
 92
        1
 93
        1
 72
               2
 10
-846.2862523756271
 20
485.4267237945424
 40
4.99969482421875
 50
0.0
 51
360.0
 73
               0
 97
        1
330
6E
 75
               0
 76
               1
 98
        1
 10
0.0
 20
0.0
  0
MTEXT
  5
70
100
AcDbEntity
  8
0
390
0
 62
               0
100
AcDbMText
 10
-880.16386956312715
 20
591.61422211061347
 30
0.0
 40
24.432617187500004
 41
0.0
 71
               1
 72
               1
  1
260
  7
ＭＳ ゴシック
 11
0.0
 21
1.0
 31
0.0
 73
               1
 44
0.7828267384257843
  0
POINT
  5
71
100
AcDbEntity
  8
Defpoints
370
               0
390
0
 62
               0
100
AcDbPoint
 10
-746.2862523756271
 20
485.4267237945424
 30
0.0
  0
POINT
  5
72
100
AcDbEntity
  8
Defpoints
370
               0
390
0
 62
               0
100
AcDbPoint
 10
-746.2862523756271
 20
745.42672379103556
 30
0.0
  0
POINT
  5
73
100
AcDbEntity
  8
Defpoints
370
               0
390
0
 62
               0
100
AcDbPoint
 10
-846.2862523756271
 20
745.42672379103556
 30
0.0
  0
ENDBLK
  5
74
100
AcDbEntity
  8
notes
390
0
100
AcDbBlockEnd
  0
BLOCK
  5
75
100
AcDbEntity
  8
notes
390
0
100
AcDbBlockBegin
  2
*D5
 70
               1
 10
0.0
 20
0.0
 30
0.0
  3
*D5
  1

  0
LINE
  5
76
100
AcDbEntity
  8
0
370
              -2
390
0
  6
Continuous
 62
               0
100
AcDbLine
 10
-141.2862523756273
 20
845.42672379103556
 30
0.0
 11
-61.286252375627299
 21
845.42672379103556
 31
0.0
  0
LINE
  5
77
100
AcDbEntity
  8
0
370
              -2
390
0
  6
Continuous
 62
               0
100
AcDbLine
 10
-141.2862523756273
 20
440.42672379103607
 30
0.0
 11
-61.286252375627299
 21
440.42672379103607
 31
0.0
  0
LINE
  5
78
100
AcDbEntity
  8
0
370
              -2
390
0
  6
Continuous
 62
               0
100
AcDbLine
 10
-61.286252375627299
 20
845.42672379103556
 30
0.0
 11
-61.286252375627299
 21
440.42672379103607
 31
0.0
  0
CIRCLE
  5
79
102
{ACAD_REACTORS
330
7A
102
}
100
AcDbEntity
  8
0
370
              -2
390
0
  6
Continuous
 62
               0
100
AcDbCircle
 10
-61.286252375627299
 20
845.42672379103556
 30
0.0
 40
4.99969482421875
  0
HATCH
  5
7A
100
AcDbEntity
  8
0
370
              -2
390
0
  6
Continuous
 62
               0
100
AcDbHatch
 10
0.0
 20
0.0
 30
0.0
210
0.0
220
0.0
230
1.0
  2
SOLID
 70
               1
 71
               1
 91
        1
 92
        1
 93
        1
 72
               2
 10
-61.286252375627299
 20
845.42672379103556
 40
4.99969482421875
 50
0.0
 51
360.0
 73
               0
 97
        1
330
79
 75
               0
 76
               1
 98
        1
 10
0.0
 20
0.0
  0
CIRCLE
  5
7B
102
{ACAD_REACTORS
330
7C
102
}
100
AcDbEntity
  8
0
370
              -2
390
0
  6
Continuous
 62
               0
100
AcDbCircle
 10
-61.286252375627299
 20
440.42672379103607
 30
0.0
 40
4.99969482421875
  0
HATCH
  5
7C
100
AcDbEntity
  8
0
370
              -2
390
0
  6
Continuous
 62
               0
100
AcDbHatch
 10
0.0
 20
0.0
 30
0.0
210
0.0
220
0.0
230
1.0
  2
SOLID
 70
               1
 71
               1
 91
        1
 92
        1
 93
        1
 72
               2
 10
-61.286252375627299
 20
440.42672379103607
 40
4.99969482421875
 50
0.0
 51
360.0
 73
               0
 97
        1
330
7B
 75
               0
 76
               1
 98
        1
 10
0.0
 20
0.0
  0
MTEXT
  5
7D
100
AcDbEntity
  8
0
390
0
 62
               0
100
AcDbMText
 10
-95.163869563127307
 20
619.1142221088603
 30
0.0
 40
24.432617187500004
 41
0.0
 71
               1
 72
               1
  1
405
  7
ＭＳ ゴシック
 11
0.0
 21
1.0
 31
0.0
 73
               1
 44
0.7828267384257843
  0
POINT
  5
7E
100
AcDbEntity
  8
Defpoints
370
               0
390
0
 62
               0
100
AcDbPoint
 10
-166.2862523756273
 20
440.42672379103607
 30
0.0
  0
POINT
  5
7F
100
AcDbEntity
  8
Defpoints
370
               0
390
0
 62
               0
100
AcDbPoint
 10
-166.2862523756273
 20
845.42672379103556
 30
0.0
  0
POINT
  5
80
100
AcDbEntity
  8
Defpoints
370
               0
390
0
 62
               0
100
AcDbPoint
 10
-61.286252375627299
 20
845.42672379103556
 30
0.0
  0
ENDBLK
  5
81
100
AcDbEntity
  8
notes
390
0
100
AcDbBlockEnd
  0
BLOCK
  5
82
100
AcDbEntity
  8
notes
390
0
100
AcDbBlockBegin
  2
*D6
 70
               1
 10
0.0
 20
0.0
 30
0.0
  3
*D6
  1

  0
LINE
  5
83
100
AcDbEntity
  8
0
370
              -2
390
0
  6
Continuous
 62
               0
100
AcDbLine
 10
-139.79115372808562
 20
-285.0
 30
0.0
 11
-40.0
 21
-285.0
 31
0.0
  0
LINE
  5
84
100
AcDbEntity
  8
0
370
              -2
390
0
  6
Continuous
 62
               0
100
AcDbLine
 10
-391.29115372808553
 20
-465.0
 30
0.0
 11
-40.000000000000028
 21
-465.0
 31
0.0
  0
LINE
  5
85
100
AcDbEntity
  8
0
370
              -2
390
0
  6
Continuous
 62
               0
100
AcDbLine
 10
-40.0
 20
-285.0
 30
0.0
 11
-40.000000000000028
 21
-465.0
 31
0.0
  0
CIRCLE
  5
86
102
{ACAD_REACTORS
330
87
102
}
100
AcDbEntity
  8
0
370
              -2
390
0
  6
Continuous
 62
               0
100
AcDbCircle
 10
-40.0
 20
-285.0
 30
0.0
 40
4.99969482421875
  0
HATCH
  5
87
100
AcDbEntity
  8
0
370
              -2
390
0
  6
Continuous
 62
               0
100
AcDbHatch
 10
0.0
 20
0.0
 30
0.0
210
0.0
220
0.0
230
1.0
  2
SOLID
 70
               1
 71
               1
 91
        1
 92
        1
 93
        1
 72
               2
 10
-40.0
 20
-285.0
 40
4.99969482421875
 50
0.0
 51
360.0
 73
               0
 97
        1
330
86
 75
               0
 76
               1
 98
        1
 10
0.0
 20
0.0
  0
CIRCLE
  5
88
102
{ACAD_REACTORS
330
89
102
}
100
AcDbEntity
  8
0
370
              -2
390
0
  6
Continuous
 62
               0
100
AcDbCircle
 10
-40.000000000000028
 20
-465.0
 30
0.0
 40
4.99969482421875
  0
HATCH
  5
89
100
AcDbEntity
  8
0
370
              -2
390
0
  6
Continuous
 62
               0
100
AcDbHatch
 10
0.0
 20
0.0
 30
0.0
210
0.0
220
0.0
230
1.0
  2
SOLID
 70
               1
 71
               1
 91
        1
 92
        1
 93
        1
 72
               2
 10
-40.000000000000028
 20
-465.0
 40
4.99969482421875
 50
0.0
 51
360.0
 73
               0
 97
        1
330
88
 75
               0
 76
               1
 98
        1
 10
0.0
 20
0.0
  0
MTEXT
  5
8A
100
AcDbEntity
  8
0
390
0
 62
               0
100
AcDbMText
 10
-73.877617187500007
 20
-406.76163250248567
 30
0.0
 40
24.432617187500004
 41
0.0
 71
               1
 72
               1
  1
180
  7
ＭＳ ゴシック
 11
0.0
 21
1.0
 31
0.0
 73
               1
 44
0.7828267384257843
  0
POINT
  5
8B
100
AcDbEntity
  8
Defpoints
370
               0
390
0
 62
               0
100
AcDbPoint
 10
-416.29115372808553
 20
-465.0
 30
0.0
  0
POINT
  5
8C
100
AcDbEntity
  8
Defpoints
370
               0
390
0
 62
               0
100
AcDbPoint
 10
-164.79115372808562
 20
-285.0
 30
0.0
  0
POINT
  5
8D
100
AcDbEntity
  8
Defpoints
370
               0
390
0
 62
               0
100
AcDbPoint
 10
-40.0
 20
-285.0
 30
0.0
  0
ENDBLK
  5
8E
100
AcDbEntity
  8
notes
390
0
100
AcDbBlockEnd
  0
BLOCK
  5
8F
100
AcDbEntity
  8
notes
390
0
100
AcDbBlockBegin
  2
*D7
 70
               1
 10
0.0
 20
0.0
 30
0.0
  3
*D7
  1

  0
LINE
  5
90
100
AcDbEntity
  8
0
370
              -2
390
0
  6
Continuous
 62
               0
100
AcDbLine
 10
-161.2862523756273
 20
870.42672379103556
 30
0.0
 11
-161.2862523756273
 21
945.42672379103556
 31
0.0
  0
LINE
  5
91
100
AcDbEntity
  8
0
370
              -2
390
0
  6
Continuous
 62
               0
100
AcDbLine
 10
-746.2862523756271
 20
870.42672379103556
 30
0.0
 11
-746.2862523756271
 21
945.42672379103556
 31
0.0
  0
LINE
  5
92
100
AcDbEntity
  8
0
370
              -2
390
0
  6
Continuous
 62
               0
100
AcDbLine
 10
-161.2862523756273
 20
945.42672379103556
 30
0.0
 11
-746.2862523756271
 21
945.42672379103556
 31
0.0
  0
CIRCLE
  5
93
102
{ACAD_REACTORS
330
94
102
}
100
AcDbEntity
  8
0
370
              -2
390
0
  6
Continuous
 62
               0
100
AcDbCircle
 10
-161.2862523756273
 20
945.42672379103556
 30
0.0
 40
4.99969482421875
  0
HATCH
  5
94
100
AcDbEntity
  8
0
370
              -2
390
0
  6
Continuous
 62
               0
100
AcDbHatch
 10
0.0
 20
0.0
 30
0.0
210
0.0
220
0.0
230
1.0
  2
SOLID
 70
               1
 71
               1
 91
        1
 92
        1
 93
        1
 72
               2
 10
-161.2862523756273
 20
945.42672379103556
 40
4.99969482421875
 50
0.0
 51
360.0
 73
               0
 97
        1
330
93
 75
               0
 76
               1
 98
        1
 10
0.0
 20
0.0
  0
CIRCLE
  5
95
102
{ACAD_REACTORS
330
96
102
}
100
AcDbEntity
  8
0
370
              -2
390
0
  6
Continuous
 62
               0
100
AcDbCircle
 10
-746.2862523756271
 20
945.42672379103556
 30
0.0
 40
4.99969482421875
  0
HATCH
  5
96
100
AcDbEntity
  8
0
370
              -2
390
0
  6
Continuous
 62
               0
100
AcDbHatch
 10
0.0
 20
0.0
 30
0.0
210
0.0
220
0.0
230
1.0
  2
SOLID
 70
               1
 71
               1
 91
        1
 92
        1
 93
        1
 72
               2
 10
-746.2862523756271
 20
945.42672379103556
 40
4.99969482421875
 50
0.0
 51
360.0
 73
               0
 97
        1
330
95
 75
               0
 76
               1
 98
        1
 10
0.0
 20
0.0
  0
MTEXT
  5
97
100
AcDbEntity
  8
0
390
0
 62
               0
100
AcDbMText
 10
-468.82750072194244
 20
979.30434097853549
 30
0.0
 40
24.432617187500004
 41
0.0
 71
               1
 72
               1
  1
585
  7
ＭＳ ゴシック
 73
               1
 44
0.7828267384257843
  0
POINT
  5
98
100
AcDbEntity
  8
Defpoints
370
               0
390
0
 62
               0
100
AcDbPoint
 10
-746.2862523756271
 20
845.42672379103556
 30
0.0
  0
POINT
  5
99
100
AcDbEntity
  8
Defpoints
370
               0
390
0
 62
               0
100
AcDbPoint
 10
-161.2862523756273
 20
845.42672379103556
 30
0.0
  0
POINT
  5
9A
100
AcDbEntity
  8
Defpoints
370
               0
390
0
 62
               0
100
AcDbPoint
 10
-161.2862523756273
 20
945.42672379103556
 30
0.0
  0
ENDBLK
  5
9B
100
AcDbEntity
  8
notes
390
0
100
AcDbBlockEnd
  0
BLOCK
  5
9C
100
AcDbEntity
  8
notes
390
0
100
AcDbBlockBegin
  2
*D8
 70
               1
 10
0.0
 20
0.0
 30
0.0
  3
*D8
  1

  0
LINE
  5
9D
100
AcDbEntity
  8
0
370
              -2
390
0
  6
Continuous
 62
               0
100
AcDbLine
 10
-441.05833031426982
 20
808.15464585239306
 30
0.0
 11
-369.01499903976696
 21
880.19797712689592
 31
0.0
  0
CIRCLE
  5
9E
102
{ACAD_REACTORS
330
9F
102
}
100
AcDbEntity
  8
0
370
              -2
390
0
  6
Continuous
 62
               0
100
AcDbCircle
 10
-441.05833031426982
 20
808.15464585239306
 30
0.0
 40
4.99969482421875
  0
HATCH
  5
9F
100
AcDbEntity
  8
0
370
              -2
390
0
  6
Continuous
 62
               0
100
AcDbHatch
 10
0.0
 20
0.0
 30
0.0
210
0.0
220
0.0
230
1.0
  2
SOLID
 70
               1
 71
               1
 91
        1
 92
        1
 93
        1
 72
               2
 10
-441.05833031426982
 20
808.15464585239306
 40
4.99969482421875
 50
0.0
 51
360.0
 73
               0
 97
        1
330
9E
 75
               0
 76
               1
 98
        1
 10
0.0
 20
0.0
  0
LINE
  5
A0
100
AcDbEntity
  8
0
370
              -2
390
0
  6
Continuous
 62
               0
100
AcDbLine
 10
-369.01499903976696
 20
880.19797712689592
 30
0.0
 11
-245.51499903976699
 21
880.19797712689592
 31
0.0
  0
MTEXT
  5
A1
100
AcDbEntity
  8
0
390
0
 62
               0
100
AcDbMText
 10
-309.01499903976696
 20
914.07559431439597
 30
0.0
 40
24.432617187500004
 41
0.0
 71
               1
 72
               1
  1
φ36
  7
ＭＳ ゴシック
 73
               1
 44
0.7828267384257843
  0
POINT
  5
A2
100
AcDbEntity
  8
Defpoints
370
               0
390
0
 62
               0
100
AcDbPoint
 10
-466.51417443698483
 20
782.69880172967805
 30
0.0
  0
POINT
  5
A3
100
AcDbEntity
  8
Defpoints
370
               0
390
0
 62
               0
100
AcDbPoint
 10
-441.05833031426982
 20
808.15464585239306
 30
0.0
  0
ENDBLK
  5
A4
100
AcDbEntity
  8
notes
390
0
100
AcDbBlockEnd
  0
BLOCK
  5
A5
100
AcDbEntity
  8
notes
390
0
100
AcDbBlockBegin
  2
*D9
 70
               1
 10
0.0
 20
0.0
 30
0.0
  3
*D9
  1

  0
LINE
  5
A6
100
AcDbEntity
  8
0
370
              -2
390
0
  6
Continuous
 62
               0
100
AcDbLine
 10
665.54224067811549
 20
-263.5
 30
0.0
 11
665.54224067811549
 21
-185.0
 31
0.0
  0
LINE
  5
A7
100
AcDbEntity
  8
0
370
              -2
390
0
  6
Continuous
 62
               0
100
AcDbLine
 10
615.54224067811549
 20
-260.0
 30
0.0
 11
615.54224067811549
 21
-185.0
 31
0.0
  0
LINE
  5
A8
100
AcDbEntity
  8
0
370
              -2
390
0
  6
Continuous
 62
               0
100
AcDbLine
 10
665.54224067811549
 20
-185.0
 30
0.0
 11
615.54224067811549
 21
-185.0
 31
0.0
  0
CIRCLE
  5
A9
102
{ACAD_REACTORS
330
AA
102
}
100
AcDbEntity
  8
0
370
              -2
390
0
  6
Continuous
 62
               0
100
AcDbCircle
 10
665.54224067811549
 20
-185.0
 30
0.0
 40
4.99969482421875
  0
HATCH
  5
AA
100
AcDbEntity
  8
0
370
              -2
390
0
  6
Continuous
 62
               0
100
AcDbHatch
 10
0.0
 20
0.0
 30
0.0
210
0.0
220
0.0
230
1.0
  2
SOLID
 70
               1
 71
               1
 91
        1
 92
        1
 93
        1
 72
               2
 10
665.54224067811549
 20
-185.0
 40
4.99969482421875
 50
0.0
 51
360.0
 73
               0
 97
        1
330
A9
 75
               0
 76
               1
 98
        1
 10
0.0
 20
0.0
  0
CIRCLE
  5
AB
102
{ACAD_REACTORS
330
AC
102
}
100
AcDbEntity
  8
0
370
              -2
390
0
  6
Continuous
 62
               0
100
AcDbCircle
 10
615.54224067811549
 20
-185.0
 30
0.0
 40
4.99969482421875
  0
HATCH
  5
AC
100
AcDbEntity
  8
0
370
              -2
390
0
  6
Continuous
 62
               0
100
AcDbHatch
 10
0.0
 20
0.0
 30
0.0
210
0.0
220
0.0
230
1.0
  2
SOLID
 70
               1
 71
               1
 91
        1
 92
        1
 93
        1
 72
               2
 10
615.54224067811549
 20
-185.0
 40
4.99969482421875
 50
0.0
 51
360.0
 73
               0
 97
        1
330
AB
 75
               0
 76
               1
 98
        1
 10
0.0
 20
0.0
  0
MTEXT
  5
AD
100
AcDbEntity
  8
0
390
0
 62
               0
100
AcDbMText
 10
624.66724067811549
 20
-151.12238281250001
 30
0.0
 40
24.432617187500004
 41
0.0
 71
               1
 72
               1
  1
50
  7
ＭＳ ゴシック
 73
               1
 44
0.7828267384257843
  0
POINT
  5
AE
100
AcDbEntity
  8
Defpoints
370
               0
390
0
 62
               0
100
AcDbPoint
 10
615.54224067811549
 20
-285.0
 30
0.0
  0
POINT
  5
AF
100
AcDbEntity
  8
Defpoints
370
               0
390
0
 62
               0
100
AcDbPoint
 10
665.54224067811549
 20
-288.5
 30
0.0
  0
POINT
  5
B0
100
AcDbEntity
  8
Defpoints
370
               0
390
0
 62
               0
100
AcDbPoint
 10
665.54224067811549
 20
-185.0
 30
0.0
  0
ENDBLK
  5
B1
100
AcDbEntity
  8
notes
390
0
100
AcDbBlockEnd
  0
BLOCK
  5
B2
100
AcDbEntity
  8
notes
390
0
100
AcDbBlockBegin
  2
*D10
 70
               1
 10
0.0
 20
0.0
 30
0.0
  3
*D10
  1

  0
LINE
  5
B3
100
AcDbEntity
  8
0
370
              -2
390
0
  6
Continuous
 62
               0
100
AcDbLine
 10
-703.7862523756271
 20
415.42672379103607
 30
0.0
 11
-703.7862523756271
 21
340.42672379103607
 31
0.0
  0
LINE
  5
B4
100
AcDbEntity
  8
0
370
              -2
390
0
  6
Continuous
 62
               0
100
AcDbLine
 10
-203.78625237562724
 20
415.42672379103607
 30
0.0
 11
-203.78625237562724
 21
340.42672379103607
 31
0.0
  0
LINE
  5
B5
100
AcDbEntity
  8
0
370
              -2
390
0
  6
Continuous
 62
               0
100
AcDbLine
 10
-703.7862523756271
 20
340.42672379103607
 30
0.0
 11
-203.78625237562724
 21
340.42672379103607
 31
0.0
  0
CIRCLE
  5
B6
102
{ACAD_REACTORS
330
B7
102
}
100
AcDbEntity
  8
0
370
              -2
390
0
  6
Continuous
 62
               0
100
AcDbCircle
 10
-703.7862523756271
 20
340.42672379103607
 30
0.0
 40
4.99969482421875
  0
HATCH
  5
B7
100
AcDbEntity
  8
0
370
              -2
390
0
  6
Continuous
 62
               0
100
AcDbHatch
 10
0.0
 20
0.0
 30
0.0
210
0.0
220
0.0
230
1.0
  2
SOLID
 70
               1
 71
               1
 91
        1
 92
        1
 93
        1
 72
               2
 10
-703.7862523756271
 20
340.42672379103607
 40
4.99969482421875
 50
0.0
 51
360.0
 73
               0
 97
        1
330
B6
 75
               0
 76
               1
 98
        1
 10
0.0
 20
0.0
  0
CIRCLE
  5
B8
102
{ACAD_REACTORS
330
B9
102
}
100
AcDbEntity
  8
0
370
              -2
390
0
  6
Continuous
 62
               0
100
AcDbCircle
 10
-203.78625237562724
 20
340.42672379103607
 30
0.0
 40
4.99969482421875
  0
HATCH
  5
B9
100
AcDbEntity
  8
0
370
              -2
390
0
  6
Continuous
 62
               0
100
AcDbHatch
 10
0.0
 20
0.0
 30
0.0
210
0.0
220
0.0
230
1.0
  2
SOLID
 70
               1
 71
               1
 91
        1
 92
        1
 93
        1
 72
               2
 10
-203.78625237562724
 20
340.42672379103607
 40
4.99969482421875
 50
0.0
 51
360.0
 73
               0
 97
        1
330
B8
 75
               0
 76
               1
 98
        1
 10
0.0
 20
0.0
  0
MTEXT
  5
BA
100
AcDbEntity
  8
0
390
0
 62
               0
100
AcDbMText
 10
-477.59875405780269
 20
374.30434097853606
 30
0.0
 40
24.432617187500004
 41
0.0
 71
               1
 72
               1
  1
500
  7
ＭＳ ゴシック
 73
               1
 44
0.7828267384257843
  0
POINT
  5
BB
100
AcDbEntity
  8
Defpoints
370
               0
390
0
 62
               0
100
AcDbPoint
 10
-203.78625237562724
 20
440.42672379103607
 30
0.0
  0
POINT
  5
BC
100
AcDbEntity
  8
Defpoints
370
               0
390
0
 62
               0
100
AcDbPoint
 10
-703.7862523756271
 20
440.42672379103607
 30
0.0
  0
POINT
  5
BD
100
AcDbEntity
  8
Defpoints
370
               0
390
0
 62
               0
100
AcDbPoint
 10
-703.7862523756271
 20
340.42672379103607
 30
0.0
  0
ENDBLK
  5
BE
100
AcDbEntity
  8
notes
390
0
100
AcDbBlockEnd
  0
BLOCK
  5
BF
100
AcDbEntity
  8
notes
390
0
100
AcDbBlockBegin
  2
*D11
 70
               1
 10
0.0
 20
0.0
 30
0.0
  3
*D11
  1

  0
LINE
  5
C0
100
AcDbEntity
  8
0
370
              -2
390
0
  6
Continuous
 62
               0
100
AcDbLine
 10
239.04224067811546
 20
-285.0
 30
0.0
 11
160.54224067811546
 21
-285.0
 31
0.0
  0
LINE
  5
C1
100
AcDbEntity
  8
0
370
              -2
390
0
  6
Continuous
 62
               0
100
AcDbLine
 10
236.29224067811546
 20
-295.0
 30
0.0
 11
160.54224067811546
 21
-295.0
 31
0.0
  0
LINE
  5
C2
100
AcDbEntity
  8
0
370
              -2
390
0
  6
Continuous
 62
               0
100
AcDbLine
 10
160.54224067811546
 20
-285.0
 30
0.0
 11
160.54224067811546
 21
-249.3125
 31
0.0
  0
LINE
  5
C3
100
AcDbEntity
  8
0
370
              -2
390
0
  6
Continuous
 62
               0
100
AcDbLine
 10
160.54224067811546
 20
-285.0
 30
0.0
 11
160.54224067811546
 21
-295.0
 31
0.0
  0
CIRCLE
  5
C4
102
{ACAD_REACTORS
330
C5
102
}
100
AcDbEntity
  8
0
370
              -2
390
0
  6
Continuous
 62
               0
100
AcDbCircle
 10
160.54224067811546
 20
-285.0
 30
0.0
 40
4.99969482421875
  0
HATCH
  5
C5
100
AcDbEntity
  8
0
370
              -2
390
0
  6
Continuous
 62
               0
100
AcDbHatch
 10
0.0
 20
0.0
 30
0.0
210
0.0
220
0.0
230
1.0
  2
SOLID
 70
               1
 71
               1
 91
        1
 92
        1
 93
        1
 72
               2
 10
160.54224067811546
 20
-285.0
 40
4.99969482421875
 50
0.0
 51
360.0
 73
               0
 97
        1
330
C4
 75
               0
 76
               1
 98
        1
 10
0.0
 20
0.0
  0
CIRCLE
  5
C6
102
{ACAD_REACTORS
330
C7
102
}
100
AcDbEntity
  8
0
370
              -2
390
0
  6
Continuous
 62
               0
100
AcDbCircle
 10
160.54224067811546
 20
-295.0
 30
0.0
 40
4.99969482421875
  0
HATCH
  5
C7
100
AcDbEntity
  8
0
370
              -2
390
0
  6
Continuous
 62
               0
100
AcDbHatch
 10
0.0
 20
0.0
 30
0.0
210
0.0
220
0.0
230
1.0
  2
SOLID
 70
               1
 71
               1
 91
        1
 92
        1
 93
        1
 72
               2
 10
160.54224067811546
 20
-295.0
 40
4.99969482421875
 50
0.0
 51
360.0
 73
               0
 97
        1
330
C6
 75
               0
 76
               1
 98
        1
 10
0.0
 20
0.0
  0
MTEXT
  5
C8
100
AcDbEntity
  8
0
390
0
 62
               0
100
AcDbMText
 10
126.66462349061545
 20
-281.0625
 30
0.0
 40
24.432617187500004
 41
0.0
 71
               1
 72
               1
  1
10
  7
ＭＳ ゴシック
 11
0.0
 21
1.0
 31
0.0
 73
               1
 44
0.7828267384257843
  0
POINT
  5
C9
100
AcDbEntity
  8
Defpoints
370
               0
390
0
 62
               0
100
AcDbPoint
 10
261.29224067811549
 20
-295.0
 30
0.0
  0
POINT
  5
CA
100
AcDbEntity
  8
Defpoints
370
               0
390
0
 62
               0
100
AcDbPoint
 10
264.04224067811549
 20
-285.0
 30
0.0
  0
POINT
  5
CB
100
AcDbEntity
  8
Defpoints
370
               0
390
0
 62
               0
100
AcDbPoint
 10
160.54224067811546
 20
-285.0
 30
0.0
  0
ENDBLK
  5
CC
100
AcDbEntity
  8
notes
390
0
100
AcDbBlockEnd
  0
BLOCK
  5
CD
100
AcDbEntity
  8
notes
390
0
100
AcDbBlockBegin
  2
*D12
 70
               1
 10
0.0
 20
0.0
 30
0.0
  3
*D12
  1

  0
LINE
  5
CE
100
AcDbEntity
  8
0
370
              -2
390
0
  6
Continuous
 62
               0
100
AcDbLine
 10
665.54224067811549
 20
-317.25
 30
0.0
 11
665.54224067811549
 21
-528.27614215810001
 31
0.0
  0
LINE
  5
CF
100
AcDbEntity
  8
0
370
              -2
390
0
  6
Continuous
 62
               0
100
AcDbLine
 10
490.51400585561544
 20
-454.3266759750004
 30
0.0
 11
490.51400585561544
 21
-528.27614215810001
 31
0.0
  0
LINE
  5
D0
100
AcDbEntity
  8
0
370
              -2
390
0
  6
Continuous
 62
               0
100
AcDbLine
 10
665.54224067811549
 20
-528.27614215810001
 30
0.0
 11
490.51400585561544
 21
-528.27614215810001
 31
0.0
  0
CIRCLE
  5
D1
102
{ACAD_REACTORS
330
D2
102
}
100
AcDbEntity
  8
0
370
              -2
390
0
  6
Continuous
 62
               0
100
AcDbCircle
 10
665.54224067811549
 20
-528.27614215810001
 30
0.0
 40
4.99969482421875
  0
HATCH
  5
D2
100
AcDbEntity
  8
0
370
              -2
390
0
  6
Continuous
 62
               0
100
AcDbHatch
 10
0.0
 20
0.0
 30
0.0
210
0.0
220
0.0
230
1.0
  2
SOLID
 70
               1
 71
               1
 91
        1
 92
        1
 93
        1
 72
               2
 10
665.54224067811549
 20
-528.27614215810001
 40
4.99969482421875
 50
0.0
 51
360.0
 73
               0
 97
        1
330
D1
 75
               0
 76
               1
 98
        1
 10
0.0
 20
0.0
  0
CIRCLE
  5
D3
102
{ACAD_REACTORS
330
D4
102
}
100
AcDbEntity
  8
0
370
              -2
390
0
  6
Continuous
 62
               0
100
AcDbCircle
 10
490.51400585561544
 20
-528.27614215810001
 30
0.0
 40
4.99969482421875
  0
HATCH
  5
D4
100
AcDbEntity
  8
0
370
              -2
390
0
  6
Continuous
 62
               0
100
AcDbHatch
 10
0.0
 20
0.0
 30
0.0
210
0.0
220
0.0
230
1.0
  2
SOLID
 70
               1
 71
               1
 91
        1
 92
        1
 93
        1
 72
               2
 10
490.51400585561544
 20
-528.27614215810001
 40
4.99969482421875
 50
0.0
 51
360.0
 73
               0
 97
        1
330
D3
 75
               0
 76
               1
 98
        1
 10
0.0
 20
0.0
  0
MTEXT
  5
D5
100
AcDbEntity
  8
0
390
0
 62
               0
100
AcDbMText
 10
554.21562158468998
 20
-494.39852497060002
 30
0.0
 40
24.432617187500004
 41
0.0
 71
               1
 72
               1
  1
175
  7
ＭＳ ゴシック
 73
               1
 44
0.7828267384257843
  0
POINT
  5
D6
100
AcDbEntity
  8
Defpoints
370
               0
390
0
 62
               0
100
AcDbPoint
 10
490.51400585561544
 20
-429.3266759750004
 30
0.0
  0
POINT
  5
D7
100
AcDbEntity
  8
Defpoints
370
               0
390
0
 62
               0
100
AcDbPoint
 10
665.54224067811549
 20
-292.25
 30
0.0
  0
POINT
  5
D8
100
AcDbEntity
  8
Defpoints
370
               0
390
0
 62
               0
100
AcDbPoint
 10
665.54224067811549
 20
-528.27614215810001
 30
0.0
  0
ENDBLK
  5
D9
100
AcDbEntity
  8
notes
390
0
100
AcDbBlockEnd
  0
BLOCK
  5
DA
100
AcDbEntity
  8
notes
390
0
100
AcDbBlockBegin
  2
*D13
 70
               1
 10
0.0
 20
0.0
 30
0.0
  3
*D13
  1

  0
LINE
  5
DB
100
AcDbEntity
  8
0
370
              -2
390
0
  6
Continuous
 62
               0
100
AcDbLine
 10
465.18418396814161
 20
-285.0
 30
0.0
 11
490.0
 21
-285.0
 31
0.0
  0
LINE
  5
DC
100
AcDbEntity
  8
0
370
              -2
390
0
  6
Continuous
 62
               0
100
AcDbLine
 10
465.18418396814161
 20
-415.00000000000045
 30
0.0
 11
490.0
 21
-415.00000000000045
 31
0.0
  0
LINE
  5
DD
100
AcDbEntity
  8
0
370
              -2
390
0
  6
Continuous
 62
               0
100
AcDbLine
 10
490.0
 20
-285.0
 30
0.0
 11
490.0
 21
-130.10698301060484
 31
0.0
  0
LINE
  5
DE
100
AcDbEntity
  8
0
370
              -2
390
0
  6
Continuous
 62
               0
100
AcDbLine
 10
490.0
 20
-285.0
 30
0.0
 11
490.0
 21
-415.00000000000045
 31
0.0
  0
CIRCLE
  5
DF
102
{ACAD_REACTORS
330
E0
102
}
100
AcDbEntity
  8
0
370
              -2
390
0
  6
Continuous
 62
               0
100
AcDbCircle
 10
490.0
 20
-285.0
 30
0.0
 40
4.99969482421875
  0
HATCH
  5
E0
100
AcDbEntity
  8
0
370
              -2
390
0
  6
Continuous
 62
               0
100
AcDbHatch
 10
0.0
 20
0.0
 30
0.0
210
0.0
220
0.0
230
1.0
  2
SOLID
 70
               1
 71
               1
 91
        1
 92
        1
 93
        1
 72
               2
 10
490.0
 20
-285.0
 40
4.99969482421875
 50
0.0
 51
360.0
 73
               0
 97
        1
330
DF
 75
               0
 76
               1
 98
        1
 10
0.0
 20
0.0
  0
CIRCLE
  5
E1
102
{ACAD_REACTORS
330
E2
102
}
100
AcDbEntity
  8
0
370
              -2
390
0
  6
Continuous
 62
               0
100
AcDbCircle
 10
490.0
 20
-415.00000000000045
 30
0.0
 40
4.99969482421875
  0
HATCH
  5
E2
100
AcDbEntity
  8
0
370
              -2
390
0
  6
Continuous
 62
               0
100
AcDbHatch
 10
0.0
 20
0.0
 30
0.0
210
0.0
220
0.0
230
1.0
  2
SOLID
 70
               1
 71
               1
 91
        1
 92
        1
 93
        1
 72
               2
 10
490.0
 20
-415.00000000000045
 40
4.99969482421875
 50
0.0
 51
360.0
 73
               0
 97
        1
330
E1
 75
               0
 76
               1
 98
        1
 10
0.0
 20
0.0
  0
MTEXT
  5
E3
100
AcDbEntity
  8
0
390
0
 62
               0
100
AcDbMText
 10
456.12238281249995
 20
-272.98198301060484
 30
0.0
 40
24.432617187500004
 41
0.0
 71
               1
 72
               1
  1
130(深さ)
  7
ＭＳ ゴシック
 11
0.0
 21
1.0
 31
0.0
 73
               1
 44
0.7828267384257843
  0
POINT
  5
E4
100
AcDbEntity
  8
Defpoints
370
               0
390
0
 62
               0
100
AcDbPoint
 10
490.18418396814161
 20
-415.00000000000045
 30
0.0
  0
POINT
  5
E5
100
AcDbEntity
  8
Defpoints
370
               0
390
0
 62
               0
100
AcDbPoint
 10
490.18418396814161
 20
-285.0
 30
0.0
  0
POINT
  5
E6
100
AcDbEntity
  8
Defpoints
370
               0
390
0
 62
               0
100
AcDbPoint
 10
490.0
 20
-285.0
 30
0.0
  0
ENDBLK
  5
E7
100
AcDbEntity
  8
notes
390
0
100
AcDbBlockEnd
  0
BLOCK
  5
E8
100
AcDbEntity
  8
notes
390
0
100
AcDbBlockBegin
  2
グループ-1
 70
               0
 10
0.0
 20
0.0
 30
0.0
  3
グループ-1
  1

  0
POLYLINE
  5
E9
100
AcDbEntity
  8
0
370
              15
390
0
  6
Continuous
 62
               7
100
AcDb2dPolyline
 66
               1
 10
0.0
 20
0.0
 30
0.0
 70
               1
 75
               5
  0
VERTEX
  5
EA
100
AcDbEntity
  8
0
370
              15
390
0
  6
Continuous
 62
               7
100
AcDbVertex
100
AcDb2dVertex
 10
-491.29115372808565
 20
-345.93666201251057
 30
0.0
  0
VERTEX
  5
EB
100
AcDbEntity
  8
0
370
              15
390
0
  6
Continuous
 62
               7
100
AcDbVertex
100
AcDb2dVertex
 10
-416.29115372808565
 20
-345.93666201251057
 30
0.0
  0
VERTEX
  5
EC
100
AcDbEntity
  8
0
370
              15
390
0
  6
Continuous
 62
               7
100
AcDbVertex
100
AcDb2dVertex
 10
-416.29115372808565
 20
-392.83666201251054
 30
0.0
  0
VERTEX
  5
ED
100
AcDbEntity
  8
0
370
              15
390
0
  6
Continuous
 62
               7
100
AcDbVertex
100
AcDb2dVertex
 10
-491.29115372808565
 20
-392.83666201251054
 30
0.0
  0
SEQEND
  5
EE
100
AcDbEntity
  8
0
370
              15
390
0
  6
Continuous
 62
               7
  0
LINE
  5
EF
100
AcDbEntity
  8
0
370
              15
390
0
  6
Continuous
 62
               7
100
AcDbLine
 10
-491.29115372808565
 20
-359.90628624006769
 30
0.0
 11
-416.29115372808565
 21
-359.90628624006769
 31
0.0
  0
ENDBLK
  5
F0
100
AcDbEntity
  8
notes
390
0
100
AcDbBlockEnd
  0
BLOCK
  5
F1
100
AcDbEntity
  8
notes
390
0
100
AcDbBlockBegin
  2
グループ-2
 70
               0
 10
0.0
 20
0.0
 30
0.0
  3
グループ-2
  1

  0
POLYLINE
  5
F2
100
AcDbEntity
  8
0
370
              15
390
0
  6
Continuous
 62
               7
100
AcDb2dPolyline
 66
               1
 10
0.0
 20
0.0
 30
0.0
 70
               1
 75
               5
  0
VERTEX
  5
F3
100
AcDbEntity
  8
0
370
              15
390
0
  6
Continuous
 62
               7
100
AcDbVertex
100
AcDb2dVertex
 10
453.01400585561532
 20
-345.93666201251057
 30
0.0
  0
VERTEX
  5
F4
100
AcDbEntity
  8
0
370
              15
390
0
  6
Continuous
 62
               7
100
AcDbVertex
100
AcDb2dVertex
 10
528.01400585561532
 20
-345.93666201251057
 30
0.0
  0
VERTEX
  5
F5
100
AcDbEntity
  8
0
370
              15
390
0
  6
Continuous
 62
               7
100
AcDbVertex
100
AcDb2dVertex
 10
528.01400585561532
 20
-392.83666201251054
 30
0.0
  0
VERTEX
  5
F6
100
AcDbEntity
  8
0
370
              15
390
0
  6
Continuous
 62
               7
100
AcDbVertex
100
AcDb2dVertex
 10
453.01400585561532
 20
-392.83666201251054
 30
0.0
  0
SEQEND
  5
F7
100
AcDbEntity
  8
0
370
              15
390
0
  6
Continuous
 62
               7
  0
LINE
  5
F8
100
AcDbEntity
  8
0
370
              15
390
0
  6
Continuous
 62
               7
100
AcDbLine
 10
528.01400585561532
 20
-359.90628624006769
 30
0.0
 11
453.01400585561532
 21
-359.90628624006769
 31
0.0
  0
ENDBLK
  5
F9
100
AcDbEntity
  8
notes
390
0
100
AcDbBlockEnd
  0
ENDSEC
  0
SECTION
  2
ENTITIES
  0
MTEXT
  5
FA
100
AcDbEntity
  8
template
390
0
 62
               7
100
AcDbMText
 10
-967.99999999975921
 20
-1147.4176292337004
 30
0.0
 40
16.288411458333332
 41
0.0
 71
               1
 72
               1
  1
品名
  7
ＭＳ ゴシック
 73
               1
 44
0.7828267384257843
  0
MTEXT
  5
FB
100
AcDbEntity
  8
template
390
0
 62
               7
100
AcDbMText
 10
-967.99999999975921
 20
-1232.4176292337004
 30
0.0
 40
16.288411458333332
 41
0.0
 71
               1
 72
               1
  1
仕様
  7
ＭＳ ゴシック
 73
               1
 44
0.7828267384257843
  0
MTEXT
  5
FC
100
AcDbEntity
  8
template
390
0
 62
               7
100
AcDbMText
 10
-914.99999999975921
 20
-1176.0000901712006
 30
0.0
 40
24.432617187500004
 41
0.0
 71
               1
 72
               1
  1
洗面器 -ALAPE-
  7
ＭＳ ゴシック
 73
               1
 44
0.7828267384257843
  0
LINE
  5
FD
100
AcDbEntity
  8
template
370
               5
390
0
  6
Continuous
 62
               7
100
AcDbLine
 10
974.99999999975876
 20
-1224.0027073587005
 30
0.0
 11
-975.00000000024124
 21
-1224.0027073587005
 31
0.0
  0
LWPOLYLINE
  5
FE
100
AcDbEntity
  8
template
370
               5
390
0
  6
Continuous
 62
               7
100
AcDbPolyline
 90
        5
 70
             128
 10
975.00000000024124
 20
1405.9972926412995
 10
-974.99999999975921
 20
1405.9972926412995
 10
-974.99999999975921
 20
-1394.0027073587005
 10
975.00000000024124
 20
-1394.0027073587005
 10
975.00000000024124
 20
1405.9972926412995
  0
LINE
  5
FF
100
AcDbEntity
  8
template
370
               5
390
0
  6
Continuous
 62
               7
100
AcDbLine
 10
974.99999999975876
 20
-1139.0027073587005
 30
0.0
 11
-975.00000000024124
 21
-1139.0027073587005
 31
0.0
  0
LINE
  5
100
100
AcDbEntity
  8
template
370
               5
390
0
  6
Continuous
 62
               7
100
AcDbLine
 10
975.00000000024124
 20
-1309.0027073587005
 30
0.0
 11
222.00000000024124
 21
-1309.0027073587005
 31
0.0
  0
MTEXT
  5
101
100
AcDbEntity
  8
template
390
0
 62
               7
100
AcDbMText
 10
-974.99999999955594
 20
-1405.8565294155574
 30
0.0
 40
21.717881944444446
 41
0.0
 71
               1
 72
               1
  1
120515SH
  7
ＭＳ ゴシック
 73
               1
 44
0.7828267384257843
  0
MTEXT
  5
102
100
AcDbEntity
  8
template
390
0
 62
               7
100
AcDbMText
 10
251.87140625250089
 20
-1338.9131018320081
 30
0.0
 40
24.432617187500004
 41
0.0
 71
               1
 72
               1
  1
大洋金物株式会社 ティーフォルム事業部
  7
ＭＳ ゴシック
 73
               1
 44
0.7828267384257843
  0
INSERT
  5
103
100
AcDbEntity
  8
template
390
0
 62
               7
100
AcDbBlockReference
  2
グループ
 10
0.0000000000000853
 20
-72.16333798748947
 30
0.0
  0
MTEXT
  5
104
100
AcDbEntity
  8
template
390
0
 62
               7
100
AcDbMText
 10
784.00000000049999
 20
-1261.0000901712006
 30
0.0
 40
24.432617187500004
 41
0.0
 71
               1
 72
               1
  1
1:10
  7
ＭＳ ゴシック
 73
               1
 44
0.7828267384257843
  0
MTEXT
  5
105
100
AcDbEntity
  8
template
390
0
 62
               7
100
AcDbMText
 10
731.00000000049999
 20
-1232.4176292337004
 30
0.0
 40
16.288411458333332
 41
0.0
 71
               1
 72
               1
  1
縮尺
  7
ＭＳ ゴシック
 73
               1
 44
0.7828267384257843
  0
LINE
  5
106
100
AcDbEntity
  8
template
370
               5
390
0
  6
Continuous
 62
               7
100
AcDbLine
 10
724.00000000049999
 20
-1309.0027073587005
 30
0.0
 11
724.00000000049999
 21
-1224.0027073587005
 31
0.0
  0
MTEXT
  5
107
100
AcDbEntity
  8
template
390
0
 62
               7
100
AcDbMText
 10
480.00000000049999
 20
-1232.4176292337004
 30
0.0
 40
16.288411458333332
 41
0.0
 71
               1
 72
               1
  1
容量
  7
ＭＳ ゴシック
 73
               1
 44
0.7828267384257843
  0
LINE
  5
108
100
AcDbEntity
  8
template
370
               5
390
0
  6
Continuous
 62
               7
100
AcDbLine
 10
473.00000000049999
 20
-1309.0027073587005
 30
0.0
 11
473.00000000049999
 21
-1224.0027073587005
 31
0.0
  0
MTEXT
  5
109
100
AcDbEntity
  8
template
390
0
 62
               7
100
AcDbMText
 10
229.00000000049999
 20
-1147.4176292337004
 30
0.0
 40
16.288411458333332
 41
0.0
 71
               1
 72
               1
  1
品番
  7
ＭＳ ゴシック
 73
               1
 44
0.7828267384257843
  0
MTEXT
  5
10A
100
AcDbEntity
  8
template
390
0
 62
               7
100
AcDbMText
 10
229.00000000049999
 20
-1232.4176292337004
 30
0.0
 40
16.288411458333332
 41
0.0
 71
               1
 72
               1
  1
重量
  7
ＭＳ ゴシック
 73
               1
 44
0.7828267384257843
  0
MTEXT
  5
10B
100
AcDbEntity
  8
template
390
0
 62
               7
100
AcDbMText
 10
282.00000000049999
 20
-1176.0000901712006
 30
0.0
 40
24.432617187500004
 41
0.0
 71
               1
 72
               1
  1
FAN70-0312
  7
ＭＳ ゴシック
 73
               1
 44
0.7828267384257843
  0
MTEXT
  5
10C
100
AcDbEntity
  8
template
390
0
 62
               7
100
AcDbMText
 10
282.00000000049999
 20
-1261.0000901712006
 30
0.0
 40
24.432617187500004
 41
0.0
 71
               1
 72
               1
  1
4.1kg
  7
ＭＳ ゴシック
 73
               1
 44
0.7828267384257843
  0
LINE
  5
10D
100
AcDbEntity
  8
template
370
               5
390
0
  6
Continuous
 62
               7
100
AcDbLine
 10
222.00000000049999
 20
-1394.0027073587005
 30
0.0
 11
222.00000000049999
 21
-1139.0027073587005
 31
0.0
  0
MTEXT
  5
10E
100
AcDbEntity
  8
template
390
0
 62
               7
100
AcDbMText
 10
-914.9999999997591
 20
-1261.0000901712001
 30
0.0
 40
24.432617187500004
 41
0.0
 71
               1
 72
               1
  1
オーバーカウンター/オーバーフロー付き/型紙付属/\P鋼板ホーロー/ホワイト
  7
ＭＳ ゴシック
 73
               1
 44
1.1307497332816883
  0
DIMENSION
  5
10F
100
AcDbEntity
  8
notes
370
               5
390
0
  6
Continuous
 62
               7
100
AcDbDimension
  2
*D3
 10
-846.2862523756271
 20
745.42672379103556
 30
0.0
 11
-851.2862523756271
 21
795.42672379103556
 31
0.0
 70
             128
 71
               5
 72
               1
 41
1.0
 42
0.0
  3
tfrom線あり
100
AcDbAlignedDimension
 13
-741.2862523756271
 23
845.42672379103556
 33
0.0
 14
-746.2862523756271
 24
745.42672379103556
 34
0.0
 50
90.0
100
AcDbRotatedDimension
1001
ACAD
1000
DSTYLE
1002
{
1070
             279
1070
               2
1070
             340
1005
31
1070
             147
1040
5.0
1002
}
  0
DIMENSION
  5
110
100
AcDbEntity
  8
notes
370
               5
390
0
  6
Continuous
 62
               7
100
AcDbDimension
  2
*D4
 10
-846.2862523756271
 20
745.42672379103556
 30
0.0
 11
-846.2862523756271
 21
615.42672379278895
 31
0.0
 71
               5
 72
               1
 41
1.0
 42
0.0
  3
tfrom線あり
100
AcDbAlignedDimension
 13
-746.2862523756271
 23
485.4267237945424
 33
0.0
 14
-746.2862523756271
 24
745.42672379103556
 34
0.0
 50
90.0
100
AcDbRotatedDimension
1001
ACAD
1000
DSTYLE
1002
{
1070
             279
1070
               2
1070
             340
1005
31
1070
             147
1040
5.0
1002
}
  0
DIMENSION
  5
111
100
AcDbEntity
  8
notes
370
               5
390
0
  6
Continuous
 62
               7
100
AcDbDimension
  2
*D5
 10
-61.286252375627299
 20
845.42672379103556
 30
0.0
 11
-61.286252375627299
 21
642.92672379103578
 31
0.0
 71
               5
 72
               1
 41
1.0
 42
0.0
  3
tfrom線あり
100
AcDbAlignedDimension
 13
-166.2862523756273
 23
440.42672379103607
 33
0.0
 14
-166.2862523756273
 24
845.42672379103556
 34
0.0
 50
90.0
100
AcDbRotatedDimension
1001
ACAD
1000
DSTYLE
1002
{
1070
             279
1070
               2
1070
             340
1005
31
1070
             147
1040
5.0
1002
}
  0
DIMENSION
  5
112
100
AcDbEntity
  8
notes
370
               5
390
0
  6
Continuous
 62
               7
100
AcDbDimension
  2
*D6
 10
-40.0
 20
-285.0
 30
0.0
 11
-35.0
 21
-382.94913082031013
 31
0.0
 70
             128
 71
               5
 72
               1
 41
1.0
 42
0.0
  3
tfrom線あり
100
AcDbAlignedDimension
 13
-416.29115372808553
 23
-465.0
 33
0.0
 14
-164.79115372808562
 24
-285.0
 34
0.0
 50
90.0
100
AcDbRotatedDimension
1001
ACAD
1000
DSTYLE
1002
{
1070
             279
1070
               2
1070
             340
1005
31
1070
             147
1040
5.0
1002
}
  0
DIMENSION
  5
113
100
AcDbEntity
  8
notes
370
               5
390
0
  6
Continuous
 62
               7
100
AcDbDimension
  2
*D7
 10
-161.2862523756273
 20
945.42672379103556
 30
0.0
 11
-445.01499903976685
 21
950.42672379103556
 31
0.0
 70
             128
 71
               5
 72
               1
 41
1.0
 42
0.0
  3
tfrom線あり
100
AcDbAlignedDimension
 13
-746.2862523756271
 23
845.42672379103556
 33
0.0
 14
-161.2862523756273
 24
845.42672379103556
 34
0.0
100
AcDbRotatedDimension
1001
ACAD
1000
DSTYLE
1002
{
1070
             271
1070
               2
1070
             279
1070
               2
1070
             340
1005
31
1070
             147
1040
5.0
1002
}
  0
DIMENSION
  5
114
100
AcDbEntity
  8
notes
370
               5
390
0
  6
Continuous
 62
               7
100
AcDbDimension
  2
*D8
 10
-466.51417443698483
 20
782.69880172967805
 30
0.0
 11
-309.01499903976696
 21
880.19797712689592
 31
0.0
 70
               3
 71
               5
 72
               1
 41
1.0
 42
0.0
  3
tfrom線あり
100
AcDbDiametricDimension
 15
-441.05833031426982
 25
808.15464585239306
 35
0.0
 40
101.88465616693966
1001
ACAD
1000
DSTYLE
1002
{
1070
             289
1070
               0
1070
             342
1005
45
1070
             340
1005
31
1070
              73
1070
               1
1070
              74
1070
               1
1070
              75
1070
               1
1070
              76
1070
               1
1070
               3
1000

1070
             174
1070
               0
1070
             147
1040
5.0
1002
}
  0
DIMENSION
  5
115
100
AcDbEntity
  8
notes
370
               5
390
0
  6
Continuous
 62
               7
100
AcDbDimension
  2
*D9
 10
665.54224067811549
 20
-185.0
 30
0.0
 11
640.54224067811549
 21
-185.0
 31
0.0
 71
               5
 72
               1
 41
1.0
 42
0.0
  3
tfrom線あり
100
AcDbAlignedDimension
 13
615.54224067811549
 23
-285.0
 33
0.0
 14
665.54224067811549
 24
-288.5
 34
0.0
100
AcDbRotatedDimension
1001
ACAD
1000
DSTYLE
1002
{
1070
             279
1070
               2
1070
             340
1005
31
1070
             147
1040
5.0
1002
}
  0
DIMENSION
  5
116
100
AcDbEntity
  8
notes
370
               5
390
0
  6
Continuous
 62
               7
100
AcDbDimension
  2
*D10
 10
-703.7862523756271
 20
340.42672379103607
 30
0.0
 11
-453.78625237562721
 21
340.42672379103607
 31
0.0
 71
               5
 72
               1
 41
1.0
 42
0.0
  3
tfrom線あり
100
AcDbAlignedDimension
 13
-203.78625237562724
 23
440.42672379103607
 33
0.0
 14
-703.7862523756271
 24
440.42672379103607
 34
0.0
100
AcDbRotatedDimension
1001
ACAD
1000
DSTYLE
1002
{
1070
             279
1070
               2
1070
             340
1005
31
1070
             147
1040
5.0
1002
}
  0
DIMENSION
  5
117
100
AcDbEntity
  8
notes
370
               5
390
0
  6
Continuous
 62
               7
100
AcDbDimension
  2
*D11
 10
160.54224067811546
 20
-285.0
 30
0.0
 11
155.54224067811546
 21
-281.0625
 31
0.0
 70
             128
 71
               5
 72
               1
 41
1.0
 42
0.0
  3
tfrom線あり
100
AcDbAlignedDimension
 13
261.29224067811549
 23
-295.0
 33
0.0
 14
264.04224067811549
 24
-285.0
 34
0.0
 50
90.0
100
AcDbRotatedDimension
1001
ACAD
1000
DSTYLE
1002
{
1070
             279
1070
               2
1070
             340
1005
31
1070
             174
1070
               0
1070
             147
1040
5.0
1002
}
  0
DIMENSION
  5
118
100
AcDbEntity
  8
notes
370
               5
390
0
  6
Continuous
 62
               7
100
AcDbDimension
  2
*D12
 10
665.54224067811549
 20
-528.27614215810001
 30
0.0
 11
578.02812326686546
 21
-528.27614215810001
 31
0.0
 71
               5
 72
               1
 41
1.0
 42
0.0
  3
tfrom線あり
100
AcDbAlignedDimension
 13
490.51400585561544
 23
-429.3266759750004
 33
0.0
 14
665.54224067811549
 24
-292.25
 34
0.0
100
AcDbRotatedDimension
1001
ACAD
1000
DSTYLE
1002
{
1070
             279
1070
               2
1070
             340
1005
31
1070
             147
1040
5.0
1002
}
  0
DIMENSION
  5
119
100
AcDbEntity
  8
notes
370
              15
390
0
  6
Continuous
 62
               7
100
AcDbDimension
  2
*D13
 10
490.0
 20
-285.0
 30
0.0
 11
485.0
 21
-272.98198301060484
 31
0.0
 70
             128
 71
               5
 72
               1
 41
1.0
 42
0.0
  3
tfrom線あり
100
AcDbAlignedDimension
 13
490.18418396814161
 23
-415.00000000000045
 33
0.0
 14
490.18418396814161
 24
-285.0
 34
0.0
 50
90.0
100
AcDbRotatedDimension
1001
ACAD
1000
DSTYLE
1002
{
1070
             279
1070
               2
1070
             340
1005
31
1070
               3
1000
<>(深さ)
1070
             174
1070
               0
1070
             147
1040
5.0
1002
}
  0
INSERT
  5
11A
100
AcDbEntity
  8
notes
390
0
 62
               7
100
AcDbBlockReference
  2
グループ-1
 10
0.0000000000000853
 20
-72.16333798748947
 30
0.0
  0
INSERT
  5
11B
100
AcDbEntity
  8
notes
390
0
 62
               7
100
AcDbBlockReference
  2
グループ-2
 10
0.0000000000000853
 20
-72.16333798748947
 30
0.0
  0
MTEXT
  5
11C
100
AcDbEntity
  8
notes
390
0
 62
               7
100
AcDbMText
 10
239.99999999999997
 20
-1007.1704031417387
 30
0.0
 40
24.432617187500004
 41
0.0
 71
               1
 72
               1
  1
※カウンターの切込は、商品に付属する型紙を\P　ご参照の上、加工を行ってください。
  7
MS-Gothic
 73
               1
 44
1.1742401076386764
  0
LINE
  5
11D
100
AcDbEntity
  8
FAN70-0312
370
              15
390
0
  6
Continuous
 62
               7
100
AcDbLine
 10
-453.79115372808565
 20
-285.0
 30
0.0
 11
-453.58366730688556
 21
-285.0
 31
0.0
  0
LINE
  5
11E
100
AcDbEntity
  8
FAN70-0312
370
              15
390
0
  6
Continuous
 62
               7
100
AcDbLine
 10
-453.79115372808565
 20
-285.0
 30
0.0
 11
-453.79115372808565
 21
-284.58502715759994
 31
0.0
  0
LINE
  5
11F
100
AcDbEntity
  8
FAN70-0312
370
              15
390
0
  6
Continuous
 62
               7
100
AcDbLine
 10
-488.85062786488561
 20
-416.28720969680035
 30
0.0
 11
-478.77437074738555
 21
-428.27614215810036
 31
0.0
  0
LINE
  5
120
100
AcDbEntity
  8
FAN70-0312
370
              15
390
0
  6
Continuous
 62
               7
100
AcDbLine
 10
-428.80793670868559
 20
-428.27614215810036
 30
0.0
 11
-418.73167959128568
 21
-416.28720969680035
 31
0.0
  0
POLYLINE
  5
121
100
AcDbEntity
  8
FAN70-0312
370
              15
390
0
  6
Continuous
 62
               7
100
AcDb2dPolyline
 66
               1
 10
0.0
 20
0.0
 30
0.0
 75
               5
  0
VERTEX
  5
122
100
AcDbEntity
  8
FAN70-0312
370
              15
390
0
  6
Continuous
 62
               7
100
AcDbVertex
100
AcDb2dVertex
 10
-664.22813699128551
 20
-334.94770812410002
 30
0.0
  0
VERTEX
  5
123
100
AcDbEntity
  8
FAN70-0312
370
              15
390
0
  6
Continuous
 62
               7
100
AcDbVertex
100
AcDb2dVertex
 10
-661.0014179103855
 20
-338.09644154449995
 30
0.0
  0
VERTEX
  5
124
100
AcDbEntity
  8
FAN70-0312
370
              15
390
0
  6
Continuous
 62
               7
100
AcDbVertex
100
AcDb2dVertex
 10
-653.7830296907855
 20
-344.69913038850007
 30
0.0
  0
VERTEX
  5
125
100
AcDbEntity
  8
FAN70-0312
370
              15
390
0
  6
Continuous
 62
               7
100
AcDbVertex
100
AcDb2dVertex
 10
-646.3578793565855
 20
-351.06253687679998
 30
0.0
  0
VERTEX
  5
126
100
AcDbEntity
  8
FAN70-0312
370
              15
390
0
  6
Continuous
 62
               7
100
AcDbVertex
100
AcDb2dVertex
 10
-638.73963737788551
 20
-357.1747645662
 30
0.0
  0
VERTEX
  5
127
100
AcDbEntity
  8
FAN70-0312
370
              15
390
0
  6
Continuous
 62
               7
100
AcDbVertex
100
AcDb2dVertex
 10
-630.94207659668552
 20
-363.02492627699991
 30
0.0
  0
VERTEX
  5
128
100
AcDbEntity
  8
FAN70-0312
370
              15
390
0
  6
Continuous
 62
               7
100
AcDbVertex
100
AcDb2dVertex
 10
-622.9775361526855
 20
-368.60403236010001
 30
0.0
  0
VERTEX
  5
129
100
AcDbEntity
  8
FAN70-0312
370
              15
390
0
  6
Continuous
 62
               7
100
AcDbVertex
100
AcDb2dVertex
 10
-614.86464362678544
 20
-373.89858111330022
 30
0.0
  0
VERTEX
  5
12A
100
AcDbEntity
  8
FAN70-0312
370
              15
390
0
  6
Continuous
 62
               7
100
AcDbVertex
100
AcDb2dVertex
 10
-606.6092608696855
 20
-378.91120617970029
 30
0.0
  0
VERTEX
  5
12B
100
AcDbEntity
  8
FAN70-0312
370
              15
390
0
  6
Continuous
 62
               7
100
AcDbVertex
100
AcDb2dVertex
 10
-598.14234558908549
 20
-383.68623760330036
 30
0.0
  0
VERTEX
  5
12C
100
AcDbEntity
  8
FAN70-0312
370
              15
390
0
  6
Continuous
 62
               7
100
AcDbVertex
100
AcDb2dVertex
 10
-589.48320894938547
 20
-388.20975959220021
 30
0.0
  0
VERTEX
  5
12D
100
AcDbEntity
  8
FAN70-0312
370
              15
390
0
  6
Continuous
 62
               7
100
AcDbVertex
100
AcDb2dVertex
 10
-580.65222124808543
 20
-392.46863577000039
 30
0.0
  0
VERTEX
  5
12E
100
AcDbEntity
  8
FAN70-0312
370
              15
390
0
  6
Continuous
 62
               7
100
AcDbVertex
100
AcDb2dVertex
 10
-571.67101040378543
 20
-396.45046088420031
 30
0.0
  0
VERTEX
  5
12F
100
AcDbEntity
  8
FAN70-0312
370
              15
390
0
  6
Continuous
 62
               7
100
AcDbVertex
100
AcDb2dVertex
 10
-562.56292541838548
 20
-400.14347823210028
 30
0.0
  0
VERTEX
  5
130
100
AcDbEntity
  8
FAN70-0312
370
              15
390
0
  6
Continuous
 62
               7
100
AcDbVertex
100
AcDb2dVertex
 10
-553.35562102148549
 20
-403.53587725770035
 30
0.0
  0
VERTEX
  5
131
100
AcDbEntity
  8
FAN70-0312
370
              15
390
0
  6
Continuous
 62
               7
100
AcDbVertex
100
AcDb2dVertex
 10
-544.07311921788551
 20
-406.61897396990048
 30
0.0
  0
VERTEX
  5
132
100
AcDbEntity
  8
FAN70-0312
370
              15
390
0
  6
Continuous
 62
               7
100
AcDbVertex
100
AcDb2dVertex
 10
-534.73950397428553
 20
-409.38546032420049
 30
0.0
  0
VERTEX
  5
133
100
AcDbEntity
  8
FAN70-0312
370
              15
390
0
  6
Continuous
 62
               7
100
AcDbVertex
100
AcDb2dVertex
 10
-525.38679310508553
 20
-411.82805398000028
 30
0.0
  0
VERTEX
  5
134
100
AcDbEntity
  8
FAN70-0312
370
              15
390
0
  6
Continuous
 62
               7
100
AcDbVertex
100
AcDb2dVertex
 10
-515.99470064468551
 20
-413.9619125141005
 30
0.0
  0
VERTEX
  5
135
100
AcDbEntity
  8
FAN70-0312
370
              15
390
0
  6
Continuous
 62
               7
100
AcDbVertex
100
AcDb2dVertex
 10
-506.40784577558554
 20
-415.81847444670052
 30
0.0
  0
VERTEX
  5
136
100
AcDbEntity
  8
FAN70-0312
370
              15
390
0
  6
Continuous
 62
               7
100
AcDbVertex
100
AcDb2dVertex
 10
-496.77508783628559
 20
-417.36198152220027
 30
0.0
  0
VERTEX
  5
137
100
AcDbEntity
  8
FAN70-0312
370
              15
390
0
  6
Continuous
 62
               7
100
AcDbVertex
100
AcDb2dVertex
 10
-487.09306472028561
 20
-418.59332294310047
 30
0.0
  0
VERTEX
  5
138
100
AcDbEntity
  8
FAN70-0312
370
              15
390
0
  6
Continuous
 62
               7
100
AcDbVertex
100
AcDb2dVertex
 10
-486.89684536938557
 20
-418.61185922780032
 30
0.0
  0
SEQEND
  5
139
100
AcDbEntity
  8
FAN70-0312
370
              15
390
0
  6
Continuous
 62
               7
  0
POLYLINE
  5
13A
100
AcDbEntity
  8
FAN70-0312
370
              15
390
0
  6
Continuous
 62
               7
100
AcDb2dPolyline
 66
               1
 10
0.0
 20
0.0
 30
0.0
 75
               5
  0
VERTEX
  5
13B
100
AcDbEntity
  8
FAN70-0312
370
              15
390
0
  6
Continuous
 62
               7
100
AcDbVertex
100
AcDb2dVertex
 10
-420.66825268588559
 20
-418.59138313810035
 30
0.0
  0
VERTEX
  5
13C
100
AcDbEntity
  8
FAN70-0312
370
              15
390
0
  6
Continuous
 62
               7
100
AcDbVertex
100
AcDb2dVertex
 10
-412.67804489088564
 20
-417.62476408930047
 30
0.0
  0
VERTEX
  5
13D
100
AcDbEntity
  8
FAN70-0312
370
              15
390
0
  6
Continuous
 62
               7
100
AcDbVertex
100
AcDb2dVertex
 10
-403.04369833538556
 20
-416.14306649220043
 30
0.0
  0
VERTEX
  5
13E
100
AcDbEntity
  8
FAN70-0312
370
              15
390
0
  6
Continuous
 62
               7
100
AcDbVertex
100
AcDb2dVertex
 10
-393.46342565828559
 20
-414.35057611710045
 30
0.0
  0
VERTEX
  5
13F
100
AcDbEntity
  8
FAN70-0312
370
              15
390
0
  6
Continuous
 62
               7
100
AcDbVertex
100
AcDb2dVertex
 10
-383.93646343328555
 20
-412.24736665590035
 30
0.0
  0
VERTEX
  5
140
100
AcDbEntity
  8
FAN70-0312
370
              15
390
0
  6
Continuous
 62
               7
100
AcDbVertex
100
AcDb2dVertex
 10
-374.44630748848556
 20
-409.82749345550042
 30
0.0
  0
VERTEX
  5
141
100
AcDbEntity
  8
FAN70-0312
370
              15
390
0
  6
Continuous
 62
               7
100
AcDbVertex
100
AcDb2dVertex
 10
-365.12096559668555
 20
-407.12042215410042
 30
0.0
  0
VERTEX
  5
142
100
AcDbEntity
  8
FAN70-0312
370
              15
390
0
  6
Continuous
 62
               7
100
AcDbVertex
100
AcDb2dVertex
 10
-355.89940180998553
 20
-404.11619958220035
 30
0.0
  0
VERTEX
  5
143
100
AcDbEntity
  8
FAN70-0312
370
              15
390
0
  6
Continuous
 62
               7
100
AcDbVertex
100
AcDb2dVertex
 10
-346.72587017168553
 20
-400.79777520260041
 30
0.0
  0
VERTEX
  5
144
100
AcDbEntity
  8
FAN70-0312
370
              15
390
0
  6
Continuous
 62
               7
100
AcDbVertex
100
AcDb2dVertex
 10
-337.62435145188556
 20
-397.17117480510046
 30
0.0
  0
VERTEX
  5
145
100
AcDbEntity
  8
FAN70-0312
370
              15
390
0
  6
Continuous
 62
               7
100
AcDbVertex
100
AcDb2dVertex
 10
-328.61881531458562
 20
-393.24376070210042
 30
0.0
  0
VERTEX
  5
146
100
AcDbEntity
  8
FAN70-0312
370
              15
390
0
  6
Continuous
 62
               7
100
AcDbVertex
100
AcDb2dVertex
 10
-319.73321322538561
 20
-389.02427089100041
 30
0.0
  0
VERTEX
  5
147
100
AcDbEntity
  8
FAN70-0312
370
              15
390
0
  6
Continuous
 62
               7
100
AcDbVertex
100
AcDb2dVertex
 10
-310.99422878358564
 20
-384.52436810280039
 30
0.0
  0
VERTEX
  5
148
100
AcDbEntity
  8
FAN70-0312
370
              15
390
0
  6
Continuous
 62
               7
100
AcDbVertex
100
AcDb2dVertex
 10
-302.42613984878562
 20
-379.75637092470021
 30
0.0
  0
VERTEX
  5
149
100
AcDbEntity
  8
FAN70-0312
370
              15
390
0
  6
Continuous
 62
               7
100
AcDbVertex
100
AcDb2dVertex
 10
-294.05064921678559
 20
-374.73283730230014
 30
0.0
  0
VERTEX
  5
14A
100
AcDbEntity
  8
FAN70-0312
370
              15
390
0
  6
Continuous
 62
               7
100
AcDbVertex
100
AcDb2dVertex
 10
-285.8882086763856
 20
-369.46709661300014
 30
0.0
  0
VERTEX
  5
14B
100
AcDbEntity
  8
FAN70-0312
370
              15
390
0
  6
Continuous
 62
               7
100
AcDbVertex
100
AcDb2dVertex
 10
-277.96084793588557
 20
-363.97703289870003
 30
0.0
  0
VERTEX
  5
14C
100
AcDbEntity
  8
FAN70-0312
370
              15
390
0
  6
Continuous
 62
               7
100
AcDbVertex
100
AcDb2dVertex
 10
-270.2097667475856
 20
-358.22931589860002
 30
0.0
  0
VERTEX
  5
14D
100
AcDbEntity
  8
FAN70-0312
370
              15
390
0
  6
Continuous
 62
               7
100
AcDbVertex
100
AcDb2dVertex
 10
-262.59650320408559
 20
-352.1936032433
 30
0.0
  0
VERTEX
  5
14E
100
AcDbEntity
  8
FAN70-0312
370
              15
390
0
  6
Continuous
 62
               7
100
AcDbVertex
100
AcDb2dVertex
 10
-255.16168520758561
 20
-345.89821164139994
 30
0.0
  0
VERTEX
  5
14F
100
AcDbEntity
  8
FAN70-0312
370
              15
390
0
  6
Continuous
 62
               7
100
AcDbVertex
100
AcDb2dVertex
 10
-247.91914356928552
 20
-339.35319234569999
 30
0.0
  0
VERTEX
  5
150
100
AcDbEntity
  8
FAN70-0312
370
              15
390
0
  6
Continuous
 62
               7
100
AcDbVertex
100
AcDb2dVertex
 10
-243.21870205448553
 20
-334.8216748346
 30
0.0
  0
SEQEND
  5
151
100
AcDbEntity
  8
FAN70-0312
370
              15
390
0
  6
Continuous
 62
               7
  0
LINE
  5
152
100
AcDbEntity
  8
FAN70-0312
370
              15
390
0
  6
Continuous
 62
               7
100
AcDbLine
 10
-741.29115372808542
 20
-295.0
 30
0.0
 11
-166.29115372808562
 21
-295.0
 31
0.0
  0
LINE
  5
153
100
AcDbEntity
  8
FAN70-0312
370
              15
390
0
  6
Continuous
 62
               7
100
AcDbLine
 10
-741.29115372808542
 20
-285.0
 30
0.0
 11
-166.29115372808562
 21
-285.0
 31
0.0
  0
ARC
  5
154
100
AcDbEntity
  8
FAN70-0312
370
              15
390
0
  6
Continuous
 62
               7
100
AcDbCircle
 10
-742.79115372808542
 20
-288.5
 30
0.0
 40
3.5
100
AcDbArc
 50
90.0
 51
180.0
  0
LINE
  5
155
100
AcDbEntity
  8
FAN70-0312
370
              15
390
0
  6
Continuous
 62
               7
100
AcDbLine
 10
-742.79115372808542
 20
-285.0
 30
0.0
 11
-741.29115372808542
 21
-285.0
 31
0.0
  0
LINE
  5
156
100
AcDbEntity
  8
FAN70-0312
370
              15
390
0
  6
Continuous
 62
               7
100
AcDbLine
 10
-745.54115372808542
 20
-295.0
 30
0.0
 11
-741.29115372808542
 21
-295.0
 31
0.0
  0
ARC
  5
157
100
AcDbEntity
  8
FAN70-0312
370
              15
390
0
  6
Continuous
 62
               7
100
AcDbCircle
 10
-745.54115372808542
 20
-294.25
 30
0.0
 40
0.75
100
AcDbArc
 50
180.0
 51
270.0
  0
LINE
  5
158
100
AcDbEntity
  8
FAN70-0312
370
              15
390
0
  6
Continuous
 62
               7
100
AcDbLine
 10
-746.29115372808542
 20
-294.25
 30
0.0
 11
-746.29115372808542
 21
-288.5
 31
0.0
  0
LINE
  5
159
100
AcDbEntity
  8
FAN70-0312
370
              15
390
0
  6
Continuous
 62
               7
100
AcDbLine
 10
-161.29115372808562
 20
-294.25
 30
0.0
 11
-161.29115372808562
 21
-288.5
 31
0.0
  0
LINE
  5
15A
100
AcDbEntity
  8
FAN70-0312
370
              15
390
0
  6
Continuous
 62
               7
100
AcDbLine
 10
-166.29115372808562
 20
-295.0
 30
0.0
 11
-162.04115372808562
 21
-295.0
 31
0.0
  0
ARC
  5
15B
100
AcDbEntity
  8
FAN70-0312
370
              15
390
0
  6
Continuous
 62
               7
100
AcDbCircle
 10
-162.04115372808562
 20
-294.25
 30
0.0
 40
0.75
100
AcDbArc
 50
270.0
 51
0.0
  0
LINE
  5
15C
100
AcDbEntity
  8
FAN70-0312
370
              15
390
0
  6
Continuous
 62
               7
100
AcDbLine
 10
-164.79115372808562
 20
-285.0
 30
0.0
 11
-166.29115372808562
 21
-285.0
 31
0.0
  0
ARC
  5
15D
100
AcDbEntity
  8
FAN70-0312
370
              15
390
0
  6
Continuous
 62
               7
100
AcDbCircle
 10
-164.79115372808562
 20
-288.5
 30
0.0
 40
3.5
100
AcDbArc
 50
0.0
 51
90.0
  0
POLYLINE
  5
15E
100
AcDbEntity
  8
FAN70-0312
370
              15
390
0
  6
Continuous
 62
               7
100
AcDb2dPolyline
 66
               1
 10
0.0
 20
0.0
 30
0.0
 75
               5
  0
VERTEX
  5
15F
100
AcDbEntity
  8
FAN70-0312
370
              15
390
0
  6
Continuous
 62
               7
100
AcDbVertex
100
AcDb2dVertex
 10
-487.00733015648564
 20
-418.4804022161004
 30
0.0
  0
VERTEX
  5
160
100
AcDbEntity
  8
FAN70-0312
370
              15
390
0
  6
Continuous
 62
               7
100
AcDbVertex
100
AcDb2dVertex
 10
-490.62416947108557
 20
-418.13593318990047
 30
0.0
  0
VERTEX
  5
161
100
AcDbEntity
  8
FAN70-0312
370
              15
390
0
  6
Continuous
 62
               7
100
AcDbVertex
100
AcDb2dVertex
 10
-507.43792378768558
 20
-415.58253668650036
 30
0.0
  0
VERTEX
  5
162
100
AcDbEntity
  8
FAN70-0312
370
              15
390
0
  6
Continuous
 62
               7
100
AcDbVertex
100
AcDb2dVertex
 10
-524.08373731218546
 20
-412.09973071350032
 30
0.0
  0
VERTEX
  5
163
100
AcDbEntity
  8
FAN70-0312
370
              15
390
0
  6
Continuous
 62
               7
100
AcDbVertex
100
AcDb2dVertex
 10
-540.48298490558545
 20
-407.70164807970036
 30
0.0
  0
VERTEX
  5
164
100
AcDbEntity
  8
FAN70-0312
370
              15
390
0
  6
Continuous
 62
               7
100
AcDbVertex
100
AcDb2dVertex
 10
-556.55704142888544
 20
-402.40242159370041
 30
0.0
  0
VERTEX
  5
165
100
AcDbEntity
  8
FAN70-0312
370
              15
390
0
  6
Continuous
 62
               7
100
AcDbVertex
100
AcDb2dVertex
 10
-570.14197745278545
 20
-397.11420236650042
 30
0.0
  0
VERTEX
  5
166
100
AcDbEntity
  8
FAN70-0312
370
              15
390
0
  6
Continuous
 62
               7
100
AcDbVertex
100
AcDb2dVertex
 10
-583.46346931548544
 20
-391.17359335410032
 30
0.0
  0
VERTEX
  5
167
100
AcDbEntity
  8
FAN70-0312
370
              15
390
0
  6
Continuous
 62
               7
100
AcDbVertex
100
AcDb2dVertex
 10
-596.47481876018549
 20
-384.60118683430017
 30
0.0
  0
VERTEX
  5
168
100
AcDbEntity
  8
FAN70-0312
370
              15
390
0
  6
Continuous
 62
               7
100
AcDbVertex
100
AcDb2dVertex
 10
-612.7723335393855
 20
-375.19536084190008
 30
0.0
  0
VERTEX
  5
169
100
AcDbEntity
  8
FAN70-0312
370
              15
390
0
  6
Continuous
 62
               7
100
AcDbVertex
100
AcDb2dVertex
 10
-628.48131300048544
 20
-364.77108753570008
 30
0.0
  0
VERTEX
  5
16A
100
AcDbEntity
  8
FAN70-0312
370
              15
390
0
  6
Continuous
 62
               7
100
AcDbVertex
100
AcDb2dVertex
 10
-643.51153148818548
 20
-353.39151659369998
 30
0.0
  0
VERTEX
  5
16B
100
AcDbEntity
  8
FAN70-0312
370
              15
390
0
  6
Continuous
 62
               7
100
AcDbVertex
100
AcDb2dVertex
 10
-657.77276334738542
 20
-341.11979769410004
 30
0.0
  0
VERTEX
  5
16C
100
AcDbEntity
  8
FAN70-0312
370
              15
390
0
  6
Continuous
 62
               7
100
AcDbVertex
100
AcDb2dVertex
 10
-664.17953607068546
 20
-334.88433922180002
 30
0.0
  0
VERTEX
  5
16D
100
AcDbEntity
  8
FAN70-0312
370
              15
390
0
  6
Continuous
 62
               7
100
AcDbVertex
100
AcDb2dVertex
 10
-670.48969874928548
 20
-328.74290748459998
 30
0.0
  0
VERTEX
  5
16E
100
AcDbEntity
  8
FAN70-0312
370
              15
390
0
  6
Continuous
 62
               7
100
AcDbVertex
100
AcDb2dVertex
 10
-682.47437100418551
 20
-315.6146471687
 30
0.0
  0
VERTEX
  5
16F
100
AcDbEntity
  8
FAN70-0312
370
              15
390
0
  6
Continuous
 62
               7
100
AcDbVertex
100
AcDb2dVertex
 10
-693.66568154568552
 20
-301.80497426220006
 30
0.0
  0
VERTEX
  5
170
100
AcDbEntity
  8
FAN70-0312
370
              15
390
0
  6
Continuous
 62
               7
100
AcDbVertex
100
AcDb2dVertex
 10
-699.97695626898553
 20
-293.0
 30
0.0
  0
SEQEND
  5
171
100
AcDbEntity
  8
FAN70-0312
370
              15
390
0
  6
Continuous
 62
               7
  0
POLYLINE
  5
172
100
AcDbEntity
  8
FAN70-0312
370
              15
390
0
  6
Continuous
 62
               7
100
AcDb2dPolyline
 66
               1
 10
0.0
 20
0.0
 30
0.0
 75
               5
  0
VERTEX
  5
173
100
AcDbEntity
  8
FAN70-0312
370
              15
390
0
  6
Continuous
 62
               7
100
AcDbVertex
100
AcDb2dVertex
 10
-488.84395709398564
 20
-416.28156666890027
 30
0.0
  0
VERTEX
  5
174
100
AcDbEntity
  8
FAN70-0312
370
              15
390
0
  6
Continuous
 62
               7
100
AcDbVertex
100
AcDb2dVertex
 10
-488.85741760978567
 20
-416.27524594900046
 30
0.0
  0
VERTEX
  5
175
100
AcDbEntity
  8
FAN70-0312
370
              15
390
0
  6
Continuous
 62
               7
100
AcDbVertex
100
AcDb2dVertex
 10
-488.60029852108562
 20
-416.07188104910028
 30
0.0
  0
VERTEX
  5
176
100
AcDbEntity
  8
FAN70-0312
370
              15
390
0
  6
Continuous
 62
               7
100
AcDbVertex
100
AcDb2dVertex
 10
-487.41816475728558
 20
-415.97608808720042
 30
0.0
  0
VERTEX
  5
177
100
AcDbEntity
  8
FAN70-0312
370
              15
390
0
  6
Continuous
 62
               7
100
AcDbVertex
100
AcDb2dVertex
 10
-485.36850149888562
 20
-415.9779845914004
 30
0.0
  0
VERTEX
  5
178
100
AcDbEntity
  8
FAN70-0312
370
              15
390
0
  6
Continuous
 62
               7
100
AcDbVertex
100
AcDb2dVertex
 10
-482.5353552263856
 20
-416.05975999110046
 30
0.0
  0
VERTEX
  5
179
100
AcDbEntity
  8
FAN70-0312
370
              15
390
0
  6
Continuous
 62
               7
100
AcDbVertex
100
AcDb2dVertex
 10
-479.00846997828558
 20
-416.19481907950035
 30
0.0
  0
VERTEX
  5
17A
100
AcDbEntity
  8
FAN70-0312
370
              15
390
0
  6
Continuous
 62
               7
100
AcDbVertex
100
AcDb2dVertex
 10
-474.67855092768559
 20
-416.36390151900036
 30
0.0
  0
VERTEX
  5
17B
100
AcDbEntity
  8
FAN70-0312
370
              15
390
0
  6
Continuous
 62
               7
100
AcDbVertex
100
AcDb2dVertex
 10
-469.82609983458565
 20
-416.53149210060042
 30
0.0
  0
VERTEX
  5
17C
100
AcDbEntity
  8
FAN70-0312
370
              15
390
0
  6
Continuous
 62
               7
100
AcDbVertex
100
AcDb2dVertex
 10
-464.31907083408566
 20
-416.67545546350038
 30
0.0
  0
VERTEX
  5
17D
100
AcDbEntity
  8
FAN70-0312
370
              15
390
0
  6
Continuous
 62
               7
100
AcDbVertex
100
AcDb2dVertex
 10
-458.53316326088554
 20
-416.76600932460042
 30
0.0
  0
VERTEX
  5
17E
100
AcDbEntity
  8
FAN70-0312
370
              15
390
0
  6
Continuous
 62
               7
100
AcDbVertex
100
AcDb2dVertex
 10
-453.79115372808565
 20
-416.78921427240039
 30
0.0
  0
SEQEND
  5
17F
100
AcDbEntity
  8
FAN70-0312
370
              15
390
0
  6
Continuous
 62
               7
  0
POLYLINE
  5
180
100
AcDbEntity
  8
FAN70-0312
370
              15
390
0
  6
Continuous
 62
               7
100
AcDb2dPolyline
 66
               1
 10
0.0
 20
0.0
 30
0.0
 75
               5
  0
VERTEX
  5
181
100
AcDbEntity
  8
FAN70-0312
370
              15
390
0
  6
Continuous
 62
               7
100
AcDbVertex
100
AcDb2dVertex
 10
-420.57497729968554
 20
-418.4804022161004
 30
0.0
  0
VERTEX
  5
182
100
AcDbEntity
  8
FAN70-0312
370
              15
390
0
  6
Continuous
 62
               7
100
AcDbVertex
100
AcDb2dVertex
 10
-416.95813798498557
 20
-418.13593318990047
 30
0.0
  0
VERTEX
  5
183
100
AcDbEntity
  8
FAN70-0312
370
              15
390
0
  6
Continuous
 62
               7
100
AcDbVertex
100
AcDb2dVertex
 10
-400.1443836684856
 20
-415.58253668650036
 30
0.0
  0
VERTEX
  5
184
100
AcDbEntity
  8
FAN70-0312
370
              15
390
0
  6
Continuous
 62
               7
100
AcDbVertex
100
AcDb2dVertex
 10
-383.4985701439856
 20
-412.09973071350032
 30
0.0
  0
VERTEX
  5
185
100
AcDbEntity
  8
FAN70-0312
370
              15
390
0
  6
Continuous
 62
               7
100
AcDbVertex
100
AcDb2dVertex
 10
-367.09932255048557
 20
-407.70164807970036
 30
0.0
  0
VERTEX
  5
186
100
AcDbEntity
  8
FAN70-0312
370
              15
390
0
  6
Continuous
 62
               7
100
AcDbVertex
100
AcDb2dVertex
 10
-351.02526602718558
 20
-402.40242159370041
 30
0.0
  0
VERTEX
  5
187
100
AcDbEntity
  8
FAN70-0312
370
              15
390
0
  6
Continuous
 62
               7
100
AcDbVertex
100
AcDb2dVertex
 10
-337.44033000338561
 20
-397.11420236650042
 30
0.0
  0
VERTEX
  5
188
100
AcDbEntity
  8
FAN70-0312
370
              15
390
0
  6
Continuous
 62
               7
100
AcDbVertex
100
AcDb2dVertex
 10
-324.11883814058558
 20
-391.17359335410032
 30
0.0
  0
VERTEX
  5
189
100
AcDbEntity
  8
FAN70-0312
370
              15
390
0
  6
Continuous
 62
               7
100
AcDbVertex
100
AcDb2dVertex
 10
-311.10748869598558
 20
-384.60118683430017
 30
0.0
  0
VERTEX
  5
18A
100
AcDbEntity
  8
FAN70-0312
370
              15
390
0
  6
Continuous
 62
               7
100
AcDbVertex
100
AcDb2dVertex
 10
-294.80997391668552
 20
-375.19536084190008
 30
0.0
  0
VERTEX
  5
18B
100
AcDbEntity
  8
FAN70-0312
370
              15
390
0
  6
Continuous
 62
               7
100
AcDbVertex
100
AcDb2dVertex
 10
-279.10099445558558
 20
-364.77108753570008
 30
0.0
  0
VERTEX
  5
18C
100
AcDbEntity
  8
FAN70-0312
370
              15
390
0
  6
Continuous
 62
               7
100
AcDbVertex
100
AcDb2dVertex
 10
-264.07077596788554
 20
-353.39151659369998
 30
0.0
  0
VERTEX
  5
18D
100
AcDbEntity
  8
FAN70-0312
370
              15
390
0
  6
Continuous
 62
               7
100
AcDbVertex
100
AcDb2dVertex
 10
-249.8095441086856
 20
-341.11979769410004
 30
0.0
  0
VERTEX
  5
18E
100
AcDbEntity
  8
FAN70-0312
370
              15
390
0
  6
Continuous
 62
               7
100
AcDbVertex
100
AcDb2dVertex
 10
-243.27022790098553
 20
-334.75533989120004
 30
0.0
  0
VERTEX
  5
18F
100
AcDbEntity
  8
FAN70-0312
370
              15
390
0
  6
Continuous
 62
               7
100
AcDbVertex
100
AcDb2dVertex
 10
-237.09260870678554
 20
-328.74290748459998
 30
0.0
  0
VERTEX
  5
190
100
AcDbEntity
  8
FAN70-0312
370
              15
390
0
  6
Continuous
 62
               7
100
AcDbVertex
100
AcDb2dVertex
 10
-225.10793645198552
 20
-315.6146471687
 30
0.0
  0
VERTEX
  5
191
100
AcDbEntity
  8
FAN70-0312
370
              15
390
0
  6
Continuous
 62
               7
100
AcDbVertex
100
AcDb2dVertex
 10
-213.91662591048552
 20
-301.80497426220006
 30
0.0
  0
VERTEX
  5
192
100
AcDbEntity
  8
FAN70-0312
370
              15
390
0
  6
Continuous
 62
               7
100
AcDbVertex
100
AcDb2dVertex
 10
-207.60535118708546
 20
-293.0
 30
0.0
  0
SEQEND
  5
193
100
AcDbEntity
  8
FAN70-0312
370
              15
390
0
  6
Continuous
 62
               7
  0
POLYLINE
  5
194
100
AcDbEntity
  8
FAN70-0312
370
              15
390
0
  6
Continuous
 62
               7
100
AcDb2dPolyline
 66
               1
 10
0.0
 20
0.0
 30
0.0
 75
               5
  0
VERTEX
  5
195
100
AcDbEntity
  8
FAN70-0312
370
              15
390
0
  6
Continuous
 62
               7
100
AcDbVertex
100
AcDb2dVertex
 10
-418.73835036218554
 20
-416.28156666890027
 30
0.0
  0
VERTEX
  5
196
100
AcDbEntity
  8
FAN70-0312
370
              15
390
0
  6
Continuous
 62
               7
100
AcDbVertex
100
AcDb2dVertex
 10
-418.72488984628558
 20
-416.27524594900046
 30
0.0
  0
VERTEX
  5
197
100
AcDbEntity
  8
FAN70-0312
370
              15
390
0
  6
Continuous
 62
               7
100
AcDbVertex
100
AcDb2dVertex
 10
-418.98200893508556
 20
-416.07188104910028
 30
0.0
  0
VERTEX
  5
198
100
AcDbEntity
  8
FAN70-0312
370
              15
390
0
  6
Continuous
 62
               7
100
AcDbVertex
100
AcDb2dVertex
 10
-420.16414269878567
 20
-415.97608808720042
 30
0.0
  0
VERTEX
  5
199
100
AcDbEntity
  8
FAN70-0312
370
              15
390
0
  6
Continuous
 62
               7
100
AcDbVertex
100
AcDb2dVertex
 10
-422.21380595718563
 20
-415.9779845914004
 30
0.0
  0
VERTEX
  5
19A
100
AcDbEntity
  8
FAN70-0312
370
              15
390
0
  6
Continuous
 62
               7
100
AcDbVertex
100
AcDb2dVertex
 10
-425.04695222968564
 20
-416.05975999110046
 30
0.0
  0
VERTEX
  5
19B
100
AcDbEntity
  8
FAN70-0312
370
              15
390
0
  6
Continuous
 62
               7
100
AcDbVertex
100
AcDb2dVertex
 10
-428.5738374778856
 20
-416.19481907950035
 30
0.0
  0
VERTEX
  5
19C
100
AcDbEntity
  8
FAN70-0312
370
              15
390
0
  6
Continuous
 62
               7
100
AcDbVertex
100
AcDb2dVertex
 10
-432.90375652848559
 20
-416.36390151900036
 30
0.0
  0
VERTEX
  5
19D
100
AcDbEntity
  8
FAN70-0312
370
              15
390
0
  6
Continuous
 62
               7
100
AcDbVertex
100
AcDb2dVertex
 10
-437.7562076214856
 20
-416.53149210060042
 30
0.0
  0
VERTEX
  5
19E
100
AcDbEntity
  8
FAN70-0312
370
              15
390
0
  6
Continuous
 62
               7
100
AcDbVertex
100
AcDb2dVertex
 10
-443.26323662198558
 20
-416.67545546350038
 30
0.0
  0
VERTEX
  5
19F
100
AcDbEntity
  8
FAN70-0312
370
              15
390
0
  6
Continuous
 62
               7
100
AcDbVertex
100
AcDb2dVertex
 10
-449.04914419518559
 20
-416.76600932460042
 30
0.0
  0
VERTEX
  5
1A0
100
AcDbEntity
  8
FAN70-0312
370
              15
390
0
  6
Continuous
 62
               7
100
AcDbVertex
100
AcDb2dVertex
 10
-453.79115372808565
 20
-416.78921427240039
 30
0.0
  0
SEQEND
  5
1A1
100
AcDbEntity
  8
FAN70-0312
370
              15
390
0
  6
Continuous
 62
               7
  0
LINE
  5
1A2
100
AcDbEntity
  8
FAN70-0312
370
              15
390
0
  6
Continuous
 62
               7
100
AcDbLine
 10
-453.78625237562733
 20
845.42672379103556
 30
0.0
 11
-453.57876595442724
 21
845.42672379103556
 31
0.0
  0
LINE
  5
1A3
100
AcDbEntity
  8
FAN70-0312
370
              15
390
0
  6
Continuous
 62
               7
100
AcDbLine
 10
-453.78625237562733
 20
845.42672379103556
 30
0.0
 11
-453.7862523721908
 21
845.4267237956085
 31
0.0
  0
POLYLINE
  5
1A4
100
AcDbEntity
  8
FAN70-0312
370
              15
390
0
  6
Continuous
 62
               7
100
AcDb2dPolyline
 66
               1
 10
0.0
 20
0.0
 30
0.0
 75
               5
  0
VERTEX
  5
1A5
100
AcDbEntity
  8
FAN70-0312
370
              15
390
0
  6
Continuous
 62
               7
100
AcDbVertex
100
AcDb2dVertex
 10
-453.78625237562733
 20
488.18006275903605
 30
0.0
  0
VERTEX
  5
1A6
100
AcDbEntity
  8
FAN70-0312
370
              15
390
0
  6
Continuous
 62
               7
100
AcDbVertex
100
AcDb2dVertex
 10
-450.71005401612729
 20
488.17963976733591
 30
0.0
  0
VERTEX
  5
1A7
100
AcDbEntity
  8
FAN70-0312
370
              15
390
0
  6
Continuous
 62
               7
100
AcDbVertex
100
AcDb2dVertex
 10
-431.02265690362731
 20
488.15654585633598
 30
0.0
  0
VERTEX
  5
1A8
100
AcDbEntity
  8
FAN70-0312
370
              15
390
0
  6
Continuous
 62
               7
100
AcDbVertex
100
AcDb2dVertex
 10
-411.3729091476273
 20
488.09849736483585
 30
0.0
  0
VERTEX
  5
1A9
100
AcDbEntity
  8
FAN70-0312
370
              15
390
0
  6
Continuous
 62
               7
100
AcDbVertex
100
AcDb2dVertex
 10
-391.89262071012729
 20
488.00612168743606
 30
0.0
  0
VERTEX
  5
1AA
100
AcDbEntity
  8
FAN70-0312
370
              15
390
0
  6
Continuous
 62
               7
100
AcDbVertex
100
AcDb2dVertex
 10
-372.71360155342734
 20
487.88004621913598
 30
0.0
  0
VERTEX
  5
1AB
100
AcDbEntity
  8
FAN70-0312
370
              15
390
0
  6
Continuous
 62
               7
100
AcDbVertex
100
AcDb2dVertex
 10
-353.96766163982727
 20
487.72089835473599
 30
0.0
  0
VERTEX
  5
1AC
100
AcDbEntity
  8
FAN70-0312
370
              15
390
0
  6
Continuous
 62
               7
100
AcDbVertex
100
AcDb2dVertex
 10
-337.73738773252728
 20
487.55222159753595
 30
0.0
  0
VERTEX
  5
1AD
100
AcDbEntity
  8
FAN70-0312
370
              15
390
0
  6
Continuous
 62
               7
100
AcDbVertex
100
AcDb2dVertex
 10
-321.89160939782721
 20
487.35818889153603
 30
0.0
  0
VERTEX
  5
1AE
100
AcDbEntity
  8
FAN70-0312
370
              15
390
0
  6
Continuous
 62
               7
100
AcDbVertex
100
AcDb2dVertex
 10
-306.51310811192729
 20
487.13990559053588
 30
0.0
  0
VERTEX
  5
1AF
100
AcDbEntity
  8
FAN70-0312
370
              15
390
0
  6
Continuous
 62
               7
100
AcDbVertex
100
AcDb2dVertex
 10
-291.68466535112725
 20
486.89847704843606
 30
0.0
  0
VERTEX
  5
1B0
100
AcDbEntity
  8
FAN70-0312
370
              15
390
0
  6
Continuous
 62
               7
100
AcDbVertex
100
AcDb2dVertex
 10
-275.42173807582731
 20
486.59400083263591
 30
0.0
  0
VERTEX
  5
1B1
100
AcDbEntity
  8
FAN70-0312
370
              15
390
0
  6
Continuous
 62
               7
100
AcDbVertex
100
AcDb2dVertex
 10
-259.95232159072725
 20
486.26047664673598
 30
0.0
  0
VERTEX
  5
1B2
100
AcDbEntity
  8
FAN70-0312
370
              15
390
0
  6
Continuous
 62
               7
100
AcDbVertex
100
AcDb2dVertex
 10
-245.3799394792272
 20
485.900327244636
 30
0.0
  0
VERTEX
  5
1B3
100
AcDbEntity
  8
FAN70-0312
370
              15
390
0
  6
Continuous
 62
               7
100
AcDbVertex
100
AcDb2dVertex
 10
-231.80811532492723
 20
485.51597538023594
 30
0.0
  0
SEQEND
  5
1B4
100
AcDbEntity
  8
FAN70-0312
370
              15
390
0
  6
Continuous
 62
               7
  0
POLYLINE
  5
1B5
100
AcDbEntity
  8
FAN70-0312
370
              15
390
0
  6
Continuous
 62
               7
100
AcDb2dPolyline
 66
               1
 10
0.0
 20
0.0
 30
0.0
 75
               5
  0
VERTEX
  5
1B6
100
AcDbEntity
  8
FAN70-0312
370
              15
390
0
  6
Continuous
 62
               7
100
AcDbVertex
100
AcDb2dVertex
 10
-204.83087402782721
 20
505.14211432573603
 30
0.0
  0
VERTEX
  5
1B7
100
AcDbEntity
  8
FAN70-0312
370
              15
390
0
  6
Continuous
 62
               7
100
AcDbVertex
100
AcDb2dVertex
 10
-215.73651234622727
 20
505.37805236263586
 30
0.0
  0
VERTEX
  5
1B8
100
AcDbEntity
  8
FAN70-0312
370
              15
390
0
  6
Continuous
 62
               7
100
AcDbVertex
100
AcDb2dVertex
 10
-227.41013983512718
 20
505.60369794953596
 30
0.0
  0
VERTEX
  5
1B9
100
AcDbEntity
  8
FAN70-0312
370
              15
390
0
  6
Continuous
 62
               7
100
AcDbVertex
100
AcDb2dVertex
 10
-239.79398546452728
 20
505.81810842463602
 30
0.0
  0
VERTEX
  5
1BA
100
AcDbEntity
  8
FAN70-0312
370
              15
390
0
  6
Continuous
 62
               7
100
AcDbVertex
100
AcDb2dVertex
 10
-252.83027820402719
 20
506.02034112633606
 30
0.0
  0
VERTEX
  5
1BB
100
AcDbEntity
  8
FAN70-0312
370
              15
390
0
  6
Continuous
 62
               7
100
AcDbVertex
100
AcDb2dVertex
 10
-266.46124702342729
 20
506.2094533931359
 30
0.0
  0
VERTEX
  5
1BC
100
AcDbEntity
  8
FAN70-0312
370
              15
390
0
  6
Continuous
 62
               7
100
AcDbVertex
100
AcDb2dVertex
 10
-280.62912089252723
 20
506.38450256333596
 30
0.0
  0
VERTEX
  5
1BD
100
AcDbEntity
  8
FAN70-0312
370
              15
390
0
  6
Continuous
 62
               7
100
AcDbVertex
100
AcDb2dVertex
 10
-296.46995926972727
 20
506.55702555763588
 30
0.0
  0
VERTEX
  5
1BE
100
AcDbEntity
  8
FAN70-0312
370
              15
390
0
  6
Continuous
 62
               7
100
AcDbVertex
100
AcDb2dVertex
 10
-312.89809835862729
 20
506.71304763893596
 30
0.0
  0
VERTEX
  5
1BF
100
AcDbEntity
  8
FAN70-0312
370
              15
390
0
  6
Continuous
 62
               7
100
AcDbVertex
100
AcDb2dVertex
 10
-329.82508435362729
 20
506.85176731143594
 30
0.0
  0
VERTEX
  5
1C0
100
AcDbEntity
  8
FAN70-0312
370
              15
390
0
  6
Continuous
 62
               7
100
AcDbVertex
100
AcDb2dVertex
 10
-347.16246344942726
 20
506.972383079336
 30
0.0
  0
VERTEX
  5
1C1
100
AcDbEntity
  8
FAN70-0312
370
              15
390
0
  6
Continuous
 62
               7
100
AcDbVertex
100
AcDb2dVertex
 10
-364.96476530162727
 20
507.07502407323597
 30
0.0
  0
VERTEX
  5
1C2
100
AcDbEntity
  8
FAN70-0312
370
              15
390
0
  6
Continuous
 62
               7
100
AcDbVertex
100
AcDb2dVertex
 10
-383.10142801102722
 20
507.15890835033593
 30
0.0
  0
VERTEX
  5
1C3
100
AcDbEntity
  8
FAN70-0312
370
              15
390
0
  6
Continuous
 62
               7
100
AcDbVertex
100
AcDb2dVertex
 10
-401.47506131842727
 20
507.22357541303592
 30
0.0
  0
VERTEX
  5
1C4
100
AcDbEntity
  8
FAN70-0312
370
              15
390
0
  6
Continuous
 62
               7
100
AcDbVertex
100
AcDb2dVertex
 10
-418.81637641182726
 20
507.26640857263607
 30
0.0
  0
VERTEX
  5
1C5
100
AcDbEntity
  8
FAN70-0312
370
              15
390
0
  6
Continuous
 62
               7
100
AcDbVertex
100
AcDb2dVertex
 10
-436.28075710332723
 20
507.29219794173588
 30
0.0
  0
VERTEX
  5
1C6
100
AcDbEntity
  8
FAN70-0312
370
              15
390
0
  6
Continuous
 62
               7
100
AcDbVertex
100
AcDb2dVertex
 10
-453.78625237562733
 20
507.30082151123594
 30
0.0
  0
SEQEND
  5
1C7
100
AcDbEntity
  8
FAN70-0312
370
              15
390
0
  6
Continuous
 62
               7
  0
POLYLINE
  5
1C8
100
AcDbEntity
  8
FAN70-0312
370
              15
390
0
  6
Continuous
 62
               7
100
AcDb2dPolyline
 66
               1
 10
0.0
 20
0.0
 30
0.0
 75
               5
  0
VERTEX
  5
1C9
100
AcDbEntity
  8
FAN70-0312
370
              15
390
0
  6
Continuous
 62
               7
100
AcDbVertex
100
AcDb2dVertex
 10
-453.78625237562733
 20
488.18006275903605
 30
0.0
  0
VERTEX
  5
1CA
100
AcDbEntity
  8
FAN70-0312
370
              15
390
0
  6
Continuous
 62
               7
100
AcDbVertex
100
AcDb2dVertex
 10
-456.86245073502721
 20
488.17963976733591
 30
0.0
  0
VERTEX
  5
1CB
100
AcDbEntity
  8
FAN70-0312
370
              15
390
0
  6
Continuous
 62
               7
100
AcDbVertex
100
AcDb2dVertex
 10
-476.5498478475273
 20
488.15654585633598
 30
0.0
  0
VERTEX
  5
1CC
100
AcDbEntity
  8
FAN70-0312
370
              15
390
0
  6
Continuous
 62
               7
100
AcDbVertex
100
AcDb2dVertex
 10
-496.19959560362724
 20
488.09849736483585
 30
0.0
  0
VERTEX
  5
1CD
100
AcDbEntity
  8
FAN70-0312
370
              15
390
0
  6
Continuous
 62
               7
100
AcDbVertex
100
AcDb2dVertex
 10
-515.67988404102721
 20
488.00612168743606
 30
0.0
  0
VERTEX
  5
1CE
100
AcDbEntity
  8
FAN70-0312
370
              15
390
0
  6
Continuous
 62
               7
100
AcDbVertex
100
AcDb2dVertex
 10
-534.85890319772716
 20
487.88004621913598
 30
0.0
  0
VERTEX
  5
1CF
100
AcDbEntity
  8
FAN70-0312
370
              15
390
0
  6
Continuous
 62
               7
100
AcDbVertex
100
AcDb2dVertex
 10
-553.60484311142716
 20
487.72089835473599
 30
0.0
  0
VERTEX
  5
1D0
100
AcDbEntity
  8
FAN70-0312
370
              15
390
0
  6
Continuous
 62
               7
100
AcDbVertex
100
AcDb2dVertex
 10
-569.83511701872715
 20
487.55222159753595
 30
0.0
  0
VERTEX
  5
1D1
100
AcDbEntity
  8
FAN70-0312
370
              15
390
0
  6
Continuous
 62
               7
100
AcDbVertex
100
AcDb2dVertex
 10
-585.6808953534271
 20
487.35818889153603
 30
0.0
  0
VERTEX
  5
1D2
100
AcDbEntity
  8
FAN70-0312
370
              15
390
0
  6
Continuous
 62
               7
100
AcDbVertex
100
AcDb2dVertex
 10
-601.0593966392272
 20
487.13990559053588
 30
0.0
  0
VERTEX
  5
1D3
100
AcDbEntity
  8
FAN70-0312
370
              15
390
0
  6
Continuous
 62
               7
100
AcDbVertex
100
AcDb2dVertex
 10
-615.88783940002713
 20
486.89847704843606
 30
0.0
  0
VERTEX
  5
1D4
100
AcDbEntity
  8
FAN70-0312
370
              15
390
0
  6
Continuous
 62
               7
100
AcDbVertex
100
AcDb2dVertex
 10
-632.15076667532719
 20
486.59400083263591
 30
0.0
  0
VERTEX
  5
1D5
100
AcDbEntity
  8
FAN70-0312
370
              15
390
0
  6
Continuous
 62
               7
100
AcDbVertex
100
AcDb2dVertex
 10
-647.62018316052718
 20
486.26047664673598
 30
0.0
  0
VERTEX
  5
1D6
100
AcDbEntity
  8
FAN70-0312
370
              15
390
0
  6
Continuous
 62
               7
100
AcDbVertex
100
AcDb2dVertex
 10
-662.19256527192715
 20
485.900327244636
 30
0.0
  0
VERTEX
  5
1D7
100
AcDbEntity
  8
FAN70-0312
370
              15
390
0
  6
Continuous
 62
               7
100
AcDbVertex
100
AcDb2dVertex
 10
-675.76438942622713
 20
485.51597538023594
 30
0.0
  0
SEQEND
  5
1D8
100
AcDbEntity
  8
FAN70-0312
370
              15
390
0
  6
Continuous
 62
               7
  0
POLYLINE
  5
1D9
100
AcDbEntity
  8
FAN70-0312
370
              15
390
0
  6
Continuous
 62
               7
100
AcDb2dPolyline
 66
               1
 10
0.0
 20
0.0
 30
0.0
 75
               5
  0
VERTEX
  5
1DA
100
AcDbEntity
  8
FAN70-0312
370
              15
390
0
  6
Continuous
 62
               7
100
AcDbVertex
100
AcDb2dVertex
 10
-702.74163072332715
 20
505.14211432573603
 30
0.0
  0
VERTEX
  5
1DB
100
AcDbEntity
  8
FAN70-0312
370
              15
390
0
  6
Continuous
 62
               7
100
AcDbVertex
100
AcDb2dVertex
 10
-691.83599240502713
 20
505.37805236263586
 30
0.0
  0
VERTEX
  5
1DC
100
AcDbEntity
  8
FAN70-0312
370
              15
390
0
  6
Continuous
 62
               7
100
AcDbVertex
100
AcDb2dVertex
 10
-680.16236491602717
 20
505.60369794953596
 30
0.0
  0
VERTEX
  5
1DD
100
AcDbEntity
  8
FAN70-0312
370
              15
390
0
  6
Continuous
 62
               7
100
AcDbVertex
100
AcDb2dVertex
 10
-667.77851928672715
 20
505.81810842463602
 30
0.0
  0
VERTEX
  5
1DE
100
AcDbEntity
  8
FAN70-0312
370
              15
390
0
  6
Continuous
 62
               7
100
AcDbVertex
100
AcDb2dVertex
 10
-654.74222654722712
 20
506.02034112633606
 30
0.0
  0
VERTEX
  5
1DF
100
AcDbEntity
  8
FAN70-0312
370
              15
390
0
  6
Continuous
 62
               7
100
AcDbVertex
100
AcDb2dVertex
 10
-641.11125772772721
 20
506.2094533931359
 30
0.0
  0
VERTEX
  5
1E0
100
AcDbEntity
  8
FAN70-0312
370
              15
390
0
  6
Continuous
 62
               7
100
AcDbVertex
100
AcDb2dVertex
 10
-626.94338385862716
 20
506.38450256333596
 30
0.0
  0
VERTEX
  5
1E1
100
AcDbEntity
  8
FAN70-0312
370
              15
390
0
  6
Continuous
 62
               7
100
AcDbVertex
100
AcDb2dVertex
 10
-611.10254548152716
 20
506.55702555763588
 30
0.0
  0
VERTEX
  5
1E2
100
AcDbEntity
  8
FAN70-0312
370
              15
390
0
  6
Continuous
 62
               7
100
AcDbVertex
100
AcDb2dVertex
 10
-594.67440639262713
 20
506.71304763893596
 30
0.0
  0
VERTEX
  5
1E3
100
AcDbEntity
  8
FAN70-0312
370
              15
390
0
  6
Continuous
 62
               7
100
AcDbVertex
100
AcDb2dVertex
 10
-577.74742039752709
 20
506.85176731143594
 30
0.0
  0
VERTEX
  5
1E4
100
AcDbEntity
  8
FAN70-0312
370
              15
390
0
  6
Continuous
 62
               7
100
AcDbVertex
100
AcDb2dVertex
 10
-560.41004130182716
 20
506.972383079336
 30
0.0
  0
VERTEX
  5
1E5
100
AcDbEntity
  8
FAN70-0312
370
              15
390
0
  6
Continuous
 62
               7
100
AcDbVertex
100
AcDb2dVertex
 10
-542.60773944962716
 20
507.07502407323597
 30
0.0
  0
VERTEX
  5
1E6
100
AcDbEntity
  8
FAN70-0312
370
              15
390
0
  6
Continuous
 62
               7
100
AcDbVertex
100
AcDb2dVertex
 10
-524.4710767402272
 20
507.15890835033593
 30
0.0
  0
VERTEX
  5
1E7
100
AcDbEntity
  8
FAN70-0312
370
              15
390
0
  6
Continuous
 62
               7
100
AcDbVertex
100
AcDb2dVertex
 10
-506.09744343282728
 20
507.22357541303592
 30
0.0
  0
VERTEX
  5
1E8
100
AcDbEntity
  8
FAN70-0312
370
              15
390
0
  6
Continuous
 62
               7
100
AcDbVertex
100
AcDb2dVertex
 10
-488.75612833942728
 20
507.26640857263607
 30
0.0
  0
VERTEX
  5
1E9
100
AcDbEntity
  8
FAN70-0312
370
              15
390
0
  6
Continuous
 62
               7
100
AcDbVertex
100
AcDb2dVertex
 10
-471.29174764792731
 20
507.29219794173588
 30
0.0
  0
VERTEX
  5
1EA
100
AcDbEntity
  8
FAN70-0312
370
              15
390
0
  6
Continuous
 62
               7
100
AcDbVertex
100
AcDb2dVertex
 10
-453.78625237562733
 20
507.30082151123594
 30
0.0
  0
SEQEND
  5
1EB
100
AcDbEntity
  8
FAN70-0312
370
              15
390
0
  6
Continuous
 62
               7
  0
POLYLINE
  5
1EC
100
AcDbEntity
  8
FAN70-0312
370
              15
390
0
  6
Continuous
 62
               7
100
AcDb2dPolyline
 66
               1
 10
0.0
 20
0.0
 30
0.0
 75
               5
  0
VERTEX
  5
1ED
100
AcDbEntity
  8
FAN70-0312
370
              15
390
0
  6
Continuous
 62
               7
100
AcDbVertex
100
AcDb2dVertex
 10
-453.78625237562733
 20
720.56350023313553
 30
0.0
  0
VERTEX
  5
1EE
100
AcDbEntity
  8
FAN70-0312
370
              15
390
0
  6
Continuous
 62
               7
100
AcDbVertex
100
AcDb2dVertex
 10
-456.78745346162725
 20
720.56408514893542
 30
0.0
  0
VERTEX
  5
1EF
100
AcDbEntity
  8
FAN70-0312
370
              15
390
0
  6
Continuous
 62
               7
100
AcDbVertex
100
AcDb2dVertex
 10
-476.98436789852724
 20
720.59898500863551
 30
0.0
  0
VERTEX
  5
1F0
100
AcDbEntity
  8
FAN70-0312
370
              15
390
0
  6
Continuous
 62
               7
100
AcDbVertex
100
AcDb2dVertex
 10
-497.14343278612728
 20
720.68733823693537
 30
0.0
  0
VERTEX
  5
1F1
100
AcDbEntity
  8
FAN70-0312
370
              15
390
0
  6
Continuous
 62
               7
100
AcDbVertex
100
AcDb2dVertex
 10
-517.1294588043271
 20
720.82821310573536
 30
0.0
  0
VERTEX
  5
1F2
100
AcDbEntity
  8
FAN70-0312
370
              15
390
0
  6
Continuous
 62
               7
100
AcDbVertex
100
AcDb2dVertex
 10
-536.80725663282715
 20
721.02067788673548
 30
0.0
  0
VERTEX
  5
1F3
100
AcDbEntity
  8
FAN70-0312
370
              15
390
0
  6
Continuous
 62
               7
100
AcDbVertex
100
AcDb2dVertex
 10
-556.04163695132718
 20
721.2638008517356
 30
0.0
  0
VERTEX
  5
1F4
100
AcDbEntity
  8
FAN70-0312
370
              15
390
0
  6
Continuous
 62
               7
100
AcDbVertex
100
AcDb2dVertex
 10
-569.55903411302711
 20
721.46949441183551
 30
0.0
  0
VERTEX
  5
1F5
100
AcDbEntity
  8
FAN70-0312
370
              15
390
0
  6
Continuous
 62
               7
100
AcDbVertex
100
AcDb2dVertex
 10
-582.81429773632715
 20
721.70059209803549
 30
0.0
  0
VERTEX
  5
1F6
100
AcDbEntity
  8
FAN70-0312
370
              15
390
0
  6
Continuous
 62
               7
100
AcDbVertex
100
AcDb2dVertex
 10
-595.76096183852712
 20
721.95629977103545
 30
0.0
  0
VERTEX
  5
1F7
100
AcDbEntity
  8
FAN70-0312
370
              15
390
0
  6
Continuous
 62
               7
100
AcDbVertex
100
AcDb2dVertex
 10
-611.97733027142715
 20
722.32229989643542
 30
0.0
  0
VERTEX
  5
1F8
100
AcDbEntity
  8
FAN70-0312
370
              15
390
0
  6
Continuous
 62
               7
100
AcDbVertex
100
AcDb2dVertex
 10
-627.60809980322711
 20
722.72799401773545
 30
0.0
  0
VERTEX
  5
1F9
100
AcDbEntity
  8
FAN70-0312
370
              15
390
0
  6
Continuous
 62
               7
100
AcDbVertex
100
AcDb2dVertex
 10
-642.56349428622718
 20
723.17092331223557
 30
0.0
  0
VERTEX
  5
1FA
100
AcDbEntity
  8
FAN70-0312
370
              15
390
0
  6
Continuous
 62
               7
100
AcDbVertex
100
AcDb2dVertex
 10
-656.75373757322711
 20
723.64862895723536
 30
0.0
  0
VERTEX
  5
1FB
100
AcDbEntity
  8
FAN70-0312
370
              15
390
0
  6
Continuous
 62
               7
100
AcDbVertex
100
AcDb2dVertex
 10
-669.40722657432718
 20
724.13046190843556
 30
0.0
  0
VERTEX
  5
1FC
100
AcDbEntity
  8
FAN70-0312
370
              15
390
0
  6
Continuous
 62
               7
100
AcDbVertex
100
AcDb2dVertex
 10
-681.33212035932718
 20
724.64153153613552
 30
0.0
  0
VERTEX
  5
1FD
100
AcDbEntity
  8
FAN70-0312
370
              15
390
0
  6
Continuous
 62
               7
100
AcDbVertex
100
AcDb2dVertex
 10
-692.46762505592721
 20
725.17904581693551
 30
0.0
  0
VERTEX
  5
1FE
100
AcDbEntity
  8
FAN70-0312
370
              15
390
0
  6
Continuous
 62
               7
100
AcDbVertex
100
AcDb2dVertex
 10
-702.75294679182718
 20
725.74021272773552
 30
0.0
  0
SEQEND
  5
1FF
100
AcDbEntity
  8
FAN70-0312
370
              15
390
0
  6
Continuous
 62
               7
  0
POLYLINE
  5
200
100
AcDbEntity
  8
FAN70-0312
370
              15
390
0
  6
Continuous
 62
               7
100
AcDb2dPolyline
 66
               1
 10
0.0
 20
0.0
 30
0.0
 75
               5
  0
VERTEX
  5
201
100
AcDbEntity
  8
FAN70-0312
370
              15
390
0
  6
Continuous
 62
               7
100
AcDbVertex
100
AcDb2dVertex
 10
-677.3949557224272
 20
745.30876660833542
 30
0.0
  0
VERTEX
  5
202
100
AcDbEntity
  8
FAN70-0312
370
              15
390
0
  6
Continuous
 62
               7
100
AcDbVertex
100
AcDb2dVertex
 10
-666.77919562822717
 20
744.84733936653538
 30
0.0
  0
VERTEX
  5
203
100
AcDbEntity
  8
FAN70-0312
370
              15
390
0
  6
Continuous
 62
               7
100
AcDbVertex
100
AcDb2dVertex
 10
-655.37037063922719
 20
744.40882979933531
 30
0.0
  0
VERTEX
  5
204
100
AcDbEntity
  8
FAN70-0312
370
              15
390
0
  6
Continuous
 62
               7
100
AcDbVertex
100
AcDb2dVertex
 10
-643.23207861672711
 20
743.99564461813543
 30
0.0
  0
VERTEX
  5
205
100
AcDbEntity
  8
FAN70-0312
370
              15
390
0
  6
Continuous
 62
               7
100
AcDbVertex
100
AcDb2dVertex
 10
-629.98836107622719
 20
743.59763686973542
 30
0.0
  0
VERTEX
  5
206
100
AcDbEntity
  8
FAN70-0312
370
              15
390
0
  6
Continuous
 62
               7
100
AcDbVertex
100
AcDb2dVertex
 10
-616.03062415242721
 20
743.22856316083539
 30
0.0
  0
VERTEX
  5
207
100
AcDbEntity
  8
FAN70-0312
370
              15
390
0
  6
Continuous
 62
               7
100
AcDbVertex
100
AcDb2dVertex
 10
-601.44265003572718
 20
742.89047055043557
 30
0.0
  0
VERTEX
  5
208
100
AcDbEntity
  8
FAN70-0312
370
              15
390
0
  6
Continuous
 62
               7
100
AcDbVertex
100
AcDb2dVertex
 10
-586.30822091672712
 20
742.5854060975355
 30
0.0
  0
VERTEX
  5
209
100
AcDbEntity
  8
FAN70-0312
370
              15
390
0
  6
Continuous
 62
               7
100
AcDbVertex
100
AcDb2dVertex
 10
-574.2240322387272
 20
742.37221222103562
 30
0.0
  0
VERTEX
  5
20A
100
AcDbEntity
  8
FAN70-0312
370
              15
390
0
  6
Continuous
 62
               7
100
AcDbVertex
100
AcDb2dVertex
 10
-561.8518117111272
 20
742.17951174563541
 30
0.0
  0
VERTEX
  5
20B
100
AcDbEntity
  8
FAN70-0312
370
              15
390
0
  6
Continuous
 62
               7
100
AcDbVertex
100
AcDb2dVertex
 10
-549.23492861692716
 20
742.00797240953557
 30
0.0
  0
VERTEX
  5
20C
100
AcDbEntity
  8
FAN70-0312
370
              15
390
0
  6
Continuous
 62
               7
100
AcDbVertex
100
AcDb2dVertex
 10
-530.74579694092711
 20
741.7998785127354
 30
0.0
  0
VERTEX
  5
20D
100
AcDbEntity
  8
FAN70-0312
370
              15
390
0
  6
Continuous
 62
               7
100
AcDbVertex
100
AcDb2dVertex
 10
-511.8185619618273
 20
741.63656382173554
 30
0.0
  0
VERTEX
  5
20E
100
AcDbEntity
  8
FAN70-0312
370
              15
390
0
  6
Continuous
 62
               7
100
AcDbVertex
100
AcDb2dVertex
 10
-492.59102519652731
 20
741.51886929033549
 30
0.0
  0
VERTEX
  5
20F
100
AcDbEntity
  8
FAN70-0312
370
              15
390
0
  6
Continuous
 62
               7
100
AcDbVertex
100
AcDb2dVertex
 10
-473.20098816212726
 20
741.44763587213538
 30
0.0
  0
VERTEX
  5
210
100
AcDbEntity
  8
FAN70-0312
370
              15
390
0
  6
Continuous
 62
               7
100
AcDbVertex
100
AcDb2dVertex
 10
-453.78625237562733
 20
741.4237045208356
 30
0.0
  0
SEQEND
  5
211
100
AcDbEntity
  8
FAN70-0312
370
              15
390
0
  6
Continuous
 62
               7
  0
POLYLINE
  5
212
100
AcDbEntity
  8
FAN70-0312
370
              15
390
0
  6
Continuous
 62
               7
100
AcDb2dPolyline
 66
               1
 10
0.0
 20
0.0
 30
0.0
 75
               5
  0
VERTEX
  5
213
100
AcDbEntity
  8
FAN70-0312
370
              15
390
0
  6
Continuous
 62
               7
100
AcDbVertex
100
AcDb2dVertex
 10
-453.78625237562733
 20
720.56350023313553
 30
0.0
  0
VERTEX
  5
214
100
AcDbEntity
  8
FAN70-0312
370
              15
390
0
  6
Continuous
 62
               7
100
AcDbVertex
100
AcDb2dVertex
 10
-450.78505128962729
 20
720.56408514893542
 30
0.0
  0
VERTEX
  5
215
100
AcDbEntity
  8
FAN70-0312
370
              15
390
0
  6
Continuous
 62
               7
100
AcDbVertex
100
AcDb2dVertex
 10
-430.5881368527273
 20
720.59898500863551
 30
0.0
  0
VERTEX
  5
216
100
AcDbEntity
  8
FAN70-0312
370
              15
390
0
  6
Continuous
 62
               7
100
AcDbVertex
100
AcDb2dVertex
 10
-410.42907196502722
 20
720.68733823693537
 30
0.0
  0
VERTEX
  5
217
100
AcDbEntity
  8
FAN70-0312
370
              15
390
0
  6
Continuous
 62
               7
100
AcDbVertex
100
AcDb2dVertex
 10
-390.44304594692733
 20
720.82821310573536
 30
0.0
  0
VERTEX
  5
218
100
AcDbEntity
  8
FAN70-0312
370
              15
390
0
  6
Continuous
 62
               7
100
AcDbVertex
100
AcDb2dVertex
 10
-370.76524811842728
 20
721.02067788673548
 30
0.0
  0
VERTEX
  5
219
100
AcDbEntity
  8
FAN70-0312
370
              15
390
0
  6
Continuous
 62
               7
100
AcDbVertex
100
AcDb2dVertex
 10
-351.53086779982732
 20
721.2638008517356
 30
0.0
  0
VERTEX
  5
21A
100
AcDbEntity
  8
FAN70-0312
370
              15
390
0
  6
Continuous
 62
               7
100
AcDbVertex
100
AcDb2dVertex
 10
-338.01347063812727
 20
721.46949441183551
 30
0.0
  0
VERTEX
  5
21B
100
AcDbEntity
  8
FAN70-0312
370
              15
390
0
  6
Continuous
 62
               7
100
AcDbVertex
100
AcDb2dVertex
 10
-324.75820701482735
 20
721.70059209803549
 30
0.0
  0
VERTEX
  5
21C
100
AcDbEntity
  8
FAN70-0312
370
              15
390
0
  6
Continuous
 62
               7
100
AcDbVertex
100
AcDb2dVertex
 10
-311.81154291262726
 20
721.95629977103545
 30
0.0
  0
VERTEX
  5
21D
100
AcDbEntity
  8
FAN70-0312
370
              15
390
0
  6
Continuous
 62
               7
100
AcDbVertex
100
AcDb2dVertex
 10
-295.59517447972723
 20
722.32229989643542
 30
0.0
  0
VERTEX
  5
21E
100
AcDbEntity
  8
FAN70-0312
370
              15
390
0
  6
Continuous
 62
               7
100
AcDbVertex
100
AcDb2dVertex
 10
-279.96440494802721
 20
722.72799401773545
 30
0.0
  0
VERTEX
  5
21F
100
AcDbEntity
  8
FAN70-0312
370
              15
390
0
  6
Continuous
 62
               7
100
AcDbVertex
100
AcDb2dVertex
 10
-265.00901046492731
 20
723.17092331223557
 30
0.0
  0
VERTEX
  5
220
100
AcDbEntity
  8
FAN70-0312
370
              15
390
0
  6
Continuous
 62
               7
100
AcDbVertex
100
AcDb2dVertex
 10
-250.81876717792727
 20
723.64862895723536
 30
0.0
  0
VERTEX
  5
221
100
AcDbEntity
  8
FAN70-0312
370
              15
390
0
  6
Continuous
 62
               7
100
AcDbVertex
100
AcDb2dVertex
 10
-238.1652781768272
 20
724.13046190843556
 30
0.0
  0
VERTEX
  5
222
100
AcDbEntity
  8
FAN70-0312
370
              15
390
0
  6
Continuous
 62
               7
100
AcDbVertex
100
AcDb2dVertex
 10
-226.24038439182718
 20
724.64153153613552
 30
0.0
  0
VERTEX
  5
223
100
AcDbEntity
  8
FAN70-0312
370
              15
390
0
  6
Continuous
 62
               7
100
AcDbVertex
100
AcDb2dVertex
 10
-215.10487969522725
 20
725.17904581693551
 30
0.0
  0
VERTEX
  5
224
100
AcDbEntity
  8
FAN70-0312
370
              15
390
0
  6
Continuous
 62
               7
100
AcDbVertex
100
AcDb2dVertex
 10
-204.81955795942721
 20
725.74021272773552
 30
0.0
  0
SEQEND
  5
225
100
AcDbEntity
  8
FAN70-0312
370
              15
390
0
  6
Continuous
 62
               7
  0
POLYLINE
  5
226
100
AcDbEntity
  8
FAN70-0312
370
              15
390
0
  6
Continuous
 62
               7
100
AcDb2dPolyline
 66
               1
 10
0.0
 20
0.0
 30
0.0
 75
               5
  0
VERTEX
  5
227
100
AcDbEntity
  8
FAN70-0312
370
              15
390
0
  6
Continuous
 62
               7
100
AcDbVertex
100
AcDb2dVertex
 10
-230.17754902872727
 20
745.30876660833542
 30
0.0
  0
VERTEX
  5
228
100
AcDbEntity
  8
FAN70-0312
370
              15
390
0
  6
Continuous
 62
               7
100
AcDbVertex
100
AcDb2dVertex
 10
-240.79330912302726
 20
744.84733936653538
 30
0.0
  0
VERTEX
  5
229
100
AcDbEntity
  8
FAN70-0312
370
              15
390
0
  6
Continuous
 62
               7
100
AcDbVertex
100
AcDb2dVertex
 10
-252.20213411202724
 20
744.40882979933531
 30
0.0
  0
VERTEX
  5
22A
100
AcDbEntity
  8
FAN70-0312
370
              15
390
0
  6
Continuous
 62
               7
100
AcDbVertex
100
AcDb2dVertex
 10
-264.34042613442728
 20
743.99564461813543
 30
0.0
  0
VERTEX
  5
22B
100
AcDbEntity
  8
FAN70-0312
370
              15
390
0
  6
Continuous
 62
               7
100
AcDbVertex
100
AcDb2dVertex
 10
-277.5841436749273
 20
743.59763686973542
 30
0.0
  0
VERTEX
  5
22C
100
AcDbEntity
  8
FAN70-0312
370
              15
390
0
  6
Continuous
 62
               7
100
AcDbVertex
100
AcDb2dVertex
 10
-291.54188059882733
 20
743.22856316083539
 30
0.0
  0
VERTEX
  5
22D
100
AcDbEntity
  8
FAN70-0312
370
              15
390
0
  6
Continuous
 62
               7
100
AcDbVertex
100
AcDb2dVertex
 10
-306.12985471552724
 20
742.89047055043557
 30
0.0
  0
VERTEX
  5
22E
100
AcDbEntity
  8
FAN70-0312
370
              15
390
0
  6
Continuous
 62
               7
100
AcDbVertex
100
AcDb2dVertex
 10
-321.2642838345273
 20
742.5854060975355
 30
0.0
  0
VERTEX
  5
22F
100
AcDbEntity
  8
FAN70-0312
370
              15
390
0
  6
Continuous
 62
               7
100
AcDbVertex
100
AcDb2dVertex
 10
-333.34847251252722
 20
742.37221222103562
 30
0.0
  0
VERTEX
  5
230
100
AcDbEntity
  8
FAN70-0312
370
              15
390
0
  6
Continuous
 62
               7
100
AcDbVertex
100
AcDb2dVertex
 10
-345.7206930400273
 20
742.17951174563541
 30
0.0
  0
VERTEX
  5
231
100
AcDbEntity
  8
FAN70-0312
370
              15
390
0
  6
Continuous
 62
               7
100
AcDbVertex
100
AcDb2dVertex
 10
-358.33757613422722
 20
742.00797240953557
 30
0.0
  0
VERTEX
  5
232
100
AcDbEntity
  8
FAN70-0312
370
              15
390
0
  6
Continuous
 62
               7
100
AcDbVertex
100
AcDb2dVertex
 10
-376.82670781022728
 20
741.7998785127354
 30
0.0
  0
VERTEX
  5
233
100
AcDbEntity
  8
FAN70-0312
370
              15
390
0
  6
Continuous
 62
               7
100
AcDbVertex
100
AcDb2dVertex
 10
-395.75394278932731
 20
741.63656382173554
 30
0.0
  0
VERTEX
  5
234
100
AcDbEntity
  8
FAN70-0312
370
              15
390
0
  6
Continuous
 62
               7
100
AcDbVertex
100
AcDb2dVertex
 10
-414.9814795546273
 20
741.51886929033549
 30
0.0
  0
VERTEX
  5
235
100
AcDbEntity
  8
FAN70-0312
370
              15
390
0
  6
Continuous
 62
               7
100
AcDbVertex
100
AcDb2dVertex
 10
-434.37151658902724
 20
741.44763587213538
 30
0.0
  0
VERTEX
  5
236
100
AcDbEntity
  8
FAN70-0312
370
              15
390
0
  6
Continuous
 62
               7
100
AcDbVertex
100
AcDb2dVertex
 10
-453.78625237562733
 20
741.4237045208356
 30
0.0
  0
SEQEND
  5
237
100
AcDbEntity
  8
FAN70-0312
370
              15
390
0
  6
Continuous
 62
               7
  0
POLYLINE
  5
238
100
AcDbEntity
  8
FAN70-0312
370
              15
390
0
  6
Continuous
 62
               7
100
AcDb2dPolyline
 66
               1
 10
0.0
 20
0.0
 30
0.0
 75
               5
  0
VERTEX
  5
239
100
AcDbEntity
  8
FAN70-0312
370
              15
390
0
  6
Continuous
 62
               7
100
AcDbVertex
100
AcDb2dVertex
 10
-453.78625237562733
 20
743.1877396129355
 30
0.0
  0
VERTEX
  5
23A
100
AcDbEntity
  8
FAN70-0312
370
              15
390
0
  6
Continuous
 62
               7
100
AcDbVertex
100
AcDb2dVertex
 10
-456.66423760662735
 20
743.19394099363535
 30
0.0
  0
VERTEX
  5
23B
100
AcDbEntity
  8
FAN70-0312
370
              15
390
0
  6
Continuous
 62
               7
100
AcDbVertex
100
AcDb2dVertex
 10
-459.49859551522729
 20
743.21245112893553
 30
0.0
  0
VERTEX
  5
23C
100
AcDbEntity
  8
FAN70-0312
370
              15
390
0
  6
Continuous
 62
               7
100
AcDbVertex
100
AcDb2dVertex
 10
-462.24636012462724
 20
743.24298942423547
 30
0.0
  0
VERTEX
  5
23D
100
AcDbEntity
  8
FAN70-0312
370
              15
390
0
  6
Continuous
 62
               7
100
AcDbVertex
100
AcDb2dVertex
 10
-464.86587812432731
 20
743.28509294993546
 30
0.0
  0
VERTEX
  5
23E
100
AcDbEntity
  8
FAN70-0312
370
              15
390
0
  6
Continuous
 62
               7
100
AcDbVertex
100
AcDb2dVertex
 10
-467.31744029162735
 20
743.33812345963543
 30
0.0
  0
VERTEX
  5
23F
100
AcDbEntity
  8
FAN70-0312
370
              15
390
0
  6
Continuous
 62
               7
100
AcDbVertex
100
AcDb2dVertex
 10
-469.56388344302729
 20
743.40127706483554
 30
0.0
  0
VERTEX
  5
240
100
AcDbEntity
  8
FAN70-0312
370
              15
390
0
  6
Continuous
 62
               7
100
AcDbVertex
100
AcDb2dVertex
 10
-471.57115379032734
 20
743.47359642123547
 30
0.0
  0
VERTEX
  5
241
100
AcDbEntity
  8
FAN70-0312
370
              15
390
0
  6
Continuous
 62
               7
100
AcDbVertex
100
AcDb2dVertex
 10
-473.30882316112729
 20
743.55398524113548
 30
0.0
  0
VERTEX
  5
242
100
AcDbEntity
  8
FAN70-0312
370
              15
390
0
  6
Continuous
 62
               7
100
AcDbVertex
100
AcDb2dVertex
 10
-474.75055025892732
 20
743.64122491183548
 30
0.0
  0
VERTEX
  5
243
100
AcDbEntity
  8
FAN70-0312
370
              15
390
0
  6
Continuous
 62
               7
100
AcDbVertex
100
AcDb2dVertex
 10
-475.87447997072729
 20
743.7339929690354
 30
0.0
  0
VERTEX
  5
244
100
AcDbEntity
  8
FAN70-0312
370
              15
390
0
  6
Continuous
 62
               7
100
AcDbVertex
100
AcDb2dVertex
 10
-476.66357466772729
 20
743.83088314353563
 30
0.0
  0
VERTEX
  5
245
100
AcDbEntity
  8
FAN70-0312
370
              15
390
0
  6
Continuous
 62
               7
100
AcDbVertex
100
AcDb2dVertex
 10
-477.10587247852732
 20
743.93042667893542
 30
0.0
  0
VERTEX
  5
246
100
AcDbEntity
  8
FAN70-0312
370
              15
390
0
  6
Continuous
 62
               7
100
AcDbVertex
100
AcDb2dVertex
 10
-477.19466861932722
 20
744.03111459673551
 30
0.0
  0
VERTEX
  5
247
100
AcDbEntity
  8
FAN70-0312
370
              15
390
0
  6
Continuous
 62
               7
100
AcDbVertex
100
AcDb2dVertex
 10
-476.92861703112726
 20
744.13142057083542
 30
0.0
  0
VERTEX
  5
248
100
AcDbEntity
  8
FAN70-0312
370
              15
390
0
  6
Continuous
 62
               7
100
AcDbVertex
100
AcDb2dVertex
 10
-476.31175078472722
 20
744.22982406483561
 30
0.0
  0
VERTEX
  5
249
100
AcDbEntity
  8
FAN70-0312
370
              15
390
0
  6
Continuous
 62
               7
100
AcDbVertex
100
AcDb2dVertex
 10
-475.35342094372731
 20
744.32483338213547
 30
0.0
  0
VERTEX
  5
24A
100
AcDbEntity
  8
FAN70-0312
370
              15
390
0
  6
Continuous
 62
               7
100
AcDbVertex
100
AcDb2dVertex
 10
-474.06815481152728
 20
744.41500827823552
 30
0.0
  0
VERTEX
  5
24B
100
AcDbEntity
  8
FAN70-0312
370
              15
390
0
  6
Continuous
 62
               7
100
AcDbVertex
100
AcDb2dVertex
 10
-472.47543571272729
 20
744.49898179373554
 30
0.0
  0
VERTEX
  5
24C
100
AcDbEntity
  8
FAN70-0312
370
              15
390
0
  6
Continuous
 62
               7
100
AcDbVertex
100
AcDb2dVertex
 10
-470.59940764512726
 20
744.5754809756354
 30
0.0
  0
VERTEX
  5
24D
100
AcDbEntity
  8
FAN70-0312
370
              15
390
0
  6
Continuous
 62
               7
100
AcDbVertex
100
AcDb2dVertex
 10
-468.46850928212734
 20
744.64334617443546
 30
0.0
  0
VERTEX
  5
24E
100
AcDbEntity
  8
FAN70-0312
370
              15
390
0
  6
Continuous
 62
               7
100
AcDbVertex
100
AcDb2dVertex
 10
-466.11504287062724
 20
744.70154862273557
 30
0.0
  0
VERTEX
  5
24F
100
AcDbEntity
  8
FAN70-0312
370
              15
390
0
  6
Continuous
 62
               7
100
AcDbVertex
100
AcDb2dVertex
 10
-463.5746845625273
 20
744.74920603093551
 30
0.0
  0
VERTEX
  5
250
100
AcDbEntity
  8
FAN70-0312
370
              15
390
0
  6
Continuous
 62
               7
100
AcDbVertex
100
AcDb2dVertex
 10
-460.88594360022728
 20
744.78559596113541
 30
0.0
  0
VERTEX
  5
251
100
AcDbEntity
  8
FAN70-0312
370
              15
390
0
  6
Continuous
 62
               7
100
AcDbVertex
100
AcDb2dVertex
 10
-458.08957855602728
 20
744.81016677923549
 30
0.0
  0
VERTEX
  5
252
100
AcDbEntity
  8
FAN70-0312
370
              15
390
0
  6
Continuous
 62
               7
100
AcDbVertex
100
AcDb2dVertex
 10
-455.22797947342724
 20
744.8225460165354
 30
0.0
  0
VERTEX
  5
253
100
AcDbEntity
  8
FAN70-0312
370
              15
390
0
  6
Continuous
 62
               7
100
AcDbVertex
100
AcDb2dVertex
 10
-452.34452527772726
 20
744.8225460165354
 30
0.0
  0
VERTEX
  5
254
100
AcDbEntity
  8
FAN70-0312
370
              15
390
0
  6
Continuous
 62
               7
100
AcDbVertex
100
AcDb2dVertex
 10
-449.48292619522726
 20
744.81016677923549
 30
0.0
  0
VERTEX
  5
255
100
AcDbEntity
  8
FAN70-0312
370
              15
390
0
  6
Continuous
 62
               7
100
AcDbVertex
100
AcDb2dVertex
 10
-446.68656115092733
 20
744.78559596113541
 30
0.0
  0
VERTEX
  5
256
100
AcDbEntity
  8
FAN70-0312
370
              15
390
0
  6
Continuous
 62
               7
100
AcDbVertex
100
AcDb2dVertex
 10
-443.99782018872725
 20
744.74920603093551
 30
0.0
  0
VERTEX
  5
257
100
AcDbEntity
  8
FAN70-0312
370
              15
390
0
  6
Continuous
 62
               7
100
AcDbVertex
100
AcDb2dVertex
 10
-441.45746188062731
 20
744.70154862273557
 30
0.0
  0
VERTEX
  5
258
100
AcDbEntity
  8
FAN70-0312
370
              15
390
0
  6
Continuous
 62
               7
100
AcDbVertex
100
AcDb2dVertex
 10
-439.10399546912731
 20
744.64334617443546
 30
0.0
  0
VERTEX
  5
259
100
AcDbEntity
  8
FAN70-0312
370
              15
390
0
  6
Continuous
 62
               7
100
AcDbVertex
100
AcDb2dVertex
 10
-436.97309710602724
 20
744.5754809756354
 30
0.0
  0
VERTEX
  5
25A
100
AcDbEntity
  8
FAN70-0312
370
              15
390
0
  6
Continuous
 62
               7
100
AcDbVertex
100
AcDb2dVertex
 10
-435.09706903852725
 20
744.49898179373554
 30
0.0
  0
VERTEX
  5
25B
100
AcDbEntity
  8
FAN70-0312
370
              15
390
0
  6
Continuous
 62
               7
100
AcDbVertex
100
AcDb2dVertex
 10
-433.50434993962722
 20
744.41500827823552
 30
0.0
  0
VERTEX
  5
25C
100
AcDbEntity
  8
FAN70-0312
370
              15
390
0
  6
Continuous
 62
               7
100
AcDbVertex
100
AcDb2dVertex
 10
-432.21908380752723
 20
744.32483338213547
 30
0.0
  0
VERTEX
  5
25D
100
AcDbEntity
  8
FAN70-0312
370
              15
390
0
  6
Continuous
 62
               7
100
AcDbVertex
100
AcDb2dVertex
 10
-431.26075396642727
 20
744.22982406483561
 30
0.0
  0
VERTEX
  5
25E
100
AcDbEntity
  8
FAN70-0312
370
              15
390
0
  6
Continuous
 62
               7
100
AcDbVertex
100
AcDb2dVertex
 10
-430.64388772012728
 20
744.13142057083542
 30
0.0
  0
VERTEX
  5
25F
100
AcDbEntity
  8
FAN70-0312
370
              15
390
0
  6
Continuous
 62
               7
100
AcDbVertex
100
AcDb2dVertex
 10
-430.37783613182728
 20
744.03111459673551
 30
0.0
  0
VERTEX
  5
260
100
AcDbEntity
  8
FAN70-0312
370
              15
390
0
  6
Continuous
 62
               7
100
AcDbVertex
100
AcDb2dVertex
 10
-430.46663227262729
 20
743.93042667893542
 30
0.0
  0
VERTEX
  5
261
100
AcDbEntity
  8
FAN70-0312
370
              15
390
0
  6
Continuous
 62
               7
100
AcDbVertex
100
AcDb2dVertex
 10
-430.90893008352725
 20
743.83088314353563
 30
0.0
  0
VERTEX
  5
262
100
AcDbEntity
  8
FAN70-0312
370
              15
390
0
  6
Continuous
 62
               7
100
AcDbVertex
100
AcDb2dVertex
 10
-431.69802478042732
 20
743.7339929690354
 30
0.0
  0
VERTEX
  5
263
100
AcDbEntity
  8
FAN70-0312
370
              15
390
0
  6
Continuous
 62
               7
100
AcDbVertex
100
AcDb2dVertex
 10
-432.82195449222729
 20
743.64122491183548
 30
0.0
  0
VERTEX
  5
264
100
AcDbEntity
  8
FAN70-0312
370
              15
390
0
  6
Continuous
 62
               7
100
AcDbVertex
100
AcDb2dVertex
 10
-434.26368159012725
 20
743.55398524113548
 30
0.0
  0
VERTEX
  5
265
100
AcDbEntity
  8
FAN70-0312
370
              15
390
0
  6
Continuous
 62
               7
100
AcDbVertex
100
AcDb2dVertex
 10
-436.00135096082727
 20
743.47359642123547
 30
0.0
  0
VERTEX
  5
266
100
AcDbEntity
  8
FAN70-0312
370
              15
390
0
  6
Continuous
 62
               7
100
AcDbVertex
100
AcDb2dVertex
 10
-438.00862130812732
 20
743.40127706483554
 30
0.0
  0
VERTEX
  5
267
100
AcDbEntity
  8
FAN70-0312
370
              15
390
0
  6
Continuous
 62
               7
100
AcDbVertex
100
AcDb2dVertex
 10
-440.25506445952726
 20
743.33812345963543
 30
0.0
  0
VERTEX
  5
268
100
AcDbEntity
  8
FAN70-0312
370
              15
390
0
  6
Continuous
 62
               7
100
AcDbVertex
100
AcDb2dVertex
 10
-442.7066266268273
 20
743.28509294993546
 30
0.0
  0
VERTEX
  5
269
100
AcDbEntity
  8
FAN70-0312
370
              15
390
0
  6
Continuous
 62
               7
100
AcDbVertex
100
AcDb2dVertex
 10
-445.3261446266273
 20
743.24298942423547
 30
0.0
  0
VERTEX
  5
26A
100
AcDbEntity
  8
FAN70-0312
370
              15
390
0
  6
Continuous
 62
               7
100
AcDbVertex
100
AcDb2dVertex
 10
-448.07390923602725
 20
743.21245112893553
 30
0.0
  0
VERTEX
  5
26B
100
AcDbEntity
  8
FAN70-0312
370
              15
390
0
  6
Continuous
 62
               7
100
AcDbVertex
100
AcDb2dVertex
 10
-450.9082671446273
 20
743.19394099363535
 30
0.0
  0
VERTEX
  5
26C
100
AcDbEntity
  8
FAN70-0312
370
              15
390
0
  6
Continuous
 62
               7
100
AcDbVertex
100
AcDb2dVertex
 10
-453.78625237562733
 20
743.1877396129355
 30
0.0
  0
SEQEND
  5
26D
100
AcDbEntity
  8
FAN70-0312
370
              15
390
0
  6
Continuous
 62
               7
  0
LINE
  5
26E
100
AcDbEntity
  8
FAN70-0312
370
              15
390
0
  6
Continuous
 62
               7
100
AcDbLine
 10
-703.7862523756271
 20
725.73958532639995
 30
0.0
 11
-702.75294679182718
 21
725.74021272773552
 31
0.0
  0
LINE
  5
26F
100
AcDbEntity
  8
FAN70-0312
370
              15
390
0
  6
Continuous
 62
               7
100
AcDbLine
 10
-203.78625237562724
 20
725.73958532639995
 30
0.0
 11
-204.81955795942721
 21
725.74021272773552
 31
0.0
  0
LINE
  5
270
100
AcDbEntity
  8
FAN70-0312
370
              15
390
0
  6
Continuous
 62
               7
100
AcDbLine
 10
-203.78625237562724
 20
505.14148044107338
 30
0.0
 11
-204.83087402782721
 21
505.14211432573603
 31
0.0
  0
LINE
  5
271
100
AcDbEntity
  8
FAN70-0312
370
              15
390
0
  6
Continuous
 62
               7
100
AcDbLine
 10
-703.7862523756271
 20
505.10036421149704
 30
0.0
 11
-702.74163072332715
 21
505.14211432573603
 31
0.0
  0
ARC
  5
272
100
AcDbEntity
  8
FAN70-0312
370
              15
390
0
  6
Continuous
 62
               7
100
AcDbCircle
 10
-166.2862523756273
 20
840.42672379103556
 30
0.0
 40
5.0
100
AcDbArc
 50
0.0
 51
90.0
  0
LINE
  5
273
100
AcDbEntity
  8
FAN70-0312
370
              15
390
0
  6
Continuous
 62
               7
100
AcDbLine
 10
-741.2862523756271
 20
845.42672379103556
 30
0.0
 11
-166.2862523756273
 21
845.42672379103556
 31
0.0
  0
ARC
  5
274
100
AcDbEntity
  8
FAN70-0312
370
              15
390
0
  6
Continuous
 62
               7
100
AcDbCircle
 10
-741.2862523756271
 20
840.42672379103556
 30
0.0
 40
5.0
100
AcDbArc
 50
90.0
 51
180.0
  0
CIRCLE
  5
275
100
AcDbEntity
  8
FAN70-0312
370
              15
390
0
  6
Continuous
 62
               7
100
AcDbCircle
 10
-453.78625237562733
 20
795.42672379103556
 30
0.0
 40
18.0
  0
LINE
  5
276
100
AcDbEntity
  8
FAN70-0312
370
              15
390
0
  6
Continuous
 62
               7
100
AcDbLine
 10
-746.2862523756271
 20
445.42672379103607
 30
0.0
 11
-746.2862523756271
 21
840.42672379103556
 31
0.0
  0
LINE
  5
277
100
AcDbEntity
  8
FAN70-0312
370
              15
390
0
  6
Continuous
 62
               7
100
AcDbLine
 10
-161.2862523756273
 20
445.42672379103607
 30
0.0
 11
-161.2862523756273
 21
840.42672379103556
 31
0.0
  0
ARC
  5
278
100
AcDbEntity
  8
FAN70-0312
370
              15
390
0
  6
Continuous
 62
               7
100
AcDbCircle
 10
-741.2862523756271
 20
445.42672379103607
 30
0.0
 40
5.0
100
AcDbArc
 50
180.0
 51
270.0
  0
ARC
  5
279
100
AcDbEntity
  8
FAN70-0312
370
              15
390
0
  6
Continuous
 62
               7
100
AcDbCircle
 10
-166.2862523756273
 20
445.42672379103607
 30
0.0
 40
5.0
100
AcDbArc
 50
270.0
 51
0.0
  0
LINE
  5
27A
100
AcDbEntity
  8
FAN70-0312
370
              15
390
0
  6
Continuous
 62
               7
100
AcDbLine
 10
-166.2862523756273
 20
440.42672379103607
 30
0.0
 11
-741.2862523756271
 21
440.42672379103607
 31
0.0
  0
POLYLINE
  5
27B
100
AcDbEntity
  8
FAN70-0312
370
              15
390
0
  6
Continuous
 62
               7
100
AcDb2dPolyline
 66
               1
 10
0.0
 20
0.0
 30
0.0
 75
               5
  0
VERTEX
  5
27C
100
AcDbEntity
  8
FAN70-0312
370
              15
390
0
  6
Continuous
 62
               7
100
AcDbVertex
100
AcDb2dVertex
 10
-453.78625237562733
 20
703.58432611093554
 30
0.0
  0
VERTEX
  5
27D
100
AcDbEntity
  8
FAN70-0312
370
              15
390
0
  6
Continuous
 62
               7
100
AcDbVertex
100
AcDb2dVertex
 10
-458.81124981402729
 20
703.23192572223547
 30
0.0
  0
VERTEX
  5
27E
100
AcDbEntity
  8
FAN70-0312
370
              15
390
0
  6
Continuous
 62
               7
100
AcDbVertex
100
AcDb2dVertex
 10
-463.73627106082733
 20
702.18648689793554
 30
0.0
  0
VERTEX
  5
27F
100
AcDbEntity
  8
FAN70-0312
370
              15
390
0
  6
Continuous
 62
               7
100
AcDbVertex
100
AcDb2dVertex
 10
-469.3385198600273
 20
700.04725389773557
 30
0.0
  0
VERTEX
  5
280
100
AcDbEntity
  8
FAN70-0312
370
              15
390
0
  6
Continuous
 62
               7
100
AcDbVertex
100
AcDb2dVertex
 10
-474.4913197764273
 20
696.99552051643536
 30
0.0
  0
VERTEX
  5
281
100
AcDbEntity
  8
FAN70-0312
370
              15
390
0
  6
Continuous
 62
               7
100
AcDbVertex
100
AcDb2dVertex
 10
-478.95415560882725
 20
693.16286585323542
 30
0.0
  0
VERTEX
  5
282
100
AcDbEntity
  8
FAN70-0312
370
              15
390
0
  6
Continuous
 62
               7
100
AcDbVertex
100
AcDb2dVertex
 10
-482.67653632572728
 20
688.61253059233536
 30
0.0
  0
VERTEX
  5
283
100
AcDbEntity
  8
FAN70-0312
370
              15
390
0
  6
Continuous
 62
               7
100
AcDbVertex
100
AcDb2dVertex
 10
-485.41140984712729
 20
683.67950251173534
 30
0.0
  0
VERTEX
  5
284
100
AcDbEntity
  8
FAN70-0312
370
              15
390
0
  6
Continuous
 62
               7
100
AcDbVertex
100
AcDb2dVertex
 10
-487.23618385412726
 20
678.3387225661354
 30
0.0
  0
VERTEX
  5
285
100
AcDbEntity
  8
FAN70-0312
370
              15
390
0
  6
Continuous
 62
               7
100
AcDbVertex
100
AcDb2dVertex
 10
-488.04280018592726
 20
673.04043450723543
 30
0.0
  0
VERTEX
  5
286
100
AcDbEntity
  8
FAN70-0312
370
              15
390
0
  6
Continuous
 62
               7
100
AcDbVertex
100
AcDb2dVertex
 10
-487.93202385612722
 20
667.67742638483537
 30
0.0
  0
VERTEX
  5
287
100
AcDbEntity
  8
FAN70-0312
370
              15
390
0
  6
Continuous
 62
               7
100
AcDbVertex
100
AcDb2dVertex
 10
-486.93810012612732
 20
662.56582155963542
 30
0.0
  0
VERTEX
  5
288
100
AcDbEntity
  8
FAN70-0312
370
              15
390
0
  6
Continuous
 62
               7
100
AcDbVertex
100
AcDb2dVertex
 10
-485.12088880452723
 20
657.68380811813563
 30
0.0
  0
VERTEX
  5
289
100
AcDbEntity
  8
FAN70-0312
370
              15
390
0
  6
Continuous
 62
               7
100
AcDbVertex
100
AcDb2dVertex
 10
-482.49651422512727
 20
653.11096961483554
 30
0.0
  0
VERTEX
  5
28A
100
AcDbEntity
  8
FAN70-0312
370
              15
390
0
  6
Continuous
 62
               7
100
AcDbVertex
100
AcDb2dVertex
 10
-479.17723628282727
 20
649.01436058403556
 30
0.0
  0
VERTEX
  5
28B
100
AcDbEntity
  8
FAN70-0312
370
              15
390
0
  6
Continuous
 62
               7
100
AcDbVertex
100
AcDb2dVertex
 10
-475.07064953562724
 20
645.35382098523542
 30
0.0
  0
VERTEX
  5
28C
100
AcDbEntity
  8
FAN70-0312
370
              15
390
0
  6
Continuous
 62
               7
100
AcDbVertex
100
AcDb2dVertex
 10
-470.43319468692732
 20
642.39297625093559
 30
0.0
  0
VERTEX
  5
28D
100
AcDbEntity
  8
FAN70-0312
370
              15
390
0
  6
Continuous
 62
               7
100
AcDbVertex
100
AcDb2dVertex
 10
-465.13596105422732
 20
640.1185948080356
 30
0.0
  0
VERTEX
  5
28E
100
AcDbEntity
  8
FAN70-0312
370
              15
390
0
  6
Continuous
 62
               7
100
AcDbVertex
100
AcDb2dVertex
 10
-459.53947652842726
 20
638.72941740813553
 30
0.0
  0
VERTEX
  5
28F
100
AcDbEntity
  8
FAN70-0312
370
              15
390
0
  6
Continuous
 62
               7
100
AcDbVertex
100
AcDb2dVertex
 10
-453.78625237562733
 20
638.26348665643559
 30
0.0
  0
SEQEND
  5
290
100
AcDbEntity
  8
FAN70-0312
370
              15
390
0
  6
Continuous
 62
               7
  0
POLYLINE
  5
291
100
AcDbEntity
  8
FAN70-0312
370
              15
390
0
  6
Continuous
 62
               7
100
AcDb2dPolyline
 66
               1
 10
0.0
 20
0.0
 30
0.0
 75
               5
  0
VERTEX
  5
292
100
AcDbEntity
  8
FAN70-0312
370
              15
390
0
  6
Continuous
 62
               7
100
AcDbVertex
100
AcDb2dVertex
 10
-453.78625237562733
 20
703.58432611093554
 30
0.0
  0
VERTEX
  5
293
100
AcDbEntity
  8
FAN70-0312
370
              15
390
0
  6
Continuous
 62
               7
100
AcDbVertex
100
AcDb2dVertex
 10
-448.76125493712721
 20
703.23192572223547
 30
0.0
  0
VERTEX
  5
294
100
AcDbEntity
  8
FAN70-0312
370
              15
390
0
  6
Continuous
 62
               7
100
AcDbVertex
100
AcDb2dVertex
 10
-443.83623369032728
 20
702.18648689793554
 30
0.0
  0
VERTEX
  5
295
100
AcDbEntity
  8
FAN70-0312
370
              15
390
0
  6
Continuous
 62
               7
100
AcDbVertex
100
AcDb2dVertex
 10
-438.23398489122724
 20
700.04725389773557
 30
0.0
  0
VERTEX
  5
296
100
AcDbEntity
  8
FAN70-0312
370
              15
390
0
  6
Continuous
 62
               7
100
AcDbVertex
100
AcDb2dVertex
 10
-433.08118497482735
 20
696.99552051643536
 30
0.0
  0
VERTEX
  5
297
100
AcDbEntity
  8
FAN70-0312
370
              15
390
0
  6
Continuous
 62
               7
100
AcDbVertex
100
AcDb2dVertex
 10
-428.61834914232725
 20
693.16286585323542
 30
0.0
  0
VERTEX
  5
298
100
AcDbEntity
  8
FAN70-0312
370
              15
390
0
  6
Continuous
 62
               7
100
AcDbVertex
100
AcDb2dVertex
 10
-424.89596842552726
 20
688.61253059233536
 30
0.0
  0
VERTEX
  5
299
100
AcDbEntity
  8
FAN70-0312
370
              15
390
0
  6
Continuous
 62
               7
100
AcDbVertex
100
AcDb2dVertex
 10
-422.16109490412725
 20
683.67950251173534
 30
0.0
  0
VERTEX
  5
29A
100
AcDbEntity
  8
FAN70-0312
370
              15
390
0
  6
Continuous
 62
               7
100
AcDbVertex
100
AcDb2dVertex
 10
-420.33632089702735
 20
678.3387225661354
 30
0.0
  0
VERTEX
  5
29B
100
AcDbEntity
  8
FAN70-0312
370
              15
390
0
  6
Continuous
 62
               7
100
AcDbVertex
100
AcDb2dVertex
 10
-419.52970456532728
 20
673.04043450723543
 30
0.0
  0
VERTEX
  5
29C
100
AcDbEntity
  8
FAN70-0312
370
              15
390
0
  6
Continuous
 62
               7
100
AcDbVertex
100
AcDb2dVertex
 10
-419.64048089502728
 20
667.67742638483537
 30
0.0
  0
VERTEX
  5
29D
100
AcDbEntity
  8
FAN70-0312
370
              15
390
0
  6
Continuous
 62
               7
100
AcDbVertex
100
AcDb2dVertex
 10
-420.63440462502729
 20
662.56582155963542
 30
0.0
  0
VERTEX
  5
29E
100
AcDbEntity
  8
FAN70-0312
370
              15
390
0
  6
Continuous
 62
               7
100
AcDbVertex
100
AcDb2dVertex
 10
-422.4516159467272
 20
657.68380811813563
 30
0.0
  0
VERTEX
  5
29F
100
AcDbEntity
  8
FAN70-0312
370
              15
390
0
  6
Continuous
 62
               7
100
AcDbVertex
100
AcDb2dVertex
 10
-425.07599052612727
 20
653.11096961483554
 30
0.0
  0
VERTEX
  5
2A0
100
AcDbEntity
  8
FAN70-0312
370
              15
390
0
  6
Continuous
 62
               7
100
AcDbVertex
100
AcDb2dVertex
 10
-428.39526846832723
 20
649.01436058403556
 30
0.0
  0
VERTEX
  5
2A1
100
AcDbEntity
  8
FAN70-0312
370
              15
390
0
  6
Continuous
 62
               7
100
AcDbVertex
100
AcDb2dVertex
 10
-432.50185521552726
 20
645.35382098523542
 30
0.0
  0
VERTEX
  5
2A2
100
AcDbEntity
  8
FAN70-0312
370
              15
390
0
  6
Continuous
 62
               7
100
AcDbVertex
100
AcDb2dVertex
 10
-437.13931006422729
 20
642.39297625093559
 30
0.0
  0
VERTEX
  5
2A3
100
AcDbEntity
  8
FAN70-0312
370
              15
390
0
  6
Continuous
 62
               7
100
AcDbVertex
100
AcDb2dVertex
 10
-442.43654369702733
 20
640.1185948080356
 30
0.0
  0
VERTEX
  5
2A4
100
AcDbEntity
  8
FAN70-0312
370
              15
390
0
  6
Continuous
 62
               7
100
AcDbVertex
100
AcDb2dVertex
 10
-448.03302822282728
 20
638.72941740813553
 30
0.0
  0
VERTEX
  5
2A5
100
AcDbEntity
  8
FAN70-0312
370
              15
390
0
  6
Continuous
 62
               7
100
AcDbVertex
100
AcDb2dVertex
 10
-453.78625237562733
 20
638.26348665643559
 30
0.0
  0
SEQEND
  5
2A6
100
AcDbEntity
  8
FAN70-0312
370
              15
390
0
  6
Continuous
 62
               7
  0
POLYLINE
  5
2A7
100
AcDbEntity
  8
FAN70-0312
370
              15
390
0
  6
Continuous
 62
               7
100
AcDb2dPolyline
 66
               1
 10
0.0
 20
0.0
 30
0.0
 75
               5
  0
VERTEX
  5
2A8
100
AcDbEntity
  8
FAN70-0312
370
              15
390
0
  6
Continuous
 62
               7
100
AcDbVertex
100
AcDb2dVertex
 10
-453.78625237562733
 20
693.44224172223539
 30
0.0
  0
VERTEX
  5
2A9
100
AcDbEntity
  8
FAN70-0312
370
              15
390
0
  6
Continuous
 62
               7
100
AcDbVertex
100
AcDb2dVertex
 10
-456.67416683962733
 20
693.26072247543539
 30
0.0
  0
VERTEX
  5
2AA
100
AcDbEntity
  8
FAN70-0312
370
              15
390
0
  6
Continuous
 62
               7
100
AcDbVertex
100
AcDb2dVertex
 10
-459.5165371675273
 20
692.7190274017355
 30
0.0
  0
VERTEX
  5
2AB
100
AcDbEntity
  8
FAN70-0312
370
              15
390
0
  6
Continuous
 62
               7
100
AcDbVertex
100
AcDb2dVertex
 10
-462.26853748102724
 20
691.82569935623542
 30
0.0
  0
VERTEX
  5
2AC
100
AcDbEntity
  8
FAN70-0312
370
              15
390
0
  6
Continuous
 62
               7
100
AcDbVertex
100
AcDb2dVertex
 10
-464.88676709142726
 20
690.59482665573546
 30
0.0
  0
VERTEX
  5
2AD
100
AcDbEntity
  8
FAN70-0312
370
              15
390
0
  6
Continuous
 62
               7
100
AcDbVertex
100
AcDb2dVertex
 10
-467.3299349535273
 20
689.04582089803534
 30
0.0
  0
VERTEX
  5
2AE
100
AcDbEntity
  8
FAN70-0312
370
              15
390
0
  6
Continuous
 62
               7
100
AcDbVertex
100
AcDb2dVertex
 10
-469.55951085082734
 20
687.2031108293354
 30
0.0
  0
VERTEX
  5
2AF
100
AcDbEntity
  8
FAN70-0312
370
              15
390
0
  6
Continuous
 62
               7
100
AcDbVertex
100
AcDb2dVertex
 10
-471.54033303952724
 20
685.09575708813554
 30
0.0
  0
VERTEX
  5
2B0
100
AcDbEntity
  8
FAN70-0312
370
              15
390
0
  6
Continuous
 62
               7
100
AcDbVertex
100
AcDb2dVertex
 10
-473.24116277032726
 20
682.75699390183536
 30
0.0
  0
VERTEX
  5
2B1
100
AcDbEntity
  8
FAN70-0312
370
              15
390
0
  6
Continuous
 62
               7
100
AcDbVertex
100
AcDb2dVertex
 10
-474.63517694242728
 20
680.22370496293547
 30
0.0
  0
VERTEX
  5
2B2
100
AcDbEntity
  8
FAN70-0312
370
              15
390
0
  6
Continuous
 62
               7
100
AcDbVertex
100
AcDb2dVertex
 10
-475.70039111952724
 20
677.53584175143556
 30
0.0
  0
VERTEX
  5
2B3
100
AcDbEntity
  8
FAN70-0312
370
              15
390
0
  6
Continuous
 62
               7
100
AcDbVertex
100
AcDb2dVertex
 10
-476.42000623782724
 20
674.73579347573536
 30
0.0
  0
VERTEX
  5
2B4
100
AcDbEntity
  8
FAN70-0312
370
              15
390
0
  6
Continuous
 62
               7
100
AcDbVertex
100
AcDb2dVertex
 10
-476.78267353692729
 20
671.86771856973542
 30
0.0
  0
VERTEX
  5
2B5
100
AcDbEntity
  8
FAN70-0312
370
              15
390
0
  6
Continuous
 62
               7
100
AcDbVertex
100
AcDb2dVertex
 10
-476.78267353692729
 20
668.97684828823549
 30
0.0
  0
VERTEX
  5
2B6
100
AcDbEntity
  8
FAN70-0312
370
              15
390
0
  6
Continuous
 62
               7
100
AcDbVertex
100
AcDb2dVertex
 10
-476.42000623782724
 20
666.10877338223554
 30
0.0
  0
VERTEX
  5
2B7
100
AcDbEntity
  8
FAN70-0312
370
              15
390
0
  6
Continuous
 62
               7
100
AcDbVertex
100
AcDb2dVertex
 10
-475.70039111952724
 20
663.30872510653558
 30
0.0
  0
VERTEX
  5
2B8
100
AcDbEntity
  8
FAN70-0312
370
              15
390
0
  6
Continuous
 62
               7
100
AcDbVertex
100
AcDb2dVertex
 10
-474.63517694242728
 20
660.62086189503543
 30
0.0
  0
VERTEX
  5
2B9
100
AcDbEntity
  8
FAN70-0312
370
              15
390
0
  6
Continuous
 62
               7
100
AcDbVertex
100
AcDb2dVertex
 10
-473.24116277032726
 20
658.08757295613555
 30
0.0
  0
VERTEX
  5
2BA
100
AcDbEntity
  8
FAN70-0312
370
              15
390
0
  6
Continuous
 62
               7
100
AcDbVertex
100
AcDb2dVertex
 10
-471.54033303952724
 20
655.74880976983559
 30
0.0
  0
VERTEX
  5
2BB
100
AcDbEntity
  8
FAN70-0312
370
              15
390
0
  6
Continuous
 62
               7
100
AcDbVertex
100
AcDb2dVertex
 10
-469.55951085082734
 20
653.6414560286355
 30
0.0
  0
VERTEX
  5
2BC
100
AcDbEntity
  8
FAN70-0312
370
              15
390
0
  6
Continuous
 62
               7
100
AcDbVertex
100
AcDb2dVertex
 10
-467.3299349535273
 20
651.79874595993556
 30
0.0
  0
VERTEX
  5
2BD
100
AcDbEntity
  8
FAN70-0312
370
              15
390
0
  6
Continuous
 62
               7
100
AcDbVertex
100
AcDb2dVertex
 10
-464.88676709142726
 20
650.24974020223544
 30
0.0
  0
VERTEX
  5
2BE
100
AcDbEntity
  8
FAN70-0312
370
              15
390
0
  6
Continuous
 62
               7
100
AcDbVertex
100
AcDb2dVertex
 10
-462.26853748102724
 20
649.01886750173549
 30
0.0
  0
VERTEX
  5
2BF
100
AcDbEntity
  8
FAN70-0312
370
              15
390
0
  6
Continuous
 62
               7
100
AcDbVertex
100
AcDb2dVertex
 10
-459.5165371675273
 20
648.1255394562354
 30
0.0
  0
VERTEX
  5
2C0
100
AcDbEntity
  8
FAN70-0312
370
              15
390
0
  6
Continuous
 62
               7
100
AcDbVertex
100
AcDb2dVertex
 10
-456.67416683962733
 20
647.58384438253552
 30
0.0
  0
VERTEX
  5
2C1
100
AcDbEntity
  8
FAN70-0312
370
              15
390
0
  6
Continuous
 62
               7
100
AcDbVertex
100
AcDb2dVertex
 10
-453.78625237562733
 20
647.40232513573551
 30
0.0
  0
VERTEX
  5
2C2
100
AcDbEntity
  8
FAN70-0312
370
              15
390
0
  6
Continuous
 62
               7
100
AcDbVertex
100
AcDb2dVertex
 10
-450.89833791152728
 20
647.58384438253552
 30
0.0
  0
VERTEX
  5
2C3
100
AcDbEntity
  8
FAN70-0312
370
              15
390
0
  6
Continuous
 62
               7
100
AcDbVertex
100
AcDb2dVertex
 10
-448.05596758372724
 20
648.1255394562354
 30
0.0
  0
VERTEX
  5
2C4
100
AcDbEntity
  8
FAN70-0312
370
              15
390
0
  6
Continuous
 62
               7
100
AcDbVertex
100
AcDb2dVertex
 10
-445.30396727012726
 20
649.01886750173549
 30
0.0
  0
VERTEX
  5
2C5
100
AcDbEntity
  8
FAN70-0312
370
              15
390
0
  6
Continuous
 62
               7
100
AcDbVertex
100
AcDb2dVertex
 10
-442.68573765982728
 20
650.24974020223544
 30
0.0
  0
VERTEX
  5
2C6
100
AcDbEntity
  8
FAN70-0312
370
              15
390
0
  6
Continuous
 62
               7
100
AcDbVertex
100
AcDb2dVertex
 10
-440.24256979762731
 20
651.79874595993556
 30
0.0
  0
VERTEX
  5
2C7
100
AcDbEntity
  8
FAN70-0312
370
              15
390
0
  6
Continuous
 62
               7
100
AcDbVertex
100
AcDb2dVertex
 10
-438.01299390032727
 20
653.6414560286355
 30
0.0
  0
VERTEX
  5
2C8
100
AcDbEntity
  8
FAN70-0312
370
              15
390
0
  6
Continuous
 62
               7
100
AcDbVertex
100
AcDb2dVertex
 10
-436.03217171162726
 20
655.74880976983559
 30
0.0
  0
VERTEX
  5
2C9
100
AcDbEntity
  8
FAN70-0312
370
              15
390
0
  6
Continuous
 62
               7
100
AcDbVertex
100
AcDb2dVertex
 10
-434.33134198082723
 20
658.08757295613555
 30
0.0
  0
VERTEX
  5
2CA
100
AcDbEntity
  8
FAN70-0312
370
              15
390
0
  6
Continuous
 62
               7
100
AcDbVertex
100
AcDb2dVertex
 10
-432.93732780872733
 20
660.62086189503543
 30
0.0
  0
VERTEX
  5
2CB
100
AcDbEntity
  8
FAN70-0312
370
              15
390
0
  6
Continuous
 62
               7
100
AcDbVertex
100
AcDb2dVertex
 10
-431.87211363162726
 20
663.30872510653558
 30
0.0
  0
VERTEX
  5
2CC
100
AcDbEntity
  8
FAN70-0312
370
              15
390
0
  6
Continuous
 62
               7
100
AcDbVertex
100
AcDb2dVertex
 10
-431.15249851332737
 20
666.10877338223554
 30
0.0
  0
VERTEX
  5
2CD
100
AcDbEntity
  8
FAN70-0312
370
              15
390
0
  6
Continuous
 62
               7
100
AcDbVertex
100
AcDb2dVertex
 10
-430.78983121422721
 20
668.97684828823549
 30
0.0
  0
VERTEX
  5
2CE
100
AcDbEntity
  8
FAN70-0312
370
              15
390
0
  6
Continuous
 62
               7
100
AcDbVertex
100
AcDb2dVertex
 10
-430.78983121422721
 20
671.86771856973542
 30
0.0
  0
VERTEX
  5
2CF
100
AcDbEntity
  8
FAN70-0312
370
              15
390
0
  6
Continuous
 62
               7
100
AcDbVertex
100
AcDb2dVertex
 10
-431.15249851332737
 20
674.73579347573536
 30
0.0
  0
VERTEX
  5
2D0
100
AcDbEntity
  8
FAN70-0312
370
              15
390
0
  6
Continuous
 62
               7
100
AcDbVertex
100
AcDb2dVertex
 10
-431.87211363162726
 20
677.53584175143556
 30
0.0
  0
VERTEX
  5
2D1
100
AcDbEntity
  8
FAN70-0312
370
              15
390
0
  6
Continuous
 62
               7
100
AcDbVertex
100
AcDb2dVertex
 10
-432.93732780872733
 20
680.22370496293547
 30
0.0
  0
VERTEX
  5
2D2
100
AcDbEntity
  8
FAN70-0312
370
              15
390
0
  6
Continuous
 62
               7
100
AcDbVertex
100
AcDb2dVertex
 10
-434.33134198082723
 20
682.75699390183536
 30
0.0
  0
VERTEX
  5
2D3
100
AcDbEntity
  8
FAN70-0312
370
              15
390
0
  6
Continuous
 62
               7
100
AcDbVertex
100
AcDb2dVertex
 10
-436.03217171162726
 20
685.09575708813554
 30
0.0
  0
VERTEX
  5
2D4
100
AcDbEntity
  8
FAN70-0312
370
              15
390
0
  6
Continuous
 62
               7
100
AcDbVertex
100
AcDb2dVertex
 10
-438.01299390032727
 20
687.2031108293354
 30
0.0
  0
VERTEX
  5
2D5
100
AcDbEntity
  8
FAN70-0312
370
              15
390
0
  6
Continuous
 62
               7
100
AcDbVertex
100
AcDb2dVertex
 10
-440.24256979762731
 20
689.04582089803534
 30
0.0
  0
VERTEX
  5
2D6
100
AcDbEntity
  8
FAN70-0312
370
              15
390
0
  6
Continuous
 62
               7
100
AcDbVertex
100
AcDb2dVertex
 10
-442.68573765982728
 20
690.59482665573546
 30
0.0
  0
VERTEX
  5
2D7
100
AcDbEntity
  8
FAN70-0312
370
              15
390
0
  6
Continuous
 62
               7
100
AcDbVertex
100
AcDb2dVertex
 10
-445.30396727012726
 20
691.82569935623542
 30
0.0
  0
VERTEX
  5
2D8
100
AcDbEntity
  8
FAN70-0312
370
              15
390
0
  6
Continuous
 62
               7
100
AcDbVertex
100
AcDb2dVertex
 10
-448.05596758372724
 20
692.7190274017355
 30
0.0
  0
VERTEX
  5
2D9
100
AcDbEntity
  8
FAN70-0312
370
              15
390
0
  6
Continuous
 62
               7
100
AcDbVertex
100
AcDb2dVertex
 10
-450.89833791152728
 20
693.26072247543539
 30
0.0
  0
VERTEX
  5
2DA
100
AcDbEntity
  8
FAN70-0312
370
              15
390
0
  6
Continuous
 62
               7
100
AcDbVertex
100
AcDb2dVertex
 10
-453.78625237562733
 20
693.44224172223539
 30
0.0
  0
SEQEND
  5
2DB
100
AcDbEntity
  8
FAN70-0312
370
              15
390
0
  6
Continuous
 62
               7
  0
LINE
  5
2DC
100
AcDbEntity
  8
FAN70-0312
370
              15
390
0
  6
Continuous
 62
               7
100
AcDbLine
 10
524.33320967181555
 20
-419.70220387770041
 30
0.0
 11
515.51400585561544
 21
-429.3266759750004
 31
0.0
  0
LINE
  5
2DD
100
AcDbEntity
  8
FAN70-0312
370
              15
390
0
  6
Continuous
 62
               7
100
AcDbLine
 10
465.56159477651556
 20
-427.14570660670051
 30
0.0
 11
457.61477870751548
 21
-416.78921427240039
 31
0.0
  0
LINE
  5
2DE
100
AcDbEntity
  8
FAN70-0312
370
              15
390
0
  6
Continuous
 62
               7
100
AcDbLine
 10
566.46423339371552
 20
-301.57814559179997
 30
0.0
 11
570.54224067811549
 21
-305.0
 31
0.0
  0
LINE
  5
2DF
100
AcDbEntity
  8
FAN70-0312
370
              15
390
0
  6
Continuous
 62
               7
100
AcDbLine
 10
570.54224067811549
 20
-345.0
 30
0.0
 11
564.77903535501548
 21
-349.83590346100004
 31
0.0
  0
LINE
  5
2E0
100
AcDbEntity
  8
FAN70-0312
370
              15
390
0
  6
Continuous
 62
               7
100
AcDbLine
 10
642.54224067811549
 20
-295.0
 30
0.0
 11
642.54224067811549
 21
-305.5
 31
0.0
  0
LINE
  5
2E1
100
AcDbEntity
  8
FAN70-0312
370
              15
390
0
  6
Continuous
 62
               7
100
AcDbLine
 10
643.54224067811549
 20
-305.5
 30
0.0
 11
642.54224067811549
 21
-305.5
 31
0.0
  0
LINE
  5
2E2
100
AcDbEntity
  8
FAN70-0312
370
              15
390
0
  6
Continuous
 62
               7
100
AcDbLine
 10
643.54224067811549
 20
-295.0
 30
0.0
 11
643.54224067811549
 21
-305.5
 31
0.0
  0
LINE
  5
2E3
100
AcDbEntity
  8
FAN70-0312
370
              15
390
0
  6
Continuous
 62
               7
100
AcDbLine
 10
642.54224067811549
 20
-307.5
 30
0.0
 11
643.54224067811549
 21
-307.5
 31
0.0
  0
LINE
  5
2E4
100
AcDbEntity
  8
FAN70-0312
370
              15
390
0
  6
Continuous
 62
               7
100
AcDbLine
 10
642.54224067811549
 20
-305.5
 30
0.0
 11
642.54224067811549
 21
-307.5
 31
0.0
  0
LINE
  5
2E5
100
AcDbEntity
  8
FAN70-0312
370
              15
390
0
  6
Continuous
 62
               7
100
AcDbLine
 10
643.54224067811549
 20
-307.5
 30
0.0
 11
643.54224067811549
 21
-305.5
 31
0.0
  0
LINE
  5
2E6
100
AcDbEntity
  8
FAN70-0312
370
              15
390
0
  6
Continuous
 62
               7
100
AcDbLine
 10
664.79224067811549
 20
-295.0
 30
0.0
 11
660.54224067811549
 21
-295.0
 31
0.0
  0
ARC
  5
2E7
100
AcDbEntity
  8
FAN70-0312
370
              15
390
0
  6
Continuous
 62
               7
100
AcDbCircle
 10
664.79224067811549
 20
-294.25
 30
0.0
 40
0.75
100
AcDbArc
 50
270.0
 51
0.0
  0
LINE
  5
2E8
100
AcDbEntity
  8
FAN70-0312
370
              15
390
0
  6
Continuous
 62
               7
100
AcDbLine
 10
660.54224067811549
 20
-285.0
 30
0.0
 11
265.54224067811549
 21
-285.0
 31
0.0
  0
ARC
  5
2E9
100
AcDbEntity
  8
FAN70-0312
370
              15
390
0
  6
Continuous
 62
               7
100
AcDbCircle
 10
662.04224067811549
 20
-288.5
 30
0.0
 40
3.5
100
AcDbArc
 50
0.0
 51
90.0
  0
LINE
  5
2EA
100
AcDbEntity
  8
FAN70-0312
370
              15
390
0
  6
Continuous
 62
               7
100
AcDbLine
 10
662.04224067811549
 20
-285.0
 30
0.0
 11
660.54224067811549
 21
-285.0
 31
0.0
  0
LINE
  5
2EB
100
AcDbEntity
  8
FAN70-0312
370
              15
390
0
  6
Continuous
 62
               7
100
AcDbLine
 10
665.54224067811549
 20
-294.25
 30
0.0
 11
665.54224067811549
 21
-288.5
 31
0.0
  0
LINE
  5
2EC
100
AcDbEntity
  8
FAN70-0312
370
              15
390
0
  6
Continuous
 62
               7
100
AcDbLine
 10
660.54224067811549
 20
-295.0
 30
0.0
 11
265.54224067811549
 21
-295.0
 31
0.0
  0
LINE
  5
2ED
100
AcDbEntity
  8
FAN70-0312
370
              15
390
0
  6
Continuous
 62
               7
100
AcDbLine
 10
260.54224067811549
 20
-288.5
 30
0.0
 11
260.54224067811549
 21
-294.25
 31
0.0
  0
LINE
  5
2EE
100
AcDbEntity
  8
FAN70-0312
370
              15
390
0
  6
Continuous
 62
               7
100
AcDbLine
 10
265.54224067811549
 20
-295.0
 30
0.0
 11
261.29224067811549
 21
-295.0
 31
0.0
  0
ARC
  5
2EF
100
AcDbEntity
  8
FAN70-0312
370
              15
390
0
  6
Continuous
 62
               7
100
AcDbCircle
 10
261.29224067811549
 20
-294.25
 30
0.0
 40
0.75
100
AcDbArc
 50
180.0
 51
270.0
  0
LINE
  5
2F0
100
AcDbEntity
  8
FAN70-0312
370
              15
390
0
  6
Continuous
 62
               7
100
AcDbLine
 10
265.54224067811549
 20
-285.0
 30
0.0
 11
264.04224067811549
 21
-285.0
 31
0.0
  0
ARC
  5
2F1
100
AcDbEntity
  8
FAN70-0312
370
              15
390
0
  6
Continuous
 62
               7
100
AcDbCircle
 10
264.04224067811549
 20
-288.5
 30
0.0
 40
3.5
100
AcDbArc
 50
90.0
 51
180.0
  0
ARC
  5
2F2
100
AcDbEntity
  8
FAN70-0312
370
              15
390
0
  6
Continuous
 62
               7
100
AcDbCircle
 10
541.55140486751554
 20
-398.93348378410042
 30
0.0
 40
21.499999999999993
100
AcDbArc
 50
267.50000000000006
 51
358.0
  0
LINE
  5
2F3
100
AcDbEntity
  8
FAN70-0312
370
              15
390
0
  6
Continuous
 62
               7
100
AcDbLine
 10
566.7637888386156
 20
-293.0
 30
0.0
 11
563.03830764841553
 21
-399.68382296320033
 31
0.0
  0
LINE
  5
2F4
100
AcDbEntity
  8
FAN70-0312
370
              15
390
0
  6
Continuous
 62
               7
100
AcDbLine
 10
306.7960936586154
 20
-390.1850385325003
 30
0.0
 11
304.25121386191552
 21
-293.0
 31
0.0
  0
ARC
  5
2F5
100
AcDbEntity
  8
FAN70-0312
370
              15
390
0
  6
Continuous
 62
               7
100
AcDbCircle
 10
328.28872614561544
 20
-389.62223414390036
 30
0.0
 40
21.500000000000089
100
AcDbArc
 50
181.49999999999997
 51
267.50000000000006
  0
LINE
  5
2F6
100
AcDbEntity
  8
FAN70-0312
370
              15
390
0
  6
Continuous
 62
               7
100
AcDbLine
 10
540.6135880391156
 20
-420.41302054810035
 30
0.0
 11
524.33320967181555
 21
-419.70220387770041
 31
0.0
  0
LINE
  5
2F7
100
AcDbEntity
  8
FAN70-0312
370
              15
390
0
  6
Continuous
 62
               7
100
AcDbLine
 10
457.61477870751548
 20
-416.78921427240039
 30
0.0
 11
327.3509093172155
 21
-411.10177090790035
 31
0.0
  0
POLYLINE
  5
2F8
100
AcDbEntity
  8
FAN70-0312
370
              15
390
0
  6
Continuous
 62
               7
100
AcDb2dPolyline
 66
               1
 10
0.0
 20
0.0
 30
0.0
 75
               5
  0
VERTEX
  5
2F9
100
AcDbEntity
  8
FAN70-0312
370
              15
390
0
  6
Continuous
 62
               7
100
AcDbVertex
100
AcDb2dVertex
 10
524.33320967181555
 20
-419.70220387770041
 30
0.0
  0
VERTEX
  5
2FA
100
AcDbEntity
  8
FAN70-0312
370
              15
390
0
  6
Continuous
 62
               7
100
AcDbVertex
100
AcDb2dVertex
 10
524.33295349061552
 20
-419.70216134160046
 30
0.0
  0
VERTEX
  5
2FB
100
AcDbEntity
  8
FAN70-0312
370
              15
390
0
  6
Continuous
 62
               7
100
AcDbVertex
100
AcDb2dVertex
 10
523.8837805250156
 20
-419.62764225860042
 30
0.0
  0
VERTEX
  5
2FC
100
AcDbEntity
  8
FAN70-0312
370
              15
390
0
  6
Continuous
 62
               7
100
AcDbVertex
100
AcDb2dVertex
 10
522.59526471331549
 20
-419.41918481120047
 30
0.0
  0
VERTEX
  5
2FD
100
AcDbEntity
  8
FAN70-0312
370
              15
390
0
  6
Continuous
 62
               7
100
AcDbVertex
100
AcDb2dVertex
 10
520.24219241491562
 20
-419.05347654150046
 30
0.0
  0
VERTEX
  5
2FE
100
AcDbEntity
  8
FAN70-0312
370
              15
390
0
  6
Continuous
 62
               7
100
AcDbVertex
100
AcDb2dVertex
 10
516.96754541691564
 20
-418.57899512590029
 30
0.0
  0
VERTEX
  5
2FF
100
AcDbEntity
  8
FAN70-0312
370
              15
390
0
  6
Continuous
 62
               7
100
AcDbVertex
100
AcDb2dVertex
 10
512.92280153011541
 20
-418.04759483290036
 30
0.0
  0
VERTEX
  5
300
100
AcDbEntity
  8
FAN70-0312
370
              15
390
0
  6
Continuous
 62
               7
100
AcDbVertex
100
AcDb2dVertex
 10
508.16715247481545
 20
-417.49964192930042
 30
0.0
  0
VERTEX
  5
301
100
AcDbEntity
  8
FAN70-0312
370
              15
390
0
  6
Continuous
 62
               7
100
AcDbVertex
100
AcDb2dVertex
 10
503.06437932931556
 20
-417.00584757920046
 30
0.0
  0
VERTEX
  5
302
100
AcDbEntity
  8
FAN70-0312
370
              15
390
0
  6
Continuous
 62
               7
100
AcDbVertex
100
AcDb2dVertex
 10
497.57548737421564
 20
-416.58071130630037
 30
0.0
  0
VERTEX
  5
303
100
AcDbEntity
  8
FAN70-0312
370
              15
390
0
  6
Continuous
 62
               7
100
AcDbVertex
100
AcDb2dVertex
 10
492.23503112951551
 20
-416.27524594900046
 30
0.0
  0
VERTEX
  5
304
100
AcDbEntity
  8
FAN70-0312
370
              15
390
0
  6
Continuous
 62
               7
100
AcDbVertex
100
AcDb2dVertex
 10
486.85652335391558
 20
-416.07188104910028
 30
0.0
  0
VERTEX
  5
305
100
AcDbEntity
  8
FAN70-0312
370
              15
390
0
  6
Continuous
 62
               7
100
AcDbVertex
100
AcDb2dVertex
 10
481.55434920161554
 20
-415.97608808720042
 30
0.0
  0
VERTEX
  5
306
100
AcDbEntity
  8
FAN70-0312
370
              15
390
0
  6
Continuous
 62
               7
100
AcDbVertex
100
AcDb2dVertex
 10
476.52157113111559
 20
-415.9779845914004
 30
0.0
  0
VERTEX
  5
307
100
AcDbEntity
  8
FAN70-0312
370
              15
390
0
  6
Continuous
 62
               7
100
AcDbVertex
100
AcDb2dVertex
 10
471.92894404841547
 20
-416.05975999110046
 30
0.0
  0
VERTEX
  5
308
100
AcDbEntity
  8
FAN70-0312
370
              15
390
0
  6
Continuous
 62
               7
100
AcDbVertex
100
AcDb2dVertex
 10
467.84470669291557
 20
-416.19481907950035
 30
0.0
  0
VERTEX
  5
309
100
AcDbEntity
  8
FAN70-0312
370
              15
390
0
  6
Continuous
 62
               7
100
AcDbVertex
100
AcDb2dVertex
 10
464.22036331871561
 20
-416.36390151900036
 30
0.0
  0
VERTEX
  5
30A
100
AcDbEntity
  8
FAN70-0312
370
              15
390
0
  6
Continuous
 62
               7
100
AcDbVertex
100
AcDb2dVertex
 10
461.3309163062155
 20
-416.53149210060042
 30
0.0
  0
VERTEX
  5
30B
100
AcDbEntity
  8
FAN70-0312
370
              15
390
0
  6
Continuous
 62
               7
100
AcDbVertex
100
AcDb2dVertex
 10
459.16769470001566
 20
-416.67545546350038
 30
0.0
  0
VERTEX
  5
30C
100
AcDbEntity
  8
FAN70-0312
370
              15
390
0
  6
Continuous
 62
               7
100
AcDbVertex
100
AcDb2dVertex
 10
457.9234520408155
 20
-416.76600932460042
 30
0.0
  0
VERTEX
  5
30D
100
AcDbEntity
  8
FAN70-0312
370
              15
390
0
  6
Continuous
 62
               7
100
AcDbVertex
100
AcDb2dVertex
 10
457.61477870751548
 20
-416.78921427240039
 30
0.0
  0
SEQEND
  5
30E
100
AcDbEntity
  8
FAN70-0312
370
              15
390
0
  6
Continuous
 62
               7
  0
LINE
  5
30F
100
AcDbEntity
  8
FAN70-0312
370
              15
390
0
  6
Continuous
 62
               7
100
AcDbLine
 10
465.56159477651556
 20
-427.14570660670051
 30
0.0
 11
515.51400585561544
 21
-429.3266759750004
 31
0.0
  0
LINE
  5
310
100
AcDbEntity
  8
FAN70-0312
370
              15
390
0
  6
Continuous
 62
               7
100
AcDbLine
 10
570.54224067811549
 20
-345.0
 30
0.0
 11
570.54224067811549
 21
-332.5
 31
0.0
  0
LINE
  5
311
100
AcDbEntity
  8
FAN70-0312
370
              15
390
0
  6
Continuous
 62
               7
100
AcDbLine
 10
570.54224067811549
 20
-305.0
 30
0.0
 11
570.54224067811549
 21
-332.5
 31
0.0
  0
LINE
  5
312
100
AcDbEntity
  8
FAN70-0312
370
              15
390
0
  6
STYLE_12
 62
               7
100
AcDbLine
 10
565.26340573805953
 20
-289.82550251648735
 30
0.0
 11
561.41000940717856
 21
-400.17233584694486
 31
0.0
  0
ARC
  5
313
100
AcDbEntity
  8
FAN70-0312
370
              15
390
0
  6
STYLE_12
 62
               7
100
AcDbCircle
 10
541.55140486751554
 20
-398.93348378410042
 30
0.0
 40
19.799999999999912
100
AcDbArc
 50
267.50000000000028
 51
358.00000000000011
  0
LINE
  5
314
100
AcDbEntity
  8
FAN70-0312
370
              15
390
0
  6
STYLE_12
 62
               7
100
AcDbLine
 10
540.68774099763675
 20
-418.71463857141123
 30
0.0
 11
525.94471329107944
 21
-418.07094408043804
 31
0.0
  0
LINE
  5
315
100
AcDbEntity
  8
FAN70-0312
370
              15
390
0
  6
STYLE_12
 62
               7
100
AcDbLine
 10
456.15158100530232
 20
-415.02371011628247
 30
0.0
 11
327.42506227573665
 21
-409.40338893121123
 31
0.0
  0
ARC
  5
316
100
AcDbEntity
  8
FAN70-0312
370
              15
390
0
  6
STYLE_12
 62
               7
100
AcDbCircle
 10
328.28872614561544
 20
-389.62223414390036
 30
0.0
 40
19.800000000000001
100
AcDbArc
 50
181.49999999999969
 51
267.49999999999994
  0
LINE
  5
317
100
AcDbEntity
  8
FAN70-0312
370
              15
390
0
  6
STYLE_12
 62
               7
100
AcDbLine
 10
308.49551111107382
 20
-390.14053772037704
 30
0.0
 11
305.86981150686654
 21
-289.86911525846119
 31
0.0
  0
ARC
  5
318
100
AcDbEntity
  8
FAN70-0312
370
              15
390
0
  6
STYLE_12
 62
               7
100
AcDbCircle
 10
570.26035987315493
 20
-290.0
 30
0.0
 40
5.0
100
AcDbArc
 50
90.0
 51
177.99999999999827
  0
ARC
  5
319
100
AcDbEntity
  8
FAN70-0312
370
              15
390
0
  6
STYLE_12
 62
               7
100
AcDbCircle
 10
300.87152488198865
 20
-290.0
 30
0.0
 40
5.0000000000000906
100
AcDbArc
 50
1.4999999999935705
 51
90.0
  0
LINE
  5
31A
100
AcDbEntity
  8
FAN70-0312
370
              15
390
0
  6
STYLE_12
 62
               7
100
AcDbLine
 10
522.04022967020626
 20
-419.68823415027282
 30
0.0
 11
513.29692564317804
 21
-429.22987616242006
 31
0.0
  0
LINE
  5
31B
100
AcDbEntity
  8
FAN70-0312
370
              15
390
0
  6
STYLE_12
 62
               7
100
AcDbLine
 10
467.77867498896819
 20
-427.24250641928143
 30
0.0
 11
459.9002507699139
 21
-416.97514407912536
 31
0.0
  0
ARC
  5
31C
100
AcDbEntity
  8
FAN70-0312
370
              15
390
0
  6
STYLE_12
 62
               7
100
AcDbCircle
 10
525.72661635426005
 20
-423.06618518834762
 30
0.0
 40
4.9999999999999716
100
AcDbArc
 50
87.500000000083574
 51
137.50000000005411
  0
ARC
  5
31D
100
AcDbEntity
  8
FAN70-0312
370
              15
390
0
  6
STYLE_12
 62
               7
100
AcDbCircle
 10
455.9334840684752
 20
-420.01895122419182
 30
0.0
 40
5.0000000000000542
100
AcDbArc
 50
37.500000000329763
 51
87.499999999994941
  0
ARC
  5
31E
100
AcDbEntity
  8
FAN70-0312
370
              15
390
0
  6
STYLE_12
 62
               7
100
AcDbCircle
 10
-451.69052732709042
 20
-122.20016329061751
 30
0.0
 40
296.20000000000027
100
AcDbArc
 50
276.22249347905813
 51
326.67425729233196
  0
LINE
  5
31F
100
AcDbEntity
  8
FAN70-0312
370
              15
390
0
  6
STYLE_12
 62
               7
100
AcDbLine
 10
-430.87835202804138
 20
-428.27614215810036
 30
0.0
 11
-422.92629025153292
 21
-418.47532660593697
 31
0.0
  0
ARC
  5
320
100
AcDbEntity
  8
FAN70-0312
370
              15
390
0
  6
STYLE_12
 62
               7
100
AcDbCircle
 10
-419.04356884407287
 20
-421.6256399986097
 30
0.0
 40
5.0000000000001146
100
AcDbArc
 50
96.22249347905894
 51
140.94525300391751
  0
LINE
  5
321
100
AcDbEntity
  8
FAN70-0312
370
              15
390
0
  6
Continuous
 62
               7
100
AcDbLine
 10
-428.80793670868559
 20
-428.27614215810036
 30
0.0
 11
-478.76456804256907
 21
-428.27614215810036
 31
0.0
  0
ARC
  5
322
100
AcDbEntity
  8
FAN70-0312
370
              15
390
0
  6
STYLE_12
 62
               7
100
AcDbCircle
 10
-455.89178012908087
 20
-122.20016329061751
 30
0.0
 40
296.19999999999982
100
AcDbArc
 50
213.32574270766801
 51
263.77750652094187
  0
LINE
  5
323
100
AcDbEntity
  8
FAN70-0312
370
              15
390
0
  6
STYLE_12
 62
               7
100
AcDbLine
 10
-476.7039554281298
 20
-428.27614215810036
 30
0.0
 11
-484.65601720463826
 21
-418.47532660593697
 31
0.0
  0
ARC
  5
324
100
AcDbEntity
  8
FAN70-0312
370
              15
390
0
  6
STYLE_12
 62
               7
100
AcDbCircle
 10
-488.53873861209843
 20
-421.6256399986097
 30
0.0
 40
5.000000000000262
100
AcDbArc
 50
39.054746996081661
 51
83.77750652094042
  0
LINE
  5
325
100
AcDbEntity
  8
FAN70-0312
370
              15
390
0
  6
Continuous
 62
               7
100
AcDbLine
 10
-203.78625237562724
 20
725.73958532639995
 30
0.0
 11
-203.78625237562724
 21
505.14148044107338
 31
0.0
  0
LINE
  5
326
100
AcDbEntity
  8
FAN70-0312
370
              15
390
0
  6
Continuous
 62
               7
100
AcDbLine
 10
-703.7862523756271
 20
725.73958532639995
 30
0.0
 11
-703.7862523756271
 21
505.10036421149704
 31
0.0
  0
LINE
  5
327
100
AcDbEntity
  8
FAN70-0312
370
              15
390
0
  6
Continuous
 62
               7
100
AcDbLine
 10
-677.37754902872723
 20
745.42672379103556
 30
0.0
 11
-230.17754902872727
 21
745.42672379103556
 31
0.0
  0
SPLINE
  5
328
100
AcDbEntity
  8
FAN70-0312
370
              15
390
0
  6
Continuous
 62
               7
100
AcDbSpline
210
0.0
220
0.0
230
1.0
 70
               8
 71
               2
 72
               8
 73
               5
 74
               0
 42
0.000001
 43
0.000001
 40
0.0
 40
0.0
 40
0.0
 40
1.0
 40
2.0
 40
3.0
 40
3.0
 40
3.0
 10
-677.38625237425299
 20
745.42672379103556
 30
0.0
 10
-684.46011105661455
 20
745.42672379131022
 30
0.0
 10
-696.71239369930538
 20
740.14812469785761
 30
0.0
 10
-703.78625237852884
 20
731.00532287547435
 30
0.0
 10
-703.7862523756271
 20
725.72672378295442
 30
0.0
  0
SPLINE
  5
329
100
AcDbEntity
  8
FAN70-0312
370
              15
390
0
  6
Continuous
 62
               7
100
AcDbSpline
210
0.0
220
0.0
230
1.0
 70
               8
 71
               2
 72
               8
 73
               5
 74
               0
 42
0.000001
 43
0.000001
 40
0.0
 40
0.0
 40
0.0
 40
1.0
 40
2.0
 40
3.0
 40
3.0
 40
3.0
 10
-703.7862523756271
 20
505.12672378646135
 30
0.0
 10
-703.78625237272536
 20
499.84812469467425
 30
0.0
 10
-696.71239368528222
 20
490.70532287752422
 30
0.0
 10
-684.46011103947058
 20
485.42672379103607
 30
0.0
 10
-677.38625235809081
 20
485.4267237945424
 30
0.0
  0
SPLINE
  5
32A
100
AcDbEntity
  8
FAN70-0312
370
              15
390
0
  6
Continuous
 62
               7
100
AcDbSpline
210
0.0
220
0.0
230
1.0
 70
               8
 71
               2
 72
               8
 73
               5
 74
               0
 42
0.000001
 43
0.000001
 40
0.0
 40
0.0
 40
0.0
 40
1.0
 40
2.0
 40
3.0
 40
3.0
 40
3.0
 10
-230.18625235809091
 20
485.42672379103607
 30
0.0
 10
-223.11239368104182
 20
485.4267237945424
 30
0.0
 10
-210.86011104996342
 20
490.70532288714668
 30
0.0
 10
-203.78625237562724
 20
499.84812470248045
 30
0.0
 10
-203.78625237562724
 20
505.12672379103611
 30
0.0
  0
SPLINE
  5
32B
100
AcDbEntity
  8
FAN70-0312
370
              15
390
0
  6
Continuous
 62
               7
100
AcDbSpline
210
0.0
220
0.0
230
1.0
 70
               8
 71
               2
 72
               8
 73
               5
 74
               0
 42
0.000001
 43
0.000001
 40
0.0
 40
0.0
 40
0.0
 40
1.0
 40
2.0
 40
3.0
 40
3.0
 40
3.0
 10
-230.21499904404283
 20
745.42672379911664
 30
0.0
 10
-223.14114036168121
 20
745.42672379939131
 30
0.0
 10
-210.88885771899044
 20
740.1481247059387
 30
0.0
 10
-203.81499903976692
 20
731.00532288355544
 30
0.0
 10
-203.81499904266866
 20
725.72672379103551
 30
0.0
  0
LINE
  5
32C
100
AcDbEntity
  8
FAN70-0312
370
              15
390
0
  6
Continuous
 62
               7
100
AcDbLine
 10
-677.37754902872723
 20
485.42672379103607
 30
0.0
 11
-230.17754902872727
 21
485.42672379103607
 31
0.0
  0
ENDSEC
  0
SECTION
  2
OBJECTS
  0
DICTIONARY
  5
19
100
AcDbDictionary
280
               0
281
               1
  3
ACAD_GROUP
350
1A
  3
ACAD_MLINESTYLE
350
1B
  3
ACAD_LAYOUT
350
1E
  3
ACAD_PLOTSETTINGS
350
22
  3
ACAD_PLOTSTYLENAME
350
1F
  0
DICTIONARY
  5
1A
102
{ACAD_REACTORS
330
19
102
}
100
AcDbDictionary
280
               0
281
               1
  0
DICTIONARY
  5
1B
102
{ACAD_REACTORS
330
19
102
}
100
AcDbDictionary
280
               0
281
               1
  3
Standard
350
1C
  0
MLINESTYLE
  5
1C
102
{ACAD_REACTORS
330
1B
102
}
100
AcDbMlineStyle
  2
Standard
 70
               0
  3

 62
               0
 51
90.0
 52
90.0
 71
               2
 49
0.5
 62
             256
  6
ByLayer
 49
-0.5
 62
             256
  6
ByLayer
  0
ACDBDICTIONARYWDFLT
  5
1F
102
{ACAD_REACTORS
330
19
102
}
100
AcDbDictionary
281
               1
  3
Normal
350
1D
100
AcDbDictionaryWithDefault
340
1D
  0
ACDBPLACEHOLDER
  5
1D
102
{ACAD_REACTORS
330
1F
102
}
  0
LAYOUT
  5
20
102
{ACAD_REACTORS
330
1E
102
}
100
AcDbPlotSettings
  1

  2

  4

  6

 40
0.0
 41
0.0
 42
0.0
 43
0.0
 44
0.0
 45
0.0
 46
0.0
 47
0.0
 48
0.0
 49
0.0
140
0.0
141
0.0
142
1.0
143
1.0
 70
            1024
 72
               0
 73
               0
 74
               0
  7

 75
               0
147
1.0
148
0.0
149
0.0
100
AcDbLayout
  1
Model
 70
               0
 71
               0
 10
0.0
 20
0.0
 11
0.0
 21
0.0
 12
0.0
 22
0.0
 32
0.0
 14
0.0
 24
0.0
 34
0.0
 15
0.0
 25
0.0
 35
0.0
146
0.0
 13
0.0
 23
0.0
 33
0.0
 16
0.0
 26
0.0
 36
0.0
 17
0.0
 27
0.0
 37
0.0
 76
               0
330
A
331
0
345
0
346
0
  0
LAYOUT
  5
21
102
{ACAD_REACTORS
330
1E
102
}
100
AcDbPlotSettings
  1

  2

  4

  6

 40
0.0
 41
0.0
 42
0.0
 43
0.0
 44
0.0
 45
0.0
 46
0.0
 47
0.0
 48
0.0
 49
0.0
140
0.0
141
0.0
142
1.0
143
1.0
 70
               0
 72
               0
 73
               0
 74
               0
  7

 75
               0
147
1.0
148
0.0
149
0.0
100
AcDbLayout
  1
Layout1
 70
               0
 71
               0
 10
0.0
 20
0.0
 11
0.0
 21
0.0
 12
0.0
 22
0.0
 32
0.0
 14
0.0
 24
0.0
 34
0.0
 15
0.0
 25
0.0
 35
0.0
146
0.0
 13
0.0
 23
0.0
 33
0.0
 16
0.0
 26
0.0
 36
0.0
 17
0.0
 27
0.0
 37
0.0
 76
               0
330
B
331
0
345
0
346
0
  0
DICTIONARY
  5
1E
102
{ACAD_REACTORS
330
19
102
}
100
AcDbDictionary
280
               0
281
               1
  3
Layout1
350
21
  3
Model
350
20
  0
DICTIONARY
  5
22
102
{ACAD_REACTORS
330
19
102
}
100
AcDbDictionary
280
               0
281
               1
  0
ENDSEC
  0
EOF
