  0
SECTION
  2
HEADER
  9
$ACADVER
  1
AC1015
  9
$ACADMAINTVER
 70
               6
  9
$DWGCODEPAGE
  3
ANSI_932
  9
$INSBASE
 10
0.0
 20
0.0
 30
0.0
  9
$EXTMIN
 10
-975.00000000024113
 20
-1431.5255224711129
 30
-14.428611111111111
  9
$EXTMAX
 10
975.00000000024124
 20
1405.9972926412995
 30
14.428611111111111
  9
$LIMMIN
 10
0.0
 20
0.0
  9
$LIMMAX
 10
0.0
 20
0.0
  9
$ORTHOMODE
 70
               0
  9
$REGENMODE
 70
               1
  9
$FILLMODE
 70
               1
  9
$QTEXTMODE
 70
               0
  9
$MIRRTEXT
 70
               1
  9
$LTSCALE
 40
50.799999999999997
  9
$ATTMODE
 70
               1
  9
$TEXTSIZE
 40
0.2
  9
$TRACEWID
 40
1.0
  9
$TEXTSTYLE
  7
Standard
  9
$CLAYER
  8
template
  9
$CELTYPE
  6
Continuous
  9
$CECOLOR
 62
             256
  9
$CELTSCALE
 40
1.0
  9
$DISPSILH
 70
               0
  9
$DIMSCALE
 40
1.0
  9
$DIMASZ
 40
31.75
  9
$DIMEXO
 40
0.0
  9
$DIMDLI
 40
6.9999999999999396
  9
$DIMRND
 40
0.0
  9
$DIMDLE
 40
0.0
  9
$DIMEXE
 40
19.999999999996199
  9
$DIMTP
 40
0.0
  9
$DIMTM
 40
0.0
  9
$DIMTXT
 40
24.432617187500004
  9
$DIMCEN
 40
0.0
  9
$DIMTSZ
 40
0.0
  9
$DIMTOL
 70
               0
  9
$DIMLIM
 70
               0
  9
$DIMTIH
 70
               0
  9
$DIMTOH
 70
               0
  9
$DIMSE1
 70
               0
  9
$DIMSE2
 70
               0
  9
$DIMTAD
 70
               1
  9
$DIMZIN
 70
              11
  9
$DIMBLK
  1
VW_FILLEDARROW
  9
$DIMASO
 70
               1
  9
$DIMSHO
 70
               1
  9
$DIMPOST
  1
<>
  9
$DIMAPOST
  1
[]
  9
$DIMALT
 70
               0
  9
$DIMALTD
 70
               1
  9
$DIMALTF
 40
1.0
  9
$DIMLFAC
 40
1.0
  9
$DIMTOFL
 70
               0
  9
$DIMTVP
 40
0.0
  9
$DIMTIX
 70
               1
  9
$DIMSOXD
 70
               0
  9
$DIMSAH
 70
               0
  9
$DIMBLK1
  1

  9
$DIMBLK2
  1

  9
$DIMSTYLE
  2
JIS
  9
$DIMCLRD
 70
               0
  9
$DIMCLRE
 70
               0
  9
$DIMCLRT
 70
               0
  9
$DIMTFAC
 40
1.0
  9
$DIMGAP
 40
1.00000000000108
  9
$DIMJUST
 70
               0
  9
$DIMSD1
 70
               0
  9
$DIMSD2
 70
               0
  9
$DIMTOLJ
 70
               1
  9
$DIMTZIN
 70
              11
  9
$DIMALTZ
 70
              11
  9
$DIMALTTZ
 70
              11
  9
$DIMUPT
 70
               0
  9
$DIMDEC
 70
               1
  9
$DIMTDEC
 70
               1
  9
$DIMALTU
 70
               2
  9
$DIMALTTD
 70
               2
  9
$DIMTXSTY
  7
ＭＳ ゴシック
  9
$DIMAUNIT
 70
               0
  9
$DIMADEC
 70
               2
  9
$DIMALTRND
 40
0.0
  9
$DIMAZIN
 70
               0
  9
$DIMDSEP
 70
              46
  9
$DIMATFIT
 70
               0
  9
$DIMFRAC
 70
               2
  9
$DIMLDRBLK
  1

  9
$DIMLUNIT
 70
               2
  9
$DIMLWD
 70
              -2
  9
$DIMLWE
 70
              -2
  9
$DIMTMOVE
 70
               0
  9
$LUNITS
 70
               2
  9
$LUPREC
 70
               4
  9
$SKETCHINC
 40
0.1
  9
$FILLETRAD
 40
0.0
  9
$AUNITS
 70
               0
  9
$AUPREC
 70
               0
  9
$MENU
  1
acad
  9
$ELEVATION
 40
0.0
  9
$PELEVATION
 40
0.0
  9
$THICKNESS
 40
0.0
  9
$LIMCHECK
 70
               0
  9
$CHAMFERA
 40
0.0
  9
$CHAMFERB
 40
0.0
  9
$CHAMFERC
 40
0.0
  9
$CHAMFERD
 40
0.0
  9
$SKPOLY
 70
               0
  9
$TDCREATE
 40
2456066.662372685
  9
$TDUCREATE
 40
0.000000000
  9
$TDUPDATE
 40
2456066.662372685
  9
$TDUUPDATE
 40
0.000000000
  9
$TDINDWG
 40
0.0000000000
  9
$TDUSRTIMER
 40
0.0000000000
  9
$USRTIMER
 70
               1
  9
$ANGBASE
 50
0.0
  9
$ANGDIR
 70
               0
  9
$PDMODE
 70
               1
  9
$PDSIZE
 40
-2.0
  9
$PLINEWID
 40
0.0
  9
$SPLFRAME
 70
               0
  9
$SPLINETYPE
 70
               6
  9
$SPLINESEGS
 70
               8
  9
$HANDSEED
  5
115
  9
$SURFTAB1
 70
               6
  9
$SURFTAB2
 70
               6
  9
$SURFTYPE
 70
               6
  9
$SURFU
 70
               6
  9
$SURFV
 70
               6
  9
$UCSBASE
  2

  9
$UCSNAME
  2

  9
$UCSORG
 10
0.0
 20
0.0
 30
0.0
  9
$UCSXDIR
 10
1.0
 20
0.0
 30
0.0
  9
$UCSYDIR
 10
0.0
 20
1.0
 30
0.0
  9
$UCSORTHOREF
  2

  9
$UCSORTHOVIEW
 70
               0
  9
$UCSORGTOP
 10
0.0
 20
0.0
 30
0.0
  9
$UCSORGBOTTOM
 10
0.0
 20
0.0
 30
0.0
  9
$UCSORGLEFT
 10
0.0
 20
0.0
 30
0.0
  9
$UCSORGRIGHT
 10
0.0
 20
0.0
 30
0.0
  9
$UCSORGFRONT
 10
0.0
 20
0.0
 30
0.0
  9
$UCSORGBACK
 10
0.0
 20
0.0
 30
0.0
  9
$PUCSBASE
  2

  9
$PUCSNAME
  2

  9
$PUCSORG
 10
0.0
 20
0.0
 30
0.0
  9
$PUCSXDIR
 10
1.0
 20
0.0
 30
0.0
  9
$PUCSYDIR
 10
0.0
 20
1.0
 30
0.0
  9
$PUCSORTHOREF
  2

  9
$PUCSORTHOVIEW
 70
               0
  9
$PUCSORGTOP
 10
0.0
 20
0.0
 30
0.0
  9
$PUCSORGBOTTOM
 10
0.0
 20
0.0
 30
0.0
  9
$PUCSORGLEFT
 10
0.0
 20
0.0
 30
0.0
  9
$PUCSORGRIGHT
 10
0.0
 20
0.0
 30
0.0
  9
$PUCSORGFRONT
 10
0.0
 20
0.0
 30
0.0
  9
$PUCSORGBACK
 10
0.0
 20
0.0
 30
0.0
  9
$USERI1
 70
               0
  9
$USERI2
 70
               0
  9
$USERI3
 70
               0
  9
$USERI4
 70
               0
  9
$USERI5
 70
               0
  9
$USERR1
 40
0.0
  9
$USERR2
 40
0.0
  9
$USERR3
 40
0.0
  9
$USERR4
 40
0.0
  9
$USERR5
 40
0.0
  9
$WORLDVIEW
 70
               1
  9
$SHADEDGE
 70
               3
  9
$SHADEDIF
 70
              70
  9
$TILEMODE
 70
               1
  9
$MAXACTVP
 70
              64
  9
$PINSBASE
 10
0.0
 20
0.0
 30
0.0
  9
$PLIMCHECK
 70
               0
  9
$PEXTMIN
 10
1.0000000000000000E+20
 20
1.0000000000000000E+20
 30
1.0000000000000000E+20
  9
$PEXTMAX
 10
-1.0000000000000000E+20
 20
-1.0000000000000000E+20
 30
-1.0000000000000000E+20
  9
$PLIMMIN
 10
0.0
 20
0.0
  9
$PLIMMAX
 10
12.0
 20
9.0
  9
$UNITMODE
 70
               0
  9
$VISRETAIN
 70
               0
  9
$PLINEGEN
 70
               1
  9
$PSLTSCALE
 70
               0
  9
$TREEDEPTH
 70
            3020
  9
$CMLSTYLE
  2
Standard
  9
$CMLJUST
 70
               0
  9
$CMLSCALE
 40
1.0
  9
$PROXYGRAPHICS
 70
               0
  9
$MEASUREMENT
 70
               1
  9
$CELWEIGHT
370
               0
  9
$ENDCAPS
280
               0
  9
$JOINSTYLE
280
               0
  9
$LWDISPLAY
290
               1
  9
$INSUNITS
 70
               4
  9
$HYPERLINKBASE
  1

  9
$STYLESHEET
  1

  9
$XEDIT
290
               1
  9
$CEPSNTYPE
380
               0
  9
$PSTYLEMODE
290
               1
  9
$FINGERPRINTGUID
  2

  9
$VERSIONGUID
  2

  9
$EXTNAMES
290
               1
  9
$PSVPSCALE
 40
0.0
  0
ENDSEC
  0
SECTION
  2
CLASSES
  0
CLASS
  1
LWPOLYLINE
  2
AcDbPolyline
  3
AutoCAD 2000
 90
        0
280
               0
281
               1
  0
CLASS
  1
IMAGE
  2
AcDbRasterImage
  3
ISM
 90
      127
280
               0
281
               1
  0
CLASS
  1
OLE2FRAME
  2
AcDbOle2Frame
  3
AutoCAD 2000
 90
        0
280
               0
281
               1
  0
CLASS
  1
HATCH
  2
AcDbHatch
  3
AutoCAD 2000
 90
        0
280
               0
281
               1
  0
CLASS
  1
DICTIONARYVAR
  2
AcDbDictionaryVar
  3
AutoCAD 2000
 90
        0
280
               0
281
               0
  0
CLASS
  1
RASTERVARIABLES
  2
AcDbRasterVariables
  3
ISM
 90
        0
280
               0
281
               0
  0
CLASS
  1
IMAGEDEF
  2
AcDbRasterImageDef
  3
ISM
 90
        0
280
               0
281
               0
  0
CLASS
  1
IMAGEDEF_REACTOR
  2
AcDbRasterImageDefReactor
  3
ISM
 90
        1
280
               0
281
               0
  0
CLASS
  1
IDBUFFER
  2
AcDbIdBuffer
  3
AutoCAD 2000
 90
        0
280
               0
281
               0
  0
CLASS
  1
SPATIAL_FILTER
  2
AcDbSpatialFilter
  3
AutoCAD 2000
 90
        0
280
               0
281
               0
  0
CLASS
  1
XRECORD
  2
AcDbXrecord
  3
AutoCAD 2000
 90
        0
280
               0
281
               0
  0
CLASS
  1
SORTENTSTABLE
  2
AcDbSortentsTable
  3
AutoCAD 2000
 90
        0
280
               0
281
               0
  0
CLASS
  1
LAYER_INDEX
  2
AcDbLayerIndex
  3
AutoCAD 2000
 90
        0
280
               0
281
               0
  0
CLASS
  1
SPATIAL_INDEX
  2
AcDbSpatialIndex
  3
AutoCAD 2000
 90
        0
280
               0
281
               0
  0
CLASS
  1
OBJECT_PTR
  2
CAseDLPNTableRecord
  3
"ASE-LPNTableRecord"
 90
        1
280
               0
281
               0
  0
CLASS
  1
LAYOUT
  2
AcDbLayout
  3
AutoCAD 2000
 90
        0
280
               0
281
               0
  0
CLASS
  1
PLOTSETTINGS
  2
AcDbPlotSettings
  3
AutoCAD 2000
 90
        0
280
               0
281
               0
  0
CLASS
  1
ACDBDICTIONARYWDFLT
  2
AcDbDictionaryWithDefault
  3
AutoCAD 2000
 90
        0
280
               0
281
               0
  0
CLASS
  1
ACDBPLACEHOLDER
  2
AcDbPlaceHolder
  3
AutoCAD 2000
 90
        0
280
               0
281
               0
  0
ENDSEC
  0
SECTION
  2
TABLES
  0
TABLE
  2
VPORT
  5
7
100
AcDbSymbolTable
 70
               1
  0
VPORT
  5
15
100
AcDbSymbolTableRecord
100
AcDbViewportTableRecord
  2
*ACTIVE
 70
               0
 10
0.0
 20
0.0
 11
1.0
 21
1.0
 12
0.0000000000001137
 22
-12.764114914906713
 13
0.0
 23
0.0
 14
1.0
 24
1.0
 15
0.0
 25
0.0
 16
0.0
 26
0.0
 36
1.0
 17
0.0
 27
0.0
 37
0.0
 40
2837.5228151124124
 41
0.688564
 42
50.0
 43
0.0
 44
0.0
 50
0.0
 51
0.0
 71
               0
 72
            2000
 73
               1
 74
               1
 75
               0
 76
               0
 77
               0
 78
               0
281
               0
 65
               0
110
0.0
120
0.0
130
0.0
111
1.0
121
0.0
131
0.0
112
0.0
122
1.0
132
0.0
345
0
346
0
 79
               0
146
0.0
  0
ENDTAB
  0
TABLE
  2
LTYPE
  5
4
100
AcDbSymbolTable
 70
              17
  0
LTYPE
  5
11
100
AcDbSymbolTableRecord
100
AcDbLinetypeTableRecord
  2
ByBlock
 70
              64
  3

 72
              65
 73
               0
 40
0.0
  0
LTYPE
  5
12
100
AcDbSymbolTableRecord
100
AcDbLinetypeTableRecord
  2
ByLayer
 70
              64
  3

 72
              65
 73
               0
 40
0.0
  0
LTYPE
  5
13
100
AcDbSymbolTableRecord
100
AcDbLinetypeTableRecord
  2
Continuous
 70
              64
  3
Solid line
 72
              65
 73
               0
 40
0.0
  0
LTYPE
  5
2F
100
AcDbSymbolTableRecord
100
AcDbLinetypeTableRecord
  2
STYLE_01
 70
               0
  3

 72
              65
 73
               4
 40
0.3999999999999999
 49
0.25
 74
               0
 49
-0.05
 74
               0
 49
0.05
 74
               0
 49
-0.05
 74
               0
  0
LTYPE
  5
30
100
AcDbSymbolTableRecord
100
AcDbLinetypeTableRecord
  2
STYLE_02
 70
               0
  3

 72
              65
 73
               4
 40
0.3999999999999999
 49
0.25
 74
               0
 49
-0.05
 74
               0
 49
0.05
 74
               0
 49
-0.05
 74
               0
  0
LTYPE
  5
31
100
AcDbSymbolTableRecord
100
AcDbLinetypeTableRecord
  2
STYLE_03
 70
               0
  3

 72
              65
 73
               2
 40
1.25
 49
1.0416400000000001
 74
               0
 49
-0.2083599999999999
 74
               0
  0
LTYPE
  5
32
100
AcDbSymbolTableRecord
100
AcDbLinetypeTableRecord
  2
STYLE_04
 70
               0
  3

 72
              65
 73
               2
 40
1.5277099999999999
 49
1.3194249999999998
 74
               0
 49
-0.208285
 74
               0
  0
LTYPE
  5
33
100
AcDbSymbolTableRecord
100
AcDbLinetypeTableRecord
  2
STYLE_05
 70
               0
  3

 72
              65
 73
               2
 40
0.20828
 49
0.069425
 74
               0
 49
-0.138855
 74
               0
  0
LTYPE
  5
34
100
AcDbSymbolTableRecord
100
AcDbLinetypeTableRecord
  2
STYLE_06
 70
               0
  3

 72
              65
 73
               4
 40
1.0416400000000001
 49
0.625
 74
               0
 49
-0.20828
 74
               0
 49
0.06943
 74
               0
 49
-0.13893
 74
               0
  0
LTYPE
  5
35
100
AcDbSymbolTableRecord
100
AcDbLinetypeTableRecord
  2
STYLE_07
 70
               0
  3

 72
              65
 73
               6
 40
1.875
 49
0.625
 74
               0
 49
-0.20828
 74
               0
 49
0.6250000000000001
 74
               0
 49
-0.2083599999999999
 74
               0
 49
0.06943
 74
               0
 49
-0.1389299999999999
 74
               0
  0
LTYPE
  5
36
100
AcDbSymbolTableRecord
100
AcDbLinetypeTableRecord
  2
STYLE_08
 70
               0
  3

 72
              65
 73
               6
 40
1.25
 49
0.625
 74
               0
 49
-0.20828
 74
               0
 49
0.06943
 74
               0
 49
-0.13893
 74
               0
 49
0.0694299999999999
 74
               0
 49
-0.13893
 74
               0
  0
LTYPE
  5
37
100
AcDbSymbolTableRecord
100
AcDbLinetypeTableRecord
  2
STYLE_09
 70
               0
  3

 72
              65
 73
               4
 40
5.0
 49
3.75
 74
               0
 49
-0.2777849999999998
 74
               0
 49
0.6944300000000003
 74
               0
 49
-0.2777849999999998
 74
               0
  0
LTYPE
  5
38
100
AcDbSymbolTableRecord
100
AcDbLinetypeTableRecord
  2
STYLE_10
 70
               0
  3

 72
              65
 73
               6
 40
5.9375
 49
3.75
 74
               0
 49
-0.2777849999999998
 74
               0
 49
0.6944300000000003
 74
               0
 49
-0.2777849999999998
 74
               0
 49
0.625
 74
               0
 49
-0.3125
 74
               0
  0
LTYPE
  5
39
100
AcDbSymbolTableRecord
100
AcDbLinetypeTableRecord
  2
STYLE_11
 70
               0
  3

 72
              65
 73
               2
 40
0.0694444881889764
 49
0.0347222440944882
 74
               0
 49
-0.0347222440944882
 74
               0
  0
LTYPE
  5
3A
100
AcDbSymbolTableRecord
100
AcDbLinetypeTableRecord
  2
STYLE_12
 70
               0
  3

 72
              65
 73
               2
 40
0.3937007874015748
 49
0.1968503937007874
 74
               0
 49
-0.1968503937007874
 74
               0
  0
LTYPE
  5
3B
100
AcDbSymbolTableRecord
100
AcDbLinetypeTableRecord
  2
STYLE_13
 70
               0
  3

 72
              65
 73
               2
 40
0.5905511811023622
 49
0.2952755905511811
 74
               0
 49
-0.2952755905511811
 74
               0
  0
LTYPE
  5
3C
100
AcDbSymbolTableRecord
100
AcDbLinetypeTableRecord
  2
STYLE_14
 70
               0
  3

 72
              65
 73
               2
 40
1.9685039370078738
 49
0.9842519685039369
 74
               0
 49
-0.9842519685039369
 74
               0
  0
ENDTAB
  0
TABLE
  2
LAYER
  5
2
100
AcDbSymbolTable
 70
               5
  0
LAYER
  5
14
100
AcDbSymbolTableRecord
100
AcDbLayerTableRecord
  2
0
 70
               0
 62
               7
  6
Continuous
290
               1
370
              -3
390
1D
  0
LAYER
  5
3D
100
AcDbSymbolTableRecord
100
AcDbLayerTableRecord
  2
Defpoints
 70
               0
 62
               7
  6
Continuous
290
               0
370
              -3
390
1D
  0
LAYER
  5
3E
100
AcDbSymbolTableRecord
100
AcDbLayerTableRecord
  2
template
 70
               0
 62
               7
  6
Continuous
290
               1
370
              -3
390
1D
  0
LAYER
  5
3F
100
AcDbSymbolTableRecord
100
AcDbLayerTableRecord
  2
notes
 70
               0
 62
               7
  6
Continuous
290
               1
370
              -3
390
1D
  0
LAYER
  5
40
100
AcDbSymbolTableRecord
100
AcDbLayerTableRecord
  2
FAN70-0711
 70
               0
 62
               7
  6
Continuous
290
               1
370
              -3
390
1D
  0
ENDTAB
  0
TABLE
  2
STYLE
  5
3
100
AcDbSymbolTable
 70
               3
  0
STYLE
  5
17
100
AcDbSymbolTableRecord
100
AcDbTextStyleTableRecord
  2
Standard
 70
               0
 40
0.0
 41
1.0
 50
0.0
 71
               0
 42
0.0
  3
txt
  4
BIGFONT.SHX
  0
STYLE
  5
2D
100
AcDbSymbolTableRecord
100
AcDbTextStyleTableRecord
  2
MS-Gothic
 70
               0
 40
0.0
 41
1.0
 50
0.0
 71
               0
 42
0.0
  3

  4
MS-Gothic
1001
ACAD
1000
MS-Gothic
1071
        0
  0
STYLE
  5
2E
100
AcDbSymbolTableRecord
100
AcDbTextStyleTableRecord
  2
ＭＳ ゴシック
 70
               0
 40
0.0
 41
1.0
 50
0.0
 71
               0
 42
0.0
  3

  4
ＭＳ ゴシック
1001
ACAD
1000
ＭＳ ゴシック
1071
        0
  0
ENDTAB
  0
TABLE
  2
VIEW
  5
5
100
AcDbSymbolTable
 70
               0
  0
ENDTAB
  0
TABLE
  2
UCS
  5
6
100
AcDbSymbolTable
 70
               0
  0
ENDTAB
  0
TABLE
  2
APPID
  5
8
100
AcDbSymbolTable
 70
               1
  0
APPID
  5
16
100
AcDbSymbolTableRecord
100
AcDbRegAppTableRecord
  2
ACAD
 70
               0
  0
ENDTAB
  0
TABLE
  2
DIMSTYLE
  5
9
100
AcDbSymbolTable
 70
               3
100
AcDbDimStyleTable
 71
               0
  0
DIMSTYLE
105
18
100
AcDbSymbolTableRecord
100
AcDbDimStyleTableRecord
  2
Standard
 70
               0
  3

  4

 40
1.0
 41
0.18
 42
0.0625
 43
0.38
 44
0.18
 45
0.0
 46
0.0
 47
0.0
 48
0.0
 71
               0
 72
               0
 73
               1
 74
               1
 75
               0
 76
               0
 77
               0
 78
               0
 79
               0
140
0.18
141
0.09
142
0.0
143
25.399999999999999
144
1.0
145
0.0
146
1.0
147
0.09
148
0.0
170
               0
171
               2
172
               0
173
               0
174
               0
175
               0
176
               0
177
               0
178
               0
179
               0
271
               4
272
               4
273
               2
274
               2
275
               0
276
               0
277
               2
278
              46
279
               0
280
               0
281
               0
282
               0
283
               1
284
               0
285
               0
286
               0
288
               0
289
               3
340
17
341
0
342
0
343
0
344
0
371
              -2
372
              -2
  0
DIMSTYLE
105
49
100
AcDbSymbolTableRecord
100
AcDbDimStyleTableRecord
  2
tfrom線あり
 70
               0
  3
<>
  4
[]
 40
1.0
 41
9.9993896484374982
 42
24.999999999999996
 43
0.9999999999999999
 44
0.0
 45
0.0
 46
0.0
 47
0.0
 48
0.0
 71
               0
 72
               0
 73
               0
 74
               0
 75
               0
 76
               0
 77
               1
 78
              11
 79
               0
140
24.432617187500004
141
0.0
142
0.0
143
1.0
144
1.0
145
0.0
146
1.0
147
0.4999999999999999
148
0.0
170
               0
171
               1
172
               0
173
               0
174
               1
175
               0
176
               0
177
               0
178
               0
179
               2
271
               1
272
               1
273
               2
274
               2
275
               0
276
               2
277
               2
278
              46
279
               0
280
               0
281
               0
282
               0
283
               1
284
              11
285
              11
286
              11
288
               0
289
               0
340
2E
341
41
342
41
343
0
344
0
371
              -2
372
              -2
  0
DIMSTYLE
105
4E
100
AcDbSymbolTableRecord
100
AcDbDimStyleTableRecord
  2
JIS
 70
               0
  3
<>
  4
[]
 40
1.0
 41
31.75
 42
0.0
 43
6.9999999999999396
 44
19.999999999996199
 45
0.0
 46
0.0
 47
0.0
 48
0.0
 71
               0
 72
               0
 73
               0
 74
               0
 75
               0
 76
               0
 77
               1
 78
              11
 79
               0
140
24.432617187500004
141
0.0
142
0.0
143
1.0
144
1.0
145
0.0
146
1.0
147
1.00000000000108
148
0.0
170
               0
171
               1
172
               0
173
               0
174
               1
175
               0
176
               0
177
               0
178
               0
179
               2
271
               1
272
               1
273
               2
274
               2
275
               0
276
               2
277
               2
278
              46
279
               0
280
               0
281
               0
282
               0
283
               1
284
              11
285
              11
286
              11
288
               0
289
               0
340
2E
341
4A
342
4A
343
0
344
0
371
              -2
372
              -2
  0
ENDTAB
  0
TABLE
  2
BLOCK_RECORD
  5
1
100
AcDbSymbolTable
 70
              12
  0
BLOCK_RECORD
  5
A
100
AcDbSymbolTableRecord
100
AcDbBlockTableRecord
  2
*MODEL_SPACE
340
20
  0
BLOCK_RECORD
  5
B
100
AcDbSymbolTableRecord
100
AcDbBlockTableRecord
  2
*PAPER_SPACE
340
21
  0
BLOCK_RECORD
  5
41
100
AcDbSymbolTableRecord
100
AcDbBlockTableRecord
  2
_DOT
340
0
  0
BLOCK_RECORD
  5
4A
100
AcDbSymbolTableRecord
100
AcDbBlockTableRecord
  2
VW_FILLEDARROW
340
0
  0
BLOCK_RECORD
  5
23
100
AcDbSymbolTableRecord
100
AcDbBlockTableRecord
  2
グループ
340
0
102
{BLKREFS
331
C9
102
}
  0
BLOCK_RECORD
  5
24
100
AcDbSymbolTableRecord
100
AcDbBlockTableRecord
  2
*D3
340
0
  0
BLOCK_RECORD
  5
25
100
AcDbSymbolTableRecord
100
AcDbBlockTableRecord
  2
*D4
340
0
  0
BLOCK_RECORD
  5
26
100
AcDbSymbolTableRecord
100
AcDbBlockTableRecord
  2
*D5
340
0
  0
BLOCK_RECORD
  5
27
100
AcDbSymbolTableRecord
100
AcDbBlockTableRecord
  2
*D6
340
0
  0
BLOCK_RECORD
  5
28
100
AcDbSymbolTableRecord
100
AcDbBlockTableRecord
  2
*D7
340
0
  0
BLOCK_RECORD
  5
29
100
AcDbSymbolTableRecord
100
AcDbBlockTableRecord
  2
*D8
340
0
  0
BLOCK_RECORD
  5
2A
100
AcDbSymbolTableRecord
100
AcDbBlockTableRecord
  2
*D9
340
0
  0
BLOCK_RECORD
  5
2B
100
AcDbSymbolTableRecord
100
AcDbBlockTableRecord
  2
グループ-1
340
0
102
{BLKREFS
331
113
102
}
  0
BLOCK_RECORD
  5
2C
100
AcDbSymbolTableRecord
100
AcDbBlockTableRecord
  2
グループ-2
340
0
102
{BLKREFS
331
114
102
}
  0
ENDTAB
  0
ENDSEC
  0
SECTION
  2
BLOCKS
  0
BLOCK
  5
D
100
AcDbEntity
  8
0
390
0
100
AcDbBlockBegin
  2
*MODEL_SPACE
 70
               0
 10
0.0
 20
0.0
 30
0.0
  3
*MODEL_SPACE
  1

  0
ENDBLK
  5
E
100
AcDbEntity
  8
0
390
0
100
AcDbBlockEnd
  0
BLOCK
  5
F
100
AcDbEntity
 67
               1
  8
0
390
0
100
AcDbBlockBegin
  2
*PAPER_SPACE
 70
               0
 10
0.0
 20
0.0
 30
0.0
  3
*PAPER_SPACE
  1

  0
ENDBLK
  5
10
100
AcDbEntity
 67
               1
  8
0
390
0
100
AcDbBlockEnd
  0
BLOCK
  5
42
100
AcDbEntity
  8
0
390
0
100
AcDbBlockBegin
  2
_DOT
 70
               0
 10
0.0
 20
0.0
 30
0.0
  3
_DOT
  1

  0
POLYLINE
  5
43
100
AcDbEntity
  8
0
370
              -2
390
0
  6
ByBlock
 62
               0
100
AcDb2dPolyline
 66
               1
 10
0.0
 20
0.0
 30
0.0
 70
               1
 40
0.5
 41
0.5
  0
VERTEX
  5
44
100
AcDbEntity
  8
0
370
              -2
390
0
  6
ByBlock
 62
               0
100
AcDbVertex
100
AcDb2dVertex
 10
-0.25
 20
0.0
 30
0.0
 42
1.0
  0
VERTEX
  5
45
100
AcDbEntity
  8
0
370
              -2
390
0
  6
ByBlock
 62
               0
100
AcDbVertex
100
AcDb2dVertex
 10
0.25
 20
0.0
 30
0.0
 42
1.0
  0
SEQEND
  5
46
100
AcDbEntity
  8
0
390
0
  0
LINE
  5
47
100
AcDbEntity
  8
0
370
              -2
390
0
  6
ByBlock
 62
               0
100
AcDbLine
 10
-0.5
 20
0.0
 30
0.0
 11
-1.0
 21
0.0
 31
0.0
  0
ENDBLK
  5
48
100
AcDbEntity
  8
0
390
0
100
AcDbBlockEnd
  0
BLOCK
  5
4B
100
AcDbEntity
  8
0
370
              -2
390
0
  6
ByBlock
 62
               0
100
AcDbBlockBegin
  2
VW_FILLEDARROW
 70
               0
 10
0.0
 20
0.0
 30
0.0
  3
VW_FILLEDARROW
  1

  0
SOLID
  5
4C
100
AcDbEntity
  8
0
370
              -2
390
0
 62
               0
100
AcDbTrace
 10
0.0
 20
0.0
 30
0.0
 11
-0.9921874999999999
 21
-0.2658558393652545
 31
0.0
 12
-0.9921874999999999
 22
0.2658558393652548
 32
0.0
 13
-0.9921874999999999
 23
0.2658558393652548
 33
0.0
  0
ENDBLK
  5
4D
100
AcDbEntity
  8
0
390
0
100
AcDbBlockEnd
  0
BLOCK
  5
4F
100
AcDbEntity
  8
template
390
0
100
AcDbBlockBegin
  2
グループ
 70
               0
 10
0.0
 20
0.0
 30
0.0
  3
グループ
  1

  0
LWPOLYLINE
  5
50
100
AcDbEntity
  8
0
370
              15
390
0
  6
Continuous
 62
               7
100
AcDbPolyline
 90
        8
 70
             129
 10
238.41860007959269
 20
-1724.23309475165
 10
238.41860007959269
 20
-1730.2304834452259
 10
228.91740316158939
 20
-1730.2304834452259
 10
228.91740316158939
 20
-1754.6814467087347
 10
220.5620258998066
 20
-1754.6814467087347
 10
220.5620258998066
 20
-1730.2304834452259
 10
211.22906895349718
 20
-1730.2304834452259
 10
211.22906895349718
 20
-1724.23309475165
  0
LWPOLYLINE
  5
51
100
AcDbEntity
  8
0
370
              15
390
0
  6
Continuous
 62
               7
100
AcDbPolyline
 90
      101
 70
             128
 10
251.14689191014963
 20
-1724.9613432445865
 10
251.16224193893464
 20
-1724.9569824879013
 42
-0.0222221607812362
 10
251.45224651560574
 20
-1724.8883580226568
 10
251.4680402795951
 20
-1724.8853545995605
 42
-0.0146883565587587
 10
251.73074298482351
 20
-1724.8433514126104
 42
-0.0127458844187466
 10
251.99538195197536
 20
-1724.8158144445381
 10
252.05783703028931
 20
-1724.8109210219498
 42
-0.0198099018567469
 10
252.44868613976539
 20
-1724.7958358645533
 10
252.50049760920996
 20
-1724.7958896402183
 42
-0.0147617382764418
 10
252.9951210701845
 20
-1724.8110096654632
 10
253.06781252505951
 20
-1724.8153822723509
 42
-0.0162624549004314
 10
253.45796615452366
 20
-1724.8516151476231
 10
253.57949854578177
 20
-1724.8669017066195
 42
-0.0080020874666969
 10
253.72507757687441
 20
-1724.887584553888
 10
253.76339704746167
 20
-1724.8936558316977
 42
-0.0053821929671032
 10
253.83188115278426
 20
-1724.9052633555207
 10
253.10547545358565
 20
-1727.0861918112346
 42
0.0108667757409299
 10
253.03815838344644
 20
-1727.0730046960132
 10
253.00069036026531
 20
-1727.0665069534202
 42
0.0170663203307858
 10
252.85747357335291
 20
-1727.0466773561288
 10
252.78959824066681
 20
-1727.039630185541
 42
0.022016237527607
 10
252.509218832811
 20
-1727.0229478247709
 10
252.43136326576061
 20
-1727.0217484575044
 42
0.0282606915782671
 10
252.0957269421815
 20
-1727.0355517344733
 10
252.05181366840591
 20
-1727.0398517244773
 42
0.0169677213690628
 10
251.80588917345023
 20
-1727.0723887740292
 42
0.0190576269867084
 10
251.56298121087082
 20
-1727.1225356461352
 10
251.55672202275935
 20
-1727.1240786202447
 42
0.0213685642846301
 10
251.30633753827794
 20
-1727.1972789053507
 10
251.30084764336539
 20
-1727.1991419014084
 42
0.0237595297590607
 10
251.04735275846602
 20
-1727.2988264233043
 10
251.04225068443702
 20
-1727.3011181987822
 42
0.0261857468813226
 10
250.79007990820844
 20
-1727.430654536156
 10
250.77965371911793
 20
-1727.4367200106265
 42
0.0272553062023766
 10
250.54322394388163
 20
-1727.5920922165697
 10
250.50846093037359
 20
-1727.6177533646608
 42
0.0325996893170398
 10
250.35830558672063
 20
-1727.7445012376331
 10
250.33459615759477
 20
-1727.7673192661487
 42
0.0138050960645779
 10
250.24271300138741
 20
-1727.8607689276978
 42
0.0125280103806367
 10
250.15587046855717
 20
-1727.9589322542938
 10
250.13219002364553
 20
-1727.9870907524851
 42
0.0205218024729397
 10
250.00708994813306
 20
-1728.1488840667125
 10
249.98462360764472
 20
-1728.1805437965411
 42
0.0163110129584158
 10
249.82891322839316
 20
-1728.4158742316115
 10
249.82618933234244
 20
-1728.4202979935965
 42
0.0131897341904527
 10
249.67938881143337
 20
-1728.6734300859666
 10
249.67768871607007
 20
-1728.6765483250965
 42
0.0107895576061396
 10
249.53991201386003
 20
-1728.9427635347301
 10
249.53917912433423
 20
-1728.9442577673783
 42
0.0091371507216208
 10
249.41069917568669
 20
-1729.2187829651336
 10
249.38095354427554
 20
-1729.2854894722968
 42
0.0135418326353308
 10
249.20923960520224
 20
-1729.7004272575698
 10
249.17563479676753
 20
-1729.7882933998521
 42
0.0092834542410744
 10
249.0044057368487
 20
-1730.2621918981522
 10
248.97878860913329
 20
-1730.3374329679389
 42
0.005426104358176
 10
248.87115046083812
 20
-1730.6651969410104
 10
248.85362447463959
 20
-1730.7205851033073
 42
0.0008225090815918
 10
248.78495442283065
 20
-1730.9388538613898
 10
247.80026529089719
 20
-1733.9637451546464
 10
251.03288913097106
 20
-1733.9637451546464
 10
250.52869670111761
 20
-1735.8682234529988
 10
247.27264041913429
 20
-1735.8682234529988
 10
241.44349138678047
 20
-1754.6814465190037
 10
239.61839377647016
 20
-1754.6814465190037
 10
245.45307181197109
 20
-1735.8682234529988
 10
243.04795544293074
 20
-1735.8682234529988
 10
243.55214787278419
 20
-1733.9637451546464
 10
245.98069668373421
 20
-1733.9637451546464
 10
246.84085160192285
 20
-1731.3273321539475
 42
-0.0005863560642925
 10
246.8775862800893
 20
-1731.2105057337733
 10
246.95367411378675
 20
-1730.9695134342703
 42
-0.0087522378927288
 10
247.15314225724239
 20
-1730.3742373471273
 10
247.24540653265993
 20
-1730.1140971786026
 42
-0.0077400953829585
 10
247.5033401917882
 20
-1729.4210925010625
 10
247.51910516336727
 20
-1729.380661617676
 42
-0.0082369946329818
 10
247.76618963397902
 20
-1728.7765825514807
 42
-0.0085725238363647
 10
248.03343572998205
 20
-1728.1811565121934
 10
248.1350653309897
 20
-1727.9647354102078
 42
-0.0168109410596152
 10
248.42200975971929
 20
-1727.4035278841043
 10
248.54785315011929
 20
-1727.1765638512131
 42
-0.0007817726864151
 10
248.60213750023496
 20
-1727.0790196060757
 10
248.60226580624999
 20
-1727.0787898973433
 42
-0.0036626142159378
 10
248.65715367027349
 20
-1726.9821920173708
 42
-0.0080221150667212
 10
248.71427792568284
 20
-1726.8869127826138
 10
248.74497787704138
 20
-1726.8375218334959
 42
-0.0202139325572313
 10
248.87263361684802
 20
-1726.6495402328144
 10
248.92670108203572
 20
-1726.5764613685735
 42
-0.0249323791798419
 10
249.18586387575493
 20
-1726.2604161264189
 10
249.21000368988189
 20
-1726.2338018535065
 42
-0.0242132121537629
 10
249.54968443142459
 20
-1725.8939183673019
 10
249.59759600417431
 20
-1725.8504092311166
 42
-0.0251017527858693
 10
249.88157770481524
 20
-1725.6174164853519
 10
249.88302318162437
 20
-1725.6163472277763
 42
-0.0130868069040603
 10
250.18128383158631
 20
-1725.4075667592303
 10
250.18284565072935
 20
-1725.4065333189551
 42
-0.0290329526389972
 10
250.49395679212233
 20
-1725.2257078173261
 10
250.52380235411192
 20
-1725.2106054344847
 42
-0.016025019004631
 10
250.78970676787304
 20
-1725.0865893242731
 42
-0.0267600374780614
 10
251.06498284534092
 20
-1724.9858410037248
 10
251.09171876486266
 20
-1724.9776484448989
 42
-0.0049981587669928
 10
251.14689191014963
 20
-1724.9613432445865
 42
-0.0049981587669928
  0
LWPOLYLINE
  5
52
100
AcDbEntity
  8
0
370
              15
390
0
  6
Continuous
 62
               7
100
AcDbPolyline
 90
      118
 70
             128
 10
270.96125947459655
 20
-1734.0377284824738
 10
272.83638139909601
 20
-1734.0377284824738
 10
271.99834249349612
 20
-1736.7192950088738
 42
-0.0010587229268311
 10
272.02979830903632
 20
-1736.6823904755556
 10
272.0879923997
 20
-1736.6144082193427
 42
-0.0071874740404519
 10
272.23836761780632
 20
-1736.4437675273045
 10
272.38009039106032
 20
-1736.2875313860004
 42
-0.014811805351226
 10
272.83021968377267
 20
-1735.8199175399877
 10
272.91744201867488
 20
-1735.7345202191339
 42
-0.0086273358692822
 10
273.25299081968325
 20
-1735.4171445851175
 10
273.29682453590732
 20
-1735.377094940786
 42
-0.0103138323111384
 10
273.55484823814265
 20
-1735.1509318034462
 10
273.60062264447134
 20
-1735.1124497561846
 42
-0.0060206748562521
 10
273.77347070858195
 20
-1734.9706551054314
 10
273.77550183946346
 20
-1734.9690293998037
 42
-0.0067069027290561
 10
273.9477946541304
 20
-1734.8348787660052
 10
273.95034342006375
 20
-1734.8329485961244
 42
-0.0076184352040743
 10
274.12124868592775
 20
-1734.7075737208861
 42
-0.0089652861671796
 10
274.29620964866484
 20
-1734.5879404605521
 10
274.33256136880203
 20
-1734.5640292470741
 42
-0.0156916245940444
 10
274.52852086596732
 20
-1734.4437667605962
 42
-0.0023299011057244
 10
274.72878290996118
 20
-1734.3305888210475
 10
274.74416704232704
 20
-1734.3219888259907
 42
-0.0107669341488367
 10
274.97840386742115
 20
-1734.1975886926448
 10
275.00066866850324
 20
-1734.1863719426913
 42
-0.0078058045894716
 10
275.28425878646289
 20
-1734.0490104870496
 10
275.29416587416512
 20
-1734.0444013591843
 42
-0.0181829330473917
 10
275.60447527877858
 20
-1733.9135376180895
 10
275.65853072134723
 20
-1733.8930224981452
 42
-0.020841153602771
 10
276.00761568879773
 20
-1733.776932035652
 10
276.02197178892362
 20
-1733.7728135906989
 42
-0.022279981713561
 10
276.35069158284244
 20
-1733.6941720245582
 10
276.35958054608091
 20
-1733.6924600139728
 42
-0.0215509523882365
 10
276.67605151435924
 20
-1733.645544325439
 10
276.7185334754123
 20
-1733.6411067986476
 42
-0.018254592486817
 10
276.95264225471345
 20
-1733.6252629732571
 10
276.99204327104582
 20
-1733.6240384281784
 42
-0.0072962856541677
 10
277.14796615075039
 20
-1733.6214690996558
 10
277.1770658213195
 20
-1733.6214142642521
 42
-0.0059227516310731
 10
277.27481532046738
 20
-1733.6223879760423
 10
277.30405753802069
 20
-1733.6230257426475
 42
-0.0011833111888895
 10
277.34330882167171
 20
-1733.6239747469558
 10
276.54792222606454
 20
-1736.1627086920548
 42
0.0143932051571148
 10
276.52152084371039
 20
-1736.1525097220083
 10
276.51424887129667
 20
-1736.149938503152
 42
0.0234388603512545
 10
276.4724180053604
 20
-1736.1373192674357
 10
276.46373634245185
 20
-1736.1351383054318
 42
0.0199162742967889
 10
276.40344750837357
 20
-1736.122521570097
 10
276.38263357056564
 20
-1736.1190243706683
 42
0.0293643550672661
 10
276.27955871180689
 20
-1736.1078743250152
 10
276.25487353108616
 20
-1736.1066627079965
 42
0.0214606686878407
 10
276.1017326151308
 20
-1736.1057241475794
 10
276.09236070431575
 20
-1736.1060690591235
 42
0.0167564054191832
 10
275.92084051320387
 20
-1736.1181461014919
 10
275.91238072044831
 20
-1736.1190274419187
 42
0.0137677553246218
 10
275.72502740718227
 20
-1736.1437767504622
 10
275.71767566767579
 20
-1736.14495467043
 42
0.0118497261479301
 10
275.51717790357884
 20
-1736.1819720206181
 10
275.51102789632722
 20
-1736.1832588833392
 42
0.0106421143892157
 10
275.30014700903939
 20
-1736.2320912589148
 10
275.2952382006531
 20
-1736.2333386015991
 42
0.0099746379700997
 10
275.07677973148782
 20
-1736.2935131299146
 10
275.01523169132037
 20
-1736.3117950085446
 42
0.0191613675860701
 10
274.67924722880423
 20
-1736.4257723888318
 10
274.59118745606031
 20
-1736.4594592991552
 42
0.0205274080144944
 10
274.20588068415867
 20
-1736.6252877069821
 10
274.14823140217482
 20
-1736.6529556715554
 42
0.0181256912193932
 10
273.88995446150966
 20
-1736.7886394905322
 10
273.83699907819283
 20
-1736.8189571037487
 42
0.0140709242414885
 10
273.69204414356733
 20
-1736.9074517771814
 10
273.6657952749531
 20
-1736.9245085958942
 42
0.008666788439457
 10
273.5768691134063
 20
-1736.9845112637797
 42
0.0036408192028565
 10
273.48943587536473
 20
-1737.046692121578
 10
273.45420900090431
 20
-1737.0721330674849
 42
0.0052260781276743
 10
273.29798030350776
 20
-1737.1874654541232
 10
273.28177344725367
 20
-1737.1996935647371
 42
0.0050024435887093
 10
273.09577010420736
 20
-1737.3429761329894
 10
273.08045194767965
 20
-1737.3550221554451
 42
0.0136138710273389
 10
272.87001067935483
 20
-1737.529988660358
 10
272.83634280356074
 20
-1737.5595676330727
 42
0.0172815186912619
 10
272.57193926189871
 20
-1737.8085643056957
 10
272.56937691605566
 20
-1737.8111501228432
 42
0.0189403857990883
 10
272.31879511747678
 20
-1738.0839553876474
 10
272.28616362394098
 20
-1738.1222993191441
 42
0.0185044199504573
 10
272.09420718496051
 20
-1738.3655479002678
 42
0.0088565243902117
 10
271.91574707833166
 20
-1738.6190643204184
 10
271.90656909868358
 20
-1738.6326057001777
 42
0.0157195347227251
 10
271.72334849234926
 20
-1738.9221279094938
 10
271.67726555042049
 20
-1739.0002801065111
 42
0.0095451879780724
 10
271.51218000028098
 20
-1739.2928747488709
 10
271.50103208134965
 20
-1739.313545421006
 42
0.0100351706253701
 10
271.36898833219203
 20
-1739.5706009814935
 42
0.0086935915418754
 10
271.24665718039853
 20
-1739.8324341268967
 10
271.24333643898353
 20
-1739.8398764498697
 42
0.0072580174867654
 10
271.12298998703722
 20
-1740.1204684414561
 10
271.11972835373223
 20
-1740.1283884674708
 42
0.0060005122617085
 10
271.00052768538876
 20
-1740.427998138078
 10
270.99731670704796
 20
-1740.4363596659805
 42
0.0049017786975982
 10
270.87841654819073
 20
-1740.7552886465844
 10
270.87525074180007
 20
-1740.7640415838155
 42
0.0039415167600998
 10
270.75581446374417
 20
-1741.1025836462263
 10
270.75268336109121
 20
-1741.1116868471047
 42
0.0031035838760828
 10
270.63187857540231
 20
-1741.4701267088656
 10
270.62876853086777
 20
-1741.4795473302529
 42
0.0025070747152846
 10
270.5058671795565
 20
-1741.858194547184
 10
270.468573283127
 20
-1741.9750862124499
 42
0.0029081910285288
 10
270.2765549853134
 20
-1742.5892498707503
 10
270.23575181679917
 20
-1742.7224731130175
 42
0.0009266453733688
 10
269.96733444249895
 20
-1743.6046975728927
 10
269.94644696981965
 20
-1743.6738094522566
 42
-0.0005809993665352
 10
269.66911028925267
 20
-1744.587617558816
 10
269.60282849098257
 20
-1744.8051024909662
 42
-0.0012018708169418
 10
269.4558441815505
 20
-1745.2832651554963
 10
269.40352432998696
 20
-1745.4520242963554
 42
-0.000269105961516
 10
269.35995484881641
 20
-1745.592291916704
 10
266.52699895052717
 20
-1754.6814465190037
 10
264.70901005854864
 20
-1754.6814465190037
 10
270.96125947459655
 20
-1734.0377284824738
  0
SPLINE
  5
53
100
AcDbEntity
  8
0
370
              15
390
0
  6
Continuous
 62
               7
100
AcDbSpline
210
0.0
220
0.0
230
1.0
 70
              13
 71
               2
 72
             782
 73
             779
 74
               0
 42
0.000001
 43
0.000001
 40
0.0
 40
0.0
 40
0.0
 40
1.0
 40
1.0
 40
2.0
 40
2.0
 40
3.0
 40
3.0
 40
4.0
 40
4.0
 40
5.0
 40
5.0
 40
6.0
 40
6.0
 40
7.0
 40
7.0
 40
8.0
 40
8.0
 40
9.0
 40
9.0
 40
10.0
 40
10.0
 40
11.0
 40
11.0
 40
12.0
 40
12.0
 40
13.0
 40
13.0
 40
14.0
 40
14.0
 40
15.0
 40
15.0
 40
16.0
 40
16.0
 40
17.0
 40
17.0
 40
18.0
 40
18.0
 40
19.0
 40
19.0
 40
20.0
 40
20.0
 40
21.0
 40
21.0
 40
22.0
 40
22.0
 40
23.0
 40
23.0
 40
24.0
 40
24.0
 40
25.0
 40
25.0
 40
26.0
 40
26.0
 40
27.0
 40
27.0
 40
28.0
 40
28.0
 40
29.0
 40
29.0
 40
30.0
 40
30.0
 40
31.0
 40
31.0
 40
32.0
 40
32.0
 40
33.0
 40
33.0
 40
34.0
 40
34.0
 40
35.0
 40
35.0
 40
36.0
 40
36.0
 40
37.0
 40
37.0
 40
38.0
 40
38.0
 40
39.0
 40
39.0
 40
40.0
 40
40.0
 40
41.0
 40
41.0
 40
42.0
 40
42.0
 40
43.0
 40
43.0
 40
44.0
 40
44.0
 40
45.0
 40
45.0
 40
46.0
 40
46.0
 40
47.0
 40
47.0
 40
48.0
 40
48.0
 40
49.0
 40
49.0
 40
50.0
 40
50.0
 40
51.0
 40
51.0
 40
52.0
 40
52.0
 40
53.0
 40
53.0
 40
54.0
 40
54.0
 40
55.0
 40
55.0
 40
56.0
 40
56.0
 40
57.0
 40
57.0
 40
58.0
 40
58.0
 40
59.0
 40
59.0
 40
60.0
 40
60.0
 40
61.0
 40
61.0
 40
62.0
 40
62.0
 40
63.0
 40
63.0
 40
64.0
 40
64.0
 40
65.0
 40
65.0
 40
66.0
 40
66.0
 40
67.0
 40
67.0
 40
68.0
 40
68.0
 40
69.0
 40
69.0
 40
70.0
 40
70.0
 40
71.0
 40
71.0
 40
72.0
 40
72.0
 40
73.0
 40
73.0
 40
74.0
 40
74.0
 40
75.0
 40
75.0
 40
76.0
 40
76.0
 40
77.0
 40
77.0
 40
78.0
 40
78.0
 40
79.0
 40
79.0
 40
80.0
 40
80.0
 40
81.0
 40
81.0
 40
82.0
 40
82.0
 40
83.0
 40
83.0
 40
84.0
 40
84.0
 40
85.0
 40
85.0
 40
86.0
 40
86.0
 40
87.0
 40
87.0
 40
88.0
 40
88.0
 40
89.0
 40
89.0
 40
90.0
 40
90.0
 40
91.0
 40
91.0
 40
92.0
 40
92.0
 40
93.0
 40
93.0
 40
94.0
 40
94.0
 40
95.0
 40
95.0
 40
96.0
 40
96.0
 40
97.0
 40
97.0
 40
98.0
 40
98.0
 40
99.0
 40
99.0
 40
100.0
 40
100.0
 40
101.0
 40
101.0
 40
102.0
 40
102.0
 40
103.0
 40
103.0
 40
104.0
 40
104.0
 40
105.0
 40
105.0
 40
106.0
 40
106.0
 40
107.0
 40
107.0
 40
108.0
 40
108.0
 40
109.0
 40
109.0
 40
110.0
 40
110.0
 40
111.0
 40
111.0
 40
112.0
 40
112.0
 40
113.0
 40
113.0
 40
114.0
 40
114.0
 40
115.0
 40
115.0
 40
116.0
 40
116.0
 40
117.0
 40
117.0
 40
118.0
 40
118.0
 40
119.0
 40
119.0
 40
120.0
 40
120.0
 40
121.0
 40
121.0
 40
122.0
 40
122.0
 40
123.0
 40
123.0
 40
124.0
 40
124.0
 40
125.0
 40
125.0
 40
126.0
 40
126.0
 40
127.0
 40
127.0
 40
128.0
 40
128.0
 40
129.0
 40
129.0
 40
130.0
 40
130.0
 40
131.0
 40
131.0
 40
132.0
 40
132.0
 40
133.0
 40
133.0
 40
134.0
 40
134.0
 40
135.0
 40
135.0
 40
136.0
 40
136.0
 40
137.0
 40
137.0
 40
138.0
 40
138.0
 40
139.0
 40
139.0
 40
140.0
 40
140.0
 40
141.0
 40
141.0
 40
142.0
 40
142.0
 40
143.0
 40
143.0
 40
144.0
 40
144.0
 40
145.0
 40
145.0
 40
146.0
 40
146.0
 40
147.0
 40
147.0
 40
148.0
 40
148.0
 40
149.0
 40
149.0
 40
150.0
 40
150.0
 40
151.0
 40
151.0
 40
152.0
 40
152.0
 40
153.0
 40
153.0
 40
154.0
 40
154.0
 40
155.0
 40
155.0
 40
156.0
 40
156.0
 40
157.0
 40
157.0
 40
158.0
 40
158.0
 40
159.0
 40
159.0
 40
160.0
 40
160.0
 40
161.0
 40
161.0
 40
162.0
 40
162.0
 40
163.0
 40
163.0
 40
164.0
 40
164.0
 40
165.0
 40
165.0
 40
166.0
 40
166.0
 40
167.0
 40
167.0
 40
168.0
 40
168.0
 40
169.0
 40
169.0
 40
170.0
 40
170.0
 40
171.0
 40
171.0
 40
172.0
 40
172.0
 40
173.0
 40
173.0
 40
174.0
 40
174.0
 40
175.0
 40
175.0
 40
176.0
 40
176.0
 40
177.0
 40
177.0
 40
178.0
 40
178.0
 40
179.0
 40
179.0
 40
180.0
 40
180.0
 40
181.0
 40
181.0
 40
182.0
 40
182.0
 40
183.0
 40
183.0
 40
184.0
 40
184.0
 40
185.0
 40
185.0
 40
186.0
 40
186.0
 40
187.0
 40
187.0
 40
188.0
 40
188.0
 40
189.0
 40
189.0
 40
190.0
 40
190.0
 40
191.0
 40
191.0
 40
192.0
 40
192.0
 40
193.0
 40
193.0
 40
194.0
 40
194.0
 40
195.0
 40
195.0
 40
196.0
 40
196.0
 40
197.0
 40
197.0
 40
198.0
 40
198.0
 40
199.0
 40
199.0
 40
200.0
 40
200.0
 40
201.0
 40
201.0
 40
202.0
 40
202.0
 40
203.0
 40
203.0
 40
204.0
 40
204.0
 40
205.0
 40
205.0
 40
206.0
 40
206.0
 40
207.0
 40
207.0
 40
208.0
 40
208.0
 40
209.0
 40
209.0
 40
210.0
 40
210.0
 40
211.0
 40
211.0
 40
212.0
 40
212.0
 40
213.0
 40
213.0
 40
214.0
 40
214.0
 40
215.0
 40
215.0
 40
216.0
 40
216.0
 40
217.0
 40
217.0
 40
218.0
 40
218.0
 40
219.0
 40
219.0
 40
220.0
 40
220.0
 40
221.0
 40
221.0
 40
222.0
 40
222.0
 40
223.0
 40
223.0
 40
224.0
 40
224.0
 40
225.0
 40
225.0
 40
226.0
 40
226.0
 40
227.0
 40
227.0
 40
228.0
 40
228.0
 40
229.0
 40
229.0
 40
230.0
 40
230.0
 40
231.0
 40
231.0
 40
232.0
 40
232.0
 40
233.0
 40
233.0
 40
234.0
 40
234.0
 40
235.0
 40
235.0
 40
236.0
 40
236.0
 40
237.0
 40
237.0
 40
238.0
 40
238.0
 40
239.0
 40
239.0
 40
240.0
 40
240.0
 40
241.0
 40
241.0
 40
242.0
 40
242.0
 40
243.0
 40
243.0
 40
244.0
 40
244.0
 40
245.0
 40
245.0
 40
246.0
 40
246.0
 40
247.0
 40
247.0
 40
248.0
 40
248.0
 40
249.0
 40
249.0
 40
250.0
 40
250.0
 40
251.0
 40
251.0
 40
252.0
 40
252.0
 40
253.0
 40
253.0
 40
254.0
 40
254.0
 40
255.0
 40
255.0
 40
256.0
 40
256.0
 40
257.0
 40
257.0
 40
258.0
 40
258.0
 40
259.0
 40
259.0
 40
260.0
 40
260.0
 40
261.0
 40
261.0
 40
262.0
 40
262.0
 40
263.0
 40
263.0
 40
264.0
 40
264.0
 40
265.0
 40
265.0
 40
266.0
 40
266.0
 40
267.0
 40
267.0
 40
268.0
 40
268.0
 40
269.0
 40
269.0
 40
270.0
 40
270.0
 40
271.0
 40
271.0
 40
272.0
 40
272.0
 40
273.0
 40
273.0
 40
274.0
 40
274.0
 40
275.0
 40
275.0
 40
276.0
 40
276.0
 40
277.0
 40
277.0
 40
278.0
 40
278.0
 40
279.0
 40
279.0
 40
280.0
 40
280.0
 40
281.0
 40
281.0
 40
282.0
 40
282.0
 40
283.0
 40
283.0
 40
284.0
 40
284.0
 40
285.0
 40
285.0
 40
286.0
 40
286.0
 40
287.0
 40
287.0
 40
288.0
 40
288.0
 40
289.0
 40
289.0
 40
290.0
 40
290.0
 40
291.0
 40
291.0
 40
292.0
 40
292.0
 40
293.0
 40
293.0
 40
294.0
 40
294.0
 40
295.0
 40
295.0
 40
296.0
 40
296.0
 40
297.0
 40
297.0
 40
298.0
 40
298.0
 40
299.0
 40
299.0
 40
300.0
 40
300.0
 40
301.0
 40
301.0
 40
302.0
 40
302.0
 40
303.0
 40
303.0
 40
304.0
 40
304.0
 40
305.0
 40
305.0
 40
306.0
 40
306.0
 40
307.0
 40
307.0
 40
308.0
 40
308.0
 40
309.0
 40
309.0
 40
310.0
 40
310.0
 40
311.0
 40
311.0
 40
312.0
 40
312.0
 40
313.0
 40
313.0
 40
314.0
 40
314.0
 40
315.0
 40
315.0
 40
316.0
 40
316.0
 40
317.0
 40
317.0
 40
318.0
 40
318.0
 40
319.0
 40
319.0
 40
320.0
 40
320.0
 40
321.0
 40
321.0
 40
322.0
 40
322.0
 40
323.0
 40
323.0
 40
324.0
 40
324.0
 40
325.0
 40
325.0
 40
326.0
 40
326.0
 40
327.0
 40
327.0
 40
328.0
 40
328.0
 40
329.0
 40
329.0
 40
330.0
 40
330.0
 40
331.0
 40
331.0
 40
332.0
 40
332.0
 40
333.0
 40
333.0
 40
334.0
 40
334.0
 40
335.0
 40
335.0
 40
336.0
 40
336.0
 40
337.0
 40
337.0
 40
338.0
 40
338.0
 40
339.0
 40
339.0
 40
340.0
 40
340.0
 40
341.0
 40
341.0
 40
342.0
 40
342.0
 40
343.0
 40
343.0
 40
344.0
 40
344.0
 40
345.0
 40
345.0
 40
346.0
 40
346.0
 40
347.0
 40
347.0
 40
348.0
 40
348.0
 40
349.0
 40
349.0
 40
350.0
 40
350.0
 40
351.0
 40
351.0
 40
352.0
 40
352.0
 40
353.0
 40
353.0
 40
354.0
 40
354.0
 40
355.0
 40
355.0
 40
356.0
 40
356.0
 40
357.0
 40
357.0
 40
358.0
 40
358.0
 40
359.0
 40
359.0
 40
360.0
 40
360.0
 40
361.0
 40
361.0
 40
362.0
 40
362.0
 40
363.0
 40
363.0
 40
364.0
 40
364.0
 40
365.0
 40
365.0
 40
366.0
 40
366.0
 40
367.0
 40
367.0
 40
368.0
 40
368.0
 40
369.0
 40
369.0
 40
370.0
 40
370.0
 40
371.0
 40
371.0
 40
372.0
 40
372.0
 40
373.0
 40
373.0
 40
374.0
 40
374.0
 40
375.0
 40
375.0
 40
376.0
 40
376.0
 40
377.0
 40
377.0
 40
378.0
 40
378.0
 40
379.0
 40
379.0
 40
380.0
 40
380.0
 40
381.0
 40
381.0
 40
382.0
 40
382.0
 40
383.0
 40
383.0
 40
384.0
 40
384.0
 40
385.0
 40
385.0
 40
386.0
 40
386.0
 40
387.0
 40
387.0
 40
388.0
 40
388.0
 40
389.0
 40
389.0
 40
389.0
 10
281.28996392532918
 20
-1734.0268021191114
 30
0.0
 41
1.0
 10
282.10838803404965
 20
-1734.0268021191114
 30
0.0
 41
1.0
 10
282.92681214277013
 20
-1734.0268021191114
 30
0.0
 41
1.0
 10
282.51305840725337
 20
-1735.3694283833611
 30
0.0
 41
1.0
 10
282.0993046717366
 20
-1736.7120546476108
 30
0.0
 41
1.0
 10
282.11764416690318
 20
-1736.6833538747014
 30
0.0
 41
0.999995726432106
 10
282.13615116374234
 20
-1736.6547608245378
 30
0.0
 41
1.0
 10
282.1665804878761
 20
-1736.6077479461674
 30
0.0
 41
1.0
 10
282.19700981200987
 20
-1736.5607350677969
 30
0.0
 41
1.0
 10
282.27637545711622
 20
-1736.4381162608931
 30
0.0
 41
0.9995394069080936
 10
282.36303384866704
 20
-1736.3205381991531
 30
0.0
 41
1.0
 10
282.39879071092776
 20
-1736.2720233065584
 30
0.0
 41
1.0
 10
282.43454757318841
 20
-1736.2235084139636
 30
0.0
 41
1.0
 10
282.56827424100675
 20
-1736.0420681388368
 30
0.0
 41
0.9994460617143347
 10
282.71377472229358
 20
-1735.8699257411886
 30
0.0
 41
1.0
 10
282.71816290326967
 20
-1735.8647340608047
 30
0.0
 41
1.0
 10
282.72255108424582
 20
-1735.8595423804209
 30
0.0
 41
1.0
 10
282.85927520358172
 20
-1735.6977833435385
 30
0.0
 41
0.9994359394933974
 10
283.00654943393289
 20
-1735.5455671423742
 30
0.0
 41
1.0
 10
283.00893278788726
 20
-1735.543103812
 30
0.0
 41
1.0
 10
283.01131614184163
 20
-1735.5406404816258
 30
0.0
 41
1.0
 10
283.15382366428543
 20
-1735.3933509412086
 30
0.0
 41
0.9995293688568075
 10
283.30509534526652
 20
-1735.2550777290453
 30
0.0
 41
1.0
 10
283.32438910452788
 20
-1735.237441843396
 30
0.0
 41
1.0
 10
283.34368286378918
 20
-1735.2198059577468
 30
0.0
 41
1.0
 10
283.45636702624745
 20
-1735.1168045168824
 30
0.0
 41
0.9997087614804109
 10
283.57388991520367
 20
-1735.0193602360835
 30
0.0
 41
1.0
 10
283.59305598838318
 20
-1735.0034686575723
 30
0.0
 41
1.0
 10
283.61222206156276
 20
-1734.9875770790609
 30
0.0
 41
1.0
 10
283.69141280416136
 20
-1734.9219159552833
 30
0.0
 41
0.9999595338691387
 10
283.77177207501387
 20
-1734.8576902246305
 30
0.0
 41
1.0
 10
283.85213134586985
 20
-1734.7934644939751
 30
0.0
 41
0.9999749417506618
 10
283.93339188021196
 20
-1734.7303829400296
 30
0.0
 41
1.0
 10
283.95437802637809
 20
-1734.7140916527251
 30
0.0
 41
1.0
 10
283.97536417254418
 20
-1734.6978003654208
 30
0.0
 41
1.0
 10
284.05993205783921
 20
-1734.6321513555849
 30
0.0
 41
0.9999792037113617
 10
284.1453396576149
 20
-1734.5675985739367
 30
0.0
 41
1.0
 10
284.16616448348998
 20
-1734.5518587517065
 30
0.0
 41
1.0
 10
284.186989309365
 20
-1734.5361189294763
 30
0.0
 41
1.0
 10
284.23074725734489
 20
-1734.5030457923228
 30
0.0
 41
0.9999993373768988
 10
284.2744289435276
 20
-1734.469871996869
 30
0.0
 41
1.0
 10
284.3181106296671
 20
-1734.4366982014476
 30
0.0
 41
0.9999160953814551
 10
284.36263704058354
 20
-1734.4046671362519
 30
0.0
 41
1.0
 10
284.39545892800646
 20
-1734.3810559806643
 30
0.0
 41
1.0
 10
284.42828081542939
 20
-1734.357444825077
 30
0.0
 41
1.0
 10
284.5384510011873
 20
-1734.2781914487093
 30
0.0
 41
0.9980964527231453
 10
284.65753999468706
 20
-1734.2131039758538
 30
0.0
 41
1.0
 10
284.69457260161562
 20
-1734.1928639962603
 30
0.0
 41
1.0
 10
284.73160520854424
 20
-1734.172624016667
 30
0.0
 41
1.0
 10
284.91093222181752
 20
-1734.0746137659655
 30
0.0
 41
0.9984572810572443
 10
285.10002078817666
 20
-1733.9970915046192
 30
0.0
 41
1.0
 10
285.10366705757235
 20
-1733.9955966122814
 30
0.0
 41
1.0
 10
285.10731332696804
 20
-1733.9941017199435
 30
0.0
 41
1.0
 10
285.28910935453501
 20
-1733.9195692432729
 30
0.0
 41
0.9987838528033814
 10
285.47736201309482
 20
-1733.8633036031069
 30
0.0
 41
1.0
 10
285.48159996229219
 20
-1733.8620369494172
 30
0.0
 41
1.0
 10
285.48583791148951
 20
-1733.8607702957274
 30
0.0
 41
1.0
 10
285.6656146716528
 20
-1733.8070379629414
 30
0.0
 41
0.9990652816207125
 10
285.84936060336992
 20
-1733.7690342833992
 30
0.0
 41
1.0
 10
285.85454900440169
 20
-1733.7679611802926
 30
0.0
 41
1.0
 10
285.85973740543346
 20
-1733.766888077186
 30
0.0
 41
1.0
 10
286.03310653508629
 20
-1733.7310306038571
 30
0.0
 41
0.9992909934270101
 10
286.20868230154412
 20
-1733.7083201713906
 30
0.0
 41
1.0
 10
286.38425806800223
 20
-1733.6856097389241
 30
0.0
 41
0.9994553539448614
 10
286.56094950109514
 20
-1733.6745304347178
 30
0.0
 41
1.0
 10
286.59638390889268
 20
-1733.6723085466699
 30
0.0
 41
1.0
 10
286.63181831669021
 20
-1733.670086658622
 30
0.0
 41
1.0
 10
286.79804408325805
 20
-1733.6596635962105
 30
0.0
 41
0.9990928098293334
 10
286.96455387515886
 20
-1733.6634232374449
 30
0.0
 41
1.0
 10
287.00311571043414
 20
-1733.6642939289782
 30
0.0
 41
1.0
 10
287.04167754570938
 20
-1733.6651646205112
 30
0.0
 41
1.0
 10
287.13106366706495
 20
-1733.6671828786798
 30
0.0
 41
0.9998382089206308
 10
287.22031934984773
 20
-1733.6724150052078
 30
0.0
 41
1.0
 10
287.22074925606421
 20
-1733.67244020611
 30
0.0
 41
1.0
 10
287.22117916228069
 20
-1733.6724654070119
 30
0.0
 41
1.0
 10
287.30957503263051
 20
-1733.6776471317353
 30
0.0
 41
0.9997558016757385
 10
287.39765560983471
 20
-1733.6867296471023
 30
0.0
 41
1.0
 10
287.39813174826435
 20
-1733.6867787445849
 30
0.0
 41
1.0
 10
287.39860788669398
 20
-1733.6868278420675
 30
0.0
 41
1.0
 10
287.48573618703563
 20
-1733.6958121624687
 30
0.0
 41
0.9996565144181776
 10
287.57227404037764
 20
-1733.7093494691576
 30
0.0
 41
1.0
 10
287.57273996575316
 20
-1733.7094223548886
 30
0.0
 41
1.0
 10
287.57320589112874
 20
-1733.7094952406196
 30
0.0
 41
1.0
 10
287.65881189371771
 20
-1733.7228867758463
 30
0.0
 41
0.9995321806866917
 10
287.74343897404765
 20
-1733.741487264276
 30
0.0
 41
1.0
 10
287.74382816861959
 20
-1733.7415728067417
 30
0.0
 41
1.0
 10
287.74421736319152
 20
-1733.7416583492077
 30
0.0
 41
1.0
 10
287.82806605437571
 20
-1733.7600877527052
 30
0.0
 41
0.9993819199219555
 10
287.91041258857183
 20
-1733.784363135966
 30
0.0
 41
1.0
 10
287.91065102206875
 20
-1733.7844334250749
 30
0.0
 41
1.0
 10
287.91088945556567
 20
-1733.784503714184
 30
0.0
 41
1.0
 10
287.99275912276693
 20
-1733.8086385192262
 30
0.0
 41
0.9992088568504993
 10
288.07245164175629
 20
-1733.8392037550211
 30
0.0
 41
1.0
 10
288.15213263263536
 20
-1733.8697633557542
 30
0.0
 41
0.9990226101773628
 10
288.22880330254247
 20
-1733.9072407873687
 30
0.0
 41
1.0
 10
288.30546244434078
 20
-1733.9447125839222
 30
0.0
 41
0.9988424273972286
 10
288.37816607155389
 20
-1733.9893773591759
 30
0.0
 41
1.0
 10
288.37843377993272
 20
-1733.9895418232477
 30
0.0
 41
1.0
 10
288.37870148831155
 20
-1733.9897062873197
 30
0.0
 41
1.0
 10
288.45194053228215
 20
-1734.0346999907167
 30
0.0
 41
0.9986928844490516
 10
288.52020339899138
 20
-1734.086935724996
 30
0.0
 41
1.0
 10
288.52078469121454
 20
-1734.0873805382244
 30
0.0
 41
1.0
 10
288.52136598343776
 20
-1734.0878253514525
 30
0.0
 41
1.0
 10
288.59079143459195
 20
-1734.1409507121869
 30
0.0
 41
0.9986007262277747
 10
288.65421760435822
 20
-1734.2011114818799
 30
0.0
 41
1.0
 10
288.65511201981622
 20
-1734.2019598497159
 30
0.0
 41
1.0
 10
288.65600643527421
 20
-1734.2028082175516
 30
0.0
 41
1.0
 10
288.72122143595448
 20
-1734.2646657229141
 30
0.0
 41
0.9985581491380674
 10
288.77942904765632
 20
-1734.3331582131859
 30
0.0
 41
1.0
 10
288.78868750125253
 20
-1734.3440525708882
 30
0.0
 41
1.0
 10
288.79794595484867
 20
-1734.3549469285904
 30
0.0
 41
1.0
 10
288.87467047374219
 20
-1734.4452281342658
 30
0.0
 41
0.9970460233520561
 10
288.93666237490112
 20
-1734.5461952184467
 30
0.0
 41
1.0
 10
288.95113173998084
 20
-1734.5697616775283
 30
0.0
 41
1.0
 10
288.96560110506061
 20
-1734.5933281366097
 30
0.0
 41
1.0
 10
289.00533780507317
 20
-1734.6580478606422
 30
0.0
 41
0.9988468816637123
 10
289.03868417582419
 20
-1734.7262803130689
 30
0.0
 41
1.0
 10
289.04572019831573
 20
-1734.7406772342065
 30
0.0
 41
1.0
 10
289.05275622080723
 20
-1734.7550741553439
 30
0.0
 41
1.0
 10
289.07203054657543
 20
-1734.7945127654959
 30
0.0
 41
0.9998431189999221
 10
289.08989587407069
 20
-1734.8346093199373
 30
0.0
 41
1.0
 10
289.10776120155708
 20
-1734.8747058743584
 30
0.0
 41
0.99999899899423
 10
289.12573992498903
 20
-1734.914751711965
 30
0.0
 41
1.0
 10
289.13191223658259
 20
-1734.9284999287761
 30
0.0
 41
1.0
 10
289.13808454817615
 20
-1734.9422481455872
 30
0.0
 41
1.0
 10
289.1684078947855
 20
-1735.0097904167933
 30
0.0
 41
0.9998790356320024
 10
289.19661577492502
 20
-1735.0782431687344
 30
0.0
 41
1.0
 10
289.20345095620894
 20
-1735.0948302701609
 30
0.0
 41
1.0
 10
289.21028613749286
 20
-1735.1114173715873
 30
0.0
 41
1.0
 10
289.23384379987237
 20
-1735.1685853264703
 30
0.0
 41
0.9998227574560421
 10
289.25523254826282
 20
-1735.226599634751
 30
0.0
 41
1.0
 10
289.27662129665259
 20
-1735.2846139430301
 30
0.0
 41
0.9996797971041701
 10
289.29504758161102
 20
-1735.3436360621456
 30
0.0
 41
1.0
 10
289.29895138433676
 20
-1735.356140520315
 30
0.0
 41
1.0
 10
289.30285518706245
 20
-1735.3686449784846
 30
0.0
 41
1.0
 10
289.32908907747287
 20
-1735.4526760139415
 30
0.0
 41
0.9979274938735203
 10
289.34431360095192
 20
-1735.539380372601
 30
0.0
 41
1.0
 10
289.34653728821314
 20
-1735.5520443734222
 30
0.0
 41
1.0
 10
289.34876097547436
 20
-1735.5647083742435
 30
0.0
 41
1.0
 10
289.35969091517245
 20
-1735.6269548815319
 30
0.0
 41
0.9994985982137118
 10
289.36665908034951
 20
-1735.6897683826755
 30
0.0
 41
1.0
 10
289.37362724552662
 20
-1735.7525818838199
 30
0.0
 41
0.9996372611201528
 10
289.37720311129425
 20
-1735.8156794625006
 30
0.0
 41
1.0
 10
289.37737168878357
 20
-1735.8186540795823
 30
0.0
 41
1.0
 10
289.37754026627283
 20
-1735.821628696664
 30
0.0
 41
1.0
 10
289.38145328701916
 20
-1735.8906755095115
 30
0.0
 41
0.9997730630735797
 10
289.38242160050726
 20
-1735.9598263335436
 30
0.0
 41
1.0
 10
289.38247870692538
 20
-1735.9639045126858
 30
0.0
 41
1.0
 10
289.38253581334351
 20
-1735.967982691828
 30
0.0
 41
1.0
 10
289.38361833966769
 20
-1736.0452898741494
 30
0.0
 41
0.9998772614071292
 10
289.38227825293603
 20
-1736.1225930207104
 30
0.0
 41
1.0
 10
289.3821889897373
 20
-1736.1277421845452
 30
0.0
 41
1.0
 10
289.38209972653857
 20
-1736.1328913483801
 30
0.0
 41
1.0
 10
289.38058111340922
 20
-1736.2204928226174
 30
0.0
 41
0.9999415567328057
 10
289.37716880316339
 20
-1736.3080409842898
 30
0.0
 41
1.0
 10
289.3769274824881
 20
-1736.3142324440269
 30
0.0
 41
1.0
 10
289.37668616181276
 20
-1736.3204239037641
 30
0.0
 41
1.0
 10
289.37279121021612
 20
-1736.4203549849162
 30
0.0
 41
0.9999716810424082
 10
289.36739262709784
 20
-1736.5202161231384
 30
0.0
 41
1.0
 10
289.36417982830903
 20
-1736.5796453727958
 30
0.0
 41
1.0
 10
289.36096702952028
 20
-1736.6390746224531
 30
0.0
 41
1.0
 10
289.35289312036701
 20
-1736.7884230237451
 30
0.0
 41
0.9999819129914991
 10
289.3430233287508
 20
-1736.9376635014496
 30
0.0
 41
1.0
 10
289.33315353713419
 20
-1737.086903979161
 30
0.0
 41
1.0
 10
289.3307142165703
 20
-1737.1240970250103
 30
0.0
 41
1.0
 10
289.35341245040433
 20
-1737.0853560276755
 30
0.0
 41
0.9999982128227082
 10
289.37625700915788
 20
-1737.0467011337207
 30
0.0
 41
1.0
 10
289.40316656904213
 20
-1737.0011679196664
 30
0.0
 41
1.0
 10
289.43007612892643
 20
-1736.9556347056123
 30
0.0
 41
1.0
 10
289.50673980745159
 20
-1736.8259133835436
 30
0.0
 41
0.9998609190058149
 10
289.58768712031525
 20
-1736.6988210016113
 30
0.0
 41
1.0
 10
289.61733544179754
 20
-1736.6522712686533
 30
0.0
 41
1.0
 10
289.64698376327982
 20
-1736.6057215356952
 30
0.0
 41
1.0
 10
289.72925598351424
 20
-1736.4765489657043
 30
0.0
 41
0.9999067609733894
 10
289.81502499297864
 20
-1736.3496712762626
 30
0.0
 41
1.0
 10
289.81742969618062
 20
-1736.3461140102063
 30
0.0
 41
1.0
 10
289.81983439938261
 20
-1736.3425567441498
 30
0.0
 41
1.0
 10
289.90079400244235
 20
-1736.2227935868218
 30
0.0
 41
0.9998784952150506
 10
289.98544761212406
 20
-1736.1056123701123
 30
0.0
 41
1.0
 10
290.070101221806
 20
-1735.9884311534029
 30
0.0
 41
0.9998532968282685
 10
290.15871884263254
 20
-1735.8742182449275
 30
0.0
 41
1.0
 10
290.17868063162121
 20
-1735.8484909239105
 30
0.0
 41
1.0
 10
290.19864242060987
 20
-1735.8227636028935
 30
0.0
 41
1.0
 10
290.31712647036932
 20
-1735.6700579919243
 30
0.0
 41
0.9991551975795335
 10
290.44775091999264
 20
-1735.527598429841
 30
0.0
 41
1.0
 10
290.45126053597119
 20
-1735.5237708282179
 30
0.0
 41
1.0
 10
290.45477015194967
 20
-1735.5199432265949
 30
0.0
 41
1.0
 10
290.57837536961398
 20
-1735.3851388677595
 30
0.0
 41
0.9997418144180484
 10
290.70797750931678
 20
-1735.256089457145
 30
0.0
 41
1.0
 10
290.83757964901747
 20
-1735.1270400465323
 30
0.0
 41
0.9989238204633103
 10
290.97858219726965
 20
-1735.0105550844926
 30
0.0
 41
1.0
 10
291.02382987540955
 20
-1734.9731750928836
 30
0.0
 41
1.0
 10
291.06907755354945
 20
-1734.9357951012746
 30
0.0
 41
1.0
 10
291.20931761077026
 20
-1734.8199400479843
 30
0.0
 41
0.9990825084096667
 10
291.35895754337287
 20
-1734.7165110501523
 30
0.0
 41
1.0
 10
291.36900290742824
 20
-1734.7095678370738
 30
0.0
 41
1.0
 10
291.37904827148367
 20
-1734.7026246239955
 30
0.0
 41
1.0
 10
291.50859747597457
 20
-1734.6130820523206
 30
0.0
 41
0.9998164899826952
 10
291.64148167935309
 20
-1734.528567810803
 30
0.0
 41
1.0
 10
291.65332723988138
 20
-1734.5210340442759
 30
0.0
 41
1.0
 10
291.66517280040966
 20
-1734.5135002777488
 30
0.0
 41
1.0
 10
291.77436588273258
 20
-1734.4440535692847
 30
0.0
 41
0.9997473449130245
 10
291.88656983997879
 20
-1734.3795846114708
 30
0.0
 41
1.0
 10
291.99877379722716
 20
-1734.3151156536558
 30
0.0
 41
0.999932786114102
 10
292.11244240799306
 20
-1734.2532656619728
 30
0.0
 41
1.0
 10
292.11299441055309
 20
-1734.2529653032941
 30
0.0
 41
1.0
 10
292.11354641311311
 20
-1734.2526649446154
 30
0.0
 41
1.0
 10
292.22831902899838
 20
-1734.1902142355755
 30
0.0
 41
0.999695642048314
 10
292.34603235483797
 20
-1734.1335007686012
 30
0.0
 41
1.0
 10
292.37647275972898
 20
-1734.1188347918719
 30
0.0
 41
1.0
 10
292.40691316461999
 20
-1734.1041688151427
 30
0.0
 41
1.0
 10
292.5098902713662
 20
-1734.0545551566979
 30
0.0
 41
0.9998070570176323
 10
292.61473666030838
 20
-1734.0090245697966
 30
0.0
 41
1.0
 10
292.71958304924703
 20
-1733.9634939828964
 30
0.0
 41
0.9997827436147032
 10
292.82623598585451
 20
-1733.9223728115853
 30
0.0
 41
1.0
 10
292.84545883548822
 20
-1733.914961237952
 30
0.0
 41
1.0
 10
292.86468168512198
 20
-1733.9075496643188
 30
0.0
 41
1.0
 10
293.00978032099567
 20
-1733.8516053457417
 30
0.0
 41
0.9988031841977015
 10
293.15965068360111
 20
-1733.8101052815739
 30
0.0
 41
1.0
 10
293.18456793196231
 20
-1733.8032055357676
 30
0.0
 41
1.0
 10
293.20948518032344
 20
-1733.7963057899613
 30
0.0
 41
1.0
 10
293.37675520597202
 20
-1733.749987647554
 30
0.0
 41
0.9984748040549915
 10
293.54811211462197
 20
-1733.7223934152889
 30
0.0
 41
1.0
 10
293.5528512508721
 20
-1733.7216302547754
 30
0.0
 41
1.0
 10
293.55759038712227
 20
-1733.7208670942616
 30
0.0
 41
1.0
 10
293.71946902327232
 20
-1733.6947991830241
 30
0.0
 41
0.9984436495480396
 10
293.88324376699569
 20
-1733.6869212292054
 30
0.0
 41
1.0
 10
293.90494097512544
 20
-1733.6858775420058
 30
0.0
 41
1.0
 10
293.92663818325525
 20
-1733.6848338548061
 30
0.0
 41
1.0
 10
294.04701851071877
 20
-1733.6790432753867
 30
0.0
 41
0.9987954789335104
 10
294.16738675563022
 20
-1733.6850798031289
 30
0.0
 41
1.0
 10
294.18735154812816
 20
-1733.6860810474677
 30
0.0
 41
1.0
 10
294.20731634062605
 20
-1733.6870822918065
 30
0.0
 41
1.0
 10
294.28775500054348
 20
-1733.6911163308714
 30
0.0
 41
0.9997941595878033
 10
294.36796377863448
 20
-1733.6984103967923
 30
0.0
 41
1.0
 10
294.44817255672729
 20
-1733.7057044627131
 30
0.0
 41
0.9998589466235447
 10
294.52809110358004
 20
-1733.7156883171629
 30
0.0
 41
1.0
 10
294.56049730539019
 20
-1733.7197366740825
 30
0.0
 41
1.0
 10
294.59290350720039
 20
-1733.7237850310019
 30
0.0
 41
1.0
 10
294.7376344576723
 20
-1733.7418655992903
 30
0.0
 41
0.9993495063249338
 10
294.88068570143815
 20
-1733.7703313090324
 30
0.0
 41
1.0
 10
294.91361939859144
 20
-1733.7768847722473
 30
0.0
 41
1.0
 10
294.94655309574472
 20
-1733.7834382354624
 30
0.0
 41
1.0
 10
295.05584691894808
 20
-1733.8051865695975
 30
0.0
 41
0.9996788715560936
 10
295.16389849090251
 20
-1733.8324443689601
 30
0.0
 41
1.0
 10
295.1659614934423
 20
-1733.8329647955331
 30
0.0
 41
1.0
 10
295.16802449598208
 20
-1733.8334852221062
 30
0.0
 41
1.0
 10
295.27195006286036
 20
-1733.8597021683236
 30
0.0
 41
0.9995480654492875
 10
295.37411229808833
 20
-1733.8921171249476
 30
0.0
 41
1.0
 10
295.37580194021575
 20
-1733.892653229861
 30
0.0
 41
1.0
 10
295.37749158234323
 20
-1733.8931893347744
 30
0.0
 41
1.0
 10
295.47627453331637
 20
-1733.9245320815712
 30
0.0
 41
0.9993867959455792
 10
295.57262169176033
 20
-1733.9627114508617
 30
0.0
 41
1.0
 10
295.57386464084664
 20
-1733.9632039927585
 30
0.0
 41
1.0
 10
295.575107589933
 20
-1733.9636965346554
 30
0.0
 41
1.0
 10
295.66896885020429
 20
-1734.0008908201521
 30
0.0
 41
0.9992050256522252
 10
295.7595685252362
 20
-1734.0454447193902
 30
0.0
 41
1.0
 10
295.76030320794871
 20
-1734.045806011851
 30
0.0
 41
1.0
 10
295.76103789066116
 20
-1734.0461673043119
 30
0.0
 41
1.0
 10
295.85016820026942
 20
-1734.0899986186289
 30
0.0
 41
0.9990222350741226
 10
295.93507826166325
 20
-1734.1415318863274
 30
0.0
 41
1.0
 10
295.93526214694657
 20
-1734.1416434892326
 30
0.0
 41
1.0
 10
295.93544603222983
 20
-1734.1417550921376
 30
0.0
 41
1.0
 10
296.01998832305782
 20
-1734.1930651540263
 30
0.0
 41
0.9988642743805357
 10
296.09926285767591
 20
-1734.2521893415508
 30
0.0
 41
1.0
 10
296.17853739229469
 20
-1734.311313529076
 30
0.0
 41
0.9987681233311344
 10
296.25156117657127
 20
-1734.3780042204769
 30
0.0
 41
1.0
 10
296.25189010453698
 20
-1734.3783046216909
 30
0.0
 41
1.0
 10
296.25221903250264
 20
-1734.378605022905
 30
0.0
 41
1.0
 10
296.32590067271042
 20
-1734.4458965167344
 30
0.0
 41
0.9987496570898712
 10
296.39249447803729
 20
-1734.5202093308208
 30
0.0
 41
1.0
 10
296.39326664779787
 20
-1734.5210710041788
 30
0.0
 41
1.0
 10
296.39403881755851
 20
-1734.5219326775368
 30
0.0
 41
1.0
 10
296.46217696240637
 20
-1734.5979688383388
 30
0.0
 41
0.9988147669826434
 10
296.52259921663165
 20
-1734.6802698451818
 30
0.0
 41
1.0
 10
296.52371854270933
 20
-1734.6817944765344
 30
0.0
 41
1.0
 10
296.52483786878702
 20
-1734.6833191078867
 30
0.0
 41
1.0
 10
296.58749877516749
 20
-1734.7686693774342
 30
0.0
 41
0.9989452636215692
 10
296.6420656881283
 20
-1734.8594080665912
 30
0.0
 41
1.0
 10
296.64341441421425
 20
-1734.8616508476177
 30
0.0
 41
1.0
 10
296.64476314030014
 20
-1734.8638936286443
 30
0.0
 41
1.0
 10
296.70202750543331
 20
-1734.9591178798553
 30
0.0
 41
0.9991046436070799
 10
296.75103671875587
 20
-1735.0588423128827
 30
0.0
 41
1.0
 10
296.75250058034521
 20
-1735.0618209929539
 30
0.0
 41
1.0
 10
296.7539644419345
 20
-1735.0647996730249
 30
0.0
 41
1.0
 10
296.80590137843586
 20
-1735.1704814661946
 30
0.0
 41
0.9992763831100943
 10
296.84965450699116
 20
-1735.279805528151
 30
0.0
 41
1.0
 10
296.85113377665454
 20
-1735.2835017156849
 30
0.0
 41
1.0
 10
296.85261304631791
 20
-1735.2871979032186
 30
0.0
 41
1.0
 10
296.89932471419957
 20
-1735.4039143402415
 30
0.0
 41
0.9994163472883825
 10
296.93795774538927
 20
-1735.5235479287053
 30
0.0
 41
1.0
 10
296.9391958976363
 20
-1735.5273820724888
 30
0.0
 41
1.0
 10
296.94043404988327
 20
-1735.5312162162722
 30
0.0
 41
1.0
 10
296.98031761090039
 20
-1735.6547222777501
 30
0.0
 41
0.9997268055891282
 10
297.01438566681225
 20
-1735.7799573097004
 30
0.0
 41
1.0
 10
297.01531584708187
 20
-1735.7833766758094
 30
0.0
 41
1.0
 10
297.01624602735143
 20
-1735.7867960419183
 30
0.0
 41
1.0
 10
297.04845372272462
 20
-1735.9051923416525
 30
0.0
 41
0.999670131900067
 10
297.07453933949472
 20
-1736.0250862949147
 30
0.0
 41
1.0
 10
297.10062495626511
 20
-1736.1449802481768
 30
0.0
 41
0.9995785451109285
 10
297.11970853360492
 20
-1736.2661860092094
 30
0.0
 41
1.0
 10
297.1239283157787
 20
-1736.2929871639744
 30
0.0
 41
1.0
 10
297.12814809795242
 20
-1736.3197883187397
 30
0.0
 41
1.0
 10
297.15472307389109
 20
-1736.4885742924425
 30
0.0
 41
0.9979925101216269
 10
297.1597486598173
 20
-1736.6593656205343
 30
0.0
 41
1.0
 10
297.16057347224194
 20
-1736.6873963440166
 30
0.0
 41
1.0
 10
297.16139828466663
 20
-1736.7154270674987
 30
0.0
 41
1.0
 10
297.16477424574373
 20
-1736.8301569486255
 30
0.0
 41
0.9995314902262872
 10
297.16112405360514
 20
-1736.9448784323781
 30
0.0
 41
1.0
 10
297.15747386146649
 20
-1737.059599916131
 30
0.0
 41
0.999624548694437
 10
297.14754476633567
 20
-1737.1739491872549
 30
0.0
 41
1.0
 10
297.14738171834148
 20
-1737.1758269433897
 30
0.0
 41
1.0
 10
297.14721867034729
 20
-1737.1777046995244
 30
0.0
 41
1.0
 10
297.13696347922814
 20
-1737.2958094829171
 30
0.0
 41
0.999728609500111
 10
297.12121815565683
 20
-1737.4133083918111
 30
0.0
 41
1.0
 10
297.12082466300632
 20
-1737.4162448165143
 30
0.0
 41
1.0
 10
297.1204311703558
 20
-1737.4191812412173
 30
0.0
 41
1.0
 10
297.10389886148391
 20
-1737.5425529995146
 30
0.0
 41
0.9998265533968815
 10
297.08278340275098
 20
-1737.6652234743044
 30
0.0
 41
1.0
 10
297.08210686061386
 20
-1737.6691538528116
 30
0.0
 41
1.0
 10
297.08143031847675
 20
-1737.6730842313191
 30
0.0
 41
1.0
 10
297.05896177547015
 20
-1737.8036154631213
 30
0.0
 41
0.9999022530851595
 10
297.03285231086073
 20
-1737.9334674317568
 30
0.0
 41
1.0
 10
297.03187366969496
 20
-1737.9383345741462
 30
0.0
 41
1.0
 10
297.03089502852913
 20
-1737.9432017165357
 30
0.0
 41
1.0
 10
297.00282828158754
 20
-1738.0827879699527
 30
0.0
 41
0.9999524761933758
 10
296.97204531275463
 20
-1738.221800463109
 30
0.0
 41
1.0
 10
296.97076920557868
 20
-1738.2275632224137
 30
0.0
 41
1.0
 10
296.96949309840272
 20
-1738.2333259817183
 30
0.0
 41
1.0
 10
296.93615791521512
 20
-1738.3838639934961
 30
0.0
 41
0.9999813588717508
 10
296.90098691441898
 20
-1738.5339837061529
 30
0.0
 41
1.0
 10
296.89943298896355
 20
-1738.5406162965705
 30
0.0
 41
1.0
 10
296.89787906350819
 20
-1738.547248886988
 30
0.0
 41
1.0
 10
296.85960021179631
 20
-1738.7106337805008
 30
0.0
 41
0.9999955237693825
 10
296.82034433382091
 20
-1738.8737866840863
 30
0.0
 41
1.0
 10
296.80806269818544
 20
-1738.9248308746137
 30
0.0
 41
1.0
 10
296.79578106254996
 20
-1738.9758750651413
 30
0.0
 41
1.0
 10
296.73196191331112
 20
-1739.2411163497504
 30
0.0
 41
0.999999360434336
 10
296.66754296612731
 20
-1739.5062126005002
 30
0.0
 41
1.0
 10
296.66282413058298
 20
-1739.5256315085294
 30
0.0
 41
1.0
 10
296.65810529503869
 20
-1739.5450504165588
 30
0.0
 41
1.0
 10
296.58424867677832
 20
-1739.8489844833175
 30
0.0
 41
0.9999659914733966
 10
296.50538908089169
 20
-1740.1516590298818
 30
0.0
 41
1.0
 10
296.50043639196167
 20
-1740.1706681670616
 30
0.0
 41
1.0
 10
296.49548370303165
 20
-1740.1896773042417
 30
0.0
 41
1.0
 10
296.40671872928652
 20
-1740.5303701251605
 30
0.0
 41
0.9999441976025628
 10
296.31077569632231
 20
-1740.8691115504614
 30
0.0
 41
1.0
 10
296.29407517789701
 20
-1740.9280752629884
 30
0.0
 41
1.0
 10
296.27737465947172
 20
-1740.9870389755151
 30
0.0
 41
1.0
 10
296.14803058965583
 20
-1741.4437078258741
 30
0.0
 41
0.9999625120735586
 10
296.01079782233472
 20
-1741.8980683598622
 30
0.0
 41
1.0
 10
295.97500787925026
 20
-1742.0165643864943
 30
0.0
 41
1.0
 10
295.93921793616579
 20
-1742.1350604131262
 30
0.0
 41
1.0
 10
295.86469773212372
 20
-1742.3817874912315
 30
0.0
 41
0.9999793386304139
 10
295.78701170898916
 20
-1742.6275361304579
 30
0.0
 41
1.0
 10
295.70932568585158
 20
-1742.873284769694
 30
0.0
 41
1.0
 10
295.69854612698089
 20
-1742.9073026740687
 30
0.0
 41
1.0
 10
293.84817307371173
 20
-1748.7943745965363
 30
0.0
 41
1.0
 10
291.99780002044258
 20
-1754.6814465190037
 30
0.0
 41
1.0
 10
291.03654333041902
 20
-1754.6814465190037
 30
0.0
 41
1.0
 10
290.07528664039546
 20
-1754.6814465190037
 30
0.0
 41
1.0
 10
291.6942314190739
 20
-1749.5334180172142
 30
0.0
 41
1.0
 10
293.31317619775234
 20
-1744.3853895154248
 30
0.0
 41
1.0
 10
293.35834202092917
 20
-1744.2413582931467
 30
0.0
 41
1.0
 10
293.40350784410606
 20
-1744.0973270708687
 30
0.0
 41
1.0
 10
293.5738122614668
 20
-1743.5542360417123
 30
0.0
 41
0.9999911657912116
 10
293.73954507314392
 20
-1743.0097325103588
 30
0.0
 41
1.0
 10
293.76924101664048
 20
-1742.9121685703212
 30
0.0
 41
1.0
 10
293.79893696013704
 20
-1742.8146046302834
 30
0.0
 41
1.0
 10
293.90527788482393
 20
-1742.465228978996
 30
0.0
 41
0.9999952428201118
 10
294.00946147414908
 20
-1742.1152039546455
 30
0.0
 41
1.0
 10
294.01452094448194
 20
-1742.0982056803691
 30
0.0
 41
1.0
 10
294.01958041481481
 20
-1742.0812074060925
 30
0.0
 41
1.0
 10
294.11364506347837
 20
-1741.7651789302818
 30
0.0
 41
0.9999931687508818
 10
294.20537090134769
 20
-1741.4484637170256
 30
0.0
 41
1.0
 10
294.21030616580555
 20
-1741.4314230077603
 30
0.0
 41
1.0
 10
294.2152414302634
 20
-1741.414382298495
 30
0.0
 41
1.0
 10
294.2970967392198
 20
-1741.1317485037605
 30
0.0
 41
0.9999893840813136
 10
294.37634396567819
 20
-1740.8483723745085
 30
0.0
 41
1.0
 10
294.45559119213931
 20
-1740.5649962452467
 30
0.0
 41
0.9999833980071865
 10
294.53156743288019
 20
-1740.2807256622207
 30
0.0
 41
1.0
 10
294.54057136960029
 20
-1740.2470367837504
 30
0.0
 41
1.0
 10
294.54957530632038
 20
-1740.21334790528
 30
0.0
 41
1.0
 10
294.6185398551869
 20
-1739.9553120729827
 30
0.0
 41
0.9999233658065632
 10
294.68109482640853
 20
-1739.6956479142555
 30
0.0
 41
1.0
 10
294.74364979762879
 20
-1739.435983755533
 30
0.0
 41
1.0
 10
294.78313321648636
 20
-1739.2721770911069
 30
0.0
 41
1.0
 10
294.78811182046252
 20
-1739.251522129241
 30
0.0
 41
1.0
 10
294.79309042443873
 20
-1739.2308671673752
 30
0.0
 41
1.0
 10
294.82261663534479
 20
-1739.1083704266775
 30
0.0
 41
0.999986867086182
 10
294.85088571934011
 20
-1738.9855774810353
 30
0.0
 41
1.0
 10
294.85478320649861
 20
-1738.9686478936148
 30
0.0
 41
1.0
 10
294.85868069365716
 20
-1738.9517183061944
 30
0.0
 41
1.0
 10
294.87915480333453
 20
-1738.8627845353972
 30
0.0
 41
0.999977817335405
 10
294.89844240145175
 20
-1738.7735859181594
 30
0.0
 41
1.0
 10
294.91772999956652
 20
-1738.6843873009316
 30
0.0
 41
0.9999602692861583
 10
294.93542435819785
 20
-1738.5948590125031
 30
0.0
 41
1.0
 10
294.93862819027549
 20
-1738.5786485576173
 30
0.0
 41
1.0
 10
294.9418320223532
 20
-1738.5624381027312
 30
0.0
 41
1.0
 10
294.96593404513902
 20
-1738.440488904535
 30
0.0
 41
0.999561798532059
 10
294.98277739235783
 20
-1738.3173271568285
 30
0.0
 41
1.0
 10
294.98524188226418
 20
-1738.2993063394617
 30
0.0
 41
1.0
 10
294.98770637217058
 20
-1738.281285522095
 30
0.0
 41
1.0
 10
295.00798963321881
 20
-1738.1329704723935
 30
0.0
 41
0.9991121410639628
 10
295.01571498680698
 20
-1737.9834743735887
 30
0.0
 41
1.0
 10
295.01663377683155
 20
-1737.9656945370125
 30
0.0
 41
1.0
 10
295.01755256685612
 20
-1737.9479147004363
 30
0.0
 41
1.0
 10
295.02344034039527
 20
-1737.8339782747826
 30
0.0
 41
0.9989792494905474
 10
295.01902124827791
 20
-1737.7199754388844
 30
0.0
 41
1.0
 10
295.01837327640925
 20
-1737.7032591929574
 30
0.0
 41
1.0
 10
295.01772530454059
 20
-1737.6865429470301
 30
0.0
 41
1.0
 10
295.01460215616055
 20
-1737.6059726029889
 30
0.0
 41
0.9997820295394
 10
295.0081181587849
 20
-1737.5256028812419
 30
0.0
 41
1.0
 10
295.00163416140953
 20
-1737.445233159501
 30
0.0
 41
0.9998335105974092
 10
294.99222196589744
 20
-1737.3651535430474
 30
0.0
 41
1.0
 10
294.99062704122116
 20
-1737.3515838125645
 30
0.0
 41
1.0
 10
294.98903211654482
 20
-1737.3380140820818
 30
0.0
 41
1.0
 10
294.97643007168023
 20
-1737.230795004665
 30
0.0
 41
0.9996876457879568
 10
294.95848615888212
 20
-1737.12433957695
 30
0.0
 41
1.0
 10
294.9562544957368
 20
-1737.111099841708
 30
0.0
 41
1.0
 10
294.95402283259148
 20
-1737.0978601064662
 30
0.0
 41
1.0
 10
294.94022701117052
 20
-1737.0160139625075
 30
0.0
 41
0.9995547496494667
 10
294.92157368927781
 20
-1736.9351364653164
 30
0.0
 41
1.0
 10
294.92119973240648
 20
-1736.9335150546108
 30
0.0
 41
1.0
 10
294.92082577553515
 20
-1736.9318936439054
 30
0.0
 41
1.0
 10
294.90292036738538
 20
-1736.854258968126
 30
0.0
 41
0.9994899427175067
 10
294.88009545870585
 20
-1736.7779256852909
 30
0.0
 41
1.0
 10
294.87963693196502
 20
-1736.776392235502
 30
0.0
 41
1.0
 10
294.8791784052242
 20
-1736.7748587857131
 30
0.0
 41
1.0
 10
294.85727055002633
 20
-1736.7015924024558
 30
0.0
 41
0.9993784877590854
 10
294.83025491491992
 20
-1736.6300516972974
 30
0.0
 41
1.0
 10
294.82972322394323
 20
-1736.6286437145775
 30
0.0
 41
1.0
 10
294.82919153296655
 20
-1736.6272357318576
 30
0.0
 41
1.0
 10
294.80323927981357
 20
-1736.558510992139
 30
0.0
 41
0.9992430832254408
 10
294.77202274465395
 20
-1736.4920118400701
 30
0.0
 41
1.0
 10
294.77144062859713
 20
-1736.4907717849524
 30
0.0
 41
1.0
 10
294.77085851254031
 20
-1736.4895317298344
 30
0.0
 41
1.0
 10
294.74080620949456
 20
-1736.4255126880018
 30
0.0
 41
0.9990789632798777
 10
294.70537558271792
 20
-1736.3643060762522
 30
0.0
 41
1.0
 10
294.70477987653612
 20
-1736.3632769903934
 30
0.0
 41
1.0
 10
294.70418417035438
 20
-1736.3622479045346
 30
0.0
 41
1.0
 10
294.66994495594179
 20
-1736.3030994645037
 30
0.0
 41
0.9988874801121968
 10
294.63028567990915
 20
-1736.2474397520846
 30
0.0
 41
1.0
 10
294.629730153845
 20
-1736.2466601004101
 30
0.0
 41
1.0
 10
294.62917462778091
 20
-1736.2458804487355
 30
0.0
 41
1.0
 10
294.59062640387737
 20
-1736.1917800396673
 30
0.0
 41
0.9986762060693899
 10
294.54672393260097
 20
-1736.1419263252278
 30
0.0
 41
1.0
 10
294.54627997226862
 20
-1736.1414221834111
 30
0.0
 41
1.0
 10
294.54583601193622
 20
-1736.1409180415942
 30
0.0
 41
1.0
 10
294.50282146132486
 20
-1736.0920726107886
 30
0.0
 41
0.9984621642487863
 10
294.45466390454698
 20
-1736.0482893103174
 30
0.0
 41
1.0
 10
294.45441727003072
 20
-1736.0480650781542
 30
0.0
 41
1.0
 10
294.45417063551452
 20
-1736.047840845991
 30
0.0
 41
1.0
 10
294.40650634776927
 20
-1736.0045060098464
 30
0.0
 41
0.9982724693852032
 10
294.35408771592773
 20
-1735.9670616593285
 30
0.0
 41
1.0
 10
294.30166908408705
 20
-1735.9296173088114
 30
0.0
 41
0.9981399180159895
 10
294.24508302069512
 20
-1735.8988307893687
 30
0.0
 41
1.0
 10
294.2450373586156
 20
-1735.8988059462108
 30
0.0
 41
1.0
 10
294.24499169653603
 20
-1735.8987811030531
 30
0.0
 41
1.0
 10
294.18831430898524
 20
-1735.867944897295
 30
0.0
 41
0.9980927086835931
 10
294.12826895791864
 20
-1735.8443280884426
 30
0.0
 41
1.0
 10
294.12782878820735
 20
-1735.8441549625677
 30
0.0
 41
1.0
 10
294.12738861849601
 20
-1735.8439818366928
 30
0.0
 41
1.0
 10
294.06646292800514
 20
-1735.8200187760899
 30
0.0
 41
0.9981411356561383
 10
294.0030744066043
 20
-1735.8036461345841
 30
0.0
 41
1.0
 10
294.00219228990414
 20
-1735.8034182923789
 30
0.0
 41
1.0
 10
294.00131017320399
 20
-1735.8031904501738
 30
0.0
 41
1.0
 10
293.93615741840244
 20
-1735.7863621242575
 30
0.0
 41
0.9983031812934791
 10
293.86948998940881
 20
-1735.7772227630815
 30
0.0
 41
1.0
 10
293.86061896400463
 20
-1735.77600664441
 30
0.0
 41
1.0
 10
293.85174793860045
 20
-1735.7747905257386
 30
0.0
 41
1.0
 10
293.79739829609565
 20
-1735.7673397957474
 30
0.0
 41
0.9983887708263123
 10
293.74255444680216
 20
-1735.7660951221142
 30
0.0
 41
1.0
 10
293.73449104157953
 20
-1735.7659121242391
 30
0.0
 41
1.0
 10
293.7264276363569
 20
-1735.7657291263642
 30
0.0
 41
1.0
 10
293.68771059750418
 20
-1735.7648504484807
 30
0.0
 41
0.999886956307935
 10
293.64898464430667
 20
-1735.7651363178404
 30
0.0
 41
1.0
 10
293.61025869111734
 20
-1735.7654221872001
 30
0.0
 41
0.9999972320087305
 10
293.57153451192022
 20
-1735.7658902867288
 30
0.0
 41
1.0
 10
293.55218149532675
 20
-1735.7661242268184
 30
0.0
 41
1.0
 10
293.53282847873322
 20
-1735.766358166908
 30
0.0
 41
1.0
 10
293.4553982663615
 20
-1735.7672941466158
 30
0.0
 41
0.9997304945087104
 10
293.37809496012278
 20
-1735.7718232404018
 30
0.0
 41
1.0
 10
293.36904531841958
 20
-1735.7723534463917
 30
0.0
 41
1.0
 10
293.35999567671638
 20
-1735.7728836523816
 30
0.0
 41
1.0
 10
293.26459308707098
 20
-1735.7784731581476
 30
0.0
 41
0.9997888306415711
 10
293.16950075122901
 20
-1735.7879781226366
 30
0.0
 41
1.0
 10
293.16077968965556
 20
-1735.7888498372688
 30
0.0
 41
1.0
 10
293.15205862808216
 20
-1735.789721551901
 30
0.0
 41
1.0
 10
293.0395241690951
 20
-1735.8009699456541
 30
0.0
 41
0.9984170238191099
 10
292.92896502174477
 20
-1735.8247860275894
 30
0.0
 41
1.0
 10
292.89258389075724
 20
-1735.8326230633959
 30
0.0
 41
1.0
 10
292.85620275976964
 20
-1735.8404600992023
 30
0.0
 41
1.0
 10
292.74101169134821
 20
-1735.8652739657118
 30
0.0
 41
0.9976592854198645
 10
292.63028352494337
 20
-1735.9055726428592
 30
0.0
 41
1.0
 10
292.51955535853813
 20
-1735.9458713200063
 30
0.0
 41
0.999325507435189
 10
292.41208355974845
 20
-1735.9941882184983
 30
0.0
 41
1.0
 10
292.40745838082472
 20
-1735.9962675946981
 30
0.0
 41
1.0
 10
292.40283320190099
 20
-1735.9983469708982
 30
0.0
 41
1.0
 10
292.28611104526283
 20
-1736.0508226217903
 30
0.0
 41
0.9976475078274805
 10
292.17766370095171
 20
-1736.1187706114492
 30
0.0
 41
1.0
 10
292.15932130681938
 20
-1736.1302630902624
 30
0.0
 41
1.0
 10
292.14097891268699
 20
-1736.1417555690753
 30
0.0
 41
1.0
 10
292.05677672113359
 20
-1736.1945126898445
 30
0.0
 41
0.9995131336406871
 10
291.97602900617403
 20
-1736.252418901799
 30
0.0
 41
1.0
 10
291.89528129121481
 20
-1736.3103251137534
 30
0.0
 41
0.9995810107605655
 10
291.8180196434833
 20
-1736.3728067962218
 30
0.0
 41
1.0
 10
291.81504961227552
 20
-1736.3752086676845
 30
0.0
 41
1.0
 10
291.81207958106768
 20
-1736.3776105391471
 30
0.0
 41
1.0
 10
291.72887787091747
 20
-1736.4448959645433
 30
0.0
 41
0.9996617837954672
 10
291.64928718378138
 20
-1736.516416420104
 30
0.0
 41
1.0
 10
291.63715643290561
 20
-1736.5273171530935
 30
0.0
 41
1.0
 10
291.62502568202984
 20
-1736.5382178860832
 30
0.0
 41
1.0
 10
291.55675015463294
 20
-1736.5995705015557
 30
0.0
 41
0.999726775005282
 10
291.49141664634823
 20
-1736.6640470380821
 30
0.0
 41
1.0
 10
291.42608313806727
 20
-1736.7285235746044
 30
0.0
 41
0.999966728895669
 10
291.36181019492307
 20
-1736.7940573814965
 30
0.0
 41
1.0
 10
291.29298274714535
 20
-1736.8642350402574
 30
0.0
 41
1.0
 10
291.22415529936762
 20
-1736.9344126990181
 30
0.0
 41
1.0
 10
291.02222746067025
 20
-1737.1403018234298
 30
0.0
 41
0.9988205335175331
 10
290.84122184369102
 20
-1737.3648060554901
 30
0.0
 41
1.0
 10
290.81058187878648
 20
-1737.4028093059198
 30
0.0
 41
1.0
 10
290.77994191388194
 20
-1737.4408125563496
 30
0.0
 41
1.0
 10
290.53765636709386
 20
-1737.7413232892688
 30
0.0
 41
0.9997077826754774
 10
290.31017841598839
 20
-1738.0531930834854
 30
0.0
 41
1.0
 10
290.30845500085763
 20
-1738.0555558668655
 30
0.0
 41
1.0
 10
290.30673158572688
 20
-1738.0579186502455
 30
0.0
 41
1.0
 10
290.07580680436115
 20
-1738.3745140112203
 30
0.0
 41
0.9989147567078992
 10
289.87534330147673
 20
-1738.7112234724066
 30
0.0
 41
1.0
 10
289.85060215617102
 20
-1738.752780052957
 30
0.0
 41
1.0
 10
289.82586101086525
 20
-1738.7943366335073
 30
0.0
 41
1.0
 10
289.67064971222601
 20
-1739.0550380179634
 30
0.0
 41
0.9997476598182833
 10
289.52730472471637
 20
-1739.3224477665458
 30
0.0
 41
1.0
 10
289.38395973720651
 20
-1739.5898575151286
 30
0.0
 41
0.9996258967109541
 10
289.2554514852755
 20
-1739.8647054517514
 30
0.0
 41
1.0
 10
289.24225157582555
 20
-1739.8929368518475
 30
0.0
 41
1.0
 10
289.22905166637565
 20
-1739.9211682519435
 30
0.0
 41
1.0
 10
289.08884294537734
 20
-1740.2210406498932
 30
0.0
 41
0.9998735413946824
 10
288.95824159865526
 20
-1740.5252202493648
 30
0.0
 41
1.0
 10
288.95479877059387
 20
-1740.5332388348315
 30
0.0
 41
1.0
 10
288.95135594253247
 20
-1740.5412574202983
 30
0.0
 41
1.0
 10
288.82764025193364
 20
-1740.8293998488355
 30
0.0
 41
0.999937741886304
 10
288.71038544976017
 20
-1741.1202313165072
 30
0.0
 41
1.0
 10
288.59313064758567
 20
-1741.4110627841815
 30
0.0
 41
0.9999508299504268
 10
288.48166670420846
 20
-1741.7041624610026
 30
0.0
 41
1.0
 10
288.47858593554554
 20
-1741.7122634869675
 30
0.0
 41
1.0
 10
288.47550516688267
 20
-1741.7203645129325
 30
0.0
 41
1.0
 10
288.35787968618104
 20
-1742.0296662416795
 30
0.0
 41
0.9999609228432573
 10
288.245741083307
 20
-1742.3409992576956
 30
0.0
 41
1.0
 10
288.24278507295708
 20
-1742.3492060981057
 30
0.0
 41
1.0
 10
288.2398290626071
 20
-1742.3574129385161
 30
0.0
 41
1.0
 10
288.12177843902884
 20
-1742.6851596353645
 30
0.0
 41
0.9999674607407938
 10
288.00903091295913
 20
-1743.0147682553645
 30
0.0
 41
1.0
 10
287.95763252240067
 20
-1743.1650274510448
 30
0.0
 41
1.0
 10
287.90623413184221
 20
-1743.3152866467249
 30
0.0
 41
1.0
 10
287.79022352508412
 20
-1743.6544346292285
 30
0.0
 41
0.9999287532311356
 10
287.68234212111207
 20
-1743.996255368208
 30
0.0
 41
1.0
 10
287.63586486499742
 20
-1744.1435179125012
 30
0.0
 41
1.0
 10
287.58938760888282
 20
-1744.2907804567944
 30
0.0
 41
1.0
 10
287.5744607171913
 20
-1744.3380761070257
 30
0.0
 41
0.9999998222647837
 10
287.5595902084109
 20
-1744.3853895154248
 30
0.0
 41
1.0
 10
285.93893407161545
 20
-1749.5334180172142
 30
0.0
 41
1.0
 10
284.31827793482
 20
-1754.6814465190037
 30
0.0
 41
1.0
 10
283.41296949092907
 20
-1754.6814465190037
 30
0.0
 41
1.0
 10
282.50766104703814
 20
-1754.6814465190037
 30
0.0
 41
1.0
 10
284.35974545842419
 20
-1748.7943745965363
 30
0.0
 41
1.0
 10
286.21182986981023
 20
-1742.9073026740687
 30
0.0
 41
1.0
 10
286.22195162811295
 20
-1742.875259460619
 30
0.0
 41
1.0
 10
286.29455929696269
 20
-1742.6449599187931
 30
0.0
 41
1.0
 10
286.36716696581141
 20
-1742.4146603769705
 30
0.0
 41
0.9999825681976442
 10
286.43705000502223
 20
-1742.183519481908
 30
0.0
 41
1.0
 10
286.48534106718216
 20
-1742.023794898415
 30
0.0
 41
1.0
 10
286.5336321293421
 20
-1741.8640703149217
 30
0.0
 41
1.0
 10
286.63078448266185
 20
-1741.5427350931373
 30
0.0
 41
0.9999672528961314
 10
286.72272328828478
 20
-1741.2198695475522
 30
0.0
 41
1.0
 10
286.72551217195354
 20
-1741.2100757021658
 30
0.0
 41
1.0
 10
286.7283010556223
 20
-1741.2002818567794
 30
0.0
 41
1.0
 10
286.81466209390453
 20
-1740.8970040019785
 30
0.0
 41
0.9999899749157853
 10
286.89830370344282
 20
-1740.5929649135137
 30
0.0
 41
1.0
 10
286.90840962246097
 20
-1740.556229675833
 30
0.0
 41
1.0
 10
286.91851554147911
 20
-1740.5194944381524
 30
0.0
 41
1.0
 10
286.9819453129781
 20
-1740.2889258250589
 30
0.0
 41
0.9999214200503198
 10
287.03957474135524
 20
-1740.056839482852
 30
0.0
 41
1.0
 10
287.05234059353546
 20
-1740.0054285974572
 30
0.0
 41
1.0
 10
287.06510644571568
 20
-1739.9540177120625
 30
0.0
 41
1.0
 10
287.09720416973096
 20
-1739.8247531406505
 30
0.0
 41
0.9999828681676073
 10
287.12778642172839
 20
-1739.6951216661751
 30
0.0
 41
1.0
 10
287.15836867372536
 20
-1739.5654901917005
 30
0.0
 41
0.9999389844478293
 10
287.18607966251409
 20
-1739.4352147358027
 30
0.0
 41
1.0
 10
287.19321740623377
 20
-1739.4016586319676
 30
0.0
 41
1.0
 10
287.20035514995345
 20
-1739.3681025281326
 30
0.0
 41
1.0
 10
287.24234162618245
 20
-1739.1707148645605
 30
0.0
 41
0.9998933699439841
 10
287.27854589058489
 20
-1738.9721852568014
 30
0.0
 41
1.0
 10
287.2799187158015
 20
-1738.9646572361037
 30
0.0
 41
1.0
 10
287.28129154101805
 20
-1738.957129215406
 30
0.0
 41
1.0
 10
287.32024145585268
 20
-1738.7435435662562
 30
0.0
 41
0.9996850305194465
 10
287.34842513211157
 20
-1738.5282725608188
 30
0.0
 41
1.0
 10
287.35042016548095
 20
-1738.5130342066961
 30
0.0
 41
1.0
 10
287.35241519885034
 20
-1738.4977958525735
 30
0.0
 41
1.0
 10
287.37982306130948
 20
-1738.2884506254186
 30
0.0
 41
0.9994697936706384
 10
287.39354762052898
 20
-1738.0777654300882
 30
0.0
 41
1.0
 10
287.39402468977863
 20
-1738.0704419578774
 30
0.0
 41
1.0
 10
287.39450175902829
 20
-1738.0631184856666
 30
0.0
 41
1.0
 10
287.40727217974853
 20
-1737.8670802347579
 30
0.0
 41
0.9991804893136861
 10
287.40414386347578
 20
-1737.6706513847842
 30
0.0
 41
1.0
 10
287.40405998465366
 20
-1737.6653845833712
 30
0.0
 41
1.0
 10
287.40397610583153
 20
-1737.6601177819584
 30
0.0
 41
1.0
 10
287.40101554720303
 20
-1737.4742225348114
 30
0.0
 41
0.9988448329321501
 10
287.38022400157922
 20
-1737.2894699449773
 30
0.0
 41
1.0
 10
287.3786299278762
 20
-1737.2753050892061
 30
0.0
 41
1.0
 10
287.37703585417313
 20
-1737.2611402334348
 30
0.0
 41
1.0
 10
287.35943245595536
 20
-1737.1047173551437
 30
0.0
 41
0.9985503209458737
 10
287.32511618365589
 20
-1736.9510931710547
 30
0.0
 41
1.0
 10
287.31753019158464
 20
-1736.9171328436546
 30
0.0
 41
1.0
 10
287.30994419951344
 20
-1736.8831725162543
 30
0.0
 41
1.0
 10
287.29079991135643
 20
-1736.7974689869661
 30
0.0
 41
0.9991036781370331
 10
287.26447504970514
 20
-1736.7136918996405
 30
0.0
 41
1.0
 10
287.26049282424935
 20
-1736.7010187371304
 30
0.0
 41
1.0
 10
287.25651059879351
 20
-1736.6883455746204
 30
0.0
 41
1.0
 10
287.23815018805362
 20
-1736.6299148123139
 30
0.0
 41
0.9998874504368732
 10
287.21804498037551
 20
-1736.5720612100922
 30
0.0
 41
1.0
 10
287.19793977269671
 20
-1736.5142076078678
 30
0.0
 41
0.9994041637543528
 10
287.17389115976255
 20
-1736.4578789039783
 30
0.0
 41
1.0
 10
287.16969437553905
 20
-1736.4480488394977
 30
0.0
 41
1.0
 10
287.16549759131556
 20
-1736.438218775017
 30
0.0
 41
1.0
 10
287.13761876032117
 20
-1736.37291860905
 30
0.0
 41
0.9991846840701546
 10
287.10456240362714
 20
-1736.3100805777678
 30
0.0
 41
1.0
 10
287.10342579723203
 20
-1736.307919961313
 30
0.0
 41
1.0
 10
287.10228919083693
 20
-1736.3057593448582
 30
0.0
 41
1.0
 10
287.07150604693419
 20
-1736.2472425464878
 30
0.0
 41
0.9989253167923532
 10
287.0354366228791
 20
-1736.1918276180972
 30
0.0
 41
1.0
 10
287.03438249820476
 20
-1736.1902081233347
 30
0.0
 41
1.0
 10
287.03332837353048
 20
-1736.1885886285722
 30
0.0
 41
1.0
 10
286.99936719882425
 20
-1736.1364126897072
 30
0.0
 41
0.9986467172837228
 10
286.96017004618676
 20
-1736.0880466560775
 30
0.0
 41
1.0
 10
286.95929591748552
 20
-1736.0869680537985
 30
0.0
 41
1.0
 10
286.95842178878434
 20
-1736.0858894515197
 30
0.0
 41
1.0
 10
286.92097289354842
 20
-1736.0396806224469
 30
0.0
 41
0.9984001104267147
 10
286.87854616303218
 20
-1735.9979955150793
 30
0.0
 41
1.0
 10
286.87795902492252
 20
-1735.9974186401978
 30
0.0
 41
1.0
 10
286.87737188681285
 20
-1735.9968417653163
 30
0.0
 41
1.0
 10
286.83611943251452
 20
-1735.9563104077099
 30
0.0
 41
0.9982442159081366
 10
286.79036333117944
 20
-1735.9209418464502
 30
0.0
 41
1.0
 10
286.79014853571823
 20
-1735.9207758138075
 30
0.0
 41
1.0
 10
286.78993374025708
 20
-1735.9206097811648
 30
0.0
 41
1.0
 10
286.74460722984469
 20
-1735.8855732851907
 30
0.0
 41
0.9982450060837846
 10
286.69545625077205
 20
-1735.8561415021563
 30
0.0
 41
1.0
 10
286.64630527170073
 20
-1735.8267097191231
 30
0.0
 41
0.998392263963563
 10
286.59413896553571
 20
-1735.8030300844689
 30
0.0
 41
1.0
 10
286.59391208821114
 20
-1735.8029270989873
 30
0.0
 41
1.0
 10
286.59368521088652
 20
-1735.8028241135059
 30
0.0
 41
1.0
 10
286.54106515007118
 20
-1735.7789385078884
 30
0.0
 41
0.9986517147149613
 10
286.48625217720138
 20
-1735.7606373887661
 30
0.0
 41
1.0
 10
286.48557425577525
 20
-1735.7604110423354
 30
0.0
 41
1.0
 10
286.48489633434912
 20
-1735.7601846959044
 30
0.0
 41
1.0
 10
286.42872751862632
 20
-1735.74143088392
 30
0.0
 41
0.9989435598956433
 10
286.37107413147561
 20
-1735.7279131816856
 30
0.0
 41
1.0
 10
286.36999401189314
 20
-1735.7276599314323
 30
0.0
 41
1.0
 10
286.36891389231067
 20
-1735.7274066811792
 30
0.0
 41
1.0
 10
286.30910026599724
 20
-1735.7133824784389
 30
0.0
 41
0.9992249241240493
 10
286.24836875710162
 20
-1735.7041071357239
 30
0.0
 41
1.0
 10
286.24695506880903
 20
-1735.7038912273158
 30
0.0
 41
1.0
 10
286.24554138051644
 20
-1735.7036753189077
 30
0.0
 41
1.0
 10
286.18198249503808
 20
-1735.6939681593772
 30
0.0
 41
0.9994396597833596
 10
286.11791655850243
 20
-1735.6885352370316
 30
0.0
 41
1.0
 10
286.09877589102342
 20
-1735.6869120693127
 30
0.0
 41
1.0
 10
286.07963522354441
 20
-1735.685288901594
 30
0.0
 41
1.0
 10
285.9772879520516
 20
-1735.6766096438109
 30
0.0
 41
0.9987693403120901
 10
285.87458432846427
 20
-1735.6781127072636
 30
0.0
 41
1.0
 10
285.86432999423585
 20
-1735.6782627790376
 30
0.0
 41
1.0
 10
285.85407566000748
 20
-1735.6784128508118
 30
0.0
 41
1.0
 10
285.7445198938301
 20
-1735.6800161950994
 30
0.0
 41
0.9989753644966097
 10
285.63555789381496
 20
-1735.6915192020247
 30
0.0
 41
1.0
 10
285.52659589379925
 20
-1735.7030222089497
 30
0.0
 41
0.9983190067305888
 10
285.41969708283477
 20
-1735.7270572007362
 30
0.0
 41
1.0
 10
285.41079613122741
 20
-1735.7290584792991
 30
0.0
 41
1.0
 10
285.40189517962006
 20
-1735.7310597578619
 30
0.0
 41
1.0
 10
285.27719446544006
 20
-1735.7590973067743
 30
0.0
 41
0.9985539388302731
 10
285.15622471176135
 20
-1735.8003609828204
 30
0.0
 41
1.0
 10
285.15387928080219
 20
-1735.8011610266358
 30
0.0
 41
1.0
 10
285.15153384984302
 20
-1735.8019610704514
 30
0.0
 41
1.0
 10
285.02587323424524
 20
-1735.8448248341283
 30
0.0
 41
0.9988468746493684
 10
284.90490289194616
 20
-1735.89954291919
 30
0.0
 41
1.0
 10
284.90172006995647
 20
-1735.9009825937505
 30
0.0
 41
1.0
 10
284.89853724796683
 20
-1735.9024222683108
 30
0.0
 41
1.0
 10
284.7712012616887
 20
-1735.9600197024934
 30
0.0
 41
0.9991322885919298
 10
284.64910067763105
 20
-1736.0280150346757
 30
0.0
 41
1.0
 10
284.63149866658756
 20
-1736.0378172366654
 30
0.0
 41
1.0
 10
284.61389665554407
 20
-1736.0476194386549
 30
0.0
 41
1.0
 10
284.51171997448728
 20
-1736.1045195544355
 30
0.0
 41
0.9993860037849616
 10
284.41377897041389
 20
-1736.1684355700238
 30
0.0
 41
1.0
 10
284.40816065756206
 20
-1736.1721020647183
 30
0.0
 41
1.0
 10
284.40254234471024
 20
-1736.175768559413
 30
0.0
 41
1.0
 10
284.31583796634186
 20
-1736.2323515856115
 30
0.0
 41
0.9998821494953815
 10
284.23091159052768
 20
-1736.2915698156889
 30
0.0
 41
1.0
 10
284.14598521471407
 20
-1736.3507880457664
 30
0.0
 41
0.9997976482745135
 10
284.06350958430812
 20
-1736.4133744538099
 30
0.0
 41
1.0
 10
284.04887331950476
 20
-1736.4244811435885
 30
0.0
 41
1.0
 10
284.03423705470141
 20
-1736.4355878333672
 30
0.0
 41
1.0
 10
283.9224888946884
 20
-1736.5203876209682
 30
0.0
 41
0.9998091630799418
 10
283.81413861666147
 20
-1736.6094879716688
 30
0.0
 41
1.0
 10
283.80113286418356
 20
-1736.6201830721154
 30
0.0
 41
1.0
 10
283.78812711170565
 20
-1736.630878172562
 30
0.0
 41
1.0
 10
283.6537653287246
 20
-1736.7413687241547
 30
0.0
 41
0.9995035112318003
 10
283.5266294509621
 20
-1736.8601025411683
 30
0.0
 41
1.0
 10
283.51698214057262
 20
-1736.8691122873283
 30
0.0
 41
1.0
 10
283.50733483018314
 20
-1736.8781220334884
 30
0.0
 41
1.0
 10
283.38391176741868
 20
-1736.9933884052436
 30
0.0
 41
0.9994630424299013
 10
283.26830336163613
 20
-1737.1164911484773
 30
0.0
 41
1.0
 10
283.26462052286456
 20
-1737.1204127279905
 30
0.0
 41
1.0
 10
283.26093768409294
 20
-1737.1243343075037
 30
0.0
 41
1.0
 10
283.15269495585329
 20
-1737.2395938917111
 30
0.0
 41
0.9995160693750036
 10
283.05182892632024
 20
-1737.3613613095849
 30
0.0
 41
1.0
 10
283.04989520623946
 20
-1737.3636957337931
 30
0.0
 41
1.0
 10
283.04796148615867
 20
-1737.3660301580014
 30
0.0
 41
1.0
 10
282.95096289678884
 20
-1737.4831287274569
 30
0.0
 41
0.9996561470514604
 10
282.86023667812242
 20
-1737.6051514899068
 30
0.0
 41
1.0
 10
282.85407901222322
 20
-1737.6134332789452
 30
0.0
 41
1.0
 10
282.84792134632409
 20
-1737.6217150679838
 30
0.0
 41
1.0
 10
282.76951045945736
 20
-1737.7271742523549
 30
0.0
 41
0.9998349055174363
 10
282.69498317752431
 20
-1737.8354128360193
 30
0.0
 41
1.0
 10
282.62045589559278
 20
-1737.9436514196816
 30
0.0
 41
0.9999728109570635
 10
282.54753299968831
 20
-1738.0529773452283
 30
0.0
 41
1.0
 10
282.54621778427338
 20
-1738.0549491147358
 30
0.0
 41
1.0
 10
282.54490256885845
 20
-1738.056920884243
 30
0.0
 41
1.0
 10
282.46934924213485
 20
-1738.1701903487883
 30
0.0
 41
0.9999972147363894
 10
282.3943314317824
 20
-1738.2838151915912
 30
0.0
 41
1.0
 10
282.3893598891442
 20
-1738.2913452800874
 30
0.0
 41
1.0
 10
282.38438834650606
 20
-1738.2988753685836
 30
0.0
 41
1.0
 10
282.29942745088903
 20
-1738.4275603883614
 30
0.0
 41
0.9999371979006184
 10
282.21737210148763
 20
-1738.5581173021342
 30
0.0
 41
1.0
 10
282.21386321712328
 20
-1738.5637002302033
 30
0.0
 41
1.0
 10
282.21035433275898
 20
-1738.5692831582724
 30
0.0
 41
1.0
 10
282.12128121463309
 20
-1738.7110059281767
 30
0.0
 41
0.9998272025611138
 10
282.03753782375168
 20
-1738.8559418049176
 30
0.0
 41
1.0
 10
282.02232265172597
 20
-1738.8822749193771
 30
0.0
 41
1.0
 10
282.00710747970032
 20
-1738.9086080338366
 30
0.0
 41
1.0
 10
281.89293374476955
 20
-1739.1062101394934
 30
0.0
 41
0.9995217214837894
 10
281.79119405521197
 20
-1739.3104924673596
 30
0.0
 41
1.0
 10
281.78355049257942
 20
-1739.3258399170577
 30
0.0
 41
1.0
 10
281.77590692994687
 20
-1739.3411873667555
 30
0.0
 41
1.0
 10
281.68900163735691
 20
-1739.5156838248377
 30
0.0
 41
0.9998269762607754
 10
281.60864717108268
 20
-1739.6932921115654
 30
0.0
 41
1.0
 10
281.52829270481021
 20
-1739.8709003982895
 30
0.0
 41
0.9998944747387787
 10
281.45313191024536
 20
-1740.0507681239194
 30
0.0
 41
1.0
 10
281.44817824065274
 20
-1740.0626227788405
 30
0.0
 41
1.0
 10
281.44322457106006
 20
-1740.0744774337616
 30
0.0
 41
1.0
 10
281.36257751050994
 20
-1740.2674743737732
 30
0.0
 41
0.9999506734412617
 10
281.28577998160688
 20
-1740.4620351786284
 30
0.0
 41
1.0
 10
281.27118001633897
 20
-1740.4990231004267
 30
0.0
 41
1.0
 10
281.25658005107107
 20
-1740.5360110222252
 30
0.0
 41
1.0
 10
281.20898245270166
 20
-1740.6565959834884
 30
0.0
 41
0.9999912393907219
 10
281.16239600868079
 20
-1740.7775751861802
 30
0.0
 41
1.0
 10
281.11580956465707
 20
-1740.8985543888791
 30
0.0
 41
0.9999927113995362
 10
281.07014827026222
 20
-1741.0198857963831
 30
0.0
 41
1.0
 10
281.05617983886543
 20
-1741.0570027783795
 30
0.0
 41
1.0
 10
281.04221140746864
 20
-1741.0941197603759
 30
0.0
 41
1.0
 10
280.96861325027692
 20
-1741.289685131881
 30
0.0
 41
0.9999487550947108
 10
280.8989896253056
 20
-1741.4867004970629
 30
0.0
 41
1.0
 10
280.87539601536901
 20
-1741.553463807355
 30
0.0
 41
1.0
 10
280.85180240543241
 20
-1741.6202271176469
 30
0.0
 41
1.0
 10
280.75711677106608
 20
-1741.8881609524592
 30
0.0
 41
0.9999808436924904
 10
280.66575518242155
 20
-1742.1572463837331
 30
0.0
 41
1.0
 10
280.57439359378003
 20
-1742.4263318149979
 30
0.0
 41
0.9999873932892043
 10
280.4857388850611
 20
-1742.6963211700138
 30
0.0
 41
1.0
 10
280.46564652819222
 20
-1742.7575105027654
 30
0.0
 41
1.0
 10
280.44555417132329
 20
-1742.8186998355168
 30
0.0
 41
1.0
 10
280.31671474886991
 20
-1743.2110678560255
 30
0.0
 41
0.9999794883024707
 10
280.1929119639089
 20
-1743.6050540623123
 30
0.0
 41
1.0
 10
280.18175970447788
 20
-1743.6405446725289
 30
0.0
 41
1.0
 10
280.17060744504687
 20
-1743.6760352827453
 30
0.0
 41
1.0
 10
280.02804928113966
 20
-1744.1297080348627
 30
0.0
 41
0.9999982761773297
 10
279.88717684112078
 20
-1744.5839070569971
 30
0.0
 41
1.0
 10
278.29903650854817
 20
-1749.6326767880005
 30
0.0
 41
1.0
 10
276.71089617597556
 20
-1754.6814465190037
 30
0.0
 41
1.0
 10
275.76214556449918
 20
-1754.6814465190037
 30
0.0
 41
1.0
 10
274.81339495302279
 20
-1754.6814465190037
 30
0.0
 41
1.0
 10
278.05167943917598
 20
-1744.3541243190575
 30
0.0
 41
1.0
 10
281.28996392532918
 20
-1734.0268021191114
 30
0.0
 41
1.0
  0
LWPOLYLINE
  5
54
100
AcDbEntity
  8
0
370
              15
390
0
  6
Continuous
 62
               7
100
AcDbPolyline
 90
      232
 70
             128
 10
255.58641815150213
 20
-1735.1111449506266
 42
0.0004370800699896
 10
255.53354097743465
 20
-1735.1798115898769
 10
255.49425674630265
 20
-1735.2309187027795
 42
0.0030481992178767
 10
255.36391802917927
 20
-1735.4026403951293
 10
255.32540635743305
 20
-1735.4540271789117
 42
0.0042058245765716
 10
255.12142130674854
 20
-1735.7310329240058
 10
255.06901618426252
 20
-1735.8034657707663
 42
0.0120948898743726
 10
254.7729722675013
 20
-1736.2342153753148
 10
254.67677976838183
 20
-1736.3816961105358
 42
0.0141601263945277
 10
254.37313572145717
 20
-1736.8773654472755
 10
254.33359845402725
 20
-1736.9462094147141
 42
0.0071131081301018
 10
254.1283261307928
 20
-1737.3157122135453
 42
0.0068458791001937
 10
253.93344660395204
 20
-1737.690803777017
 10
253.92663474149197
 20
-1737.7043654907452
 42
0.0064120880291723
 10
253.72849249144531
 20
-1738.111789965669
 10
253.72095780593065
 20
-1738.1278018223852
 42
0.0058857236447434
 10
253.51820241406409
 20
-1738.5721779334085
 10
253.510027487765
 20
-1738.5906680870542
 42
0.0053189741897644
 10
253.30132317509981
 20
-1739.0766315609665
 10
253.29257536941611
 20
-1739.0976134391681
 42
0.0047503650418799
 10
253.07660164326123
 20
-1739.6298128723884
 10
253.06733339491728
 20
-1739.6532892484856
 42
0.0042071762171308
 10
252.84278601119178
 20
-1740.2363828425493
 10
252.83303660884087
 20
-1740.2623490174251
 42
0.0036680086486226
 10
252.59858196552841
 20
-1740.9009844019577
 10
252.588374185681
 20
-1740.9294329363011
 42
0.0032573142628552
 10
252.34274189972064
 20
-1741.6282855960362
 10
252.27409137887864
 20
-1741.8277486800928
 42
0.0026133366647439
 10
251.92564618011562
 20
-1742.8576119637792
 10
251.86238939261321
 20
-1743.0478427991775
 42
0.0020592950742698
 10
251.64852632364784
 20
-1743.6999464517853
 10
251.64547453248133
 20
-1743.7093829402056
 42
0.0025609928535282
 10
251.44365403099891
 20
-1744.3445281625609
 10
251.44106266387209
 20
-1744.3528305035018
 42
0.0031362356242265
 10
251.25157187819531
 20
-1744.973593359681
 10
251.24944083526776
 20
-1744.9807346658924
 42
0.0037229918029042
 10
251.07264044834153
 20
-1745.5897199678661
 10
251.07096185913878
 20
-1745.5956668580275
 42
0.0043077623705253
 10
250.90722105707005
 20
-1746.1954855898098
 42
0.004765416182353
 10
250.75439233455509
 20
-1746.7981716787076
 10
250.71992772571497
 20
-1746.9397334558616
 42
0.0112969368446788
 10
250.5240633675713
 20
-1747.8314256164863
 10
250.49605697847471
 20
-1747.9742536625838
 42
0.0130056762570132
 10
250.29521973482809
 20
-1749.1611947342287
 10
250.27467998468086
 20
-1749.3052728477069
 42
0.0138721532144856
 10
250.17097698014311
 20
-1750.2121023335314
 10
250.15168149223521
 20
-1750.4356000554567
 42
0.0071254697009693
 10
250.11833484631262
 20
-1750.8987870643036
 10
250.11337387214974
 20
-1750.9847910588569
 42
0.0028881799204303
 10
250.09823557885949
 20
-1751.2765327687066
 42
0.0060297297135883
 10
250.08830337908404
 20
-1751.5684817048193
 10
250.08724109741689
 20
-1751.6168740767532
 42
0.0229523164154797
 10
250.09497212520262
 20
-1751.9396289230381
 10
250.09919789872308
 20
-1752.0000324570553
 42
0.0123673300664957
 10
250.11827654524132
 20
-1752.2011531822291
 42
0.0128577674470473
 10
250.14747193564759
 20
-1752.4010510321557
 10
250.15459780903461
 20
-1752.4423798467528
 42
0.0285717853761982
 10
250.21909181073019
 20
-1752.7204959980654
 10
250.23276033439691
 20
-1752.7671507675436
 42
0.0316283099159094
 10
250.34857091431098
 20
-1753.0861652693691
 10
250.35161960606672
 20
-1753.0931516416952
 42
0.033898482424219
 10
250.50105131703367
 20
-1753.3807176058838
 10
250.50336004640315
 20
-1753.3845086351591
 42
0.0350228718348885
 10
250.6857203370771
 20
-1753.6415606198366
 10
250.68660558885205
 20
-1753.6426396976005
 42
0.0347476747527508
 10
250.90103027609223
 20
-1753.8698247448206
 42
0.0331337701908748
 10
251.14427360183888
 20
-1754.0659534068984
 10
251.14537370035475
 20
-1754.0667261100707
 42
0.0305233319079796
 10
251.41391839592831
 20
-1754.231854280162
 10
251.41714844042934
 20
-1754.2335782920245
 42
0.027374448115374
 10
251.70970215200356
 20
-1754.3697164359151
 10
251.71480668714116
 20
-1754.3717600203847
 42
0.0240964406198594
 10
252.03028376278778
 20
-1754.4807437466661
 10
252.03686709199684
 20
-1754.482668486341
 42
0.0209636179817156
 10
252.37426724465462
 20
-1754.5661366342742
 10
252.38189970509814
 20
-1754.5676885472747
 42
0.0181388704692498
 10
252.74022209709358
 20
-1754.6271046404881
 10
252.74850294547474
 20
-1754.6281708243057
 42
0.0156086547588542
 10
253.12669030966782
 20
-1754.6649070108826
 10
253.1698855619868
 20
-1754.6677455133611
 42
0.0137148329022296
 10
253.4975587072895
 20
-1754.6802657686126
 10
253.54349489722301
 20
-1754.6807602017277
 42
0.0051057823883444
 10
253.77964048380773
 20
-1754.6808904561371
 42
0.0052256693308471
 10
254.0157377675886
 20
-1754.6761416316729
 10
254.08596455133579
 20
-1754.6739946656587
 42
0.0161507179049747
 10
254.46170162944244
 20
-1754.6503442953317
 10
254.48171458981011
 20
-1754.6484341000446
 42
0.0101216737832959
 10
254.89574181130138
 20
-1754.600441169679
 10
254.92979510072757
 20
-1754.5957934728694
 42
0.0245291776398453
 10
255.40658475627643
 20
-1754.5067183947936
 10
255.49140807180191
 20
-1754.4865224744474
 42
0.0143509212561921
 10
255.84803917574231
 20
-1754.3907178406685
 42
0.0156557857040073
 10
256.19825524046712
 20
-1754.2737066248505
 10
256.20575645496422
 20
-1754.2709364630955
 42
0.0170137333630954
 10
256.56235245064607
 20
-1754.1252788482243
 10
256.56945637305307
 20
-1754.1220910126608
 42
0.0183105364406758
 10
256.92880604121569
 20
-1753.9447559708385
 10
256.9357528058581
 20
-1753.9410055359645
 42
0.0194899958151978
 10
257.29423354684508
 20
-1753.7290265540717
 10
257.3012474261788
 20
-1753.7245012117787
 42
0.0204869852947347
 10
257.65526172827327
 20
-1753.4749811966924
 10
257.66252733685974
 20
-1753.4694011313445
 42
0.0212516938552665
 10
258.00851726796566
 20
-1753.1794971344518
 10
258.05503396204375
 20
-1753.1370298243557
 42
0.0215248918254068
 10
258.31506013093104
 20
-1752.8782655453615
 10
258.36008986530942
 20
-1752.8294214240143
 42
0.011457855495523
 10
258.514882018989
 20
-1752.6535984905536
 10
258.52607655497684
 20
-1752.6402797270068
 42
0.0061531305122561
 10
258.65255120097004
 20
-1752.4859901937025
 42
0.0006325587124359
 10
258.77692968515032
 20
-1752.3299868179906
 10
258.79996982017332
 20
-1752.3010132973673
 42
0.0041897761559556
 10
258.9684252241629
 20
-1752.0854939212836
 10
259.02688734403819
 20
-1752.0093925743204
 42
0.0092993880037812
 10
259.30349927126412
 20
-1751.6351138104333
 10
259.3858937644606
 20
-1751.519176806868
 42
0.015932172708589
 10
259.73250024710319
 20
-1750.9970025861116
 10
259.77685638248892
 20
-1750.9253230218671
 42
0.0085547317021829
 10
260.01136814781802
 20
-1750.531448072637
 42
0.0084601156891043
 10
260.23234432526164
 20
-1750.129821223602
 10
260.24045979909044
 20
-1750.1144615413318
 42
0.0081429654285546
 10
260.46370906953109
 20
-1749.6747400287848
 10
260.47256923371197
 20
-1749.6565611867718
 42
0.0076574581327626
 10
260.6989767442775
 20
-1749.1733783115212
 10
260.70845638500236
 20
-1749.1523138332154
 42
0.0070682724201081
 10
260.93890129281209
 20
-1748.6202765284274
 10
260.94889157679086
 20
-1748.5962873394228
 42
0.0064559514446952
 10
261.18422478497075
 20
-1748.0099750729082
 10
261.19463414313753
 20
-1747.9830401474615
 42
0.0058311413905113
 10
261.4356808799015
 20
-1747.3370080530747
 10
261.4464359572878
 20
-1747.3071237119175
 42
0.0052312425818526
 10
261.69401723532923
 20
-1746.5959212980811
 10
261.70506107170849
 20
-1746.563094586013
 42
0.0046680544796886
 10
261.95998949943805
 20
-1745.7812682702736
 10
262.0019816494862
 20
-1745.6482850329671
 42
0.0041666856446806
 10
262.20526766188146
 20
-1744.9853162579607
 10
262.24293010254553
 20
-1744.8587351503061
 42
0.0015170975158921
 10
262.36411668095832
 20
-1744.4468667988133
 42
-0.0004887993117879
 10
262.4844564540594
 20
-1744.034748386847
 10
262.56093371157652
 20
-1743.7737910008302
 42
0.0002583378929194
 10
262.83414828169435
 20
-1742.8397342974679
 10
262.91592113124699
 20
-1742.5596350379665
 42
0.0006636169673616
 10
263.10978889122873
 20
-1741.8922821144811
 10
263.11488554557593
 20
-1741.8746505316005
 42
0.0010589131322803
 10
263.29633424649239
 20
-1741.2419191885522
 10
263.30131631697594
 20
-1741.2244062815214
 42
0.0015655524461926
 10
263.46958652415566
 20
-1740.6257896023312
 10
263.47441672456472
 20
-1740.6083974434168
 42
0.0021640440476421
 10
263.62870669655666
 20
-1740.0433704253774
 10
263.63334091598864
 20
-1740.0261056953759
 42
0.0028763871851399
 10
263.77285663403956
 20
-1739.4941377445364
 10
263.77724249820426
 20
-1739.4770137663918
 42
0.0037310511946105
 10
263.90119919004366
 20
-1738.9775661723579
 10
263.90527441033197
 20
-1738.9606059011155
 42
0.0047652197768551
 10
264.01289831084114
 20
-1738.4931281328074
 10
264.01658891016353
 20
-1738.4763685776618
 42
0.0060276699302046
 10
264.10711900931818
 20
-1738.0402927825132
 10
264.11033769960682
 20
-1738.0237915682067
 42
0.0075824337755452
 10
264.18302700902279
 20
-1737.6185244037779
 10
264.18567238640344
 20
-1737.6023694563251
 42
0.0095130624607684
 10
264.23978762203427
 20
-1737.2272801032555
 10
264.24677384591678
 20
-1737.1713465451396
 42
0.0121054653231296
 10
264.27336517649474
 20
-1736.9064507166652
 10
264.27423166625425
 20
-1736.8950472737361
 42
0.0069050827391696
 10
264.28932048429198
 20
-1736.6521060468917
 10
264.29045578396051
 20
-1736.628579789847
 42
0.0169063976694382
 10
264.29328306294082
 20
-1736.4323870625462
 10
264.29211241140951
 20
-1736.3720513011951
 42
0.0052007732904695
 10
264.28985896281654
 20
-1736.2964579110451
 42
0.0054038123300128
 10
264.26989545097712
 20
-1736.1764396150318
 10
264.26480959510724
 20
-1736.147781128454
 42
0.0112050460469857
 10
264.22942523304886
 20
-1735.9714546901155
 10
264.21160027100808
 20
-1735.891913103394
 42
0.0240764468009323
 10
264.12070290486173
 20
-1735.5616760678924
 10
264.1021441420483
 20
-1735.5050559028987
 42
0.0256812331832772
 10
263.95878122185894
 20
-1735.1333316966418
 10
263.9533717960374
 20
-1735.1212003616517
 42
0.0268360501217154
 10
263.78394455518765
 20
-1734.7902072276311
 10
263.7784081475524
 20
-1734.7806875573183
 42
0.0274670231727127
 10
263.58620717113928
 20
-1734.4884001824016
 10
263.58082587117707
 20
-1734.4811210348607
 42
0.0275035967099969
 10
263.36925299161481
 20
-1734.2256051445561
 10
263.3641834906482
 20
-1734.2201260569254
 42
0.0269557673524112
 10
263.13677994720871
 20
-1733.9994837709633
 10
263.13203688942622
 20
-1733.9953538165025
 42
0.0259124802211692
 10
262.89248205799532
 20
-1733.8076632893503
 10
262.88795121281305
 20
-1733.8044777870198
 42
0.0245162153002789
 10
262.64003485971864
 20
-1733.6477447779093
 10
262.63550831339336
 20
-1733.6451845807078
 42
0.0229282588835239
 10
262.38308875656708
 20
-1733.5173163882096
 10
262.37830826273046
 20
-1733.5151640884476
 42
0.0212984135689952
 10
262.1252703102686
 20
-1733.4139651712053
 10
262.1199660252995
 20
-1733.4121016084455
 42
0.0197555462339763
 10
261.87018768757611
 20
-1733.3352861904805
 42
0.0183511896784413
 10
261.61525896211407
 20
-1733.2777032835154
 10
261.52889376538837
 20
-1733.2615004931299
 42
0.0338057877153208
 10
261.24338641612962
 20
-1733.2276920879899
 10
261.15238101108002
 20
-1733.2231124327282
 42
0.0091990524511173
 10
261.04653390245369
 20
-1733.2197365768063
 42
0.0028333980782356
 10
260.94061998644816
 20
-1733.2189084692895
 10
260.93970453341143
 20
-1733.2189064994654
 42
-0.0023619827798988
 10
260.8319585182918
 20
-1733.2181656583871
 10
260.79555334812966
 20
-1733.2177433519241
 42
0.0008824598480737
 10
260.61499735834502
 20
-1733.2159675736864
 10
260.57113592587382
 20
-1733.2156136121603
 42
0.0038132665772496
 10
260.30285302999027
 20
-1733.2154946760936
 10
260.28631937520151
 20
-1733.2156134422371
 42
0.0060665569331839
 10
259.98503888361569
 20
-1733.2214337416576
 10
259.97078855158486
 20
-1733.2218820496255
 42
0.0080356953338043
 10
259.64132983524343
 20
-1733.2375497716926
 10
259.62925982015838
 20
-1733.2383183546328
 42
0.0098996399105714
 10
259.27649673550496
 20
-1733.2678035838312
 10
259.26645102613281
 20
-1733.2688438800292
 42
0.0117740981366607
 10
258.89529416779072
 20
-1733.3161361275581
 10
258.88707147130151
 20
-1733.3173812441298
 42
0.0137435215136475
 10
258.50248265181278
 20
-1733.3864782176922
 10
258.49582561269307
 20
-1733.3878641139249
 42
0.0158359869387304
 10
258.10282851888547
 20
-1733.4827562024072
 10
258.09741533202344
 20
-1733.4842461432763
 42
0.0180554124024867
 10
257.70110028741379
 20
-1733.608884159514
 10
257.69654349932762
 20
-1733.6105001957812
 42
0.0203657431282924
 10
257.30206598151699
 20
-1733.7687605372969
 10
257.29792244250893
 20
-1733.7706221587391
 42
0.022681968465528
 10
256.91048638630713
 20
-1733.9662647374089
 10
256.90628659528716
 20
-1733.9686303293297
 42
0.0248634984605205
 10
256.53110465410697
 20
-1734.2052569752764
 10
256.48290972532436
 20
-1734.2391140171012
 42
0.026704419088118
 10
256.20861702840546
 20
-1734.4545543929707
 42
0.0139303002197845
 10
255.95244986246522
 20
-1734.6917932338843
 10
255.94759647674573
 20
-1734.6965458967429
 42
0.0283460963441728
 10
255.70352388251911
 20
-1734.9642765571873
 10
255.66385537736198
 20
-1735.0130781346611
 42
0.0070695364826334
 10
255.58641815150213
 20
-1735.1111449506266
 42
0.0070695364826334
  0
LWPOLYLINE
  5
55
100
AcDbEntity
  8
0
370
              15
390
0
  6
Continuous
 62
               7
100
AcDbPolyline
 90
      226
 70
             128
 10
252.05759771425573
 20
-1750.8327337568105
 42
-0.0026277636627654
 10
252.05751983045565
 20
-1750.7659618310731
 10
252.05773718868772
 20
-1750.7128066136243
 42
-0.0088680296728258
 10
252.06151380498073
 20
-1750.5397908312227
 10
252.06386016409323
 20
-1750.4805108057676
 42
-0.0077381705613011
 10
252.07990627485628
 20
-1750.1892503099705
 10
252.08077418602943
 20
-1750.1769620762843
 42
-0.0068872530530464
 10
252.10740626577709
 20
-1749.8617403242204
 10
252.10861048996367
 20
-1749.8494993451968
 42
-0.0062130021489587
 10
252.14620420679134
 20
-1749.5106296539593
 10
252.14770811032662
 20
-1749.4984557820417
 42
-0.0056726929664555
 10
252.19662996982868
 20
-1749.1362605599295
 10
252.19840341547331
 20
-1749.1241667596828
 42
-0.0052341884495193
 10
252.25901400173433
 20
-1748.7389735041588
 10
252.26103199050993
 20
-1748.7269685741726
 42
-0.0049768450167085
 10
252.33377067193621
 20
-1748.3191240067404
 10
252.35801968665805
 20
-1748.1905760237341
 42
-0.0089029805626373
 10
252.49510053845285
 20
-1747.5288005763114
 10
252.52784591377133
 20
-1747.3837691457882
 42
-0.0080318257099998
 10
252.75739452811047
 20
-1746.4380595139405
 10
252.76937945456029
 20
-1746.3919288787442
 42
-0.0074265721317114
 10
253.05339099341109
 20
-1745.3618643003608
 10
253.0732705365277
 20
-1745.2937302397718
 42
-0.0069711922702265
 10
253.40057511503358
 20
-1744.2274624994466
 10
253.46052706213661
 20
-1744.0414411410836
 42
-0.0052070422895357
 10
253.6899522873984
 20
-1743.3541690640445
 10
253.70723347957764
 20
-1743.3041417834072
 42
-0.0009167004449377
 10
253.91032536686004
 20
-1742.7196859352734
 42
-0.00251627269436
 10
254.11742299712387
 20
-1742.1366446711072
 10
254.15464760892235
 20
-1742.033495125221
 42
-0.0028212681457041
 10
254.40282352789114
 20
-1741.3577644930342
 10
254.41265429064191
 20
-1741.3314570483572
 42
-0.0031964916820199
 10
254.64894654830414
 20
-1740.7112522862305
 10
254.65858100230912
 20
-1740.6864422960718
 42
-0.0036281836449804
 10
254.88368696340433
 20
-1740.1190016151941
 10
254.89312537356051
 20
-1740.0957041836944
 42
-0.0041269166833774
 10
255.10774307022098
 20
-1739.5782632877131
 10
255.14037602664109
 20
-1739.5013848413535
 42
-0.0047472213056535
 10
255.29742083219537
 20
-1739.1409633734686
 10
255.30431491340403
 20
-1739.1255427761355
 42
-0.0025651659995477
 10
255.45267294725375
 20
-1738.7982147203882
 42
-0.0057144634995133
 10
255.60642264102142
 20
-1738.4734050470331
 10
255.63445334643177
 20
-1738.4158966646203
 42
-0.0065388068371079
 10
255.81792037416608
 20
-1738.0516641679665
 10
255.82637882994106
 20
-1738.0354045886038
 42
-0.0074510843024573
 10
256.00256107582243
 20
-1737.7087163074743
 10
256.01074074635397
 20
-1737.6940755302046
 42
-0.0084648979857542
 10
256.1803745994535
 20
-1737.4021665192442
 10
256.18823072594057
 20
-1737.389159527595
 42
-0.0095638542806552
 10
256.35206617353583
 20
-1737.1292706556148
 10
256.35954111720622
 20
-1737.1179012941616
 42
-0.0107191626807407
 10
256.51834269759513
 20
-1736.8872900596152
 10
256.52535943132477
 20
-1736.8775539672524
 42
-0.0118458573901437
 10
256.67990752983872
 20
-1736.67348177194
 42
-0.01291845181943
 10
256.8443601534405
 20
-1736.4773212557695
 10
256.87450492580547
 20
-1736.4431951768679
 42
-0.0217742579635987
 10
257.05111724813872
 20
-1736.2599884066199
 10
257.06186279259754
 20
-1736.2497715734185
 42
-0.0097266568649071
 10
257.22792041145482
 20
-1736.0979239989797
 42
-0.0187720905718792
 10
257.40226798734295
 20
-1735.9558551455916
 10
257.43297397802138
 20
-1735.9326960631922
 42
-0.0179428207516794
 10
257.66539469801467
 20
-1735.7701438860827
 10
257.6690470249282
 20
-1735.7677799511964
 42
-0.0170047877701169
 10
257.90481066246082
 20
-1735.6263194370435
 10
257.90859365120571
 20
-1735.6242211320082
 42
-0.0160190788370783
 10
258.14550219884268
 20
-1735.5025698300192
 42
-0.0151102861491331
 10
258.38953398129388
 20
-1735.3958870539625
 10
258.44192048350112
 20
-1735.3748469210698
 42
-0.0271945441887868
 10
258.80058304255982
 20
-1735.2529821103637
 10
258.86964784304445
 20
-1735.2336325690983
 42
-0.0237596594022794
 10
259.28544469006994
 20
-1735.1381818571158
 10
259.35350754379959
 20
-1735.1259271689892
 42
-0.0213715440551974
 10
259.63938247524567
 20
-1735.0869801374793
 10
259.69952964145915
 20
-1735.0813904227789
 42
-0.010146565582194
 10
259.86702217345783
 20
-1735.0692468795141
 10
259.87636255966089
 20
-1735.0687599645166
 42
-0.0100375910872739
 10
260.02551666021861
 20
-1735.0639841465918
 10
260.03577592989365
 20
-1735.0638617075774
 42
-0.0103625633384912
 10
260.16448392455385
 20
-1735.064993141104
 10
260.18674957582101
 20
-1735.0656504995688
 42
-0.0115689250225262
 10
260.27080031334867
 20
-1735.0700800058139
 42
-0.0072438037423673
 10
260.35463859279002
 20
-1735.0776692055636
 10
260.37143910226064
 20
-1735.0794357482876
 42
-0.0217917313141728
 10
260.48800886557262
 20
-1735.0968556410085
 10
260.55360895614291
 20
-1735.1096022494235
 42
-0.033294355675367
 10
260.75800112116934
 20
-1735.1636425407301
 10
260.78817368972022
 20
-1735.1738106178489
 42
-0.0184824084795942
 10
260.92667874618479
 20
-1735.226261633235
 42
-0.0198002050688251
 10
261.06075308668278
 20
-1735.2891456934337
 10
261.06263972406106
 20
-1735.2901234803144
 42
-0.0212242342974919
 10
261.19477866646571
 20
-1735.3658862191091
 10
261.19659396200649
 20
-1735.3670320213159
 42
-0.0226090605805249
 10
261.3250978632268
 20
-1735.4565116648794
 10
261.3269423049656
 20
-1735.4579239178679
 42
-0.0238457052231654
 10
261.4501243862598
 20
-1735.5619198137313
 10
261.4520771148176
 20
-1735.5637346914964
 42
-0.0248160564150663
 10
261.56827862211901
 20
-1735.6830092927059
 10
261.57038225552031
 20
-1735.6853946264096
 42
-0.0254109591452397
 10
261.67798747338662
 20
-1735.8206830123743
 10
261.68023549530034
 20
-1735.8238245607745
 42
-0.0255528488296537
 10
261.77768217409681
 20
-1735.9758516150075
 10
261.78001327401358
 20
-1735.9799332266161
 42
-0.025214679321535
 10
261.86579430002359
 20
-1736.1494354726151
 10
261.86809653918033
 20
-1736.1546175545261
 42
-0.024426563595034
 10
261.94075123294152
 20
-1736.3423641265717
 10
261.94999763441029
 20
-1736.3702295449107
 42
-0.023131961290886
 10
261.99592041340225
 20
-1736.5335305917122
 42
-0.0112130424362815
 10
262.03055643594041
 20
-1736.6997341919002
 10
262.03175896105296
 20
-1736.7062307787883
 42
-0.0210527881239667
 10
262.05744543642373
 20
-1736.8872864242285
 10
262.06095603124567
 20
-1736.9226919727766
 42
-0.0190029892425032
 10
262.07639750479024
 20
-1737.1762278190483
 10
262.07720748123427
 20
-1737.2117034334178
 42
-0.0137974553662288
 10
262.0756586283988
 20
-1737.5367348401478
 10
262.07481317344309
 20
-1737.5628535847466
 42
-0.0081336634216506
 10
262.05995383822062
 20
-1737.8682010523435
 42
-0.0073526923566589
 10
262.03564530484641
 20
-1738.1729492966247
 10
262.03438388106326
 20
-1738.1862859712946
 42
-0.0066886138691735
 10
261.99864829501672
 20
-1738.5168720147922
 10
261.99699120554686
 20
-1738.5304936337834
 42
-0.0061359187358469
 10
261.94914060349663
 20
-1738.887257613879
 10
261.94710310242311
 20
-1738.9011524167126
 42
-0.0056698610067647
 10
261.88645277165665
 20
-1739.284430985547
 10
261.884047338333
 20
-1739.2985901047814
 42
-0.0052721077271508
 10
261.80991513753469
 20
-1739.7087174444525
 10
261.80715198869166
 20
-1739.7231340798453
 42
-0.0049289272178572
 10
261.71885787059188
 20
-1740.1604425909663
 10
261.71574537590908
 20
-1740.1751114437834
 42
-0.0047415956709127
 10
261.61250738437775
 20
-1740.6399082011894
 10
261.57773917401698
 20
-1740.7897152965772
 42
-0.0084404470902779
 10
261.3877227304452
 20
-1741.549939321108
 10
261.38159604245948
 20
-1741.5728034452618
 42
-0.0039635940257712
 10
261.16014235817471
 20
-1742.3737923095116
 10
261.14676556299594
 20
-1742.4207239261009
 42
-0.0072475040837433
 10
260.87931867513356
 20
-1743.3099436424891
 10
260.80910634830758
 20
-1743.5316839924569
 42
-0.0051345458829343
 10
260.52234697624658
 20
-1744.4060091802744
 10
260.50082070947462
 20
-1744.4694354474175
 42
-0.0019150016601562
 10
260.24528730261238
 20
-1745.2129845676304
 10
260.2388196982215
 20
-1745.2315720325362
 42
-0.0021524362752107
 10
259.99034164715232
 20
-1745.93589785426
 10
259.98113122646146
 20
-1745.9616514325458
 42
-0.0024331286822239
 10
259.74487596741989
 20
-1746.6122507406794
 10
259.73582801486504
 20
-1746.6367940470454
 42
-0.0027449721789486
 10
259.51121344403396
 20
-1747.2359239259583
 10
259.50232343664874
 20
-1747.2592465157923
 42
-0.0031083229769695
 10
259.28878095003176
 20
-1747.8091705533902
 10
259.28004481836012
 20
-1747.8312602692381
 42
-0.0035311343282856
 10
259.07700363276439
 20
-1748.3342433949781
 10
259.06841829361719
 20
-1748.3550861184872
 42
-0.0040245640950653
 10
258.87530648982226
 20
-1748.813395441081
 10
258.8668703762259
 20
-1748.8329748091376
 42
-0.0046015135852065
 10
258.68311408305544
 20
-1749.2488798387951
 10
258.67482790522757
 20
-1749.2671769782462
 42
-0.0052768638269526
 10
258.49985038627159
 20
-1749.6429498625175
 10
258.49171817564098
 20
-1749.6599432010685
 42
-0.0060672675643175
 10
258.32493856287869
 20
-1749.997858824175
 10
258.31696908240002
 20
-1750.0135240831667
 42
-0.0069904648872964
 10
258.15780068839564
 20
-1750.3158598898358
 10
258.15000928878874
 20
-1750.330170439056
 42
-0.0080637022768429
 10
257.99785742843898
 20
-1750.5992057422163
 10
257.99026839580534
 20
-1750.6121336078211
 42
-0.0093006455663603
 10
257.84452771927624
 20
-1750.8501480063201
 10
257.83717705253389
 20
-1750.8616659754912
 42
-0.0107060778053293
 10
257.69722850909415
 20
-1751.0709362928724
 10
257.69016674081558
 20
-1751.0810218354368
 42
-0.012272311141198
 10
257.55537302261638
 20
-1751.2638151649271
 10
257.55504679905943
 20
-1751.2642355527405
 42
-0.014183631962424
 10
257.41146519608827
 20
-1751.4388053105663
 10
257.40451744044066
 20
-1751.4467803108262
 42
-0.01759574772131
 10
257.26461127240162
 20
-1751.596401199236
 42
-0.008046635967656
 10
257.11714750736888
 20
-1751.7387237273895
 10
257.07111296285393
 20
-1751.7817441654784
 42
-0.0269600260390667
 10
256.81783271687198
 20
-1751.994067423987
 10
256.75126558057406
 20
-1752.0440188386115
 42
-0.0178362839752201
 10
256.51132109091816
 20
-1752.2110367648638
 10
256.5040761199171
 20
-1752.2157052770692
 42
-0.017465073264773
 10
256.26773992247644
 20
-1752.3565662420278
 42
-0.0169240130166213
 10
256.02227367661931
 20
-1752.480858501805
 10
255.9762875210609
 20
-1752.5022204573725
 42
-0.0318883036840371
 10
255.62593666544004
 20
-1752.6385587668829
 10
255.55757113027681
 20
-1752.6602593873579
 42
-0.02844359099032
 10
255.18152100398515
 20
-1752.7564768228326
 10
255.14636284348694
 20
-1752.763370418661
 42
-0.0243909341016071
 10
254.83291938256764
 20
-1752.8090914496913
 10
254.78263865580038
 20
-1752.8139369965927
 42
-0.0196639292932174
 10
254.56704307826925
 20
-1752.8261852821065
 10
254.51521900710085
 20
-1752.8270885428433
 42
-0.0100501510681383
 10
254.40279572544154
 20
-1752.8267881444901
 10
254.37113586410578
 20
-1752.8260670726052
 42
-0.0019752031100572
 10
254.3220435274161
 20
-1752.8247549123953
 10
254.31928322420075
 20
-1752.8246702205693
 42
0.0065378752003377
 10
254.2757066494392
 20
-1752.8239033293539
 42
-0.0167974694653648
 10
254.23217582650855
 20
-1752.8222434308279
 10
254.2280964872453
 20
-1752.8219504199328
 42
-0.0081283276279524
 10
254.17653668950535
 20
-1752.817403426295
 10
254.16479711562823
 20
-1752.8161755087167
 42
-0.0126703440172962
 10
254.09007881983686
 20
-1752.8064407176457
 10
254.06729095215798
 20
-1752.80288246173
 42
-0.011785208844391
 10
253.94775196632924
 20
-1752.7813194665734
 10
253.89237151456257
 20
-1752.7699759263382
 42
-0.0251774592291915
 10
253.66552747555446
 20
-1752.7114779169053
 10
253.62080828570396
 20
-1752.6975110975702
 42
-0.0146525199882106
 10
253.43441529816516
 20
-1752.633244570372
 42
-0.0166929435859649
 10
253.25243764204117
 20
-1752.5574374373184
 10
253.24778101076532
 20
-1752.5553125367032
 42
-0.0191684358434346
 10
253.06259737951407
 20
-1752.462076452912
 10
253.05926479375916
 20
-1752.4602352053598
 42
-0.0221181781811771
 10
252.87595448985687
 20
-1752.3481017069892
 10
252.87360468584848
 20
-1752.3465174089981
 42
-0.0254984685388266
 10
252.69731453546441
 20
-1752.2141062590294
 10
252.67483238775949
 20
-1752.1953539500907
 42
-0.0292492648802082
 10
252.55006344891819
 20
-1752.0782611504492
 42
-0.0159048957495962
 10
252.43622345146773
 20
-1751.9502411588498
 10
252.43490466088878
 20
-1751.9486595458302
 42
-0.0343813379562399
 10
252.33226739926269
 20
-1751.806788220061
 10
252.30077586790193
 20
-1751.756284827967
 42
-0.0369117275700316
 10
252.21488336600441
 20
-1751.5928075870181
 42
-0.0191751379910727
 10
252.14768998044761
 20
-1751.4204029810128
 10
252.14592665668789
 20
-1751.4153096363373
 42
-0.0378178042228367
 10
252.09613193790358
 20
-1751.2263688602554
 10
252.09013664217318
 20
-1751.1938082420577
 42
-0.018484604647981
 10
252.069419442879
 20
-1751.0520554215141
 42
-0.0179866351324124
 10
252.05908643780529
 20
-1750.9091646084328
 10
252.05902999535954
 20
-1750.9076069218204
 42
-0.0085497186109001
 10
252.05759771425573
 20
-1750.8327337568105
 42
-0.0085497186109001
  0
ENDBLK
  5
56
100
AcDbEntity
  8
template
390
0
100
AcDbBlockEnd
  0
BLOCK
  5
57
100
AcDbEntity
  8
notes
390
0
100
AcDbBlockBegin
  2
*D3
 70
               1
 10
0.0
 20
0.0
 30
0.0
  3
*D3
  1

  0
LINE
  5
58
100
AcDbEntity
  8
0
370
              -2
390
0
  6
Continuous
 62
               0
100
AcDbLine
 10
-648.2850642805621
 20
612.40286694587019
 30
0.0
 11
-648.2850642805621
 21
824.90286694587007
 31
0.0
  0
LINE
  5
59
100
AcDbEntity
  8
0
370
              -2
390
0
  6
Continuous
 62
               0
100
AcDbLine
 10
-323.27710957536112
 20
612.40286694587019
 30
0.0
 11
-323.27710957536112
 21
824.90286694587007
 31
0.0
  0
LINE
  5
5A
100
AcDbEntity
  8
0
370
              -2
390
0
  6
Continuous
 62
               0
100
AcDbLine
 10
-648.2850642805621
 20
824.90286694587007
 30
0.0
 11
-323.27710957536112
 21
824.90286694587007
 31
0.0
  0
CIRCLE
  5
5B
102
{ACAD_REACTORS
330
5C
102
}
100
AcDbEntity
  8
0
370
              -2
390
0
  6
Continuous
 62
               0
100
AcDbCircle
 10
-648.2850642805621
 20
824.90286694587007
 30
0.0
 40
4.99969482421875
  0
HATCH
  5
5C
100
AcDbEntity
  8
0
370
              -2
390
0
  6
Continuous
 62
               0
100
AcDbHatch
 10
0.0
 20
0.0
 30
0.0
210
0.0
220
0.0
230
1.0
  2
SOLID
 70
               1
 71
               1
 91
        1
 92
        1
 93
        1
 72
               2
 10
-648.2850642805621
 20
824.90286694587007
 40
4.99969482421875
 50
0.0
 51
360.0
 73
               0
 97
        1
330
5B
 75
               0
 76
               1
 98
        1
 10
0.0
 20
0.0
  0
CIRCLE
  5
5D
102
{ACAD_REACTORS
330
5E
102
}
100
AcDbEntity
  8
0
370
              -2
390
0
  6
Continuous
 62
               0
100
AcDbCircle
 10
-323.27710957536112
 20
824.90286694587007
 30
0.0
 40
4.99969482421875
  0
HATCH
  5
5E
100
AcDbEntity
  8
0
370
              -2
390
0
  6
Continuous
 62
               0
100
AcDbHatch
 10
0.0
 20
0.0
 30
0.0
210
0.0
220
0.0
230
1.0
  2
SOLID
 70
               1
 71
               1
 91
        1
 92
        1
 93
        1
 72
               2
 10
-323.27710957536112
 20
824.90286694587007
 40
4.99969482421875
 50
0.0
 51
360.0
 73
               0
 97
        1
330
5D
 75
               0
 76
               1
 98
        1
 10
0.0
 20
0.0
  0
MTEXT
  5
5F
100
AcDbEntity
  8
0
390
0
 62
               0
100
AcDbMText
 10
-509.59358861013709
 20
858.78048413337001
 30
0.0
 40
24.432617187500004
 41
0.0
 71
               1
 72
               1
  1
325
  7
ＭＳ ゴシック
 73
               1
 44
0.7828267384257843
  0
POINT
  5
60
100
AcDbEntity
  8
Defpoints
370
               0
390
0
 62
               0
100
AcDbPoint
 10
-323.27710957536112
 20
587.4028669458703
 30
0.0
  0
POINT
  5
61
100
AcDbEntity
  8
Defpoints
370
               0
390
0
 62
               0
100
AcDbPoint
 10
-648.2850642805621
 20
587.4028669458703
 30
0.0
  0
POINT
  5
62
100
AcDbEntity
  8
Defpoints
370
               0
390
0
 62
               0
100
AcDbPoint
 10
-648.2850642805621
 20
824.9028669458703
 30
0.0
  0
ENDBLK
  5
63
100
AcDbEntity
  8
notes
390
0
100
AcDbBlockEnd
  0
BLOCK
  5
64
100
AcDbEntity
  8
notes
390
0
100
AcDbBlockBegin
  2
*D4
 70
               1
 10
0.0
 20
0.0
 30
0.0
  3
*D4
  1

  0
LINE
  5
65
100
AcDbEntity
  8
0
370
              -2
390
0
  6
Continuous
 62
               0
100
AcDbLine
 10
-348.28108692796161
 20
450.80032656742628
 30
0.0
 11
-348.28108692796161
 21
299.89888959317017
 31
0.0
  0
LINE
  5
66
100
AcDbEntity
  8
0
370
              -2
390
0
  6
Continuous
 62
               0
100
AcDbLine
 10
-623.28108692796206
 20
450.80032656742628
 30
0.0
 11
-623.28108692796206
 21
299.89888959317017
 31
0.0
  0
LINE
  5
67
100
AcDbEntity
  8
0
370
              -2
390
0
  6
Continuous
 62
               0
100
AcDbLine
 10
-348.28108692796161
 20
299.89888959317017
 30
0.0
 11
-623.28108692796206
 21
299.89888959317017
 31
0.0
  0
CIRCLE
  5
68
102
{ACAD_REACTORS
330
69
102
}
100
AcDbEntity
  8
0
370
              -2
390
0
  6
Continuous
 62
               0
100
AcDbCircle
 10
-348.28108692796161
 20
299.89888959317017
 30
0.0
 40
4.99969482421875
  0
HATCH
  5
69
100
AcDbEntity
  8
0
370
              -2
390
0
  6
Continuous
 62
               0
100
AcDbHatch
 10
0.0
 20
0.0
 30
0.0
210
0.0
220
0.0
230
1.0
  2
SOLID
 70
               1
 71
               1
 91
        1
 92
        1
 93
        1
 72
               2
 10
-348.28108692796161
 20
299.89888959317017
 40
4.99969482421875
 50
0.0
 51
360.0
 73
               0
 97
        1
330
68
 75
               0
 76
               1
 98
        1
 10
0.0
 20
0.0
  0
CIRCLE
  5
6A
102
{ACAD_REACTORS
330
6B
102
}
100
AcDbEntity
  8
0
370
              -2
390
0
  6
Continuous
 62
               0
100
AcDbCircle
 10
-623.28108692796206
 20
299.89888959317017
 30
0.0
 40
4.99969482421875
  0
HATCH
  5
6B
100
AcDbEntity
  8
0
370
              -2
390
0
  6
Continuous
 62
               0
100
AcDbHatch
 10
0.0
 20
0.0
 30
0.0
210
0.0
220
0.0
230
1.0
  2
SOLID
 70
               1
 71
               1
 91
        1
 92
        1
 93
        1
 72
               2
 10
-623.28108692796206
 20
299.89888959317017
 40
4.99969482421875
 50
0.0
 51
360.0
 73
               0
 97
        1
330
6A
 75
               0
 76
               1
 98
        1
 10
0.0
 20
0.0
  0
MTEXT
  5
6C
100
AcDbEntity
  8
0
390
0
 62
               0
100
AcDbMText
 10
-509.59358861013732
 20
333.77650678067016
 30
0.0
 40
24.432617187500004
 41
0.0
 71
               1
 72
               1
  1
275
  7
ＭＳ ゴシック
 73
               1
 44
0.7828267384257843
  0
POINT
  5
6D
100
AcDbEntity
  8
Defpoints
370
               0
390
0
 62
               0
100
AcDbPoint
 10
-623.28108692796206
 20
475.80032656742634
 30
0.0
  0
POINT
  5
6E
100
AcDbEntity
  8
Defpoints
370
               0
390
0
 62
               0
100
AcDbPoint
 10
-348.28108692796161
 20
475.80032656742634
 30
0.0
  0
POINT
  5
6F
100
AcDbEntity
  8
Defpoints
370
               0
390
0
 62
               0
100
AcDbPoint
 10
-348.28108692796161
 20
299.89888959317022
 30
0.0
  0
ENDBLK
  5
70
100
AcDbEntity
  8
notes
390
0
100
AcDbBlockEnd
  0
BLOCK
  5
71
100
AcDbEntity
  8
notes
390
0
100
AcDbBlockBegin
  2
*D5
 70
               1
 10
0.0
 20
0.0
 30
0.0
  3
*D5
  1

  0
LINE
  5
72
100
AcDbEntity
  8
0
370
              -2
390
0
  6
Continuous
 62
               0
100
AcDbLine
 10
234.19695578752476
 20
-394.94068142410134
 30
0.0
 11
258.87644771183602
 21
-394.94068142410134
 31
0.0
  0
LINE
  5
73
100
AcDbEntity
  8
0
370
              -2
390
0
  6
Continuous
 62
               0
100
AcDbLine
 10
234.19695578752476
 20
-500.94068142410134
 30
0.0
 11
258.87644771183602
 21
-500.94068142410134
 31
0.0
  0
LINE
  5
74
100
AcDbEntity
  8
0
370
              -2
390
0
  6
Continuous
 62
               0
100
AcDbLine
 10
258.87644771183602
 20
-394.94068142410134
 30
0.0
 11
258.87644771183602
 21
-242.06568142410134
 31
0.0
  0
LINE
  5
75
100
AcDbEntity
  8
0
370
              -2
390
0
  6
Continuous
 62
               0
100
AcDbLine
 10
258.87644771183602
 20
-394.94068142410134
 30
0.0
 11
258.87644771183602
 21
-500.94068142410134
 31
0.0
  0
CIRCLE
  5
76
102
{ACAD_REACTORS
330
77
102
}
100
AcDbEntity
  8
0
370
              -2
390
0
  6
Continuous
 62
               0
100
AcDbCircle
 10
258.87644771183602
 20
-394.94068142410134
 30
0.0
 40
4.99969482421875
  0
HATCH
  5
77
100
AcDbEntity
  8
0
370
              -2
390
0
  6
Continuous
 62
               0
100
AcDbHatch
 10
0.0
 20
0.0
 30
0.0
210
0.0
220
0.0
230
1.0
  2
SOLID
 70
               1
 71
               1
 91
        1
 92
        1
 93
        1
 72
               2
 10
258.87644771183602
 20
-394.94068142410134
 40
4.99969482421875
 50
0.0
 51
360.0
 73
               0
 97
        1
330
76
 75
               0
 76
               1
 98
        1
 10
0.0
 20
0.0
  0
CIRCLE
  5
78
102
{ACAD_REACTORS
330
79
102
}
100
AcDbEntity
  8
0
370
              -2
390
0
  6
Continuous
 62
               0
100
AcDbCircle
 10
258.87644771183602
 20
-500.94068142410134
 30
0.0
 40
4.99969482421875
  0
HATCH
  5
79
100
AcDbEntity
  8
0
370
              -2
390
0
  6
Continuous
 62
               0
100
AcDbHatch
 10
0.0
 20
0.0
 30
0.0
210
0.0
220
0.0
230
1.0
  2
SOLID
 70
               1
 71
               1
 91
        1
 92
        1
 93
        1
 72
               2
 10
258.87644771183602
 20
-500.94068142410134
 40
4.99969482421875
 50
0.0
 51
360.0
 73
               0
 97
        1
330
78
 75
               0
 76
               1
 98
        1
 10
0.0
 20
0.0
  0
MTEXT
  5
7A
100
AcDbEntity
  8
0
390
0
 62
               0
100
AcDbMText
 10
224.99883052433603
 20
-384.94068142410134
 30
0.0
 40
24.432617187500004
 41
0.0
 71
               1
 72
               1
  1
106(深さ)
  7
ＭＳ ゴシック
 11
0.0
 21
1.0
 31
0.0
 73
               1
 44
0.7828267384257843
  0
POINT
  5
7B
100
AcDbEntity
  8
Defpoints
370
               0
390
0
 62
               0
100
AcDbPoint
 10
259.19695578752476
 20
-500.94068142410134
 30
0.0
  0
POINT
  5
7C
100
AcDbEntity
  8
Defpoints
370
               0
390
0
 62
               0
100
AcDbPoint
 10
259.19695578752476
 20
-394.94068142410134
 30
0.0
  0
POINT
  5
7D
100
AcDbEntity
  8
Defpoints
370
               0
390
0
 62
               0
100
AcDbPoint
 10
258.87644771183602
 20
-394.94068142410134
 30
0.0
  0
ENDBLK
  5
7E
100
AcDbEntity
  8
notes
390
0
100
AcDbBlockEnd
  0
BLOCK
  5
7F
100
AcDbEntity
  8
notes
390
0
100
AcDbBlockBegin
  2
*D6
 70
               1
 10
0.0
 20
0.0
 30
0.0
  3
*D6
  1

  0
LINE
  5
80
100
AcDbEntity
  8
0
370
              -2
390
0
  6
Continuous
 62
               0
100
AcDbLine
 10
441.26790162992688
 20
-394.94068142410134
 30
0.0
 11
518.94060880923826
 21
-394.94068142410134
 31
0.0
  0
LINE
  5
81
100
AcDbEntity
  8
0
370
              -2
390
0
  6
Continuous
 62
               0
100
AcDbLine
 10
441.26790163000578
 20
-519.94068142410129
 30
0.0
 11
518.94060880923826
 21
-519.94068142410129
 31
0.0
  0
LINE
  5
82
100
AcDbEntity
  8
0
370
              -2
390
0
  6
Continuous
 62
               0
100
AcDbLine
 10
518.94060880923826
 20
-394.94068142410134
 30
0.0
 11
518.94060880923826
 21
-519.94068142410129
 31
0.0
  0
CIRCLE
  5
83
102
{ACAD_REACTORS
330
84
102
}
100
AcDbEntity
  8
0
370
              -2
390
0
  6
Continuous
 62
               0
100
AcDbCircle
 10
518.94060880923826
 20
-394.94068142410134
 30
0.0
 40
4.99969482421875
  0
HATCH
  5
84
100
AcDbEntity
  8
0
370
              -2
390
0
  6
Continuous
 62
               0
100
AcDbHatch
 10
0.0
 20
0.0
 30
0.0
210
0.0
220
0.0
230
1.0
  2
SOLID
 70
               1
 71
               1
 91
        1
 92
        1
 93
        1
 72
               2
 10
518.94060880923826
 20
-394.94068142410134
 40
4.99969482421875
 50
0.0
 51
360.0
 73
               0
 97
        1
330
83
 75
               0
 76
               1
 98
        1
 10
0.0
 20
0.0
  0
CIRCLE
  5
85
102
{ACAD_REACTORS
330
86
102
}
100
AcDbEntity
  8
0
370
              -2
390
0
  6
Continuous
 62
               0
100
AcDbCircle
 10
518.94060880923826
 20
-519.94068142410129
 30
0.0
 40
4.99969482421875
  0
HATCH
  5
86
100
AcDbEntity
  8
0
370
              -2
390
0
  6
Continuous
 62
               0
100
AcDbHatch
 10
0.0
 20
0.0
 30
0.0
210
0.0
220
0.0
230
1.0
  2
SOLID
 70
               1
 71
               1
 91
        1
 92
        1
 93
        1
 72
               2
 10
518.94060880923826
 20
-519.94068142410129
 40
4.99969482421875
 50
0.0
 51
360.0
 73
               0
 97
        1
330
85
 75
               0
 76
               1
 98
        1
 10
0.0
 20
0.0
  0
MTEXT
  5
87
100
AcDbEntity
  8
0
390
0
 62
               0
100
AcDbMText
 10
485.06299162173821
 20
-481.25318310627682
 30
0.0
 40
24.432617187500004
 41
0.0
 71
               1
 72
               1
  1
125
  7
ＭＳ ゴシック
 11
0.0
 21
1.0
 31
0.0
 73
               1
 44
0.7828267384257843
  0
POINT
  5
88
100
AcDbEntity
  8
Defpoints
370
               0
390
0
 62
               0
100
AcDbPoint
 10
416.26790163000578
 20
-519.94068142410129
 30
0.0
  0
POINT
  5
89
100
AcDbEntity
  8
Defpoints
370
               0
390
0
 62
               0
100
AcDbPoint
 10
416.26790162992688
 20
-394.94068142410134
 30
0.0
  0
POINT
  5
8A
100
AcDbEntity
  8
Defpoints
370
               0
390
0
 62
               0
100
AcDbPoint
 10
518.94060880923826
 20
-394.94068142410134
 30
0.0
  0
ENDBLK
  5
8B
100
AcDbEntity
  8
notes
390
0
100
AcDbBlockEnd
  0
BLOCK
  5
8C
100
AcDbEntity
  8
notes
390
0
100
AcDbBlockBegin
  2
*D7
 70
               1
 10
0.0
 20
0.0
 30
0.0
  3
*D7
  1

  0
LINE
  5
8D
100
AcDbEntity
  8
0
370
              -2
390
0
  6
Continuous
 62
               0
100
AcDbLine
 10
94.879999949037142
 20
-541.44068142410129
 30
0.0
 11
94.879999949037142
 21
-603.84050678209428
 31
0.0
  0
LINE
  5
8E
100
AcDbEntity
  8
0
370
              -2
390
0
  6
Continuous
 62
               0
100
AcDbLine
 10
257.37999994903703
 20
-529.40388897130128
 30
0.0
 11
257.37999994903703
 21
-603.84050678209428
 31
0.0
  0
LINE
  5
8F
100
AcDbEntity
  8
0
370
              -2
390
0
  6
Continuous
 62
               0
100
AcDbLine
 10
94.879999949037142
 20
-603.84050678209428
 30
0.0
 11
257.37999994903703
 21
-603.84050678209428
 31
0.0
  0
CIRCLE
  5
90
102
{ACAD_REACTORS
330
91
102
}
100
AcDbEntity
  8
0
370
              -2
390
0
  6
Continuous
 62
               0
100
AcDbCircle
 10
94.879999949037142
 20
-603.84050678209428
 30
0.0
 40
4.99969482421875
  0
HATCH
  5
91
100
AcDbEntity
  8
0
370
              -2
390
0
  6
Continuous
 62
               0
100
AcDbHatch
 10
0.0
 20
0.0
 30
0.0
210
0.0
220
0.0
230
1.0
  2
SOLID
 70
               1
 71
               1
 91
        1
 92
        1
 93
        1
 72
               2
 10
94.879999949037142
 20
-603.84050678209428
 40
4.99969482421875
 50
0.0
 51
360.0
 73
               0
 97
        1
330
90
 75
               0
 76
               1
 98
        1
 10
0.0
 20
0.0
  0
CIRCLE
  5
92
102
{ACAD_REACTORS
330
93
102
}
100
AcDbEntity
  8
0
370
              -2
390
0
  6
Continuous
 62
               0
100
AcDbCircle
 10
257.37999994903703
 20
-603.84050678209428
 30
0.0
 40
4.99969482421875
  0
HATCH
  5
93
100
AcDbEntity
  8
0
370
              -2
390
0
  6
Continuous
 62
               0
100
AcDbHatch
 10
0.0
 20
0.0
 30
0.0
210
0.0
220
0.0
230
1.0
  2
SOLID
 70
               1
 71
               1
 91
        1
 92
        1
 93
        1
 72
               2
 10
257.37999994903703
 20
-603.84050678209428
 40
4.99969482421875
 50
0.0
 51
360.0
 73
               0
 97
        1
330
92
 75
               0
 76
               1
 98
        1
 10
0.0
 20
0.0
  0
MTEXT
  5
94
100
AcDbEntity
  8
0
390
0
 62
               0
100
AcDbMText
 10
136.44249994903714
 20
-569.96288959459412
 30
0.0
 40
24.432617187500004
 41
0.0
 71
               1
 72
               1
  1
162.5
  7
ＭＳ ゴシック
 73
               1
 44
0.7828267384257843
  0
POINT
  5
95
100
AcDbEntity
  8
Defpoints
370
               0
390
0
 62
               0
100
AcDbPoint
 10
257.37999994903703
 20
-504.40388897130134
 30
0.0
  0
POINT
  5
96
100
AcDbEntity
  8
Defpoints
370
               0
390
0
 62
               0
100
AcDbPoint
 10
94.879999949037142
 20
-516.44068142410129
 30
0.0
  0
POINT
  5
97
100
AcDbEntity
  8
Defpoints
370
               0
390
0
 62
               0
100
AcDbPoint
 10
94.879999949037142
 20
-603.84050678209405
 30
0.0
  0
ENDBLK
  5
98
100
AcDbEntity
  8
notes
390
0
100
AcDbBlockEnd
  0
BLOCK
  5
99
100
AcDbEntity
  8
notes
390
0
100
AcDbBlockBegin
  2
*D8
 70
               1
 10
0.0
 20
0.0
 30
0.0
  3
*D8
  1

  0
LINE
  5
9A
100
AcDbEntity
  8
0
370
              -2
390
0
  6
Continuous
 62
               0
100
AcDbLine
 10
299.75035766075399
 20
519.97646007467745
 30
0.0
 11
382.83559773696737
 21
436.89121999846395
 31
0.0
  0
CIRCLE
  5
9B
102
{ACAD_REACTORS
330
9C
102
}
100
AcDbEntity
  8
0
370
              -2
390
0
  6
Continuous
 62
               0
100
AcDbCircle
 10
299.75035766075399
 20
519.97646007467745
 30
0.0
 40
4.99969482421875
  0
HATCH
  5
9C
100
AcDbEntity
  8
0
370
              -2
390
0
  6
Continuous
 62
               0
100
AcDbHatch
 10
0.0
 20
0.0
 30
0.0
210
0.0
220
0.0
230
1.0
  2
SOLID
 70
               1
 71
               1
 91
        1
 92
        1
 93
        1
 72
               2
 10
299.75035766075399
 20
519.97646007467745
 40
4.99969482421875
 50
0.0
 51
360.0
 73
               0
 97
        1
330
9B
 75
               0
 76
               1
 98
        1
 10
0.0
 20
0.0
  0
LINE
  5
9D
100
AcDbEntity
  8
0
370
              -2
390
0
  6
Continuous
 62
               0
100
AcDbLine
 10
382.83559773696737
 20
436.89121999846395
 30
0.0
 11
522.21059773696732
 21
436.89121999846395
 31
0.0
  0
MTEXT
  5
9E
100
AcDbEntity
  8
0
390
0
 62
               0
100
AcDbMText
 10
442.83559773696732
 20
470.768837185964
 30
0.0
 40
24.432617187500004
 41
0.0
 71
               1
 72
               1
  1
φ120
  7
ＭＳ ゴシック
 73
               1
 44
0.7828267384257843
  0
POINT
  5
9F
100
AcDbEntity
  8
Defpoints
370
               0
390
0
 62
               0
100
AcDbPoint
 10
214.89754391836829
 20
604.82927381706304
 30
0.0
  0
POINT
  5
A0
100
AcDbEntity
  8
Defpoints
370
               0
390
0
 62
               0
100
AcDbPoint
 10
299.75035766075399
 20
519.97646007467745
 30
0.0
  0
ENDBLK
  5
A1
100
AcDbEntity
  8
notes
390
0
100
AcDbBlockEnd
  0
BLOCK
  5
A2
100
AcDbEntity
  8
notes
390
0
100
AcDbBlockBegin
  2
*D9
 70
               1
 10
0.0
 20
0.0
 30
0.0
  3
*D9
  1

  0
LINE
  5
A3
100
AcDbEntity
  8
0
370
              -2
390
0
  6
Continuous
 62
               0
100
AcDbLine
 10
-301.83713608747678
 20
-394.94068142410134
 30
0.0
 11
-205.73209836999422
 21
-394.94068142410134
 31
0.0
  0
LINE
  5
A4
100
AcDbEntity
  8
0
370
              -2
390
0
  6
Continuous
 62
               0
100
AcDbLine
 10
-423.28108692796161
 20
-550.94068142410129
 30
0.0
 11
-205.73209836999422
 21
-550.94068142410129
 31
0.0
  0
LINE
  5
A5
100
AcDbEntity
  8
0
370
              -2
390
0
  6
Continuous
 62
               0
100
AcDbLine
 10
-205.73209836999422
 20
-394.94068142410134
 30
0.0
 11
-205.73209836999422
 21
-550.94068142410129
 31
0.0
  0
CIRCLE
  5
A6
102
{ACAD_REACTORS
330
A7
102
}
100
AcDbEntity
  8
0
370
              -2
390
0
  6
Continuous
 62
               0
100
AcDbCircle
 10
-205.73209836999422
 20
-394.94068142410134
 30
0.0
 40
4.99969482421875
  0
HATCH
  5
A7
100
AcDbEntity
  8
0
370
              -2
390
0
  6
Continuous
 62
               0
100
AcDbHatch
 10
0.0
 20
0.0
 30
0.0
210
0.0
220
0.0
230
1.0
  2
SOLID
 70
               1
 71
               1
 91
        1
 92
        1
 93
        1
 72
               2
 10
-205.73209836999422
 20
-394.94068142410134
 40
4.99969482421875
 50
0.0
 51
360.0
 73
               0
 97
        1
330
A6
 75
               0
 76
               1
 98
        1
 10
0.0
 20
0.0
  0
CIRCLE
  5
A8
102
{ACAD_REACTORS
330
A9
102
}
100
AcDbEntity
  8
0
370
              -2
390
0
  6
Continuous
 62
               0
100
AcDbCircle
 10
-205.73209836999422
 20
-550.94068142410129
 30
0.0
 40
4.99969482421875
  0
HATCH
  5
A9
100
AcDbEntity
  8
0
370
              -2
390
0
  6
Continuous
 62
               0
100
AcDbHatch
 10
0.0
 20
0.0
 30
0.0
210
0.0
220
0.0
230
1.0
  2
SOLID
 70
               1
 71
               1
 91
        1
 92
        1
 93
        1
 72
               2
 10
-205.73209836999422
 20
-550.94068142410129
 40
4.99969482421875
 50
0.0
 51
360.0
 73
               0
 97
        1
330
A8
 75
               0
 76
               1
 98
        1
 10
0.0
 20
0.0
  0
MTEXT
  5
AA
100
AcDbEntity
  8
0
390
0
 62
               0
100
AcDbMText
 10
-239.60971555749427
 20
-496.75318310627682
 30
0.0
 40
24.432617187500004
 41
0.0
 71
               1
 72
               1
  1
156
  7
ＭＳ ゴシック
 11
0.0
 21
1.0
 31
0.0
 73
               1
 44
0.7828267384257843
  0
POINT
  5
AB
100
AcDbEntity
  8
Defpoints
370
               0
390
0
 62
               0
100
AcDbPoint
 10
-448.28108692796161
 20
-550.94068142410129
 30
0.0
  0
POINT
  5
AC
100
AcDbEntity
  8
Defpoints
370
               0
390
0
 62
               0
100
AcDbPoint
 10
-326.83713608747678
 20
-394.94068142410134
 30
0.0
  0
POINT
  5
AD
100
AcDbEntity
  8
Defpoints
370
               0
390
0
 62
               0
100
AcDbPoint
 10
-205.73209836999422
 20
-394.94068142410134
 30
0.0
  0
ENDBLK
  5
AE
100
AcDbEntity
  8
notes
390
0
100
AcDbBlockEnd
  0
BLOCK
  5
AF
100
AcDbEntity
  8
FAN70-0711
390
0
100
AcDbBlockBegin
  2
グループ-1
 70
               0
 10
0.0
 20
0.0
 30
0.0
  3
グループ-1
  1

  0
POLYLINE
  5
B0
100
AcDbEntity
  8
0
370
              15
390
0
  6
STYLE_12
 62
               7
100
AcDb2dPolyline
 66
               1
 10
0.0
 20
0.0
 30
0.0
 70
               1
 75
               5
  0
VERTEX
  5
B1
100
AcDbEntity
  8
0
370
              15
390
0
  6
STYLE_12
 62
               7
100
AcDbVertex
100
AcDb2dVertex
 10
-1172.2909946514437
 20
-886.28405515206555
 30
0.0
  0
VERTEX
  5
B2
100
AcDbEntity
  8
0
370
              15
390
0
  6
STYLE_12
 62
               7
100
AcDbVertex
100
AcDb2dVertex
 10
-1097.2909946514437
 20
-886.28405515206555
 30
0.0
  0
VERTEX
  5
B3
100
AcDbEntity
  8
0
370
              15
390
0
  6
STYLE_12
 62
               7
100
AcDbVertex
100
AcDb2dVertex
 10
-1097.2909946514437
 20
-940.68405515206553
 30
0.0
  0
VERTEX
  5
B4
100
AcDbEntity
  8
0
370
              15
390
0
  6
STYLE_12
 62
               7
100
AcDbVertex
100
AcDb2dVertex
 10
-1172.2909946514437
 20
-940.68405515206553
 30
0.0
  0
SEQEND
  5
B5
100
AcDbEntity
  8
0
370
              15
390
0
  6
STYLE_12
 62
               7
  0
LINE
  5
B6
100
AcDbEntity
  8
0
370
              15
390
0
  6
STYLE_12
 62
               7
100
AcDbLine
 10
-1172.2909946514437
 20
-898.12605712362381
 30
0.0
 11
-1097.2909946514437
 21
-898.12605712362381
 31
0.0
  0
ENDBLK
  5
B7
100
AcDbEntity
  8
FAN70-0711
390
0
100
AcDbBlockEnd
  0
BLOCK
  5
B8
100
AcDbEntity
  8
FAN70-0711
390
0
100
AcDbBlockBegin
  2
グループ-2
 70
               0
 10
0.0
 20
0.0
 30
0.0
  3
グループ-2
  1

  0
POLYLINE
  5
B9
100
AcDbEntity
  8
0
370
              15
390
0
  6
STYLE_12
 62
               7
100
AcDb2dPolyline
 66
               1
 10
0.0
 20
0.0
 30
0.0
 70
               1
 75
               5
  0
VERTEX
  5
BA
100
AcDbEntity
  8
0
370
              15
390
0
  6
STYLE_12
 62
               7
100
AcDbVertex
100
AcDb2dVertex
 10
-429.12990777444509
 20
-886.28405515206555
 30
0.0
  0
VERTEX
  5
BB
100
AcDbEntity
  8
0
370
              15
390
0
  6
STYLE_12
 62
               7
100
AcDbVertex
100
AcDb2dVertex
 10
-354.12990777444509
 20
-886.28405515206555
 30
0.0
  0
VERTEX
  5
BC
100
AcDbEntity
  8
0
370
              15
390
0
  6
STYLE_12
 62
               7
100
AcDbVertex
100
AcDb2dVertex
 10
-354.12990777444509
 20
-909.68405515206553
 30
0.0
  0
VERTEX
  5
BD
100
AcDbEntity
  8
0
370
              15
390
0
  6
STYLE_12
 62
               7
100
AcDbVertex
100
AcDb2dVertex
 10
-429.12990777444509
 20
-909.68405515206553
 30
0.0
  0
SEQEND
  5
BE
100
AcDbEntity
  8
0
370
              15
390
0
  6
STYLE_12
 62
               7
  0
LINE
  5
BF
100
AcDbEntity
  8
0
370
              15
390
0
  6
STYLE_12
 62
               7
100
AcDbLine
 10
-429.12990777444509
 20
-891.37785747071382
 30
0.0
 11
-354.12990777444509
 21
-891.37785747071382
 31
0.0
  0
ENDBLK
  5
C0
100
AcDbEntity
  8
FAN70-0711
390
0
100
AcDbBlockEnd
  0
ENDSEC
  0
SECTION
  2
ENTITIES
  0
MTEXT
  5
C1
100
AcDbEntity
  8
template
390
0
 62
               7
100
AcDbMText
 10
-967.9999999997591
 20
-1147.4176292337004
 30
0.0
 40
16.288411458333332
 41
0.0
 71
               1
 72
               1
  1
品名
  7
ＭＳ ゴシック
 73
               1
 44
0.7828267384257843
  0
MTEXT
  5
C2
100
AcDbEntity
  8
template
390
0
 62
               7
100
AcDbMText
 10
-967.9999999997591
 20
-1232.4176292337004
 30
0.0
 40
16.288411458333332
 41
0.0
 71
               1
 72
               1
  1
仕様
  7
ＭＳ ゴシック
 73
               1
 44
0.7828267384257843
  0
MTEXT
  5
C3
100
AcDbEntity
  8
template
390
0
 62
               7
100
AcDbMText
 10
-914.9999999997591
 20
-1176.0000901712006
 30
0.0
 40
24.432617187500004
 41
0.0
 71
               1
 72
               1
  1
手洗器 -ALAPE-
  7
ＭＳ ゴシック
 73
               1
 44
0.7828267384257843
  0
LINE
  5
C4
100
AcDbEntity
  8
template
370
               5
390
0
  6
Continuous
 62
               7
100
AcDbLine
 10
974.99999999975876
 20
-1224.0027073587005
 30
0.0
 11
-975.00000000024113
 21
-1224.0027073587005
 31
0.0
  0
LWPOLYLINE
  5
C5
100
AcDbEntity
  8
template
370
               5
390
0
  6
Continuous
 62
               7
100
AcDbPolyline
 90
        5
 70
             128
 10
975.00000000024124
 20
1405.9972926412995
 10
-974.9999999997591
 20
1405.9972926412995
 10
-974.9999999997591
 20
-1394.0027073587005
 10
975.00000000024124
 20
-1394.0027073587005
 10
975.00000000024124
 20
1405.9972926412995
  0
LINE
  5
C6
100
AcDbEntity
  8
template
370
               5
390
0
  6
Continuous
 62
               7
100
AcDbLine
 10
974.99999999975876
 20
-1139.0027073587005
 30
0.0
 11
-975.00000000024113
 21
-1139.0027073587005
 31
0.0
  0
LINE
  5
C7
100
AcDbEntity
  8
template
370
               5
390
0
  6
Continuous
 62
               7
100
AcDbLine
 10
975.00000000024124
 20
-1309.0027073587005
 30
0.0
 11
222.00000000024124
 21
-1309.0027073587005
 31
0.0
  0
MTEXT
  5
C8
100
AcDbEntity
  8
template
390
0
 62
               7
100
AcDbMText
 10
251.87140625250089
 20
-1338.9131018320081
 30
0.0
 40
24.432617187500004
 41
0.0
 71
               1
 72
               1
  1
大洋金物株式会社 ティーフォルム事業部
  7
ＭＳ ゴシック
 73
               1
 44
0.7828267384257843
  0
INSERT
  5
C9
100
AcDbEntity
  8
template
390
0
 62
               7
100
AcDbBlockReference
  2
グループ
 10
649.00990772348212
 20
389.74337372796418
 30
0.0
  0
MTEXT
  5
CA
100
AcDbEntity
  8
template
390
0
 62
               7
100
AcDbMText
 10
784.00000000049999
 20
-1261.0000901712006
 30
0.0
 40
24.432617187500004
 41
0.0
 71
               1
 72
               1
  1
1:10
  7
ＭＳ ゴシック
 73
               1
 44
0.7828267384257843
  0
MTEXT
  5
CB
100
AcDbEntity
  8
template
390
0
 62
               7
100
AcDbMText
 10
731.00000000049999
 20
-1232.4176292337004
 30
0.0
 40
16.288411458333332
 41
0.0
 71
               1
 72
               1
  1
縮尺
  7
ＭＳ ゴシック
 73
               1
 44
0.7828267384257843
  0
LINE
  5
CC
100
AcDbEntity
  8
template
370
               5
390
0
  6
Continuous
 62
               7
100
AcDbLine
 10
724.00000000049999
 20
-1309.0027073587005
 30
0.0
 11
724.00000000049999
 21
-1224.0027073587005
 31
0.0
  0
MTEXT
  5
CD
100
AcDbEntity
  8
template
390
0
 62
               7
100
AcDbMText
 10
480.00000000049999
 20
-1232.4176292337004
 30
0.0
 40
16.288411458333332
 41
0.0
 71
               1
 72
               1
  1
容量
  7
ＭＳ ゴシック
 73
               1
 44
0.7828267384257843
  0
LINE
  5
CE
100
AcDbEntity
  8
template
370
               5
390
0
  6
Continuous
 62
               7
100
AcDbLine
 10
473.00000000049999
 20
-1309.0027073587005
 30
0.0
 11
473.00000000049999
 21
-1224.0027073587005
 31
0.0
  0
MTEXT
  5
CF
100
AcDbEntity
  8
template
390
0
 62
               7
100
AcDbMText
 10
229.00000000049999
 20
-1147.4176292337004
 30
0.0
 40
16.288411458333332
 41
0.0
 71
               1
 72
               1
  1
品番
  7
ＭＳ ゴシック
 73
               1
 44
0.7828267384257843
  0
MTEXT
  5
D0
100
AcDbEntity
  8
template
390
0
 62
               7
100
AcDbMText
 10
229.00000000049999
 20
-1232.4176292337004
 30
0.0
 40
16.288411458333332
 41
0.0
 71
               1
 72
               1
  1
重量
  7
ＭＳ ゴシック
 73
               1
 44
0.7828267384257843
  0
MTEXT
  5
D1
100
AcDbEntity
  8
template
390
0
 62
               7
100
AcDbMText
 10
282.00000000049999
 20
-1176.0000901712006
 30
0.0
 40
24.432617187500004
 41
0.0
 71
               1
 72
               1
  1
FAN70-0711
  7
ＭＳ ゴシック
 73
               1
 44
0.7828267384257843
  0
MTEXT
  5
D2
100
AcDbEntity
  8
template
390
0
 62
               7
100
AcDbMText
 10
282.00000000049999
 20
-1261.0000901712006
 30
0.0
 40
24.432617187500004
 41
0.0
 71
               1
 72
               1
  1
2.6kg
  7
ＭＳ ゴシック
 73
               1
 44
0.7828267384257843
  0
LINE
  5
D3
100
AcDbEntity
  8
template
370
               5
390
0
  6
Continuous
 62
               7
100
AcDbLine
 10
222.00000000049999
 20
-1394.0027073587005
 30
0.0
 11
222.00000000049999
 21
-1139.0027073587005
 31
0.0
  0
MTEXT
  5
D4
100
AcDbEntity
  8
template
390
0
 62
               7
100
AcDbMText
 10
-974.99999999955583
 20
-1405.8565294155574
 30
0.0
 40
21.717881944444446
 41
0.0
 71
               1
 72
               1
  1
120516SH
  7
ＭＳ ゴシック
 73
               1
 44
0.7828267384257843
  0
MTEXT
  5
D5
100
AcDbEntity
  8
template
390
0
 62
               7
100
AcDbMText
 10
-914.9999999997591
 20
-1261.0000901712003
 30
0.0
 40
24.432617187500004
 41
0.0
 71
               1
 72
               1
  1
カウンタートップ/オーバーフローなし/型紙付属/\P鋼板ホーロー/ホワイト
  7
ＭＳ ゴシック
 73
               1
 44
1.1307497332816883
  0
MTEXT
  5
D6
100
AcDbEntity
  8
template
390
0
 62
               7
100
AcDbMText
 10
538.00000000049999
 20
-1261.0000901712006
 30
0.0
 40
24.432617187500004
 41
0.0
 71
               1
 72
               1
  1
3.8L
  7
ＭＳ ゴシック
 73
               1
 44
0.7828267384257843
  0
POLYLINE
  5
D7
100
AcDbEntity
  8
template
370
              15
390
0
  6
Continuous
 62
               7
100
AcDb2dPolyline
 66
               1
 10
0.0
 20
0.0
 30
0.0
 70
               1
 75
               5
  0
VERTEX
  5
D8
100
AcDbEntity
  8
template
370
              15
390
0
  6
Continuous
 62
               7
100
AcDbVertex
100
AcDb2dVertex
 10
219.87999994903703
 20
-519.94068142410129
 30
0.0
  0
VERTEX
  5
D9
100
AcDbEntity
  8
template
370
              15
390
0
  6
Continuous
 62
               7
100
AcDbVertex
100
AcDb2dVertex
 10
294.87999994903703
 20
-519.94068142410129
 30
0.0
  0
VERTEX
  5
DA
100
AcDbEntity
  8
template
370
              15
390
0
  6
Continuous
 62
               7
100
AcDbVertex
100
AcDb2dVertex
 10
294.87999994903703
 20
-550.94068142410129
 30
0.0
  0
VERTEX
  5
DB
100
AcDbEntity
  8
template
370
              15
390
0
  6
Continuous
 62
               7
100
AcDbVertex
100
AcDb2dVertex
 10
219.87999994903703
 20
-550.94068142410129
 30
0.0
  0
SEQEND
  5
DC
100
AcDbEntity
  8
template
370
              15
390
0
  6
Continuous
 62
               7
  0
POLYLINE
  5
DD
100
AcDbEntity
  8
template
370
              15
390
0
  6
Continuous
 62
               7
100
AcDb2dPolyline
 66
               1
 10
0.0
 20
0.0
 30
0.0
 70
               1
 75
               5
  0
VERTEX
  5
DE
100
AcDbEntity
  8
template
370
              15
390
0
  6
Continuous
 62
               7
100
AcDbVertex
100
AcDb2dVertex
 10
-523.28108692796161
 20
-519.94068142410129
 30
0.0
  0
VERTEX
  5
DF
100
AcDbEntity
  8
template
370
              15
390
0
  6
Continuous
 62
               7
100
AcDbVertex
100
AcDb2dVertex
 10
-448.28108692796161
 20
-519.94068142410129
 30
0.0
  0
VERTEX
  5
E0
100
AcDbEntity
  8
template
370
              15
390
0
  6
Continuous
 62
               7
100
AcDbVertex
100
AcDb2dVertex
 10
-448.28108692796161
 20
-550.94068142410129
 30
0.0
  0
VERTEX
  5
E1
100
AcDbEntity
  8
template
370
              15
390
0
  6
Continuous
 62
               7
100
AcDbVertex
100
AcDb2dVertex
 10
-523.28108692796161
 20
-550.94068142410129
 30
0.0
  0
SEQEND
  5
E2
100
AcDbEntity
  8
template
370
              15
390
0
  6
Continuous
 62
               7
  0
MTEXT
  5
E3
100
AcDbEntity
  8
notes
390
0
 62
               7
100
AcDbMText
 10
118.1646792846085
 20
902.60548413336983
 30
0.0
 40
24.432617187500004
 41
0.0
 71
               1
 72
               1
  1
カウンター切込寸法
  7
ＭＳ ゴシック
 73
               1
 44
0.7828267384257843
  0
DIMENSION
  5
E4
100
AcDbEntity
  8
notes
370
               5
390
0
  6
Continuous
 62
               7
100
AcDbDimension
  2
*D3
 10
-648.2850642805621
 20
824.9028669458703
 30
0.0
 11
-485.78108692796161
 21
829.9028669458703
 31
0.0
 70
             128
 71
               5
 72
               1
 41
1.0
 42
0.0
  3
tfrom線あり
100
AcDbAlignedDimension
 13
-323.27710957536112
 23
587.4028669458703
 33
0.0
 14
-648.2850642805621
 24
587.4028669458703
 34
0.0
100
AcDbRotatedDimension
1001
ACAD
1000
DSTYLE
1002
{
1070
             271
1070
               0
1070
             279
1070
               2
1070
             340
1005
2D
1070
             147
1040
5.0
1002
}
  0
DIMENSION
  5
E5
100
AcDbEntity
  8
notes
370
               5
390
0
  6
Continuous
 62
               7
100
AcDbDimension
  2
*D4
 10
-348.28108692796161
 20
299.89888959317022
 30
0.0
 11
-485.78108692796184
 21
304.89888959317022
 31
0.0
 70
             128
 71
               5
 72
               1
 41
1.0
 42
0.0
  3
tfrom線あり
100
AcDbAlignedDimension
 13
-623.28108692796206
 23
475.80032656742634
 33
0.0
 14
-348.28108692796161
 24
475.80032656742634
 34
0.0
100
AcDbRotatedDimension
1001
ACAD
1000
DSTYLE
1002
{
1070
             279
1070
               2
1070
             340
1005
2D
1070
             147
1040
5.0
1002
}
  0
DIMENSION
  5
E6
100
AcDbEntity
  8
notes
370
               5
390
0
  6
Continuous
 62
               7
100
AcDbDimension
  2
*D5
 10
258.87644771183602
 20
-394.94068142410134
 30
0.0
 11
253.87644771183602
 21
-384.94068142410134
 31
0.0
 70
             128
 71
               5
 72
               1
 41
1.0
 42
0.0
  3
tfrom線あり
100
AcDbAlignedDimension
 13
259.19695578752476
 23
-500.94068142410134
 33
0.0
 14
259.19695578752476
 24
-394.94068142410134
 34
0.0
 50
90.0
100
AcDbRotatedDimension
1001
ACAD
1000
DSTYLE
1002
{
1070
             279
1070
               2
1070
             340
1005
2D
1070
               3
1000
<>(深さ)
1070
             174
1070
               0
1070
             147
1040
5.0
1002
}
  0
DIMENSION
  5
E7
100
AcDbEntity
  8
notes
370
               5
390
0
  6
Continuous
 62
               7
100
AcDbDimension
  2
*D6
 10
518.94060880923826
 20
-394.94068142410134
 30
0.0
 11
518.94060880923826
 21
-457.44068142410134
 31
0.0
 71
               5
 72
               1
 41
1.0
 42
0.0
  3
tfrom線あり
100
AcDbAlignedDimension
 13
416.26790163000578
 23
-519.94068142410129
 33
0.0
 14
416.26790162992688
 24
-394.94068142410134
 34
0.0
 50
90.0
100
AcDbRotatedDimension
1001
ACAD
1000
DSTYLE
1002
{
1070
             279
1070
               2
1070
             340
1005
2D
1070
             147
1040
5.0
1002
}
  0
DIMENSION
  5
E8
100
AcDbEntity
  8
notes
370
               5
390
0
  6
Continuous
 62
               7
100
AcDbDimension
  2
*D7
 10
94.879999949037142
 20
-603.84050678209405
 30
0.0
 11
176.12999994903709
 21
-603.84050678209405
 31
0.0
 71
               5
 72
               1
 41
1.0
 42
0.0
  3
tfrom線あり
100
AcDbAlignedDimension
 13
257.37999994903703
 23
-504.40388897130134
 33
0.0
 14
94.879999949037142
 24
-516.44068142410129
 34
0.0
100
AcDbRotatedDimension
1001
ACAD
1000
DSTYLE
1002
{
1070
             279
1070
               2
1070
             340
1005
2D
1070
             147
1040
5.0
1002
}
  0
DIMENSION
  5
E9
100
AcDbEntity
  8
notes
370
               5
390
0
  6
Continuous
 62
               7
100
AcDbDimension
  2
*D8
 10
214.89754391836829
 20
604.82927381706304
 30
0.0
 11
442.83559773696743
 21
436.89121999846418
 31
0.0
 70
               3
 71
               5
 72
               1
 41
1.0
 42
0.0
  3
tfrom線あり
100
AcDbDiametricDimension
 15
299.75035766075399
 25
519.97646007467745
 35
0.0
 40
117.50027334880558
1001
ACAD
1000
DSTYLE
1002
{
1070
             289
1070
               0
1070
             342
1005
41
1070
             340
1005
2D
1070
              73
1070
               1
1070
              74
1070
               1
1070
              75
1070
               1
1070
              76
1070
               1
1070
               3
1000

1070
             174
1070
               0
1070
             147
1040
5.0
1002
}
  0
MTEXT
  5
EA
100
AcDbEntity
  8
notes
390
0
 62
               7
100
AcDbMText
 10
-29.424159375869408
 20
179.35872241007684
 30
0.0
 40
24.432617187500004
 41
0.0
 71
               1
 72
               1
  1
※カウンターの切込は、商品に付属する型紙を\P　ご参照の上、加工を行ってください。
  7
MS-Gothic
 73
               1
 44
1.1742401076386764
  0
DIMENSION
  5
EB
100
AcDbEntity
  8
notes
370
               5
390
0
  6
Continuous
 62
               7
100
AcDbDimension
  2
*D9
 10
-205.73209836999422
 20
-394.94068142410134
 30
0.0
 11
-205.73209836999422
 21
-472.94068142410134
 31
0.0
 71
               5
 72
               1
 41
1.0
 42
0.0
  3
tfrom線あり
100
AcDbAlignedDimension
 13
-448.28108692796161
 23
-550.94068142410129
 33
0.0
 14
-326.83713608747678
 24
-394.94068142410134
 34
0.0
 50
90.0
100
AcDbRotatedDimension
1001
ACAD
1000
DSTYLE
1002
{
1070
             279
1070
               2
1070
             340
1005
2D
1070
             147
1040
5.0
1002
}
  0
LINE
  5
EC
100
AcDbEntity
  8
FAN70-0711
370
              15
390
0
  6
Continuous
 62
               7
100
AcDbLine
 10
-648.22503776844667
 20
-398.44068142410134
 30
0.0
 11
-648.22503776844667
 21
-516.44068142410129
 31
0.0
  0
LINE
  5
ED
100
AcDbEntity
  8
FAN70-0711
370
              15
390
0
  6
Continuous
 62
               7
100
AcDbLine
 10
-323.33713608747678
 20
-516.44068142410129
 30
0.0
 11
-323.33713608747678
 21
-398.44068142410134
 31
0.0
  0
ARC
  5
EE
100
AcDbEntity
  8
FAN70-0711
370
              15
390
0
  6
Continuous
 62
               7
100
AcDbCircle
 10
-644.72503776844667
 20
-516.44068142410129
 30
0.0
 40
3.5
100
AcDbArc
 50
180.0
 51
270.00000000000369
  0
ARC
  5
EF
100
AcDbEntity
  8
FAN70-0711
370
              15
390
0
  6
Continuous
 62
               7
100
AcDbCircle
 10
-326.83713608747678
 20
-516.44068142410129
 30
0.0
 40
3.5000000000001137
100
AcDbArc
 50
270.00000000000369
 51
0.0
  0
ARC
  5
F0
100
AcDbEntity
  8
FAN70-0711
370
              15
390
0
  6
Continuous
 62
               7
100
AcDbCircle
 10
-326.83713608747678
 20
-398.44068142410134
 30
0.0
 40
3.5
100
AcDbArc
 50
0.0
 51
90.0
  0
ARC
  5
F1
100
AcDbEntity
  8
FAN70-0711
370
              15
390
0
  6
Continuous
 62
               7
100
AcDbCircle
 10
-644.72503776844667
 20
-398.44068142410134
 30
0.0
 40
3.5
100
AcDbArc
 50
90.0
 51
180.0
  0
LINE
  5
F2
100
AcDbEntity
  8
FAN70-0711
370
              15
390
0
  6
Continuous
 62
               7
100
AcDbLine
 10
-485.78108692796206
 20
-519.94068142410129
 30
0.0
 11
-644.72503776844667
 21
-519.94068142410129
 31
0.0
  0
LINE
  5
F3
100
AcDbEntity
  8
FAN70-0711
370
              15
390
0
  6
Continuous
 62
               7
100
AcDbLine
 10
-326.83713608747678
 20
-519.94068142410129
 30
0.0
 11
-485.78108692796206
 21
-519.94068142410129
 31
0.0
  0
LINE
  5
F4
100
AcDbEntity
  8
FAN70-0711
370
              15
390
0
  6
Continuous
 62
               7
100
AcDbLine
 10
-644.72503776844667
 20
-394.94068142410134
 30
0.0
 11
-326.83713608747678
 21
-394.94068142410134
 31
0.0
  0
LINE
  5
F5
100
AcDbEntity
  8
FAN70-0711
370
              15
390
0
  6
Continuous
 62
               7
100
AcDbLine
 10
94.879999949037369
 20
-398.44068142410134
 30
0.0
 11
94.879999949037369
 21
-516.44068142410129
 31
0.0
  0
LINE
  5
F6
100
AcDbEntity
  8
FAN70-0711
370
              15
390
0
  6
Continuous
 62
               7
100
AcDbLine
 10
419.76790163000601
 20
-516.44068142410129
 30
0.0
 11
419.76790163000601
 21
-398.44068142410134
 31
0.0
  0
ARC
  5
F7
100
AcDbEntity
  8
FAN70-0711
370
              15
390
0
  6
Continuous
 62
               7
100
AcDbCircle
 10
98.379999949037256
 20
-516.44068142410129
 30
0.0
 40
3.5000000000001137
100
AcDbArc
 50
180.0
 51
270.0
  0
ARC
  5
F8
100
AcDbEntity
  8
FAN70-0711
370
              15
390
0
  6
Continuous
 62
               7
100
AcDbCircle
 10
416.26790163000578
 20
-516.44068142410129
 30
0.0
 40
3.5000000000002274
100
AcDbArc
 50
270.0
 51
0.0
  0
ARC
  5
F9
100
AcDbEntity
  8
FAN70-0711
370
              15
390
0
  6
Continuous
 62
               7
100
AcDbCircle
 10
416.26790163000578
 20
-398.44068142410134
 30
0.0
 40
3.5000000000002274
100
AcDbArc
 50
0.0
 51
90.0
  0
ARC
  5
FA
100
AcDbEntity
  8
FAN70-0711
370
              15
390
0
  6
Continuous
 62
               7
100
AcDbCircle
 10
98.379999949037256
 20
-398.44068142410134
 30
0.0
 40
3.5
100
AcDbArc
 50
90.0
 51
180.0
  0
LINE
  5
FB
100
AcDbEntity
  8
FAN70-0711
370
              15
390
0
  6
Continuous
 62
               7
100
AcDbLine
 10
416.26790163000578
 20
-519.94068142410129
 30
0.0
 11
98.379999949116382
 21
-519.94068142410129
 31
0.0
  0
LINE
  5
FC
100
AcDbEntity
  8
FAN70-0711
370
              15
390
0
  6
Continuous
 62
               7
100
AcDbLine
 10
98.379999949037256
 20
-394.94068142410134
 30
0.0
 11
416.26790162992688
 21
-394.94068142410134
 31
0.0
  0
LINE
  5
FD
100
AcDbEntity
  8
FAN70-0711
370
              15
390
0
  6
STYLE_12
 62
               7
100
AcDbLine
 10
-461.78108692796206
 20
-504.40388897130134
 30
0.0
 11
-509.78108692796206
 21
-504.40388897130134
 31
0.0
  0
CIRCLE
  5
FE
100
AcDbEntity
  8
FAN70-0711
370
              15
390
0
  6
Continuous
 62
               7
100
AcDbCircle
 10
-485.78108692796206
 20
562.4028669458703
 30
0.0
 40
162.50000000000091
  0
CIRCLE
  5
FF
100
AcDbEntity
  8
FAN70-0711
370
              15
390
0
  6
Continuous
 62
               7
100
AcDbCircle
 10
-485.78108692796206
 20
562.4028669458703
 30
0.0
 40
137.50000000000045
  0
CIRCLE
  5
100
100
AcDbEntity
  8
FAN70-0711
370
              15
390
0
  6
Continuous
 62
               7
100
AcDbCircle
 10
-485.78108692796206
 20
562.4028669458703
 30
0.0
 40
34.748994922099882
  0
CIRCLE
  5
101
100
AcDbEntity
  8
FAN70-0711
370
              15
390
0
  6
Continuous
 62
               7
100
AcDbCircle
 10
-485.78108692796206
 20
562.4028669458703
 30
0.0
 40
24.0
  0
LINE
  5
102
100
AcDbEntity
  8
FAN70-0711
370
              15
390
0
  6
STYLE_12
 62
               7
100
AcDbLine
 10
281.32395062627131
 20
-504.40388897130134
 30
0.0
 11
233.32395078957177
 21
-504.40388897130134
 31
0.0
  0
ARC
  5
103
100
AcDbEntity
  8
FAN70-0711
370
              15
390
0
  6
STYLE_12
 62
               7
100
AcDbCircle
 10
-485.78108692796206
 20
-356.80388897130121
 30
0.0
 40
142.60000000000014
100
AcDbArc
 50
195.48742535345292
 51
253.78460857437776
  0
ARC
  5
104
100
AcDbEntity
  8
FAN70-0711
370
              15
390
0
  6
STYLE_12
 62
               7
100
AcDbCircle
 10
-529.52379412797166
 20
-508.88072094766773
 30
0.0
 40
15.64903118714825
100
AcDbArc
 50
49.7284197535526
 51
75.486435725198632
  0
LINE
  5
105
100
AcDbEntity
  8
FAN70-0711
370
              15
390
0
  6
STYLE_12
 62
               7
100
AcDbLine
 10
-519.40808193000896
 20
-496.94068142410134
 30
0.0
 11
-509.78108692796206
 21
-504.40388897130134
 31
0.0
  0
ARC
  5
106
100
AcDbEntity
  8
FAN70-0711
370
              15
390
0
  6
STYLE_12
 62
               7
100
AcDbCircle
 10
-485.78108692796206
 20
-356.80388897130121
 30
0.0
 40
142.60000000000005
100
AcDbArc
 50
286.21539142562227
 51
344.51257464654725
  0
ARC
  5
107
100
AcDbEntity
  8
FAN70-0711
370
              15
390
0
  6
STYLE_12
 62
               7
100
AcDbCircle
 10
-442.03837972795247
 20
-508.88072094766773
 30
0.0
 40
15.649031187148376
100
AcDbArc
 50
104.5135642748014
 51
130.2715802464474
  0
LINE
  5
108
100
AcDbEntity
  8
FAN70-0711
370
              15
390
0
  6
STYLE_12
 62
               7
100
AcDbLine
 10
-452.15409192591517
 20
-496.94068142410134
 30
0.0
 11
-461.78108692796206
 21
-504.40388897130134
 31
0.0
  0
ARC
  5
109
100
AcDbEntity
  8
FAN70-0711
370
              15
390
0
  6
STYLE_12
 62
               7
100
AcDbCircle
 10
257.32395078957165
 20
-356.80388897130121
 30
0.0
 40
142.60000000000002
100
AcDbArc
 50
195.48742535345292
 51
253.78460857437778
  0
ARC
  5
10A
100
AcDbEntity
  8
FAN70-0711
370
              15
390
0
  6
STYLE_12
 62
               7
100
AcDbCircle
 10
213.58124358956218
 20
-508.88072094766773
 30
0.0
 40
15.64903118714825
100
AcDbArc
 50
49.7284197535526
 51
75.486435725198632
  0
LINE
  5
10B
100
AcDbEntity
  8
FAN70-0711
370
              15
390
0
  6
STYLE_12
 62
               7
100
AcDbLine
 10
223.69695578752487
 20
-496.94068142410134
 30
0.0
 11
233.32395078957177
 21
-504.40388897130134
 31
0.0
  0
ARC
  5
10C
100
AcDbEntity
  8
FAN70-0711
370
              15
390
0
  6
STYLE_12
 62
               7
100
AcDbCircle
 10
257.32395078957165
 20
-356.80388897130121
 30
0.0
 40
142.59999999999999
100
AcDbArc
 50
286.21539142562216
 51
344.51257464654708
  0
ARC
  5
10D
100
AcDbEntity
  8
FAN70-0711
370
              15
390
0
  6
STYLE_12
 62
               7
100
AcDbCircle
 10
301.06665798958102
 20
-508.88072094766773
 30
0.0
 40
15.649031187148376
100
AcDbArc
 50
104.5135642748014
 51
130.27158024644726
  0
LINE
  5
10E
100
AcDbEntity
  8
FAN70-0711
370
              15
390
0
  6
STYLE_12
 62
               7
100
AcDbLine
 10
290.95094579161838
 20
-496.94068142410134
 30
0.0
 11
281.32395078957154
 21
-504.40388897130134
 31
0.0
  0
CIRCLE
  5
10F
100
AcDbEntity
  8
FAN70-0711
370
               5
390
0
  6
STYLE_12
 62
               7
100
AcDbCircle
 10
257.32395078956114
 20
562.4028669458703
 30
0.0
 40
162.49999999999935
  0
CIRCLE
  5
110
100
AcDbEntity
  8
FAN70-0711
370
               5
390
0
  6
STYLE_12
 62
               7
100
AcDbCircle
 10
257.32395078956114
 20
562.4028669458703
 30
0.0
 40
139.99999999999935
  0
CIRCLE
  5
111
100
AcDbEntity
  8
FAN70-0711
370
               5
390
0
  6
STYLE_12
 62
               7
100
AcDbCircle
 10
257.32395078956114
 20
562.4028669458703
 30
0.0
 40
26.522965659899739
  0
CIRCLE
  5
112
100
AcDbEntity
  8
FAN70-0711
370
              15
390
0
  6
Continuous
 62
               7
100
AcDbCircle
 10
257.32395078956114
 20
562.4028669458703
 30
0.0
 40
60.0
  0
INSERT
  5
113
100
AcDbEntity
  8
FAN70-0711
390
0
 62
               7
100
AcDbBlockReference
  2
グループ-1
 10
649.00990772348212
 20
389.74337372796418
 30
0.0
  0
INSERT
  5
114
100
AcDbEntity
  8
FAN70-0711
390
0
 62
               7
100
AcDbBlockReference
  2
グループ-2
 10
649.00990772348212
 20
389.74337372796418
 30
0.0
  0
ENDSEC
  0
SECTION
  2
OBJECTS
  0
DICTIONARY
  5
19
100
AcDbDictionary
280
               0
281
               1
  3
ACAD_GROUP
350
1A
  3
ACAD_MLINESTYLE
350
1B
  3
ACAD_LAYOUT
350
1E
  3
ACAD_PLOTSETTINGS
350
22
  3
ACAD_PLOTSTYLENAME
350
1F
  0
DICTIONARY
  5
1A
102
{ACAD_REACTORS
330
19
102
}
100
AcDbDictionary
280
               0
281
               1
  0
DICTIONARY
  5
1B
102
{ACAD_REACTORS
330
19
102
}
100
AcDbDictionary
280
               0
281
               1
  3
Standard
350
1C
  0
MLINESTYLE
  5
1C
102
{ACAD_REACTORS
330
1B
102
}
100
AcDbMlineStyle
  2
Standard
 70
               0
  3

 62
               0
 51
90.0
 52
90.0
 71
               2
 49
0.5
 62
             256
  6
ByLayer
 49
-0.5
 62
             256
  6
ByLayer
  0
ACDBDICTIONARYWDFLT
  5
1F
102
{ACAD_REACTORS
330
19
102
}
100
AcDbDictionary
281
               1
  3
Normal
350
1D
100
AcDbDictionaryWithDefault
340
1D
  0
ACDBPLACEHOLDER
  5
1D
102
{ACAD_REACTORS
330
1F
102
}
  0
LAYOUT
  5
20
102
{ACAD_REACTORS
330
1E
102
}
100
AcDbPlotSettings
  1

  2

  4

  6

 40
0.0
 41
0.0
 42
0.0
 43
0.0
 44
0.0
 45
0.0
 46
0.0
 47
0.0
 48
0.0
 49
0.0
140
0.0
141
0.0
142
1.0
143
1.0
 70
            1024
 72
               0
 73
               0
 74
               0
  7

 75
               0
147
1.0
148
0.0
149
0.0
100
AcDbLayout
  1
Model
 70
               0
 71
               0
 10
0.0
 20
0.0
 11
0.0
 21
0.0
 12
0.0
 22
0.0
 32
0.0
 14
0.0
 24
0.0
 34
0.0
 15
0.0
 25
0.0
 35
0.0
146
0.0
 13
0.0
 23
0.0
 33
0.0
 16
0.0
 26
0.0
 36
0.0
 17
0.0
 27
0.0
 37
0.0
 76
               0
330
A
331
0
345
0
346
0
  0
LAYOUT
  5
21
102
{ACAD_REACTORS
330
1E
102
}
100
AcDbPlotSettings
  1

  2

  4

  6

 40
0.0
 41
0.0
 42
0.0
 43
0.0
 44
0.0
 45
0.0
 46
0.0
 47
0.0
 48
0.0
 49
0.0
140
0.0
141
0.0
142
1.0
143
1.0
 70
               0
 72
               0
 73
               0
 74
               0
  7

 75
               0
147
1.0
148
0.0
149
0.0
100
AcDbLayout
  1
Layout1
 70
               0
 71
               0
 10
0.0
 20
0.0
 11
0.0
 21
0.0
 12
0.0
 22
0.0
 32
0.0
 14
0.0
 24
0.0
 34
0.0
 15
0.0
 25
0.0
 35
0.0
146
0.0
 13
0.0
 23
0.0
 33
0.0
 16
0.0
 26
0.0
 36
0.0
 17
0.0
 27
0.0
 37
0.0
 76
               0
330
B
331
0
345
0
346
0
  0
DICTIONARY
  5
1E
102
{ACAD_REACTORS
330
19
102
}
100
AcDbDictionary
280
               0
281
               1
  3
Layout1
350
21
  3
Model
350
20
  0
DICTIONARY
  5
22
102
{ACAD_REACTORS
330
19
102
}
100
AcDbDictionary
280
               0
281
               1
  0
ENDSEC
  0
EOF
