  0
SECTION
  2
HEADER
  9
$ACADVER
  1
AC1015
  9
$ACADMAINTVER
 70
               6
  9
$DWGCODEPAGE
  3
ANSI_932
  9
$INSBASE
 10
0.0
 20
0.0
 30
0.0
  9
$EXTMIN
 10
-975.00000000024124
 20
-1431.5255224711129
 30
-14.428611111111111
  9
$EXTMAX
 10
975.00000000024124
 20
1405.9972926412995
 30
14.428611111111111
  9
$LIMMIN
 10
0.0
 20
0.0
  9
$LIMMAX
 10
0.0
 20
0.0
  9
$ORTHOMODE
 70
               0
  9
$REGENMODE
 70
               1
  9
$FILLMODE
 70
               1
  9
$QTEXTMODE
 70
               0
  9
$MIRRTEXT
 70
               1
  9
$LTSCALE
 40
50.799999999999997
  9
$ATTMODE
 70
               1
  9
$TEXTSIZE
 40
0.2
  9
$TRACEWID
 40
1.0
  9
$TEXTSTYLE
  7
Standard
  9
$CLAYER
  8
template
  9
$CELTYPE
  6
Continuous
  9
$CECOLOR
 62
             256
  9
$CELTSCALE
 40
1.0
  9
$DISPSILH
 70
               0
  9
$DIMSCALE
 40
1.0
  9
$DIMASZ
 40
31.75
  9
$DIMEXO
 40
0.0
  9
$DIMDLI
 40
6.9999999999999396
  9
$DIMRND
 40
0.0
  9
$DIMDLE
 40
0.0
  9
$DIMEXE
 40
19.999999999996199
  9
$DIMTP
 40
0.0
  9
$DIMTM
 40
0.0
  9
$DIMTXT
 40
24.432617187500004
  9
$DIMCEN
 40
0.0
  9
$DIMTSZ
 40
0.0
  9
$DIMTOL
 70
               0
  9
$DIMLIM
 70
               0
  9
$DIMTIH
 70
               0
  9
$DIMTOH
 70
               0
  9
$DIMSE1
 70
               0
  9
$DIMSE2
 70
               0
  9
$DIMTAD
 70
               1
  9
$DIMZIN
 70
              11
  9
$DIMBLK
  1
VW_FILLEDARROW
  9
$DIMASO
 70
               1
  9
$DIMSHO
 70
               1
  9
$DIMPOST
  1
<>
  9
$DIMAPOST
  1
[]
  9
$DIMALT
 70
               0
  9
$DIMALTD
 70
               1
  9
$DIMALTF
 40
1.0
  9
$DIMLFAC
 40
1.0
  9
$DIMTOFL
 70
               0
  9
$DIMTVP
 40
0.0
  9
$DIMTIX
 70
               1
  9
$DIMSOXD
 70
               0
  9
$DIMSAH
 70
               0
  9
$DIMBLK1
  1

  9
$DIMBLK2
  1

  9
$DIMSTYLE
  2
JIS
  9
$DIMCLRD
 70
               0
  9
$DIMCLRE
 70
               0
  9
$DIMCLRT
 70
               0
  9
$DIMTFAC
 40
1.0
  9
$DIMGAP
 40
1.00000000000108
  9
$DIMJUST
 70
               0
  9
$DIMSD1
 70
               0
  9
$DIMSD2
 70
               0
  9
$DIMTOLJ
 70
               1
  9
$DIMTZIN
 70
              11
  9
$DIMALTZ
 70
              11
  9
$DIMALTTZ
 70
              11
  9
$DIMUPT
 70
               0
  9
$DIMDEC
 70
               1
  9
$DIMTDEC
 70
               1
  9
$DIMALTU
 70
               2
  9
$DIMALTTD
 70
               2
  9
$DIMTXSTY
  7
ＭＳ ゴシック
  9
$DIMAUNIT
 70
               0
  9
$DIMADEC
 70
               2
  9
$DIMALTRND
 40
0.0
  9
$DIMAZIN
 70
               0
  9
$DIMDSEP
 70
              46
  9
$DIMATFIT
 70
               0
  9
$DIMFRAC
 70
               2
  9
$DIMLDRBLK
  1

  9
$DIMLUNIT
 70
               2
  9
$DIMLWD
 70
              -2
  9
$DIMLWE
 70
              -2
  9
$DIMTMOVE
 70
               0
  9
$LUNITS
 70
               2
  9
$LUPREC
 70
               4
  9
$SKETCHINC
 40
0.1
  9
$FILLETRAD
 40
0.0
  9
$AUNITS
 70
               0
  9
$AUPREC
 70
               0
  9
$MENU
  1
acad
  9
$ELEVATION
 40
0.0
  9
$PELEVATION
 40
0.0
  9
$THICKNESS
 40
0.0
  9
$LIMCHECK
 70
               0
  9
$CHAMFERA
 40
0.0
  9
$CHAMFERB
 40
0.0
  9
$CHAMFERC
 40
0.0
  9
$CHAMFERD
 40
0.0
  9
$SKPOLY
 70
               0
  9
$TDCREATE
 40
2456066.695949074
  9
$TDUCREATE
 40
0.000000000
  9
$TDUPDATE
 40
2456066.695949074
  9
$TDUUPDATE
 40
0.000000000
  9
$TDINDWG
 40
0.0000000000
  9
$TDUSRTIMER
 40
0.0000000000
  9
$USRTIMER
 70
               1
  9
$ANGBASE
 50
0.0
  9
$ANGDIR
 70
               0
  9
$PDMODE
 70
               1
  9
$PDSIZE
 40
-2.0
  9
$PLINEWID
 40
0.0
  9
$SPLFRAME
 70
               0
  9
$SPLINETYPE
 70
               6
  9
$SPLINESEGS
 70
               8
  9
$HANDSEED
  5
35F
  9
$SURFTAB1
 70
               6
  9
$SURFTAB2
 70
               6
  9
$SURFTYPE
 70
               6
  9
$SURFU
 70
               6
  9
$SURFV
 70
               6
  9
$UCSBASE
  2

  9
$UCSNAME
  2

  9
$UCSORG
 10
0.0
 20
0.0
 30
0.0
  9
$UCSXDIR
 10
1.0
 20
0.0
 30
0.0
  9
$UCSYDIR
 10
0.0
 20
1.0
 30
0.0
  9
$UCSORTHOREF
  2

  9
$UCSORTHOVIEW
 70
               0
  9
$UCSORGTOP
 10
0.0
 20
0.0
 30
0.0
  9
$UCSORGBOTTOM
 10
0.0
 20
0.0
 30
0.0
  9
$UCSORGLEFT
 10
0.0
 20
0.0
 30
0.0
  9
$UCSORGRIGHT
 10
0.0
 20
0.0
 30
0.0
  9
$UCSORGFRONT
 10
0.0
 20
0.0
 30
0.0
  9
$UCSORGBACK
 10
0.0
 20
0.0
 30
0.0
  9
$PUCSBASE
  2

  9
$PUCSNAME
  2

  9
$PUCSORG
 10
0.0
 20
0.0
 30
0.0
  9
$PUCSXDIR
 10
1.0
 20
0.0
 30
0.0
  9
$PUCSYDIR
 10
0.0
 20
1.0
 30
0.0
  9
$PUCSORTHOREF
  2

  9
$PUCSORTHOVIEW
 70
               0
  9
$PUCSORGTOP
 10
0.0
 20
0.0
 30
0.0
  9
$PUCSORGBOTTOM
 10
0.0
 20
0.0
 30
0.0
  9
$PUCSORGLEFT
 10
0.0
 20
0.0
 30
0.0
  9
$PUCSORGRIGHT
 10
0.0
 20
0.0
 30
0.0
  9
$PUCSORGFRONT
 10
0.0
 20
0.0
 30
0.0
  9
$PUCSORGBACK
 10
0.0
 20
0.0
 30
0.0
  9
$USERI1
 70
               0
  9
$USERI2
 70
               0
  9
$USERI3
 70
               0
  9
$USERI4
 70
               0
  9
$USERI5
 70
               0
  9
$USERR1
 40
0.0
  9
$USERR2
 40
0.0
  9
$USERR3
 40
0.0
  9
$USERR4
 40
0.0
  9
$USERR5
 40
0.0
  9
$WORLDVIEW
 70
               1
  9
$SHADEDGE
 70
               3
  9
$SHADEDIF
 70
              70
  9
$TILEMODE
 70
               1
  9
$MAXACTVP
 70
              64
  9
$PINSBASE
 10
0.0
 20
0.0
 30
0.0
  9
$PLIMCHECK
 70
               0
  9
$PEXTMIN
 10
1.0000000000000000E+20
 20
1.0000000000000000E+20
 30
1.0000000000000000E+20
  9
$PEXTMAX
 10
-1.0000000000000000E+20
 20
-1.0000000000000000E+20
 30
-1.0000000000000000E+20
  9
$PLIMMIN
 10
0.0
 20
0.0
  9
$PLIMMAX
 10
12.0
 20
9.0
  9
$UNITMODE
 70
               0
  9
$VISRETAIN
 70
               0
  9
$PLINEGEN
 70
               1
  9
$PSLTSCALE
 70
               0
  9
$TREEDEPTH
 70
            3020
  9
$CMLSTYLE
  2
Standard
  9
$CMLJUST
 70
               0
  9
$CMLSCALE
 40
1.0
  9
$PROXYGRAPHICS
 70
               0
  9
$MEASUREMENT
 70
               1
  9
$CELWEIGHT
370
               0
  9
$ENDCAPS
280
               0
  9
$JOINSTYLE
280
               0
  9
$LWDISPLAY
290
               1
  9
$INSUNITS
 70
               4
  9
$HYPERLINKBASE
  1

  9
$STYLESHEET
  1

  9
$XEDIT
290
               1
  9
$CEPSNTYPE
380
               0
  9
$PSTYLEMODE
290
               1
  9
$FINGERPRINTGUID
  2

  9
$VERSIONGUID
  2

  9
$EXTNAMES
290
               1
  9
$PSVPSCALE
 40
0.0
  0
ENDSEC
  0
SECTION
  2
CLASSES
  0
CLASS
  1
LWPOLYLINE
  2
AcDbPolyline
  3
AutoCAD 2000
 90
        0
280
               0
281
               1
  0
CLASS
  1
IMAGE
  2
AcDbRasterImage
  3
ISM
 90
      127
280
               0
281
               1
  0
CLASS
  1
OLE2FRAME
  2
AcDbOle2Frame
  3
AutoCAD 2000
 90
        0
280
               0
281
               1
  0
CLASS
  1
HATCH
  2
AcDbHatch
  3
AutoCAD 2000
 90
        0
280
               0
281
               1
  0
CLASS
  1
DICTIONARYVAR
  2
AcDbDictionaryVar
  3
AutoCAD 2000
 90
        0
280
               0
281
               0
  0
CLASS
  1
RASTERVARIABLES
  2
AcDbRasterVariables
  3
ISM
 90
        0
280
               0
281
               0
  0
CLASS
  1
IMAGEDEF
  2
AcDbRasterImageDef
  3
ISM
 90
        0
280
               0
281
               0
  0
CLASS
  1
IMAGEDEF_REACTOR
  2
AcDbRasterImageDefReactor
  3
ISM
 90
        1
280
               0
281
               0
  0
CLASS
  1
IDBUFFER
  2
AcDbIdBuffer
  3
AutoCAD 2000
 90
        0
280
               0
281
               0
  0
CLASS
  1
SPATIAL_FILTER
  2
AcDbSpatialFilter
  3
AutoCAD 2000
 90
        0
280
               0
281
               0
  0
CLASS
  1
XRECORD
  2
AcDbXrecord
  3
AutoCAD 2000
 90
        0
280
               0
281
               0
  0
CLASS
  1
SORTENTSTABLE
  2
AcDbSortentsTable
  3
AutoCAD 2000
 90
        0
280
               0
281
               0
  0
CLASS
  1
LAYER_INDEX
  2
AcDbLayerIndex
  3
AutoCAD 2000
 90
        0
280
               0
281
               0
  0
CLASS
  1
SPATIAL_INDEX
  2
AcDbSpatialIndex
  3
AutoCAD 2000
 90
        0
280
               0
281
               0
  0
CLASS
  1
OBJECT_PTR
  2
CAseDLPNTableRecord
  3
"ASE-LPNTableRecord"
 90
        1
280
               0
281
               0
  0
CLASS
  1
LAYOUT
  2
AcDbLayout
  3
AutoCAD 2000
 90
        0
280
               0
281
               0
  0
CLASS
  1
PLOTSETTINGS
  2
AcDbPlotSettings
  3
AutoCAD 2000
 90
        0
280
               0
281
               0
  0
CLASS
  1
ACDBDICTIONARYWDFLT
  2
AcDbDictionaryWithDefault
  3
AutoCAD 2000
 90
        0
280
               0
281
               0
  0
CLASS
  1
ACDBPLACEHOLDER
  2
AcDbPlaceHolder
  3
AutoCAD 2000
 90
        0
280
               0
281
               0
  0
ENDSEC
  0
SECTION
  2
TABLES
  0
TABLE
  2
VPORT
  5
7
100
AcDbSymbolTable
 70
               1
  0
VPORT
  5
15
100
AcDbSymbolTableRecord
100
AcDbViewportTableRecord
  2
*ACTIVE
 70
               0
 10
0.0
 20
0.0
 11
1.0
 21
1.0
 12
0.0
 22
-12.764114914906713
 13
0.0
 23
0.0
 14
1.0
 24
1.0
 15
0.0
 25
0.0
 16
0.0
 26
0.0
 36
1.0
 17
0.0
 27
0.0
 37
0.0
 40
2837.5228151124124
 41
0.688564
 42
50.0
 43
0.0
 44
0.0
 50
0.0
 51
0.0
 71
               0
 72
            2000
 73
               1
 74
               1
 75
               0
 76
               0
 77
               0
 78
               0
281
               0
 65
               0
110
0.0
120
0.0
130
0.0
111
1.0
121
0.0
131
0.0
112
0.0
122
1.0
132
0.0
345
0
346
0
 79
               0
146
0.0
  0
ENDTAB
  0
TABLE
  2
LTYPE
  5
4
100
AcDbSymbolTable
 70
              17
  0
LTYPE
  5
11
100
AcDbSymbolTableRecord
100
AcDbLinetypeTableRecord
  2
ByBlock
 70
              64
  3

 72
              65
 73
               0
 40
0.0
  0
LTYPE
  5
12
100
AcDbSymbolTableRecord
100
AcDbLinetypeTableRecord
  2
ByLayer
 70
              64
  3

 72
              65
 73
               0
 40
0.0
  0
LTYPE
  5
13
100
AcDbSymbolTableRecord
100
AcDbLinetypeTableRecord
  2
Continuous
 70
              64
  3
Solid line
 72
              65
 73
               0
 40
0.0
  0
LTYPE
  5
39
100
AcDbSymbolTableRecord
100
AcDbLinetypeTableRecord
  2
STYLE_01
 70
               0
  3

 72
              65
 73
               4
 40
0.3999999999999999
 49
0.25
 74
               0
 49
-0.05
 74
               0
 49
0.05
 74
               0
 49
-0.05
 74
               0
  0
LTYPE
  5
3A
100
AcDbSymbolTableRecord
100
AcDbLinetypeTableRecord
  2
STYLE_02
 70
               0
  3

 72
              65
 73
               4
 40
0.3999999999999999
 49
0.25
 74
               0
 49
-0.05
 74
               0
 49
0.05
 74
               0
 49
-0.05
 74
               0
  0
LTYPE
  5
3B
100
AcDbSymbolTableRecord
100
AcDbLinetypeTableRecord
  2
STYLE_03
 70
               0
  3

 72
              65
 73
               2
 40
1.25
 49
1.0416400000000001
 74
               0
 49
-0.2083599999999999
 74
               0
  0
LTYPE
  5
3C
100
AcDbSymbolTableRecord
100
AcDbLinetypeTableRecord
  2
STYLE_04
 70
               0
  3

 72
              65
 73
               2
 40
1.5277099999999999
 49
1.3194249999999998
 74
               0
 49
-0.208285
 74
               0
  0
LTYPE
  5
3D
100
AcDbSymbolTableRecord
100
AcDbLinetypeTableRecord
  2
STYLE_05
 70
               0
  3

 72
              65
 73
               2
 40
0.20828
 49
0.069425
 74
               0
 49
-0.138855
 74
               0
  0
LTYPE
  5
3E
100
AcDbSymbolTableRecord
100
AcDbLinetypeTableRecord
  2
STYLE_06
 70
               0
  3

 72
              65
 73
               4
 40
1.0416400000000001
 49
0.625
 74
               0
 49
-0.20828
 74
               0
 49
0.06943
 74
               0
 49
-0.13893
 74
               0
  0
LTYPE
  5
3F
100
AcDbSymbolTableRecord
100
AcDbLinetypeTableRecord
  2
STYLE_07
 70
               0
  3

 72
              65
 73
               6
 40
1.875
 49
0.625
 74
               0
 49
-0.20828
 74
               0
 49
0.6250000000000001
 74
               0
 49
-0.2083599999999999
 74
               0
 49
0.06943
 74
               0
 49
-0.1389299999999999
 74
               0
  0
LTYPE
  5
40
100
AcDbSymbolTableRecord
100
AcDbLinetypeTableRecord
  2
STYLE_08
 70
               0
  3

 72
              65
 73
               6
 40
1.25
 49
0.625
 74
               0
 49
-0.20828
 74
               0
 49
0.06943
 74
               0
 49
-0.13893
 74
               0
 49
0.0694299999999999
 74
               0
 49
-0.13893
 74
               0
  0
LTYPE
  5
41
100
AcDbSymbolTableRecord
100
AcDbLinetypeTableRecord
  2
STYLE_09
 70
               0
  3

 72
              65
 73
               4
 40
5.0
 49
3.75
 74
               0
 49
-0.2777849999999998
 74
               0
 49
0.6944300000000003
 74
               0
 49
-0.2777849999999998
 74
               0
  0
LTYPE
  5
42
100
AcDbSymbolTableRecord
100
AcDbLinetypeTableRecord
  2
STYLE_10
 70
               0
  3

 72
              65
 73
               6
 40
5.9375
 49
3.75
 74
               0
 49
-0.2777849999999998
 74
               0
 49
0.6944300000000003
 74
               0
 49
-0.2777849999999998
 74
               0
 49
0.625
 74
               0
 49
-0.3125
 74
               0
  0
LTYPE
  5
43
100
AcDbSymbolTableRecord
100
AcDbLinetypeTableRecord
  2
STYLE_11
 70
               0
  3

 72
              65
 73
               2
 40
0.0694444881889764
 49
0.0347222440944882
 74
               0
 49
-0.0347222440944882
 74
               0
  0
LTYPE
  5
44
100
AcDbSymbolTableRecord
100
AcDbLinetypeTableRecord
  2
STYLE_12
 70
               0
  3

 72
              65
 73
               2
 40
0.3937007874015748
 49
0.1968503937007874
 74
               0
 49
-0.1968503937007874
 74
               0
  0
LTYPE
  5
45
100
AcDbSymbolTableRecord
100
AcDbLinetypeTableRecord
  2
STYLE_13
 70
               0
  3

 72
              65
 73
               2
 40
0.5905511811023622
 49
0.2952755905511811
 74
               0
 49
-0.2952755905511811
 74
               0
  0
LTYPE
  5
46
100
AcDbSymbolTableRecord
100
AcDbLinetypeTableRecord
  2
STYLE_14
 70
               0
  3

 72
              65
 73
               2
 40
1.9685039370078738
 49
0.9842519685039369
 74
               0
 49
-0.9842519685039369
 74
               0
  0
ENDTAB
  0
TABLE
  2
LAYER
  5
2
100
AcDbSymbolTable
 70
               5
  0
LAYER
  5
14
100
AcDbSymbolTableRecord
100
AcDbLayerTableRecord
  2
0
 70
               0
 62
               7
  6
Continuous
290
               1
370
              -3
390
1D
  0
LAYER
  5
47
100
AcDbSymbolTableRecord
100
AcDbLayerTableRecord
  2
Defpoints
 70
               0
 62
               7
  6
Continuous
290
               0
370
              -3
390
1D
  0
LAYER
  5
48
100
AcDbSymbolTableRecord
100
AcDbLayerTableRecord
  2
template
 70
               0
 62
               7
  6
Continuous
290
               1
370
              -3
390
1D
  0
LAYER
  5
49
100
AcDbSymbolTableRecord
100
AcDbLayerTableRecord
  2
notes
 70
               0
 62
               7
  6
Continuous
290
               1
370
              -3
390
1D
  0
LAYER
  5
4A
100
AcDbSymbolTableRecord
100
AcDbLayerTableRecord
  2
FAN70-1303
 70
               0
 62
               7
  6
Continuous
290
               1
370
              -3
390
1D
  0
ENDTAB
  0
TABLE
  2
STYLE
  5
3
100
AcDbSymbolTable
 70
               2
  0
STYLE
  5
17
100
AcDbSymbolTableRecord
100
AcDbTextStyleTableRecord
  2
Standard
 70
               0
 40
0.0
 41
1.0
 50
0.0
 71
               0
 42
0.0
  3
txt
  4
BIGFONT.SHX
  0
STYLE
  5
38
100
AcDbSymbolTableRecord
100
AcDbTextStyleTableRecord
  2
ＭＳ ゴシック
 70
               0
 40
0.0
 41
1.0
 50
0.0
 71
               0
 42
0.0
  3

  4
ＭＳ ゴシック
1001
ACAD
1000
ＭＳ ゴシック
1071
        0
  0
ENDTAB
  0
TABLE
  2
VIEW
  5
5
100
AcDbSymbolTable
 70
               0
  0
ENDTAB
  0
TABLE
  2
UCS
  5
6
100
AcDbSymbolTable
 70
               0
  0
ENDTAB
  0
TABLE
  2
APPID
  5
8
100
AcDbSymbolTable
 70
               1
  0
APPID
  5
16
100
AcDbSymbolTableRecord
100
AcDbRegAppTableRecord
  2
ACAD
 70
               0
  0
ENDTAB
  0
TABLE
  2
DIMSTYLE
  5
9
100
AcDbSymbolTable
 70
               3
100
AcDbDimStyleTable
 71
               0
  0
DIMSTYLE
105
18
100
AcDbSymbolTableRecord
100
AcDbDimStyleTableRecord
  2
Standard
 70
               0
  3

  4

 40
1.0
 41
0.18
 42
0.0625
 43
0.38
 44
0.18
 45
0.0
 46
0.0
 47
0.0
 48
0.0
 71
               0
 72
               0
 73
               1
 74
               1
 75
               0
 76
               0
 77
               0
 78
               0
 79
               0
140
0.18
141
0.09
142
0.0
143
25.399999999999999
144
1.0
145
0.0
146
1.0
147
0.09
148
0.0
170
               0
171
               2
172
               0
173
               0
174
               0
175
               0
176
               0
177
               0
178
               0
179
               0
271
               4
272
               4
273
               2
274
               2
275
               0
276
               0
277
               2
278
              46
279
               0
280
               0
281
               0
282
               0
283
               1
284
               0
285
               0
286
               0
288
               0
289
               3
340
17
341
0
342
0
343
0
344
0
371
              -2
372
              -2
  0
DIMSTYLE
105
53
100
AcDbSymbolTableRecord
100
AcDbDimStyleTableRecord
  2
tfrom線あり
 70
               0
  3
<>
  4
[]
 40
1.0
 41
9.9993896484374982
 42
24.999999999999996
 43
0.9999999999999999
 44
0.0
 45
0.0
 46
0.0
 47
0.0
 48
0.0
 71
               0
 72
               0
 73
               0
 74
               0
 75
               0
 76
               0
 77
               1
 78
              11
 79
               0
140
24.432617187500004
141
0.0
142
0.0
143
1.0
144
1.0
145
0.0
146
1.0
147
0.4999999999999999
148
0.0
170
               0
171
               1
172
               0
173
               0
174
               1
175
               0
176
               0
177
               0
178
               0
179
               2
271
               1
272
               1
273
               2
274
               2
275
               0
276
               2
277
               2
278
              46
279
               0
280
               0
281
               0
282
               0
283
               1
284
              11
285
              11
286
              11
288
               0
289
               0
340
38
341
4B
342
4B
343
0
344
0
371
              -2
372
              -2
  0
DIMSTYLE
105
58
100
AcDbSymbolTableRecord
100
AcDbDimStyleTableRecord
  2
JIS
 70
               0
  3
<>
  4
[]
 40
1.0
 41
31.75
 42
0.0
 43
6.9999999999999396
 44
19.999999999996199
 45
0.0
 46
0.0
 47
0.0
 48
0.0
 71
               0
 72
               0
 73
               0
 74
               0
 75
               0
 76
               0
 77
               1
 78
              11
 79
               0
140
24.432617187500004
141
0.0
142
0.0
143
1.0
144
1.0
145
0.0
146
1.0
147
1.00000000000108
148
0.0
170
               0
171
               1
172
               0
173
               0
174
               1
175
               0
176
               0
177
               0
178
               0
179
               2
271
               1
272
               1
273
               2
274
               2
275
               0
276
               2
277
               2
278
              46
279
               0
280
               0
281
               0
282
               0
283
               1
284
              11
285
              11
286
              11
288
               0
289
               0
340
38
341
54
342
54
343
0
344
0
371
              -2
372
              -2
  0
ENDTAB
  0
TABLE
  2
BLOCK_RECORD
  5
1
100
AcDbSymbolTable
 70
              23
  0
BLOCK_RECORD
  5
A
100
AcDbSymbolTableRecord
100
AcDbBlockTableRecord
  2
*MODEL_SPACE
340
20
  0
BLOCK_RECORD
  5
B
100
AcDbSymbolTableRecord
100
AcDbBlockTableRecord
  2
*PAPER_SPACE
340
21
  0
BLOCK_RECORD
  5
4B
100
AcDbSymbolTableRecord
100
AcDbBlockTableRecord
  2
_DOT
340
0
  0
BLOCK_RECORD
  5
54
100
AcDbSymbolTableRecord
100
AcDbBlockTableRecord
  2
VW_FILLEDARROW
340
0
  0
BLOCK_RECORD
  5
23
100
AcDbSymbolTableRecord
100
AcDbBlockTableRecord
  2
グループ
340
0
102
{BLKREFS
331
160
102
}
  0
BLOCK_RECORD
  5
24
100
AcDbSymbolTableRecord
100
AcDbBlockTableRecord
  2
グループ-1
340
0
102
{BLKREFS
331
16D
102
}
  0
BLOCK_RECORD
  5
25
100
AcDbSymbolTableRecord
100
AcDbBlockTableRecord
  2
*D4
340
0
  0
BLOCK_RECORD
  5
26
100
AcDbSymbolTableRecord
100
AcDbBlockTableRecord
  2
グループ-2
340
0
102
{BLKREFS
331
16F
102
}
  0
BLOCK_RECORD
  5
27
100
AcDbSymbolTableRecord
100
AcDbBlockTableRecord
  2
グループ-3
340
0
102
{BLKREFS
331
170
102
}
  0
BLOCK_RECORD
  5
28
100
AcDbSymbolTableRecord
100
AcDbBlockTableRecord
  2
*D7
340
0
  0
BLOCK_RECORD
  5
29
100
AcDbSymbolTableRecord
100
AcDbBlockTableRecord
  2
*D8
340
0
  0
BLOCK_RECORD
  5
2A
100
AcDbSymbolTableRecord
100
AcDbBlockTableRecord
  2
*D9
340
0
  0
BLOCK_RECORD
  5
2B
100
AcDbSymbolTableRecord
100
AcDbBlockTableRecord
  2
*D10
340
0
  0
BLOCK_RECORD
  5
2C
100
AcDbSymbolTableRecord
100
AcDbBlockTableRecord
  2
*D11
340
0
  0
BLOCK_RECORD
  5
2D
100
AcDbSymbolTableRecord
100
AcDbBlockTableRecord
  2
*D12
340
0
  0
BLOCK_RECORD
  5
2E
100
AcDbSymbolTableRecord
100
AcDbBlockTableRecord
  2
*D13
340
0
  0
BLOCK_RECORD
  5
2F
100
AcDbSymbolTableRecord
100
AcDbBlockTableRecord
  2
*D14
340
0
  0
BLOCK_RECORD
  5
30
100
AcDbSymbolTableRecord
100
AcDbBlockTableRecord
  2
*D15
340
0
  0
BLOCK_RECORD
  5
31
100
AcDbSymbolTableRecord
100
AcDbBlockTableRecord
  2
*D16
340
0
  0
BLOCK_RECORD
  5
32
100
AcDbSymbolTableRecord
100
AcDbBlockTableRecord
  2
*D17
340
0
  0
BLOCK_RECORD
  5
33
100
AcDbSymbolTableRecord
100
AcDbBlockTableRecord
  2
*D18
340
0
  0
BLOCK_RECORD
  5
34
100
AcDbSymbolTableRecord
100
AcDbBlockTableRecord
  2
*D19
340
0
  0
BLOCK_RECORD
  5
35
100
AcDbSymbolTableRecord
100
AcDbBlockTableRecord
  2
*D20
340
0
  0
BLOCK_RECORD
  5
36
100
AcDbSymbolTableRecord
100
AcDbBlockTableRecord
  2
*D21
340
0
  0
BLOCK_RECORD
  5
37
100
AcDbSymbolTableRecord
100
AcDbBlockTableRecord
  2
*D22
340
0
  0
ENDTAB
  0
ENDSEC
  0
SECTION
  2
BLOCKS
  0
BLOCK
  5
D
100
AcDbEntity
  8
0
390
0
100
AcDbBlockBegin
  2
*MODEL_SPACE
 70
               0
 10
0.0
 20
0.0
 30
0.0
  3
*MODEL_SPACE
  1

  0
ENDBLK
  5
E
100
AcDbEntity
  8
0
390
0
100
AcDbBlockEnd
  0
BLOCK
  5
F
100
AcDbEntity
 67
               1
  8
0
390
0
100
AcDbBlockBegin
  2
*PAPER_SPACE
 70
               0
 10
0.0
 20
0.0
 30
0.0
  3
*PAPER_SPACE
  1

  0
ENDBLK
  5
10
100
AcDbEntity
 67
               1
  8
0
390
0
100
AcDbBlockEnd
  0
BLOCK
  5
4C
100
AcDbEntity
  8
0
390
0
100
AcDbBlockBegin
  2
_DOT
 70
               0
 10
0.0
 20
0.0
 30
0.0
  3
_DOT
  1

  0
POLYLINE
  5
4D
100
AcDbEntity
  8
0
370
              -2
390
0
  6
ByBlock
 62
               0
100
AcDb2dPolyline
 66
               1
 10
0.0
 20
0.0
 30
0.0
 70
               1
 40
0.5
 41
0.5
  0
VERTEX
  5
4E
100
AcDbEntity
  8
0
370
              -2
390
0
  6
ByBlock
 62
               0
100
AcDbVertex
100
AcDb2dVertex
 10
-0.25
 20
0.0
 30
0.0
 42
1.0
  0
VERTEX
  5
4F
100
AcDbEntity
  8
0
370
              -2
390
0
  6
ByBlock
 62
               0
100
AcDbVertex
100
AcDb2dVertex
 10
0.25
 20
0.0
 30
0.0
 42
1.0
  0
SEQEND
  5
50
100
AcDbEntity
  8
0
390
0
  0
LINE
  5
51
100
AcDbEntity
  8
0
370
              -2
390
0
  6
ByBlock
 62
               0
100
AcDbLine
 10
-0.5
 20
0.0
 30
0.0
 11
-1.0
 21
0.0
 31
0.0
  0
ENDBLK
  5
52
100
AcDbEntity
  8
0
390
0
100
AcDbBlockEnd
  0
BLOCK
  5
55
100
AcDbEntity
  8
0
370
              -2
390
0
  6
ByBlock
 62
               0
100
AcDbBlockBegin
  2
VW_FILLEDARROW
 70
               0
 10
0.0
 20
0.0
 30
0.0
  3
VW_FILLEDARROW
  1

  0
SOLID
  5
56
100
AcDbEntity
  8
0
370
              -2
390
0
 62
               0
100
AcDbTrace
 10
0.0
 20
0.0
 30
0.0
 11
-0.9921874999999999
 21
-0.2658558393652545
 31
0.0
 12
-0.9921874999999999
 22
0.2658558393652548
 32
0.0
 13
-0.9921874999999999
 23
0.2658558393652548
 33
0.0
  0
ENDBLK
  5
57
100
AcDbEntity
  8
0
390
0
100
AcDbBlockEnd
  0
BLOCK
  5
59
100
AcDbEntity
  8
template
390
0
100
AcDbBlockBegin
  2
グループ
 70
               0
 10
0.0
 20
0.0
 30
0.0
  3
グループ
  1

  0
LWPOLYLINE
  5
5A
100
AcDbEntity
  8
0
370
              15
390
0
  6
Continuous
 62
               7
100
AcDbPolyline
 90
        8
 70
             129
 10
690.67814413036808
 20
-1670.1066527844669
 10
690.67814413036808
 20
-1676.1040414780427
 10
681.17694721236489
 20
-1676.1040414780427
 10
681.17694721236489
 20
-1700.5550047415518
 10
672.82156995058199
 20
-1700.5550047415518
 10
672.82156995058199
 20
-1676.1040414780427
 10
663.48861300427257
 20
-1676.1040414780427
 10
663.48861300427257
 20
-1670.1066527844669
  0
LWPOLYLINE
  5
5B
100
AcDbEntity
  8
0
370
              15
390
0
  6
Continuous
 62
               7
100
AcDbPolyline
 90
      101
 70
             128
 10
703.40643596092514
 20
-1670.8349012774033
 10
703.42178598970838
 20
-1670.8305405207188
 42
-0.0222221607816589
 10
703.71179056638118
 20
-1670.7619160554736
 10
703.72758433037211
 20
-1670.7589126323771
 42
-0.0146883565586447
 10
703.99028703559895
 20
-1670.7169094454273
 42
-0.0127458844182727
 10
704.25492600275516
 20
-1670.6893724773545
 10
704.3173810810647
 20
-1670.6844790547666
 42
-0.0198099018567886
 10
704.70823019053978
 20
-1670.6693938973701
 10
704.7600416599854
 20
-1670.6694476730352
 42
-0.0147617382761943
 10
705.25466512096023
 20
-1670.6845676982803
 10
705.32735657583623
 20
-1670.688940305168
 42
-0.0162624549003033
 10
705.71751020529905
 20
-1670.7251731804402
 10
705.83904259656003
 20
-1670.7404597394368
 42
-0.0080020874661678
 10
705.98462162764986
 20
-1670.7611425867051
 10
706.0229410982447
 20
-1670.7672138645162
 42
-0.0053821929677608
 10
706.09142520355977
 20
-1670.7788213883377
 10
705.36501950436104
 20
-1672.9597498440517
 42
0.0108667757393232
 10
705.29770243423332
 20
-1672.9465627288323
 10
705.26023441104076
 20
-1672.9400649862373
 42
0.0170663203310459
 10
705.11701762412429
 20
-1672.9202353889455
 10
705.04914229144219
 20
-1672.9131882183581
 42
0.0220162375273297
 10
704.76876288358892
 20
-1672.896505857588
 10
704.69090731653387
 20
-1672.8953064903214
 42
0.0282606915785248
 10
704.35527099295689
 20
-1672.9091097672904
 10
704.31135771918628
 20
-1672.9134097572937
 42
0.0169677213688421
 10
704.06543322422567
 20
-1672.945946806846
 42
0.019057626986828
 10
703.82252526164211
 20
-1672.9960936789535
 10
703.81626607353485
 20
-1672.9976366530618
 42
0.0213685642838103
 10
703.56588158905902
 20
-1673.0708369381657
 10
703.56039169414089
 20
-1673.0726999342255
 42
0.0237595297599415
 10
703.30689680924115
 20
-1673.1723844561216
 10
703.30179473521252
 20
-1673.1746762315993
 42
0.0261857468814108
 10
703.04962395897985
 20
-1673.3042125689753
 10
703.03919776990006
 20
-1673.3102780434394
 42
0.027255306201798
 10
702.80276799465707
 20
-1673.4656502493865
 10
702.76800498114574
 20
-1673.4913113974803
 42
0.0325996893183933
 10
702.61784963749608
 20
-1673.6180592704502
 10
702.59414020837323
 20
-1673.6408772989628
 42
0.0138050960638033
 10
702.5022570521628
 20
-1673.7343269605146
 42
0.0125280103801967
 10
702.41541451933142
 20
-1673.832490287112
 10
702.39173407442092
 20
-1673.8606487853019
 42
0.0205218024740201
 10
702.26663399890811
 20
-1674.0224420995298
 10
702.24416765842011
 20
-1674.0541018293579
 42
0.0163110129584571
 10
702.0884572791698
 20
-1674.2894322644263
 10
702.08573338311783
 20
-1674.2938560264133
 42
0.0131897341900578
 10
701.93893286220919
 20
-1674.546988118783
 10
701.93723276684545
 20
-1674.5501063579136
 42
0.0107895576060997
 10
701.79945606463593
 20
-1674.8163215675463
 10
701.79872317510967
 20
-1674.8178158001954
 42
0.0091371507213382
 10
701.67024322645932
 20
-1675.0923409979566
 10
701.64049759505099
 20
-1675.1590475051137
 42
0.0135418326350022
 10
701.46878365597934
 20
-1675.5739852903821
 10
701.43517884754465
 20
-1675.6618514326647
 42
0.0092834542411933
 10
701.26394978762414
 20
-1676.135749930969
 10
701.23833265990686
 20
-1676.2109910007614
 42
0.0054261043585278
 10
701.13069451161357
 20
-1676.5387549738275
 10
701.11316852541222
 20
-1676.5941431361332
 42
0.0008225090822667
 10
701.04449847360615
 20
-1676.8124118942069
 10
700.05980934167269
 20
-1679.8373031874635
 10
703.29243318174645
 20
-1679.8373031874635
 10
702.788240751893
 20
-1681.7417814858159
 10
699.53218446990968
 20
-1681.7417814858159
 10
693.70303543755585
 20
-1700.5550045518207
 10
691.87793782724566
 20
-1700.5550045518207
 10
697.71261586274659
 20
-1681.7417814858159
 10
695.30749949370625
 20
-1681.7417814858159
 10
695.81169192355969
 20
-1679.8373031874635
 10
698.2402407345096
 20
-1679.8373031874635
 10
699.10039565269835
 20
-1677.2008901867644
 42
-0.0005863560654877
 10
699.13713033087356
 20
-1677.0840637665624
 10
699.21321816456214
 20
-1676.8430714670872
 42
-0.0087522378929191
 10
699.41268630801903
 20
-1676.2477953799405
 10
699.50495058343483
 20
-1675.9876552114208
 42
-0.0077400953829065
 10
699.76288424256359
 20
-1675.2946505338796
 10
699.77864921413925
 20
-1675.2542196505017
 42
-0.008236994633072
 10
700.02573368475441
 20
-1674.6501405842978
 42
-0.0085725238364464
 10
700.29297978075829
 20
-1674.0547145450084
 10
700.39460938176444
 20
-1673.838293443026
 42
-0.0168109410596342
 10
700.68155381049473
 20
-1673.2770859169211
 10
700.80739720099712
 20
-1673.0501218838456
 42
-0.0007817726857317
 10
700.86168155101041
 20
-1672.9525776388928
 10
700.86180985701162
 20
-1672.9523479301852
 42
-0.003662614216762
 10
700.91669772104888
 20
-1672.8557500501879
 42
-0.0080221150682863
 10
700.97382197645686
 20
-1672.7604708154329
 10
701.00452192781677
 20
-1672.7110798663127
 42
-0.0202139325576257
 10
701.13217766762193
 20
-1672.5230982656335
 10
701.18624513281111
 20
-1672.4500194013904
 42
-0.0249323791798221
 10
701.44540792653243
 20
-1672.1339741592337
 10
701.46954774065728
 20
-1672.1073598863236
 42
-0.0242132121539703
 10
701.80922848219723
 20
-1671.7674764001215
 10
701.85714005494765
 20
-1671.7239672639355
 42
-0.025101752786058
 10
702.14112175559069
 20
-1671.4909745181687
 10
702.14256723240362
 20
-1671.4899052605904
 42
-0.0130868069037727
 10
702.44082788236176
 20
-1671.2811247920474
 10
702.44238970150718
 20
-1671.2800913517706
 42
-0.0290329526383883
 10
702.75350084289778
 20
-1671.099265850143
 10
702.78334640488526
 20
-1671.0841634673027
 42
-0.0160250190052725
 10
703.04925081864849
 20
-1670.9601473570901
 42
-0.0267600374780387
 10
703.32452689611671
 20
-1670.8593990365418
 10
703.35126281563817
 20
-1670.851206477716
 42
-0.0049981587650837
 10
703.40643596092514
 20
-1670.8349012774033
 42
-0.0049981587650837
  0
LWPOLYLINE
  5
5C
100
AcDbEntity
  8
0
370
              15
390
0
  6
Continuous
 62
               7
100
AcDbPolyline
 90
      118
 70
             128
 10
723.22080352537205
 20
-1679.9112865152906
 10
725.0959254498714
 20
-1679.9112865152906
 10
724.25788654427151
 20
-1682.5928530416909
 42
-0.0010587229226365
 10
724.28934235987094
 20
-1682.5559485083031
 10
724.34753645047545
 20
-1682.4879662521596
 42
-0.0071874740410892
 10
724.49791166856858
 20
-1682.3173255601359
 10
724.63963444183571
 20
-1682.1610894188175
 42
-0.0148118053511219
 10
725.08976373454448
 20
-1681.6934755728082
 10
725.17698606945737
 20
-1681.6080782519439
 42
-0.0086273358691559
 10
725.51253487045869
 20
-1681.2907026179344
 10
725.55636858668265
 20
-1681.2506529736031
 42
-0.0103138323115907
 10
725.81439228891816
 20
-1681.024489836263
 10
725.86016669525884
 20
-1680.9860077889914
 42
-0.0060206748564539
 10
726.03301475935746
 20
-1680.8442131382485
 10
726.03504589022748
 20
-1680.8425874326299
 42
-0.0067069027295011
 10
726.20733870490585
 20
-1680.7084367988223
 10
726.20988747082561
 20
-1680.7065066289517
 42
-0.0076184352056868
 10
726.38079273670314
 20
-1680.5811317537032
 42
-0.0089652861668443
 10
726.55575369944063
 20
-1680.4614984933687
 10
726.59210541958464
 20
-1680.4375872798862
 42
-0.0156916245939196
 10
726.78806491674277
 20
-1680.3173247934133
 42
-0.0023299011058465
 10
726.98832696074203
 20
-1680.2041468538616
 10
727.00371109310254
 20
-1680.1955468588078
 42
-0.0107669341488753
 10
727.23794791819569
 20
-1680.0711467254623
 10
727.26021271927868
 20
-1680.0599299755083
 42
-0.0078058045894636
 10
727.54380283723424
 20
-1679.9225685198685
 10
727.55370992494056
 20
-1679.9179593920014
 42
-0.0181829330468594
 10
727.86401932955732
 20
-1679.7870956509053
 10
727.91807477212251
 20
-1679.7665805309625
 42
-0.0208411536029571
 10
728.26715973957323
 20
-1679.650490068469
 10
728.28151583969736
 20
-1679.6463716235164
 42
-0.0222799817142035
 10
728.61023563361789
 20
-1679.5677300573752
 10
728.61912459685777
 20
-1679.5660180467896
 42
-0.0215509523878468
 10
728.93559556513469
 20
-1679.5191023582559
 10
728.97807752618689
 20
-1679.5146648314646
 42
-0.0182545924871447
 10
729.2121863054889
 20
-1679.498821006074
 10
729.25158732183104
 20
-1679.4975964609948
 42
-0.0072962856532174
 10
729.40751020152584
 20
-1679.4950271324726
 10
729.43660987209284
 20
-1679.4949722970689
 42
-0.0059227516323585
 10
729.53435937124289
 20
-1679.4959460088594
 10
729.56360158872269
 20
-1679.4965837754628
 42
-0.0011833111882737
 10
729.6028528724471
 20
-1679.4975327797729
 10
728.80746627683993
 20
-1682.0362667248719
 42
0.0143932051637674
 10
728.78106489448578
 20
-1682.0260677548251
 10
728.77379292207218
 20
-1682.0234965359691
 42
0.0234388603493384
 10
728.73196205613999
 20
-1682.0108773002539
 10
728.72328039322736
 20
-1682.0086963382489
 42
0.0199162742984252
 10
728.66299155914714
 20
-1681.9960796029138
 10
728.64217762134115
 20
-1681.9925824034854
 42
0.0293643550676258
 10
728.53910276258182
 20
-1681.9814323578323
 10
728.51441758186161
 20
-1681.9802207408136
 42
0.0214606686862434
 10
728.36127666591119
 20
-1681.979282180396
 10
728.35190475509114
 20
-1681.9796270919403
 42
0.0167564054190004
 10
728.18038456397801
 20
-1681.9917041343087
 10
728.17192477122376
 20
-1681.9925854747355
 42
0.0137677553246112
 10
727.98457145795419
 20
-1682.0173347832799
 10
727.97721971845124
 20
-1682.0185127032471
 42
0.0118497261485763
 10
727.77672195435025
 20
-1682.0555300534361
 10
727.77057194710267
 20
-1682.0568169161563
 42
0.0106421143889953
 10
727.55969105982024
 20
-1682.1056492917305
 10
727.55478225142861
 20
-1682.1068966344162
 42
0.0099746379704317
 10
727.33632378226048
 20
-1682.1670711627326
 10
727.27477574209581
 20
-1682.1853530413616
 42
0.0191613675860762
 10
726.93879127958064
 20
-1682.2993304216484
 10
726.85073150683559
 20
-1682.3330173319723
 42
0.0205274080144741
 10
726.46542473493412
 20
-1682.498845739799
 10
726.40777545295134
 20
-1682.5265137043716
 42
0.0181256912197854
 10
726.14949851228505
 20
-1682.6621975233493
 10
726.0965431289668
 20
-1682.6925151365665
 42
0.0140709242410671
 10
725.95158819434278
 20
-1682.7810098099985
 10
725.92533932574349
 20
-1682.7980666287015
 42
0.0086667884373491
 10
725.83641316418175
 20
-1682.8580692965968
 42
0.0036408192027116
 10
725.74897992615297
 20
-1682.9202501543859
 10
725.71375305167976
 20
-1682.9456911003019
 42
0.005226078127584
 10
725.55752435428678
 20
-1683.0610234869375
 10
725.54131749802912
 20
-1683.0732515975542
 42
0.0050024435902547
 10
725.35531415497167
 20
-1683.2165341658153
 10
725.33999599845504
 20
-1683.2285801882622
 42
0.013613871027903
 10
725.12955473012255
 20
-1683.4035466931819
 10
725.09588685433619
 20
-1683.4331256658897
 42
0.0172815186914123
 10
724.83148331267614
 20
-1683.6821223385107
 10
724.82892096683111
 20
-1683.6847081556602
 42
0.018940385799428
 10
724.57833916825086
 20
-1683.9575134204658
 10
724.54570767471648
 20
-1683.9958573519609
 42
0.0185044199499437
 10
724.3537512357359
 20
-1684.2391059330846
 42
0.0088565243903638
 10
724.1752911291079
 20
-1684.4926223532341
 10
724.16611314945897
 20
-1684.5061637329945
 42
0.015719534723178
 10
723.98289254312601
 20
-1684.7956859423084
 10
723.93680960119389
 20
-1684.8738381393314
 42
0.0095451879783786
 10
723.77172405105637
 20
-1685.1664327816877
 10
723.7605761321247
 20
-1685.1871034538233
 42
0.0100351706257623
 10
723.62853238296748
 20
-1685.4441590143103
 42
0.0086935915418395
 10
723.5062012311738
 20
-1685.705992159714
 10
723.50288048975904
 20
-1685.7134344826866
 42
0.007258017486665
 10
723.38253403781368
 20
-1685.9940264742706
 10
723.37927240450767
 20
-1686.0019465002877
 42
0.006000512261372
 10
723.26007173616404
 20
-1686.3015561708953
 10
723.25686075782335
 20
-1686.3099176987976
 42
0.0049017786977525
 10
723.1379605989639
 20
-1686.6288466794074
 10
723.13479479257546
 20
-1686.6375996166323
 42
0.0039415167608498
 10
723.01535851451615
 20
-1686.9761416790536
 10
723.01222741186666
 20
-1686.9852448799218
 42
0.0031035838764942
 10
722.89142262616883
 20
-1687.3436847417099
 10
722.88831258164328
 20
-1687.35310536307
 42
0.0025070747150411
 10
722.76541123032996
 20
-1687.731752580007
 10
722.72811733390245
 20
-1687.8486442452668
 42
0.0029081910284406
 10
722.53609903609276
 20
-1688.4628079035544
 10
722.49529586757455
 20
-1688.5960311458343
 42
0.0009266453732864
 10
722.22687849325473
 20
-1689.4782556057748
 10
722.20599102062806
 20
-1689.5473674849648
 42
-0.0005809993663919
 10
721.92865434002817
 20
-1690.4611755916328
 10
721.8623725417558
 20
-1690.6786605237903
 42
-0.0012018708169822
 10
721.71538823232595
 20
-1691.1568231883132
 10
721.66306838085461
 20
-1691.3255823288753
 42
-0.0002691059610003
 10
721.61949889959192
 20
-1691.4658499495208
 10
718.78654300130256
 20
-1700.5550045518207
 10
716.96855410932403
 20
-1700.5550045518207
 10
723.22080352537205
 20
-1679.9112865152906
  0
SPLINE
  5
5D
100
AcDbEntity
  8
0
370
              15
390
0
  6
Continuous
 62
               7
100
AcDbSpline
210
0.0
220
0.0
230
1.0
 70
              13
 71
               2
 72
             782
 73
             779
 74
               0
 42
0.000001
 43
0.000001
 40
0.0
 40
0.0
 40
0.0
 40
1.0
 40
1.0
 40
2.0
 40
2.0
 40
3.0
 40
3.0
 40
4.0
 40
4.0
 40
5.0
 40
5.0
 40
6.0
 40
6.0
 40
7.0
 40
7.0
 40
8.0
 40
8.0
 40
9.0
 40
9.0
 40
10.0
 40
10.0
 40
11.0
 40
11.0
 40
12.0
 40
12.0
 40
13.0
 40
13.0
 40
14.0
 40
14.0
 40
15.0
 40
15.0
 40
16.0
 40
16.0
 40
17.0
 40
17.0
 40
18.0
 40
18.0
 40
19.0
 40
19.0
 40
20.0
 40
20.0
 40
21.0
 40
21.0
 40
22.0
 40
22.0
 40
23.0
 40
23.0
 40
24.0
 40
24.0
 40
25.0
 40
25.0
 40
26.0
 40
26.0
 40
27.0
 40
27.0
 40
28.0
 40
28.0
 40
29.0
 40
29.0
 40
30.0
 40
30.0
 40
31.0
 40
31.0
 40
32.0
 40
32.0
 40
33.0
 40
33.0
 40
34.0
 40
34.0
 40
35.0
 40
35.0
 40
36.0
 40
36.0
 40
37.0
 40
37.0
 40
38.0
 40
38.0
 40
39.0
 40
39.0
 40
40.0
 40
40.0
 40
41.0
 40
41.0
 40
42.0
 40
42.0
 40
43.0
 40
43.0
 40
44.0
 40
44.0
 40
45.0
 40
45.0
 40
46.0
 40
46.0
 40
47.0
 40
47.0
 40
48.0
 40
48.0
 40
49.0
 40
49.0
 40
50.0
 40
50.0
 40
51.0
 40
51.0
 40
52.0
 40
52.0
 40
53.0
 40
53.0
 40
54.0
 40
54.0
 40
55.0
 40
55.0
 40
56.0
 40
56.0
 40
57.0
 40
57.0
 40
58.0
 40
58.0
 40
59.0
 40
59.0
 40
60.0
 40
60.0
 40
61.0
 40
61.0
 40
62.0
 40
62.0
 40
63.0
 40
63.0
 40
64.0
 40
64.0
 40
65.0
 40
65.0
 40
66.0
 40
66.0
 40
67.0
 40
67.0
 40
68.0
 40
68.0
 40
69.0
 40
69.0
 40
70.0
 40
70.0
 40
71.0
 40
71.0
 40
72.0
 40
72.0
 40
73.0
 40
73.0
 40
74.0
 40
74.0
 40
75.0
 40
75.0
 40
76.0
 40
76.0
 40
77.0
 40
77.0
 40
78.0
 40
78.0
 40
79.0
 40
79.0
 40
80.0
 40
80.0
 40
81.0
 40
81.0
 40
82.0
 40
82.0
 40
83.0
 40
83.0
 40
84.0
 40
84.0
 40
85.0
 40
85.0
 40
86.0
 40
86.0
 40
87.0
 40
87.0
 40
88.0
 40
88.0
 40
89.0
 40
89.0
 40
90.0
 40
90.0
 40
91.0
 40
91.0
 40
92.0
 40
92.0
 40
93.0
 40
93.0
 40
94.0
 40
94.0
 40
95.0
 40
95.0
 40
96.0
 40
96.0
 40
97.0
 40
97.0
 40
98.0
 40
98.0
 40
99.0
 40
99.0
 40
100.0
 40
100.0
 40
101.0
 40
101.0
 40
102.0
 40
102.0
 40
103.0
 40
103.0
 40
104.0
 40
104.0
 40
105.0
 40
105.0
 40
106.0
 40
106.0
 40
107.0
 40
107.0
 40
108.0
 40
108.0
 40
109.0
 40
109.0
 40
110.0
 40
110.0
 40
111.0
 40
111.0
 40
112.0
 40
112.0
 40
113.0
 40
113.0
 40
114.0
 40
114.0
 40
115.0
 40
115.0
 40
116.0
 40
116.0
 40
117.0
 40
117.0
 40
118.0
 40
118.0
 40
119.0
 40
119.0
 40
120.0
 40
120.0
 40
121.0
 40
121.0
 40
122.0
 40
122.0
 40
123.0
 40
123.0
 40
124.0
 40
124.0
 40
125.0
 40
125.0
 40
126.0
 40
126.0
 40
127.0
 40
127.0
 40
128.0
 40
128.0
 40
129.0
 40
129.0
 40
130.0
 40
130.0
 40
131.0
 40
131.0
 40
132.0
 40
132.0
 40
133.0
 40
133.0
 40
134.0
 40
134.0
 40
135.0
 40
135.0
 40
136.0
 40
136.0
 40
137.0
 40
137.0
 40
138.0
 40
138.0
 40
139.0
 40
139.0
 40
140.0
 40
140.0
 40
141.0
 40
141.0
 40
142.0
 40
142.0
 40
143.0
 40
143.0
 40
144.0
 40
144.0
 40
145.0
 40
145.0
 40
146.0
 40
146.0
 40
147.0
 40
147.0
 40
148.0
 40
148.0
 40
149.0
 40
149.0
 40
150.0
 40
150.0
 40
151.0
 40
151.0
 40
152.0
 40
152.0
 40
153.0
 40
153.0
 40
154.0
 40
154.0
 40
155.0
 40
155.0
 40
156.0
 40
156.0
 40
157.0
 40
157.0
 40
158.0
 40
158.0
 40
159.0
 40
159.0
 40
160.0
 40
160.0
 40
161.0
 40
161.0
 40
162.0
 40
162.0
 40
163.0
 40
163.0
 40
164.0
 40
164.0
 40
165.0
 40
165.0
 40
166.0
 40
166.0
 40
167.0
 40
167.0
 40
168.0
 40
168.0
 40
169.0
 40
169.0
 40
170.0
 40
170.0
 40
171.0
 40
171.0
 40
172.0
 40
172.0
 40
173.0
 40
173.0
 40
174.0
 40
174.0
 40
175.0
 40
175.0
 40
176.0
 40
176.0
 40
177.0
 40
177.0
 40
178.0
 40
178.0
 40
179.0
 40
179.0
 40
180.0
 40
180.0
 40
181.0
 40
181.0
 40
182.0
 40
182.0
 40
183.0
 40
183.0
 40
184.0
 40
184.0
 40
185.0
 40
185.0
 40
186.0
 40
186.0
 40
187.0
 40
187.0
 40
188.0
 40
188.0
 40
189.0
 40
189.0
 40
190.0
 40
190.0
 40
191.0
 40
191.0
 40
192.0
 40
192.0
 40
193.0
 40
193.0
 40
194.0
 40
194.0
 40
195.0
 40
195.0
 40
196.0
 40
196.0
 40
197.0
 40
197.0
 40
198.0
 40
198.0
 40
199.0
 40
199.0
 40
200.0
 40
200.0
 40
201.0
 40
201.0
 40
202.0
 40
202.0
 40
203.0
 40
203.0
 40
204.0
 40
204.0
 40
205.0
 40
205.0
 40
206.0
 40
206.0
 40
207.0
 40
207.0
 40
208.0
 40
208.0
 40
209.0
 40
209.0
 40
210.0
 40
210.0
 40
211.0
 40
211.0
 40
212.0
 40
212.0
 40
213.0
 40
213.0
 40
214.0
 40
214.0
 40
215.0
 40
215.0
 40
216.0
 40
216.0
 40
217.0
 40
217.0
 40
218.0
 40
218.0
 40
219.0
 40
219.0
 40
220.0
 40
220.0
 40
221.0
 40
221.0
 40
222.0
 40
222.0
 40
223.0
 40
223.0
 40
224.0
 40
224.0
 40
225.0
 40
225.0
 40
226.0
 40
226.0
 40
227.0
 40
227.0
 40
228.0
 40
228.0
 40
229.0
 40
229.0
 40
230.0
 40
230.0
 40
231.0
 40
231.0
 40
232.0
 40
232.0
 40
233.0
 40
233.0
 40
234.0
 40
234.0
 40
235.0
 40
235.0
 40
236.0
 40
236.0
 40
237.0
 40
237.0
 40
238.0
 40
238.0
 40
239.0
 40
239.0
 40
240.0
 40
240.0
 40
241.0
 40
241.0
 40
242.0
 40
242.0
 40
243.0
 40
243.0
 40
244.0
 40
244.0
 40
245.0
 40
245.0
 40
246.0
 40
246.0
 40
247.0
 40
247.0
 40
248.0
 40
248.0
 40
249.0
 40
249.0
 40
250.0
 40
250.0
 40
251.0
 40
251.0
 40
252.0
 40
252.0
 40
253.0
 40
253.0
 40
254.0
 40
254.0
 40
255.0
 40
255.0
 40
256.0
 40
256.0
 40
257.0
 40
257.0
 40
258.0
 40
258.0
 40
259.0
 40
259.0
 40
260.0
 40
260.0
 40
261.0
 40
261.0
 40
262.0
 40
262.0
 40
263.0
 40
263.0
 40
264.0
 40
264.0
 40
265.0
 40
265.0
 40
266.0
 40
266.0
 40
267.0
 40
267.0
 40
268.0
 40
268.0
 40
269.0
 40
269.0
 40
270.0
 40
270.0
 40
271.0
 40
271.0
 40
272.0
 40
272.0
 40
273.0
 40
273.0
 40
274.0
 40
274.0
 40
275.0
 40
275.0
 40
276.0
 40
276.0
 40
277.0
 40
277.0
 40
278.0
 40
278.0
 40
279.0
 40
279.0
 40
280.0
 40
280.0
 40
281.0
 40
281.0
 40
282.0
 40
282.0
 40
283.0
 40
283.0
 40
284.0
 40
284.0
 40
285.0
 40
285.0
 40
286.0
 40
286.0
 40
287.0
 40
287.0
 40
288.0
 40
288.0
 40
289.0
 40
289.0
 40
290.0
 40
290.0
 40
291.0
 40
291.0
 40
292.0
 40
292.0
 40
293.0
 40
293.0
 40
294.0
 40
294.0
 40
295.0
 40
295.0
 40
296.0
 40
296.0
 40
297.0
 40
297.0
 40
298.0
 40
298.0
 40
299.0
 40
299.0
 40
300.0
 40
300.0
 40
301.0
 40
301.0
 40
302.0
 40
302.0
 40
303.0
 40
303.0
 40
304.0
 40
304.0
 40
305.0
 40
305.0
 40
306.0
 40
306.0
 40
307.0
 40
307.0
 40
308.0
 40
308.0
 40
309.0
 40
309.0
 40
310.0
 40
310.0
 40
311.0
 40
311.0
 40
312.0
 40
312.0
 40
313.0
 40
313.0
 40
314.0
 40
314.0
 40
315.0
 40
315.0
 40
316.0
 40
316.0
 40
317.0
 40
317.0
 40
318.0
 40
318.0
 40
319.0
 40
319.0
 40
320.0
 40
320.0
 40
321.0
 40
321.0
 40
322.0
 40
322.0
 40
323.0
 40
323.0
 40
324.0
 40
324.0
 40
325.0
 40
325.0
 40
326.0
 40
326.0
 40
327.0
 40
327.0
 40
328.0
 40
328.0
 40
329.0
 40
329.0
 40
330.0
 40
330.0
 40
331.0
 40
331.0
 40
332.0
 40
332.0
 40
333.0
 40
333.0
 40
334.0
 40
334.0
 40
335.0
 40
335.0
 40
336.0
 40
336.0
 40
337.0
 40
337.0
 40
338.0
 40
338.0
 40
339.0
 40
339.0
 40
340.0
 40
340.0
 40
341.0
 40
341.0
 40
342.0
 40
342.0
 40
343.0
 40
343.0
 40
344.0
 40
344.0
 40
345.0
 40
345.0
 40
346.0
 40
346.0
 40
347.0
 40
347.0
 40
348.0
 40
348.0
 40
349.0
 40
349.0
 40
350.0
 40
350.0
 40
351.0
 40
351.0
 40
352.0
 40
352.0
 40
353.0
 40
353.0
 40
354.0
 40
354.0
 40
355.0
 40
355.0
 40
356.0
 40
356.0
 40
357.0
 40
357.0
 40
358.0
 40
358.0
 40
359.0
 40
359.0
 40
360.0
 40
360.0
 40
361.0
 40
361.0
 40
362.0
 40
362.0
 40
363.0
 40
363.0
 40
364.0
 40
364.0
 40
365.0
 40
365.0
 40
366.0
 40
366.0
 40
367.0
 40
367.0
 40
368.0
 40
368.0
 40
369.0
 40
369.0
 40
370.0
 40
370.0
 40
371.0
 40
371.0
 40
372.0
 40
372.0
 40
373.0
 40
373.0
 40
374.0
 40
374.0
 40
375.0
 40
375.0
 40
376.0
 40
376.0
 40
377.0
 40
377.0
 40
378.0
 40
378.0
 40
379.0
 40
379.0
 40
380.0
 40
380.0
 40
381.0
 40
381.0
 40
382.0
 40
382.0
 40
383.0
 40
383.0
 40
384.0
 40
384.0
 40
385.0
 40
385.0
 40
386.0
 40
386.0
 40
387.0
 40
387.0
 40
388.0
 40
388.0
 40
389.0
 40
389.0
 40
389.0
 10
733.54950797610468
 20
-1679.9003601519285
 30
0.0
 41
1.0
 10
734.36793208482516
 20
-1679.9003601519285
 30
0.0
 41
1.0
 10
735.18635619354563
 20
-1679.9003601519285
 30
0.0
 41
1.0
 10
734.77260245802881
 20
-1681.2429864161782
 30
0.0
 41
1.0
 10
734.35884872251199
 20
-1682.5856126804279
 30
0.0
 41
1.0
 10
734.37718821767521
 20
-1682.5569119075235
 30
0.0
 41
0.9999957264321878
 10
734.39569521451983
 20
-1682.5283188573512
 30
0.0
 41
1.0
 10
734.42612453865263
 20
-1682.4813059789826
 30
0.0
 41
1.0
 10
734.45655386278531
 20
-1682.4342931006138
 30
0.0
 41
1.0
 10
734.5359195078895
 20
-1682.3116742937129
 30
0.0
 41
0.9995394069080639
 10
734.62257789944181
 20
-1682.1940962319709
 30
0.0
 41
1.0
 10
734.65833476170201
 20
-1682.1455813393768
 30
0.0
 41
1.0
 10
734.69409162396221
 20
-1682.0970664467827
 30
0.0
 41
1.0
 10
734.82781829177941
 20
-1681.9156261716569
 30
0.0
 41
0.9994460617143059
 10
734.97331877306897
 20
-1681.7434837740054
 30
0.0
 41
1.0
 10
734.97770695404449
 20
-1681.7382920936222
 30
0.0
 41
1.0
 10
734.98209513502002
 20
-1681.7331004132391
 30
0.0
 41
1.0
 10
735.1188192543575
 20
-1681.5713413763553
 30
0.0
 41
0.9994359394934239
 10
735.26609348470834
 20
-1681.4191251751913
 30
0.0
 41
1.0
 10
735.2684768386614
 20
-1681.4166618448185
 30
0.0
 41
1.0
 10
735.27086019261446
 20
-1681.4141985144456
 30
0.0
 41
1.0
 10
735.41336771505996
 20
-1681.2669089740266
 30
0.0
 41
0.9995293688567692
 10
735.56463939604203
 20
-1681.1286357618624
 30
0.0
 41
1.0
 10
735.58393315530532
 20
-1681.1109998762113
 30
0.0
 41
1.0
 10
735.60322691456861
 20
-1681.0933639905602
 30
0.0
 41
1.0
 10
735.71591107702613
 20
-1680.9903625496966
 30
0.0
 41
0.9997087614802867
 10
735.83343396597911
 20
-1680.8929182689003
 30
0.0
 41
1.0
 10
735.85260003915573
 20
-1680.8770266903916
 30
0.0
 41
1.0
 10
735.87176611233224
 20
-1680.8611351118827
 30
0.0
 41
1.0
 10
735.95095685493857
 20
-1680.7954739880988
 30
0.0
 41
0.9999595338693846
 10
736.03131612578932
 20
-1680.7312482574475
 30
0.0
 41
1.0
 10
736.1116753966503
 20
-1680.6670225267883
 30
0.0
 41
0.9999749417508554
 10
736.19293593099349
 20
-1680.6039409728421
 30
0.0
 41
1.0
 10
736.21392207715985
 20
-1680.5876496855376
 30
0.0
 41
1.0
 10
736.2349082233261
 20
-1680.5713583982329
 30
0.0
 41
1.0
 10
736.31947610862221
 20
-1680.5057093883963
 30
0.0
 41
0.9999792037119398
 10
736.40488370839034
 20
-1680.4411566067536
 30
0.0
 41
1.0
 10
736.42570853425764
 20
-1680.4254167845293
 30
0.0
 41
1.0
 10
736.44653336012504
 20
-1680.4096769623047
 30
0.0
 41
1.0
 10
736.49029130813551
 20
-1680.3766038251283
 30
0.0
 41
0.9999993373819771
 10
736.53397299430299
 20
-1680.3434300296858
 30
0.0
 41
1.0
 10
736.57765468044568
 20
-1680.3102562342622
 30
0.0
 41
0.9999160953817253
 10
736.62218109136904
 20
-1680.2782251690612
 30
0.0
 41
1.0
 10
736.65500297878691
 20
-1680.2546140134775
 30
0.0
 41
1.0
 10
736.68782486620478
 20
-1680.2310028578938
 30
0.0
 41
1.0
 10
736.79799505196229
 20
-1680.1517494815266
 30
0.0
 41
0.9980964527231906
 10
736.91708404546205
 20
-1680.0866620086711
 30
0.0
 41
1.0
 10
736.95411665239112
 20
-1680.0664220290773
 30
0.0
 41
1.0
 10
736.99114925932008
 20
-1680.0461820494836
 30
0.0
 41
1.0
 10
737.17047627259308
 20
-1679.9481717987824
 30
0.0
 41
0.998457281057246
 10
737.35956483895211
 20
-1679.8706495374361
 30
0.0
 41
1.0
 10
737.36321110834717
 20
-1679.8691546450984
 30
0.0
 41
1.0
 10
737.36685737774224
 20
-1679.8676597527608
 30
0.0
 41
1.0
 10
737.54865340531023
 20
-1679.79312727609
 30
0.0
 41
0.998783852803421
 10
737.73690606387026
 20
-1679.736861635924
 30
0.0
 41
1.0
 10
737.74114401306997
 20
-1679.7355949822336
 30
0.0
 41
1.0
 10
737.74538196226956
 20
-1679.7343283285429
 30
0.0
 41
1.0
 10
737.9251587224303
 20
-1679.680595995758
 30
0.0
 41
0.9990652816207595
 10
738.10890465414536
 20
-1679.6425923162162
 30
0.0
 41
1.0
 10
738.11409305517702
 20
-1679.6415192131096
 30
0.0
 41
1.0
 10
738.11928145620868
 20
-1679.640446110003
 30
0.0
 41
1.0
 10
738.29265058586157
 20
-1679.6045886366742
 30
0.0
 41
0.9992909934270442
 10
738.46822635231956
 20
-1679.5818782042077
 30
0.0
 41
1.0
 10
738.64380211877619
 20
-1679.5591677717412
 30
0.0
 41
0.9994553539448373
 10
738.82049355186825
 20
-1679.5480884675351
 30
0.0
 41
1.0
 10
738.85592795966534
 20
-1679.5458665794872
 30
0.0
 41
1.0
 10
738.89136236746242
 20
-1679.5436446914393
 30
0.0
 41
1.0
 10
739.05758813403168
 20
-1679.5332216290276
 30
0.0
 41
0.9990928098292883
 10
739.2240979259343
 20
-1679.536981270262
 30
0.0
 41
1.0
 10
739.26265976120294
 20
-1679.5378519617948
 30
0.0
 41
1.0
 10
739.30122159647146
 20
-1679.5387226533278
 30
0.0
 41
1.0
 10
739.39060771783375
 20
-1679.5407409114962
 30
0.0
 41
0.9998382089206336
 10
739.47986340062323
 20
-1679.5459730380246
 30
0.0
 41
1.0
 10
739.48029330684801
 20
-1679.545998238927
 30
0.0
 41
1.0
 10
739.48072321307279
 20
-1679.5460234398297
 30
0.0
 41
1.0
 10
739.56911908341419
 20
-1679.5512051645533
 30
0.0
 41
0.9997558016758403
 10
739.65719966061022
 20
-1679.5602876799192
 30
0.0
 41
1.0
 10
739.65767579903763
 20
-1679.5603367774015
 30
0.0
 41
1.0
 10
739.65815193746505
 20
-1679.5603858748839
 30
0.0
 41
1.0
 10
739.74528023780908
 20
-1679.5693701952853
 30
0.0
 41
0.9996565144180538
 10
739.83181809115308
 20
-1679.5829075019747
 30
0.0
 41
1.0
 10
739.83228401653173
 20
-1679.5829803877064
 30
0.0
 41
1.0
 10
739.83274994191049
 20
-1679.5830532734378
 30
0.0
 41
1.0
 10
739.91835594449628
 20
-1679.596444808664
 30
0.0
 41
0.9995321806867399
 10
740.00298302482304
 20
-1679.615045297093
 30
0.0
 41
1.0
 10
740.00337221939526
 20
-1679.615130839559
 30
0.0
 41
1.0
 10
740.00376141396748
 20
-1679.615216382025
 30
0.0
 41
1.0
 10
740.08761010515184
 20
-1679.6336457855225
 30
0.0
 41
0.9993819199219453
 10
740.16995663934722
 20
-1679.6579211687829
 30
0.0
 41
1.0
 10
740.1701950728459
 20
-1679.6579914578924
 30
0.0
 41
1.0
 10
740.17043350634447
 20
-1679.658061747002
 30
0.0
 41
1.0
 10
740.25230317354408
 20
-1679.6821965520437
 30
0.0
 41
0.9992088568505437
 10
740.33199569253168
 20
-1679.712761787838
 30
0.0
 41
1.0
 10
740.41167668341063
 20
-1679.7433213885713
 30
0.0
 41
0.9990226101773727
 10
740.48834735331786
 20
-1679.7807988201857
 30
0.0
 41
1.0
 10
740.5650064951144
 20
-1679.8182706167381
 30
0.0
 41
0.998842427397132
 10
740.63771012232564
 20
-1679.8629353919905
 30
0.0
 41
1.0
 10
740.63797783070629
 20
-1679.8630998560634
 30
0.0
 41
1.0
 10
740.63824553908694
 20
-1679.8632643201365
 30
0.0
 41
1.0
 10
740.7114845830589
 20
-1679.9082580235347
 30
0.0
 41
0.9986928844491949
 10
740.77974744976996
 20
-1679.9604937578154
 30
0.0
 41
1.0
 10
740.78032874199153
 20
-1679.9609385710423
 30
0.0
 41
1.0
 10
740.78091003421321
 20
-1679.9613833842693
 30
0.0
 41
1.0
 10
740.85033548536785
 20
-1680.0145087450039
 30
0.0
 41
0.9986007262276854
 10
740.91376165513373
 20
-1680.0746695146968
 30
0.0
 41
1.0
 10
740.91465607059172
 20
-1680.0755178825325
 30
0.0
 41
1.0
 10
740.91555048604971
 20
-1680.0763662503684
 30
0.0
 41
1.0
 10
740.98076548673146
 20
-1680.138223755733
 30
0.0
 41
0.998558149138202
 10
741.03897309843319
 20
-1680.2067162460046
 30
0.0
 41
1.0
 10
741.04823155202871
 20
-1680.2176106037059
 30
0.0
 41
1.0
 10
741.05749000562412
 20
-1680.2285049614072
 30
0.0
 41
1.0
 10
741.13421452451712
 20
-1680.3187861670817
 30
0.0
 41
0.9970460233519499
 10
741.19620642567622
 20
-1680.419753251263
 30
0.0
 41
1.0
 10
741.21067579075611
 20
-1680.4433197103449
 30
0.0
 41
1.0
 10
741.225145155836
 20
-1680.4668861694267
 30
0.0
 41
1.0
 10
741.26488185584856
 20
-1680.5316058934593
 30
0.0
 41
0.9988468816637089
 10
741.29822822659958
 20
-1680.5998383458859
 30
0.0
 41
1.0
 10
741.30526424909158
 20
-1680.6142352670245
 30
0.0
 41
1.0
 10
741.31230027158358
 20
-1680.6286321881628
 30
0.0
 41
1.0
 10
741.33157459735128
 20
-1680.6680707983139
 30
0.0
 41
0.9998431189998116
 10
741.34943992484614
 20
-1680.7081673527543
 30
0.0
 41
1.0
 10
741.36730525233702
 20
-1680.7482639071857
 30
0.0
 41
0.9999989989829878
 10
741.38528397575874
 20
-1680.7883097447689
 30
0.0
 41
1.0
 10
741.39145628735514
 20
-1680.8020579615863
 30
0.0
 41
1.0
 10
741.39762859895166
 20
-1680.815806178404
 30
0.0
 41
1.0
 10
741.42795194556254
 20
-1680.883348449614
 30
0.0
 41
0.9998790356320987
 10
741.45615982569848
 20
-1680.9518012015462
 30
0.0
 41
1.0
 10
741.46299500698387
 20
-1680.9683883029761
 30
0.0
 41
1.0
 10
741.46983018826916
 20
-1680.9849754044062
 30
0.0
 41
1.0
 10
741.49338785064936
 20
-1681.042143359291
 30
0.0
 41
0.9998227574560409
 10
741.51477659903833
 20
-1681.1001576675681
 30
0.0
 41
1.0
 10
741.53616534742764
 20
-1681.158171975846
 30
0.0
 41
0.9996797971042243
 10
741.55459163238709
 20
-1681.2171940949645
 30
0.0
 41
1.0
 10
741.55849543511249
 20
-1681.2296985531329
 30
0.0
 41
1.0
 10
741.56239923783789
 20
-1681.2422030113016
 30
0.0
 41
1.0
 10
741.58863312824826
 20
-1681.3262340467586
 30
0.0
 41
0.9979274938735132
 10
741.60385765172737
 20
-1681.4129384054181
 30
0.0
 41
1.0
 10
741.60608133898813
 20
-1681.425602406237
 30
0.0
 41
1.0
 10
741.60830502624901
 20
-1681.4382664070558
 30
0.0
 41
1.0
 10
741.61923496594784
 20
-1681.5005129143483
 30
0.0
 41
0.9994985982137041
 10
741.62620313112495
 20
-1681.5633264154924
 30
0.0
 41
1.0
 10
741.63317129630207
 20
-1681.6261399166362
 30
0.0
 41
0.9996372611201358
 10
741.6367471620697
 20
-1681.689237495317
 30
0.0
 41
1.0
 10
741.63691573955907
 20
-1681.6922121123989
 30
0.0
 41
1.0
 10
741.63708431704833
 20
-1681.6951867294811
 30
0.0
 41
1.0
 10
741.64099733779472
 20
-1681.7642335423272
 30
0.0
 41
0.9997730630736081
 10
741.64196565128282
 20
-1681.8333843663661
 30
0.0
 41
1.0
 10
741.64202275770094
 20
-1681.8374625455056
 30
0.0
 41
1.0
 10
741.64207986411895
 20
-1681.841540724645
 30
0.0
 41
1.0
 10
741.64316239044308
 20
-1681.9188479069671
 30
0.0
 41
0.999877261406986
 10
741.64182230371125
 20
-1681.9961510535429
 30
0.0
 41
1.0
 10
741.64173304051269
 20
-1682.00130021737
 30
0.0
 41
1.0
 10
741.64164377731402
 20
-1682.0064493811972
 30
0.0
 41
1.0
 10
741.6401251641845
 20
-1682.0940508554393
 30
0.0
 41
0.999941556732692
 10
741.63671285393866
 20
-1682.1815990171115
 30
0.0
 41
1.0
 10
741.63647153326338
 20
-1682.1877904768462
 30
0.0
 41
1.0
 10
741.6362302125882
 20
-1682.1939819365812
 30
0.0
 41
1.0
 10
741.63233526099089
 20
-1682.2939130177424
 30
0.0
 41
0.9999716810431103
 10
741.62693667787266
 20
-1682.3937741559655
 30
0.0
 41
1.0
 10
741.62372387908431
 20
-1682.4532034056147
 30
0.0
 41
1.0
 10
741.62051108029596
 20
-1682.5126326552638
 30
0.0
 41
1.0
 10
741.61243717114371
 20
-1682.6619810565403
 30
0.0
 41
0.999981912989926
 10
741.60256737952625
 20
-1682.8112215342667
 30
0.0
 41
1.0
 10
741.5926975879097
 20
-1682.9604620119781
 30
0.0
 41
1.0
 10
741.59025826734569
 20
-1682.9976550578272
 30
0.0
 41
1.0
 10
741.61295650116926
 20
-1682.9589140605108
 30
0.0
 41
0.9999982128098111
 10
741.63580105992492
 20
-1682.9202591665519
 30
0.0
 41
1.0
 10
741.66271061981342
 20
-1682.8747259524907
 30
0.0
 41
1.0
 10
741.68962017970193
 20
-1682.8291927384294
 30
0.0
 41
1.0
 10
741.76628385822744
 20
-1682.6994714163602
 30
0.0
 41
0.9998609190056328
 10
741.84723117108979
 20
-1682.5723790344298
 30
0.0
 41
1.0
 10
741.8768794925694
 20
-1682.5258293014758
 30
0.0
 41
1.0
 10
741.90652781404901
 20
-1682.4792795685219
 30
0.0
 41
1.0
 10
741.98880003428837
 20
-1682.350106998523
 30
0.0
 41
0.9999067609730609
 10
742.07456904375408
 20
-1682.2232293090794
 30
0.0
 41
1.0
 10
742.07697374695249
 20
-1682.2196720430284
 30
0.0
 41
1.0
 10
742.0793784501509
 20
-1682.2161147769771
 30
0.0
 41
1.0
 10
742.16033805321513
 20
-1682.0963516196425
 30
0.0
 41
0.9998784952150281
 10
742.24499166289957
 20
-1681.9791704029294
 30
0.0
 41
1.0
 10
742.32964527258525
 20
-1681.8619891862149
 30
0.0
 41
0.9998532968282188
 10
742.41826289341202
 20
-1681.7477762777391
 30
0.0
 41
1.0
 10
742.4382246823991
 20
-1681.7220489567242
 30
0.0
 41
1.0
 10
742.45818647138628
 20
-1681.6963216357092
 30
0.0
 41
1.0
 10
742.57667052114402
 20
-1681.5436160247418
 30
0.0
 41
0.9991551975795123
 10
742.70729497076809
 20
-1681.4011564626578
 30
0.0
 41
1.0
 10
742.71080458674453
 20
-1681.3973288610371
 30
0.0
 41
1.0
 10
742.71431420272097
 20
-1681.3935012594163
 30
0.0
 41
1.0
 10
742.83791942038658
 20
-1681.2586969005793
 30
0.0
 41
0.999741814418055
 10
742.96752156009222
 20
-1681.1296474899618
 30
0.0
 41
1.0
 10
743.09712369979616
 20
-1681.0005980793467
 30
0.0
 41
0.9989238204633637
 10
743.23812624804918
 20
-1680.884113117306
 30
0.0
 41
1.0
 10
743.28337392618346
 20
-1680.8467331257016
 30
0.0
 41
1.0
 10
743.32862160431785
 20
-1680.8093531340971
 30
0.0
 41
1.0
 10
743.46886166154229
 20
-1680.6934980808037
 30
0.0
 41
0.9990825084096556
 10
743.61850159414826
 20
-1680.5900690829692
 30
0.0
 41
1.0
 10
743.62854695820954
 20
-1680.5831258698868
 30
0.0
 41
1.0
 10
743.63859232227082
 20
-1680.5761826568041
 30
0.0
 41
1.0
 10
743.76814152675797
 20
-1680.4866400851324
 30
0.0
 41
0.999816489982656
 10
743.90102573012848
 20
-1680.4021258436198
 30
0.0
 41
1.0
 10
743.91287129064949
 20
-1680.3945920770973
 30
0.0
 41
1.0
 10
743.9247168511705
 20
-1680.3870583105747
 30
0.0
 41
1.0
 10
744.03390993350013
 20
-1680.3176116021061
 30
0.0
 41
0.999747344913006
 10
744.14611389075424
 20
-1680.2531426442879
 30
0.0
 41
1.0
 10
744.25831784800846
 20
-1680.1886736864697
 30
0.0
 41
0.9999327861144295
 10
744.37198645877402
 20
-1680.1268236947869
 30
0.0
 41
1.0
 10
744.37253846133126
 20
-1680.1265233361096
 30
0.0
 41
1.0
 10
744.37309046388862
 20
-1680.1262229774325
 30
0.0
 41
1.0
 10
744.48786307977446
 20
-1680.0637722683923
 30
0.0
 41
0.9996956420484219
 10
744.60557640561728
 20
-1680.0070588014162
 30
0.0
 41
1.0
 10
744.6360168105075
 20
-1679.9923928246872
 30
0.0
 41
1.0
 10
744.66645721539783
 20
-1679.9777268479584
 30
0.0
 41
1.0
 10
744.76943432214341
 20
-1679.9281131895141
 30
0.0
 41
0.9998070570176249
 10
744.87428071108388
 20
-1679.8825826026134
 30
0.0
 41
1.0
 10
744.97912710002504
 20
-1679.8370520157125
 30
0.0
 41
0.9997827436147628
 10
745.08578003663285
 20
-1679.7959308444013
 30
0.0
 41
1.0
 10
745.10500288626508
 20
-1679.7885192707686
 30
0.0
 41
1.0
 10
745.12422573589743
 20
-1679.7811076971359
 30
0.0
 41
1.0
 10
745.26932437176981
 20
-1679.7251633785593
 30
0.0
 41
0.9988031841976904
 10
745.41919473437486
 20
-1679.6836633143914
 30
0.0
 41
1.0
 10
745.44411198273838
 20
-1679.6767635685844
 30
0.0
 41
1.0
 10
745.46902923110179
 20
-1679.6698638227774
 30
0.0
 41
1.0
 10
745.636299256749
 20
-1679.6235456803706
 30
0.0
 41
0.9984748040549919
 10
745.80765616539736
 20
-1679.5959514481058
 30
0.0
 41
1.0
 10
745.81239530164589
 20
-1679.5951882875925
 30
0.0
 41
1.0
 10
745.81713443789454
 20
-1679.5944251270789
 30
0.0
 41
1.0
 10
745.97901307404595
 20
-1679.5683572158409
 30
0.0
 41
0.9984436495480112
 10
746.14278781777114
 20
-1679.5604792620222
 30
0.0
 41
1.0
 10
746.16448502590288
 20
-1679.5594355748226
 30
0.0
 41
1.0
 10
746.18618223403462
 20
-1679.558391887623
 30
0.0
 41
1.0
 10
746.30656256149621
 20
-1679.5526013082035
 30
0.0
 41
0.9987954789335344
 10
746.42693080640572
 20
-1679.5586378359458
 30
0.0
 41
1.0
 10
746.4468955989006
 20
-1679.5596390802843
 30
0.0
 41
1.0
 10
746.46686039139547
 20
-1679.5606403246229
 30
0.0
 41
1.0
 10
746.54729905131569
 20
-1679.564674363688
 30
0.0
 41
0.9997941595877911
 10
746.62750782940998
 20
-1679.5719684296091
 30
0.0
 41
1.0
 10
746.70771660750552
 20
-1679.5792624955302
 30
0.0
 41
0.9998589466237527
 10
746.78763515436117
 20
-1679.5892463499804
 30
0.0
 41
1.0
 10
746.82004135616853
 20
-1679.5932947068995
 30
0.0
 41
1.0
 10
746.85244755797589
 20
-1679.5973430638187
 30
0.0
 41
1.0
 10
746.99717850844581
 20
-1679.615423632107
 30
0.0
 41
0.9993495063249218
 10
747.14022975220996
 20
-1679.6438893418483
 30
0.0
 41
1.0
 10
747.17316344936501
 20
-1679.6504428050639
 30
0.0
 41
1.0
 10
747.20609714652005
 20
-1679.6569962682793
 30
0.0
 41
1.0
 10
747.31539096972313
 20
-1679.6787446024146
 30
0.0
 41
0.9996788715560946
 10
747.42344254167801
 20
-1679.7060024017771
 30
0.0
 41
1.0
 10
747.42550554421769
 20
-1679.7065228283502
 30
0.0
 41
1.0
 10
747.42756854675724
 20
-1679.7070432549233
 30
0.0
 41
1.0
 10
747.53149411363518
 20
-1679.7332602011404
 30
0.0
 41
0.9995480654492522
 10
747.63365634886384
 20
-1679.7656751577645
 30
0.0
 41
1.0
 10
747.63534599099148
 20
-1679.7662112626781
 30
0.0
 41
1.0
 10
747.63703563311913
 20
-1679.7667473675915
 30
0.0
 41
1.0
 10
747.73581858409136
 20
-1679.7980901143881
 30
0.0
 41
0.9993867959455696
 10
747.83216574253584
 20
-1679.8362694836785
 30
0.0
 41
1.0
 10
747.83340869162214
 20
-1679.8367620255754
 30
0.0
 41
1.0
 10
747.83465164070844
 20
-1679.8372545674722
 30
0.0
 41
1.0
 10
747.92851290097883
 20
-1679.8744488529685
 30
0.0
 41
0.9992050256521735
 10
748.01911257601171
 20
-1679.919002752207
 30
0.0
 41
1.0
 10
748.01984725872364
 20
-1679.9193640446674
 30
0.0
 41
1.0
 10
748.02058194143558
 20
-1679.9197253371281
 30
0.0
 41
1.0
 10
748.10971225104379
 20
-1679.9635566514451
 30
0.0
 41
0.999022235074133
 10
748.1946223124387
 20
-1680.0150899191442
 30
0.0
 41
1.0
 10
748.19480619772287
 20
-1680.0152015220499
 30
0.0
 41
1.0
 10
748.19499008300704
 20
-1680.0153131249556
 30
0.0
 41
1.0
 10
748.27953237383338
 20
-1680.0666231868436
 30
0.0
 41
0.9988642743806304
 10
748.35880690845136
 20
-1680.1257473743678
 30
0.0
 41
1.0
 10
748.43808144306911
 20
-1680.1848715618919
 30
0.0
 41
0.9987681233310587
 10
748.5111052273453
 20
-1680.2515622532926
 30
0.0
 41
1.0
 10
748.51143415531169
 20
-1680.2518626545075
 30
0.0
 41
1.0
 10
748.51176308327808
 20
-1680.2521630557221
 30
0.0
 41
1.0
 10
748.58544472348478
 20
-1680.3194545495501
 30
0.0
 41
0.9987496570897595
 10
748.65203852881234
 20
-1680.3937673636372
 30
0.0
 41
1.0
 10
748.65281069857315
 20
-1680.3946290369954
 30
0.0
 41
1.0
 10
748.65358286833396
 20
-1680.3954907103537
 30
0.0
 41
1.0
 10
748.72172101318256
 20
-1680.4715268711566
 30
0.0
 41
0.9988147669826547
 10
748.78214326740783
 20
-1680.5538278779995
 30
0.0
 41
1.0
 10
748.78326259348523
 20
-1680.5553525093515
 30
0.0
 41
1.0
 10
748.78438191956252
 20
-1680.5568771407036
 30
0.0
 41
1.0
 10
748.84704282594259
 20
-1680.6422274102504
 30
0.0
 41
0.9989452636215747
 10
748.90160973890352
 20
-1680.7329660994076
 30
0.0
 41
1.0
 10
748.90295846498952
 20
-1680.7352088804346
 30
0.0
 41
1.0
 10
748.90430719107565
 20
-1680.7374516614614
 30
0.0
 41
1.0
 10
748.96157155620892
 20
-1680.8326759126728
 30
0.0
 41
0.999104643607091
 10
749.01058076953018
 20
-1680.9324003456975
 30
0.0
 41
1.0
 10
749.01204463112003
 20
-1680.9353790257696
 30
0.0
 41
1.0
 10
749.01350849271
 20
-1680.938357705842
 30
0.0
 41
1.0
 10
749.06544542921165
 20
-1681.0440394990121
 30
0.0
 41
0.9992763831100816
 10
749.10919855776649
 20
-1681.1533635609676
 30
0.0
 41
1.0
 10
749.11067782742998
 20
-1681.1570597485015
 30
0.0
 41
1.0
 10
749.11215709709336
 20
-1681.1607559360355
 30
0.0
 41
1.0
 10
749.15886876497575
 20
-1681.2774723730604
 30
0.0
 41
0.9994163472883267
 10
749.19750179616483
 20
-1681.3971059615226
 30
0.0
 41
1.0
 10
749.19873994841123
 20
-1681.4009401053042
 30
0.0
 41
1.0
 10
749.19997810065763
 20
-1681.4047742490859
 30
0.0
 41
1.0
 10
749.23986166167469
 20
-1681.5282803105631
 30
0.0
 41
0.9997268055890728
 10
749.27392971758763
 20
-1681.6535153425173
 30
0.0
 41
1.0
 10
749.27485989785691
 20
-1681.6569347086252
 30
0.0
 41
1.0
 10
749.27579007812619
 20
-1681.6603540747328
 30
0.0
 41
1.0
 10
749.30799777349898
 20
-1681.7787503744642
 30
0.0
 41
0.9996701318999722
 10
749.33408339027017
 20
-1681.8986443277315
 30
0.0
 41
1.0
 10
749.36016900704089
 20
-1682.0185382809962
 30
0.0
 41
0.9995785451109437
 10
749.37925258438031
 20
-1682.1397440420258
 30
0.0
 41
1.0
 10
749.38347236655409
 20
-1682.1665451967913
 30
0.0
 41
1.0
 10
749.38769214872787
 20
-1682.1933463515568
 30
0.0
 41
1.0
 10
749.41426712466648
 20
-1682.3621323252592
 30
0.0
 41
0.997992510121626
 10
749.41929271059269
 20
-1682.5329236533514
 30
0.0
 41
1.0
 10
749.42011752301732
 20
-1682.5609543768323
 30
0.0
 41
1.0
 10
749.42094233544196
 20
-1682.5889851003133
 30
0.0
 41
1.0
 10
749.42431829651889
 20
-1682.7037149814421
 30
0.0
 41
0.9995314902263793
 10
749.42066810438052
 20
-1682.818436465195
 30
0.0
 41
1.0
 10
749.41701791224216
 20
-1682.9331579489462
 30
0.0
 41
0.999624548694387
 10
749.40708881711123
 20
-1683.0475072200704
 30
0.0
 41
1.0
 10
749.40692576911692
 20
-1683.0493849762058
 30
0.0
 41
1.0
 10
749.40676272112273
 20
-1683.0512627323412
 30
0.0
 41
1.0
 10
749.39650753000308
 20
-1683.1693675157387
 30
0.0
 41
0.9997286095000318
 10
749.38076220643143
 20
-1683.2868664246348
 30
0.0
 41
1.0
 10
749.38036871378131
 20
-1683.2898028493346
 30
0.0
 41
1.0
 10
749.3799752211313
 20
-1683.2927392740341
 30
0.0
 41
1.0
 10
749.36344291225817
 20
-1683.4161110323387
 30
0.0
 41
0.9998265533969792
 10
749.34232745352551
 20
-1683.5387815071272
 30
0.0
 41
1.0
 10
749.3416509113888
 20
-1683.5427118856317
 30
0.0
 41
1.0
 10
749.34097436925219
 20
-1683.5466422641362
 30
0.0
 41
1.0
 10
749.31850582624475
 20
-1683.6771734959418
 30
0.0
 41
0.9999022530851395
 10
749.29239636163629
 20
-1683.8070254645729
 30
0.0
 41
1.0
 10
749.29141772047046
 20
-1683.8118926069628
 30
0.0
 41
1.0
 10
749.29043907930452
 20
-1683.8167597493527
 30
0.0
 41
1.0
 10
749.26237233236338
 20
-1683.9563460027675
 30
0.0
 41
0.9999524761936125
 10
749.23158936353093
 20
-1684.0953584959216
 30
0.0
 41
1.0
 10
749.23031325635452
 20
-1684.1011212552285
 30
0.0
 41
1.0
 10
749.22903714917811
 20
-1684.1068840145351
 30
0.0
 41
1.0
 10
749.19570196598886
 20
-1684.2574220263195
 30
0.0
 41
0.9999813588719572
 10
749.16053096518885
 20
-1684.4075417389934
 30
0.0
 41
1.0
 10
749.15897703973621
 20
-1684.414174329399
 30
0.0
 41
1.0
 10
749.15742311428357
 20
-1684.4208069198048
 30
0.0
 41
1.0
 10
749.11914426258136
 20
-1684.5841918132783
 30
0.0
 41
0.9999955237657772
 10
749.07988838460687
 20
-1684.7473447168591
 30
0.0
 41
1.0
 10
749.06760674896611
 20
-1684.7983889074085
 30
0.0
 41
1.0
 10
749.05532511332535
 20
-1684.8494330979581
 30
0.0
 41
1.0
 10
748.99150596408833
 20
-1685.1146743825598
 30
0.0
 41
0.9999993604212389
 10
748.92708701690628
 20
-1685.3797706333025
 30
0.0
 41
1.0
 10
748.92236818136018
 20
-1685.3991895413392
 30
0.0
 41
1.0
 10
748.91764934581408
 20
-1685.4186084493756
 30
0.0
 41
1.0
 10
748.84379272754848
 20
-1685.7225425161541
 30
0.0
 41
0.9999659914732015
 10
748.76493313165849
 20
-1686.0252170627321
 30
0.0
 41
1.0
 10
748.75998044273274
 20
-1686.0442261998955
 30
0.0
 41
1.0
 10
748.7550277538071
 20
-1686.0632353370588
 30
0.0
 41
1.0
 10
748.66626278006743
 20
-1686.4039281579587
 30
0.0
 41
0.9999441976031731
 10
748.5703197471056
 20
-1686.7426695832507
 30
0.0
 41
1.0
 10
748.55361922867633
 20
-1686.8016332957914
 30
0.0
 41
1.0
 10
748.53691871024716
 20
-1686.8605970083322
 30
0.0
 41
1.0
 10
748.40757464043031
 20
-1687.3172658586936
 30
0.0
 41
0.9999625120739621
 10
748.27034187310483
 20
-1687.7716263926966
 30
0.0
 41
1.0
 10
748.23455193002178
 20
-1687.8901224193237
 30
0.0
 41
1.0
 10
748.19876198693885
 20
-1688.0086184459508
 30
0.0
 41
1.0
 10
748.12424178290041
 20
-1688.2553455240436
 30
0.0
 41
0.9999793386322864
 10
748.0465557597646
 20
-1688.5010941632747
 30
0.0
 41
1.0
 10
747.96886973662708
 20
-1688.7468428025109
 30
0.0
 41
1.0
 10
747.95809017775628
 20
-1688.7808607068855
 30
0.0
 41
1.0
 10
746.10771712448718
 20
-1694.6679326293531
 30
0.0
 41
1.0
 10
744.25734407121809
 20
-1700.5550045518207
 30
0.0
 41
1.0
 10
743.29608738119452
 20
-1700.5550045518207
 30
0.0
 41
1.0
 10
742.33483069117096
 20
-1700.5550045518207
 30
0.0
 41
1.0
 10
743.95377546984935
 20
-1695.4069760500313
 30
0.0
 41
1.0
 10
745.57272024852773
 20
-1690.2589475482418
 30
0.0
 41
1.0
 10
745.61788607170183
 20
-1690.1149163259729
 30
0.0
 41
1.0
 10
745.66305189487582
 20
-1689.9708851037037
 30
0.0
 41
1.0
 10
745.83335631223918
 20
-1689.4277940745396
 30
0.0
 41
0.9999911657888719
 10
745.99908912391936
 20
-1688.8832905431757
 30
0.0
 41
1.0
 10
746.02878506742172
 20
-1688.785726603119
 30
0.0
 41
1.0
 10
746.05848101092397
 20
-1688.6881626630623
 30
0.0
 41
1.0
 10
746.16482193560159
 20
-1688.3387870118054
 30
0.0
 41
0.9999952428199672
 10
746.26900552492452
 20
-1687.9887619874626
 30
0.0
 41
1.0
 10
746.27406499525728
 20
-1687.9717637131864
 30
0.0
 41
1.0
 10
746.27912446559003
 20
-1687.9547654389103
 30
0.0
 41
1.0
 10
746.37318911424734
 20
-1687.6387369631207
 30
0.0
 41
0.9999931687517621
 10
746.46491495212319
 20
-1687.3220217498426
 30
0.0
 41
1.0
 10
746.46985021657645
 20
-1687.3049810405932
 30
0.0
 41
1.0
 10
746.4747854810297
 20
-1687.2879403313439
 30
0.0
 41
1.0
 10
746.55664078998734
 20
-1687.0053065366055
 30
0.0
 41
0.9999893840784107
 10
746.63588801645369
 20
-1686.7219304073255
 30
0.0
 41
1.0
 10
746.7151352429139
 20
-1686.4385542780669
 30
0.0
 41
0.9999833980063664
 10
746.79111148365655
 20
-1686.1542836950341
 30
0.0
 41
1.0
 10
746.80011542037573
 20
-1686.1205948165675
 30
0.0
 41
1.0
 10
746.8091193570948
 20
-1686.0869059381007
 30
0.0
 41
1.0
 10
746.8780839059624
 20
-1685.8288701057995
 30
0.0
 41
0.9999233658067996
 10
746.94063887718391
 20
-1685.5692059470725
 30
0.0
 41
1.0
 10
747.00319384840418
 20
-1685.3095417883501
 30
0.0
 41
1.0
 10
747.04267726726175
 20
-1685.1457351239239
 30
0.0
 41
1.0
 10
747.0476558712362
 20
-1685.1250801620649
 30
0.0
 41
1.0
 10
747.05263447521077
 20
-1685.1044252002059
 30
0.0
 41
1.0
 10
747.0821606861175
 20
-1684.9819284595062
 30
0.0
 41
0.9999868670880031
 10
747.1104297701155
 20
-1684.8591355138524
 30
0.0
 41
1.0
 10
747.11432725727752
 20
-1684.8422059264167
 30
0.0
 41
1.0
 10
747.11822474443954
 20
-1684.825276338981
 30
0.0
 41
1.0
 10
747.13869885411543
 20
-1684.736342568191
 30
0.0
 41
0.9999778173360845
 10
747.15798645222719
 20
-1684.6471439509764
 30
0.0
 41
1.0
 10
747.17727405034043
 20
-1684.5579453337573
 30
0.0
 41
0.9999602692866175
 10
747.1949684089725
 20
-1684.4684170453243
 30
0.0
 41
1.0
 10
747.19817224105054
 20
-1684.4522065904362
 30
0.0
 41
1.0
 10
747.2013760731287
 20
-1684.4359961355483
 30
0.0
 41
1.0
 10
747.2254780959147
 20
-1684.3140469373511
 30
0.0
 41
0.9995617985320179
 10
747.24232144313316
 20
-1684.190885189646
 30
0.0
 41
1.0
 10
747.24478593303957
 20
-1684.1728643722786
 30
0.0
 41
1.0
 10
747.24725042294608
 20
-1684.1548435549112
 30
0.0
 41
1.0
 10
747.2675336839942
 20
-1684.0065285052115
 30
0.0
 41
0.9991121410639384
 10
747.27525903758237
 20
-1683.8570324064058
 30
0.0
 41
1.0
 10
747.27617782760694
 20
-1683.83925256983
 30
0.0
 41
1.0
 10
747.2770966176314
 20
-1683.8214727332545
 30
0.0
 41
1.0
 10
747.28298439117066
 20
-1683.7075363076015
 30
0.0
 41
0.9989792494905164
 10
747.2785652990533
 20
-1683.5935334717012
 30
0.0
 41
1.0
 10
747.2779173271847
 20
-1683.5768172257758
 30
0.0
 41
1.0
 10
747.27726935531621
 20
-1683.5601009798506
 30
0.0
 41
1.0
 10
747.27414620693582
 20
-1683.4795306358019
 30
0.0
 41
0.9997820295394296
 10
747.26766220956029
 20
-1683.3991609140587
 30
0.0
 41
1.0
 10
747.26117821218486
 20
-1683.3187911923169
 30
0.0
 41
0.9998335105973107
 10
747.2517660166734
 20
-1683.2387115758688
 30
0.0
 41
1.0
 10
747.25017109199689
 20
-1683.2251418453839
 30
0.0
 41
1.0
 10
747.24857616732027
 20
-1683.2115721148987
 30
0.0
 41
1.0
 10
747.23597412245567
 20
-1683.1043530374814
 30
0.0
 41
0.9996876457879649
 10
747.21803020965785
 20
-1682.9978976097686
 30
0.0
 41
1.0
 10
747.21579854651236
 20
-1682.984657874526
 30
0.0
 41
1.0
 10
747.21356688336698
 20
-1682.9714181392833
 30
0.0
 41
1.0
 10
747.19977106194608
 20
-1682.8895719953248
 30
0.0
 41
0.9995547496494662
 10
747.18111774005331
 20
-1682.8086944981335
 30
0.0
 41
1.0
 10
747.18074378318192
 20
-1682.8070730874279
 30
0.0
 41
1.0
 10
747.18036982631065
 20
-1682.8054516767222
 30
0.0
 41
1.0
 10
747.16246441816031
 20
-1682.7278170009406
 30
0.0
 41
0.999489942717522
 10
747.1396395094813
 20
-1682.6514837181078
 30
0.0
 41
1.0
 10
747.1391809827403
 20
-1682.6499502683182
 30
0.0
 41
1.0
 10
747.13872245599919
 20
-1682.6484168185286
 30
0.0
 41
1.0
 10
747.11681460080172
 20
-1682.5751504352727
 30
0.0
 41
0.9993784877590992
 10
747.08979896569531
 20
-1682.5036097301142
 30
0.0
 41
1.0
 10
747.08926727471874
 20
-1682.5022017473946
 30
0.0
 41
1.0
 10
747.08873558374216
 20
-1682.5007937646749
 30
0.0
 41
1.0
 10
747.06278333058879
 20
-1682.4320690249556
 30
0.0
 41
0.9992430832254737
 10
747.0315667954294
 20
-1682.3655698728869
 30
0.0
 41
1.0
 10
747.03098467937298
 20
-1682.3643298177699
 30
0.0
 41
1.0
 10
747.03040256331644
 20
-1682.3630897626526
 30
0.0
 41
1.0
 10
747.00035026027012
 20
-1682.2990707208189
 30
0.0
 41
0.9990789632799538
 10
746.96491963349342
 20
-1682.2378641090691
 30
0.0
 41
1.0
 10
746.96432392731094
 20
-1682.2368350232091
 30
0.0
 41
1.0
 10
746.96372822112846
 20
-1682.2358059373489
 30
0.0
 41
1.0
 10
746.92948900671661
 20
-1682.1766574973194
 30
0.0
 41
0.9988874801121053
 10
746.8898297306846
 20
-1682.1209977849016
 30
0.0
 41
1.0
 10
746.88927420462062
 20
-1682.1202181332274
 30
0.0
 41
1.0
 10
746.88871867855664
 20
-1682.1194384815531
 30
0.0
 41
1.0
 10
746.85017045465224
 20
-1682.0653380724834
 30
0.0
 41
0.9986762060693468
 10
746.80626798337642
 20
-1682.0154843580447
 30
0.0
 41
1.0
 10
746.80582402304424
 20
-1682.0149802162282
 30
0.0
 41
1.0
 10
746.80538006271206
 20
-1682.0144760744115
 30
0.0
 41
1.0
 10
746.76236551210047
 20
-1681.9656306436054
 30
0.0
 41
0.9984621642486767
 10
746.71420795532242
 20
-1681.9218473431342
 30
0.0
 41
1.0
 10
746.71396132080667
 20
-1681.9216231109713
 30
0.0
 41
1.0
 10
746.71371468629081
 20
-1681.9213988788085
 30
0.0
 41
1.0
 10
746.66605039854517
 20
-1681.8780640426637
 30
0.0
 41
0.998272469385208
 10
746.61363176670318
 20
-1681.8406196921455
 30
0.0
 41
1.0
 10
746.56121313486142
 20
-1681.8031753416276
 30
0.0
 41
0.9981399180158629
 10
746.50462707146755
 20
-1681.772388822184
 30
0.0
 41
1.0
 10
746.50458140938952
 20
-1681.772363979027
 30
0.0
 41
1.0
 10
746.50453574731148
 20
-1681.7723391358702
 30
0.0
 41
1.0
 10
746.44785835976052
 20
-1681.7415029301121
 30
0.0
 41
0.998092708683693
 10
746.38781300869232
 20
-1681.717886121259
 30
0.0
 41
1.0
 10
746.38737283898195
 20
-1681.7177129953843
 30
0.0
 41
1.0
 10
746.38693266927146
 20
-1681.7175398695099
 30
0.0
 41
1.0
 10
746.32600697878252
 20
-1681.6935768089077
 30
0.0
 41
0.9981411356561399
 10
746.26261845738384
 20
-1681.6772041674024
 30
0.0
 41
1.0
 10
746.26173634068164
 20
-1681.6769763251966
 30
0.0
 41
1.0
 10
746.26085422397944
 20
-1681.6767484829909
 30
0.0
 41
1.0
 10
746.1957014691767
 20
-1681.6599201570741
 30
0.0
 41
0.9983031812934671
 10
746.12903404018175
 20
-1681.6507807958981
 30
0.0
 41
1.0
 10
746.1201630147782
 20
-1681.6495646772269
 30
0.0
 41
1.0
 10
746.11129198937465
 20
-1681.6483485585554
 30
0.0
 41
1.0
 10
746.05694234687053
 20
-1681.6408978285644
 30
0.0
 41
0.9983887708264408
 10
746.00209849757755
 20
-1681.639653154931
 30
0.0
 41
1.0
 10
745.99403509236583
 20
-1681.6394701570562
 30
0.0
 41
1.0
 10
745.98597168715412
 20
-1681.6392871591815
 30
0.0
 41
1.0
 10
745.9472546482906
 20
-1681.6384084812978
 30
0.0
 41
0.999886956307777
 10
745.90852869508205
 20
-1681.6386943506573
 30
0.0
 41
1.0
 10
745.86980274184816
 20
-1681.6389802200172
 30
0.0
 41
0.999997232011646
 10
745.83107856260574
 20
-1681.6394483195468
 30
0.0
 41
1.0
 10
745.81172554605723
 20
-1681.6396822596357
 30
0.0
 41
1.0
 10
745.79237252950861
 20
-1681.6399161997249
 30
0.0
 41
1.0
 10
745.71494231713746
 20
-1681.6408521794328
 30
0.0
 41
0.9997304945086718
 10
745.63763901089942
 20
-1681.6453812732188
 30
0.0
 41
1.0
 10
745.62858936919565
 20
-1681.6459114792087
 30
0.0
 41
1.0
 10
745.61953972749177
 20
-1681.6464416851986
 30
0.0
 41
1.0
 10
745.5241371378479
 20
-1681.6520311909642
 30
0.0
 41
0.99978883064156
 10
745.42904480200741
 20
-1681.6615361554532
 30
0.0
 41
1.0
 10
745.42032374043242
 20
-1681.6624078700856
 30
0.0
 41
1.0
 10
745.41160267885755
 20
-1681.6632795847179
 30
0.0
 41
1.0
 10
745.29906821986958
 20
-1681.6745279784714
 30
0.0
 41
0.9984170238191314
 10
745.18850907251851
 20
-1681.698344060407
 30
0.0
 41
1.0
 10
745.15212794153149
 20
-1681.7061810962132
 30
0.0
 41
1.0
 10
745.11574681054458
 20
-1681.7140181320194
 30
0.0
 41
1.0
 10
745.0005557421232
 20
-1681.7388319985291
 30
0.0
 41
0.9976592854199256
 10
744.88982757571887
 20
-1681.779130675676
 30
0.0
 41
1.0
 10
744.77909940931522
 20
-1681.8194293528227
 30
0.0
 41
0.9993255074352231
 10
744.67162761052509
 20
-1681.8677462513147
 30
0.0
 41
1.0
 10
744.66700243160085
 20
-1681.8698256275147
 30
0.0
 41
1.0
 10
744.66237725267649
 20
-1681.871905003715
 30
0.0
 41
1.0
 10
744.54565509603901
 20
-1681.9243806546071
 30
0.0
 41
0.9976475078275431
 10
744.43720775172915
 20
-1681.9923286442649
 30
0.0
 41
1.0
 10
744.41886535758988
 20
-1682.0038211230822
 30
0.0
 41
1.0
 10
744.40052296345061
 20
-1682.0153136018996
 30
0.0
 41
1.0
 10
744.3163207719042
 20
-1682.0680707226643
 30
0.0
 41
0.9995131336406068
 10
744.23557305694942
 20
-1682.1259769346159
 30
0.0
 41
1.0
 10
744.15482534199361
 20
-1682.183883146568
 30
0.0
 41
0.9995810107606415
 10
744.07756369426613
 20
-1682.2463648290327
 30
0.0
 41
1.0
 10
744.07459366305466
 20
-1682.2487667004984
 30
0.0
 41
1.0
 10
744.07162363184307
 20
-1682.2511685719642
 30
0.0
 41
1.0
 10
743.98842192169354
 20
-1682.3184539973597
 30
0.0
 41
0.9996617837954991
 10
743.90883123455683
 20
-1682.389974452921
 30
0.0
 41
1.0
 10
743.89670048368612
 20
-1682.400875185906
 30
0.0
 41
1.0
 10
743.88456973281552
 20
-1682.411775918891
 30
0.0
 41
1.0
 10
743.81629420541378
 20
-1682.473128534368
 30
0.0
 41
0.9997267750052966
 10
743.75096069712367
 20
-1682.537605070899
 30
0.0
 41
1.0
 10
743.68562718883084
 20
-1682.6020816074331
 30
0.0
 41
0.9999667288961743
 10
743.62135424567487
 20
-1682.6676154143374
 30
0.0
 41
1.0
 10
743.55252679790897
 20
-1682.7377930730863
 30
0.0
 41
1.0
 10
743.48369935014307
 20
-1682.8079707318352
 30
0.0
 41
1.0
 10
743.28177151144587
 20
-1683.0138598562467
 30
0.0
 41
0.9988205335175093
 10
743.10076589446589
 20
-1683.2383640883079
 30
0.0
 41
1.0
 10
743.07012592956164
 20
-1683.2763673387371
 30
0.0
 41
1.0
 10
743.03948596465739
 20
-1683.3143705891666
 30
0.0
 41
1.0
 10
742.79720041786879
 20
-1683.6148813220866
 30
0.0
 41
0.9997077826755714
 10
742.56972246676423
 20
-1683.9267511163021
 30
0.0
 41
1.0
 10
742.56799905163325
 20
-1683.9291138996823
 30
0.0
 41
1.0
 10
742.56627563650227
 20
-1683.9314766830626
 30
0.0
 41
1.0
 10
742.33535085513574
 20
-1684.2480720440385
 30
0.0
 41
0.9989147567078826
 10
742.1348873522528
 20
-1684.5847815052225
 30
0.0
 41
1.0
 10
742.11014620694641
 20
-1684.626338085774
 30
0.0
 41
1.0
 10
742.08540506164013
 20
-1684.6678946663253
 30
0.0
 41
1.0
 10
741.93019376300174
 20
-1684.9285960507798
 30
0.0
 41
0.9997476598181007
 10
741.78684877549176
 20
-1685.1960057993629
 30
0.0
 41
1.0
 10
741.64350378798281
 20
-1685.4634155479441
 30
0.0
 41
0.999625896710967
 10
741.51499553605163
 20
-1685.7382634845669
 30
0.0
 41
1.0
 10
741.50179562659866
 20
-1685.7664948846696
 30
0.0
 41
1.0
 10
741.4885957171457
 20
-1685.7947262847722
 30
0.0
 41
1.0
 10
741.34838699614875
 20
-1686.0945986827189
 30
0.0
 41
0.9998735413945379
 10
741.21778564943065
 20
-1686.3987782821816
 30
0.0
 41
1.0
 10
741.21434282137147
 20
-1686.4067968676432
 30
0.0
 41
1.0
 10
741.21089999331241
 20
-1686.4148154531047
 30
0.0
 41
1.0
 10
741.08718430271188
 20
-1686.702957881645
 30
0.0
 41
0.9999377418858345
 10
740.96992950053561
 20
-1686.9937893493243
 30
0.0
 41
1.0
 10
740.85267469836253
 20
-1687.2846208169951
 30
0.0
 41
0.9999508299506046
 10
740.74121075498442
 20
-1687.5777204938183
 30
0.0
 41
1.0
 10
740.73812998632127
 20
-1687.5858215197838
 30
0.0
 41
1.0
 10
740.73504921765812
 20
-1687.5939225457494
 30
0.0
 41
1.0
 10
740.61742373695506
 20
-1687.9032242744997
 30
0.0
 41
0.9999609228427449
 10
740.50528513407994
 20
-1688.2145572905192
 30
0.0
 41
1.0
 10
740.50232912373122
 20
-1688.222764130926
 30
0.0
 41
1.0
 10
740.49937311338249
 20
-1688.2309709713329
 30
0.0
 41
1.0
 10
740.3813224898114
 20
-1688.5587176681615
 30
0.0
 41
0.9999674607400655
 10
740.26857496373998
 20
-1688.8883262881657
 30
0.0
 41
1.0
 10
740.2171765731789
 20
-1689.0385854838537
 30
0.0
 41
1.0
 10
740.16577818261771
 20
-1689.1888446795417
 30
0.0
 41
1.0
 10
740.04976757585905
 20
-1689.5279926620472
 30
0.0
 41
0.9999287532308592
 10
739.94188617188752
 20
-1689.8698134010251
 30
0.0
 41
1.0
 10
739.8954089157528
 20
-1690.0170759453822
 30
0.0
 41
1.0
 10
739.84893165961807
 20
-1690.1643384897393
 30
0.0
 41
1.0
 10
739.83400476792008
 20
-1690.2116341399903
 30
0.0
 41
0.9999998224886307
 10
739.81913425918628
 20
-1690.2589475482418
 30
0.0
 41
1.0
 10
738.19847812239084
 20
-1695.4069760500313
 30
0.0
 41
1.0
 10
736.57782198559539
 20
-1700.5550045518207
 30
0.0
 41
1.0
 10
735.67251354170446
 20
-1700.5550045518207
 30
0.0
 41
1.0
 10
734.76720509781353
 20
-1700.5550045518207
 30
0.0
 41
1.0
 10
736.61928950919958
 20
-1694.6679326293531
 30
0.0
 41
1.0
 10
738.47137392058562
 20
-1688.7808607068855
 30
0.0
 41
1.0
 10
738.48149567888845
 20
-1688.748817493436
 30
0.0
 41
1.0
 10
738.55410334773819
 20
-1688.5185179516102
 30
0.0
 41
1.0
 10
738.62671101659316
 20
-1688.288218409768
 30
0.0
 41
0.9999825681971667
 10
738.69659405580421
 20
-1688.0570775147037
 30
0.0
 41
1.0
 10
738.74488511796153
 20
-1687.8973529312193
 30
0.0
 41
1.0
 10
738.79317618011873
 20
-1687.7376283477352
 30
0.0
 41
1.0
 10
738.89032853343383
 20
-1687.4162931259661
 30
0.0
 41
0.9999672528964849
 10
738.98226733906029
 20
-1687.0934275803693
 30
0.0
 41
1.0
 10
738.98505622272603
 20
-1687.0836337349933
 30
0.0
 41
1.0
 10
738.98784510639177
 20
-1687.0738398896176
 30
0.0
 41
1.0
 10
739.07420614468037
 20
-1686.7705620347947
 30
0.0
 41
0.9999899749177666
 10
739.15784775421832
 20
-1686.4665229463305
 30
0.0
 41
1.0
 10
739.1679536732363
 20
-1686.4297877086506
 30
0.0
 41
1.0
 10
739.17805959225427
 20
-1686.3930524709706
 30
0.0
 41
1.0
 10
739.24148936375184
 20
-1686.1624838578828
 30
0.0
 41
0.9999214200504524
 10
739.29911879213068
 20
-1685.9303975156688
 30
0.0
 41
1.0
 10
739.31188464431057
 20
-1685.8789866302754
 30
0.0
 41
1.0
 10
739.32465049649056
 20
-1685.8275757448819
 30
0.0
 41
1.0
 10
739.35674822050714
 20
-1685.6983111734639
 30
0.0
 41
0.9999828681666919
 10
739.38733047250378
 20
-1685.5686796989921
 30
0.0
 41
1.0
 10
739.41791272449984
 20
-1685.4390482245215
 30
0.0
 41
0.9999389844474352
 10
739.44562371328982
 20
-1685.3087727686184
 30
0.0
 41
1.0
 10
739.45276145700927
 20
-1685.275216664784
 30
0.0
 41
1.0
 10
739.45989920072884
 20
-1685.2416605609496
 30
0.0
 41
1.0
 10
739.50188567695727
 20
-1685.0442728973803
 30
0.0
 41
0.9998933699441572
 10
739.53808994136
 20
-1684.84574328962
 30
0.0
 41
1.0
 10
739.53946276657666
 20
-1684.8382152689214
 30
0.0
 41
1.0
 10
739.54083559179344
 20
-1684.8306872482228
 30
0.0
 41
1.0
 10
739.57978550662813
 20
-1684.6171015990724
 30
0.0
 41
0.9996850305193065
 10
739.60796918288736
 20
-1684.4018305936327
 30
0.0
 41
1.0
 10
739.60996421625669
 20
-1684.3865922395103
 30
0.0
 41
1.0
 10
739.61195924962601
 20
-1684.3713538853879
 30
0.0
 41
1.0
 10
739.63936711208487
 20
-1684.1620086582345
 30
0.0
 41
0.9994697936707013
 10
739.65309167130442
 20
-1683.9513234629053
 30
0.0
 41
1.0
 10
739.65356874055396
 20
-1683.9439999906958
 30
0.0
 41
1.0
 10
739.65404580980351
 20
-1683.9366765184866
 30
0.0
 41
1.0
 10
739.66681623052386
 20
-1683.7406382675763
 30
0.0
 41
0.9991804893137142
 10
739.66368791425123
 20
-1683.544209417601
 30
0.0
 41
1.0
 10
739.6636040354291
 20
-1683.5389426161892
 30
0.0
 41
1.0
 10
739.66352015660698
 20
-1683.5336758147771
 30
0.0
 41
1.0
 10
739.66055959797848
 20
-1683.3477805676293
 30
0.0
 41
0.9988448329321538
 10
739.63976805235461
 20
-1683.1630279777942
 30
0.0
 41
1.0
 10
739.63817397865159
 20
-1683.1488631220229
 30
0.0
 41
1.0
 10
739.63657990494858
 20
-1683.1346982662517
 30
0.0
 41
1.0
 10
739.61897650673086
 20
-1682.9782753879608
 30
0.0
 41
0.9985503209458704
 10
739.58466023443134
 20
-1682.8246512038716
 30
0.0
 41
1.0
 10
739.57707424236003
 20
-1682.7906908764708
 30
0.0
 41
1.0
 10
739.56948825028871
 20
-1682.7567305490702
 30
0.0
 41
1.0
 10
739.55034396213136
 20
-1682.6710270197805
 30
0.0
 41
0.9991036781369809
 10
739.52401910048059
 20
-1682.5872499324573
 30
0.0
 41
1.0
 10
739.52003687502543
 20
-1682.5745767699493
 30
0.0
 41
1.0
 10
739.51605464957026
 20
-1682.5619036074413
 30
0.0
 41
1.0
 10
739.49769423883117
 20
-1682.5034728451383
 30
0.0
 41
0.9998874504368951
 10
739.47758903115096
 20
-1682.4456192429091
 30
0.0
 41
1.0
 10
739.45748382347267
 20
-1682.3877656406862
 30
0.0
 41
0.9994041637543817
 10
739.43343521053862
 20
-1682.3314369367965
 30
0.0
 41
1.0
 10
739.42923842631455
 20
-1682.3216068723145
 30
0.0
 41
1.0
 10
739.42504164209049
 20
-1682.3117768078328
 30
0.0
 41
1.0
 10
739.39716281109565
 20
-1682.246476641865
 30
0.0
 41
0.9991846840702343
 10
739.36410645440264
 20
-1682.1836386105849
 30
0.0
 41
1.0
 10
739.36296984800742
 20
-1682.1814779941299
 30
0.0
 41
1.0
 10
739.3618332416122
 20
-1682.1793173776748
 30
0.0
 41
1.0
 10
739.33105009770975
 20
-1682.1208005793051
 30
0.0
 41
0.9989253167923444
 10
739.29498067365455
 20
-1682.0653856509143
 30
0.0
 41
1.0
 10
739.29392654898038
 20
-1682.0637661561523
 30
0.0
 41
1.0
 10
739.29287242430632
 20
-1682.06214666139
 30
0.0
 41
1.0
 10
739.25891124959969
 20
-1682.0099707225243
 30
0.0
 41
0.9986467172836566
 10
739.21971409696221
 20
-1681.9616046888946
 30
0.0
 41
1.0
 10
739.21883996826159
 20
-1681.9605260866165
 30
0.0
 41
1.0
 10
739.21796583956097
 20
-1681.9594474843384
 30
0.0
 41
1.0
 10
739.18051694432529
 20
-1681.9132386552658
 30
0.0
 41
0.9984001104268633
 10
739.13809021380769
 20
-1681.8715535478962
 30
0.0
 41
1.0
 10
739.13750307569831
 20
-1681.8709766730149
 30
0.0
 41
1.0
 10
739.13691593758892
 20
-1681.8703997981336
 30
0.0
 41
1.0
 10
739.09566348329008
 20
-1681.8298684405265
 30
0.0
 41
0.9982442159080474
 10
739.04990738195488
 20
-1681.7944998792671
 30
0.0
 41
1.0
 10
739.04969258649282
 20
-1681.7943338466237
 30
0.0
 41
1.0
 10
739.04947779103077
 20
-1681.7941678139803
 30
0.0
 41
1.0
 10
739.00415128061888
 20
-1681.7591313180067
 30
0.0
 41
0.9982450060835444
 10
738.95500030154744
 20
-1681.7296995349734
 30
0.0
 41
1.0
 10
738.905849322476
 20
-1681.7002677519401
 30
0.0
 41
0.9983922639635482
 10
738.85368301631058
 20
-1681.6765881172857
 30
0.0
 41
1.0
 10
738.8534561389863
 20
-1681.6764851318044
 30
0.0
 41
1.0
 10
738.85322926166191
 20
-1681.676382146323
 30
0.0
 41
1.0
 10
738.80060920084941
 20
-1681.6524965407066
 30
0.0
 41
0.9986517147151214
 10
738.74579622798296
 20
-1681.6341954215852
 30
0.0
 41
1.0
 10
738.74511830655376
 20
-1681.6339690751533
 30
0.0
 41
1.0
 10
738.74444038512456
 20
-1681.6337427287215
 30
0.0
 41
1.0
 10
738.68827156940097
 20
-1681.6149889167368
 30
0.0
 41
0.9989435598956666
 10
738.63061818224946
 20
-1681.6014712145022
 30
0.0
 41
1.0
 10
738.62953806266773
 20
-1681.6012179642494
 30
0.0
 41
1.0
 10
738.62845794308612
 20
-1681.6009647139963
 30
0.0
 41
1.0
 10
738.56864431677059
 20
-1681.5869405112555
 30
0.0
 41
0.9992249241240178
 10
738.5079128078728
 20
-1681.5776651685403
 30
0.0
 41
1.0
 10
738.50649911958226
 20
-1681.5774492601327
 30
0.0
 41
1.0
 10
738.50508543129183
 20
-1681.5772333517248
 30
0.0
 41
1.0
 10
738.44152654581296
 20
-1681.5675261921938
 30
0.0
 41
0.9994396597832486
 10
738.37746060927702
 20
-1681.5620932698484
 30
0.0
 41
1.0
 10
738.35831994179841
 20
-1681.5604701021298
 30
0.0
 41
1.0
 10
738.3391792743198
 20
-1681.5588469344109
 30
0.0
 41
1.0
 10
738.23683200282699
 20
-1681.550167676628
 30
0.0
 41
0.9987693403121636
 10
738.13412837923977
 20
-1681.5516707400807
 30
0.0
 41
1.0
 10
738.12387404501283
 20
-1681.5518208118547
 30
0.0
 41
1.0
 10
738.11361971078577
 20
-1681.5519708836289
 30
0.0
 41
1.0
 10
738.00406394460697
 20
-1681.5535742279162
 30
0.0
 41
0.99897536449658
 10
737.89510194459046
 20
-1681.5650772348415
 30
0.0
 41
1.0
 10
737.78613994457328
 20
-1681.5765802417668
 30
0.0
 41
0.9983190067306086
 10
737.679241133608
 20
-1681.6006152335538
 30
0.0
 41
1.0
 10
737.67034018200184
 20
-1681.6026165121164
 30
0.0
 41
1.0
 10
737.66143923039556
 20
-1681.604617790679
 30
0.0
 41
1.0
 10
737.53673851621727
 20
-1681.6326553395911
 30
0.0
 41
0.9985539388303383
 10
737.4157687625393
 20
-1681.6739190156366
 30
0.0
 41
1.0
 10
737.41342333157888
 20
-1681.6747190594524
 30
0.0
 41
1.0
 10
737.41107790061847
 20
-1681.6755191032682
 30
0.0
 41
1.0
 10
737.28541728501887
 20
-1681.7183828669458
 30
0.0
 41
0.9988468746493566
 10
737.1644469427174
 20
-1681.7731009520087
 30
0.0
 41
1.0
 10
737.16126412072981
 20
-1681.7745406265681
 30
0.0
 41
1.0
 10
737.15808129874222
 20
-1681.7759803011277
 30
0.0
 41
1.0
 10
737.030745312465
 20
-1681.8335777353097
 30
0.0
 41
0.9991322885919427
 10
736.90864472840804
 20
-1681.9015730674917
 30
0.0
 41
1.0
 10
736.89104271736608
 20
-1681.9113752694805
 30
0.0
 41
1.0
 10
736.87344070632412
 20
-1681.9211774714693
 30
0.0
 41
1.0
 10
736.77126402526426
 20
-1681.9780775872514
 30
0.0
 41
0.9993860037849608
 10
736.67332302118928
 20
-1682.0419936028409
 30
0.0
 41
1.0
 10
736.66770470833035
 20
-1682.0456600975401
 30
0.0
 41
1.0
 10
736.66208639547131
 20
-1682.0493265922394
 30
0.0
 41
1.0
 10
736.575382017111
 20
-1682.1059096184326
 30
0.0
 41
0.9998821494952557
 10
736.49045564130313
 20
-1682.165127848506
 30
0.0
 41
1.0
 10
736.40552926549321
 20
-1682.2243460785805
 30
0.0
 41
0.9997976482744391
 10
736.32305363509215
 20
-1682.2869324866203
 30
0.0
 41
1.0
 10
736.30841737028459
 20
-1682.2980391764022
 30
0.0
 41
1.0
 10
736.29378110547691
 20
-1682.3091458661841
 30
0.0
 41
1.0
 10
736.18203294546311
 20
-1682.3939456537855
 30
0.0
 41
0.9998091630801327
 10
736.07368266743276
 20
-1682.4830460044893
 30
0.0
 41
1.0
 10
736.06067691495696
 20
-1682.4937411049341
 30
0.0
 41
1.0
 10
736.04767116248115
 20
-1682.5044362053791
 30
0.0
 41
1.0
 10
735.91330937950079
 20
-1682.6149267569713
 30
0.0
 41
0.9995035112317754
 10
735.78617350173897
 20
-1682.7336605739843
 30
0.0
 41
1.0
 10
735.77652619134733
 20
-1682.7426703201463
 30
0.0
 41
1.0
 10
735.76687888095557
 20
-1682.7516800663082
 30
0.0
 41
1.0
 10
735.64345581819316
 20
-1682.8669464380612
 30
0.0
 41
0.9994630424298917
 10
735.52784741241157
 20
-1682.9900491812941
 30
0.0
 41
1.0
 10
735.52416457364291
 20
-1682.9939707608041
 30
0.0
 41
1.0
 10
735.52048173487424
 20
-1682.9978923403141
 30
0.0
 41
1.0
 10
735.41223900662965
 20
-1683.1131519245271
 30
0.0
 41
0.9995160693750548
 10
735.31137297709563
 20
-1683.234919342402
 30
0.0
 41
1.0
 10
735.30943925701206
 20
-1683.2372537666135
 30
0.0
 41
1.0
 10
735.30750553692849
 20
-1683.2395881908251
 30
0.0
 41
1.0
 10
735.21050694756036
 20
-1683.356686760279
 30
0.0
 41
0.9996561470513915
 10
735.11978072889781
 20
-1683.4787095227239
 30
0.0
 41
1.0
 10
735.11362306299793
 20
-1683.4869913117632
 30
0.0
 41
1.0
 10
735.10746539709805
 20
-1683.4952731008027
 30
0.0
 41
1.0
 10
735.02905451023366
 20
-1683.6007322851708
 30
0.0
 41
0.9998349055174119
 10
734.95452722829975
 20
-1683.7089708688363
 30
0.0
 41
1.0
 10
734.87999994637084
 20
-1683.8172094524953
 30
0.0
 41
0.999972810957018
 10
734.80707705046518
 20
-1683.9265353780431
 30
0.0
 41
1.0
 10
734.80576183504957
 20
-1683.9285071475515
 30
0.0
 41
1.0
 10
734.80444661963395
 20
-1683.9304789170599
 30
0.0
 41
1.0
 10
734.7288932929041
 20
-1684.0437483816143
 30
0.0
 41
0.9999972147291418
 10
734.65387548253636
 20
-1684.1573732244408
 30
0.0
 41
1.0
 10
734.64890393990891
 20
-1684.1649033129206
 30
0.0
 41
1.0
 10
734.64393239728156
 20
-1684.1724334014007
 30
0.0
 41
1.0
 10
734.55897150166118
 20
-1684.3011184211837
 30
0.0
 41
0.9999371979003962
 10
734.47691615226097
 20
-1684.4316753349547
 30
0.0
 41
1.0
 10
734.47340726789776
 20
-1684.4372582630222
 30
0.0
 41
1.0
 10
734.46989838353443
 20
-1684.4428411910894
 30
0.0
 41
1.0
 10
734.38082526540154
 20
-1684.5845639610047
 30
0.0
 41
0.9998272025609143
 10
734.29708187451808
 20
-1684.7294998377502
 30
0.0
 41
1.0
 10
734.28186670249693
 20
-1684.7558329522019
 30
0.0
 41
1.0
 10
734.26665153047577
 20
-1684.7821660666536
 30
0.0
 41
1.0
 10
734.1524777955467
 20
-1684.9797681723076
 30
0.0
 41
0.999521721483853
 10
734.0507381059906
 20
-1685.1840505001703
 30
0.0
 41
1.0
 10
734.04309454335475
 20
-1685.1993979498748
 30
0.0
 41
1.0
 10
734.03545098071902
 20
-1685.2147453995792
 30
0.0
 41
1.0
 10
733.94854568812991
 20
-1685.3892418576593
 30
0.0
 41
0.9998269762607266
 10
733.86819122185818
 20
-1685.5668501443822
 30
0.0
 41
1.0
 10
733.78783675558532
 20
-1685.7444584311077
 30
0.0
 41
0.9998944747388712
 10
733.71267596102257
 20
-1685.9243261567324
 30
0.0
 41
1.0
 10
733.70772229143108
 20
-1685.9361808116505
 30
0.0
 41
1.0
 10
733.70276862183971
 20
-1685.9480354665684
 30
0.0
 41
1.0
 10
733.6221215612884
 20
-1686.1410324065828
 30
0.0
 41
0.9999506734410499
 10
733.54532403238227
 20
-1686.3355932114453
 30
0.0
 41
1.0
 10
733.53072406711726
 20
-1686.3725811332365
 30
0.0
 41
1.0
 10
733.51612410185214
 20
-1686.4095690550278
 30
0.0
 41
1.0
 10
733.46852650348183
 20
-1686.5301540162936
 30
0.0
 41
0.9999912393935736
 10
733.42194005945623
 20
-1686.6511332189973
 30
0.0
 41
1.0
 10
733.37535361542587
 20
-1686.7721124217142
 30
0.0
 41
0.9999927113993348
 10
733.3296923210346
 20
-1686.8934438292081
 30
0.0
 41
1.0
 10
733.31572388963934
 20
-1686.9305608112004
 30
0.0
 41
1.0
 10
733.30175545824409
 20
-1686.9676777931929
 30
0.0
 41
1.0
 10
733.22815730105356
 20
-1687.1632431646949
 30
0.0
 41
0.9999487550948506
 10
733.15853367608179
 20
-1687.3602585298777
 30
0.0
 41
1.0
 10
733.13494006614292
 20
-1687.4270218401762
 30
0.0
 41
1.0
 10
733.11134645620393
 20
-1687.4937851504749
 30
0.0
 41
1.0
 10
733.01666082183374
 20
-1687.761718985299
 30
0.0
 41
0.9999808436940547
 10
732.92529923319694
 20
-1688.0308044165502
 30
0.0
 41
1.0
 10
732.83393764456264
 20
-1688.2998898477936
 30
0.0
 41
0.9999873932891019
 10
732.74528293584456
 20
-1688.5698792028068
 30
0.0
 41
1.0
 10
732.72519057897171
 20
-1688.6310685355702
 30
0.0
 41
1.0
 10
732.70509822209874
 20
-1688.6922578683339
 30
0.0
 41
1.0
 10
732.57625879964223
 20
-1689.0846258888523
 30
0.0
 41
0.9999794883036404
 10
732.45245601468264
 20
-1689.4786120951346
 30
0.0
 41
1.0
 10
732.44130375525447
 20
-1689.5141027053419
 30
0.0
 41
1.0
 10
732.43015149582629
 20
-1689.5495933155494
 30
0.0
 41
1.0
 10
732.28759333192306
 20
-1690.0032660676541
 30
0.0
 41
0.999998276162668
 10
732.14672089189617
 20
-1690.4574650898139
 30
0.0
 41
1.0
 10
730.55858055932356
 20
-1695.5062348208173
 30
0.0
 41
1.0
 10
728.97044022675095
 20
-1700.5550045518207
 30
0.0
 41
1.0
 10
728.02168961527457
 20
-1700.5550045518207
 30
0.0
 41
1.0
 10
727.07293900379818
 20
-1700.5550045518207
 30
0.0
 41
1.0
 10
730.31122348995143
 20
-1690.2276823518746
 30
0.0
 41
1.0
 10
733.54950797610468
 20
-1679.9003601519285
 30
0.0
 41
1.0
  0
LWPOLYLINE
  5
5E
100
AcDbEntity
  8
0
370
              15
390
0
  6
Continuous
 62
               7
100
AcDbPolyline
 90
      232
 70
             128
 10
707.84596220227763
 20
-1680.9847029834436
 42
0.000437080069942
 10
707.79308502810363
 20
-1681.0533696228324
 10
707.75380079707816
 20
-1681.1044767355963
 42
0.0030481992178972
 10
707.62346207996336
 20
-1681.2761984279348
 10
707.58495040820856
 20
-1681.3275852117285
 42
0.0042058245756625
 10
707.38096535753436
 20
-1681.6045909568084
 10
707.32856023503803
 20
-1681.6770238035831
 42
0.0120948898740311
 10
707.03251631827584
 20
-1682.1077734081334
 10
706.93632381915563
 20
-1682.2552541433554
 42
0.0141601263947322
 10
706.63267977223268
 20
-1682.7509234800923
 10
706.59314250480179
 20
-1682.8197674475327
 42
0.0071131081302715
 10
706.38787018156825
 20
-1683.1892702463622
 42
0.0068458791005698
 10
706.19299065473012
 20
-1683.5643618098284
 10
706.18617879226736
 20
-1683.577923523562
 42
0.0064120880292492
 10
705.9880365422157
 20
-1683.9853479984968
 10
705.98050185670604
 20
-1684.0013598552023
 42
0.0058857236447399
 10
705.77774646483954
 20
-1684.4457359662256
 10
705.76957153854039
 20
-1684.4642261198712
 42
0.0053189741897057
 10
705.56086722587543
 20
-1684.9501895937829
 10
705.5521194201915
 20
-1684.9711714719851
 42
0.0047503650422174
 10
705.33614569403665
 20
-1685.5033709052054
 10
705.32687744569273
 20
-1685.5268472813027
 42
0.0042071762170252
 10
705.10233006196381
 20
-1686.1099408753755
 10
705.09258065961637
 20
-1686.1359070502422
 42
0.0036680086486793
 10
704.85812601629993
 20
-1686.7745424347856
 10
704.84791823645651
 20
-1686.8029909691179
 42
0.0032573142624718
 10
704.6022859505
 20
-1687.5018436288415
 10
704.53363542964269
 20
-1687.7013067129428
 42
0.0026133366651475
 10
704.18519023089107
 20
-1688.731169996596
 10
704.12193344339244
 20
-1688.921400831983
 42
0.0020592950741317
 10
703.90807037442335
 20
-1689.5735044846022
 10
703.90501858326957
 20
-1689.5829409729829
 42
0.0025609928533196
 10
703.70319808177442
 20
-1690.2180861953777
 10
703.70060671464569
 20
-1690.226388536325
 42
0.0031362356240517
 10
703.51111592897075
 20
-1690.8471513924978
 10
703.508984886039
 20
-1690.8542926987236
 42
0.0037229918033403
 10
703.33218449911692
 20
-1691.4632780006832
 10
703.33050590991184
 20
-1691.469224890853
 42
0.0043077623707943
 10
703.16676510784544
 20
-1692.0690436226266
 42
0.0047654161826151
 10
703.01393638533091
 20
-1692.6717297115231
 10
702.97947177649041
 20
-1692.8132914886787
 42
0.0112969368445018
 10
702.78360741834695
 20
-1693.7049836493029
 10
702.75560102925022
 20
-1693.8478116954009
 42
0.0130056762570122
 10
702.55476378560354
 20
-1695.0347527670458
 10
702.5342240354563
 20
-1695.1788308805235
 42
0.013872153214434
 10
702.4305210309185
 20
-1696.0856603663485
 10
702.4112255430108
 20
-1696.309158088271
 42
0.0071254697009167
 10
702.37787889708807
 20
-1696.7723450971207
 10
702.37291792292365
 20
-1696.8583490917006
 42
0.0028881799206249
 10
702.35777962963493
 20
-1697.1500908015234
 42
0.006029729713449
 10
702.34784742985926
 20
-1697.4420397376412
 10
702.34678514819223
 20
-1697.4904321095719
 42
0.0229523164149965
 10
702.35451617597801
 20
-1697.8131869558549
 10
702.35874194949838
 20
-1697.8735904898717
 42
0.0123673300666288
 10
702.3778205960167
 20
-1698.0747112150459
 42
0.0128577674476446
 10
702.40701598642295
 20
-1698.2746090649725
 10
702.41414185981
 20
-1698.3159378795697
 42
0.0285717853771575
 10
702.47863586150572
 20
-1698.5940540308832
 10
702.49230438517191
 20
-1698.6407088003596
 42
0.0316283099154997
 10
702.60811496508643
 20
-1698.9597233021859
 10
702.611163656842
 20
-1698.9667096745115
 42
0.0338984824237843
 10
702.76059536780917
 20
-1699.2542756387006
 10
702.76290409717865
 20
-1699.258066667976
 42
0.03502287183549
 10
702.9452643878526
 20
-1699.5151186526534
 10
702.94614963962908
 20
-1699.5161977304192
 42
0.0347476747531772
 10
703.16057432686773
 20
-1699.7433827776376
 42
0.0331337701910145
 10
703.40381765261372
 20
-1699.9395114397148
 10
703.40491775113026
 20
-1699.9402841428875
 42
0.0305233319084065
 10
703.67346244670443
 20
-1700.1054123129793
 10
703.67669249120479
 20
-1700.1071363248416
 42
0.0273744481152946
 10
703.96924620277639
 20
-1700.243274468731
 10
703.97435073791655
 20
-1700.2453180532018
 42
0.0240964406198689
 10
704.28982781356387
 20
-1700.3543017794834
 10
704.29641114277229
 20
-1700.3562265191581
 42
0.0209636179813084
 10
704.63381129542802
 20
-1700.4396946670906
 10
704.64144375587364
 20
-1700.4412465800915
 42
0.0181388704690633
 10
704.99976614787022
 20
-1700.5006626733052
 10
705.00804699625019
 20
-1700.5017288571225
 42
0.0156086547584987
 10
705.38623436043815
 20
-1700.5384650436993
 10
705.42942961276901
 20
-1700.5413035461784
 42
0.0137148329021977
 10
705.75710275806489
 20
-1700.5538238014296
 10
705.80303894800988
 20
-1700.554318234545
 42
0.0051057823888541
 10
706.03918453458311
 20
-1700.554448488954
 42
0.0052256693311964
 10
706.27528181836703
 20
-1700.5496996644895
 10
706.34550860211118
 20
-1700.5475526984756
 42
0.0161507179048354
 10
706.72124568021252
 20
-1700.523902328149
 10
706.74125864058556
 20
-1700.5219921328614
 42
0.010121673783547
 10
707.15528586208109
 20
-1700.4739992024952
 10
707.18933915150308
 20
-1700.4693515056863
 42
0.024529177639503
 10
707.66612880705168
 20
-1700.3802764276109
 10
707.75095212258202
 20
-1700.3600805072633
 42
0.0143509212563784
 10
708.1075832265177
 20
-1700.2642758734855
 42
0.0156557857035136
 10
708.45779929124569
 20
-1700.1472646576665
 10
708.46530050573961
 20
-1700.1444944959126
 42
0.0170137333629901
 10
708.8218965014205
 20
-1699.9988368810418
 10
708.82900042382846
 20
-1699.9956490454779
 42
0.0183105364408064
 10
709.18835009199086
 20
-1699.8183140036556
 10
709.19529685663349
 20
-1699.8145635687813
 42
0.0194899958147449
 10
709.55377759761996
 20
-1699.602584586889
 10
709.56079147695425
 20
-1699.5980592445956
 42
0.0204869852951605
 10
709.91480577904952
 20
-1699.3485392295088
 10
709.92207138763524
 20
-1699.3429591641614
 42
0.0212516938554582
 10
710.26806131874264
 20
-1699.0530551672673
 10
710.3145780128167
 20
-1699.0105878571751
 42
0.0215248918249811
 10
710.57460418170649
 20
-1698.7518235781786
 10
710.61963391609254
 20
-1698.7029794568227
 42
0.0114578554967622
 10
710.77442606976444
 20
-1698.5271565233704
 10
710.78562060574768
 20
-1698.5138377598291
 42
0.0061531305128324
 10
710.91209525174554
 20
-1698.3595482265193
 42
0.0006325587122055
 10
711.03647373586909
 20
-1698.2035448508791
 10
711.05951387094876
 20
-1698.1745713301843
 42
0.0041897761555631
 10
711.22796927493835
 20
-1697.9590519541005
 10
711.28643139481358
 20
-1697.8829506071372
 42
0.0092993880035081
 10
711.56304332203467
 20
-1697.5086718432567
 10
711.64543781524014
 20
-1697.3927348396792
 42
0.0159321727090289
 10
711.99204429787869
 20
-1696.8705606189285
 10
712.0364004332647
 20
-1696.7988810546833
 42
0.0085547317023784
 10
712.27091219859346
 20
-1696.4050061054538
 42
0.0084601156893373
 10
712.49188837603833
 20
-1696.0033792564163
 10
712.50000384986583
 20
-1695.9880195741487
 42
0.0081429654283066
 10
712.72325312030364
 20
-1695.5482980616075
 10
712.73211328448735
 20
-1695.5301192195886
 42
0.0076574581331034
 10
712.95852079505369
 20
-1695.0469363443367
 10
712.96800043577775
 20
-1695.0258718660325
 42
0.0070682724199501
 10
713.19844534358458
 20
-1694.4938345612513
 10
713.20843562756625
 20
-1694.4698453722397
 42
0.0064559514445738
 10
713.44376883574944
 20
-1693.8835331057169
 10
713.45417819391298
 20
-1693.8565981802785
 42
0.0058311413908184
 10
713.69522493067575
 20
-1693.2105660858949
 10
713.70598000806331
 20
-1693.1806817447343
 42
0.0052312425819296
 10
713.95356128610388
 20
-1692.4694793309006
 10
713.96460512248393
 20
-1692.4366526188301
 42
0.0046680544797704
 10
714.21953355021742
 20
-1691.6548263030779
 10
714.26152570026466
 20
-1691.5218430657746
 42
0.0041666856444707
 10
714.46481171265691
 20
-1690.8588742907777
 10
714.50247415330739
 20
-1690.7322931831691
 42
0.0015170975156863
 10
714.62366073173382
 20
-1690.3204248316304
 42
-0.0004887993110498
 10
714.74400050485735
 20
-1689.9083064195868
 10
714.82047776235197
 20
-1689.6473490336473
 42
0.0002583378928119
 10
715.09369233238476
 20
-1688.7132923305755
 10
715.17546518199401
 20
-1688.4331930708811
 42
0.0006636169671943
 10
715.36933294200412
 20
-1687.7658401472979
 10
715.3744295963478
 20
-1687.7482085644294
 42
0.0010589131323786
 10
715.55587829726778
 20
-1687.115477221369
 10
715.56086036774741
 20
-1687.0979643143519
 42
0.0015655524461394
 10
715.72913057493111
 20
-1686.4993476351481
 10
715.73396077534937
 20
-1686.4819554762005
 42
0.0021640440476837
 10
715.88825074733211
 20
-1685.9169284581942
 10
715.89288496676556
 20
-1685.8996637281873
 42
0.002876387185509
 10
716.032400684815
 20
-1685.3676957773534
 10
716.03678654898681
 20
-1685.3505717991811
 42
0.0037310511948672
 10
716.1607432408191
 20
-1684.851124205175
 10
716.16481846110833
 20
-1684.8341639339285
 42
0.0047652197769134
 10
716.27244236161653
 20
-1684.3666861656243
 10
716.27613296094
 20
-1684.3499266104736
 42
0.0060276699302391
 10
716.36666306009363
 20
-1683.9138508153301
 10
716.36988175038107
 20
-1683.8973496010299
 42
0.0075824337753045
 10
716.4425710597983
 20
-1683.4920824365947
 10
716.44521643717928
 20
-1683.4759274891394
 42
0.0095130624613236
 10
716.49933167280972
 20
-1683.1008381360725
 10
716.50631789669239
 20
-1683.0449045779549
 42
0.0121054653223719
 10
716.53290922727012
 20
-1682.7800087494822
 10
716.53377571703027
 20
-1682.7686053065449
 42
0.0069050827388208
 10
716.54886453506742
 20
-1682.5256640797088
 10
716.54999983473624
 20
-1682.5021378226595
 42
0.0169063976709392
 10
716.55282711371626
 20
-1682.3059450953633
 10
716.55165646218472
 20
-1682.2456093340043
 42
0.0052007732914783
 10
716.54940301359193
 20
-1682.1700159438619
 42
0.0054038123297072
 10
716.52943950175359
 20
-1682.049997647855
 10
716.52435364588268
 20
-1682.0213391612708
 42
0.0112050460468519
 10
716.48896928382374
 20
-1681.8450127229298
 10
716.47114432178353
 20
-1681.7654711362111
 42
0.024076446800661
 10
716.3802469556374
 20
-1681.4352341007104
 10
716.36168819282375
 20
-1681.3786139357157
 42
0.0256812331832807
 10
716.21832527263439
 20
-1681.0068897294589
 10
716.2129158468133
 20
-1680.9947583944697
 42
0.0268360501215728
 10
716.04348860596315
 20
-1680.6637652604481
 10
716.03795219832853
 20
-1680.6542455901365
 42
0.0274670231726722
 10
715.84575122191472
 20
-1680.3619582152185
 10
715.84036992195115
 20
-1680.3546790676758
 42
0.0275035967101958
 10
715.62879704239026
 20
-1680.0991631773729
 10
715.62372754142393
 20
-1680.0936840897427
 42
0.0269557673529311
 10
715.39632399798415
 20
-1679.8730418037803
 10
715.3915809402024
 20
-1679.8689118493203
 42
0.0259124802204703
 10
715.15202610877077
 20
-1679.6812213221672
 10
715.14749526358992
 20
-1679.6780358198375
 42
0.0245162153004199
 10
714.89957891049414
 20
-1679.5213028107264
 10
714.8950523641671
 20
-1679.518742613524
 42
0.022928258884034
 10
714.64263280734258
 20
-1679.3908744210266
 10
714.63785231350641
 20
-1679.3887221212649
 42
0.0212984135700749
 10
714.38481436104405
 20
-1679.2875232040224
 10
714.3795100760766
 20
-1679.285659641263
 42
0.019755546233697
 10
714.12973173835155
 20
-1679.2088442232975
 42
0.0183511896789176
 10
713.87480301288895
 20
-1679.151261316332
 10
713.78843781616581
 20
-1679.135058525947
 42
0.0338057877149787
 10
713.50293046690501
 20
-1679.1012501208068
 10
713.41192506185291
 20
-1679.096670465545
 42
0.0091990524508902
 10
713.30607795322908
 20
-1679.0932946096234
 42
0.0028333980778609
 10
713.20016403723366
 20
-1679.0924665021066
 10
713.19924858418688
 20
-1679.0924645322825
 42
-0.0023619827787471
 10
713.09150256905218
 20
-1679.0917236912037
 10
713.0550973989051
 20
-1679.091301384741
 42
0.0008824598471223
 10
712.87454140906243
 20
-1679.0895256065028
 10
712.83067997664921
 20
-1679.0891716449771
 42
0.0038132665768147
 10
712.56239708078317
 20
-1679.0890527089102
 10
712.5458634259769
 20
-1679.0891714750539
 42
0.0060665569335362
 10
712.2445829343784
 20
-1679.0949917744749
 10
712.23033260236025
 20
-1679.0954400824423
 42
0.0080356953338855
 10
711.90087388601512
 20
-1679.1111078045096
 10
711.88880387093377
 20
-1679.1118763874497
 42
0.0098996399103849
 10
711.536040786287
 20
-1679.1413616166474
 10
711.5259950769082
 20
-1679.142401912846
 42
0.0117740981366872
 10
711.15483821856083
 20
-1679.1896941603757
 10
711.1466155220769
 20
-1679.1909392769467
 42
0.0137435215136581
 10
710.76202670258965
 20
-1679.2600362505088
 10
710.75536966346851
 20
-1679.261422146742
 42
0.0158359869385765
 10
710.36237256966251
 20
-1679.3563142352239
 10
710.35695938279889
 20
-1679.3578041760934
 42
0.0180554124023139
 10
709.96064433819197
 20
-1679.4824421923299
 10
709.95608755010301
 20
-1679.4840582285983
 42
0.0203657431287385
 10
709.56161003228931
 20
-1679.6423185701151
 10
709.55746649328432
 20
-1679.644180191556
 42
0.0226819684651712
 10
709.17003043708041
 20
-1679.8398227702271
 10
709.16583064606255
 20
-1679.8421883621468
 42
0.0248634984609791
 10
708.7906487048798
 20
-1680.078815008095
 10
708.74245377610089
 20
-1680.1126720499171
 42
0.0267044190877787
 10
708.46816107918085
 20
-1680.3281124257878
 42
0.0139303002202785
 10
708.21199391324024
 20
-1680.5653512667016
 10
708.20714052752112
 20
-1680.5701039295598
 42
0.0283460963448572
 10
707.96306793329268
 20
-1680.8378345900064
 10
707.92339942813737
 20
-1680.8866361674782
 42
0.0070695364826148
 10
707.84596220227763
 20
-1680.9847029834436
 42
0.0070695364826148
  0
LWPOLYLINE
  5
5F
100
AcDbEntity
  8
0
370
              15
390
0
  6
Continuous
 62
               7
100
AcDbPolyline
 90
      226
 70
             128
 10
704.31714176503124
 20
-1696.7062917896274
 42
-0.002627763665076
 10
704.31706388123109
 20
-1696.6395198638986
 10
704.31728123946323
 20
-1696.5863646464413
 42
-0.0088680296730912
 10
704.32105785575629
 20
-1696.4133488640371
 10
704.32340421486867
 20
-1696.3540688385847
 42
-0.0077381705615755
 10
704.33945032563156
 20
-1696.0628083427894
 10
704.34031823680482
 20
-1696.0505201091014
 42
-0.0068872530535159
 10
704.36695031655267
 20
-1695.7352983570356
 10
704.36815454073906
 20
-1695.7230573780137
 42
-0.0062130021482159
 10
704.40574825756801
 20
-1695.3841876867662
 10
704.40725216110206
 20
-1695.3720138148587
 42
-0.0056726929663907
 10
704.45617402060464
 20
-1695.0098185927434
 10
704.45794746624881
 20
-1694.9977247924999
 42
-0.0052341884490287
 10
704.51855805251
 20
-1694.6125315369745
 10
704.52057604128538
 20
-1694.6005266069894
 42
-0.0049768450168647
 10
704.59331472271083
 20
-1694.1926820395613
 10
704.61756373743344
 20
-1694.064134056551
 42
-0.008902980562709
 10
704.75464458922727
 20
-1693.4023586091328
 10
704.78738996454672
 20
-1693.2573271786052
 42
-0.0080318257097648
 10
705.01693857888824
 20
-1692.3116175467485
 10
705.02892350533568
 20
-1692.2654869115613
 42
-0.0074265721316441
 10
705.31293504419011
 20
-1691.2354223331652
 10
705.33281458729789
 20
-1691.1672882726064
 42
-0.0069711922704107
 10
705.66011916580908
 20
-1690.1010205322634
 10
705.72007111290884
 20
-1689.9149991739107
 42
-0.005207042289637
 10
705.94949633817384
 20
-1689.2277270968616
 10
705.96677753037125
 20
-1689.1776998161718
 42
-0.0009167004448393
 10
706.16986941763548
 20
-1688.5932439680903
 42
-0.0025162726945227
 10
706.37696704789391
 20
-1688.0102027039395
 10
706.41419165969808
 20
-1687.9070531580376
 42
-0.002821268145741
 10
706.66236757866659
 20
-1687.2313225258513
 10
706.67219834142372
 20
-1687.2050150811572
 42
-0.003196491682313
 10
706.90849059907953
 20
-1686.5848103190474
 10
706.91812505307473
 20
-1686.5600003289139
 42
-0.0036281836454031
 10
707.14323101417972
 20
-1685.9925596480111
 10
707.15266942434016
 20
-1685.969262216501
 42
-0.0041269166833573
 10
707.36728712099637
 20
-1685.4518213205301
 10
707.39992007741841
 20
-1685.374942874166
 42
-0.004747221305731
 10
707.55696488297076
 20
-1685.0145214062857
 10
707.56385896417453
 20
-1684.9991008089637
 42
-0.002565165999894
 10
707.71221699802913
 20
-1684.6717727532052
 42
-0.0057144634992194
 10
707.86596669179892
 20
-1684.3469630798461
 10
707.89399739720147
 20
-1684.2894546974492
 42
-0.0065388068373998
 10
708.07746442494158
 20
-1683.9252222007835
 10
708.0859228807235
 20
-1683.9089626214075
 42
-0.0074510843026222
 10
708.26210512659793
 20
-1683.5822743402912
 10
708.27028479712897
 20
-1683.5676335630224
 42
-0.0084648979861388
 10
708.43991865022895
 20
-1683.2757245520611
 10
708.44777477671948
 20
-1683.2627175604061
 42
-0.0095638542801065
 10
708.61161022431122
 20
-1683.0028286884317
 10
708.61908516797951
 20
-1682.9914593269814
 42
-0.0107191626806345
 10
708.77788674837052
 20
-1682.7608480924323
 10
708.78490348209687
 20
-1682.7511120000743
 42
-0.0118458573908218
 10
708.9394515806141
 20
-1682.5470398047571
 42
-0.0129184518182089
 10
709.10390420422482
 20
-1682.3508792885762
 10
709.13404897657597
 20
-1682.3167532096902
 42
-0.0217742579636913
 10
709.31066129891417
 20
-1682.1335464394369
 10
709.32140684338378
 20
-1682.1233296062253
 42
-0.0097266568644818
 10
709.48746446223026
 20
-1681.9714820317968
 42
-0.0187720905722224
 10
709.66181203811698
 20
-1681.8294131784098
 10
709.69251802878978
 20
-1681.8062540960145
 42
-0.0179428207521022
 10
709.92493874879005
 20
-1681.6437019188998
 10
709.9285910757053
 20
-1681.6413379840124
 42
-0.017004787769652
 10
710.16435471323621
 20
-1681.4998774698604
 10
710.1681377019853
 20
-1681.4977791648228
 42
-0.0160190788366078
 10
710.40504624961807
 20
-1681.376127862836
 42
-0.0151102861492227
 10
710.64907803206245
 20
-1681.2694450867825
 10
710.70146453427651
 20
-1681.2484049538868
 42
-0.0271945441886585
 10
711.06012709333686
 20
-1681.1265401431804
 10
711.12919189382364
 20
-1681.1071906019142
 42
-0.0237596594019337
 10
711.54498874084538
 20
-1681.0117398899329
 10
711.61305159457265
 20
-1680.9994852018067
 42
-0.0213715440558317
 10
711.89892652602111
 20
-1680.9605381702961
 10
711.95907369224722
 20
-1680.9549484555946
 42
-0.010146565582231
 10
712.12656622423322
 20
-1680.9428049123312
 10
712.13590661042747
 20
-1680.9423179973342
 42
-0.0100375910878465
 10
712.285060710994
 20
-1680.9375421794089
 10
712.29531998067262
 20
-1680.9374197403945
 42
-0.0103625633383398
 10
712.4240279753293
 20
-1680.938551173921
 10
712.44629362660169
 20
-1680.9392085323861
 42
-0.011568925022369
 10
712.53034436412418
 20
-1680.943638038631
 42
-0.0072438037454792
 10
712.61418264355746
 20
-1680.9512272383797
 10
712.63098315303614
 20
-1680.9529937811044
 42
-0.0217917313134039
 10
712.74755291634995
 20
-1680.9704136738255
 10
712.81315300692029
 20
-1680.9831602822408
 42
-0.0332943556743549
 10
713.01754517194479
 20
-1681.0372005735471
 10
713.04771774049368
 20
-1681.047368650665
 42
-0.0184824084805754
 10
713.18622279696024
 20
-1681.0998196660521
 42
-0.0198002050686376
 10
713.32029713745919
 20
-1681.1627037262513
 10
713.3221837748365
 20
-1681.1636815131315
 42
-0.0212242342965748
 10
713.45432271723905
 20
-1681.2394442519246
 10
713.45613801278193
 20
-1681.2405900541328
 42
-0.0226090605801832
 10
713.5846419140006
 20
-1681.3300696976951
 10
713.58648635574104
 20
-1681.3314819506847
 42
-0.0238457052229843
 10
713.70966843703559
 20
-1681.4354778465486
 10
713.7116211655931
 20
-1681.4372927243132
 42
-0.024816056415607
 10
713.82782267289372
 20
-1681.5565673255219
 10
713.82992630629576
 20
-1681.5589526592264
 42
-0.0254109591450372
 10
713.9375315241615
 20
-1681.6942410451904
 10
713.93977954607578
 20
-1681.6973825935913
 42
-0.0255528488296554
 10
714.03722622487271
 20
-1681.8494096478253
 10
714.03955732478903
 20
-1681.8534912594332
 42
-0.0252146793221684
 10
714.12533835079796
 20
-1682.0229935054299
 10
714.12764058995572
 20
-1682.0281755873432
 42
-0.02442656359462
 10
714.20029528371788
 20
-1682.2159221593915
 10
714.20954168518551
 20
-1682.2437875777271
 42
-0.023131961289214
 10
714.25546446417763
 20
-1682.407088624529
 42
-0.0112130424352333
 10
714.29010048671546
 20
-1682.5732922247148
 10
714.2913030118284
 20
-1682.5797888116051
 42
-0.0210527881249503
 10
714.31698948719907
 20
-1682.7608444570444
 10
714.32050008202111
 20
-1682.7962500055937
 42
-0.0190029892420805
 10
714.33594155556557
 20
-1683.0497858518654
 10
714.33675153200966
 20
-1683.0852614662349
 42
-0.0137974553662947
 10
714.33520267917424
 20
-1683.410292872964
 10
714.33435722421848
 20
-1683.4364116175627
 42
-0.0081336634217146
 10
714.31949788899601
 20
-1683.7417590851605
 42
-0.0073526923573187
 10
714.29518935562214
 20
-1684.0465073294381
 10
714.29392793183865
 20
-1684.0598440041117
 42
-0.0066886138690625
 10
714.25819234579126
 20
-1684.3904300476165
 10
714.25653525632231
 20
-1684.4040516666003
 42
-0.0061359187357112
 10
714.208684654271
 20
-1684.7608156467036
 10
714.20664715319856
 20
-1684.7747104495295
 42
-0.0056698610066264
 10
714.1459968224309
 20
-1685.1579890183712
 10
714.14359138910845
 20
-1685.1721481375982
 42
-0.0052721077274588
 10
714.06945918830934
 20
-1685.5822754772737
 10
714.06669603946716
 20
-1685.5966921126621
 42
-0.0049289272176841
 10
713.97840192136505
 20
-1686.0340006237946
 10
713.97528942668453
 20
-1686.0486694766005
 42
-0.0047415956708893
 10
713.87205143515405
 20
-1686.5134662340029
 10
713.83728322479237
 20
-1686.6632733293943
 42
-0.0084404470902869
 10
713.64726678121997
 20
-1687.4234973539274
 10
713.64114009323487
 20
-1687.4463614780789
 42
-0.0039635940259813
 10
713.41968640895402
 20
-1688.247350342315
 10
713.40630961377133
 20
-1688.294281958918
 42
-0.0072475040835911
 10
713.13886272590833
 20
-1689.183501675308
 10
713.06865039908098
 20
-1689.4052420252801
 42
-0.0051345458829464
 10
712.78189102702197
 20
-1690.2795672130915
 10
712.76036476026275
 20
-1690.3429934801973
 42
-0.0019150016602105
 10
712.50483135338777
 20
-1691.0865426004475
 10
712.49836374898359
 20
-1691.1051300653917
 42
-0.0021524362751656
 10
712.24988569792777
 20
-1691.8094558870769
 10
712.24067527723128
 20
-1691.8352094653783
 42
-0.0024331286821611
 10
712.00442001819533
 20
-1692.4858087734965
 10
711.99537206565071
 20
-1692.5103520798348
 42
-0.0027449721790725
 10
711.77075749480935
 20
-1693.1094819587754
 10
711.76186748741782
 20
-1693.1328045486257
 42
-0.0031083229767954
 10
711.54832500080715
 20
-1693.6827285862073
 10
711.53958886912767
 20
-1693.7048183020752
 42
-0.0035311343281795
 10
711.33654768353983
 20
-1694.2078014277952
 10
711.32796234440332
 20
-1694.2286441512783
 42
-0.0040245640949515
 10
711.13485054059777
 20
-1694.6869534738978
 10
711.12641442699135
 20
-1694.7065328419776
 42
-0.004601513585193
 10
710.94265813383095
 20
-1695.122437871612
 10
710.93437195600893
 20
-1695.1407350110503
 42
-0.005276863827455
 10
710.75939443704704
 20
-1695.5165078953344
 10
710.75126222641575
 20
-1695.5335012338867
 42
-0.0060672675640555
 10
710.58448261365413
 20
-1695.8714168569918
 10
710.57651313317047
 20
-1695.8870821159933
 42
-0.0069904648869479
 10
710.41734473917109
 20
-1696.1894179226529
 10
710.40955333955912
 20
-1696.2037284718824
 42
-0.0080637022764625
 10
710.25740147921442
 20
-1696.4727637750334
 10
710.24981244658761
 20
-1696.4856916406266
 42
-0.0093006455667842
 10
710.10407177005175
 20
-1696.7237060391371
 10
710.09672110330609
 20
-1696.7352240083135
 42
-0.010706077804581
 10
709.95677255986959
 20
-1696.9444943256892
 10
709.94971079159188
 20
-1696.9545798682525
 42
-0.0122723111411539
 10
709.81491707339183
 20
-1697.1373731977442
 10
709.81459084983874
 20
-1697.1377935855526
 42
-0.0141836319635893
 10
709.67100924686372
 20
-1697.3123633433834
 10
709.66406149121599
 20
-1697.3203383436432
 42
-0.0175957477209483
 10
709.52415532317707
 20
-1697.4699592320528
 42
-0.0080466359675059
 10
709.37669155814342
 20
-1697.6122817602072
 10
709.33065701362943
 20
-1697.6553021982952
 42
-0.0269600260396707
 10
709.0773767676485
 20
-1697.8676254568029
 10
709.01080963134996
 20
-1697.9175768714279
 42
-0.0178362839754211
 10
708.77086514169355
 20
-1698.0845947976807
 10
708.76362017069584
 20
-1698.0892633098838
 42
-0.0174650732653574
 10
708.52728397325188
 20
-1698.2301242748447
 42
-0.0169240130163012
 10
708.28181772738651
 20
-1698.3544165346257
 10
708.23583157183634
 20
-1698.3757784901893
 42
-0.0318883036842687
 10
707.88548071621824
 20
-1698.5121167996988
 10
707.81711518105135
 20
-1698.533817420175
 42
-0.0284435909899632
 10
707.44106505476054
 20
-1698.6300348556497
 10
707.40590689426267
 20
-1698.6369284514781
 42
-0.0243909341015081
 10
707.09246343334303
 20
-1698.6826494825084
 10
707.04218270656713
 20
-1698.6874950294105
 42
-0.0196639292927583
 10
706.8265871290447
 20
-1698.6997433149236
 10
706.77476305788139
 20
-1698.7006465756604
 42
-0.0100501510681363
 10
706.66233977621698
 20
-1698.7003461773072
 10
706.63067991492085
 20
-1698.6996251054231
 42
-0.0019752031140235
 10
706.58158757819149
 20
-1698.6983129452121
 10
706.5788272749719
 20
-1698.6982282533859
 42
0.0065378751998908
 10
706.53525070021465
 20
-1698.6974613621708
 42
-0.0167974694635936
 10
706.49171987728039
 20
-1698.6958014636446
 10
706.48764053802074
 20
-1698.6955084527499
 42
-0.0081283276314004
 10
706.43608074028907
 20
-1698.6909614591127
 10
706.42434116640368
 20
-1698.6897335415338
 42
-0.0126703440168271
 10
706.34962287060966
 20
-1698.6799987504623
 10
706.32683500293342
 20
-1698.676440494547
 42
-0.0117852088435722
 10
706.20729601710377
 20
-1698.6548774993905
 10
706.15191556533796
 20
-1698.6435339591553
 42
-0.0251774592297643
 10
705.92507152633164
 20
-1698.5850359497226
 10
705.88035233647668
 20
-1698.5710691303861
 42
-0.0146525199882945
 10
705.69395934894055
 20
-1698.5068026031888
 42
-0.0166929435857123
 10
705.5119816928119
 20
-1698.4309954701334
 10
705.50732506154077
 20
-1698.4288705695203
 42
-0.019168435843431
 10
705.32214143029307
 20
-1698.3356344857311
 10
705.3188088445346
 20
-1698.3337932381769
 42
-0.0221181781804557
 10
705.13549854063092
 20
-1698.2216597398051
 10
705.13314873662387
 20
-1698.220075441815
 42
-0.0254984685380566
 10
704.95685858623733
 20
-1698.0876642918445
 10
704.9343764385377
 20
-1698.0689119829101
 42
-0.0292492648813261
 10
704.80960749969358
 20
-1697.9518191832663
 42
-0.0159048957506465
 10
704.69576750224519
 20
-1697.823799191669
 10
704.69444871166422
 20
-1697.822217578647
 42
-0.0343813379550346
 10
704.59181145003743
 20
-1697.6803462528767
 10
704.56031991867724
 20
-1697.6298428607836
 42
-0.0369117275706699
 10
704.47442741677992
 20
-1697.4663656198352
 42
-0.0191751379917656
 10
704.40723403122354
 20
-1697.2939610138312
 10
704.40547070746334
 20
-1697.2888676691543
 42
-0.0378178042233045
 10
704.35567598867908
 20
-1697.099926893073
 10
704.34968069294951
 20
-1697.0673662748793
 42
-0.0184846046487922
 10
704.32896349365444
 20
-1696.9256134543311
 42
-0.017986635131585
 10
704.31863048858088
 20
-1696.7827226412544
 10
704.31857404613493
 20
-1696.7811649546375
 42
-0.008549718612376
 10
704.31714176503124
 20
-1696.7062917896274
 42
-0.008549718612376
  0
ENDBLK
  5
60
100
AcDbEntity
  8
template
390
0
100
AcDbBlockEnd
  0
BLOCK
  5
61
100
AcDbEntity
  8
template
390
0
100
AcDbBlockBegin
  2
グループ-1
 70
               0
 10
0.0
 20
0.0
 30
0.0
  3
グループ-1
  1

  0
POLYLINE
  5
62
100
AcDbEntity
  8
0
370
              15
390
0
  6
Continuous
 62
               7
100
AcDb2dPolyline
 66
               1
 10
0.0
 20
0.0
 30
0.0
 70
               1
 75
               5
  0
VERTEX
  5
63
100
AcDbEntity
  8
0
370
              15
390
0
  6
Continuous
 62
               7
100
AcDbVertex
100
AcDb2dVertex
 10
-593.72835237979939
 20
-847.83100876692447
 30
0.0
  0
VERTEX
  5
64
100
AcDbEntity
  8
0
370
              15
390
0
  6
Continuous
 62
               7
100
AcDbVertex
100
AcDb2dVertex
 10
-518.75036367270673
 20
-847.83100876692447
 30
0.0
  0
VERTEX
  5
65
100
AcDbEntity
  8
0
370
              15
390
0
  6
Continuous
 62
               7
100
AcDbVertex
100
AcDb2dVertex
 10
-518.75036367270673
 20
-897.6667514920166
 30
0.0
  0
VERTEX
  5
66
100
AcDbEntity
  8
0
370
              15
390
0
  6
Continuous
 62
               7
100
AcDbVertex
100
AcDb2dVertex
 10
-593.72835237979939
 20
-897.6667514920166
 30
0.0
  0
SEQEND
  5
67
100
AcDbEntity
  8
0
370
              15
390
0
  6
Continuous
 62
               7
  0
LINE
  5
68
100
AcDbEntity
  8
0
370
              15
390
0
  6
Continuous
 62
               7
100
AcDbLine
 10
-593.72835237979939
 20
-860.50222262948398
 30
0.0
 11
-518.75036367270673
 21
-860.50222262948398
 31
0.0
  0
ENDBLK
  5
69
100
AcDbEntity
  8
template
390
0
100
AcDbBlockEnd
  0
BLOCK
  5
6A
100
AcDbEntity
  8
template
390
0
100
AcDbBlockBegin
  2
*D4
 70
               1
 10
0.0
 20
0.0
 30
0.0
  3
*D4
  1

  0
LINE
  5
6B
100
AcDbEntity
  8
0
370
              -2
390
0
  6
Continuous
 62
               0
100
AcDbLine
 10
676.23886241667992
 20
-510.58131160683558
 30
0.0
 11
678.23886241667992
 21
-510.58131160683558
 31
0.0
  0
LINE
  5
6C
100
AcDbEntity
  8
0
370
              -2
390
0
  6
Continuous
 62
               0
100
AcDbLine
 10
676.23886241667992
 20
-377.58131160683558
 30
0.0
 11
678.23886241667992
 21
-377.58131160683558
 31
0.0
  0
LINE
  5
6D
100
AcDbEntity
  8
0
370
              -2
390
0
  6
Continuous
 62
               0
100
AcDbLine
 10
678.23886241667992
 20
-377.58131160683558
 30
0.0
 11
678.23886241667992
 21
-217.125
 31
0.0
  0
LINE
  5
6E
100
AcDbEntity
  8
0
370
              -2
390
0
  6
Continuous
 62
               0
100
AcDbLine
 10
678.23886241667992
 20
-510.58131160683558
 30
0.0
 11
678.23886241667992
 21
-377.58131160683558
 31
0.0
  0
CIRCLE
  5
6F
102
{ACAD_REACTORS
330
70
102
}
100
AcDbEntity
  8
0
370
              -2
390
0
  6
Continuous
 62
               0
100
AcDbCircle
 10
678.23886241667992
 20
-510.58131160683558
 30
0.0
 40
4.99969482421875
  0
HATCH
  5
70
100
AcDbEntity
  8
0
370
              -2
390
0
  6
Continuous
 62
               0
100
AcDbHatch
 10
0.0
 20
0.0
 30
0.0
210
0.0
220
0.0
230
1.0
  2
SOLID
 70
               1
 71
               1
 91
        1
 92
        1
 93
        1
 72
               2
 10
678.23886241667992
 20
-510.58131160683558
 40
4.99969482421875
 50
0.0
 51
360.0
 73
               0
 97
        1
330
6F
 75
               0
 76
               1
 98
        1
 10
0.0
 20
0.0
  0
CIRCLE
  5
71
102
{ACAD_REACTORS
330
72
102
}
100
AcDbEntity
  8
0
370
              -2
390
0
  6
Continuous
 62
               0
100
AcDbCircle
 10
678.23886241667992
 20
-377.58131160683558
 30
0.0
 40
4.99969482421875
  0
HATCH
  5
72
100
AcDbEntity
  8
0
370
              -2
390
0
  6
Continuous
 62
               0
100
AcDbHatch
 10
0.0
 20
0.0
 30
0.0
210
0.0
220
0.0
230
1.0
  2
SOLID
 70
               1
 71
               1
 91
        1
 92
        1
 93
        1
 72
               2
 10
678.23886241667992
 20
-377.58131160683558
 40
4.99969482421875
 50
0.0
 51
360.0
 73
               0
 97
        1
330
71
 75
               0
 76
               1
 98
        1
 10
0.0
 20
0.0
  0
MTEXT
  5
73
100
AcDbEntity
  8
0
390
0
 62
               0
100
AcDbMText
 10
644.36124522917987
 20
-360.0
 30
0.0
 40
24.432617187500004
 41
0.0
 71
               1
 72
               1
  1
133(深さ)
  7
ＭＳ ゴシック
 11
0.0
 21
1.0
 31
0.0
 73
               1
 44
0.7828267384257843
  0
POINT
  5
74
100
AcDbEntity
  8
Defpoints
370
               0
390
0
 62
               0
100
AcDbPoint
 10
651.23886241667992
 20
-377.58131160683558
 30
0.0
  0
POINT
  5
75
100
AcDbEntity
  8
Defpoints
370
               0
390
0
 62
               0
100
AcDbPoint
 10
651.23886241667992
 20
-510.58131160683558
 30
0.0
  0
POINT
  5
76
100
AcDbEntity
  8
Defpoints
370
               0
390
0
 62
               0
100
AcDbPoint
 10
678.23886241667992
 20
-510.58131160683558
 30
0.0
  0
ENDBLK
  5
77
100
AcDbEntity
  8
template
390
0
100
AcDbBlockEnd
  0
BLOCK
  5
78
100
AcDbEntity
  8
template
390
0
100
AcDbBlockBegin
  2
グループ-2
 70
               0
 10
0.0
 20
0.0
 30
0.0
  3
グループ-2
  1

  0
POLYLINE
  5
79
100
AcDbEntity
  8
0
370
              15
390
0
  6
Continuous
 62
               7
100
AcDb2dPolyline
 66
               1
 10
0.0
 20
0.0
 30
0.0
 70
               1
 75
               5
  0
VERTEX
  5
7A
100
AcDbEntity
  8
0
370
              15
390
0
  6
Continuous
 62
               7
100
AcDbVertex
100
AcDb2dVertex
 10
446.27164762020061
 20
-847.83100876692447
 30
0.0
  0
VERTEX
  5
7B
100
AcDbEntity
  8
0
370
              15
390
0
  6
Continuous
 62
               7
100
AcDbVertex
100
AcDb2dVertex
 10
521.24963632729327
 20
-847.83100876692447
 30
0.0
  0
VERTEX
  5
7C
100
AcDbEntity
  8
0
370
              15
390
0
  6
Continuous
 62
               7
100
AcDbVertex
100
AcDb2dVertex
 10
521.24963632729327
 20
-897.6667514920166
 30
0.0
  0
VERTEX
  5
7D
100
AcDbEntity
  8
0
370
              15
390
0
  6
Continuous
 62
               7
100
AcDbVertex
100
AcDb2dVertex
 10
446.27164762020061
 20
-897.6667514920166
 30
0.0
  0
SEQEND
  5
7E
100
AcDbEntity
  8
0
370
              15
390
0
  6
Continuous
 62
               7
  0
LINE
  5
7F
100
AcDbEntity
  8
0
370
              15
390
0
  6
Continuous
 62
               7
100
AcDbLine
 10
446.27164762020061
 20
-860.50222262948398
 30
0.0
 11
521.24963632729327
 21
-860.50222262948398
 31
0.0
  0
ENDBLK
  5
80
100
AcDbEntity
  8
template
390
0
100
AcDbBlockEnd
  0
BLOCK
  5
81
100
AcDbEntity
  8
template
390
0
100
AcDbBlockBegin
  2
グループ-3
 70
               0
 10
0.0
 20
0.0
 30
0.0
  3
グループ-3
  1

  0
POLYLINE
  5
82
100
AcDbEntity
  8
0
370
              15
390
0
  6
Continuous
 62
               7
100
AcDb2dPolyline
 66
               1
 10
0.0
 20
0.0
 30
0.0
 70
               1
 75
               5
  0
VERTEX
  5
83
100
AcDbEntity
  8
0
370
              15
390
0
  6
Continuous
 62
               7
100
AcDbVertex
100
AcDb2dVertex
 10
446.27164762020061
 20
-847.83100876692447
 30
0.0
  0
VERTEX
  5
84
100
AcDbEntity
  8
0
370
              15
390
0
  6
Continuous
 62
               7
100
AcDbVertex
100
AcDb2dVertex
 10
521.24963632729327
 20
-847.83100876692447
 30
0.0
  0
VERTEX
  5
85
100
AcDbEntity
  8
0
370
              15
390
0
  6
Continuous
 62
               7
100
AcDbVertex
100
AcDb2dVertex
 10
521.24963632729327
 20
-897.6667514920166
 30
0.0
  0
VERTEX
  5
86
100
AcDbEntity
  8
0
370
              15
390
0
  6
Continuous
 62
               7
100
AcDbVertex
100
AcDb2dVertex
 10
446.27164762020061
 20
-897.6667514920166
 30
0.0
  0
SEQEND
  5
87
100
AcDbEntity
  8
0
370
              15
390
0
  6
Continuous
 62
               7
  0
LINE
  5
88
100
AcDbEntity
  8
0
370
              15
390
0
  6
Continuous
 62
               7
100
AcDbLine
 10
446.27164762020061
 20
-860.50222262948398
 30
0.0
 11
521.24963632729327
 21
-860.50222262948398
 31
0.0
  0
ENDBLK
  5
89
100
AcDbEntity
  8
template
390
0
100
AcDbBlockEnd
  0
BLOCK
  5
8A
100
AcDbEntity
  8
notes
390
0
100
AcDbBlockBegin
  2
*D7
 70
               1
 10
0.0
 20
0.0
 30
0.0
  3
*D7
  1

  0
LINE
  5
8B
100
AcDbEntity
  8
0
370
              -2
390
0
  6
Continuous
 62
               0
100
AcDbLine
 10
-779.47798870709266
 20
840.79372863873607
 30
0.0
 11
-859.47798870709244
 21
840.79372863873607
 31
0.0
  0
LINE
  5
8C
100
AcDbEntity
  8
0
370
              -2
390
0
  6
Continuous
 62
               0
100
AcDbLine
 10
-784.47798870709255
 20
740.79372863873573
 30
0.0
 11
-859.47798870709244
 21
740.79372863873573
 31
0.0
  0
LINE
  5
8D
100
AcDbEntity
  8
0
370
              -2
390
0
  6
Continuous
 62
               0
100
AcDbLine
 10
-859.47798870709244
 20
840.79372863873607
 30
0.0
 11
-859.47798870709244
 21
740.79372863873573
 31
0.0
  0
CIRCLE
  5
8E
102
{ACAD_REACTORS
330
8F
102
}
100
AcDbEntity
  8
0
370
              -2
390
0
  6
Continuous
 62
               0
100
AcDbCircle
 10
-859.47798870709244
 20
840.79372863873607
 30
0.0
 40
4.99969482421875
  0
HATCH
  5
8F
100
AcDbEntity
  8
0
370
              -2
390
0
  6
Continuous
 62
               0
100
AcDbHatch
 10
0.0
 20
0.0
 30
0.0
210
0.0
220
0.0
230
1.0
  2
SOLID
 70
               1
 71
               1
 91
        1
 92
        1
 93
        1
 72
               2
 10
-859.47798870709244
 20
840.79372863873607
 40
4.99969482421875
 50
0.0
 51
360.0
 73
               0
 97
        1
330
8E
 75
               0
 76
               1
 98
        1
 10
0.0
 20
0.0
  0
CIRCLE
  5
90
102
{ACAD_REACTORS
330
91
102
}
100
AcDbEntity
  8
0
370
              -2
390
0
  6
Continuous
 62
               0
100
AcDbCircle
 10
-859.47798870709244
 20
740.79372863873573
 30
0.0
 40
4.99969482421875
  0
HATCH
  5
91
100
AcDbEntity
  8
0
370
              -2
390
0
  6
Continuous
 62
               0
100
AcDbHatch
 10
0.0
 20
0.0
 30
0.0
210
0.0
220
0.0
230
1.0
  2
SOLID
 70
               1
 71
               1
 91
        1
 92
        1
 93
        1
 72
               2
 10
-859.47798870709244
 20
740.79372863873573
 40
4.99969482421875
 50
0.0
 51
360.0
 73
               0
 97
        1
330
90
 75
               0
 76
               1
 98
        1
 10
0.0
 20
0.0
  0
MTEXT
  5
92
100
AcDbEntity
  8
0
390
0
 62
               0
100
AcDbMText
 10
-893.35560589459237
 20
766.98122695656036
 30
0.0
 40
24.432617187500004
 41
0.0
 71
               1
 72
               1
  1
100
  7
ＭＳ ゴシック
 11
0.0
 21
1.0
 31
0.0
 73
               1
 44
0.7828267384257843
  0
POINT
  5
93
100
AcDbEntity
  8
Defpoints
370
               0
390
0
 62
               0
100
AcDbPoint
 10
-759.47798870709255
 20
740.79372863873573
 30
0.0
  0
POINT
  5
94
100
AcDbEntity
  8
Defpoints
370
               0
390
0
 62
               0
100
AcDbPoint
 10
-754.47798870709266
 20
840.79372863873607
 30
0.0
  0
POINT
  5
95
100
AcDbEntity
  8
Defpoints
370
               0
390
0
 62
               0
100
AcDbPoint
 10
-859.47798870709244
 20
840.79372863873607
 30
0.0
  0
ENDBLK
  5
96
100
AcDbEntity
  8
notes
390
0
100
AcDbBlockEnd
  0
BLOCK
  5
97
100
AcDbEntity
  8
notes
390
0
100
AcDbBlockBegin
  2
*D8
 70
               1
 10
0.0
 20
0.0
 30
0.0
  3
*D8
  1

  0
LINE
  5
98
100
AcDbEntity
  8
0
370
              -2
390
0
  6
Continuous
 62
               0
100
AcDbLine
 10
-784.47798870709255
 20
740.79372863873573
 30
0.0
 11
-859.47798870709244
 21
740.79372863873573
 31
0.0
  0
LINE
  5
99
100
AcDbEntity
  8
0
370
              -2
390
0
  6
Continuous
 62
               0
100
AcDbLine
 10
-784.47798870709255
 20
480.79372863873596
 30
0.0
 11
-859.47798870709244
 21
480.79372863873596
 31
0.0
  0
LINE
  5
9A
100
AcDbEntity
  8
0
370
              -2
390
0
  6
Continuous
 62
               0
100
AcDbLine
 10
-859.47798870709244
 20
740.79372863873573
 30
0.0
 11
-859.47798870709244
 21
480.79372863873596
 31
0.0
  0
CIRCLE
  5
9B
102
{ACAD_REACTORS
330
9C
102
}
100
AcDbEntity
  8
0
370
              -2
390
0
  6
Continuous
 62
               0
100
AcDbCircle
 10
-859.47798870709244
 20
740.79372863873573
 30
0.0
 40
4.99969482421875
  0
HATCH
  5
9C
100
AcDbEntity
  8
0
370
              -2
390
0
  6
Continuous
 62
               0
100
AcDbHatch
 10
0.0
 20
0.0
 30
0.0
210
0.0
220
0.0
230
1.0
  2
SOLID
 70
               1
 71
               1
 91
        1
 92
        1
 93
        1
 72
               2
 10
-859.47798870709244
 20
740.79372863873573
 40
4.99969482421875
 50
0.0
 51
360.0
 73
               0
 97
        1
330
9B
 75
               0
 76
               1
 98
        1
 10
0.0
 20
0.0
  0
CIRCLE
  5
9D
102
{ACAD_REACTORS
330
9E
102
}
100
AcDbEntity
  8
0
370
              -2
390
0
  6
Continuous
 62
               0
100
AcDbCircle
 10
-859.47798870709244
 20
480.79372863873596
 30
0.0
 40
4.99969482421875
  0
HATCH
  5
9E
100
AcDbEntity
  8
0
370
              -2
390
0
  6
Continuous
 62
               0
100
AcDbHatch
 10
0.0
 20
0.0
 30
0.0
210
0.0
220
0.0
230
1.0
  2
SOLID
 70
               1
 71
               1
 91
        1
 92
        1
 93
        1
 72
               2
 10
-859.47798870709244
 20
480.79372863873596
 40
4.99969482421875
 50
0.0
 51
360.0
 73
               0
 97
        1
330
9D
 75
               0
 76
               1
 98
        1
 10
0.0
 20
0.0
  0
MTEXT
  5
9F
100
AcDbEntity
  8
0
390
0
 62
               0
100
AcDbMText
 10
-893.35560589459237
 20
586.98122695656025
 30
0.0
 40
24.432617187500004
 41
0.0
 71
               1
 72
               1
  1
260
  7
ＭＳ ゴシック
 11
0.0
 21
1.0
 31
0.0
 73
               1
 44
0.7828267384257843
  0
POINT
  5
A0
100
AcDbEntity
  8
Defpoints
370
               0
390
0
 62
               0
100
AcDbPoint
 10
-759.47798870709255
 20
480.79372863873596
 30
0.0
  0
POINT
  5
A1
100
AcDbEntity
  8
Defpoints
370
               0
390
0
 62
               0
100
AcDbPoint
 10
-759.47798870709255
 20
740.79372863873573
 30
0.0
  0
POINT
  5
A2
100
AcDbEntity
  8
Defpoints
370
               0
390
0
 62
               0
100
AcDbPoint
 10
-859.47798870709244
 20
740.79372863873573
 30
0.0
  0
ENDBLK
  5
A3
100
AcDbEntity
  8
notes
390
0
100
AcDbBlockEnd
  0
BLOCK
  5
A4
100
AcDbEntity
  8
notes
390
0
100
AcDbBlockBegin
  2
*D9
 70
               1
 10
0.0
 20
0.0
 30
0.0
  3
*D9
  1

  0
LINE
  5
A5
100
AcDbEntity
  8
0
370
              -2
390
0
  6
Continuous
 62
               0
100
AcDbLine
 10
-761.97798870709266
 20
-404.02320312204529
 30
0.0
 11
-859.47798870709266
 21
-404.02320312204529
 31
0.0
  0
LINE
  5
A6
100
AcDbEntity
  8
0
370
              -2
390
0
  6
Continuous
 62
               0
100
AcDbLine
 10
-761.97798870709266
 20
-479.02320312204529
 30
0.0
 11
-859.47798870709266
 21
-479.02320312204529
 31
0.0
  0
LINE
  5
A7
100
AcDbEntity
  8
0
370
              -2
390
0
  6
Continuous
 62
               0
100
AcDbLine
 10
-859.47798870709266
 20
-404.02320312204529
 30
0.0
 11
-859.47798870709266
 21
-479.02320312204529
 31
0.0
  0
CIRCLE
  5
A8
102
{ACAD_REACTORS
330
A9
102
}
100
AcDbEntity
  8
0
370
              -2
390
0
  6
Continuous
 62
               0
100
AcDbCircle
 10
-859.47798870709266
 20
-404.02320312204529
 30
0.0
 40
4.99969482421875
  0
HATCH
  5
A9
100
AcDbEntity
  8
0
370
              -2
390
0
  6
Continuous
 62
               0
100
AcDbHatch
 10
0.0
 20
0.0
 30
0.0
210
0.0
220
0.0
230
1.0
  2
SOLID
 70
               1
 71
               1
 91
        1
 92
        1
 93
        1
 72
               2
 10
-859.47798870709266
 20
-404.02320312204529
 40
4.99969482421875
 50
0.0
 51
360.0
 73
               0
 97
        1
330
A8
 75
               0
 76
               1
 98
        1
 10
0.0
 20
0.0
  0
CIRCLE
  5
AA
102
{ACAD_REACTORS
330
AB
102
}
100
AcDbEntity
  8
0
370
              -2
390
0
  6
Continuous
 62
               0
100
AcDbCircle
 10
-859.47798870709266
 20
-479.02320312204529
 30
0.0
 40
4.99969482421875
  0
HATCH
  5
AB
100
AcDbEntity
  8
0
370
              -2
390
0
  6
Continuous
 62
               0
100
AcDbHatch
 10
0.0
 20
0.0
 30
0.0
210
0.0
220
0.0
230
1.0
  2
SOLID
 70
               1
 71
               1
 91
        1
 92
        1
 93
        1
 72
               2
 10
-859.47798870709266
 20
-479.02320312204529
 40
4.99969482421875
 50
0.0
 51
360.0
 73
               0
 97
        1
330
AA
 75
               0
 76
               1
 98
        1
 10
0.0
 20
0.0
  0
MTEXT
  5
AC
100
AcDbEntity
  8
0
390
0
 62
               0
100
AcDbMText
 10
-893.3556058945926
 20
-457.39820312204529
 30
0.0
 40
24.432617187500004
 41
0.0
 71
               1
 72
               1
  1
75
  7
ＭＳ ゴシック
 11
0.0
 21
1.0
 31
0.0
 73
               1
 44
0.7828267384257843
  0
POINT
  5
AD
100
AcDbEntity
  8
Defpoints
370
               0
390
0
 62
               0
100
AcDbPoint
 10
-736.97798870709266
 20
-479.02320312204529
 30
0.0
  0
POINT
  5
AE
100
AcDbEntity
  8
Defpoints
370
               0
390
0
 62
               0
100
AcDbPoint
 10
-736.97798870709266
 20
-404.02320312204529
 30
0.0
  0
POINT
  5
AF
100
AcDbEntity
  8
Defpoints
370
               0
390
0
 62
               0
100
AcDbPoint
 10
-859.47798870709266
 20
-404.02320312204529
 30
0.0
  0
ENDBLK
  5
B0
100
AcDbEntity
  8
notes
390
0
100
AcDbBlockEnd
  0
BLOCK
  5
B1
100
AcDbEntity
  8
notes
390
0
100
AcDbBlockBegin
  2
*D10
 70
               1
 10
0.0
 20
0.0
 30
0.0
  3
*D10
  1

  0
LINE
  5
B2
100
AcDbEntity
  8
0
370
              -2
390
0
  6
Continuous
 62
               0
100
AcDbLine
 10
60.522011292907308
 20
840.79372863873607
 30
0.0
 11
140.52201129290731
 21
840.79372863873607
 31
0.0
  0
LINE
  5
B3
100
AcDbEntity
  8
0
370
              -2
390
0
  6
Continuous
 62
               0
100
AcDbLine
 10
60.522011292907308
 20
435.7937286387359
 30
0.0
 11
140.52201129290731
 21
435.7937286387359
 31
0.0
  0
LINE
  5
B4
100
AcDbEntity
  8
0
370
              -2
390
0
  6
Continuous
 62
               0
100
AcDbLine
 10
140.52201129290731
 20
840.79372863873607
 30
0.0
 11
140.52201129290731
 21
435.7937286387359
 31
0.0
  0
CIRCLE
  5
B5
102
{ACAD_REACTORS
330
B6
102
}
100
AcDbEntity
  8
0
370
              -2
390
0
  6
Continuous
 62
               0
100
AcDbCircle
 10
140.52201129290731
 20
840.79372863873607
 30
0.0
 40
4.99969482421875
  0
HATCH
  5
B6
100
AcDbEntity
  8
0
370
              -2
390
0
  6
Continuous
 62
               0
100
AcDbHatch
 10
0.0
 20
0.0
 30
0.0
210
0.0
220
0.0
230
1.0
  2
SOLID
 70
               1
 71
               1
 91
        1
 92
        1
 93
        1
 72
               2
 10
140.52201129290731
 20
840.79372863873607
 40
4.99969482421875
 50
0.0
 51
360.0
 73
               0
 97
        1
330
B5
 75
               0
 76
               1
 98
        1
 10
0.0
 20
0.0
  0
CIRCLE
  5
B7
102
{ACAD_REACTORS
330
B8
102
}
100
AcDbEntity
  8
0
370
              -2
390
0
  6
Continuous
 62
               0
100
AcDbCircle
 10
140.52201129290731
 20
435.7937286387359
 30
0.0
 40
4.99969482421875
  0
HATCH
  5
B8
100
AcDbEntity
  8
0
370
              -2
390
0
  6
Continuous
 62
               0
100
AcDbHatch
 10
0.0
 20
0.0
 30
0.0
210
0.0
220
0.0
230
1.0
  2
SOLID
 70
               1
 71
               1
 91
        1
 92
        1
 93
        1
 72
               2
 10
140.52201129290731
 20
435.7937286387359
 40
4.99969482421875
 50
0.0
 51
360.0
 73
               0
 97
        1
330
B7
 75
               0
 76
               1
 98
        1
 10
0.0
 20
0.0
  0
MTEXT
  5
B9
100
AcDbEntity
  8
0
390
0
 62
               0
100
AcDbMText
 10
106.6443941054073
 20
614.48122695656048
 30
0.0
 40
24.432617187500004
 41
0.0
 71
               1
 72
               1
  1
405
  7
ＭＳ ゴシック
 11
0.0
 21
1.0
 31
0.0
 73
               1
 44
0.7828267384257843
  0
POINT
  5
BA
100
AcDbEntity
  8
Defpoints
370
               0
390
0
 62
               0
100
AcDbPoint
 10
35.522011292907308
 20
435.7937286387359
 30
0.0
  0
POINT
  5
BB
100
AcDbEntity
  8
Defpoints
370
               0
390
0
 62
               0
100
AcDbPoint
 10
35.522011292907308
 20
840.79372863873607
 30
0.0
  0
POINT
  5
BC
100
AcDbEntity
  8
Defpoints
370
               0
390
0
 62
               0
100
AcDbPoint
 10
140.52201129290731
 20
840.79372863873607
 30
0.0
  0
ENDBLK
  5
BD
100
AcDbEntity
  8
notes
390
0
100
AcDbBlockEnd
  0
BLOCK
  5
BE
100
AcDbEntity
  8
notes
390
0
100
AcDbBlockBegin
  2
*D11
 70
               1
 10
0.0
 20
0.0
 30
0.0
  3
*D11
  1

  0
LINE
  5
BF
100
AcDbEntity
  8
0
370
              -2
390
0
  6
Continuous
 62
               0
100
AcDbLine
 10
430.45018687007985
 20
-379.0498197312354
 30
0.0
 11
350.45018687007985
 21
-379.0498197312354
 31
0.0
  0
LINE
  5
C0
100
AcDbEntity
  8
0
370
              -2
390
0
  6
Continuous
 62
               0
100
AcDbLine
 10
430.45018687007985
 20
-504.0498197312354
 30
0.0
 11
350.45018687007985
 21
-504.0498197312354
 31
0.0
  0
LINE
  5
C1
100
AcDbEntity
  8
0
370
              -2
390
0
  6
Continuous
 62
               0
100
AcDbLine
 10
350.45018687007985
 20
-379.0498197312354
 30
0.0
 11
350.45018687007985
 21
-504.0498197312354
 31
0.0
  0
CIRCLE
  5
C2
102
{ACAD_REACTORS
330
C3
102
}
100
AcDbEntity
  8
0
370
              -2
390
0
  6
Continuous
 62
               0
100
AcDbCircle
 10
350.45018687007985
 20
-379.0498197312354
 30
0.0
 40
4.99969482421875
  0
HATCH
  5
C3
100
AcDbEntity
  8
0
370
              -2
390
0
  6
Continuous
 62
               0
100
AcDbHatch
 10
0.0
 20
0.0
 30
0.0
210
0.0
220
0.0
230
1.0
  2
SOLID
 70
               1
 71
               1
 91
        1
 92
        1
 93
        1
 72
               2
 10
350.45018687007985
 20
-379.0498197312354
 40
4.99969482421875
 50
0.0
 51
360.0
 73
               0
 97
        1
330
C2
 75
               0
 76
               1
 98
        1
 10
0.0
 20
0.0
  0
CIRCLE
  5
C4
102
{ACAD_REACTORS
330
C5
102
}
100
AcDbEntity
  8
0
370
              -2
390
0
  6
Continuous
 62
               0
100
AcDbCircle
 10
350.45018687007985
 20
-504.0498197312354
 30
0.0
 40
4.99969482421875
  0
HATCH
  5
C5
100
AcDbEntity
  8
0
370
              -2
390
0
  6
Continuous
 62
               0
100
AcDbHatch
 10
0.0
 20
0.0
 30
0.0
210
0.0
220
0.0
230
1.0
  2
SOLID
 70
               1
 71
               1
 91
        1
 92
        1
 93
        1
 72
               2
 10
350.45018687007985
 20
-504.0498197312354
 40
4.99969482421875
 50
0.0
 51
360.0
 73
               0
 97
        1
330
C4
 75
               0
 76
               1
 98
        1
 10
0.0
 20
0.0
  0
MTEXT
  5
C6
100
AcDbEntity
  8
0
390
0
 62
               0
100
AcDbMText
 10
316.5725696825798
 20
-465.36232141341088
 30
0.0
 40
24.432617187500004
 41
0.0
 71
               1
 72
               1
  1
125
  7
ＭＳ ゴシック
 11
0.0
 21
1.0
 31
0.0
 73
               1
 44
0.7828267384257843
  0
POINT
  5
C7
100
AcDbEntity
  8
Defpoints
370
               0
390
0
 62
               0
100
AcDbPoint
 10
455.45018687007985
 20
-504.0498197312354
 30
0.0
  0
POINT
  5
C8
100
AcDbEntity
  8
Defpoints
370
               0
390
0
 62
               0
100
AcDbPoint
 10
455.45018687007985
 20
-379.0498197312354
 30
0.0
  0
POINT
  5
C9
100
AcDbEntity
  8
Defpoints
370
               0
390
0
 62
               0
100
AcDbPoint
 10
350.45018687007985
 20
-379.0498197312354
 30
0.0
  0
ENDBLK
  5
CA
100
AcDbEntity
  8
notes
390
0
100
AcDbBlockEnd
  0
BLOCK
  5
CB
100
AcDbEntity
  8
notes
390
0
100
AcDbBlockBegin
  2
*D12
 70
               1
 10
0.0
 20
0.0
 30
0.0
  3
*D12
  1

  0
LINE
  5
CC
100
AcDbEntity
  8
0
370
              -2
390
0
  6
Continuous
 62
               0
100
AcDbLine
 10
60.522011292907308
 20
-379.0498197312354
 30
0.0
 11
190.52201129290731
 21
-379.0498197312354
 31
0.0
  0
LINE
  5
CD
100
AcDbEntity
  8
0
370
              -2
390
0
  6
Continuous
 62
               0
100
AcDbLine
 10
-309.49477076739254
 20
-562.0498197312354
 30
0.0
 11
190.52201129290731
 21
-562.0498197312354
 31
0.0
  0
LINE
  5
CE
100
AcDbEntity
  8
0
370
              -2
390
0
  6
Continuous
 62
               0
100
AcDbLine
 10
190.52201129290731
 20
-379.0498197312354
 30
0.0
 11
190.52201129290731
 21
-562.0498197312354
 31
0.0
  0
CIRCLE
  5
CF
102
{ACAD_REACTORS
330
D0
102
}
100
AcDbEntity
  8
0
370
              -2
390
0
  6
Continuous
 62
               0
100
AcDbCircle
 10
190.52201129290731
 20
-379.0498197312354
 30
0.0
 40
4.99969482421875
  0
HATCH
  5
D0
100
AcDbEntity
  8
0
370
              -2
390
0
  6
Continuous
 62
               0
100
AcDbHatch
 10
0.0
 20
0.0
 30
0.0
210
0.0
220
0.0
230
1.0
  2
SOLID
 70
               1
 71
               1
 91
        1
 92
        1
 93
        1
 72
               2
 10
190.52201129290731
 20
-379.0498197312354
 40
4.99969482421875
 50
0.0
 51
360.0
 73
               0
 97
        1
330
CF
 75
               0
 76
               1
 98
        1
 10
0.0
 20
0.0
  0
CIRCLE
  5
D1
102
{ACAD_REACTORS
330
D2
102
}
100
AcDbEntity
  8
0
370
              -2
390
0
  6
Continuous
 62
               0
100
AcDbCircle
 10
190.52201129290731
 20
-562.0498197312354
 30
0.0
 40
4.99969482421875
  0
HATCH
  5
D2
100
AcDbEntity
  8
0
370
              -2
390
0
  6
Continuous
 62
               0
100
AcDbHatch
 10
0.0
 20
0.0
 30
0.0
210
0.0
220
0.0
230
1.0
  2
SOLID
 70
               1
 71
               1
 91
        1
 92
        1
 93
        1
 72
               2
 10
190.52201129290731
 20
-562.0498197312354
 40
4.99969482421875
 50
0.0
 51
360.0
 73
               0
 97
        1
330
D1
 75
               0
 76
               1
 98
        1
 10
0.0
 20
0.0
  0
MTEXT
  5
D3
100
AcDbEntity
  8
0
390
0
 62
               0
100
AcDbMText
 10
156.64439410540729
 20
-494.36232141341088
 30
0.0
 40
24.432617187500004
 41
0.0
 71
               1
 72
               1
  1
183
  7
ＭＳ ゴシック
 11
0.0
 21
1.0
 31
0.0
 73
               1
 44
0.7828267384257843
  0
POINT
  5
D4
100
AcDbEntity
  8
Defpoints
370
               0
390
0
 62
               0
100
AcDbPoint
 10
-334.49477076739254
 20
-562.0498197312354
 30
0.0
  0
POINT
  5
D5
100
AcDbEntity
  8
Defpoints
370
               0
390
0
 62
               0
100
AcDbPoint
 10
35.522011292907308
 20
-379.0498197312354
 30
0.0
  0
POINT
  5
D6
100
AcDbEntity
  8
Defpoints
370
               0
390
0
 62
               0
100
AcDbPoint
 10
190.52201129290731
 20
-379.0498197312354
 30
0.0
  0
ENDBLK
  5
D7
100
AcDbEntity
  8
notes
390
0
100
AcDbBlockEnd
  0
BLOCK
  5
D8
100
AcDbEntity
  8
notes
390
0
100
AcDbBlockBegin
  2
*D13
 70
               1
 10
0.0
 20
0.0
 30
0.0
  3
*D13
  1

  0
LINE
  5
D9
100
AcDbEntity
  8
0
370
              -2
390
0
  6
Continuous
 62
               0
100
AcDbLine
 10
40.522011292907308
 20
415.7937286387359
 30
0.0
 11
40.522011292907308
 21
335.79372863873596
 31
0.0
  0
LINE
  5
DA
100
AcDbEntity
  8
0
370
              -2
390
0
  6
Continuous
 62
               0
100
AcDbLine
 10
-109.50000000000003
 20
410.7937286387359
 30
0.0
 11
-109.50000000000003
 21
335.79372863873596
 31
0.0
  0
LINE
  5
DB
100
AcDbEntity
  8
0
370
              -2
390
0
  6
Continuous
 62
               0
100
AcDbLine
 10
40.522011292907308
 20
335.79372863873596
 30
0.0
 11
-109.50000000000003
 21
335.79372863873596
 31
0.0
  0
CIRCLE
  5
DC
102
{ACAD_REACTORS
330
DD
102
}
100
AcDbEntity
  8
0
370
              -2
390
0
  6
Continuous
 62
               0
100
AcDbCircle
 10
40.522011292907308
 20
335.79372863873596
 30
0.0
 40
4.99969482421875
  0
HATCH
  5
DD
100
AcDbEntity
  8
0
370
              -2
390
0
  6
Continuous
 62
               0
100
AcDbHatch
 10
0.0
 20
0.0
 30
0.0
210
0.0
220
0.0
230
1.0
  2
SOLID
 70
               1
 71
               1
 91
        1
 92
        1
 93
        1
 72
               2
 10
40.522011292907308
 20
335.79372863873596
 40
4.99969482421875
 50
0.0
 51
360.0
 73
               0
 97
        1
330
DC
 75
               0
 76
               1
 98
        1
 10
0.0
 20
0.0
  0
CIRCLE
  5
DE
102
{ACAD_REACTORS
330
DF
102
}
100
AcDbEntity
  8
0
370
              -2
390
0
  6
Continuous
 62
               0
100
AcDbCircle
 10
-109.50000000000003
 20
335.79372863873596
 30
0.0
 40
4.99969482421875
  0
HATCH
  5
DF
100
AcDbEntity
  8
0
370
              -2
390
0
  6
Continuous
 62
               0
100
AcDbHatch
 10
0.0
 20
0.0
 30
0.0
210
0.0
220
0.0
230
1.0
  2
SOLID
 70
               1
 71
               1
 91
        1
 92
        1
 93
        1
 72
               2
 10
-109.50000000000003
 20
335.79372863873596
 40
4.99969482421875
 50
0.0
 51
360.0
 73
               0
 97
        1
330
DE
 75
               0
 76
               1
 98
        1
 10
0.0
 20
0.0
  0
MTEXT
  5
E0
100
AcDbEntity
  8
0
390
0
 62
               0
100
AcDbMText
 10
-58.301496035721897
 20
369.67134582623595
 30
0.0
 40
24.432617187500004
 41
0.0
 71
               1
 72
               1
  1
150
  7
ＭＳ ゴシック
 73
               1
 44
0.7828267384257843
  0
POINT
  5
E1
100
AcDbEntity
  8
Defpoints
370
               0
390
0
 62
               0
100
AcDbPoint
 10
-109.50000000000003
 20
435.7937286387359
 30
0.0
  0
POINT
  5
E2
100
AcDbEntity
  8
Defpoints
370
               0
390
0
 62
               0
100
AcDbPoint
 10
40.522011292907308
 20
440.7937286387359
 30
0.0
  0
POINT
  5
E3
100
AcDbEntity
  8
Defpoints
370
               0
390
0
 62
               0
100
AcDbPoint
 10
40.522011292907308
 20
335.79372863873596
 30
0.0
  0
ENDBLK
  5
E4
100
AcDbEntity
  8
notes
390
0
100
AcDbBlockEnd
  0
BLOCK
  5
E5
100
AcDbEntity
  8
notes
390
0
100
AcDbBlockBegin
  2
*D14
 70
               1
 10
0.0
 20
0.0
 30
0.0
  3
*D14
  1

  0
LINE
  5
E6
100
AcDbEntity
  8
0
370
              -2
390
0
  6
Continuous
 62
               0
100
AcDbLine
 10
-109.50000000000003
 20
410.7937286387359
 30
0.0
 11
-109.50000000000003
 21
335.79372863873596
 31
0.0
  0
LINE
  5
E7
100
AcDbEntity
  8
0
370
              -2
390
0
  6
Continuous
 62
               0
100
AcDbLine
 10
-609.5
 20
410.7937286387359
 30
0.0
 11
-609.5
 21
335.79372863873596
 31
0.0
  0
LINE
  5
E8
100
AcDbEntity
  8
0
370
              -2
390
0
  6
Continuous
 62
               0
100
AcDbLine
 10
-109.50000000000003
 20
335.79372863873596
 30
0.0
 11
-609.5
 21
335.79372863873596
 31
0.0
  0
CIRCLE
  5
E9
102
{ACAD_REACTORS
330
EA
102
}
100
AcDbEntity
  8
0
370
              -2
390
0
  6
Continuous
 62
               0
100
AcDbCircle
 10
-109.50000000000003
 20
335.79372863873596
 30
0.0
 40
4.99969482421875
  0
HATCH
  5
EA
100
AcDbEntity
  8
0
370
              -2
390
0
  6
Continuous
 62
               0
100
AcDbHatch
 10
0.0
 20
0.0
 30
0.0
210
0.0
220
0.0
230
1.0
  2
SOLID
 70
               1
 71
               1
 91
        1
 92
        1
 93
        1
 72
               2
 10
-109.50000000000003
 20
335.79372863873596
 40
4.99969482421875
 50
0.0
 51
360.0
 73
               0
 97
        1
330
E9
 75
               0
 76
               1
 98
        1
 10
0.0
 20
0.0
  0
CIRCLE
  5
EB
102
{ACAD_REACTORS
330
EC
102
}
100
AcDbEntity
  8
0
370
              -2
390
0
  6
Continuous
 62
               0
100
AcDbCircle
 10
-609.5
 20
335.79372863873596
 30
0.0
 40
4.99969482421875
  0
HATCH
  5
EC
100
AcDbEntity
  8
0
370
              -2
390
0
  6
Continuous
 62
               0
100
AcDbHatch
 10
0.0
 20
0.0
 30
0.0
210
0.0
220
0.0
230
1.0
  2
SOLID
 70
               1
 71
               1
 91
        1
 92
        1
 93
        1
 72
               2
 10
-609.5
 20
335.79372863873596
 40
4.99969482421875
 50
0.0
 51
360.0
 73
               0
 97
        1
330
EB
 75
               0
 76
               1
 98
        1
 10
0.0
 20
0.0
  0
MTEXT
  5
ED
100
AcDbEntity
  8
0
390
0
 62
               0
100
AcDbMText
 10
-383.31250168217548
 20
369.67134582623595
 30
0.0
 40
24.432617187500004
 41
0.0
 71
               1
 72
               1
  1
500
  7
ＭＳ ゴシック
 73
               1
 44
0.7828267384257843
  0
POINT
  5
EE
100
AcDbEntity
  8
Defpoints
370
               0
390
0
 62
               0
100
AcDbPoint
 10
-609.5
 20
435.7937286387359
 30
0.0
  0
POINT
  5
EF
100
AcDbEntity
  8
Defpoints
370
               0
390
0
 62
               0
100
AcDbPoint
 10
-109.50000000000003
 20
435.7937286387359
 30
0.0
  0
POINT
  5
F0
100
AcDbEntity
  8
Defpoints
370
               0
390
0
 62
               0
100
AcDbPoint
 10
-109.50000000000003
 20
335.79372863873596
 30
0.0
  0
ENDBLK
  5
F1
100
AcDbEntity
  8
notes
390
0
100
AcDbBlockEnd
  0
BLOCK
  5
F2
100
AcDbEntity
  8
notes
390
0
100
AcDbBlockBegin
  2
*D15
 70
               1
 10
0.0
 20
0.0
 30
0.0
  3
*D15
  1

  0
LINE
  5
F3
100
AcDbEntity
  8
0
370
              -2
390
0
  6
Continuous
 62
               0
100
AcDbLine
 10
855.45018687007973
 20
-357.5498197312354
 30
0.0
 11
855.45018687007973
 21
-279.0498197312354
 31
0.0
  0
LINE
  5
F4
100
AcDbEntity
  8
0
370
              -2
390
0
  6
Continuous
 62
               0
100
AcDbLine
 10
805.45018687007973
 20
-354.0498197312354
 30
0.0
 11
805.45018687007973
 21
-279.0498197312354
 31
0.0
  0
LINE
  5
F5
100
AcDbEntity
  8
0
370
              -2
390
0
  6
Continuous
 62
               0
100
AcDbLine
 10
855.45018687007973
 20
-279.0498197312354
 30
0.0
 11
805.45018687007973
 21
-279.0498197312354
 31
0.0
  0
CIRCLE
  5
F6
102
{ACAD_REACTORS
330
F7
102
}
100
AcDbEntity
  8
0
370
              -2
390
0
  6
Continuous
 62
               0
100
AcDbCircle
 10
855.45018687007973
 20
-279.0498197312354
 30
0.0
 40
4.99969482421875
  0
HATCH
  5
F7
100
AcDbEntity
  8
0
370
              -2
390
0
  6
Continuous
 62
               0
100
AcDbHatch
 10
0.0
 20
0.0
 30
0.0
210
0.0
220
0.0
230
1.0
  2
SOLID
 70
               1
 71
               1
 91
        1
 92
        1
 93
        1
 72
               2
 10
855.45018687007973
 20
-279.0498197312354
 40
4.99969482421875
 50
0.0
 51
360.0
 73
               0
 97
        1
330
F6
 75
               0
 76
               1
 98
        1
 10
0.0
 20
0.0
  0
CIRCLE
  5
F8
102
{ACAD_REACTORS
330
F9
102
}
100
AcDbEntity
  8
0
370
              -2
390
0
  6
Continuous
 62
               0
100
AcDbCircle
 10
805.45018687007973
 20
-279.0498197312354
 30
0.0
 40
4.99969482421875
  0
HATCH
  5
F9
100
AcDbEntity
  8
0
370
              -2
390
0
  6
Continuous
 62
               0
100
AcDbHatch
 10
0.0
 20
0.0
 30
0.0
210
0.0
220
0.0
230
1.0
  2
SOLID
 70
               1
 71
               1
 91
        1
 92
        1
 93
        1
 72
               2
 10
805.45018687007973
 20
-279.0498197312354
 40
4.99969482421875
 50
0.0
 51
360.0
 73
               0
 97
        1
330
F8
 75
               0
 76
               1
 98
        1
 10
0.0
 20
0.0
  0
MTEXT
  5
FA
100
AcDbEntity
  8
0
390
0
 62
               0
100
AcDbMText
 10
814.57518687007973
 20
-245.17220254373535
 30
0.0
 40
24.432617187500004
 41
0.0
 71
               1
 72
               1
  1
50
  7
ＭＳ ゴシック
 73
               1
 44
0.7828267384257843
  0
POINT
  5
FB
100
AcDbEntity
  8
Defpoints
370
               0
390
0
 62
               0
100
AcDbPoint
 10
805.45018687007973
 20
-379.0498197312354
 30
0.0
  0
POINT
  5
FC
100
AcDbEntity
  8
Defpoints
370
               0
390
0
 62
               0
100
AcDbPoint
 10
855.45018687007973
 20
-382.5498197312354
 30
0.0
  0
POINT
  5
FD
100
AcDbEntity
  8
Defpoints
370
               0
390
0
 62
               0
100
AcDbPoint
 10
855.45018687007973
 20
-279.0498197312354
 30
0.0
  0
ENDBLK
  5
FE
100
AcDbEntity
  8
notes
390
0
100
AcDbBlockEnd
  0
BLOCK
  5
FF
100
AcDbEntity
  8
notes
390
0
100
AcDbBlockBegin
  2
*D16
 70
               1
 10
0.0
 20
0.0
 30
0.0
  3
*D16
  1

  0
LINE
  5
100
100
AcDbEntity
  8
0
370
              -2
390
0
  6
Continuous
 62
               0
100
AcDbLine
 10
-1.9779887070926918
 20
-359.02320312204529
 30
0.0
 11
-1.9779887070926918
 21
-240.82762813713293
 31
0.0
  0
LINE
  5
101
100
AcDbEntity
  8
0
370
              -2
390
0
  6
Continuous
 62
               0
100
AcDbLine
 10
40.522011292907308
 20
-359.02320312204529
 30
0.0
 11
40.522011292907308
 21
-240.82762813713293
 31
0.0
  0
LINE
  5
102
100
AcDbEntity
  8
0
370
              -2
390
0
  6
Continuous
 62
               0
100
AcDbLine
 10
-1.9779887070926918
 20
-240.82762813713293
 30
0.0
 11
40.522011292907308
 21
-240.82762813713293
 31
0.0
  0
CIRCLE
  5
103
102
{ACAD_REACTORS
330
104
102
}
100
AcDbEntity
  8
0
370
              -2
390
0
  6
Continuous
 62
               0
100
AcDbCircle
 10
-1.9779887070926918
 20
-240.82762813713293
 30
0.0
 40
4.99969482421875
  0
HATCH
  5
104
100
AcDbEntity
  8
0
370
              -2
390
0
  6
Continuous
 62
               0
100
AcDbHatch
 10
0.0
 20
0.0
 30
0.0
210
0.0
220
0.0
230
1.0
  2
SOLID
 70
               1
 71
               1
 91
        1
 92
        1
 93
        1
 72
               2
 10
-1.9779887070926918
 20
-240.82762813713293
 40
4.99969482421875
 50
0.0
 51
360.0
 73
               0
 97
        1
330
103
 75
               0
 76
               1
 98
        1
 10
0.0
 20
0.0
  0
CIRCLE
  5
105
102
{ACAD_REACTORS
330
106
102
}
100
AcDbEntity
  8
0
370
              -2
390
0
  6
Continuous
 62
               0
100
AcDbCircle
 10
40.522011292907308
 20
-240.82762813713293
 30
0.0
 40
4.99969482421875
  0
HATCH
  5
106
100
AcDbEntity
  8
0
370
              -2
390
0
  6
Continuous
 62
               0
100
AcDbHatch
 10
0.0
 20
0.0
 30
0.0
210
0.0
220
0.0
230
1.0
  2
SOLID
 70
               1
 71
               1
 91
        1
 92
        1
 93
        1
 72
               2
 10
40.522011292907308
 20
-240.82762813713293
 40
4.99969482421875
 50
0.0
 51
360.0
 73
               0
 97
        1
330
105
 75
               0
 76
               1
 98
        1
 10
0.0
 20
0.0
  0
MTEXT
  5
107
100
AcDbEntity
  8
0
390
0
 62
               0
100
AcDbMText
 10
-12.477988707092692
 20
-206.95001094963288
 30
0.0
 40
24.432617187500004
 41
0.0
 71
               1
 72
               1
  1
42.5
  7
ＭＳ ゴシック
 73
               1
 44
0.7828267384257843
  0
POINT
  5
108
100
AcDbEntity
  8
Defpoints
370
               0
390
0
 62
               0
100
AcDbPoint
 10
40.522011292907308
 20
-384.02320312204529
 30
0.0
  0
POINT
  5
109
100
AcDbEntity
  8
Defpoints
370
               0
390
0
 62
               0
100
AcDbPoint
 10
-1.9779887070926918
 20
-384.02320312204529
 30
0.0
  0
POINT
  5
10A
100
AcDbEntity
  8
Defpoints
370
               0
390
0
 62
               0
100
AcDbPoint
 10
-1.9779887070926918
 20
-240.82762813713293
 30
0.0
  0
ENDBLK
  5
10B
100
AcDbEntity
  8
notes
390
0
100
AcDbBlockEnd
  0
BLOCK
  5
10C
100
AcDbEntity
  8
notes
390
0
100
AcDbBlockBegin
  2
*D17
 70
               1
 10
0.0
 20
0.0
 30
0.0
  3
*D17
  1

  0
LINE
  5
10D
100
AcDbEntity
  8
0
370
              -2
390
0
  6
Continuous
 62
               0
100
AcDbLine
 10
-1.9779887070926918
 20
-359.02320312204529
 30
0.0
 11
-1.9779887070926918
 21
-240.82762813713293
 31
0.0
  0
LINE
  5
10E
100
AcDbEntity
  8
0
370
              -2
390
0
  6
Continuous
 62
               0
100
AcDbLine
 10
-716.97798870709266
 20
-359.02320312204529
 30
0.0
 11
-716.97798870709266
 21
-240.82762813713293
 31
0.0
  0
LINE
  5
10F
100
AcDbEntity
  8
0
370
              -2
390
0
  6
Continuous
 62
               0
100
AcDbLine
 10
-1.9779887070926918
 20
-240.82762813713293
 30
0.0
 11
-716.97798870709266
 21
-240.82762813713293
 31
0.0
  0
CIRCLE
  5
110
102
{ACAD_REACTORS
330
111
102
}
100
AcDbEntity
  8
0
370
              -2
390
0
  6
Continuous
 62
               0
100
AcDbCircle
 10
-1.9779887070926918
 20
-240.82762813713293
 30
0.0
 40
4.99969482421875
  0
HATCH
  5
111
100
AcDbEntity
  8
0
370
              -2
390
0
  6
Continuous
 62
               0
100
AcDbHatch
 10
0.0
 20
0.0
 30
0.0
210
0.0
220
0.0
230
1.0
  2
SOLID
 70
               1
 71
               1
 91
        1
 92
        1
 93
        1
 72
               2
 10
-1.9779887070926918
 20
-240.82762813713293
 40
4.99969482421875
 50
0.0
 51
360.0
 73
               0
 97
        1
330
110
 75
               0
 76
               1
 98
        1
 10
0.0
 20
0.0
  0
CIRCLE
  5
112
102
{ACAD_REACTORS
330
113
102
}
100
AcDbEntity
  8
0
370
              -2
390
0
  6
Continuous
 62
               0
100
AcDbCircle
 10
-716.97798870709266
 20
-240.82762813713293
 30
0.0
 40
4.99969482421875
  0
HATCH
  5
113
100
AcDbEntity
  8
0
370
              -2
390
0
  6
Continuous
 62
               0
100
AcDbHatch
 10
0.0
 20
0.0
 30
0.0
210
0.0
220
0.0
230
1.0
  2
SOLID
 70
               1
 71
               1
 91
        1
 92
        1
 93
        1
 72
               2
 10
-716.97798870709266
 20
-240.82762813713293
 40
4.99969482421875
 50
0.0
 51
360.0
 73
               0
 97
        1
330
112
 75
               0
 76
               1
 98
        1
 10
0.0
 20
0.0
  0
MTEXT
  5
114
100
AcDbEntity
  8
0
390
0
 62
               0
100
AcDbMText
 10
-383.29049038926814
 20
-206.95001094963288
 30
0.0
 40
24.432617187500004
 41
0.0
 71
               1
 72
               1
  1
715
  7
ＭＳ ゴシック
 73
               1
 44
0.7828267384257843
  0
POINT
  5
115
100
AcDbEntity
  8
Defpoints
370
               0
390
0
 62
               0
100
AcDbPoint
 10
-716.97798870709266
 20
-384.02320312204529
 30
0.0
  0
POINT
  5
116
100
AcDbEntity
  8
Defpoints
370
               0
390
0
 62
               0
100
AcDbPoint
 10
-1.9779887070926918
 20
-384.02320312204529
 30
0.0
  0
POINT
  5
117
100
AcDbEntity
  8
Defpoints
370
               0
390
0
 62
               0
100
AcDbPoint
 10
-1.9779887070926918
 20
-240.82762813713293
 30
0.0
  0
ENDBLK
  5
118
100
AcDbEntity
  8
notes
390
0
100
AcDbBlockEnd
  0
BLOCK
  5
119
100
AcDbEntity
  8
notes
390
0
100
AcDbBlockBegin
  2
*D18
 70
               1
 10
0.0
 20
0.0
 30
0.0
  3
*D18
  1

  0
LINE
  5
11A
100
AcDbEntity
  8
0
370
              -2
390
0
  6
Continuous
 62
               0
100
AcDbLine
 10
-219.47798870709258
 20
-396.5498197312354
 30
0.0
 11
-219.47798870709258
 21
-279.0498197312354
 31
0.0
  0
LINE
  5
11B
100
AcDbEntity
  8
0
370
              -2
390
0
  6
Continuous
 62
               0
100
AcDbLine
 10
-499.47798870709255
 20
-396.5498197312354
 30
0.0
 11
-499.47798870709255
 21
-279.0498197312354
 31
0.0
  0
LINE
  5
11C
100
AcDbEntity
  8
0
370
              -2
390
0
  6
Continuous
 62
               0
100
AcDbLine
 10
-219.47798870709258
 20
-279.0498197312354
 30
0.0
 11
-499.47798870709255
 21
-279.0498197312354
 31
0.0
  0
CIRCLE
  5
11D
102
{ACAD_REACTORS
330
11E
102
}
100
AcDbEntity
  8
0
370
              -2
390
0
  6
Continuous
 62
               0
100
AcDbCircle
 10
-219.47798870709258
 20
-279.0498197312354
 30
0.0
 40
4.99969482421875
  0
HATCH
  5
11E
100
AcDbEntity
  8
0
370
              -2
390
0
  6
Continuous
 62
               0
100
AcDbHatch
 10
0.0
 20
0.0
 30
0.0
210
0.0
220
0.0
230
1.0
  2
SOLID
 70
               1
 71
               1
 91
        1
 92
        1
 93
        1
 72
               2
 10
-219.47798870709258
 20
-279.0498197312354
 40
4.99969482421875
 50
0.0
 51
360.0
 73
               0
 97
        1
330
11D
 75
               0
 76
               1
 98
        1
 10
0.0
 20
0.0
  0
CIRCLE
  5
11F
102
{ACAD_REACTORS
330
120
102
}
100
AcDbEntity
  8
0
370
              -2
390
0
  6
Continuous
 62
               0
100
AcDbCircle
 10
-499.47798870709255
 20
-279.0498197312354
 30
0.0
 40
4.99969482421875
  0
HATCH
  5
120
100
AcDbEntity
  8
0
370
              -2
390
0
  6
Continuous
 62
               0
100
AcDbHatch
 10
0.0
 20
0.0
 30
0.0
210
0.0
220
0.0
230
1.0
  2
SOLID
 70
               1
 71
               1
 91
        1
 92
        1
 93
        1
 72
               2
 10
-499.47798870709255
 20
-279.0498197312354
 40
4.99969482421875
 50
0.0
 51
360.0
 73
               0
 97
        1
330
11F
 75
               0
 76
               1
 98
        1
 10
0.0
 20
0.0
  0
MTEXT
  5
121
100
AcDbEntity
  8
0
390
0
 62
               0
100
AcDbMText
 10
-383.29049038926803
 20
-245.17220254373535
 30
0.0
 40
24.432617187500004
 41
0.0
 71
               1
 72
               1
  1
280
  7
ＭＳ ゴシック
 73
               1
 44
0.7828267384257843
  0
POINT
  5
122
100
AcDbEntity
  8
Defpoints
370
               0
390
0
 62
               0
100
AcDbPoint
 10
-499.47798870709255
 20
-421.5498197312354
 30
0.0
  0
POINT
  5
123
100
AcDbEntity
  8
Defpoints
370
               0
390
0
 62
               0
100
AcDbPoint
 10
-219.47798870709258
 20
-421.5498197312354
 30
0.0
  0
POINT
  5
124
100
AcDbEntity
  8
Defpoints
370
               0
390
0
 62
               0
100
AcDbPoint
 10
-219.47798870709258
 20
-279.0498197312354
 30
0.0
  0
ENDBLK
  5
125
100
AcDbEntity
  8
notes
390
0
100
AcDbBlockEnd
  0
BLOCK
  5
126
100
AcDbEntity
  8
notes
390
0
100
AcDbBlockBegin
  2
*D19
 70
               1
 10
0.0
 20
0.0
 30
0.0
  3
*D19
  1

  0
LINE
  5
127
100
AcDbEntity
  8
0
370
              -2
390
0
  6
Continuous
 62
               0
100
AcDbLine
 10
-174.47798870709258
 20
-441.5498197312354
 30
0.0
 11
-146.00000000000003
 21
-441.5498197312354
 31
0.0
  0
LINE
  5
128
100
AcDbEntity
  8
0
370
              -2
390
0
  6
Continuous
 62
               0
100
AcDbLine
 10
-174.47798870709258
 20
-379.0498197312354
 30
0.0
 11
-146.00000000000003
 21
-379.0498197312354
 31
0.0
  0
LINE
  5
129
100
AcDbEntity
  8
0
370
              -2
390
0
  6
Continuous
 62
               0
100
AcDbLine
 10
-146.00000000000003
 20
-379.0498197312354
 30
0.0
 11
-146.00000000000003
 21
-306.20783589478287
 31
0.0
  0
LINE
  5
12A
100
AcDbEntity
  8
0
370
              -2
390
0
  6
Continuous
 62
               0
100
AcDbLine
 10
-146.00000000000003
 20
-441.5498197312354
 30
0.0
 11
-146.00000000000003
 21
-379.0498197312354
 31
0.0
  0
CIRCLE
  5
12B
102
{ACAD_REACTORS
330
12C
102
}
100
AcDbEntity
  8
0
370
              -2
390
0
  6
Continuous
 62
               0
100
AcDbCircle
 10
-146.00000000000003
 20
-441.5498197312354
 30
0.0
 40
4.99969482421875
  0
HATCH
  5
12C
100
AcDbEntity
  8
0
370
              -2
390
0
  6
Continuous
 62
               0
100
AcDbHatch
 10
0.0
 20
0.0
 30
0.0
210
0.0
220
0.0
230
1.0
  2
SOLID
 70
               1
 71
               1
 91
        1
 92
        1
 93
        1
 72
               2
 10
-146.00000000000003
 20
-441.5498197312354
 40
4.99969482421875
 50
0.0
 51
360.0
 73
               0
 97
        1
330
12B
 75
               0
 76
               1
 98
        1
 10
0.0
 20
0.0
  0
CIRCLE
  5
12D
102
{ACAD_REACTORS
330
12E
102
}
100
AcDbEntity
  8
0
370
              -2
390
0
  6
Continuous
 62
               0
100
AcDbCircle
 10
-146.00000000000003
 20
-379.0498197312354
 30
0.0
 40
4.99969482421875
  0
HATCH
  5
12E
100
AcDbEntity
  8
0
370
              -2
390
0
  6
Continuous
 62
               0
100
AcDbHatch
 10
0.0
 20
0.0
 30
0.0
210
0.0
220
0.0
230
1.0
  2
SOLID
 70
               1
 71
               1
 91
        1
 92
        1
 93
        1
 72
               2
 10
-146.00000000000003
 20
-379.0498197312354
 40
4.99969482421875
 50
0.0
 51
360.0
 73
               0
 97
        1
330
12D
 75
               0
 76
               1
 98
        1
 10
0.0
 20
0.0
  0
MTEXT
  5
12F
100
AcDbEntity
  8
0
390
0
 62
               0
100
AcDbMText
 10
-179.87761718750002
 20
-369.70783589478287
 30
0.0
 40
24.432617187500004
 41
0.0
 71
               1
 72
               1
  1
62.5
  7
ＭＳ ゴシック
 11
0.0
 21
1.0
 31
0.0
 73
               1
 44
0.7828267384257843
  0
POINT
  5
130
100
AcDbEntity
  8
Defpoints
370
               0
390
0
 62
               0
100
AcDbPoint
 10
-199.47798870709258
 20
-379.0498197312354
 30
0.0
  0
POINT
  5
131
100
AcDbEntity
  8
Defpoints
370
               0
390
0
 62
               0
100
AcDbPoint
 10
-199.47798870709258
 20
-441.5498197312354
 30
0.0
  0
POINT
  5
132
100
AcDbEntity
  8
Defpoints
370
               0
390
0
 62
               0
100
AcDbPoint
 10
-146.00000000000003
 20
-441.5498197312354
 30
0.0
  0
ENDBLK
  5
133
100
AcDbEntity
  8
notes
390
0
100
AcDbBlockEnd
  0
BLOCK
  5
134
100
AcDbEntity
  8
notes
390
0
100
AcDbBlockBegin
  2
*D20
 70
               1
 10
0.0
 20
0.0
 30
0.0
  3
*D20
  1

  0
LINE
  5
135
100
AcDbEntity
  8
0
370
              -2
390
0
  6
Continuous
 62
               0
100
AcDbLine
 10
40.522011292907308
 20
865.79372863873607
 30
0.0
 11
40.522011292907308
 21
990.79372863873584
 31
0.0
  0
LINE
  5
136
100
AcDbEntity
  8
0
370
              -2
390
0
  6
Continuous
 62
               0
100
AcDbLine
 10
-759.47798870709255
 20
865.79372863873607
 30
0.0
 11
-759.47798870709255
 21
990.79372863873584
 31
0.0
  0
LINE
  5
137
100
AcDbEntity
  8
0
370
              -2
390
0
  6
Continuous
 62
               0
100
AcDbLine
 10
40.522011292907308
 20
990.79372863873584
 30
0.0
 11
-759.47798870709255
 21
990.79372863873584
 31
0.0
  0
CIRCLE
  5
138
102
{ACAD_REACTORS
330
139
102
}
100
AcDbEntity
  8
0
370
              -2
390
0
  6
Continuous
 62
               0
100
AcDbCircle
 10
40.522011292907308
 20
990.79372863873584
 30
0.0
 40
4.99969482421875
  0
HATCH
  5
139
100
AcDbEntity
  8
0
370
              -2
390
0
  6
Continuous
 62
               0
100
AcDbHatch
 10
0.0
 20
0.0
 30
0.0
210
0.0
220
0.0
230
1.0
  2
SOLID
 70
               1
 71
               1
 91
        1
 92
        1
 93
        1
 72
               2
 10
40.522011292907308
 20
990.79372863873584
 40
4.99969482421875
 50
0.0
 51
360.0
 73
               0
 97
        1
330
138
 75
               0
 76
               1
 98
        1
 10
0.0
 20
0.0
  0
CIRCLE
  5
13A
102
{ACAD_REACTORS
330
13B
102
}
100
AcDbEntity
  8
0
370
              -2
390
0
  6
Continuous
 62
               0
100
AcDbCircle
 10
-759.47798870709255
 20
990.79372863873584
 30
0.0
 40
4.99969482421875
  0
HATCH
  5
13B
100
AcDbEntity
  8
0
370
              -2
390
0
  6
Continuous
 62
               0
100
AcDbHatch
 10
0.0
 20
0.0
 30
0.0
210
0.0
220
0.0
230
1.0
  2
SOLID
 70
               1
 71
               1
 91
        1
 92
        1
 93
        1
 72
               2
 10
-759.47798870709255
 20
990.79372863873584
 40
4.99969482421875
 50
0.0
 51
360.0
 73
               0
 97
        1
330
13A
 75
               0
 76
               1
 98
        1
 10
0.0
 20
0.0
  0
MTEXT
  5
13C
100
AcDbEntity
  8
0
390
0
 62
               0
100
AcDbMText
 10
-383.29049038926792
 20
1024.6713458262359
 30
0.0
 40
24.432617187500004
 41
0.0
 71
               1
 72
               1
  1
800
  7
ＭＳ ゴシック
 73
               1
 44
0.7828267384257843
  0
POINT
  5
13D
100
AcDbEntity
  8
Defpoints
370
               0
390
0
 62
               0
100
AcDbPoint
 10
-759.47798870709255
 20
840.79372863873607
 30
0.0
  0
POINT
  5
13E
100
AcDbEntity
  8
Defpoints
370
               0
390
0
 62
               0
100
AcDbPoint
 10
40.522011292907308
 20
840.79372863873607
 30
0.0
  0
POINT
  5
13F
100
AcDbEntity
  8
Defpoints
370
               0
390
0
 62
               0
100
AcDbPoint
 10
40.522011292907308
 20
990.79372863873584
 30
0.0
  0
ENDBLK
  5
140
100
AcDbEntity
  8
notes
390
0
100
AcDbBlockEnd
  0
BLOCK
  5
141
100
AcDbEntity
  8
notes
390
0
100
AcDbBlockBegin
  2
*D21
 70
               1
 10
0.0
 20
0.0
 30
0.0
  3
*D21
  1

  0
LINE
  5
142
100
AcDbEntity
  8
0
370
              -2
390
0
  6
Continuous
 62
               0
100
AcDbLine
 10
-348.14963685081318
 20
804.78188234894503
 30
0.0
 11
-262.93840146550394
 21
910.0
 31
0.0
  0
CIRCLE
  5
143
102
{ACAD_REACTORS
330
144
102
}
100
AcDbEntity
  8
0
370
              -2
390
0
  6
Continuous
 62
               0
100
AcDbCircle
 10
-348.14963685081318
 20
804.78188234894503
 30
0.0
 40
4.99969482421875
  0
HATCH
  5
144
100
AcDbEntity
  8
0
370
              -2
390
0
  6
Continuous
 62
               0
100
AcDbHatch
 10
0.0
 20
0.0
 30
0.0
210
0.0
220
0.0
230
1.0
  2
SOLID
 70
               1
 71
               1
 91
        1
 92
        1
 93
        1
 72
               2
 10
-348.14963685081318
 20
804.78188234894503
 40
4.99969482421875
 50
0.0
 51
360.0
 73
               0
 97
        1
330
143
 75
               0
 76
               1
 98
        1
 10
0.0
 20
0.0
  0
LINE
  5
145
100
AcDbEntity
  8
0
370
              -2
390
0
  6
Continuous
 62
               0
100
AcDbLine
 10
-262.93840146550394
 20
910.0
 30
0.0
 11
-139.43840146550397
 21
910.0
 31
0.0
  0
MTEXT
  5
146
100
AcDbEntity
  8
0
390
0
 62
               0
100
AcDbMText
 10
-202.93840146550397
 20
943.87761718750005
 30
0.0
 40
24.432617187500004
 41
0.0
 71
               1
 72
               1
  1
φ36
  7
ＭＳ ゴシック
 73
               1
 44
0.7828267384257843
  0
POINT
  5
147
100
AcDbEntity
  8
Defpoints
370
               0
390
0
 62
               0
100
AcDbPoint
 10
-370.80634056337192
 20
776.80557492852597
 30
0.0
  0
POINT
  5
148
100
AcDbEntity
  8
Defpoints
370
               0
390
0
 62
               0
100
AcDbPoint
 10
-348.14963685081318
 20
804.78188234894503
 30
0.0
  0
ENDBLK
  5
149
100
AcDbEntity
  8
notes
390
0
100
AcDbBlockEnd
  0
BLOCK
  5
14A
100
AcDbEntity
  8
notes
390
0
100
AcDbBlockBegin
  2
*D22
 70
               1
 10
0.0
 20
0.0
 30
0.0
  3
*D22
  1

  0
LINE
  5
14B
100
AcDbEntity
  8
0
370
              -2
390
0
  6
Continuous
 62
               0
100
AcDbLine
 10
855.45018687007973
 20
-525.5498197312354
 30
0.0
 11
855.45018687007973
 21
-622.31833043043537
 31
0.0
  0
LINE
  5
14C
100
AcDbEntity
  8
0
370
              -2
390
0
  6
Continuous
 62
               0
100
AcDbLine
 10
680.45018687007973
 20
-547.28620879081245
 30
0.0
 11
680.45018687007973
 21
-622.31833043043537
 31
0.0
  0
LINE
  5
14D
100
AcDbEntity
  8
0
370
              -2
390
0
  6
Continuous
 62
               0
100
AcDbLine
 10
855.45018687007973
 20
-622.31833043043537
 30
0.0
 11
680.45018687007973
 21
-622.31833043043537
 31
0.0
  0
CIRCLE
  5
14E
102
{ACAD_REACTORS
330
14F
102
}
100
AcDbEntity
  8
0
370
              -2
390
0
  6
Continuous
 62
               0
100
AcDbCircle
 10
855.45018687007973
 20
-622.31833043043537
 30
0.0
 40
4.99969482421875
  0
HATCH
  5
14F
100
AcDbEntity
  8
0
370
              -2
390
0
  6
Continuous
 62
               0
100
AcDbHatch
 10
0.0
 20
0.0
 30
0.0
210
0.0
220
0.0
230
1.0
  2
SOLID
 70
               1
 71
               1
 91
        1
 92
        1
 93
        1
 72
               2
 10
855.45018687007973
 20
-622.31833043043537
 40
4.99969482421875
 50
0.0
 51
360.0
 73
               0
 97
        1
330
14E
 75
               0
 76
               1
 98
        1
 10
0.0
 20
0.0
  0
CIRCLE
  5
150
102
{ACAD_REACTORS
330
151
102
}
100
AcDbEntity
  8
0
370
              -2
390
0
  6
Continuous
 62
               0
100
AcDbCircle
 10
680.45018687007973
 20
-622.31833043043537
 30
0.0
 40
4.99969482421875
  0
HATCH
  5
151
100
AcDbEntity
  8
0
370
              -2
390
0
  6
Continuous
 62
               0
100
AcDbHatch
 10
0.0
 20
0.0
 30
0.0
210
0.0
220
0.0
230
1.0
  2
SOLID
 70
               1
 71
               1
 91
        1
 92
        1
 93
        1
 72
               2
 10
680.45018687007973
 20
-622.31833043043537
 40
4.99969482421875
 50
0.0
 51
360.0
 73
               0
 97
        1
330
150
 75
               0
 76
               1
 98
        1
 10
0.0
 20
0.0
  0
MTEXT
  5
152
100
AcDbEntity
  8
0
390
0
 62
               0
100
AcDbMText
 10
744.13768518790425
 20
-588.44071324293532
 30
0.0
 40
24.432617187500004
 41
0.0
 71
               1
 72
               1
  1
175
  7
ＭＳ ゴシック
 73
               1
 44
0.7828267384257843
  0
POINT
  5
153
100
AcDbEntity
  8
Defpoints
370
               0
390
0
 62
               0
100
AcDbPoint
 10
680.45018687007973
 20
-522.28620879081245
 30
0.0
  0
POINT
  5
154
100
AcDbEntity
  8
Defpoints
370
               0
390
0
 62
               0
100
AcDbPoint
 10
855.45018687007973
 20
-500.5498197312354
 30
0.0
  0
POINT
  5
155
100
AcDbEntity
  8
Defpoints
370
               0
390
0
 62
               0
100
AcDbPoint
 10
855.45018687007973
 20
-622.31833043043537
 30
0.0
  0
ENDBLK
  5
156
100
AcDbEntity
  8
notes
390
0
100
AcDbBlockEnd
  0
ENDSEC
  0
SECTION
  2
ENTITIES
  0
MTEXT
  5
157
100
AcDbEntity
  8
template
390
0
 62
               7
100
AcDbMText
 10
-967.99999999975921
 20
-1147.4176292337004
 30
0.0
 40
16.288411458333332
 41
0.0
 71
               1
 72
               1
  1
品名
  7
ＭＳ ゴシック
 73
               1
 44
0.7828267384257843
  0
MTEXT
  5
158
100
AcDbEntity
  8
template
390
0
 62
               7
100
AcDbMText
 10
-967.99999999975921
 20
-1232.4176292337004
 30
0.0
 40
16.288411458333332
 41
0.0
 71
               1
 72
               1
  1
仕様
  7
ＭＳ ゴシック
 73
               1
 44
0.7828267384257843
  0
MTEXT
  5
159
100
AcDbEntity
  8
template
390
0
 62
               7
100
AcDbMText
 10
-914.99999999975921
 20
-1176.0000901712006
 30
0.0
 40
24.432617187500004
 41
0.0
 71
               1
 72
               1
  1
洗面器 -ALAPE-
  7
ＭＳ ゴシック
 73
               1
 44
0.7828267384257843
  0
LINE
  5
15A
100
AcDbEntity
  8
template
370
               5
390
0
  6
Continuous
 62
               7
100
AcDbLine
 10
974.99999999975876
 20
-1224.0027073587005
 30
0.0
 11
-975.00000000024124
 21
-1224.0027073587005
 31
0.0
  0
LWPOLYLINE
  5
15B
100
AcDbEntity
  8
template
370
               5
390
0
  6
Continuous
 62
               7
100
AcDbPolyline
 90
        5
 70
             128
 10
975.00000000024124
 20
1405.9972926412995
 10
-974.99999999975921
 20
1405.9972926412995
 10
-974.99999999975921
 20
-1394.0027073587005
 10
975.00000000024124
 20
-1394.0027073587005
 10
975.00000000024124
 20
1405.9972926412995
  0
LINE
  5
15C
100
AcDbEntity
  8
template
370
               5
390
0
  6
Continuous
 62
               7
100
AcDbLine
 10
974.99999999975876
 20
-1139.0027073587005
 30
0.0
 11
-975.00000000024124
 21
-1139.0027073587005
 31
0.0
  0
LINE
  5
15D
100
AcDbEntity
  8
template
370
               5
390
0
  6
Continuous
 62
               7
100
AcDbLine
 10
975.00000000024124
 20
-1309.0027073587005
 30
0.0
 11
222.00000000024124
 21
-1309.0027073587005
 31
0.0
  0
MTEXT
  5
15E
100
AcDbEntity
  8
template
390
0
 62
               7
100
AcDbMText
 10
-974.99999999955594
 20
-1405.8565294155574
 30
0.0
 40
21.717881944444446
 41
0.0
 71
               1
 72
               1
  1
120516SH
  7
ＭＳ ゴシック
 73
               1
 44
0.7828267384257843
  0
MTEXT
  5
15F
100
AcDbEntity
  8
template
390
0
 62
               7
100
AcDbMText
 10
251.87140625250089
 20
-1338.9131018320081
 30
0.0
 40
24.432617187500004
 41
0.0
 71
               1
 72
               1
  1
大洋金物株式会社 ティーフォルム事業部
  7
ＭＳ ゴシック
 73
               1
 44
0.7828267384257843
  0
INSERT
  5
160
100
AcDbEntity
  8
template
390
0
 62
               7
100
AcDbBlockReference
  2
グループ
 10
196.7503636727067
 20
335.6169317607812
 30
0.0
  0
MTEXT
  5
161
100
AcDbEntity
  8
template
390
0
 62
               7
100
AcDbMText
 10
784.00000000049999
 20
-1261.0000901712006
 30
0.0
 40
24.432617187500004
 41
0.0
 71
               1
 72
               1
  1
1:10
  7
ＭＳ ゴシック
 73
               1
 44
0.7828267384257843
  0
MTEXT
  5
162
100
AcDbEntity
  8
template
390
0
 62
               7
100
AcDbMText
 10
731.00000000049999
 20
-1232.4176292337004
 30
0.0
 40
16.288411458333332
 41
0.0
 71
               1
 72
               1
  1
縮尺
  7
ＭＳ ゴシック
 73
               1
 44
0.7828267384257843
  0
LINE
  5
163
100
AcDbEntity
  8
template
370
               5
390
0
  6
Continuous
 62
               7
100
AcDbLine
 10
724.00000000049999
 20
-1309.0027073587005
 30
0.0
 11
724.00000000049999
 21
-1224.0027073587005
 31
0.0
  0
MTEXT
  5
164
100
AcDbEntity
  8
template
390
0
 62
               7
100
AcDbMText
 10
480.00000000049999
 20
-1232.4176292337004
 30
0.0
 40
16.288411458333332
 41
0.0
 71
               1
 72
               1
  1
容量
  7
ＭＳ ゴシック
 73
               1
 44
0.7828267384257843
  0
LINE
  5
165
100
AcDbEntity
  8
template
370
               5
390
0
  6
Continuous
 62
               7
100
AcDbLine
 10
473.00000000049999
 20
-1309.0027073587005
 30
0.0
 11
473.00000000049999
 21
-1224.0027073587005
 31
0.0
  0
MTEXT
  5
166
100
AcDbEntity
  8
template
390
0
 62
               7
100
AcDbMText
 10
229.00000000049999
 20
-1147.4176292337004
 30
0.0
 40
16.288411458333332
 41
0.0
 71
               1
 72
               1
  1
品番
  7
ＭＳ ゴシック
 73
               1
 44
0.7828267384257843
  0
MTEXT
  5
167
100
AcDbEntity
  8
template
390
0
 62
               7
100
AcDbMText
 10
229.00000000049999
 20
-1232.4176292337004
 30
0.0
 40
16.288411458333332
 41
0.0
 71
               1
 72
               1
  1
重量
  7
ＭＳ ゴシック
 73
               1
 44
0.7828267384257843
  0
MTEXT
  5
168
100
AcDbEntity
  8
template
390
0
 62
               7
100
AcDbMText
 10
282.00000000049999
 20
-1176.0000901712006
 30
0.0
 40
24.432617187500004
 41
0.0
 71
               1
 72
               1
  1
FAN70-1303
  7
ＭＳ ゴシック
 73
               1
 44
0.7828267384257843
  0
MTEXT
  5
169
100
AcDbEntity
  8
template
390
0
 62
               7
100
AcDbMText
 10
282.00000000049999
 20
-1261.0000901712006
 30
0.0
 40
24.432617187500004
 41
0.0
 71
               1
 72
               1
  1
9.2kg
  7
ＭＳ ゴシック
 73
               1
 44
0.7828267384257843
  0
LINE
  5
16A
100
AcDbEntity
  8
template
370
               5
390
0
  6
Continuous
 62
               7
100
AcDbLine
 10
222.00000000049999
 20
-1394.0027073587005
 30
0.0
 11
222.00000000049999
 21
-1139.0027073587005
 31
0.0
  0
MTEXT
  5
16B
100
AcDbEntity
  8
template
390
0
 62
               7
100
AcDbMText
 10
-914.99999999975921
 20
-1261.0000901712006
 30
0.0
 40
24.432617187500004
 41
0.0
 71
               1
 72
               1
  1
壁掛け/オーバーフロー付き/壁取付ボルト付属/\P鋼板ホーロー/ホワイト
  7
ＭＳ ゴシック
 73
               1
 44
1.1307497332816883
  0
MTEXT
  5
16C
100
AcDbEntity
  8
template
390
0
 62
               7
100
AcDbMText
 10
530.625
 20
-1261.0000901712006
 30
0.0
 40
24.432617187500004
 41
0.0
 71
               1
 72
               1
  1
6.2L
  7
ＭＳ ゴシック
 73
               1
 44
0.7828267384257843
  0
INSERT
  5
16D
100
AcDbEntity
  8
template
390
0
 62
               7
100
AcDbBlockReference
  2
グループ-1
 10
196.7503636727067
 20
335.6169317607812
 30
0.0
  0
DIMENSION
  5
16E
100
AcDbEntity
  8
template
370
               5
390
0
  6
Continuous
 62
               7
100
AcDbDimension
  2
*D4
 10
678.23886241667992
 20
-510.58131160683558
 30
0.0
 11
683.23886241667992
 21
-360.0
 31
0.0
 70
             128
 71
               5
 72
               1
 41
1.0
 42
0.0
  3
tfrom線あり
100
AcDbAlignedDimension
 13
651.23886241667992
 23
-377.58131160683558
 33
0.0
 14
651.23886241667992
 24
-510.58131160683558
 34
0.0
 50
90.0
100
AcDbRotatedDimension
1001
ACAD
1000
DSTYLE
1002
{
1070
             279
1070
               2
1070
             340
1005
38
1070
               3
1000
<>(深さ)
1070
             174
1070
               0
1070
             147
1040
5.0
1002
}
  0
INSERT
  5
16F
100
AcDbEntity
  8
template
390
0
 62
               7
100
AcDbBlockReference
  2
グループ-2
 10
196.7503636727067
 20
335.6169317607812
 30
0.0
  0
INSERT
  5
170
100
AcDbEntity
  8
template
390
0
 62
               7
100
AcDbBlockReference
  2
グループ-3
 10
196.7503636727067
 20
335.6169317607812
 30
0.0
  0
LINE
  5
171
100
AcDbEntity
  8
template
370
              15
390
0
  6
Continuous
 62
               7
100
AcDbLine
 10
718.0
 20
-512.21407700614327
 30
0.0
 11
732.0
 21
-512.0
 31
0.0
  0
DIMENSION
  5
172
100
AcDbEntity
  8
notes
370
               5
390
0
  6
Continuous
 62
               7
100
AcDbDimension
  2
*D7
 10
-859.47798870709244
 20
840.79372863873607
 30
0.0
 11
-859.47798870709244
 21
790.79372863873596
 31
0.0
 71
               5
 72
               1
 41
1.0
 42
0.0
  3
tfrom線あり
100
AcDbAlignedDimension
 13
-759.47798870709255
 23
740.79372863873573
 33
0.0
 14
-754.47798870709266
 24
840.79372863873607
 34
0.0
 50
90.0
100
AcDbRotatedDimension
1001
ACAD
1000
DSTYLE
1002
{
1070
             279
1070
               2
1070
             340
1005
38
1070
             147
1040
5.0
1002
}
  0
DIMENSION
  5
173
100
AcDbEntity
  8
notes
370
               5
390
0
  6
Continuous
 62
               7
100
AcDbDimension
  2
*D8
 10
-859.47798870709244
 20
740.79372863873573
 30
0.0
 11
-859.47798870709244
 21
610.79372863873584
 31
0.0
 71
               5
 72
               1
 41
1.0
 42
0.0
  3
tfrom線あり
100
AcDbAlignedDimension
 13
-759.47798870709255
 23
480.79372863873596
 33
0.0
 14
-759.47798870709255
 24
740.79372863873573
 34
0.0
 50
90.0
100
AcDbRotatedDimension
1001
ACAD
1000
DSTYLE
1002
{
1070
             279
1070
               2
1070
             340
1005
38
1070
             147
1040
5.0
1002
}
  0
DIMENSION
  5
174
100
AcDbEntity
  8
notes
370
               5
390
0
  6
Continuous
 62
               7
100
AcDbDimension
  2
*D9
 10
-859.47798870709266
 20
-404.02320312204529
 30
0.0
 11
-859.47798870709266
 21
-441.52320312204529
 31
0.0
 71
               5
 72
               1
 41
1.0
 42
0.0
  3
tfrom線あり
100
AcDbAlignedDimension
 13
-736.97798870709266
 23
-479.02320312204529
 33
0.0
 14
-736.97798870709266
 24
-404.02320312204529
 34
0.0
 50
90.0
100
AcDbRotatedDimension
1001
ACAD
1000
DSTYLE
1002
{
1070
             279
1070
               2
1070
             340
1005
38
1070
             147
1040
5.0
1002
}
  0
DIMENSION
  5
175
100
AcDbEntity
  8
notes
370
               5
390
0
  6
Continuous
 62
               7
100
AcDbDimension
  2
*D10
 10
140.52201129290731
 20
840.79372863873607
 30
0.0
 11
140.52201129290731
 21
638.29372863873596
 31
0.0
 71
               5
 72
               1
 41
1.0
 42
0.0
  3
tfrom線あり
100
AcDbAlignedDimension
 13
35.522011292907308
 23
435.7937286387359
 33
0.0
 14
35.522011292907308
 24
840.79372863873607
 34
0.0
 50
90.0
100
AcDbRotatedDimension
1001
ACAD
1000
DSTYLE
1002
{
1070
             279
1070
               2
1070
             340
1005
38
1070
             147
1040
5.0
1002
}
  0
DIMENSION
  5
176
100
AcDbEntity
  8
notes
370
               5
390
0
  6
Continuous
 62
               7
100
AcDbDimension
  2
*D11
 10
350.45018687007985
 20
-379.0498197312354
 30
0.0
 11
350.45018687007985
 21
-441.5498197312354
 31
0.0
 71
               5
 72
               1
 41
1.0
 42
0.0
  3
tfrom線あり
100
AcDbAlignedDimension
 13
455.45018687007985
 23
-504.0498197312354
 33
0.0
 14
455.45018687007985
 24
-379.0498197312354
 34
0.0
 50
90.0
100
AcDbRotatedDimension
1001
ACAD
1000
DSTYLE
1002
{
1070
             279
1070
               2
1070
             340
1005
38
1070
             147
1040
5.0
1002
}
  0
DIMENSION
  5
177
100
AcDbEntity
  8
notes
370
               5
390
0
  6
Continuous
 62
               7
100
AcDbDimension
  2
*D12
 10
190.52201129290731
 20
-379.0498197312354
 30
0.0
 11
190.52201129290731
 21
-470.5498197312354
 31
0.0
 71
               5
 72
               1
 41
1.0
 42
0.0
  3
tfrom線あり
100
AcDbAlignedDimension
 13
-334.49477076739254
 23
-562.0498197312354
 33
0.0
 14
35.522011292907308
 24
-379.0498197312354
 34
0.0
 50
90.0
100
AcDbRotatedDimension
1001
ACAD
1000
DSTYLE
1002
{
1070
             279
1070
               2
1070
             340
1005
38
1070
             147
1040
5.0
1002
}
  0
DIMENSION
  5
178
100
AcDbEntity
  8
notes
370
               5
390
0
  6
Continuous
 62
               7
100
AcDbDimension
  2
*D13
 10
40.522011292907308
 20
335.79372863873596
 30
0.0
 11
-34.48899435354636
 21
335.79372863873596
 31
0.0
 71
               5
 72
               1
 41
1.0
 42
0.0
  3
tfrom線あり
100
AcDbAlignedDimension
 13
-109.50000000000003
 23
435.7937286387359
 33
0.0
 14
40.522011292907308
 24
440.7937286387359
 34
0.0
100
AcDbRotatedDimension
1001
ACAD
1000
DSTYLE
1002
{
1070
             279
1070
               2
1070
             340
1005
38
1070
             147
1040
5.0
1002
}
  0
DIMENSION
  5
179
100
AcDbEntity
  8
notes
370
               5
390
0
  6
Continuous
 62
               7
100
AcDbDimension
  2
*D14
 10
-109.50000000000003
 20
335.79372863873596
 30
0.0
 11
-359.5
 21
335.79372863873596
 31
0.0
 71
               5
 72
               1
 41
1.0
 42
0.0
  3
tfrom線あり
100
AcDbAlignedDimension
 13
-609.5
 23
435.7937286387359
 33
0.0
 14
-109.50000000000003
 24
435.7937286387359
 34
0.0
100
AcDbRotatedDimension
1001
ACAD
1000
DSTYLE
1002
{
1070
             279
1070
               2
1070
             340
1005
38
1070
             147
1040
5.0
1002
}
  0
DIMENSION
  5
17A
100
AcDbEntity
  8
notes
370
               5
390
0
  6
Continuous
 62
               7
100
AcDbDimension
  2
*D15
 10
855.45018687007973
 20
-279.0498197312354
 30
0.0
 11
830.45018687007973
 21
-279.0498197312354
 31
0.0
 71
               5
 72
               1
 41
1.0
 42
0.0
  3
tfrom線あり
100
AcDbAlignedDimension
 13
805.45018687007973
 23
-379.0498197312354
 33
0.0
 14
855.45018687007973
 24
-382.5498197312354
 34
0.0
100
AcDbRotatedDimension
1001
ACAD
1000
DSTYLE
1002
{
1070
             279
1070
               2
1070
             340
1005
38
1070
             147
1040
5.0
1002
}
  0
DIMENSION
  5
17B
100
AcDbEntity
  8
notes
370
               5
390
0
  6
Continuous
 62
               7
100
AcDbDimension
  2
*D16
 10
-1.9779887070926918
 20
-240.82762813713293
 30
0.0
 11
19.272011292907308
 21
-240.82762813713293
 31
0.0
 71
               5
 72
               1
 41
1.0
 42
0.0
  3
tfrom線あり
100
AcDbAlignedDimension
 13
40.522011292907308
 23
-384.02320312204529
 33
0.0
 14
-1.9779887070926918
 24
-384.02320312204529
 34
0.0
100
AcDbRotatedDimension
1001
ACAD
1000
DSTYLE
1002
{
1070
             279
1070
               2
1070
             340
1005
38
1070
             147
1040
5.0
1002
}
  0
DIMENSION
  5
17C
100
AcDbEntity
  8
notes
370
               5
390
0
  6
Continuous
 62
               7
100
AcDbDimension
  2
*D17
 10
-1.9779887070926918
 20
-240.82762813713293
 30
0.0
 11
-359.47798870709266
 21
-240.82762813713293
 31
0.0
 71
               5
 72
               1
 41
1.0
 42
0.0
  3
tfrom線あり
100
AcDbAlignedDimension
 13
-716.97798870709266
 23
-384.02320312204529
 33
0.0
 14
-1.9779887070926918
 24
-384.02320312204529
 34
0.0
100
AcDbRotatedDimension
1001
ACAD
1000
DSTYLE
1002
{
1070
             279
1070
               2
1070
             340
1005
38
1070
             147
1040
5.0
1002
}
  0
DIMENSION
  5
17D
100
AcDbEntity
  8
notes
370
               5
390
0
  6
Continuous
 62
               7
100
AcDbDimension
  2
*D18
 10
-219.47798870709258
 20
-279.0498197312354
 30
0.0
 11
-359.47798870709255
 21
-279.0498197312354
 31
0.0
 71
               5
 72
               1
 41
1.0
 42
0.0
  3
tfrom線あり
100
AcDbAlignedDimension
 13
-499.47798870709255
 23
-421.5498197312354
 33
0.0
 14
-219.47798870709258
 24
-421.5498197312354
 34
0.0
100
AcDbRotatedDimension
1001
ACAD
1000
DSTYLE
1002
{
1070
             279
1070
               2
1070
             340
1005
38
1070
             147
1040
5.0
1002
}
  0
DIMENSION
  5
17E
100
AcDbEntity
  8
notes
370
               5
390
0
  6
Continuous
 62
               7
100
AcDbDimension
  2
*D19
 10
-146.00000000000003
 20
-441.5498197312354
 30
0.0
 11
-141.00000000000003
 21
-369.70783589478287
 31
0.0
 70
             128
 71
               5
 72
               1
 41
1.0
 42
0.0
  3
tfrom線あり
100
AcDbAlignedDimension
 13
-199.47798870709258
 23
-379.0498197312354
 33
0.0
 14
-199.47798870709258
 24
-441.5498197312354
 34
0.0
 50
90.0
100
AcDbRotatedDimension
1001
ACAD
1000
DSTYLE
1002
{
1070
             279
1070
               2
1070
             340
1005
38
1070
             174
1070
               0
1070
             147
1040
5.0
1002
}
  0
DIMENSION
  5
17F
100
AcDbEntity
  8
notes
370
               5
390
0
  6
Continuous
 62
               7
100
AcDbDimension
  2
*D20
 10
40.522011292907308
 20
990.79372863873584
 30
0.0
 11
-359.47798870709244
 21
995.79372863873584
 31
0.0
 70
             128
 71
               5
 72
               1
 41
1.0
 42
0.0
  3
tfrom線あり
100
AcDbAlignedDimension
 13
-759.47798870709255
 23
840.79372863873607
 33
0.0
 14
40.522011292907308
 24
840.79372863873607
 34
0.0
100
AcDbRotatedDimension
1001
ACAD
1000
DSTYLE
1002
{
1070
             271
1070
               2
1070
             279
1070
               2
1070
             340
1005
38
1070
             147
1040
5.0
1002
}
  0
DIMENSION
  5
180
100
AcDbEntity
  8
notes
370
               5
390
0
  6
Continuous
 62
               7
100
AcDbDimension
  2
*D21
 10
-370.80634056337192
 20
776.80557492852597
 30
0.0
 11
-202.93840146550403
 21
910.0
 31
0.0
 70
               3
 71
               5
 72
               1
 41
1.0
 42
0.0
  3
tfrom線あり
100
AcDbDiametricDimension
 15
-348.14963685081318
 25
804.78188234894503
 35
0.0
 40
135.39500329746966
1001
ACAD
1000
DSTYLE
1002
{
1070
             289
1070
               0
1070
             342
1005
4B
1070
             340
1005
38
1070
              73
1070
               1
1070
              74
1070
               1
1070
              75
1070
               1
1070
              76
1070
               1
1070
               3
1000

1070
             174
1070
               0
1070
             147
1040
5.0
1002
}
  0
DIMENSION
  5
181
100
AcDbEntity
  8
notes
370
               5
390
0
  6
Continuous
 62
               7
100
AcDbDimension
  2
*D22
 10
855.45018687007973
 20
-622.31833043043537
 30
0.0
 11
767.95018687007973
 21
-622.31833043043537
 31
0.0
 71
               5
 72
               1
 41
1.0
 42
0.0
  3
tfrom線あり
100
AcDbAlignedDimension
 13
680.45018687007973
 23
-522.28620879081245
 33
0.0
 14
855.45018687007973
 24
-500.5498197312354
 34
0.0
100
AcDbRotatedDimension
1001
ACAD
1000
DSTYLE
1002
{
1070
             279
1070
               2
1070
             340
1005
38
1070
             147
1040
5.0
1002
}
  0
LINE
  5
182
100
AcDbEntity
  8
FAN70-1303
370
              15
390
0
  6
STYLE_05
 62
               7
100
AcDbLine
 10
-392.58367873939267
 20
-512.66167762233533
 30
0.0
 11
-384.46120664689272
 21
-522.32595982503528
 31
0.0
  0
LINE
  5
183
100
AcDbEntity
  8
FAN70-1303
370
              15
390
0
  6
STYLE_05
 62
               7
100
AcDbLine
 10
-334.49477076739254
 20
-522.32595982503528
 30
0.0
 11
-326.35508783369255
 21
-512.6412034268352
 31
0.0
  0
POLYLINE
  5
184
100
AcDbEntity
  8
FAN70-1303
370
              15
390
0
  6
Continuous
 62
               7
100
AcDb2dPolyline
 66
               1
 10
0.0
 20
0.0
 30
0.0
 75
               5
  0
VERTEX
  5
185
100
AcDbEntity
  8
FAN70-1303
370
              15
390
0
  6
Continuous
 62
               7
100
AcDbVertex
100
AcDb2dVertex
 10
-438.07326190379274
 20
-504.0498197312354
 30
0.0
  0
VERTEX
  5
186
100
AcDbEntity
  8
FAN70-1303
370
              15
390
0
  6
Continuous
 62
               7
100
AcDbVertex
100
AcDb2dVertex
 10
-431.0736276974925
 20
-505.87787928533521
 30
0.0
  0
VERTEX
  5
187
100
AcDbEntity
  8
FAN70-1303
370
              15
390
0
  6
Continuous
 62
               7
100
AcDbVertex
100
AcDb2dVertex
 10
-421.68153383049264
 20
-508.01172556823542
 30
0.0
  0
VERTEX
  5
188
100
AcDbEntity
  8
FAN70-1303
370
              15
390
0
  6
Continuous
 62
               7
100
AcDbVertex
100
AcDb2dVertex
 10
-412.09468178659267
 20
-509.86829104373544
 30
0.0
  0
VERTEX
  5
189
100
AcDbEntity
  8
FAN70-1303
370
              15
390
0
  6
Continuous
 62
               7
100
AcDbVertex
100
AcDb2dVertex
 10
-402.46192299039251
 20
-511.41179802363524
 30
0.0
  0
VERTEX
  5
18A
100
AcDbEntity
  8
FAN70-1303
370
              15
390
0
  6
Continuous
 62
               7
100
AcDbVertex
100
AcDb2dVertex
 10
-392.77990095529253
 20
-512.64314057773527
 30
0.0
  0
VERTEX
  5
18B
100
AcDbEntity
  8
FAN70-1303
370
              15
390
0
  6
Continuous
 62
               7
100
AcDbVertex
100
AcDb2dVertex
 10
-392.58367873939267
 20
-512.66167762233533
 30
0.0
  0
SEQEND
  5
18C
100
AcDbEntity
  8
FAN70-1303
370
              15
390
0
  6
Continuous
 62
               7
  0
POLYLINE
  5
18D
100
AcDbEntity
  8
FAN70-1303
370
              15
390
0
  6
Continuous
 62
               7
100
AcDb2dPolyline
 66
               1
 10
0.0
 20
0.0
 30
0.0
 75
               5
  0
VERTEX
  5
18E
100
AcDbEntity
  8
FAN70-1303
370
              15
390
0
  6
Continuous
 62
               7
100
AcDbVertex
100
AcDb2dVertex
 10
-326.35508783369255
 20
-512.6412034268352
 30
0.0
  0
VERTEX
  5
18F
100
AcDbEntity
  8
FAN70-1303
370
              15
390
0
  6
Continuous
 62
               7
100
AcDbVertex
100
AcDb2dVertex
 10
-318.36488031059253
 20
-511.67458000133536
 30
0.0
  0
VERTEX
  5
190
100
AcDbEntity
  8
FAN70-1303
370
              15
390
0
  6
Continuous
 62
               7
100
AcDbVertex
100
AcDb2dVertex
 10
-308.7305345406927
 20
-510.19288303803523
 30
0.0
  0
VERTEX
  5
191
100
AcDbEntity
  8
FAN70-1303
370
              15
390
0
  6
Continuous
 62
               7
100
AcDbVertex
100
AcDb2dVertex
 10
-299.15026135949256
 20
-508.40039255573538
 30
0.0
  0
VERTEX
  5
192
100
AcDbEntity
  8
FAN70-1303
370
              15
390
0
  6
Continuous
 62
               7
100
AcDbVertex
100
AcDb2dVertex
 10
-289.62329708249274
 20
-506.29718306013524
 30
0.0
  0
VERTEX
  5
193
100
AcDbEntity
  8
FAN70-1303
370
              15
390
0
  6
Continuous
 62
               7
100
AcDbVertex
100
AcDb2dVertex
 10
-280.80967001829254
 20
-504.0498197312354
 30
0.0
  0
SEQEND
  5
194
100
AcDbEntity
  8
FAN70-1303
370
              15
390
0
  6
Continuous
 62
               7
  0
LINE
  5
195
100
AcDbEntity
  8
FAN70-1303
370
              15
390
0
  6
Continuous
 62
               7
100
AcDbLine
 10
-754.47798870709266
 20
-504.0498197312354
 30
0.0
 11
-755.97798870709255
 21
-504.0498197312354
 31
0.0
  0
ARC
  5
196
100
AcDbEntity
  8
FAN70-1303
370
              15
390
0
  6
Continuous
 62
               7
100
AcDbCircle
 10
-755.97798870709255
 20
-500.54981973123529
 30
0.0
 40
3.5
100
AcDbArc
 50
180.0
 51
270.0
  0
LINE
  5
197
100
AcDbEntity
  8
FAN70-1303
370
              15
390
0
  6
Continuous
 62
               7
100
AcDbLine
 10
-759.47798870709255
 20
-500.54981973123529
 30
0.0
 11
-759.47798870709255
 21
-382.5498197312354
 31
0.0
  0
ARC
  5
198
100
AcDbEntity
  8
FAN70-1303
370
              15
390
0
  6
Continuous
 62
               7
100
AcDbCircle
 10
-755.97798870709255
 20
-382.5498197312354
 30
0.0
 40
3.5
100
AcDbArc
 50
90.0
 51
180.0
  0
LINE
  5
199
100
AcDbEntity
  8
FAN70-1303
370
              15
390
0
  6
Continuous
 62
               7
100
AcDbLine
 10
-755.97798870709255
 20
-379.0498197312354
 30
0.0
 11
-754.47798870709266
 21
-379.0498197312354
 31
0.0
  0
LINE
  5
19A
100
AcDbEntity
  8
FAN70-1303
370
              15
390
0
  6
Continuous
 62
               7
100
AcDbLine
 10
-754.47798870709266
 20
-379.0498197312354
 30
0.0
 11
35.522011292907308
 21
-379.0498197312354
 31
0.0
  0
LINE
  5
19B
100
AcDbEntity
  8
FAN70-1303
370
              15
390
0
  6
Continuous
 62
               7
100
AcDbLine
 10
35.522011292907308
 20
-504.0498197312354
 30
0.0
 11
-754.47798870709266
 21
-504.0498197312354
 31
0.0
  0
LINE
  5
19C
100
AcDbEntity
  8
FAN70-1303
370
              15
390
0
  6
Continuous
 62
               7
100
AcDbLine
 10
37.022011292907308
 20
-379.0498197312354
 30
0.0
 11
35.522011292907308
 21
-379.0498197312354
 31
0.0
  0
ARC
  5
19D
100
AcDbEntity
  8
FAN70-1303
370
              15
390
0
  6
Continuous
 62
               7
100
AcDbCircle
 10
37.022011292907308
 20
-382.5498197312354
 30
0.0
 40
3.5
100
AcDbArc
 50
0.0
 51
90.0
  0
LINE
  5
19E
100
AcDbEntity
  8
FAN70-1303
370
              15
390
0
  6
Continuous
 62
               7
100
AcDbLine
 10
40.522011292907308
 20
-500.54981973123529
 30
0.0
 11
40.522011292907308
 21
-382.5498197312354
 31
0.0
  0
ARC
  5
19F
100
AcDbEntity
  8
FAN70-1303
370
              15
390
0
  6
Continuous
 62
               7
100
AcDbCircle
 10
37.022011292907308
 20
-500.54981973123529
 30
0.0
 40
3.5
100
AcDbArc
 50
270.0
 51
0.0
  0
LINE
  5
1A0
100
AcDbEntity
  8
FAN70-1303
370
              15
390
0
  6
Continuous
 62
               7
100
AcDbLine
 10
35.522011292907308
 20
-504.0498197312354
 30
0.0
 11
37.022011292907308
 21
-504.0498197312354
 31
0.0
  0
POLYLINE
  5
1A1
100
AcDbEntity
  8
FAN70-1303
370
              15
390
0
  6
Continuous
 62
               7
100
AcDb2dPolyline
 66
               1
 10
0.0
 20
0.0
 30
0.0
 75
               5
  0
VERTEX
  5
1A2
100
AcDbEntity
  8
FAN70-1303
370
              15
390
0
  6
Continuous
 62
               7
100
AcDbVertex
100
AcDb2dVertex
 10
-110.52260481029273
 20
500.50911288363591
 30
0.0
  0
VERTEX
  5
1A3
100
AcDbEntity
  8
FAN70-1303
370
              15
390
0
  6
Continuous
 62
               7
100
AcDbVertex
100
AcDb2dVertex
 10
-110.79034887459264
 20
497.68134932613589
 30
0.0
  0
VERTEX
  5
1A4
100
AcDbEntity
  8
FAN70-1303
370
              15
390
0
  6
Continuous
 62
               7
100
AcDbVertex
100
AcDb2dVertex
 10
-111.57169126179249
 20
494.9498174677359
 30
0.0
  0
VERTEX
  5
1A5
100
AcDbEntity
  8
FAN70-1303
370
              15
390
0
  6
Continuous
 62
               7
100
AcDbVertex
100
AcDb2dVertex
 10
-112.83764921339255
 20
492.38070826633589
 30
0.0
  0
VERTEX
  5
1A6
100
AcDbEntity
  8
FAN70-1303
370
              15
390
0
  6
Continuous
 62
               7
100
AcDbVertex
100
AcDb2dVertex
 10
-114.50365863949256
 20
490.04939179523592
 30
0.0
  0
VERTEX
  5
1A7
100
AcDbEntity
  8
FAN70-1303
370
              15
390
0
  6
Continuous
 62
               7
100
AcDbVertex
100
AcDb2dVertex
 10
-116.66560851249258
 20
487.83981781103591
 30
0.0
  0
VERTEX
  5
1A8
100
AcDbEntity
  8
FAN70-1303
370
              15
390
0
  6
Continuous
 62
               7
100
AcDbVertex
100
AcDb2dVertex
 10
-119.11725186019285
 20
485.95488052463588
 30
0.0
  0
VERTEX
  5
1A9
100
AcDbEntity
  8
FAN70-1303
370
              15
390
0
  6
Continuous
 62
               7
100
AcDbVertex
100
AcDb2dVertex
 10
-123.15978788049259
 20
483.7382135878359
 30
0.0
  0
VERTEX
  5
1AA
100
AcDbEntity
  8
FAN70-1303
370
              15
390
0
  6
Continuous
 62
               7
100
AcDbVertex
100
AcDb2dVertex
 10
-127.50578604849264
 20
482.18768816093592
 30
0.0
  0
VERTEX
  5
1AB
100
AcDbEntity
  8
FAN70-1303
370
              15
390
0
  6
Continuous
 62
               7
100
AcDbVertex
100
AcDb2dVertex
 10
-131.52322851329259
 20
481.32815938093592
 30
0.0
  0
VERTEX
  5
1AC
100
AcDbEntity
  8
FAN70-1303
370
              15
390
0
  6
Continuous
 62
               7
100
AcDbVertex
100
AcDb2dVertex
 10
-135.61222635419259
 20
480.92359285453591
 30
0.0
  0
VERTEX
  5
1AD
100
AcDbEntity
  8
FAN70-1303
370
              15
390
0
  6
Continuous
 62
               7
100
AcDbVertex
100
AcDb2dVertex
 10
-137.49984584959262
 20
480.88297228913592
 30
0.0
  0
SEQEND
  5
1AE
100
AcDbEntity
  8
FAN70-1303
370
              15
390
0
  6
Continuous
 62
               7
  0
POLYLINE
  5
1AF
100
AcDbEntity
  8
FAN70-1303
370
              15
390
0
  6
Continuous
 62
               7
100
AcDb2dPolyline
 66
               1
 10
0.0
 20
0.0
 30
0.0
 75
               5
  0
VERTEX
  5
1B0
100
AcDbEntity
  8
FAN70-1303
370
              15
390
0
  6
Continuous
 62
               7
100
AcDbVertex
100
AcDb2dVertex
 10
-359.47798870709255
 20
483.54706149203588
 30
0.0
  0
VERTEX
  5
1B1
100
AcDbEntity
  8
FAN70-1303
370
              15
390
0
  6
Continuous
 62
               7
100
AcDbVertex
100
AcDb2dVertex
 10
-356.40179042909267
 20
483.54664425953587
 30
0.0
  0
VERTEX
  5
1B2
100
AcDbEntity
  8
FAN70-1303
370
              15
390
0
  6
Continuous
 62
               7
100
AcDbVertex
100
AcDb2dVertex
 10
-336.71439372209272
 20
483.52354745963589
 30
0.0
  0
VERTEX
  5
1B3
100
AcDbEntity
  8
FAN70-1303
370
              15
390
0
  6
Continuous
 62
               7
100
AcDbVertex
100
AcDb2dVertex
 10
-317.0646459629927
 20
483.46549253563592
 30
0.0
  0
VERTEX
  5
1B4
100
AcDbEntity
  8
FAN70-1303
370
              15
390
0
  6
Continuous
 62
               7
100
AcDbVertex
100
AcDb2dVertex
 10
-297.58435793429271
 20
483.37313513853593
 30
0.0
  0
VERTEX
  5
1B5
100
AcDbEntity
  8
FAN70-1303
370
              15
390
0
  6
Continuous
 62
               7
100
AcDbVertex
100
AcDb2dVertex
 10
-278.40533785729269
 20
483.24704151253593
 30
0.0
  0
VERTEX
  5
1B6
100
AcDbEntity
  8
FAN70-1303
370
              15
390
0
  6
Continuous
 62
               7
100
AcDbVertex
100
AcDb2dVertex
 10
-259.65940140399255
 20
483.0878971109359
 30
0.0
  0
VERTEX
  5
1B7
100
AcDbEntity
  8
FAN70-1303
370
              15
390
0
  6
Continuous
 62
               7
100
AcDbVertex
100
AcDb2dVertex
 10
-243.42912368689261
 20
482.91921596623592
 30
0.0
  0
VERTEX
  5
1B8
100
AcDbEntity
  8
FAN70-1303
370
              15
390
0
  6
Continuous
 62
               7
100
AcDbVertex
100
AcDb2dVertex
 10
-227.58334063199257
 20
482.72520284753591
 30
0.0
  0
VERTEX
  5
1B9
100
AcDbEntity
  8
FAN70-1303
370
              15
390
0
  6
Continuous
 62
               7
100
AcDbVertex
100
AcDb2dVertex
 10
-212.20485054169254
 20
482.50690083603592
 30
0.0
  0
VERTEX
  5
1BA
100
AcDbEntity
  8
FAN70-1303
370
              15
390
0
  6
Continuous
 62
               7
100
AcDbVertex
100
AcDb2dVertex
 10
-197.37640701439275
 20
482.26547222233592
 30
0.0
  0
VERTEX
  5
1BB
100
AcDbEntity
  8
FAN70-1303
370
              15
390
0
  6
Continuous
 62
               7
100
AcDbVertex
100
AcDb2dVertex
 10
-181.11347340259275
 20
481.9610116968359
 30
0.0
  0
VERTEX
  5
1BC
100
AcDbEntity
  8
FAN70-1303
370
              15
390
0
  6
Continuous
 62
               7
100
AcDbVertex
100
AcDb2dVertex
 10
-165.64405642659258
 20
481.6274939070359
 30
0.0
  0
VERTEX
  5
1BD
100
AcDbEntity
  8
FAN70-1303
370
              15
390
0
  6
Continuous
 62
               7
100
AcDbVertex
100
AcDb2dVertex
 10
-151.07167445329279
 20
481.26733284093592
 30
0.0
  0
VERTEX
  5
1BE
100
AcDbEntity
  8
FAN70-1303
370
              15
390
0
  6
Continuous
 62
               7
100
AcDbVertex
100
AcDb2dVertex
 10
-137.49984584959262
 20
480.88297228913592
 30
0.0
  0
SEQEND
  5
1BF
100
AcDbEntity
  8
FAN70-1303
370
              15
390
0
  6
Continuous
 62
               7
  0
POLYLINE
  5
1C0
100
AcDbEntity
  8
FAN70-1303
370
              15
390
0
  6
Continuous
 62
               7
100
AcDb2dPolyline
 66
               1
 10
0.0
 20
0.0
 30
0.0
 75
               5
  0
VERTEX
  5
1C1
100
AcDbEntity
  8
FAN70-1303
370
              15
390
0
  6
Continuous
 62
               7
100
AcDbVertex
100
AcDb2dVertex
 10
-110.52260481029273
 20
500.50911288363591
 30
0.0
  0
VERTEX
  5
1C2
100
AcDbEntity
  8
FAN70-1303
370
              15
390
0
  6
Continuous
 62
               7
100
AcDbVertex
100
AcDb2dVertex
 10
-121.42824314749274
 20
500.74505786993592
 30
0.0
  0
VERTEX
  5
1C3
100
AcDbEntity
  8
FAN70-1303
370
              15
390
0
  6
Continuous
 62
               7
100
AcDbVertex
100
AcDb2dVertex
 10
-133.10187243139276
 20
500.97069125273595
 30
0.0
  0
VERTEX
  5
1C4
100
AcDbEntity
  8
FAN70-1303
370
              15
390
0
  6
Continuous
 62
               7
100
AcDbVertex
100
AcDb2dVertex
 10
-145.48572086009258
 20
501.18511896233588
 30
0.0
  0
VERTEX
  5
1C5
100
AcDbEntity
  8
FAN70-1303
370
              15
390
0
  6
Continuous
 62
               7
100
AcDbVertex
100
AcDb2dVertex
 10
-158.52201663169254
 20
501.38735752203593
 30
0.0
  0
VERTEX
  5
1C6
100
AcDbEntity
  8
FAN70-1303
370
              15
390
0
  6
Continuous
 62
               7
100
AcDbVertex
100
AcDb2dVertex
 10
-172.15298794419257
 20
501.57645325763588
 30
0.0
  0
VERTEX
  5
1C7
100
AcDbEntity
  8
FAN70-1303
370
              15
390
0
  6
Continuous
 62
               7
100
AcDbVertex
100
AcDb2dVertex
 10
-186.32086299569258
 20
501.75151209933591
 30
0.0
  0
VERTEX
  5
1C8
100
AcDbEntity
  8
FAN70-1303
370
              15
390
0
  6
Continuous
 62
               7
100
AcDbVertex
100
AcDb2dVertex
 10
-202.16169141439266
 20
501.92403774363595
 30
0.0
  0
VERTEX
  5
1C9
100
AcDbEntity
  8
FAN70-1303
370
              15
390
0
  6
Continuous
 62
               7
100
AcDbVertex
100
AcDb2dVertex
 10
-218.58983420049267
 20
502.08005290133588
 30
0.0
  0
VERTEX
  5
1CA
100
AcDbEntity
  8
FAN70-1303
370
              15
390
0
  6
Continuous
 62
               7
100
AcDbVertex
100
AcDb2dVertex
 10
-235.51682315979261
 20
502.21878271203593
 30
0.0
  0
VERTEX
  5
1CB
100
AcDbEntity
  8
FAN70-1303
370
              15
390
0
  6
Continuous
 62
               7
100
AcDbVertex
100
AcDb2dVertex
 10
-252.8541975488927
 20
502.33939271073592
 30
0.0
  0
VERTEX
  5
1CC
100
AcDbEntity
  8
FAN70-1303
370
              15
390
0
  6
Continuous
 62
               7
100
AcDbVertex
100
AcDb2dVertex
 10
-270.65650306849273
 20
502.4420319090359
 30
0.0
  0
VERTEX
  5
1CD
100
AcDbEntity
  8
FAN70-1303
370
              15
390
0
  6
Continuous
 62
               7
100
AcDbVertex
100
AcDb2dVertex
 10
-288.79316084299273
 20
502.52592544653589
 30
0.0
  0
VERTEX
  5
1CE
100
AcDbEntity
  8
FAN70-1303
370
              15
390
0
  6
Continuous
 62
               7
100
AcDbVertex
100
AcDb2dVertex
 10
-307.16679923449249
 20
502.5905666838359
 30
0.0
  0
VERTEX
  5
1CF
100
AcDbEntity
  8
FAN70-1303
370
              15
390
0
  6
Continuous
 62
               7
100
AcDbVertex
100
AcDb2dVertex
 10
-324.50811125549262
 20
502.63342242343595
 30
0.0
  0
VERTEX
  5
1D0
100
AcDbEntity
  8
FAN70-1303
370
              15
390
0
  6
Continuous
 62
               7
100
AcDbVertex
100
AcDb2dVertex
 10
-341.97249382939265
 20
502.65920143223593
 30
0.0
  0
VERTEX
  5
1D1
100
AcDbEntity
  8
FAN70-1303
370
              15
390
0
  6
Continuous
 62
               7
100
AcDbVertex
100
AcDb2dVertex
 10
-359.47798870709255
 20
502.66781430343588
 30
0.0
  0
SEQEND
  5
1D2
100
AcDbEntity
  8
FAN70-1303
370
              15
390
0
  6
Continuous
 62
               7
  0
POLYLINE
  5
1D3
100
AcDbEntity
  8
FAN70-1303
370
              15
390
0
  6
Continuous
 62
               7
100
AcDb2dPolyline
 66
               1
 10
0.0
 20
0.0
 30
0.0
 75
               5
  0
VERTEX
  5
1D4
100
AcDbEntity
  8
FAN70-1303
370
              15
390
0
  6
Continuous
 62
               7
100
AcDbVertex
100
AcDb2dVertex
 10
-359.47798870709255
 20
483.54706149203588
 30
0.0
  0
VERTEX
  5
1D5
100
AcDbEntity
  8
FAN70-1303
370
              15
390
0
  6
Continuous
 62
               7
100
AcDbVertex
100
AcDb2dVertex
 10
-362.55418698509254
 20
483.54664425953587
 30
0.0
  0
VERTEX
  5
1D6
100
AcDbEntity
  8
FAN70-1303
370
              15
390
0
  6
Continuous
 62
               7
100
AcDbVertex
100
AcDb2dVertex
 10
-382.24158369219265
 20
483.52354745963589
 30
0.0
  0
VERTEX
  5
1D7
100
AcDbEntity
  8
FAN70-1303
370
              15
390
0
  6
Continuous
 62
               7
100
AcDbVertex
100
AcDb2dVertex
 10
-401.89133145129256
 20
483.46549253563592
 30
0.0
  0
VERTEX
  5
1D8
100
AcDbEntity
  8
FAN70-1303
370
              15
390
0
  6
Continuous
 62
               7
100
AcDbVertex
100
AcDb2dVertex
 10
-421.37161947999255
 20
483.37313513853593
 30
0.0
  0
VERTEX
  5
1D9
100
AcDbEntity
  8
FAN70-1303
370
              15
390
0
  6
Continuous
 62
               7
100
AcDbVertex
100
AcDb2dVertex
 10
-440.55063955699256
 20
483.24704151253593
 30
0.0
  0
VERTEX
  5
1DA
100
AcDbEntity
  8
FAN70-1303
370
              15
390
0
  6
Continuous
 62
               7
100
AcDbVertex
100
AcDb2dVertex
 10
-459.2965760102926
 20
483.0878971109359
 30
0.0
  0
VERTEX
  5
1DB
100
AcDbEntity
  8
FAN70-1303
370
              15
390
0
  6
Continuous
 62
               7
100
AcDbVertex
100
AcDb2dVertex
 10
-475.52685372739256
 20
482.91921596623592
 30
0.0
  0
VERTEX
  5
1DC
100
AcDbEntity
  8
FAN70-1303
370
              15
390
0
  6
Continuous
 62
               7
100
AcDbVertex
100
AcDb2dVertex
 10
-491.37263678219256
 20
482.72520284753591
 30
0.0
  0
VERTEX
  5
1DD
100
AcDbEntity
  8
FAN70-1303
370
              15
390
0
  6
Continuous
 62
               7
100
AcDbVertex
100
AcDb2dVertex
 10
-506.75112687259264
 20
482.50690083603592
 30
0.0
  0
VERTEX
  5
1DE
100
AcDbEntity
  8
FAN70-1303
370
              15
390
0
  6
Continuous
 62
               7
100
AcDbVertex
100
AcDb2dVertex
 10
-521.57957039979249
 20
482.26547222233592
 30
0.0
  0
VERTEX
  5
1DF
100
AcDbEntity
  8
FAN70-1303
370
              15
390
0
  6
Continuous
 62
               7
100
AcDbVertex
100
AcDb2dVertex
 10
-537.84250401169254
 20
481.9610116968359
 30
0.0
  0
VERTEX
  5
1E0
100
AcDbEntity
  8
FAN70-1303
370
              15
390
0
  6
Continuous
 62
               7
100
AcDbVertex
100
AcDb2dVertex
 10
-553.3119209876927
 20
481.6274939070359
 30
0.0
  0
VERTEX
  5
1E1
100
AcDbEntity
  8
FAN70-1303
370
              15
390
0
  6
Continuous
 62
               7
100
AcDbVertex
100
AcDb2dVertex
 10
-567.88430296089257
 20
481.26733284093592
 30
0.0
  0
VERTEX
  5
1E2
100
AcDbEntity
  8
FAN70-1303
370
              15
390
0
  6
Continuous
 62
               7
100
AcDbVertex
100
AcDb2dVertex
 10
-581.45613156469267
 20
480.88297228913592
 30
0.0
  0
SEQEND
  5
1E3
100
AcDbEntity
  8
FAN70-1303
370
              15
390
0
  6
Continuous
 62
               7
  0
POLYLINE
  5
1E4
100
AcDbEntity
  8
FAN70-1303
370
              15
390
0
  6
Continuous
 62
               7
100
AcDb2dPolyline
 66
               1
 10
0.0
 20
0.0
 30
0.0
 75
               5
  0
VERTEX
  5
1E5
100
AcDbEntity
  8
FAN70-1303
370
              15
390
0
  6
Continuous
 62
               7
100
AcDbVertex
100
AcDb2dVertex
 10
-609.49434500935013
 20
500.50911288363591
 30
0.0
  0
VERTEX
  5
1E6
100
AcDbEntity
  8
FAN70-1303
370
              15
390
0
  6
Continuous
 62
               7
100
AcDbVertex
100
AcDb2dVertex
 10
-609.21607099255016
 20
497.68134932613589
 30
0.0
  0
VERTEX
  5
1E7
100
AcDbEntity
  8
FAN70-1303
370
              15
390
0
  6
Continuous
 62
               7
100
AcDbVertex
100
AcDb2dVertex
 10
-608.40399963974721
 20
494.9498174677359
 30
0.0
  0
VERTEX
  5
1E8
100
AcDbEntity
  8
FAN70-1303
370
              15
390
0
  6
Continuous
 62
               7
100
AcDbVertex
100
AcDb2dVertex
 10
-607.08825355569036
 20
492.38070826633589
 30
0.0
  0
VERTEX
  5
1E9
100
AcDbEntity
  8
FAN70-1303
370
              15
390
0
  6
Continuous
 62
               7
100
AcDbVertex
100
AcDb2dVertex
 10
-605.35672260255274
 20
490.04939179523592
 30
0.0
  0
VERTEX
  5
1EA
100
AcDbEntity
  8
FAN70-1303
370
              15
390
0
  6
Continuous
 62
               7
100
AcDbVertex
100
AcDb2dVertex
 10
-603.10974664576327
 20
487.83981781103591
 30
0.0
  0
VERTEX
  5
1EB
100
AcDbEntity
  8
FAN70-1303
370
              15
390
0
  6
Continuous
 62
               7
100
AcDbVertex
100
AcDb2dVertex
 10
-600.56168402613309
 20
485.95488052463588
 30
0.0
  0
VERTEX
  5
1EC
100
AcDbEntity
  8
FAN70-1303
370
              15
390
0
  6
Continuous
 62
               7
100
AcDbVertex
100
AcDb2dVertex
 10
-596.36016143048425
 20
483.7382135878359
 30
0.0
  0
VERTEX
  5
1ED
100
AcDbEntity
  8
FAN70-1303
370
              15
390
0
  6
Continuous
 62
               7
100
AcDbVertex
100
AcDb2dVertex
 10
-591.84324199876926
 20
482.18768816093592
 30
0.0
  0
VERTEX
  5
1EE
100
AcDbEntity
  8
FAN70-1303
370
              15
390
0
  6
Continuous
 62
               7
100
AcDbVertex
100
AcDb2dVertex
 10
-587.66779984863979
 20
481.32815938093592
 30
0.0
  0
VERTEX
  5
1EF
100
AcDbEntity
  8
FAN70-1303
370
              15
390
0
  6
Continuous
 62
               7
100
AcDbVertex
100
AcDb2dVertex
 10
-583.41798816215635
 20
480.92359285453591
 30
0.0
  0
VERTEX
  5
1F0
100
AcDbEntity
  8
FAN70-1303
370
              15
390
0
  6
Continuous
 62
               7
100
AcDbVertex
100
AcDb2dVertex
 10
-581.45613156469267
 20
480.88297228913592
 30
0.0
  0
SEQEND
  5
1F1
100
AcDbEntity
  8
FAN70-1303
370
              15
390
0
  6
Continuous
 62
               7
  0
POLYLINE
  5
1F2
100
AcDbEntity
  8
FAN70-1303
370
              15
390
0
  6
Continuous
 62
               7
100
AcDb2dPolyline
 66
               1
 10
0.0
 20
0.0
 30
0.0
 75
               5
  0
VERTEX
  5
1F3
100
AcDbEntity
  8
FAN70-1303
370
              15
390
0
  6
Continuous
 62
               7
100
AcDbVertex
100
AcDb2dVertex
 10
-608.43337260399267
 20
500.50911288363591
 30
0.0
  0
VERTEX
  5
1F4
100
AcDbEntity
  8
FAN70-1303
370
              15
390
0
  6
Continuous
 62
               7
100
AcDbVertex
100
AcDb2dVertex
 10
-597.52773426679255
 20
500.74505786993592
 30
0.0
  0
VERTEX
  5
1F5
100
AcDbEntity
  8
FAN70-1303
370
              15
390
0
  6
Continuous
 62
               7
100
AcDbVertex
100
AcDb2dVertex
 10
-585.85410498289264
 20
500.97069125273595
 30
0.0
  0
VERTEX
  5
1F6
100
AcDbEntity
  8
FAN70-1303
370
              15
390
0
  6
Continuous
 62
               7
100
AcDbVertex
100
AcDb2dVertex
 10
-573.47025655419259
 20
501.18511896233588
 30
0.0
  0
VERTEX
  5
1F7
100
AcDbEntity
  8
FAN70-1303
370
              15
390
0
  6
Continuous
 62
               7
100
AcDbVertex
100
AcDb2dVertex
 10
-560.43396078259264
 20
501.38735752203593
 30
0.0
  0
VERTEX
  5
1F8
100
AcDbEntity
  8
FAN70-1303
370
              15
390
0
  6
Continuous
 62
               7
100
AcDbVertex
100
AcDb2dVertex
 10
-546.80298947009248
 20
501.57645325763588
 30
0.0
  0
VERTEX
  5
1F9
100
AcDbEntity
  8
FAN70-1303
370
              15
390
0
  6
Continuous
 62
               7
100
AcDbVertex
100
AcDb2dVertex
 10
-532.63511441859259
 20
501.75151209933591
 30
0.0
  0
VERTEX
  5
1FA
100
AcDbEntity
  8
FAN70-1303
370
              15
390
0
  6
Continuous
 62
               7
100
AcDbVertex
100
AcDb2dVertex
 10
-516.79428599989262
 20
501.92403774363595
 30
0.0
  0
VERTEX
  5
1FB
100
AcDbEntity
  8
FAN70-1303
370
              15
390
0
  6
Continuous
 62
               7
100
AcDbVertex
100
AcDb2dVertex
 10
-500.3661432137925
 20
502.08005290133588
 30
0.0
  0
VERTEX
  5
1FC
100
AcDbEntity
  8
FAN70-1303
370
              15
390
0
  6
Continuous
 62
               7
100
AcDbVertex
100
AcDb2dVertex
 10
-483.43915425449256
 20
502.21878271203593
 30
0.0
  0
VERTEX
  5
1FD
100
AcDbEntity
  8
FAN70-1303
370
              15
390
0
  6
Continuous
 62
               7
100
AcDbVertex
100
AcDb2dVertex
 10
-466.10177986529254
 20
502.33939271073592
 30
0.0
  0
VERTEX
  5
1FE
100
AcDbEntity
  8
FAN70-1303
370
              15
390
0
  6
Continuous
 62
               7
100
AcDbVertex
100
AcDb2dVertex
 10
-448.29947434579265
 20
502.4420319090359
 30
0.0
  0
VERTEX
  5
1FF
100
AcDbEntity
  8
FAN70-1303
370
              15
390
0
  6
Continuous
 62
               7
100
AcDbVertex
100
AcDb2dVertex
 10
-430.16281657129252
 20
502.52592544653589
 30
0.0
  0
VERTEX
  5
200
100
AcDbEntity
  8
FAN70-1303
370
              15
390
0
  6
Continuous
 62
               7
100
AcDbVertex
100
AcDb2dVertex
 10
-411.78917817979266
 20
502.5905666838359
 30
0.0
  0
VERTEX
  5
201
100
AcDbEntity
  8
FAN70-1303
370
              15
390
0
  6
Continuous
 62
               7
100
AcDbVertex
100
AcDb2dVertex
 10
-394.44786615879252
 20
502.63342242343595
 30
0.0
  0
VERTEX
  5
202
100
AcDbEntity
  8
FAN70-1303
370
              15
390
0
  6
Continuous
 62
               7
100
AcDbVertex
100
AcDb2dVertex
 10
-376.98348358479268
 20
502.65920143223593
 30
0.0
  0
VERTEX
  5
203
100
AcDbEntity
  8
FAN70-1303
370
              15
390
0
  6
Continuous
 62
               7
100
AcDbVertex
100
AcDb2dVertex
 10
-359.47798870709255
 20
502.66781430343588
 30
0.0
  0
SEQEND
  5
204
100
AcDbEntity
  8
FAN70-1303
370
              15
390
0
  6
Continuous
 62
               7
  0
POLYLINE
  5
205
100
AcDbEntity
  8
FAN70-1303
370
              15
390
0
  6
Continuous
 62
               7
100
AcDb2dPolyline
 66
               1
 10
0.0
 20
0.0
 30
0.0
 75
               5
  0
VERTEX
  5
206
100
AcDbEntity
  8
FAN70-1303
370
              15
390
0
  6
Continuous
 62
               7
100
AcDbVertex
100
AcDb2dVertex
 10
-359.47798870709255
 20
715.93050639733565
 30
0.0
  0
VERTEX
  5
207
100
AcDbEntity
  8
FAN70-1303
370
              15
390
0
  6
Continuous
 62
               7
100
AcDbVertex
100
AcDb2dVertex
 10
-362.47918990649259
 20
715.93108754253558
 30
0.0
  0
VERTEX
  5
208
100
AcDbEntity
  8
FAN70-1303
370
              15
390
0
  6
Continuous
 62
               7
100
AcDbVertex
100
AcDb2dVertex
 10
-382.67610341519253
 20
715.96599351263569
 30
0.0
  0
VERTEX
  5
209
100
AcDbEntity
  8
FAN70-1303
370
              15
390
0
  6
Continuous
 62
               7
100
AcDbVertex
100
AcDb2dVertex
 10
-402.83516727599272
 20
716.05434249743575
 30
0.0
  0
VERTEX
  5
20A
100
AcDbEntity
  8
FAN70-1303
370
              15
390
0
  6
Continuous
 62
               7
100
AcDbVertex
100
AcDb2dVertex
 10
-422.82119326499276
 20
716.19521807533567
 30
0.0
  0
VERTEX
  5
20B
100
AcDbEntity
  8
FAN70-1303
370
              15
390
0
  6
Continuous
 62
               7
100
AcDbVertex
100
AcDb2dVertex
 10
-442.49899618539257
 20
716.38768147333576
 30
0.0
  0
VERTEX
  5
20C
100
AcDbEntity
  8
FAN70-1303
370
              15
390
0
  6
Continuous
 62
               7
100
AcDbVertex
100
AcDb2dVertex
 10
-461.73337035089253
 20
716.63080881933547
 30
0.0
  0
VERTEX
  5
20D
100
AcDbEntity
  8
FAN70-1303
370
              15
390
0
  6
Continuous
 62
               7
100
AcDbVertex
100
AcDb2dVertex
 10
-475.25077246339254
 20
716.83649699783564
 30
0.0
  0
VERTEX
  5
20E
100
AcDbEntity
  8
FAN70-1303
370
              15
390
0
  6
Continuous
 62
               7
100
AcDbVertex
100
AcDb2dVertex
 10
-488.50604079869265
 20
717.06759910683559
 30
0.0
  0
VERTEX
  5
20F
100
AcDbEntity
  8
FAN70-1303
370
              15
390
0
  6
Continuous
 62
               7
100
AcDbVertex
100
AcDb2dVertex
 10
-501.45269118459248
 20
717.32330303293554
 30
0.0
  0
VERTEX
  5
210
100
AcDbEntity
  8
FAN70-1303
370
              15
390
0
  6
Continuous
 62
               7
100
AcDbVertex
100
AcDb2dVertex
 10
-517.66907356889249
 20
717.68930535413574
 30
0.0
  0
VERTEX
  5
211
100
AcDbEntity
  8
FAN70-1303
370
              15
390
0
  6
Continuous
 62
               7
100
AcDbVertex
100
AcDb2dVertex
 10
-533.29984031829258
 20
718.09499691823567
 30
0.0
  0
VERTEX
  5
212
100
AcDbEntity
  8
FAN70-1303
370
              15
390
0
  6
Continuous
 62
               7
100
AcDbVertex
100
AcDb2dVertex
 10
-548.25522683769259
 20
718.53792648413571
 30
0.0
  0
VERTEX
  5
213
100
AcDbEntity
  8
FAN70-1303
370
              15
390
0
  6
Continuous
 62
               7
100
AcDbVertex
100
AcDb2dVertex
 10
-562.44546853219265
 20
719.01563536023559
 30
0.0
  0
VERTEX
  5
214
100
AcDbEntity
  8
FAN70-1303
370
              15
390
0
  6
Continuous
 62
               7
100
AcDbVertex
100
AcDb2dVertex
 10
-575.09896837389249
 20
719.49746440753574
 30
0.0
  0
VERTEX
  5
215
100
AcDbEntity
  8
FAN70-1303
370
              15
390
0
  6
Continuous
 62
               7
100
AcDbVertex
100
AcDb2dVertex
 10
-587.02386103779259
 20
720.00853698353569
 30
0.0
  0
VERTEX
  5
216
100
AcDbEntity
  8
FAN70-1303
370
              15
390
0
  6
Continuous
 62
               7
100
AcDbVertex
100
AcDb2dVertex
 10
-598.15936468749271
 20
720.54605167013574
 30
0.0
  0
VERTEX
  5
217
100
AcDbEntity
  8
FAN70-1303
370
              15
390
0
  6
Continuous
 62
               7
100
AcDbVertex
100
AcDb2dVertex
 10
-608.44468258529253
 20
721.10721449953553
 30
0.0
  0
SEQEND
  5
218
100
AcDbEntity
  8
FAN70-1303
370
              15
390
0
  6
Continuous
 62
               7
  0
POLYLINE
  5
219
100
AcDbEntity
  8
FAN70-1303
370
              15
390
0
  6
Continuous
 62
               7
100
AcDb2dPolyline
 66
               1
 10
0.0
 20
0.0
 30
0.0
 75
               5
  0
VERTEX
  5
21A
100
AcDbEntity
  8
FAN70-1303
370
              15
390
0
  6
Continuous
 62
               7
100
AcDbVertex
100
AcDb2dVertex
 10
-583.08669112829273
 20
740.67576955653567
 30
0.0
  0
VERTEX
  5
21B
100
AcDbEntity
  8
FAN70-1303
370
              15
390
0
  6
Continuous
 62
               7
100
AcDbVertex
100
AcDb2dVertex
 10
-588.45703982029261
 20
740.27113597493576
 30
0.0
  0
VERTEX
  5
21C
100
AcDbEntity
  8
FAN70-1303
370
              15
390
0
  6
Continuous
 62
               7
100
AcDbVertex
100
AcDb2dVertex
 10
-593.68527613789263
 20
738.99228851893577
 30
0.0
  0
VERTEX
  5
21D
100
AcDbEntity
  8
FAN70-1303
370
              15
390
0
  6
Continuous
 62
               7
100
AcDbVertex
100
AcDb2dVertex
 10
-597.49215029389268
 20
737.36859094003569
 30
0.0
  0
VERTEX
  5
21E
100
AcDbEntity
  8
FAN70-1303
370
              15
390
0
  6
Continuous
 62
               7
100
AcDbVertex
100
AcDb2dVertex
 10
-600.98961673889266
 20
735.16070078713551
 30
0.0
  0
VERTEX
  5
21F
100
AcDbEntity
  8
FAN70-1303
370
              15
390
0
  6
Continuous
 62
               7
100
AcDbVertex
100
AcDb2dVertex
 10
-603.5210260024927
 20
732.89874177083561
 30
0.0
  0
VERTEX
  5
220
100
AcDbEntity
  8
FAN70-1303
370
              15
390
0
  6
Continuous
 62
               7
100
AcDbVertex
100
AcDb2dVertex
 10
-605.6407310834926
 20
730.24958353143575
 30
0.0
  0
VERTEX
  5
221
100
AcDbEntity
  8
FAN70-1303
370
              15
390
0
  6
Continuous
 62
               7
100
AcDbVertex
100
AcDb2dVertex
 10
-606.59224473149266
 20
728.63227855063565
 30
0.0
  0
VERTEX
  5
222
100
AcDbEntity
  8
FAN70-1303
370
              15
390
0
  6
Continuous
 62
               7
100
AcDbVertex
100
AcDb2dVertex
 10
-607.55213283209252
 20
726.40312444073572
 30
0.0
  0
VERTEX
  5
223
100
AcDbEntity
  8
FAN70-1303
370
              15
390
0
  6
Continuous
 62
               7
100
AcDbVertex
100
AcDb2dVertex
 10
-608.1766106953927
 20
724.05806909903549
 30
0.0
  0
VERTEX
  5
224
100
AcDbEntity
  8
FAN70-1303
370
              15
390
0
  6
Continuous
 62
               7
100
AcDbVertex
100
AcDb2dVertex
 10
-608.44468258529253
 20
721.10721449953553
 30
0.0
  0
SEQEND
  5
225
100
AcDbEntity
  8
FAN70-1303
370
              15
390
0
  6
Continuous
 62
               7
  0
POLYLINE
  5
226
100
AcDbEntity
  8
FAN70-1303
370
              15
390
0
  6
Continuous
 62
               7
100
AcDb2dPolyline
 66
               1
 10
0.0
 20
0.0
 30
0.0
 75
               5
  0
VERTEX
  5
227
100
AcDbEntity
  8
FAN70-1303
370
              15
390
0
  6
Continuous
 62
               7
100
AcDbVertex
100
AcDb2dVertex
 10
-583.08669112829273
 20
740.67576955653567
 30
0.0
  0
VERTEX
  5
228
100
AcDbEntity
  8
FAN70-1303
370
              15
390
0
  6
Continuous
 62
               7
100
AcDbVertex
100
AcDb2dVertex
 10
-572.47092507989271
 20
740.21434764963567
 30
0.0
  0
VERTEX
  5
229
100
AcDbEntity
  8
FAN70-1303
370
              15
390
0
  6
Continuous
 62
               7
100
AcDbVertex
100
AcDb2dVertex
 10
-561.06210433159265
 20
739.77583627803551
 30
0.0
  0
VERTEX
  5
22A
100
AcDbEntity
  8
FAN70-1303
370
              15
390
0
  6
Continuous
 62
               7
100
AcDbVertex
100
AcDb2dVertex
 10
-548.9238121381926
 20
739.36264942983576
 30
0.0
  0
VERTEX
  5
22B
100
AcDbEntity
  8
FAN70-1303
370
              15
390
0
  6
Continuous
 62
               7
100
AcDbVertex
100
AcDb2dVertex
 10
-535.68009220269255
 20
738.96463941433558
 30
0.0
  0
VERTEX
  5
22C
100
AcDbEntity
  8
FAN70-1303
370
              15
390
0
  6
Continuous
 62
               7
100
AcDbVertex
100
AcDb2dVertex
 10
-521.72235332639264
 20
738.5955674539357
 30
0.0
  0
VERTEX
  5
22D
100
AcDbEntity
  8
FAN70-1303
370
              15
390
0
  6
Continuous
 62
               7
100
AcDbVertex
100
AcDb2dVertex
 10
-507.13438473849249
 20
738.2574750075355
 30
0.0
  0
VERTEX
  5
22E
100
AcDbEntity
  8
FAN70-1303
370
              15
390
0
  6
Continuous
 62
               7
100
AcDbVertex
100
AcDb2dVertex
 10
-491.99996076729258
 20
737.95241098503561
 30
0.0
  0
VERTEX
  5
22F
100
AcDbEntity
  8
FAN70-1303
370
              15
390
0
  6
Continuous
 62
               7
100
AcDbVertex
100
AcDb2dVertex
 10
-479.9157672395927
 20
737.73922007183558
 30
0.0
  0
VERTEX
  5
230
100
AcDbEntity
  8
FAN70-1303
370
              15
390
0
  6
Continuous
 62
               7
100
AcDbVertex
100
AcDb2dVertex
 10
-467.54354916719251
 20
737.54651825523547
 30
0.0
  0
VERTEX
  5
231
100
AcDbEntity
  8
FAN70-1303
370
              15
390
0
  6
Continuous
 62
               7
100
AcDbVertex
100
AcDb2dVertex
 10
-454.92666147859256
 20
737.37497608763567
 30
0.0
  0
VERTEX
  5
232
100
AcDbEntity
  8
FAN70-1303
370
              15
390
0
  6
Continuous
 62
               7
100
AcDbVertex
100
AcDb2dVertex
 10
-436.43753163729264
 20
737.16688137153551
 30
0.0
  0
VERTEX
  5
233
100
AcDbEntity
  8
FAN70-1303
370
              15
390
0
  6
Continuous
 62
               7
100
AcDbVertex
100
AcDb2dVertex
 10
-417.51029648099257
 20
737.00357209543563
 30
0.0
  0
VERTEX
  5
234
100
AcDbEntity
  8
FAN70-1303
370
              15
390
0
  6
Continuous
 62
               7
100
AcDbVertex
100
AcDb2dVertex
 10
-398.28276194839248
 20
736.88587527373568
 30
0.0
  0
VERTEX
  5
235
100
AcDbEntity
  8
FAN70-1303
370
              15
390
0
  6
Continuous
 62
               7
100
AcDbVertex
100
AcDb2dVertex
 10
-378.8927246650926
 20
736.81464027263564
 30
0.0
  0
VERTEX
  5
236
100
AcDbEntity
  8
FAN70-1303
370
              15
390
0
  6
Continuous
 62
               7
100
AcDbVertex
100
AcDb2dVertex
 10
-359.47798870709255
 20
736.79070900773559
 30
0.0
  0
SEQEND
  5
237
100
AcDbEntity
  8
FAN70-1303
370
              15
390
0
  6
Continuous
 62
               7
  0
POLYLINE
  5
238
100
AcDbEntity
  8
FAN70-1303
370
              15
390
0
  6
Continuous
 62
               7
100
AcDb2dPolyline
 66
               1
 10
0.0
 20
0.0
 30
0.0
 75
               5
  0
VERTEX
  5
239
100
AcDbEntity
  8
FAN70-1303
370
              15
390
0
  6
Continuous
 62
               7
100
AcDbVertex
100
AcDb2dVertex
 10
-135.86928628599267
 20
740.67576955653567
 30
0.0
  0
VERTEX
  5
23A
100
AcDbEntity
  8
FAN70-1303
370
              15
390
0
  6
Continuous
 62
               7
100
AcDbVertex
100
AcDb2dVertex
 10
-130.49893759399257
 20
740.27113597493576
 30
0.0
  0
VERTEX
  5
23B
100
AcDbEntity
  8
FAN70-1303
370
              15
390
0
  6
Continuous
 62
               7
100
AcDbVertex
100
AcDb2dVertex
 10
-125.27070127639254
 20
738.99228851893577
 30
0.0
  0
VERTEX
  5
23C
100
AcDbEntity
  8
FAN70-1303
370
              15
390
0
  6
Continuous
 62
               7
100
AcDbVertex
100
AcDb2dVertex
 10
-121.46382712039249
 20
737.36859094003569
 30
0.0
  0
VERTEX
  5
23D
100
AcDbEntity
  8
FAN70-1303
370
              15
390
0
  6
Continuous
 62
               7
100
AcDbVertex
100
AcDb2dVertex
 10
-117.96636067539251
 20
735.16070078713551
 30
0.0
  0
VERTEX
  5
23E
100
AcDbEntity
  8
FAN70-1303
370
              15
390
0
  6
Continuous
 62
               7
100
AcDbVertex
100
AcDb2dVertex
 10
-115.43495141179258
 20
732.89874177083561
 30
0.0
  0
VERTEX
  5
23F
100
AcDbEntity
  8
FAN70-1303
370
              15
390
0
  6
Continuous
 62
               7
100
AcDbVertex
100
AcDb2dVertex
 10
-113.31524633079258
 20
730.24958353143575
 30
0.0
  0
VERTEX
  5
240
100
AcDbEntity
  8
FAN70-1303
370
              15
390
0
  6
Continuous
 62
               7
100
AcDbVertex
100
AcDb2dVertex
 10
-112.36373268279274
 20
728.63227855063565
 30
0.0
  0
VERTEX
  5
241
100
AcDbEntity
  8
FAN70-1303
370
              15
390
0
  6
Continuous
 62
               7
100
AcDbVertex
100
AcDb2dVertex
 10
-111.40384458219276
 20
726.40312444073572
 30
0.0
  0
VERTEX
  5
242
100
AcDbEntity
  8
FAN70-1303
370
              15
390
0
  6
Continuous
 62
               7
100
AcDbVertex
100
AcDb2dVertex
 10
-110.77936671879266
 20
724.05806909903549
 30
0.0
  0
VERTEX
  5
243
100
AcDbEntity
  8
FAN70-1303
370
              15
390
0
  6
Continuous
 62
               7
100
AcDbVertex
100
AcDb2dVertex
 10
-110.51129482899253
 20
721.10721449953553
 30
0.0
  0
SEQEND
  5
244
100
AcDbEntity
  8
FAN70-1303
370
              15
390
0
  6
Continuous
 62
               7
  0
POLYLINE
  5
245
100
AcDbEntity
  8
FAN70-1303
370
              15
390
0
  6
Continuous
 62
               7
100
AcDb2dPolyline
 66
               1
 10
0.0
 20
0.0
 30
0.0
 75
               5
  0
VERTEX
  5
246
100
AcDbEntity
  8
FAN70-1303
370
              15
390
0
  6
Continuous
 62
               7
100
AcDbVertex
100
AcDb2dVertex
 10
-359.47798870709255
 20
715.93050639733565
 30
0.0
  0
VERTEX
  5
247
100
AcDbEntity
  8
FAN70-1303
370
              15
390
0
  6
Continuous
 62
               7
100
AcDbVertex
100
AcDb2dVertex
 10
-356.47678750779255
 20
715.93108754253558
 30
0.0
  0
VERTEX
  5
248
100
AcDbEntity
  8
FAN70-1303
370
              15
390
0
  6
Continuous
 62
               7
100
AcDbVertex
100
AcDb2dVertex
 10
-336.27987399909273
 20
715.96599351263569
 30
0.0
  0
VERTEX
  5
249
100
AcDbEntity
  8
FAN70-1303
370
              15
390
0
  6
Continuous
 62
               7
100
AcDbVertex
100
AcDb2dVertex
 10
-316.12081013829254
 20
716.05434249743575
 30
0.0
  0
VERTEX
  5
24A
100
AcDbEntity
  8
FAN70-1303
370
              15
390
0
  6
Continuous
 62
               7
100
AcDbVertex
100
AcDb2dVertex
 10
-296.13478414919268
 20
716.19521807533567
 30
0.0
  0
VERTEX
  5
24B
100
AcDbEntity
  8
FAN70-1303
370
              15
390
0
  6
Continuous
 62
               7
100
AcDbVertex
100
AcDb2dVertex
 10
-276.45698122889269
 20
716.38768147333576
 30
0.0
  0
VERTEX
  5
24C
100
AcDbEntity
  8
FAN70-1303
370
              15
390
0
  6
Continuous
 62
               7
100
AcDbVertex
100
AcDb2dVertex
 10
-257.2226070633925
 20
716.63080881933547
 30
0.0
  0
VERTEX
  5
24D
100
AcDbEntity
  8
FAN70-1303
370
              15
390
0
  6
Continuous
 62
               7
100
AcDbVertex
100
AcDb2dVertex
 10
-243.70520495089252
 20
716.83649699783564
 30
0.0
  0
VERTEX
  5
24E
100
AcDbEntity
  8
FAN70-1303
370
              15
390
0
  6
Continuous
 62
               7
100
AcDbVertex
100
AcDb2dVertex
 10
-230.4499366154927
 20
717.06759910683559
 30
0.0
  0
VERTEX
  5
24F
100
AcDbEntity
  8
FAN70-1303
370
              15
390
0
  6
Continuous
 62
               7
100
AcDbVertex
100
AcDb2dVertex
 10
-217.50328622969258
 20
717.32330303293554
 30
0.0
  0
VERTEX
  5
250
100
AcDbEntity
  8
FAN70-1303
370
              15
390
0
  6
Continuous
 62
               7
100
AcDbVertex
100
AcDb2dVertex
 10
-201.28690384539257
 20
717.68930535413574
 30
0.0
  0
VERTEX
  5
251
100
AcDbEntity
  8
FAN70-1303
370
              15
390
0
  6
Continuous
 62
               7
100
AcDbVertex
100
AcDb2dVertex
 10
-185.65613709599259
 20
718.09499691823567
 30
0.0
  0
VERTEX
  5
252
100
AcDbEntity
  8
FAN70-1303
370
              15
390
0
  6
Continuous
 62
               7
100
AcDbVertex
100
AcDb2dVertex
 10
-170.70075057659258
 20
718.53792648413571
 30
0.0
  0
VERTEX
  5
253
100
AcDbEntity
  8
FAN70-1303
370
              15
390
0
  6
Continuous
 62
               7
100
AcDbVertex
100
AcDb2dVertex
 10
-156.51050888209264
 20
719.01563536023559
 30
0.0
  0
VERTEX
  5
254
100
AcDbEntity
  8
FAN70-1303
370
              15
390
0
  6
Continuous
 62
               7
100
AcDbVertex
100
AcDb2dVertex
 10
-143.85700904039257
 20
719.49746440753574
 30
0.0
  0
VERTEX
  5
255
100
AcDbEntity
  8
FAN70-1303
370
              15
390
0
  6
Continuous
 62
               7
100
AcDbVertex
100
AcDb2dVertex
 10
-131.93211637649259
 20
720.00853698353569
 30
0.0
  0
VERTEX
  5
256
100
AcDbEntity
  8
FAN70-1303
370
              15
390
0
  6
Continuous
 62
               7
100
AcDbVertex
100
AcDb2dVertex
 10
-120.79661272679257
 20
720.54605167013574
 30
0.0
  0
VERTEX
  5
257
100
AcDbEntity
  8
FAN70-1303
370
              15
390
0
  6
Continuous
 62
               7
100
AcDbVertex
100
AcDb2dVertex
 10
-110.51129482899253
 20
721.10721449953553
 30
0.0
  0
SEQEND
  5
258
100
AcDbEntity
  8
FAN70-1303
370
              15
390
0
  6
Continuous
 62
               7
  0
POLYLINE
  5
259
100
AcDbEntity
  8
FAN70-1303
370
              15
390
0
  6
Continuous
 62
               7
100
AcDb2dPolyline
 66
               1
 10
0.0
 20
0.0
 30
0.0
 75
               5
  0
VERTEX
  5
25A
100
AcDbEntity
  8
FAN70-1303
370
              15
390
0
  6
Continuous
 62
               7
100
AcDbVertex
100
AcDb2dVertex
 10
-135.86928628599267
 20
740.67576955653567
 30
0.0
  0
VERTEX
  5
25B
100
AcDbEntity
  8
FAN70-1303
370
              15
390
0
  6
Continuous
 62
               7
100
AcDbVertex
100
AcDb2dVertex
 10
-146.4850523343928
 20
740.21434764963567
 30
0.0
  0
VERTEX
  5
25C
100
AcDbEntity
  8
FAN70-1303
370
              15
390
0
  6
Continuous
 62
               7
100
AcDbVertex
100
AcDb2dVertex
 10
-157.89387308269275
 20
739.77583627803551
 30
0.0
  0
VERTEX
  5
25D
100
AcDbEntity
  8
FAN70-1303
370
              15
390
0
  6
Continuous
 62
               7
100
AcDbVertex
100
AcDb2dVertex
 10
-170.03216527609257
 20
739.36264942983576
 30
0.0
  0
VERTEX
  5
25E
100
AcDbEntity
  8
FAN70-1303
370
              15
390
0
  6
Continuous
 62
               7
100
AcDbVertex
100
AcDb2dVertex
 10
-183.27588521149258
 20
738.96463941433558
 30
0.0
  0
VERTEX
  5
25F
100
AcDbEntity
  8
FAN70-1303
370
              15
390
0
  6
Continuous
 62
               7
100
AcDbVertex
100
AcDb2dVertex
 10
-197.23362408789276
 20
738.5955674539357
 30
0.0
  0
VERTEX
  5
260
100
AcDbEntity
  8
FAN70-1303
370
              15
390
0
  6
Continuous
 62
               7
100
AcDbVertex
100
AcDb2dVertex
 10
-211.82159267579257
 20
738.2574750075355
 30
0.0
  0
VERTEX
  5
261
100
AcDbEntity
  8
FAN70-1303
370
              15
390
0
  6
Continuous
 62
               7
100
AcDbVertex
100
AcDb2dVertex
 10
-226.95601664689266
 20
737.95241098503561
 30
0.0
  0
VERTEX
  5
262
100
AcDbEntity
  8
FAN70-1303
370
              15
390
0
  6
Continuous
 62
               7
100
AcDbVertex
100
AcDb2dVertex
 10
-239.04021017459254
 20
737.73922007183558
 30
0.0
  0
VERTEX
  5
263
100
AcDbEntity
  8
FAN70-1303
370
              15
390
0
  6
Continuous
 62
               7
100
AcDbVertex
100
AcDb2dVertex
 10
-251.41242824709244
 20
737.54651825523547
 30
0.0
  0
VERTEX
  5
264
100
AcDbEntity
  8
FAN70-1303
370
              15
390
0
  6
Continuous
 62
               7
100
AcDbVertex
100
AcDb2dVertex
 10
-264.02931593569258
 20
737.37497608763567
 30
0.0
  0
VERTEX
  5
265
100
AcDbEntity
  8
FAN70-1303
370
              15
390
0
  6
Continuous
 62
               7
100
AcDbVertex
100
AcDb2dVertex
 10
-282.51844577699251
 20
737.16688137153551
 30
0.0
  0
VERTEX
  5
266
100
AcDbEntity
  8
FAN70-1303
370
              15
390
0
  6
Continuous
 62
               7
100
AcDbVertex
100
AcDb2dVertex
 10
-301.44568093329269
 20
737.00357209543563
 30
0.0
  0
VERTEX
  5
267
100
AcDbEntity
  8
FAN70-1303
370
              15
390
0
  6
Continuous
 62
               7
100
AcDbVertex
100
AcDb2dVertex
 10
-320.67321546589255
 20
736.88587527373568
 30
0.0
  0
VERTEX
  5
268
100
AcDbEntity
  8
FAN70-1303
370
              15
390
0
  6
Continuous
 62
               7
100
AcDbVertex
100
AcDb2dVertex
 10
-340.06325274919254
 20
736.81464027263564
 30
0.0
  0
VERTEX
  5
269
100
AcDbEntity
  8
FAN70-1303
370
              15
390
0
  6
Continuous
 62
               7
100
AcDbVertex
100
AcDb2dVertex
 10
-359.47798870709255
 20
736.79070900773559
 30
0.0
  0
SEQEND
  5
26A
100
AcDbEntity
  8
FAN70-1303
370
              15
390
0
  6
Continuous
 62
               7
  0
LINE
  5
26B
100
AcDbEntity
  8
FAN70-1303
370
              15
390
0
  6
Continuous
 62
               7
100
AcDbLine
 10
-135.69312065880197
 20
740.77679687795433
 30
0.0
 11
-582.91052735250196
 21
740.77679687795433
 31
0.0
  0
POLYLINE
  5
26C
100
AcDbEntity
  8
FAN70-1303
370
              15
390
0
  6
Continuous
 62
               7
100
AcDb2dPolyline
 66
               1
 10
0.0
 20
0.0
 30
0.0
 75
               5
  0
VERTEX
  5
26D
100
AcDbEntity
  8
FAN70-1303
370
              15
390
0
  6
Continuous
 62
               7
100
AcDbVertex
100
AcDb2dVertex
 10
-359.47798870709255
 20
738.55474572283561
 30
0.0
  0
VERTEX
  5
26E
100
AcDbEntity
  8
FAN70-1303
370
              15
390
0
  6
Continuous
 62
               7
100
AcDbVertex
100
AcDb2dVertex
 10
-362.35597383439267
 20
738.56094460583563
 30
0.0
  0
VERTEX
  5
26F
100
AcDbEntity
  8
FAN70-1303
370
              15
390
0
  6
Continuous
 62
               7
100
AcDbVertex
100
AcDb2dVertex
 10
-365.19033162129256
 20
738.57945929863558
 30
0.0
  0
VERTEX
  5
270
100
AcDbEntity
  8
FAN70-1303
370
              15
390
0
  6
Continuous
 62
               7
100
AcDbVertex
100
AcDb2dVertex
 10
-367.93809689789259
 20
738.60999177793553
 30
0.0
  0
VERTEX
  5
271
100
AcDbEntity
  8
FAN70-1303
370
              15
390
0
  6
Continuous
 62
               7
100
AcDbVertex
100
AcDb2dVertex
 10
-370.55761486499273
 20
738.6520950089357
 30
0.0
  0
VERTEX
  5
272
100
AcDbEntity
  8
FAN70-1303
370
              15
390
0
  6
Continuous
 62
               7
100
AcDbVertex
100
AcDb2dVertex
 10
-373.00917625639261
 20
738.7051282415357
 30
0.0
  0
VERTEX
  5
273
100
AcDbEntity
  8
FAN70-1303
370
              15
390
0
  6
Continuous
 62
               7
100
AcDbVertex
100
AcDb2dVertex
 10
-375.25561943859259
 20
738.76827936273571
 30
0.0
  0
VERTEX
  5
274
100
AcDbEntity
  8
FAN70-1303
370
              15
390
0
  6
Continuous
 62
               7
100
AcDbVertex
100
AcDb2dVertex
 10
-377.26288967039261
 20
738.84060214853571
 30
0.0
  0
VERTEX
  5
275
100
AcDbEntity
  8
FAN70-1303
370
              15
390
0
  6
Continuous
 62
               7
100
AcDbVertex
100
AcDb2dVertex
 10
-379.00055878069259
 20
738.92098646263571
 30
0.0
  0
VERTEX
  5
276
100
AcDbEntity
  8
FAN70-1303
370
              15
390
0
  6
Continuous
 62
               7
100
AcDbVertex
100
AcDb2dVertex
 10
-380.44228710439268
 20
739.00823276143569
 30
0.0
  0
VERTEX
  5
277
100
AcDbEntity
  8
FAN70-1303
370
              15
390
0
  6
Continuous
 62
               7
100
AcDbVertex
100
AcDb2dVertex
 10
-381.5662165006928
 20
739.10099994043549
 30
0.0
  0
VERTEX
  5
278
100
AcDbEntity
  8
FAN70-1303
370
              15
390
0
  6
Continuous
 62
               7
100
AcDbVertex
100
AcDb2dVertex
 10
-382.35531121699262
 20
739.19788729053562
 30
0.0
  0
VERTEX
  5
279
100
AcDbEntity
  8
FAN70-1303
370
              15
390
0
  6
Continuous
 62
               7
100
AcDbVertex
100
AcDb2dVertex
 10
-382.79760934619264
 20
739.29743449783564
 30
0.0
  0
VERTEX
  5
27A
100
AcDbEntity
  8
FAN70-1303
370
              15
390
0
  6
Continuous
 62
               7
100
AcDbVertex
100
AcDb2dVertex
 10
-382.8864053657926
 20
739.39812164403554
 30
0.0
  0
VERTEX
  5
27B
100
AcDbEntity
  8
FAN70-1303
370
              15
390
0
  6
Continuous
 62
               7
100
AcDbVertex
100
AcDb2dVertex
 10
-382.6203525831927
 20
739.49842881063557
 30
0.0
  0
VERTEX
  5
27C
100
AcDbEntity
  8
FAN70-1303
370
              15
390
0
  6
Continuous
 62
               7
100
AcDbVertex
100
AcDb2dVertex
 10
-382.00348735069269
 20
739.5968286285356
 30
0.0
  0
VERTEX
  5
27D
100
AcDbEntity
  8
FAN70-1303
370
              15
390
0
  6
Continuous
 62
               7
100
AcDbVertex
100
AcDb2dVertex
 10
-381.04515642139279
 20
739.69183843233577
 30
0.0
  0
VERTEX
  5
27E
100
AcDbEntity
  8
FAN70-1303
370
              15
390
0
  6
Continuous
 62
               7
100
AcDbVertex
100
AcDb2dVertex
 10
-379.75989029019252
 20
739.78201280933558
 30
0.0
  0
VERTEX
  5
27F
100
AcDbEntity
  8
FAN70-1303
370
              15
390
0
  6
Continuous
 62
               7
100
AcDbVertex
100
AcDb2dVertex
 10
-378.16717222539262
 20
739.86598830323578
 30
0.0
  0
VERTEX
  5
280
100
AcDbEntity
  8
FAN70-1303
370
              15
390
0
  6
Continuous
 62
               7
100
AcDbVertex
100
AcDb2dVertex
 10
-376.29114397079263
 20
739.94248341423577
 30
0.0
  0
VERTEX
  5
281
100
AcDbEntity
  8
FAN70-1303
370
              15
390
0
  6
Continuous
 62
               7
100
AcDbVertex
100
AcDb2dVertex
 10
-374.16024532379254
 20
740.01035075283562
 30
0.0
  0
VERTEX
  5
282
100
AcDbEntity
  8
FAN70-1303
370
              15
390
0
  6
Continuous
 62
               7
100
AcDbVertex
100
AcDb2dVertex
 10
-371.80677920789265
 20
740.06855468853564
 30
0.0
  0
VERTEX
  5
283
100
AcDbEntity
  8
FAN70-1303
370
              15
390
0
  6
Continuous
 62
               7
100
AcDbVertex
100
AcDb2dVertex
 10
-369.26642086569257
 20
740.11620860203561
 30
0.0
  0
VERTEX
  5
284
100
AcDbEntity
  8
FAN70-1303
370
              15
390
0
  6
Continuous
 62
               7
100
AcDbVertex
100
AcDb2dVertex
 10
-366.57768001989268
 20
740.15259723763575
 30
0.0
  0
VERTEX
  5
285
100
AcDbEntity
  8
FAN70-1303
370
              15
390
0
  6
Continuous
 62
               7
100
AcDbVertex
100
AcDb2dVertex
 10
-363.78131507169257
 20
740.17716925243576
 30
0.0
  0
VERTEX
  5
286
100
AcDbEntity
  8
FAN70-1303
370
              15
390
0
  6
Continuous
 62
               7
100
AcDbVertex
100
AcDb2dVertex
 10
-360.91971575029254
 20
740.1895521174356
 30
0.0
  0
VERTEX
  5
287
100
AcDbEntity
  8
FAN70-1303
370
              15
390
0
  6
Continuous
 62
               7
100
AcDbVertex
100
AcDb2dVertex
 10
-358.0362616639926
 20
740.1895521174356
 30
0.0
  0
VERTEX
  5
288
100
AcDbEntity
  8
FAN70-1303
370
              15
390
0
  6
Continuous
 62
               7
100
AcDbVertex
100
AcDb2dVertex
 10
-355.17466234249252
 20
740.17716925243576
 30
0.0
  0
VERTEX
  5
289
100
AcDbEntity
  8
FAN70-1303
370
              15
390
0
  6
Continuous
 62
               7
100
AcDbVertex
100
AcDb2dVertex
 10
-352.37829739439258
 20
740.15259723763575
 30
0.0
  0
VERTEX
  5
28A
100
AcDbEntity
  8
FAN70-1303
370
              15
390
0
  6
Continuous
 62
               7
100
AcDbVertex
100
AcDb2dVertex
 10
-349.6895565485928
 20
740.11620860203561
 30
0.0
  0
VERTEX
  5
28B
100
AcDbEntity
  8
FAN70-1303
370
              15
390
0
  6
Continuous
 62
               7
100
AcDbVertex
100
AcDb2dVertex
 10
-347.1491982063925
 20
740.06855468853564
 30
0.0
  0
VERTEX
  5
28C
100
AcDbEntity
  8
FAN70-1303
370
              15
390
0
  6
Continuous
 62
               7
100
AcDbVertex
100
AcDb2dVertex
 10
-344.79573209049261
 20
740.01035075283562
 30
0.0
  0
VERTEX
  5
28D
100
AcDbEntity
  8
FAN70-1303
370
              15
390
0
  6
Continuous
 62
               7
100
AcDbVertex
100
AcDb2dVertex
 10
-342.66483344349251
 20
739.94248341423577
 30
0.0
  0
VERTEX
  5
28E
100
AcDbEntity
  8
FAN70-1303
370
              15
390
0
  6
Continuous
 62
               7
100
AcDbVertex
100
AcDb2dVertex
 10
-340.78880518889252
 20
739.86598830323578
 30
0.0
  0
VERTEX
  5
28F
100
AcDbEntity
  8
FAN70-1303
370
              15
390
0
  6
Continuous
 62
               7
100
AcDbVertex
100
AcDb2dVertex
 10
-339.19608712409263
 20
739.78201280933558
 30
0.0
  0
VERTEX
  5
290
100
AcDbEntity
  8
FAN70-1303
370
              15
390
0
  6
Continuous
 62
               7
100
AcDbVertex
100
AcDb2dVertex
 10
-337.91082099289258
 20
739.69183843233577
 30
0.0
  0
VERTEX
  5
291
100
AcDbEntity
  8
FAN70-1303
370
              15
390
0
  6
Continuous
 62
               7
100
AcDbVertex
100
AcDb2dVertex
 10
-336.95249006359256
 20
739.5968286285356
 30
0.0
  0
VERTEX
  5
292
100
AcDbEntity
  8
FAN70-1303
370
              15
390
0
  6
Continuous
 62
               7
100
AcDbVertex
100
AcDb2dVertex
 10
-336.33562483099251
 20
739.49842881063557
 30
0.0
  0
VERTEX
  5
293
100
AcDbEntity
  8
FAN70-1303
370
              15
390
0
  6
Continuous
 62
               7
100
AcDbVertex
100
AcDb2dVertex
 10
-336.06957204849255
 20
739.39812164403554
 30
0.0
  0
VERTEX
  5
294
100
AcDbEntity
  8
FAN70-1303
370
              15
390
0
  6
Continuous
 62
               7
100
AcDbVertex
100
AcDb2dVertex
 10
-336.1583680680925
 20
739.29743449783564
 30
0.0
  0
VERTEX
  5
295
100
AcDbEntity
  8
FAN70-1303
370
              15
390
0
  6
Continuous
 62
               7
100
AcDbVertex
100
AcDb2dVertex
 10
-336.60066619729264
 20
739.19788729053562
 30
0.0
  0
VERTEX
  5
296
100
AcDbEntity
  8
FAN70-1303
370
              15
390
0
  6
Continuous
 62
               7
100
AcDbVertex
100
AcDb2dVertex
 10
-337.38976091359257
 20
739.10099994043549
 30
0.0
  0
VERTEX
  5
297
100
AcDbEntity
  8
FAN70-1303
370
              15
390
0
  6
Continuous
 62
               7
100
AcDbVertex
100
AcDb2dVertex
 10
-338.51369030979265
 20
739.00823276143569
 30
0.0
  0
VERTEX
  5
298
100
AcDbEntity
  8
FAN70-1303
370
              15
390
0
  6
Continuous
 62
               7
100
AcDbVertex
100
AcDb2dVertex
 10
-339.95541863349251
 20
738.92098646263571
 30
0.0
  0
VERTEX
  5
299
100
AcDbEntity
  8
FAN70-1303
370
              15
390
0
  6
Continuous
 62
               7
100
AcDbVertex
100
AcDb2dVertex
 10
-341.69308774379249
 20
738.84060214853571
 30
0.0
  0
VERTEX
  5
29A
100
AcDbEntity
  8
FAN70-1303
370
              15
390
0
  6
Continuous
 62
               7
100
AcDbVertex
100
AcDb2dVertex
 10
-343.70035797569267
 20
738.76827936273571
 30
0.0
  0
VERTEX
  5
29B
100
AcDbEntity
  8
FAN70-1303
370
              15
390
0
  6
Continuous
 62
               7
100
AcDbVertex
100
AcDb2dVertex
 10
-345.94680115789254
 20
738.7051282415357
 30
0.0
  0
VERTEX
  5
29C
100
AcDbEntity
  8
FAN70-1303
370
              15
390
0
  6
Continuous
 62
               7
100
AcDbVertex
100
AcDb2dVertex
 10
-348.39836254929276
 20
738.6520950089357
 30
0.0
  0
VERTEX
  5
29D
100
AcDbEntity
  8
FAN70-1303
370
              15
390
0
  6
Continuous
 62
               7
100
AcDbVertex
100
AcDb2dVertex
 10
-351.01788051639255
 20
738.60999177793553
 30
0.0
  0
VERTEX
  5
29E
100
AcDbEntity
  8
FAN70-1303
370
              15
390
0
  6
Continuous
 62
               7
100
AcDbVertex
100
AcDb2dVertex
 10
-353.76564579289277
 20
738.57945929863558
 30
0.0
  0
VERTEX
  5
29F
100
AcDbEntity
  8
FAN70-1303
370
              15
390
0
  6
Continuous
 62
               7
100
AcDbVertex
100
AcDb2dVertex
 10
-356.60000357989259
 20
738.56094460583563
 30
0.0
  0
VERTEX
  5
2A0
100
AcDbEntity
  8
FAN70-1303
370
              15
390
0
  6
Continuous
 62
               7
100
AcDbVertex
100
AcDb2dVertex
 10
-359.47798870709255
 20
738.55474572283561
 30
0.0
  0
SEQEND
  5
2A1
100
AcDbEntity
  8
FAN70-1303
370
              15
390
0
  6
Continuous
 62
               7
  0
LINE
  5
2A2
100
AcDbEntity
  8
FAN70-1303
370
              15
390
0
  6
Continuous
 62
               7
100
AcDbLine
 10
-581.45612575779262
 20
480.8829802278359
 30
0.0
 11
-137.49985165649255
 21
480.8829802278359
 31
0.0
  0
POLYLINE
  5
2A3
100
AcDbEntity
  8
FAN70-1303
370
              15
390
0
  6
Continuous
 62
               7
100
AcDb2dPolyline
 66
               1
 10
0.0
 20
0.0
 30
0.0
 75
               5
  0
VERTEX
  5
2A4
100
AcDbEntity
  8
FAN70-1303
370
              15
390
0
  6
Continuous
 62
               7
100
AcDbVertex
100
AcDb2dVertex
 10
-107.60702870999265
 20
721.10545616253569
 30
0.0
  0
VERTEX
  5
2A5
100
AcDbEntity
  8
FAN70-1303
370
              15
390
0
  6
Continuous
 62
               7
100
AcDbVertex
100
AcDb2dVertex
 10
-108.03415559439262
 20
721.10571693283555
 30
0.0
  0
VERTEX
  5
2A6
100
AcDbEntity
  8
FAN70-1303
370
              15
390
0
  6
Continuous
 62
               7
100
AcDbVertex
100
AcDb2dVertex
 10
-108.45490478189279
 20
721.1059702525356
 30
0.0
  0
VERTEX
  5
2A7
100
AcDbEntity
  8
FAN70-1303
370
              15
390
0
  6
Continuous
 62
               7
100
AcDbVertex
100
AcDb2dVertex
 10
-108.8629581799926
 20
721.10621612173554
 30
0.0
  0
VERTEX
  5
2A8
100
AcDbEntity
  8
FAN70-1303
370
              15
390
0
  6
Continuous
 62
               7
100
AcDbVertex
100
AcDb2dVertex
 10
-109.25226591739263
 20
721.10645454033568
 30
0.0
  0
VERTEX
  5
2A9
100
AcDbEntity
  8
FAN70-1303
370
              15
390
0
  6
Continuous
 62
               7
100
AcDbVertex
100
AcDb2dVertex
 10
-109.61695693639243
 20
721.10667805773573
 30
0.0
  0
VERTEX
  5
2AA
100
AcDbEntity
  8
FAN70-1303
370
              15
390
0
  6
Continuous
 62
               7
100
AcDbVertex
100
AcDb2dVertex
 10
-109.95160721449273
 20
721.1068792234355
 30
0.0
  0
VERTEX
  5
2AB
100
AcDbEntity
  8
FAN70-1303
370
              15
390
0
  6
Continuous
 62
               7
100
AcDbVertex
100
AcDb2dVertex
 10
-110.25120996149249
 20
721.10705803733572
 30
0.0
  0
VERTEX
  5
2AC
100
AcDbEntity
  8
FAN70-1303
370
              15
390
0
  6
Continuous
 62
               7
100
AcDbVertex
100
AcDb2dVertex
 10
-110.51129482899253
 20
721.10721449953553
 30
0.0
  0
SEQEND
  5
2AD
100
AcDbEntity
  8
FAN70-1303
370
              15
390
0
  6
Continuous
 62
               7
  0
ARC
  5
2AE
100
AcDbEntity
  8
FAN70-1303
370
              15
390
0
  6
Continuous
 62
               7
100
AcDbCircle
 10
35.522011292907308
 20
835.79372863873573
 30
0.0
 40
5.0
100
AcDbArc
 50
0.0
 51
90.0
  0
LINE
  5
2AF
100
AcDbEntity
  8
FAN70-1303
370
              15
390
0
  6
Continuous
 62
               7
100
AcDbLine
 10
-754.47798870709266
 20
840.79372863873607
 30
0.0
 11
35.522011292907308
 21
840.79372863873607
 31
0.0
  0
ARC
  5
2B0
100
AcDbEntity
  8
FAN70-1303
370
              15
390
0
  6
Continuous
 62
               7
100
AcDbCircle
 10
-754.47798870709266
 20
835.79372863873573
 30
0.0
 40
5.0000000000000568
100
AcDbArc
 50
90.0
 51
180.0
  0
CIRCLE
  5
2B1
100
AcDbEntity
  8
FAN70-1303
370
              15
390
0
  6
Continuous
 62
               7
100
AcDbCircle
 10
-359.47798870709255
 20
790.7937286387355
 30
0.0
 40
18.0
  0
LINE
  5
2B2
100
AcDbEntity
  8
FAN70-1303
370
              15
390
0
  6
Continuous
 62
               7
100
AcDbLine
 10
40.522011292907308
 20
440.7937286387359
 30
0.0
 11
40.522011292907308
 21
835.79372863873573
 31
0.0
  0
LINE
  5
2B3
100
AcDbEntity
  8
FAN70-1303
370
              15
390
0
  6
Continuous
 62
               7
100
AcDbLine
 10
-759.47798870709255
 20
440.7937286387359
 30
0.0
 11
-759.47798870709255
 21
835.79372863873573
 31
0.0
  0
POLYLINE
  5
2B4
100
AcDbEntity
  8
FAN70-1303
370
              15
390
0
  6
Continuous
 62
               7
100
AcDb2dPolyline
 66
               1
 10
0.0
 20
0.0
 30
0.0
 75
               5
  0
VERTEX
  5
2B5
100
AcDbEntity
  8
FAN70-1303
370
              15
390
0
  6
Continuous
 62
               7
100
AcDbVertex
100
AcDb2dVertex
 10
-609.50565499064999
 20
721.10721449953553
 30
0.0
  0
VERTEX
  5
2B6
100
AcDbEntity
  8
FAN70-1303
370
              15
390
0
  6
Continuous
 62
               7
100
AcDbVertex
100
AcDb2dVertex
 10
-609.50507384535001
 20
714.10721521473556
 30
0.0
  0
VERTEX
  5
2B7
100
AcDbEntity
  8
FAN70-1303
370
              15
390
0
  6
Continuous
 62
               7
100
AcDbVertex
100
AcDb2dVertex
 10
-609.50292807815003
 20
686.10723297693562
 30
0.0
  0
VERTEX
  5
2B8
100
AcDbEntity
  8
FAN70-1303
370
              15
390
0
  6
Continuous
 62
               7
100
AcDbVertex
100
AcDb2dVertex
 10
-609.49655038115009
 20
574.10725932223568
 30
0.0
  0
VERTEX
  5
2B9
100
AcDbEntity
  8
FAN70-1303
370
              15
390
0
  6
Continuous
 62
               7
100
AcDbVertex
100
AcDb2dVertex
 10
-609.49434500935013
 20
500.50911288363591
 30
0.0
  0
SEQEND
  5
2BA
100
AcDbEntity
  8
FAN70-1303
370
              15
390
0
  6
Continuous
 62
               7
  0
POLYLINE
  5
2BB
100
AcDbEntity
  8
FAN70-1303
370
              15
390
0
  6
Continuous
 62
               7
100
AcDb2dPolyline
 66
               1
 10
0.0
 20
0.0
 30
0.0
 75
               5
  0
VERTEX
  5
2BC
100
AcDbEntity
  8
FAN70-1303
370
              15
390
0
  6
Continuous
 62
               7
100
AcDbVertex
100
AcDb2dVertex
 10
-109.48869001869983
 20
721.10721449953553
 30
0.0
  0
VERTEX
  5
2BD
100
AcDbEntity
  8
FAN70-1303
370
              15
390
0
  6
Continuous
 62
               7
100
AcDbVertex
100
AcDb2dVertex
 10
-109.4892711639998
 20
714.10721521473556
 30
0.0
  0
VERTEX
  5
2BE
100
AcDbEntity
  8
FAN70-1303
370
              15
390
0
  6
Continuous
 62
               7
100
AcDbVertex
100
AcDb2dVertex
 10
-109.49141693119978
 20
686.10723297693562
 30
0.0
  0
VERTEX
  5
2BF
100
AcDbEntity
  8
FAN70-1303
370
              15
390
0
  6
Continuous
 62
               7
100
AcDbVertex
100
AcDb2dVertex
 10
-109.49779462819996
 20
574.10725932223568
 30
0.0
  0
VERTEX
  5
2C0
100
AcDbEntity
  8
FAN70-1303
370
              15
390
0
  6
Continuous
 62
               7
100
AcDbVertex
100
AcDb2dVertex
 10
-109.50000000000003
 20
500.50911288363591
 30
0.0
  0
SEQEND
  5
2C1
100
AcDbEntity
  8
FAN70-1303
370
              15
390
0
  6
Continuous
 62
               7
  0
ARC
  5
2C2
100
AcDbEntity
  8
FAN70-1303
370
              15
390
0
  6
Continuous
 62
               7
100
AcDbCircle
 10
-754.47798870709266
 20
440.7937286387359
 30
0.0
 40
5.0
100
AcDbArc
 50
180.0
 51
270.0
  0
ARC
  5
2C3
100
AcDbEntity
  8
FAN70-1303
370
              15
390
0
  6
Continuous
 62
               7
100
AcDbCircle
 10
35.522011292907308
 20
440.7937286387359
 30
0.0
 40
5.0
100
AcDbArc
 50
270.0
 51
0.0
  0
LINE
  5
2C4
100
AcDbEntity
  8
FAN70-1303
370
              15
390
0
  6
Continuous
 62
               7
100
AcDbLine
 10
35.522011292907308
 20
435.7937286387359
 30
0.0
 11
-754.47798870709266
 21
435.7937286387359
 31
0.0
  0
POLYLINE
  5
2C5
100
AcDbEntity
  8
FAN70-1303
370
              15
390
0
  6
Continuous
 62
               7
100
AcDb2dPolyline
 66
               1
 10
0.0
 20
0.0
 30
0.0
 75
               5
  0
VERTEX
  5
2C6
100
AcDbEntity
  8
FAN70-1303
370
              15
390
0
  6
Continuous
 62
               7
100
AcDbVertex
100
AcDb2dVertex
 10
-359.47798870709255
 20
698.9513335714355
 30
0.0
  0
VERTEX
  5
2C7
100
AcDbEntity
  8
FAN70-1303
370
              15
390
0
  6
Continuous
 62
               7
100
AcDbVertex
100
AcDb2dVertex
 10
-354.45299118969263
 20
698.59893601043564
 30
0.0
  0
VERTEX
  5
2C8
100
AcDbEntity
  8
FAN70-1303
370
              15
390
0
  6
Continuous
 62
               7
100
AcDbVertex
100
AcDb2dVertex
 10
-349.52797021929257
 20
697.55348544223557
 30
0.0
  0
VERTEX
  5
2C9
100
AcDbEntity
  8
FAN70-1303
370
              15
390
0
  6
Continuous
 62
               7
100
AcDbVertex
100
AcDb2dVertex
 10
-343.92572127489257
 20
695.41425984003558
 30
0.0
  0
VERTEX
  5
2CA
100
AcDbEntity
  8
FAN70-1303
370
              15
390
0
  6
Continuous
 62
               7
100
AcDbVertex
100
AcDb2dVertex
 10
-338.77292208579263
 20
692.36253182983569
 30
0.0
  0
VERTEX
  5
2CB
100
AcDbEntity
  8
FAN70-1303
370
              15
390
0
  6
Continuous
 62
               7
100
AcDbVertex
100
AcDb2dVertex
 10
-334.3100857755926
 20
688.52986376383569
 30
0.0
  0
VERTEX
  5
2CC
100
AcDbEntity
  8
FAN70-1303
370
              15
390
0
  6
Continuous
 62
               7
100
AcDbVertex
100
AcDb2dVertex
 10
-330.5877049287925
 20
683.97954087353571
 30
0.0
  0
VERTEX
  5
2CD
100
AcDbEntity
  8
FAN70-1303
370
              15
390
0
  6
Continuous
 62
               7
100
AcDbVertex
100
AcDb2dVertex
 10
-327.85282962229269
 20
679.04651146033575
 30
0.0
  0
VERTEX
  5
2CE
100
AcDbEntity
  8
FAN70-1303
370
              15
390
0
  6
Continuous
 62
               7
100
AcDbVertex
100
AcDb2dVertex
 10
-326.02805577429274
 20
673.70572667223564
 30
0.0
  0
VERTEX
  5
2CF
100
AcDbEntity
  8
FAN70-1303
370
              15
390
0
  6
Continuous
 62
               7
100
AcDbVertex
100
AcDb2dVertex
 10
-325.22144101769254
 20
668.40743999583572
 30
0.0
  0
VERTEX
  5
2D0
100
AcDbEntity
  8
FAN70-1303
370
              15
390
0
  6
Continuous
 62
               7
100
AcDbVertex
100
AcDb2dVertex
 10
-325.33221624999271
 20
663.04443757633567
 30
0.0
  0
VERTEX
  5
2D1
100
AcDbEntity
  8
FAN70-1303
370
              15
390
0
  6
Continuous
 62
               7
100
AcDbVertex
100
AcDb2dVertex
 10
-326.32614232809271
 20
657.93283264733566
 30
0.0
  0
VERTEX
  5
2D2
100
AcDbEntity
  8
FAN70-1303
370
              15
390
0
  6
Continuous
 62
               7
100
AcDbVertex
100
AcDb2dVertex
 10
-328.14335383689263
 20
653.05080990893566
 30
0.0
  0
VERTEX
  5
2D3
100
AcDbEntity
  8
FAN70-1303
370
              15
390
0
  6
Continuous
 62
               7
100
AcDbVertex
100
AcDb2dVertex
 10
-330.76772771989272
 20
648.47797136403574
 30
0.0
  0
VERTEX
  5
2D4
100
AcDbEntity
  8
FAN70-1303
370
              15
390
0
  6
Continuous
 62
               7
100
AcDbVertex
100
AcDb2dVertex
 10
-334.08700421659262
 20
644.38135902983572
 30
0.0
  0
VERTEX
  5
2D5
100
AcDbEntity
  8
FAN70-1303
370
              15
390
0
  6
Continuous
 62
               7
100
AcDbVertex
100
AcDb2dVertex
 10
-338.19359101569273
 20
640.72082917793557
 30
0.0
  0
VERTEX
  5
2D6
100
AcDbEntity
  8
FAN70-1303
370
              15
390
0
  6
Continuous
 62
               7
100
AcDbVertex
100
AcDb2dVertex
 10
-342.83104658339255
 20
637.75998334983569
 30
0.0
  0
VERTEX
  5
2D7
100
AcDbEntity
  8
FAN70-1303
370
              15
390
0
  6
Continuous
 62
               7
100
AcDbVertex
100
AcDb2dVertex
 10
-348.12827993389249
 20
635.48560421563559
 30
0.0
  0
VERTEX
  5
2D8
100
AcDbEntity
  8
FAN70-1303
370
              15
390
0
  6
Continuous
 62
               7
100
AcDbVertex
100
AcDb2dVertex
 10
-353.72476445719258
 20
634.09642856223559
 30
0.0
  0
VERTEX
  5
2D9
100
AcDbEntity
  8
FAN70-1303
370
              15
390
0
  6
Continuous
 62
               7
100
AcDbVertex
100
AcDb2dVertex
 10
-359.47798870709255
 20
633.63048415283572
 30
0.0
  0
SEQEND
  5
2DA
100
AcDbEntity
  8
FAN70-1303
370
              15
390
0
  6
Continuous
 62
               7
  0
POLYLINE
  5
2DB
100
AcDbEntity
  8
FAN70-1303
370
              15
390
0
  6
Continuous
 62
               7
100
AcDb2dPolyline
 66
               1
 10
0.0
 20
0.0
 30
0.0
 75
               5
  0
VERTEX
  5
2DC
100
AcDbEntity
  8
FAN70-1303
370
              15
390
0
  6
Continuous
 62
               7
100
AcDbVertex
100
AcDb2dVertex
 10
-359.47798870709255
 20
698.9513335714355
 30
0.0
  0
VERTEX
  5
2DD
100
AcDbEntity
  8
FAN70-1303
370
              15
390
0
  6
Continuous
 62
               7
100
AcDbVertex
100
AcDb2dVertex
 10
-364.50298622459252
 20
698.59893601043564
 30
0.0
  0
VERTEX
  5
2DE
100
AcDbEntity
  8
FAN70-1303
370
              15
390
0
  6
Continuous
 62
               7
100
AcDbVertex
100
AcDb2dVertex
 10
-369.4280071949928
 20
697.55348544223557
 30
0.0
  0
VERTEX
  5
2DF
100
AcDbEntity
  8
FAN70-1303
370
              15
390
0
  6
Continuous
 62
               7
100
AcDbVertex
100
AcDb2dVertex
 10
-375.03025613939258
 20
695.41425984003558
 30
0.0
  0
VERTEX
  5
2E0
100
AcDbEntity
  8
FAN70-1303
370
              15
390
0
  6
Continuous
 62
               7
100
AcDbVertex
100
AcDb2dVertex
 10
-380.18305532839247
 20
692.36253182983569
 30
0.0
  0
VERTEX
  5
2E1
100
AcDbEntity
  8
FAN70-1303
370
              15
390
0
  6
Continuous
 62
               7
100
AcDbVertex
100
AcDb2dVertex
 10
-384.64589163869266
 20
688.52986376383569
 30
0.0
  0
VERTEX
  5
2E2
100
AcDbEntity
  8
FAN70-1303
370
              15
390
0
  6
Continuous
 62
               7
100
AcDbVertex
100
AcDb2dVertex
 10
-388.36827248549264
 20
683.97954087353571
 30
0.0
  0
VERTEX
  5
2E3
100
AcDbEntity
  8
FAN70-1303
370
              15
390
0
  6
Continuous
 62
               7
100
AcDbVertex
100
AcDb2dVertex
 10
-391.10314779189264
 20
679.04651146033575
 30
0.0
  0
VERTEX
  5
2E4
100
AcDbEntity
  8
FAN70-1303
370
              15
390
0
  6
Continuous
 62
               7
100
AcDbVertex
100
AcDb2dVertex
 10
-392.92792163999275
 20
673.70572667223564
 30
0.0
  0
VERTEX
  5
2E5
100
AcDbEntity
  8
FAN70-1303
370
              15
390
0
  6
Continuous
 62
               7
100
AcDbVertex
100
AcDb2dVertex
 10
-393.7345363965926
 20
668.40743999583572
 30
0.0
  0
VERTEX
  5
2E6
100
AcDbEntity
  8
FAN70-1303
370
              15
390
0
  6
Continuous
 62
               7
100
AcDbVertex
100
AcDb2dVertex
 10
-393.62376116429266
 20
663.04443757633567
 30
0.0
  0
VERTEX
  5
2E7
100
AcDbEntity
  8
FAN70-1303
370
              15
390
0
  6
Continuous
 62
               7
100
AcDbVertex
100
AcDb2dVertex
 10
-392.62983508619266
 20
657.93283264733566
 30
0.0
  0
VERTEX
  5
2E8
100
AcDbEntity
  8
FAN70-1303
370
              15
390
0
  6
Continuous
 62
               7
100
AcDbVertex
100
AcDb2dVertex
 10
-390.81262357739263
 20
653.05080990893566
 30
0.0
  0
VERTEX
  5
2E9
100
AcDbEntity
  8
FAN70-1303
370
              15
390
0
  6
Continuous
 62
               7
100
AcDbVertex
100
AcDb2dVertex
 10
-388.18824969439265
 20
648.47797136403574
 30
0.0
  0
VERTEX
  5
2EA
100
AcDbEntity
  8
FAN70-1303
370
              15
390
0
  6
Continuous
 62
               7
100
AcDbVertex
100
AcDb2dVertex
 10
-384.86897319769253
 20
644.38135902983572
 30
0.0
  0
VERTEX
  5
2EB
100
AcDbEntity
  8
FAN70-1303
370
              15
390
0
  6
Continuous
 62
               7
100
AcDbVertex
100
AcDb2dVertex
 10
-380.76238639859275
 20
640.72082917793557
 30
0.0
  0
VERTEX
  5
2EC
100
AcDbEntity
  8
FAN70-1303
370
              15
390
0
  6
Continuous
 62
               7
100
AcDbVertex
100
AcDb2dVertex
 10
-376.12493083089259
 20
637.75998334983569
 30
0.0
  0
VERTEX
  5
2ED
100
AcDbEntity
  8
FAN70-1303
370
              15
390
0
  6
Continuous
 62
               7
100
AcDbVertex
100
AcDb2dVertex
 10
-370.82769748029261
 20
635.48560421563559
 30
0.0
  0
VERTEX
  5
2EE
100
AcDbEntity
  8
FAN70-1303
370
              15
390
0
  6
Continuous
 62
               7
100
AcDbVertex
100
AcDb2dVertex
 10
-365.23121295709268
 20
634.09642856223559
 30
0.0
  0
VERTEX
  5
2EF
100
AcDbEntity
  8
FAN70-1303
370
              15
390
0
  6
Continuous
 62
               7
100
AcDbVertex
100
AcDb2dVertex
 10
-359.47798870709255
 20
633.63048415283572
 30
0.0
  0
SEQEND
  5
2F0
100
AcDbEntity
  8
FAN70-1303
370
              15
390
0
  6
Continuous
 62
               7
  0
POLYLINE
  5
2F1
100
AcDbEntity
  8
FAN70-1303
370
              15
390
0
  6
Continuous
 62
               7
100
AcDb2dPolyline
 66
               1
 10
0.0
 20
0.0
 30
0.0
 75
               5
  0
VERTEX
  5
2F2
100
AcDbEntity
  8
FAN70-1303
370
              15
390
0
  6
Continuous
 62
               7
100
AcDbVertex
100
AcDb2dVertex
 10
-359.47798870709255
 20
688.8092456350355
 30
0.0
  0
VERTEX
  5
2F3
100
AcDbEntity
  8
FAN70-1303
370
              15
390
0
  6
Continuous
 62
               7
100
AcDbVertex
100
AcDb2dVertex
 10
-362.36590312999249
 20
688.62773459053551
 30
0.0
  0
VERTEX
  5
2F4
100
AcDbEntity
  8
FAN70-1303
370
              15
390
0
  6
Continuous
 62
               7
100
AcDbVertex
100
AcDb2dVertex
 10
-365.20827355069252
 20
688.0860326777356
 30
0.0
  0
VERTEX
  5
2F5
100
AcDbEntity
  8
FAN70-1303
370
              15
390
0
  6
Continuous
 62
               7
100
AcDbVertex
100
AcDb2dVertex
 10
-367.96027355109265
 20
687.19270806413567
 30
0.0
  0
VERTEX
  5
2F6
100
AcDbEntity
  8
FAN70-1303
370
              15
390
0
  6
Continuous
 62
               7
100
AcDbVertex
100
AcDb2dVertex
 10
-370.57850349899252
 20
685.96182744603561
 30
0.0
  0
VERTEX
  5
2F7
100
AcDbEntity
  8
FAN70-1303
370
              15
390
0
  6
Continuous
 62
               7
100
AcDbVertex
100
AcDb2dVertex
 10
-373.02167087999271
 20
684.41282193763573
 30
0.0
  0
VERTEX
  5
2F8
100
AcDbEntity
  8
FAN70-1303
370
              15
390
0
  6
Continuous
 62
               7
100
AcDbVertex
100
AcDb2dVertex
 10
-375.25124781039256
 20
682.57011454203575
 30
0.0
  0
VERTEX
  5
2F9
100
AcDbEntity
  8
FAN70-1303
370
              15
390
0
  6
Continuous
 62
               7
100
AcDbVertex
100
AcDb2dVertex
 10
-377.23206848119264
 20
680.46276252373571
 30
0.0
  0
VERTEX
  5
2FA
100
AcDbEntity
  8
FAN70-1303
370
              15
390
0
  6
Continuous
 62
               7
100
AcDbVertex
100
AcDb2dVertex
 10
-378.9328981956927
 20
678.12399547203563
 30
0.0
  0
VERTEX
  5
2FB
100
AcDbEntity
  8
FAN70-1303
370
              15
390
0
  6
Continuous
 62
               7
100
AcDbVertex
100
AcDb2dVertex
 10
-380.32691300129261
 20
675.59070866203569
 30
0.0
  0
VERTEX
  5
2FC
100
AcDbEntity
  8
FAN70-1303
370
              15
390
0
  6
Continuous
 62
               7
100
AcDbVertex
100
AcDb2dVertex
 10
-381.3921280970925
 20
672.90285210713569
 30
0.0
  0
VERTEX
  5
2FD
100
AcDbEntity
  8
FAN70-1303
370
              15
390
0
  6
Continuous
 62
               7
100
AcDbVertex
100
AcDb2dVertex
 10
-382.11174242409277
 20
670.10280470943576
 30
0.0
  0
VERTEX
  5
2FE
100
AcDbEntity
  8
FAN70-1303
370
              15
390
0
  6
Continuous
 62
               7
100
AcDbVertex
100
AcDb2dVertex
 10
-382.47441061049255
 20
667.23471860983557
 30
0.0
  0
VERTEX
  5
2FF
100
AcDbEntity
  8
FAN70-1303
370
              15
390
0
  6
Continuous
 62
               7
100
AcDbVertex
100
AcDb2dVertex
 10
-382.47441061049255
 20
664.34384863473565
 30
0.0
  0
VERTEX
  5
300
100
AcDbEntity
  8
FAN70-1303
370
              15
390
0
  6
Continuous
 62
               7
100
AcDbVertex
100
AcDb2dVertex
 10
-382.11174242409277
 20
661.47577743633565
 30
0.0
  0
VERTEX
  5
301
100
AcDbEntity
  8
FAN70-1303
370
              15
390
0
  6
Continuous
 62
               7
100
AcDbVertex
100
AcDb2dVertex
 10
-381.3921280970925
 20
658.67573003873565
 30
0.0
  0
VERTEX
  5
302
100
AcDbEntity
  8
FAN70-1303
370
              15
390
0
  6
Continuous
 62
               7
100
AcDbVertex
100
AcDb2dVertex
 10
-380.32691300129261
 20
655.98787348373571
 30
0.0
  0
VERTEX
  5
303
100
AcDbEntity
  8
FAN70-1303
370
              15
390
0
  6
Continuous
 62
               7
100
AcDbVertex
100
AcDb2dVertex
 10
-378.9328981956927
 20
653.45457177263575
 30
0.0
  0
VERTEX
  5
304
100
AcDbEntity
  8
FAN70-1303
370
              15
390
0
  6
Continuous
 62
               7
100
AcDbVertex
100
AcDb2dVertex
 10
-377.23206848119264
 20
651.11581962203559
 30
0.0
  0
VERTEX
  5
305
100
AcDbEntity
  8
FAN70-1303
370
              15
390
0
  6
Continuous
 62
               7
100
AcDbVertex
100
AcDb2dVertex
 10
-375.25124781039256
 20
649.00846760373565
 30
0.0
  0
VERTEX
  5
306
100
AcDbEntity
  8
FAN70-1303
370
              15
390
0
  6
Continuous
 62
               7
100
AcDbVertex
100
AcDb2dVertex
 10
-373.02167087999271
 20
647.16574530703565
 30
0.0
  0
VERTEX
  5
307
100
AcDbEntity
  8
FAN70-1303
370
              15
390
0
  6
Continuous
 62
               7
100
AcDbVertex
100
AcDb2dVertex
 10
-370.57850349899252
 20
645.61673979863554
 30
0.0
  0
VERTEX
  5
308
100
AcDbEntity
  8
FAN70-1303
370
              15
390
0
  6
Continuous
 62
               7
100
AcDbVertex
100
AcDb2dVertex
 10
-367.96027355109265
 20
644.38587408163573
 30
0.0
  0
VERTEX
  5
309
100
AcDbEntity
  8
FAN70-1303
370
              15
390
0
  6
Continuous
 62
               7
100
AcDbVertex
100
AcDb2dVertex
 10
-365.20827355069252
 20
643.49254946803569
 30
0.0
  0
VERTEX
  5
30A
100
AcDbEntity
  8
FAN70-1303
370
              15
390
0
  6
Continuous
 62
               7
100
AcDbVertex
100
AcDb2dVertex
 10
-362.36590312999249
 20
642.95084755523555
 30
0.0
  0
VERTEX
  5
30B
100
AcDbEntity
  8
FAN70-1303
370
              15
390
0
  6
Continuous
 62
               7
100
AcDbVertex
100
AcDb2dVertex
 10
-359.47798870709255
 20
642.76933651073557
 30
0.0
  0
VERTEX
  5
30C
100
AcDbEntity
  8
FAN70-1303
370
              15
390
0
  6
Continuous
 62
               7
100
AcDbVertex
100
AcDb2dVertex
 10
-356.59007428419272
 20
642.95084755523555
 30
0.0
  0
VERTEX
  5
30D
100
AcDbEntity
  8
FAN70-1303
370
              15
390
0
  6
Continuous
 62
               7
100
AcDbVertex
100
AcDb2dVertex
 10
-353.74770386349257
 20
643.49254946803569
 30
0.0
  0
VERTEX
  5
30E
100
AcDbEntity
  8
FAN70-1303
370
              15
390
0
  6
Continuous
 62
               7
100
AcDbVertex
100
AcDb2dVertex
 10
-350.99570386319249
 20
644.38587408163573
 30
0.0
  0
VERTEX
  5
30F
100
AcDbEntity
  8
FAN70-1303
370
              15
390
0
  6
Continuous
 62
               7
100
AcDbVertex
100
AcDb2dVertex
 10
-348.37747391519258
 20
645.61673979863554
 30
0.0
  0
VERTEX
  5
310
100
AcDbEntity
  8
FAN70-1303
370
              15
390
0
  6
Continuous
 62
               7
100
AcDbVertex
100
AcDb2dVertex
 10
-345.93430653419261
 20
647.16574530703565
 30
0.0
  0
VERTEX
  5
311
100
AcDbEntity
  8
FAN70-1303
370
              15
390
0
  6
Continuous
 62
               7
100
AcDbVertex
100
AcDb2dVertex
 10
-343.70472960379254
 20
649.00846760373565
 30
0.0
  0
VERTEX
  5
312
100
AcDbEntity
  8
FAN70-1303
370
              15
390
0
  6
Continuous
 62
               7
100
AcDbVertex
100
AcDb2dVertex
 10
-341.7239089330925
 20
651.11581962203559
 30
0.0
  0
VERTEX
  5
313
100
AcDbEntity
  8
FAN70-1303
370
              15
390
0
  6
Continuous
 62
               7
100
AcDbVertex
100
AcDb2dVertex
 10
-340.02307921859256
 20
653.45457177263575
 30
0.0
  0
VERTEX
  5
314
100
AcDbEntity
  8
FAN70-1303
370
              15
390
0
  6
Continuous
 62
               7
100
AcDbVertex
100
AcDb2dVertex
 10
-338.62906441299265
 20
655.98787348373571
 30
0.0
  0
VERTEX
  5
315
100
AcDbEntity
  8
FAN70-1303
370
              15
390
0
  6
Continuous
 62
               7
100
AcDbVertex
100
AcDb2dVertex
 10
-337.56384931719253
 20
658.67573003873565
 30
0.0
  0
VERTEX
  5
316
100
AcDbEntity
  8
FAN70-1303
370
              15
390
0
  6
Continuous
 62
               7
100
AcDbVertex
100
AcDb2dVertex
 10
-336.84423499019249
 20
661.47577743633565
 30
0.0
  0
VERTEX
  5
317
100
AcDbEntity
  8
FAN70-1303
370
              15
390
0
  6
Continuous
 62
               7
100
AcDbVertex
100
AcDb2dVertex
 10
-336.48156680379259
 20
664.34384863473565
 30
0.0
  0
VERTEX
  5
318
100
AcDbEntity
  8
FAN70-1303
370
              15
390
0
  6
Continuous
 62
               7
100
AcDbVertex
100
AcDb2dVertex
 10
-336.48156680379259
 20
667.23471860983557
 30
0.0
  0
VERTEX
  5
319
100
AcDbEntity
  8
FAN70-1303
370
              15
390
0
  6
Continuous
 62
               7
100
AcDbVertex
100
AcDb2dVertex
 10
-336.84423499019249
 20
670.10280470943576
 30
0.0
  0
VERTEX
  5
31A
100
AcDbEntity
  8
FAN70-1303
370
              15
390
0
  6
Continuous
 62
               7
100
AcDbVertex
100
AcDb2dVertex
 10
-337.56384931719253
 20
672.90285210713569
 30
0.0
  0
VERTEX
  5
31B
100
AcDbEntity
  8
FAN70-1303
370
              15
390
0
  6
Continuous
 62
               7
100
AcDbVertex
100
AcDb2dVertex
 10
-338.62906441299265
 20
675.59070866203569
 30
0.0
  0
VERTEX
  5
31C
100
AcDbEntity
  8
FAN70-1303
370
              15
390
0
  6
Continuous
 62
               7
100
AcDbVertex
100
AcDb2dVertex
 10
-340.02307921859256
 20
678.12399547203563
 30
0.0
  0
VERTEX
  5
31D
100
AcDbEntity
  8
FAN70-1303
370
              15
390
0
  6
Continuous
 62
               7
100
AcDbVertex
100
AcDb2dVertex
 10
-341.7239089330925
 20
680.46276252373571
 30
0.0
  0
VERTEX
  5
31E
100
AcDbEntity
  8
FAN70-1303
370
              15
390
0
  6
Continuous
 62
               7
100
AcDbVertex
100
AcDb2dVertex
 10
-343.70472960379254
 20
682.57011454203575
 30
0.0
  0
VERTEX
  5
31F
100
AcDbEntity
  8
FAN70-1303
370
              15
390
0
  6
Continuous
 62
               7
100
AcDbVertex
100
AcDb2dVertex
 10
-345.93430653419261
 20
684.41282193763573
 30
0.0
  0
VERTEX
  5
320
100
AcDbEntity
  8
FAN70-1303
370
              15
390
0
  6
Continuous
 62
               7
100
AcDbVertex
100
AcDb2dVertex
 10
-348.37747391519258
 20
685.96182744603561
 30
0.0
  0
VERTEX
  5
321
100
AcDbEntity
  8
FAN70-1303
370
              15
390
0
  6
Continuous
 62
               7
100
AcDbVertex
100
AcDb2dVertex
 10
-350.99570386319249
 20
687.19270806413567
 30
0.0
  0
VERTEX
  5
322
100
AcDbEntity
  8
FAN70-1303
370
              15
390
0
  6
Continuous
 62
               7
100
AcDbVertex
100
AcDb2dVertex
 10
-353.74770386349257
 20
688.0860326777356
 30
0.0
  0
VERTEX
  5
323
100
AcDbEntity
  8
FAN70-1303
370
              15
390
0
  6
Continuous
 62
               7
100
AcDbVertex
100
AcDb2dVertex
 10
-356.59007428419272
 20
688.62773459053551
 30
0.0
  0
VERTEX
  5
324
100
AcDbEntity
  8
FAN70-1303
370
              15
390
0
  6
Continuous
 62
               7
100
AcDbVertex
100
AcDb2dVertex
 10
-359.47798870709255
 20
688.8092456350355
 30
0.0
  0
SEQEND
  5
325
100
AcDbEntity
  8
FAN70-1303
370
              15
390
0
  6
Continuous
 62
               7
  0
LINE
  5
326
100
AcDbEntity
  8
FAN70-1303
370
              15
390
0
  6
STYLE_05
 62
               7
100
AcDbLine
 10
714.24115075817986
 20
-513.75202538913538
 30
0.0
 11
706.39158149489799
 21
-522.31833043043537
 31
0.0
  0
LINE
  5
327
100
AcDbEntity
  8
FAN70-1303
370
              15
390
0
  6
STYLE_05
 62
               7
100
AcDbLine
 10
656.33109865993617
 20
-522.31833043043537
 30
0.0
 11
646.22684523564408
 21
-512.21407700614327
 31
0.0
  0
LINE
  5
328
100
AcDbEntity
  8
FAN70-1303
370
              15
390
0
  6
Continuous
 62
               7
100
AcDbLine
 10
455.45018687007985
 20
-504.0498197312354
 30
0.0
 11
850.45018687007985
 21
-504.0498197312354
 31
0.0
  0
ARC
  5
329
100
AcDbEntity
  8
FAN70-1303
370
              15
390
0
  6
Continuous
 62
               7
100
AcDbCircle
 10
851.95018687007973
 20
-382.5498197312354
 30
0.0
 40
3.5
100
AcDbArc
 50
0.0
 51
90.0
  0
LINE
  5
32A
100
AcDbEntity
  8
FAN70-1303
370
              15
390
0
  6
Continuous
 62
               7
100
AcDbLine
 10
851.95018687007973
 20
-379.0498197312354
 30
0.0
 11
850.45018687007985
 21
-379.0498197312354
 31
0.0
  0
LINE
  5
32B
100
AcDbEntity
  8
FAN70-1303
370
              15
390
0
  6
Continuous
 62
               7
100
AcDbLine
 10
850.45018687007985
 20
-504.0498197312354
 30
0.0
 11
851.95018687007973
 21
-504.0498197312354
 31
0.0
  0
ARC
  5
32C
100
AcDbEntity
  8
FAN70-1303
370
              15
390
0
  6
Continuous
 62
               7
100
AcDbCircle
 10
851.95018687007973
 20
-500.5498197312354
 30
0.0
 40
3.5
100
AcDbArc
 50
270.0
 51
0.0
  0
LINE
  5
32D
100
AcDbEntity
  8
FAN70-1303
370
              15
390
0
  6
Continuous
 62
               7
100
AcDbLine
 10
850.45018687007985
 20
-379.0498197312354
 30
0.0
 11
455.45018687007985
 21
-379.0498197312354
 31
0.0
  0
LINE
  5
32E
100
AcDbEntity
  8
FAN70-1303
370
              15
390
0
  6
Continuous
 62
               7
100
AcDbLine
 10
855.45018687007973
 20
-500.5498197312354
 30
0.0
 11
855.45018687007973
 21
-382.5498197312354
 31
0.0
  0
LINE
  5
32F
100
AcDbEntity
  8
FAN70-1303
370
              15
390
0
  6
Continuous
 62
               7
100
AcDbLine
 10
450.45018687007985
 20
-382.5498197312354
 30
0.0
 11
450.45018687007985
 21
-500.5498197312354
 31
0.0
  0
LINE
  5
330
100
AcDbEntity
  8
FAN70-1303
370
              15
390
0
  6
Continuous
 62
               7
100
AcDbLine
 10
455.45018687007985
 20
-379.0498197312354
 30
0.0
 11
453.95018687007985
 21
-379.0498197312354
 31
0.0
  0
ARC
  5
331
100
AcDbEntity
  8
FAN70-1303
370
              15
390
0
  6
Continuous
 62
               7
100
AcDbCircle
 10
453.95018687007985
 20
-382.5498197312354
 30
0.0
 40
3.5
100
AcDbArc
 50
90.0
 51
180.0
  0
LINE
  5
332
100
AcDbEntity
  8
FAN70-1303
370
              15
390
0
  6
Continuous
 62
               7
100
AcDbLine
 10
453.95018687007985
 20
-504.0498197312354
 30
0.0
 11
455.45018687007985
 21
-504.0498197312354
 31
0.0
  0
ARC
  5
333
100
AcDbEntity
  8
FAN70-1303
370
              15
390
0
  6
Continuous
 62
               7
100
AcDbCircle
 10
453.95018687007985
 20
-500.5498197312354
 30
0.0
 40
3.5
100
AcDbArc
 50
180.0
 51
270.0
  0
ARC
  5
334
100
AcDbEntity
  8
FAN70-1303
370
              15
390
0
  6
Continuous
 62
               7
100
AcDbCircle
 10
732.9378168283547
 20
-490.52046323599006
 30
0.0
 40
21.499999999999993
100
AcDbArc
 50
267.50000000000006
 51
321.41098109806558
  0
ARC
  5
335
100
AcDbEntity
  8
FAN70-1303
370
              15
390
0
  6
Continuous
 62
               7
100
AcDbCircle
 10
518.1966723375798
 20
-483.67205387513559
 30
0.0
 40
21.499999999999929
100
AcDbArc
 50
251.40622585680012
 51
267.50000000000006
  0
POLYLINE
  5
336
100
AcDbEntity
  8
FAN70-1303
370
              15
390
0
  6
Continuous
 62
               7
100
AcDb2dPolyline
 66
               1
 10
0.0
 20
0.0
 30
0.0
 75
               5
  0
VERTEX
  5
337
100
AcDbEntity
  8
FAN70-1303
370
              15
390
0
  6
Continuous
 62
               7
100
AcDbVertex
100
AcDb2dVertex
 10
645.0
 20
-512.21407700614327
 30
0.0
  0
VERTEX
  5
338
100
AcDbEntity
  8
FAN70-1303
370
              15
390
0
  6
Continuous
 62
               7
100
AcDbVertex
100
AcDb2dVertex
 10
597.86790676814314
 20
-509.60825885838028
 30
0.0
  0
VERTEX
  5
339
100
AcDbEntity
  8
FAN70-1303
370
              15
390
0
  6
Continuous
 62
               7
100
AcDbVertex
100
AcDb2dVertex
 10
517.25885643718095
 20
-505.15159668873537
 30
0.0
  0
SEQEND
  5
33A
100
AcDbEntity
  8
FAN70-1303
370
              15
390
0
  6
Continuous
 62
               7
  0
LINE
  5
33B
100
AcDbEntity
  8
FAN70-1303
370
              15
390
0
  6
Continuous
 62
               7
100
AcDbLine
 10
787.45018687007973
 20
-379.0498197312354
 30
0.0
 11
787.45018687007973
 21
-394.0498197312354
 31
0.0
  0
LINE
  5
33C
100
AcDbEntity
  8
FAN70-1303
370
              15
390
0
  6
Continuous
 62
               7
100
AcDbLine
 10
823.45018687007973
 20
-379.0498197312354
 30
0.0
 11
823.45018687007973
 21
-394.0498197312354
 31
0.0
  0
CIRCLE
  5
33D
100
AcDbEntity
  8
FAN70-1303
370
              15
390
0
  6
STYLE_12
 62
               7
100
AcDbCircle
 10
-499.47798870709255
 20
-441.5498197312354
 30
0.0
 40
10.0
  0
LINE
  5
33E
100
AcDbEntity
  8
FAN70-1303
370
              15
390
0
  6
STYLE_12
 62
               7
100
AcDbLine
 10
-499.47798870709255
 20
-461.5498197312354
 30
0.0
 11
-499.47798870709255
 21
-421.5498197312354
 31
0.0
  0
LINE
  5
33F
100
AcDbEntity
  8
FAN70-1303
370
              15
390
0
  6
STYLE_12
 62
               7
100
AcDbLine
 10
-479.47798870709255
 20
-441.5498197312354
 30
0.0
 11
-519.47798870709255
 21
-441.5498197312354
 31
0.0
  0
CIRCLE
  5
340
100
AcDbEntity
  8
FAN70-1303
370
              15
390
0
  6
STYLE_12
 62
               7
100
AcDbCircle
 10
-219.47798870709258
 20
-441.5498197312354
 30
0.0
 40
10.0
  0
LINE
  5
341
100
AcDbEntity
  8
FAN70-1303
370
              15
390
0
  6
STYLE_12
 62
               7
100
AcDbLine
 10
-219.47798870709258
 20
-461.5498197312354
 30
0.0
 11
-219.47798870709258
 21
-421.5498197312354
 31
0.0
  0
LINE
  5
342
100
AcDbEntity
  8
FAN70-1303
370
              15
390
0
  6
STYLE_12
 62
               7
100
AcDbLine
 10
-199.47798870709258
 20
-441.5498197312354
 30
0.0
 11
-239.47798870709258
 21
-441.5498197312354
 31
0.0
  0
CIRCLE
  5
343
100
AcDbEntity
  8
FAN70-1303
370
              15
390
0
  6
STYLE_12
 62
               7
100
AcDbCircle
 10
-1.9779887070926918
 20
-479.02320312204529
 30
0.0
 40
10.0
  0
LINE
  5
344
100
AcDbEntity
  8
FAN70-1303
370
              15
390
0
  6
STYLE_12
 62
               7
100
AcDbLine
 10
-1.9779887070926918
 20
-499.02320312204529
 30
0.0
 11
-1.9779887070926918
 21
-459.02320312204529
 31
0.0
  0
CIRCLE
  5
345
100
AcDbEntity
  8
FAN70-1303
370
              15
390
0
  6
STYLE_12
 62
               7
100
AcDbCircle
 10
-1.9779887070926918
 20
-404.02320312204529
 30
0.0
 40
10.0
  0
LINE
  5
346
100
AcDbEntity
  8
FAN70-1303
370
              15
390
0
  6
STYLE_12
 62
               7
100
AcDbLine
 10
-1.9779887070926918
 20
-424.02320312204529
 30
0.0
 11
-1.9779887070926918
 21
-384.02320312204529
 31
0.0
  0
CIRCLE
  5
347
100
AcDbEntity
  8
FAN70-1303
370
              15
390
0
  6
STYLE_12
 62
               7
100
AcDbCircle
 10
-716.97798870709266
 20
-479.02320312204529
 30
0.0
 40
10.0
  0
LINE
  5
348
100
AcDbEntity
  8
FAN70-1303
370
              15
390
0
  6
STYLE_12
 62
               7
100
AcDbLine
 10
-716.97798870709266
 20
-499.02320312204529
 30
0.0
 11
-716.97798870709266
 21
-459.02320312204529
 31
0.0
  0
LINE
  5
349
100
AcDbEntity
  8
FAN70-1303
370
              15
390
0
  6
STYLE_12
 62
               7
100
AcDbLine
 10
-696.97798870709266
 20
-479.02320312204529
 30
0.0
 11
-736.97798870709266
 21
-479.02320312204529
 31
0.0
  0
CIRCLE
  5
34A
100
AcDbEntity
  8
FAN70-1303
370
              15
390
0
  6
STYLE_12
 62
               7
100
AcDbCircle
 10
-716.97798870709266
 20
-404.02320312204529
 30
0.0
 40
10.0
  0
LINE
  5
34B
100
AcDbEntity
  8
FAN70-1303
370
              15
390
0
  6
STYLE_12
 62
               7
100
AcDbLine
 10
-716.97798870709266
 20
-424.02320312204529
 30
0.0
 11
-716.97798870709266
 21
-384.02320312204529
 31
0.0
  0
LINE
  5
34C
100
AcDbEntity
  8
FAN70-1303
370
              15
390
0
  6
STYLE_12
 62
               7
100
AcDbLine
 10
-696.97798870709266
 20
-404.02320312204529
 30
0.0
 11
-736.97798870709266
 21
-404.02320312204529
 31
0.0
  0
ARC
  5
34D
100
AcDbEntity
  8
FAN70-1303
370
              15
390
0
  6
Continuous
 62
               7
100
AcDbCircle
 10
-359.55341536379342
 20
-240.82996323290854
 30
0.0
 40
273.83111446027522
100
AcDbArc
 50
263.07195512094557
 51
276.9634702123634
  0
LINE
  5
34E
100
AcDbEntity
  8
FAN70-1303
370
              15
390
0
  6
STYLE_12
 62
               7
100
AcDbLine
 10
656.18587507957989
 20
-522.31833043043537
 30
0.0
 11
706.39158149489799
 21
-522.31833043043537
 31
0.0
  0
ARC
  5
34F
100
AcDbEntity
  8
FAN70-1303
370
              15
390
0
  6
STYLE_12
 62
               7
100
AcDbCircle
 10
516.63092817241511
 20
-483.30297288518261
 30
0.0
 40
18.840287171468439
100
AcDbArc
 50
187.2395386975831
 51
270.6193909568089
  0
LINE
  5
350
100
AcDbEntity
  8
FAN70-1303
370
              15
390
0
  6
STYLE_12
 62
               7
100
AcDbLine
 10
498.14093693250254
 20
-486.10865052290501
 30
0.0
 11
495.25597395564716
 21
-381.37044659055084
 31
0.0
  0
LINE
  5
351
100
AcDbEntity
  8
FAN70-1303
370
              15
390
0
  6
STYLE_12
 62
               7
100
AcDbLine
 10
516.8169713325708
 20
-501.80218647299466
 30
0.0
 11
647.52272143117989
 21
-510.83902718973548
 31
0.0
  0
LINE
  5
352
100
AcDbEntity
  8
FAN70-1303
370
              15
390
0
  6
STYLE_12
 62
               7
100
AcDbLine
 10
755.74498594832096
 20
-381.72706477075076
 30
0.0
 11
750.90206812073495
 21
-491.02084031662264
 31
0.0
  0
ARC
  5
353
100
AcDbEntity
  8
FAN70-1303
370
              15
390
0
  6
STYLE_12
 62
               7
100
AcDbCircle
 10
730.93162510660557
 20
-490.6723051965007
 30
0.0
 40
19.62228448370508
100
AcDbArc
 50
266.50628937604824
 51
355.40547121621319
  0
LINE
  5
354
100
AcDbEntity
  8
FAN70-1303
370
              15
390
0
  6
STYLE_12
 62
               7
100
AcDbLine
 10
730.0
 20
-510.50408648589632
 30
0.0
 11
713.25445388623245
 21
-510.50408648589632
 31
0.0
  0
LINE
  5
355
100
AcDbEntity
  8
FAN70-1303
370
              15
390
0
  6
STYLE_12
 62
               7
100
AcDbLine
 10
497.4120346201131
 20
-379.0498197312354
 30
0.0
 11
479.4120346201131
 21
-379.0498197312354
 31
0.0
  0
ARC
  5
356
100
AcDbEntity
  8
FAN70-1303
370
              15
390
0
  6
STYLE_12
 62
               7
100
AcDbCircle
 10
491.30071436061655
 20
-383.0498197312354
 30
0.0
 40
3.9999999999999631
100
AcDbArc
 50
1.5777854881537827
 51
90.0
  0
ARC
  5
357
100
AcDbEntity
  8
FAN70-1303
370
              15
390
0
  6
STYLE_12
 62
               7
100
AcDbCircle
 10
-359.5
 20
-212.90494382321765
 30
0.0
 40
299.3295962759351
100
AcDbArc
 50
213.71461515937074
 51
326.28538484062926
  0
LINE
  5
358
100
AcDbEntity
  8
FAN70-1303
370
              15
390
0
  6
STYLE_12
 62
               7
100
AcDbLine
 10
18.022011292907308
 20
-404.02320312204529
 30
0.0
 11
-21.977988707092692
 21
-404.02320312204529
 31
0.0
  0
LINE
  5
359
100
AcDbEntity
  8
FAN70-1303
370
              15
390
0
  6
STYLE_12
 62
               7
100
AcDbLine
 10
18.022011292907308
 20
-479.02320312204529
 30
0.0
 11
-21.977988707092692
 21
-479.02320312204529
 31
0.0
  0
LINE
  5
35A
100
AcDbEntity
  8
FAN70-1303
370
              15
390
0
  6
STYLE_12
 62
               7
100
AcDbLine
 10
648.8957465757079
 20
-512.21407700614327
 30
0.0
 11
659.0
 21
-522.31833043043537
 31
0.0
  0
LINE
  5
35B
100
AcDbEntity
  8
FAN70-1303
370
              15
390
0
  6
STYLE_12
 62
               7
100
AcDbLine
 10
713.25445388623245
 20
-511.21989640714003
 30
0.0
 11
703.0
 21
-522.31833043043537
 31
0.0
  0
LINE
  5
35C
100
AcDbEntity
  8
FAN70-1303
370
              15
390
0
  6
STYLE_12
 62
               7
100
AcDbLine
 10
-384.46700878649267
 20
-522.3183304305353
 30
0.0
 11
-334.48896862779259
 21
-522.3183304305353
 31
0.0
  0
LINE
  5
35D
100
AcDbEntity
  8
FAN70-1303
370
              15
390
0
  6
STYLE_12
 62
               7
100
AcDbLine
 10
-336.47798870714269
 20
-522.3183304305353
 30
0.0
 11
-327.0
 21
-510.4649498837
 31
0.0
  0
LINE
  5
35E
100
AcDbEntity
  8
FAN70-1303
370
              15
390
0
  6
STYLE_12
 62
               7
100
AcDbLine
 10
-382.47798870714269
 20
-522.3183304305353
 30
0.0
 11
-392.00000000000114
 21
-510.4649498837
 31
0.0
  0
ENDSEC
  0
SECTION
  2
OBJECTS
  0
DICTIONARY
  5
19
100
AcDbDictionary
280
               0
281
               1
  3
ACAD_GROUP
350
1A
  3
ACAD_MLINESTYLE
350
1B
  3
ACAD_LAYOUT
350
1E
  3
ACAD_PLOTSETTINGS
350
22
  3
ACAD_PLOTSTYLENAME
350
1F
  0
DICTIONARY
  5
1A
102
{ACAD_REACTORS
330
19
102
}
100
AcDbDictionary
280
               0
281
               1
  0
DICTIONARY
  5
1B
102
{ACAD_REACTORS
330
19
102
}
100
AcDbDictionary
280
               0
281
               1
  3
Standard
350
1C
  0
MLINESTYLE
  5
1C
102
{ACAD_REACTORS
330
1B
102
}
100
AcDbMlineStyle
  2
Standard
 70
               0
  3

 62
               0
 51
90.0
 52
90.0
 71
               2
 49
0.5
 62
             256
  6
ByLayer
 49
-0.5
 62
             256
  6
ByLayer
  0
ACDBDICTIONARYWDFLT
  5
1F
102
{ACAD_REACTORS
330
19
102
}
100
AcDbDictionary
281
               1
  3
Normal
350
1D
100
AcDbDictionaryWithDefault
340
1D
  0
ACDBPLACEHOLDER
  5
1D
102
{ACAD_REACTORS
330
1F
102
}
  0
LAYOUT
  5
20
102
{ACAD_REACTORS
330
1E
102
}
100
AcDbPlotSettings
  1

  2

  4

  6

 40
0.0
 41
0.0
 42
0.0
 43
0.0
 44
0.0
 45
0.0
 46
0.0
 47
0.0
 48
0.0
 49
0.0
140
0.0
141
0.0
142
1.0
143
1.0
 70
            1024
 72
               0
 73
               0
 74
               0
  7

 75
               0
147
1.0
148
0.0
149
0.0
100
AcDbLayout
  1
Model
 70
               0
 71
               0
 10
0.0
 20
0.0
 11
0.0
 21
0.0
 12
0.0
 22
0.0
 32
0.0
 14
0.0
 24
0.0
 34
0.0
 15
0.0
 25
0.0
 35
0.0
146
0.0
 13
0.0
 23
0.0
 33
0.0
 16
0.0
 26
0.0
 36
0.0
 17
0.0
 27
0.0
 37
0.0
 76
               0
330
A
331
0
345
0
346
0
  0
LAYOUT
  5
21
102
{ACAD_REACTORS
330
1E
102
}
100
AcDbPlotSettings
  1

  2

  4

  6

 40
0.0
 41
0.0
 42
0.0
 43
0.0
 44
0.0
 45
0.0
 46
0.0
 47
0.0
 48
0.0
 49
0.0
140
0.0
141
0.0
142
1.0
143
1.0
 70
               0
 72
               0
 73
               0
 74
               0
  7

 75
               0
147
1.0
148
0.0
149
0.0
100
AcDbLayout
  1
Layout1
 70
               0
 71
               0
 10
0.0
 20
0.0
 11
0.0
 21
0.0
 12
0.0
 22
0.0
 32
0.0
 14
0.0
 24
0.0
 34
0.0
 15
0.0
 25
0.0
 35
0.0
146
0.0
 13
0.0
 23
0.0
 33
0.0
 16
0.0
 26
0.0
 36
0.0
 17
0.0
 27
0.0
 37
0.0
 76
               0
330
B
331
0
345
0
346
0
  0
DICTIONARY
  5
1E
102
{ACAD_REACTORS
330
19
102
}
100
AcDbDictionary
280
               0
281
               1
  3
Layout1
350
21
  3
Model
350
20
  0
DICTIONARY
  5
22
102
{ACAD_REACTORS
330
19
102
}
100
AcDbDictionary
280
               0
281
               1
  0
ENDSEC
  0
EOF
