  0
SECTION
  2
HEADER
  9
$ACADVER
  1
AC1015
  9
$ACADMAINTVER
 70
               6
  9
$DWGCODEPAGE
  3
ANSI_932
  9
$INSBASE
 10
0.0
 20
0.0
 30
0.0
  9
$EXTMIN
 10
-975.00000000024124
 20
-1431.5255224711127
 30
-14.428611111111111
  9
$EXTMAX
 10
975.00000000024124
 20
1405.9972926412997
 30
14.428611111111111
  9
$LIMMIN
 10
0.0
 20
0.0
  9
$LIMMAX
 10
0.0
 20
0.0
  9
$ORTHOMODE
 70
               0
  9
$REGENMODE
 70
               1
  9
$FILLMODE
 70
               1
  9
$QTEXTMODE
 70
               0
  9
$MIRRTEXT
 70
               1
  9
$LTSCALE
 40
50.799999999999997
  9
$ATTMODE
 70
               1
  9
$TEXTSIZE
 40
0.2
  9
$TRACEWID
 40
1.0
  9
$TEXTSTYLE
  7
Standard
  9
$CLAYER
  8
notes
  9
$CELTYPE
  6
Continuous
  9
$CECOLOR
 62
             256
  9
$CELTSCALE
 40
1.0
  9
$DISPSILH
 70
               0
  9
$DIMSCALE
 40
1.0
  9
$DIMASZ
 40
31.75
  9
$DIMEXO
 40
0.0
  9
$DIMDLI
 40
6.9999999999999396
  9
$DIMRND
 40
0.0
  9
$DIMDLE
 40
0.0
  9
$DIMEXE
 40
19.999999999996199
  9
$DIMTP
 40
0.0
  9
$DIMTM
 40
0.0
  9
$DIMTXT
 40
24.432617187500004
  9
$DIMCEN
 40
0.0
  9
$DIMTSZ
 40
0.0
  9
$DIMTOL
 70
               0
  9
$DIMLIM
 70
               0
  9
$DIMTIH
 70
               0
  9
$DIMTOH
 70
               0
  9
$DIMSE1
 70
               0
  9
$DIMSE2
 70
               0
  9
$DIMTAD
 70
               1
  9
$DIMZIN
 70
              11
  9
$DIMBLK
  1
VW_FILLEDARROW
  9
$DIMASO
 70
               1
  9
$DIMSHO
 70
               1
  9
$DIMPOST
  1
<>
  9
$DIMAPOST
  1
[]
  9
$DIMALT
 70
               0
  9
$DIMALTD
 70
               1
  9
$DIMALTF
 40
1.0
  9
$DIMLFAC
 40
1.0
  9
$DIMTOFL
 70
               0
  9
$DIMTVP
 40
0.0
  9
$DIMTIX
 70
               1
  9
$DIMSOXD
 70
               0
  9
$DIMSAH
 70
               0
  9
$DIMBLK1
  1

  9
$DIMBLK2
  1

  9
$DIMSTYLE
  2
JIS
  9
$DIMCLRD
 70
               0
  9
$DIMCLRE
 70
               0
  9
$DIMCLRT
 70
               0
  9
$DIMTFAC
 40
1.0
  9
$DIMGAP
 40
1.00000000000108
  9
$DIMJUST
 70
               0
  9
$DIMSD1
 70
               0
  9
$DIMSD2
 70
               0
  9
$DIMTOLJ
 70
               1
  9
$DIMTZIN
 70
              11
  9
$DIMALTZ
 70
              11
  9
$DIMALTTZ
 70
              11
  9
$DIMUPT
 70
               0
  9
$DIMDEC
 70
               1
  9
$DIMTDEC
 70
               1
  9
$DIMALTU
 70
               2
  9
$DIMALTTD
 70
               2
  9
$DIMTXSTY
  7
ＭＳ ゴシック
  9
$DIMAUNIT
 70
               0
  9
$DIMADEC
 70
               2
  9
$DIMALTRND
 40
0.0
  9
$DIMAZIN
 70
               0
  9
$DIMDSEP
 70
              46
  9
$DIMATFIT
 70
               0
  9
$DIMFRAC
 70
               2
  9
$DIMLDRBLK
  1

  9
$DIMLUNIT
 70
               2
  9
$DIMLWD
 70
              -2
  9
$DIMLWE
 70
              -2
  9
$DIMTMOVE
 70
               0
  9
$LUNITS
 70
               2
  9
$LUPREC
 70
               4
  9
$SKETCHINC
 40
0.1
  9
$FILLETRAD
 40
0.0
  9
$AUNITS
 70
               0
  9
$AUPREC
 70
               0
  9
$MENU
  1
acad
  9
$ELEVATION
 40
0.0
  9
$PELEVATION
 40
0.0
  9
$THICKNESS
 40
0.0
  9
$LIMCHECK
 70
               0
  9
$CHAMFERA
 40
0.0
  9
$CHAMFERB
 40
0.0
  9
$CHAMFERC
 40
0.0
  9
$CHAMFERD
 40
0.0
  9
$SKPOLY
 70
               0
  9
$TDCREATE
 40
2456066.704618055
  9
$TDUCREATE
 40
0.000000000
  9
$TDUPDATE
 40
2456066.704618055
  9
$TDUUPDATE
 40
0.000000000
  9
$TDINDWG
 40
0.0000000000
  9
$TDUSRTIMER
 40
0.0000000000
  9
$USRTIMER
 70
               1
  9
$ANGBASE
 50
0.0
  9
$ANGDIR
 70
               0
  9
$PDMODE
 70
               1
  9
$PDSIZE
 40
-2.0
  9
$PLINEWID
 40
0.0
  9
$SPLFRAME
 70
               0
  9
$SPLINETYPE
 70
               6
  9
$SPLINESEGS
 70
               8
  9
$HANDSEED
  5
36F
  9
$SURFTAB1
 70
               6
  9
$SURFTAB2
 70
               6
  9
$SURFTYPE
 70
               6
  9
$SURFU
 70
               6
  9
$SURFV
 70
               6
  9
$UCSBASE
  2

  9
$UCSNAME
  2

  9
$UCSORG
 10
0.0
 20
0.0
 30
0.0
  9
$UCSXDIR
 10
1.0
 20
0.0
 30
0.0
  9
$UCSYDIR
 10
0.0
 20
1.0
 30
0.0
  9
$UCSORTHOREF
  2

  9
$UCSORTHOVIEW
 70
               0
  9
$UCSORGTOP
 10
0.0
 20
0.0
 30
0.0
  9
$UCSORGBOTTOM
 10
0.0
 20
0.0
 30
0.0
  9
$UCSORGLEFT
 10
0.0
 20
0.0
 30
0.0
  9
$UCSORGRIGHT
 10
0.0
 20
0.0
 30
0.0
  9
$UCSORGFRONT
 10
0.0
 20
0.0
 30
0.0
  9
$UCSORGBACK
 10
0.0
 20
0.0
 30
0.0
  9
$PUCSBASE
  2

  9
$PUCSNAME
  2

  9
$PUCSORG
 10
0.0
 20
0.0
 30
0.0
  9
$PUCSXDIR
 10
1.0
 20
0.0
 30
0.0
  9
$PUCSYDIR
 10
0.0
 20
1.0
 30
0.0
  9
$PUCSORTHOREF
  2

  9
$PUCSORTHOVIEW
 70
               0
  9
$PUCSORGTOP
 10
0.0
 20
0.0
 30
0.0
  9
$PUCSORGBOTTOM
 10
0.0
 20
0.0
 30
0.0
  9
$PUCSORGLEFT
 10
0.0
 20
0.0
 30
0.0
  9
$PUCSORGRIGHT
 10
0.0
 20
0.0
 30
0.0
  9
$PUCSORGFRONT
 10
0.0
 20
0.0
 30
0.0
  9
$PUCSORGBACK
 10
0.0
 20
0.0
 30
0.0
  9
$USERI1
 70
               0
  9
$USERI2
 70
               0
  9
$USERI3
 70
               0
  9
$USERI4
 70
               0
  9
$USERI5
 70
               0
  9
$USERR1
 40
0.0
  9
$USERR2
 40
0.0
  9
$USERR3
 40
0.0
  9
$USERR4
 40
0.0
  9
$USERR5
 40
0.0
  9
$WORLDVIEW
 70
               1
  9
$SHADEDGE
 70
               3
  9
$SHADEDIF
 70
              70
  9
$TILEMODE
 70
               1
  9
$MAXACTVP
 70
              64
  9
$PINSBASE
 10
0.0
 20
0.0
 30
0.0
  9
$PLIMCHECK
 70
               0
  9
$PEXTMIN
 10
1.0000000000000000E+20
 20
1.0000000000000000E+20
 30
1.0000000000000000E+20
  9
$PEXTMAX
 10
-1.0000000000000000E+20
 20
-1.0000000000000000E+20
 30
-1.0000000000000000E+20
  9
$PLIMMIN
 10
0.0
 20
0.0
  9
$PLIMMAX
 10
12.0
 20
9.0
  9
$UNITMODE
 70
               0
  9
$VISRETAIN
 70
               0
  9
$PLINEGEN
 70
               1
  9
$PSLTSCALE
 70
               0
  9
$TREEDEPTH
 70
            3020
  9
$CMLSTYLE
  2
Standard
  9
$CMLJUST
 70
               0
  9
$CMLSCALE
 40
1.0
  9
$PROXYGRAPHICS
 70
               0
  9
$MEASUREMENT
 70
               1
  9
$CELWEIGHT
370
               0
  9
$ENDCAPS
280
               0
  9
$JOINSTYLE
280
               0
  9
$LWDISPLAY
290
               1
  9
$INSUNITS
 70
               4
  9
$HYPERLINKBASE
  1

  9
$STYLESHEET
  1

  9
$XEDIT
290
               1
  9
$CEPSNTYPE
380
               0
  9
$PSTYLEMODE
290
               1
  9
$FINGERPRINTGUID
  2

  9
$VERSIONGUID
  2

  9
$EXTNAMES
290
               1
  9
$PSVPSCALE
 40
0.0
  0
ENDSEC
  0
SECTION
  2
CLASSES
  0
CLASS
  1
LWPOLYLINE
  2
AcDbPolyline
  3
AutoCAD 2000
 90
        0
280
               0
281
               1
  0
CLASS
  1
IMAGE
  2
AcDbRasterImage
  3
ISM
 90
      127
280
               0
281
               1
  0
CLASS
  1
OLE2FRAME
  2
AcDbOle2Frame
  3
AutoCAD 2000
 90
        0
280
               0
281
               1
  0
CLASS
  1
HATCH
  2
AcDbHatch
  3
AutoCAD 2000
 90
        0
280
               0
281
               1
  0
CLASS
  1
DICTIONARYVAR
  2
AcDbDictionaryVar
  3
AutoCAD 2000
 90
        0
280
               0
281
               0
  0
CLASS
  1
RASTERVARIABLES
  2
AcDbRasterVariables
  3
ISM
 90
        0
280
               0
281
               0
  0
CLASS
  1
IMAGEDEF
  2
AcDbRasterImageDef
  3
ISM
 90
        0
280
               0
281
               0
  0
CLASS
  1
IMAGEDEF_REACTOR
  2
AcDbRasterImageDefReactor
  3
ISM
 90
        1
280
               0
281
               0
  0
CLASS
  1
IDBUFFER
  2
AcDbIdBuffer
  3
AutoCAD 2000
 90
        0
280
               0
281
               0
  0
CLASS
  1
SPATIAL_FILTER
  2
AcDbSpatialFilter
  3
AutoCAD 2000
 90
        0
280
               0
281
               0
  0
CLASS
  1
XRECORD
  2
AcDbXrecord
  3
AutoCAD 2000
 90
        0
280
               0
281
               0
  0
CLASS
  1
SORTENTSTABLE
  2
AcDbSortentsTable
  3
AutoCAD 2000
 90
        0
280
               0
281
               0
  0
CLASS
  1
LAYER_INDEX
  2
AcDbLayerIndex
  3
AutoCAD 2000
 90
        0
280
               0
281
               0
  0
CLASS
  1
SPATIAL_INDEX
  2
AcDbSpatialIndex
  3
AutoCAD 2000
 90
        0
280
               0
281
               0
  0
CLASS
  1
OBJECT_PTR
  2
CAseDLPNTableRecord
  3
"ASE-LPNTableRecord"
 90
        1
280
               0
281
               0
  0
CLASS
  1
LAYOUT
  2
AcDbLayout
  3
AutoCAD 2000
 90
        0
280
               0
281
               0
  0
CLASS
  1
PLOTSETTINGS
  2
AcDbPlotSettings
  3
AutoCAD 2000
 90
        0
280
               0
281
               0
  0
CLASS
  1
ACDBDICTIONARYWDFLT
  2
AcDbDictionaryWithDefault
  3
AutoCAD 2000
 90
        0
280
               0
281
               0
  0
CLASS
  1
ACDBPLACEHOLDER
  2
AcDbPlaceHolder
  3
AutoCAD 2000
 90
        0
280
               0
281
               0
  0
ENDSEC
  0
SECTION
  2
TABLES
  0
TABLE
  2
VPORT
  5
7
100
AcDbSymbolTable
 70
               1
  0
VPORT
  5
15
100
AcDbSymbolTableRecord
100
AcDbViewportTableRecord
  2
*ACTIVE
 70
               0
 10
0.0
 20
0.0
 11
1.0
 21
1.0
 12
0.0
 22
-12.764114914906486
 13
0.0
 23
0.0
 14
1.0
 24
1.0
 15
0.0
 25
0.0
 16
0.0
 26
0.0
 36
1.0
 17
0.0
 27
0.0
 37
0.0
 40
2837.5228151124124
 41
0.688564
 42
50.0
 43
0.0
 44
0.0
 50
0.0
 51
0.0
 71
               0
 72
            2000
 73
               1
 74
               1
 75
               0
 76
               0
 77
               0
 78
               0
281
               0
 65
               0
110
0.0
120
0.0
130
0.0
111
1.0
121
0.0
131
0.0
112
0.0
122
1.0
132
0.0
345
0
346
0
 79
               0
146
0.0
  0
ENDTAB
  0
TABLE
  2
LTYPE
  5
4
100
AcDbSymbolTable
 70
              17
  0
LTYPE
  5
11
100
AcDbSymbolTableRecord
100
AcDbLinetypeTableRecord
  2
ByBlock
 70
              64
  3

 72
              65
 73
               0
 40
0.0
  0
LTYPE
  5
12
100
AcDbSymbolTableRecord
100
AcDbLinetypeTableRecord
  2
ByLayer
 70
              64
  3

 72
              65
 73
               0
 40
0.0
  0
LTYPE
  5
13
100
AcDbSymbolTableRecord
100
AcDbLinetypeTableRecord
  2
Continuous
 70
              64
  3
Solid line
 72
              65
 73
               0
 40
0.0
  0
LTYPE
  5
3A
100
AcDbSymbolTableRecord
100
AcDbLinetypeTableRecord
  2
STYLE_01
 70
               0
  3

 72
              65
 73
               4
 40
0.3999999999999999
 49
0.25
 74
               0
 49
-0.05
 74
               0
 49
0.05
 74
               0
 49
-0.05
 74
               0
  0
LTYPE
  5
3B
100
AcDbSymbolTableRecord
100
AcDbLinetypeTableRecord
  2
STYLE_02
 70
               0
  3

 72
              65
 73
               4
 40
0.3999999999999999
 49
0.25
 74
               0
 49
-0.05
 74
               0
 49
0.05
 74
               0
 49
-0.05
 74
               0
  0
LTYPE
  5
3C
100
AcDbSymbolTableRecord
100
AcDbLinetypeTableRecord
  2
STYLE_03
 70
               0
  3

 72
              65
 73
               2
 40
1.25
 49
1.0416400000000001
 74
               0
 49
-0.2083599999999999
 74
               0
  0
LTYPE
  5
3D
100
AcDbSymbolTableRecord
100
AcDbLinetypeTableRecord
  2
STYLE_04
 70
               0
  3

 72
              65
 73
               2
 40
1.5277099999999999
 49
1.3194249999999998
 74
               0
 49
-0.208285
 74
               0
  0
LTYPE
  5
3E
100
AcDbSymbolTableRecord
100
AcDbLinetypeTableRecord
  2
STYLE_05
 70
               0
  3

 72
              65
 73
               2
 40
0.20828
 49
0.069425
 74
               0
 49
-0.138855
 74
               0
  0
LTYPE
  5
3F
100
AcDbSymbolTableRecord
100
AcDbLinetypeTableRecord
  2
STYLE_06
 70
               0
  3

 72
              65
 73
               4
 40
1.0416400000000001
 49
0.625
 74
               0
 49
-0.20828
 74
               0
 49
0.06943
 74
               0
 49
-0.13893
 74
               0
  0
LTYPE
  5
40
100
AcDbSymbolTableRecord
100
AcDbLinetypeTableRecord
  2
STYLE_07
 70
               0
  3

 72
              65
 73
               6
 40
1.875
 49
0.625
 74
               0
 49
-0.20828
 74
               0
 49
0.6250000000000001
 74
               0
 49
-0.2083599999999999
 74
               0
 49
0.06943
 74
               0
 49
-0.1389299999999999
 74
               0
  0
LTYPE
  5
41
100
AcDbSymbolTableRecord
100
AcDbLinetypeTableRecord
  2
STYLE_08
 70
               0
  3

 72
              65
 73
               6
 40
1.25
 49
0.625
 74
               0
 49
-0.20828
 74
               0
 49
0.06943
 74
               0
 49
-0.13893
 74
               0
 49
0.0694299999999999
 74
               0
 49
-0.13893
 74
               0
  0
LTYPE
  5
42
100
AcDbSymbolTableRecord
100
AcDbLinetypeTableRecord
  2
STYLE_09
 70
               0
  3

 72
              65
 73
               4
 40
5.0
 49
3.75
 74
               0
 49
-0.2777849999999998
 74
               0
 49
0.6944300000000003
 74
               0
 49
-0.2777849999999998
 74
               0
  0
LTYPE
  5
43
100
AcDbSymbolTableRecord
100
AcDbLinetypeTableRecord
  2
STYLE_10
 70
               0
  3

 72
              65
 73
               6
 40
5.9375
 49
3.75
 74
               0
 49
-0.2777849999999998
 74
               0
 49
0.6944300000000003
 74
               0
 49
-0.2777849999999998
 74
               0
 49
0.625
 74
               0
 49
-0.3125
 74
               0
  0
LTYPE
  5
44
100
AcDbSymbolTableRecord
100
AcDbLinetypeTableRecord
  2
STYLE_11
 70
               0
  3

 72
              65
 73
               2
 40
0.0694444881889764
 49
0.0347222440944882
 74
               0
 49
-0.0347222440944882
 74
               0
  0
LTYPE
  5
45
100
AcDbSymbolTableRecord
100
AcDbLinetypeTableRecord
  2
STYLE_12
 70
               0
  3

 72
              65
 73
               2
 40
0.3937007874015748
 49
0.1968503937007874
 74
               0
 49
-0.1968503937007874
 74
               0
  0
LTYPE
  5
46
100
AcDbSymbolTableRecord
100
AcDbLinetypeTableRecord
  2
STYLE_13
 70
               0
  3

 72
              65
 73
               2
 40
0.5905511811023622
 49
0.2952755905511811
 74
               0
 49
-0.2952755905511811
 74
               0
  0
LTYPE
  5
47
100
AcDbSymbolTableRecord
100
AcDbLinetypeTableRecord
  2
STYLE_14
 70
               0
  3

 72
              65
 73
               2
 40
1.9685039370078738
 49
0.9842519685039369
 74
               0
 49
-0.9842519685039369
 74
               0
  0
ENDTAB
  0
TABLE
  2
LAYER
  5
2
100
AcDbSymbolTable
 70
               5
  0
LAYER
  5
14
100
AcDbSymbolTableRecord
100
AcDbLayerTableRecord
  2
0
 70
               0
 62
               7
  6
Continuous
290
               1
370
              -3
390
1D
  0
LAYER
  5
48
100
AcDbSymbolTableRecord
100
AcDbLayerTableRecord
  2
Defpoints
 70
               0
 62
               7
  6
Continuous
290
               0
370
              -3
390
1D
  0
LAYER
  5
49
100
AcDbSymbolTableRecord
100
AcDbLayerTableRecord
  2
template
 70
               0
 62
               7
  6
Continuous
290
               1
370
              -3
390
1D
  0
LAYER
  5
4A
100
AcDbSymbolTableRecord
100
AcDbLayerTableRecord
  2
notes
 70
               0
 62
               7
  6
Continuous
290
               1
370
              -3
390
1D
  0
LAYER
  5
4B
100
AcDbSymbolTableRecord
100
AcDbLayerTableRecord
  2
FAN70-1305
 70
               0
 62
               7
  6
Continuous
290
               1
370
              -3
390
1D
  0
ENDTAB
  0
TABLE
  2
STYLE
  5
3
100
AcDbSymbolTable
 70
               2
  0
STYLE
  5
17
100
AcDbSymbolTableRecord
100
AcDbTextStyleTableRecord
  2
Standard
 70
               0
 40
0.0
 41
1.0
 50
0.0
 71
               0
 42
0.0
  3
txt
  4
BIGFONT.SHX
  0
STYLE
  5
39
100
AcDbSymbolTableRecord
100
AcDbTextStyleTableRecord
  2
ＭＳ ゴシック
 70
               0
 40
0.0
 41
1.0
 50
0.0
 71
               0
 42
0.0
  3

  4
ＭＳ ゴシック
1001
ACAD
1000
ＭＳ ゴシック
1071
        0
  0
ENDTAB
  0
TABLE
  2
VIEW
  5
5
100
AcDbSymbolTable
 70
               0
  0
ENDTAB
  0
TABLE
  2
UCS
  5
6
100
AcDbSymbolTable
 70
               0
  0
ENDTAB
  0
TABLE
  2
APPID
  5
8
100
AcDbSymbolTable
 70
               1
  0
APPID
  5
16
100
AcDbSymbolTableRecord
100
AcDbRegAppTableRecord
  2
ACAD
 70
               0
  0
ENDTAB
  0
TABLE
  2
DIMSTYLE
  5
9
100
AcDbSymbolTable
 70
               3
100
AcDbDimStyleTable
 71
               0
  0
DIMSTYLE
105
18
100
AcDbSymbolTableRecord
100
AcDbDimStyleTableRecord
  2
Standard
 70
               0
  3

  4

 40
1.0
 41
0.18
 42
0.0625
 43
0.38
 44
0.18
 45
0.0
 46
0.0
 47
0.0
 48
0.0
 71
               0
 72
               0
 73
               1
 74
               1
 75
               0
 76
               0
 77
               0
 78
               0
 79
               0
140
0.18
141
0.09
142
0.0
143
25.399999999999999
144
1.0
145
0.0
146
1.0
147
0.09
148
0.0
170
               0
171
               2
172
               0
173
               0
174
               0
175
               0
176
               0
177
               0
178
               0
179
               0
271
               4
272
               4
273
               2
274
               2
275
               0
276
               0
277
               2
278
              46
279
               0
280
               0
281
               0
282
               0
283
               1
284
               0
285
               0
286
               0
288
               0
289
               3
340
17
341
0
342
0
343
0
344
0
371
              -2
372
              -2
  0
DIMSTYLE
105
54
100
AcDbSymbolTableRecord
100
AcDbDimStyleTableRecord
  2
tfrom線あり
 70
               0
  3
<>
  4
[]
 40
1.0
 41
9.9993896484374982
 42
24.999999999999996
 43
0.9999999999999999
 44
0.0
 45
0.0
 46
0.0
 47
0.0
 48
0.0
 71
               0
 72
               0
 73
               0
 74
               0
 75
               0
 76
               0
 77
               1
 78
              11
 79
               0
140
24.432617187500004
141
0.0
142
0.0
143
1.0
144
1.0
145
0.0
146
1.0
147
0.4999999999999999
148
0.0
170
               0
171
               1
172
               0
173
               0
174
               1
175
               0
176
               0
177
               0
178
               0
179
               2
271
               1
272
               1
273
               2
274
               2
275
               0
276
               2
277
               2
278
              46
279
               0
280
               0
281
               0
282
               0
283
               1
284
              11
285
              11
286
              11
288
               0
289
               0
340
39
341
4C
342
4C
343
0
344
0
371
              -2
372
              -2
  0
DIMSTYLE
105
59
100
AcDbSymbolTableRecord
100
AcDbDimStyleTableRecord
  2
JIS
 70
               0
  3
<>
  4
[]
 40
1.0
 41
31.75
 42
0.0
 43
6.9999999999999396
 44
19.999999999996199
 45
0.0
 46
0.0
 47
0.0
 48
0.0
 71
               0
 72
               0
 73
               0
 74
               0
 75
               0
 76
               0
 77
               1
 78
              11
 79
               0
140
24.432617187500004
141
0.0
142
0.0
143
1.0
144
1.0
145
0.0
146
1.0
147
1.00000000000108
148
0.0
170
               0
171
               1
172
               0
173
               0
174
               1
175
               0
176
               0
177
               0
178
               0
179
               2
271
               1
272
               1
273
               2
274
               2
275
               0
276
               2
277
               2
278
              46
279
               0
280
               0
281
               0
282
               0
283
               1
284
              11
285
              11
286
              11
288
               0
289
               0
340
39
341
55
342
55
343
0
344
0
371
              -2
372
              -2
  0
ENDTAB
  0
TABLE
  2
BLOCK_RECORD
  5
1
100
AcDbSymbolTable
 70
              24
  0
BLOCK_RECORD
  5
A
100
AcDbSymbolTableRecord
100
AcDbBlockTableRecord
  2
*MODEL_SPACE
340
20
  0
BLOCK_RECORD
  5
B
100
AcDbSymbolTableRecord
100
AcDbBlockTableRecord
  2
*PAPER_SPACE
340
21
  0
BLOCK_RECORD
  5
4C
100
AcDbSymbolTableRecord
100
AcDbBlockTableRecord
  2
_DOT
340
0
  0
BLOCK_RECORD
  5
55
100
AcDbSymbolTableRecord
100
AcDbBlockTableRecord
  2
VW_FILLEDARROW
340
0
  0
BLOCK_RECORD
  5
23
100
AcDbSymbolTableRecord
100
AcDbBlockTableRecord
  2
グループ
340
0
102
{BLKREFS
331
172
102
}
  0
BLOCK_RECORD
  5
24
100
AcDbSymbolTableRecord
100
AcDbBlockTableRecord
  2
*D3
340
0
  0
BLOCK_RECORD
  5
25
100
AcDbSymbolTableRecord
100
AcDbBlockTableRecord
  2
*D4
340
0
  0
BLOCK_RECORD
  5
26
100
AcDbSymbolTableRecord
100
AcDbBlockTableRecord
  2
*D5
340
0
  0
BLOCK_RECORD
  5
27
100
AcDbSymbolTableRecord
100
AcDbBlockTableRecord
  2
*D6
340
0
  0
BLOCK_RECORD
  5
28
100
AcDbSymbolTableRecord
100
AcDbBlockTableRecord
  2
*D7
340
0
  0
BLOCK_RECORD
  5
29
100
AcDbSymbolTableRecord
100
AcDbBlockTableRecord
  2
*D8
340
0
  0
BLOCK_RECORD
  5
2A
100
AcDbSymbolTableRecord
100
AcDbBlockTableRecord
  2
*D9
340
0
  0
BLOCK_RECORD
  5
2B
100
AcDbSymbolTableRecord
100
AcDbBlockTableRecord
  2
*D10
340
0
  0
BLOCK_RECORD
  5
2C
100
AcDbSymbolTableRecord
100
AcDbBlockTableRecord
  2
*D11
340
0
  0
BLOCK_RECORD
  5
2D
100
AcDbSymbolTableRecord
100
AcDbBlockTableRecord
  2
*D12
340
0
  0
BLOCK_RECORD
  5
2E
100
AcDbSymbolTableRecord
100
AcDbBlockTableRecord
  2
*D13
340
0
  0
BLOCK_RECORD
  5
2F
100
AcDbSymbolTableRecord
100
AcDbBlockTableRecord
  2
*D14
340
0
  0
BLOCK_RECORD
  5
30
100
AcDbSymbolTableRecord
100
AcDbBlockTableRecord
  2
*D15
340
0
  0
BLOCK_RECORD
  5
31
100
AcDbSymbolTableRecord
100
AcDbBlockTableRecord
  2
*D16
340
0
  0
BLOCK_RECORD
  5
32
100
AcDbSymbolTableRecord
100
AcDbBlockTableRecord
  2
*D17
340
0
  0
BLOCK_RECORD
  5
33
100
AcDbSymbolTableRecord
100
AcDbBlockTableRecord
  2
*D18
340
0
  0
BLOCK_RECORD
  5
34
100
AcDbSymbolTableRecord
100
AcDbBlockTableRecord
  2
*D19
340
0
  0
BLOCK_RECORD
  5
35
100
AcDbSymbolTableRecord
100
AcDbBlockTableRecord
  2
*D20
340
0
  0
BLOCK_RECORD
  5
36
100
AcDbSymbolTableRecord
100
AcDbBlockTableRecord
  2
グループ-1
340
0
102
{BLKREFS
331
191
102
}
  0
BLOCK_RECORD
  5
37
100
AcDbSymbolTableRecord
100
AcDbBlockTableRecord
  2
グループ-2
340
0
102
{BLKREFS
331
192
102
}
  0
BLOCK_RECORD
  5
38
100
AcDbSymbolTableRecord
100
AcDbBlockTableRecord
  2
*D23
340
0
  0
ENDTAB
  0
ENDSEC
  0
SECTION
  2
BLOCKS
  0
BLOCK
  5
D
100
AcDbEntity
  8
0
390
0
100
AcDbBlockBegin
  2
*MODEL_SPACE
 70
               0
 10
0.0
 20
0.0
 30
0.0
  3
*MODEL_SPACE
  1

  0
ENDBLK
  5
E
100
AcDbEntity
  8
0
390
0
100
AcDbBlockEnd
  0
BLOCK
  5
F
100
AcDbEntity
 67
               1
  8
0
390
0
100
AcDbBlockBegin
  2
*PAPER_SPACE
 70
               0
 10
0.0
 20
0.0
 30
0.0
  3
*PAPER_SPACE
  1

  0
ENDBLK
  5
10
100
AcDbEntity
 67
               1
  8
0
390
0
100
AcDbBlockEnd
  0
BLOCK
  5
4D
100
AcDbEntity
  8
0
390
0
100
AcDbBlockBegin
  2
_DOT
 70
               0
 10
0.0
 20
0.0
 30
0.0
  3
_DOT
  1

  0
POLYLINE
  5
4E
100
AcDbEntity
  8
0
370
              -2
390
0
  6
ByBlock
 62
               0
100
AcDb2dPolyline
 66
               1
 10
0.0
 20
0.0
 30
0.0
 70
               1
 40
0.5
 41
0.5
  0
VERTEX
  5
4F
100
AcDbEntity
  8
0
370
              -2
390
0
  6
ByBlock
 62
               0
100
AcDbVertex
100
AcDb2dVertex
 10
-0.25
 20
0.0
 30
0.0
 42
1.0
  0
VERTEX
  5
50
100
AcDbEntity
  8
0
370
              -2
390
0
  6
ByBlock
 62
               0
100
AcDbVertex
100
AcDb2dVertex
 10
0.25
 20
0.0
 30
0.0
 42
1.0
  0
SEQEND
  5
51
100
AcDbEntity
  8
0
390
0
  0
LINE
  5
52
100
AcDbEntity
  8
0
370
              -2
390
0
  6
ByBlock
 62
               0
100
AcDbLine
 10
-0.5
 20
0.0
 30
0.0
 11
-1.0
 21
0.0
 31
0.0
  0
ENDBLK
  5
53
100
AcDbEntity
  8
0
390
0
100
AcDbBlockEnd
  0
BLOCK
  5
56
100
AcDbEntity
  8
0
370
              -2
390
0
  6
ByBlock
 62
               0
100
AcDbBlockBegin
  2
VW_FILLEDARROW
 70
               0
 10
0.0
 20
0.0
 30
0.0
  3
VW_FILLEDARROW
  1

  0
SOLID
  5
57
100
AcDbEntity
  8
0
370
              -2
390
0
 62
               0
100
AcDbTrace
 10
0.0
 20
0.0
 30
0.0
 11
-0.9921874999999999
 21
-0.2658558393652545
 31
0.0
 12
-0.9921874999999999
 22
0.2658558393652548
 32
0.0
 13
-0.9921874999999999
 23
0.2658558393652548
 33
0.0
  0
ENDBLK
  5
58
100
AcDbEntity
  8
0
390
0
100
AcDbBlockEnd
  0
BLOCK
  5
5A
100
AcDbEntity
  8
template
390
0
100
AcDbBlockBegin
  2
グループ
 70
               0
 10
0.0
 20
0.0
 30
0.0
  3
グループ
  1

  0
LWPOLYLINE
  5
5B
100
AcDbEntity
  8
0
370
              15
390
0
  6
Continuous
 62
               7
100
AcDbPolyline
 90
        8
 70
             129
 10
581.45145658272668
 20
-1669.2689886864807
 10
581.45145658272668
 20
-1675.2663773800566
 10
571.95025966472349
 20
-1675.2663773800566
 10
571.95025966472349
 20
-1699.7173406435654
 10
563.59488240294058
 20
-1699.7173406435654
 10
563.59488240294058
 20
-1675.2663773800566
 10
554.26192545663116
 20
-1675.2663773800566
 10
554.26192545663116
 20
-1669.2689886864807
  0
LWPOLYLINE
  5
5C
100
AcDbEntity
  8
0
370
              15
390
0
  6
Continuous
 62
               7
100
AcDbPolyline
 90
      101
 70
             128
 10
594.17974841328373
 20
-1669.9972371794172
 10
594.1950984420688
 20
-1669.992876422732
 42
-0.0222221607813704
 10
594.48510301873978
 20
-1669.9242519574875
 10
594.50089678273685
 20
-1669.9212485343899
 42
-0.0146883565584589
 10
594.76359948795755
 20
-1669.8792453474412
 42
-0.0127458844191121
 10
595.02823845510443
 20
-1669.8517083793693
 10
595.09069353342329
 20
-1669.8468149567805
 42
-0.0198099018568195
 10
595.48154264289769
 20
-1669.831729799384
 10
595.533354112344
 20
-1669.831783575049
 42
-0.01476173827643
 10
596.02797757331882
 20
-1669.8469036002939
 10
596.10066902819437
 20
-1669.8512762071816
 42
-0.0162624549003477
 10
596.49082265765765
 20
-1669.8875090824538
 10
596.61235504892522
 20
-1669.9027956414513
 42
-0.0080020874659475
 10
596.75793408000845
 20
-1669.9234784887187
 10
596.79625355058897
 20
-1669.9295497665275
 42
-0.0053821929688645
 10
596.86473765591836
 20
-1669.9411572903514
 10
596.13833195671964
 20
-1672.1220857460653
 42
0.0108667757391954
 10
596.07101488658725
 20
-1672.108898630845
 10
596.03354686339935
 20
-1672.1024008882509
 42
0.0170663203312433
 10
595.89033007648106
 20
-1672.0825712909589
 10
595.82245474380079
 20
-1672.0755241203717
 42
0.0220162375271336
 10
595.54207533594933
 20
-1672.0588417596016
 10
595.46421976889019
 20
-1672.0576423923351
 42
0.0282606915787098
 10
595.12858344531548
 20
-1672.071445669304
 10
595.08467017154373
 20
-1672.0757456593076
 42
0.0169677213686436
 10
594.83874567658427
 20
-1672.1082827088599
 42
0.0190576269870344
 10
594.5958377140023
 20
-1672.1584295809666
 10
594.58957852589344
 20
-1672.1599725550755
 42
0.0213685642841158
 10
594.33919404141886
 20
-1672.2331728401791
 10
594.33370414649949
 20
-1672.2350358362391
 42
0.0237595297591515
 10
594.08020926160088
 20
-1672.3347203581347
 10
594.07510718757112
 20
-1672.3370121336129
 42
0.0261857468814308
 10
593.8229364113397
 20
-1672.4665484709883
 10
593.81251022225308
 20
-1672.4726139454565
 42
0.0272553062026187
 10
593.57608044701567
 20
-1672.6279861514004
 10
593.54131743350388
 20
-1672.6536472994942
 42
0.0325996893175546
 10
593.39116208985467
 20
-1672.7803951724638
 10
593.36745266073115
 20
-1672.8032132009769
 42
0.0138050960627499
 10
593.2755695045214
 20
-1672.8966628625285
 42
0.012528010381345
 10
593.18872697168456
 20
-1672.9948261891323
 10
593.16504652677952
 20
-1673.0229846873158
 42
0.0205218024729326
 10
593.03994645126704
 20
-1673.1847780015432
 10
593.01748011077871
 20
-1673.2164377313718
 42
0.0163110129583975
 10
592.86176973152624
 20
-1673.4517681664436
 10
592.85904583547642
 20
-1673.4561919284272
 42
0.0131897341899052
 10
592.71224531456983
 20
-1673.7093240207928
 10
592.71054521920405
 20
-1673.7124422599272
 42
0.0107895576060129
 10
592.57276851699658
 20
-1673.9786574695559
 10
592.57203562746827
 20
-1673.980151702209
 42
0.0091371507218799
 10
592.44355567881678
 20
-1674.254676899973
 10
592.41381004740958
 20
-1674.3213834071275
 42
0.0135418326354796
 10
592.2420961083368
 20
-1674.7363211923987
 10
592.20849129990609
 20
-1674.8241873346708
 42
0.0092834542407776
 10
592.03726223998274
 20
-1675.2980858329829
 10
592.01164511226978
 20
-1675.3733269027623
 42
0.0054261043574611
 10
591.90400696397217
 20
-1675.7010908758411
 10
591.88648097778389
 20
-1675.7564790381055
 42
0.0008225090818449
 10
591.81781092596475
 20
-1675.9747477962205
 10
590.83312179403129
 20
-1678.9996390894771
 10
594.06574563410504
 20
-1678.9996390894771
 10
593.5615532042516
 20
-1680.9041173878295
 10
590.30549692226828
 20
-1680.9041173878295
 10
584.47634788991445
 20
-1699.7173404538344
 10
582.65125027960426
 20
-1699.7173404538344
 10
588.48592831510518
 20
-1680.9041173878295
 10
586.08081194606484
 20
-1680.9041173878295
 10
586.58500437591829
 20
-1678.9996390894771
 10
589.01355318686819
 20
-1678.9996390894771
 10
589.87370810505695
 20
-1676.3632260887782
 42
-0.0005863560651327
 10
589.91044278323614
 20
-1676.2463996685631
 10
589.98653061692073
 20
-1676.005407369101
 42
-0.0087522378928874
 10
590.18599876037854
 20
-1675.4101312819519
 10
590.27826303579081
 20
-1675.1499911134422
 42
-0.007740095383032
 10
590.53619669492218
 20
-1674.4569864358932
 10
590.55196166649978
 20
-1674.4165555525103
 42
-0.0082369946330653
 10
590.79904613711301
 20
-1673.8124764863114
 42
-0.0085725238362643
 10
591.06629223312029
 20
-1673.217050447015
 10
591.16792183412201
 20
-1673.0006293450422
 42
-0.0168109410598106
 10
591.45486626285333
 20
-1672.439421818935
 10
591.58070965332365
 20
-1672.2124577859174
 42
-0.0007817726869299
 10
591.634994003369
 20
-1672.1149135409064
 10
591.63512230939546
 20
-1672.1146838321536
 42
-0.0036626142148939
 10
591.69001017340747
 20
-1672.0180859522015
 42
-0.0080221150685182
 10
591.74713442880886
 20
-1671.9228067174572
 10
591.77783438017536
 20
-1671.8734157683266
 42
-0.020213932558051
 10
591.90549011998098
 20
-1671.6854341676465
 10
591.9595575851697
 20
-1671.6123553034042
 42
-0.0249323791800545
 10
592.21872037888818
 20
-1671.2963100612506
 10
592.24286019301587
 20
-1671.2696957883372
 42
-0.0242132121538798
 10
592.58254093455662
 20
-1670.9298123021345
 10
592.63045250730909
 20
-1670.8863031659466
 42
-0.0251017527861057
 10
592.91443420794928
 20
-1670.6533104201826
 10
592.91587968476142
 20
-1670.6522411626049
 42
-0.0130868069040751
 10
593.21414033472035
 20
-1670.4434606940611
 10
593.21570215386464
 20
-1670.4424272537849
 42
-0.0290329526391607
 10
593.52681329525637
 20
-1670.2616017521568
 10
593.55665885724636
 20
-1670.2464993693152
 42
-0.0160250190044234
 10
593.82256327100708
 20
-1670.1224832591038
 42
-0.0267600374781456
 10
594.09783934847428
 20
-1670.0217349385557
 10
594.12457526799676
 20
-1670.0135423797296
 42
-0.0049981587669942
 10
594.17974841328373
 20
-1669.9972371794172
 42
-0.0049981587669942
  0
LWPOLYLINE
  5
5D
100
AcDbEntity
  8
0
370
              15
390
0
  6
Continuous
 62
               7
100
AcDbPolyline
 90
      118
 70
             128
 10
613.99411597773064
 20
-1679.0736224173045
 10
615.86923790223
 20
-1679.0736224173045
 10
615.03119899663011
 20
-1681.7551889437045
 42
-0.0010587229248125
 10
615.06265481212574
 20
-1681.7182844104384
 10
615.12084890283404
 20
-1681.6503021541735
 42
-0.0071874740410661
 10
615.27122412093615
 20
-1681.4796614621398
 10
615.41294689419431
 20
-1681.3234253208311
 42
-0.0148118053512902
 10
615.86307618690819
 20
-1680.8558114748171
 10
615.95029852181153
 20
-1680.7704141539621
 42
-0.008627335869349
 10
616.28584732281729
 20
-1680.4530385199482
 10
616.32968103903693
 20
-1680.4129888756208
 42
-0.0103138323112535
 10
616.58770474127675
 20
-1680.1868257382769
 10
616.63347914761971
 20
-1680.1483436910034
 42
-0.0060206748561288
 10
616.80632721171605
 20
-1680.0065490402621
 10
616.80835834260483
 20
-1680.0049233346285
 42
-0.0067069027286132
 10
616.98065115726445
 20
-1679.8707727008359
 10
616.98319992319227
 20
-1679.8688425309592
 42
-0.0076184352045671
 10
617.15410518906174
 20
-1679.7434676557168
 42
-0.0089652861668738
 10
617.32906615180104
 20
-1679.6238343953812
 10
617.36541787194449
 20
-1679.5999231818994
 42
-0.0156916245937567
 10
617.56137736910136
 20
-1679.4796606954269
 42
-0.002329901106195
 10
617.76163941305913
 20
-1679.3664827558985
 10
617.77702354546113
 20
-1679.3578827608214
 42
-0.0107669341481352
 10
618.01126037056804
 20
-1679.2334826274691
 10
618.03352517163728
 20
-1679.222265877522
 42
-0.007805804589822
 10
618.31711528957953
 20
-1679.0849044218883
 10
618.32702237729916
 20
-1679.0802952940151
 42
-0.0181829330467646
 10
618.63733178191774
 20
-1678.9494315529182
 10
618.69138722447929
 20
-1678.9289164329768
 42
-0.0208411536029825
 10
619.04047219193183
 20
-1678.8128259704827
 10
619.05482829206062
 20
-1678.8087075255289
 42
-0.0222799817134524
 10
619.38354808597649
 20
-1678.7300659593889
 10
619.39243704921205
 20
-1678.7283539488042
 42
-0.0215509523886187
 10
619.70890801749329
 20
-1678.6814382602697
 10
619.75138997853867
 20
-1678.6770007334792
 42
-0.018254592487635
 10
619.98549875784749
 20
-1678.6611569080878
 10
620.02489977419623
 20
-1678.6599323630087
 42
-0.0072962856535713
 10
620.18082265388443
 20
-1678.6573630344865
 10
620.20992232445963
 20
-1678.6573081990828
 42
-0.0059227516307673
 10
620.30767182360148
 20
-1678.658281910873
 10
620.33691404106082
 20
-1678.658919677476
 42
-0.0011833111887722
 10
620.3761653248057
 20
-1678.6598686817865
 10
619.58077872919853
 20
-1681.1986026268855
 42
0.0143932051591857
 10
619.55437734684278
 20
-1681.1884036568383
 10
619.54710537443077
 20
-1681.1858324379828
 42
0.0234388603500161
 10
619.50527450850075
 20
-1681.1732132022682
 10
619.49659284558595
 20
-1681.1710322402625
 42
0.0199162742987026
 10
619.43630401150551
 20
-1681.1584155049275
 10
619.41549007369974
 20
-1681.154918305499
 42
0.0293643550668732
 10
619.31241521493973
 20
-1681.1437682598457
 10
619.2877300342202
 20
-1681.1425566428272
 42
0.0214606686870251
 10
619.13458911826683
 20
-1681.1416180824099
 10
619.12521720744974
 20
-1681.1419629939542
 42
0.0167564054189946
 10
618.95369701633683
 20
-1681.1540400363226
 10
618.94523722358235
 20
-1681.1549213767494
 42
0.0137677553247998
 10
618.75788391031847
 20
-1681.1796706852926
 10
618.75053217080983
 20
-1681.1808486052607
 42
0.0118497261486888
 10
618.55003440670293
 20
-1681.2178659554509
 10
618.54388439946126
 20
-1681.21915281817
 42
0.0106421143891857
 10
618.33300351217724
 20
-1681.2679851937446
 10
618.3280947037872
 20
-1681.2692325364299
 42
0.0099746379705069
 10
618.10963623461589
 20
-1681.3294070647471
 10
618.04808819445441
 20
-1681.3476889433753
 42
0.0191613675859018
 10
617.71210373194299
 20
-1681.4616663236607
 10
617.62404395918975
 20
-1681.4953532339878
 42
0.0205274080147477
 10
617.23873718729271
 20
-1681.6611816418128
 10
617.18108790531608
 20
-1681.6888496063825
 42
0.0181256912186661
 10
616.92281096464365
 20
-1681.8245334253629
 10
616.86985558132994
 20
-1681.8548510385776
 42
0.0140709242412072
 10
616.72490064670137
 20
-1681.9433457120122
 10
616.69865177808492
 20
-1681.9604025307262
 42
0.0086667884392592
 10
616.60972561654035
 20
-1682.0204051986104
 42
0.0036408192023552
 10
616.52229237851111
 20
-1682.0825860563998
 10
616.48706550403836
 20
-1682.1080270023156
 42
0.0052260781276106
 10
616.33083680664458
 20
-1682.2233593889518
 10
616.31462995038771
 20
-1682.2355874995678
 42
0.0050024435896541
 10
616.12862660732389
 20
-1682.378870067834
 10
616.11330845081363
 20
-1682.3909160902758
 42
0.0136138710271665
 10
615.90286718249229
 20
-1682.5658825951857
 10
615.86919930669478
 20
-1682.5954615679034
 42
0.0172815186910279
 10
615.6047957650369
 20
-1682.8444582405223
 10
615.6022334191897
 20
-1682.8470440576739
 42
0.0189403857989034
 10
615.35165162061605
 20
-1683.1198493224717
 10
615.31902012707042
 20
-1683.1581932539802
 42
0.0185044199509834
 10
615.12706368809449
 20
-1683.4014418350985
 42
0.008856524390352
 10
614.94860358146377
 20
-1683.6549582552518
 10
614.93942560181756
 20
-1683.6684996350084
 42
0.0157195347231536
 10
614.75620499548018
 20
-1683.9580218443298
 10
614.71012205355237
 20
-1684.0361740413452
 42
0.0095451879781502
 10
614.54503650341496
 20
-1684.3287686837016
 10
614.53388858448773
 20
-1684.3494393558292
 42
0.0100351706258509
 10
614.40184483532607
 20
-1684.6064949163242
 42
0.0086935915423377
 10
614.27951368353047
 20
-1684.8683280617324
 10
614.27619294211763
 20
-1684.8757703847004
 42
0.0072580174867128
 10
614.15584649017114
 20
-1685.1563623762872
 10
614.15258485686627
 20
-1685.1642824023015
 42
0.0060005122613778
 10
614.03338418852184
 20
-1685.463892072911
 10
614.03017321018194
 20
-1685.4722536008112
 42
0.0049017786975614
 10
613.9112730513292
 20
-1685.7911825814028
 10
613.90810724493406
 20
-1685.7999355186462
 42
0.0039415167600417
 10
613.78867096687759
 20
-1686.1384775810589
 10
613.78553986422526
 20
-1686.1475807819354
 42
0.0031035838764405
 10
613.66473507853129
 20
-1686.506020643712
 10
613.66162503400187
 20
-1686.5154412650836
 42
0.0025070747152044
 10
613.53872368268253
 20
-1686.8940884820397
 10
613.50142978626104
 20
-1687.0109801472806
 42
0.0029081910285432
 10
613.30941148844897
 20
-1687.625143805576
 10
613.26860831993315
 20
-1687.7583670478482
 42
0.0009266453734811
 10
613.0001909456181
 20
-1688.6405915077728
 10
612.97930347297051
 20
-1688.7097033870318
 42
-0.0005809993666547
 10
612.70196679238677
 20
-1689.6235114936467
 10
612.63568499412111
 20
-1689.8409964257824
 42
-0.0012018708170919
 10
612.48870068468455
 20
-1690.319159090327
 10
612.43638083315057
 20
-1690.487918231091
 42
-0.0002691059605619
 10
612.39281135195051
 20
-1690.6281858515347
 10
609.55985545366116
 20
-1699.7173404538344
 10
607.74186656168263
 20
-1699.7173404538344
 10
613.99411597773064
 20
-1679.0736224173045
  0
SPLINE
  5
5E
100
AcDbEntity
  8
0
370
              15
390
0
  6
Continuous
 62
               7
100
AcDbSpline
210
0.0
220
0.0
230
1.0
 70
              13
 71
               2
 72
             782
 73
             779
 74
               0
 42
0.000001
 43
0.000001
 40
0.0
 40
0.0
 40
0.0
 40
1.0
 40
1.0
 40
2.0
 40
2.0
 40
3.0
 40
3.0
 40
4.0
 40
4.0
 40
5.0
 40
5.0
 40
6.0
 40
6.0
 40
7.0
 40
7.0
 40
8.0
 40
8.0
 40
9.0
 40
9.0
 40
10.0
 40
10.0
 40
11.0
 40
11.0
 40
12.0
 40
12.0
 40
13.0
 40
13.0
 40
14.0
 40
14.0
 40
15.0
 40
15.0
 40
16.0
 40
16.0
 40
17.0
 40
17.0
 40
18.0
 40
18.0
 40
19.0
 40
19.0
 40
20.0
 40
20.0
 40
21.0
 40
21.0
 40
22.0
 40
22.0
 40
23.0
 40
23.0
 40
24.0
 40
24.0
 40
25.0
 40
25.0
 40
26.0
 40
26.0
 40
27.0
 40
27.0
 40
28.0
 40
28.0
 40
29.0
 40
29.0
 40
30.0
 40
30.0
 40
31.0
 40
31.0
 40
32.0
 40
32.0
 40
33.0
 40
33.0
 40
34.0
 40
34.0
 40
35.0
 40
35.0
 40
36.0
 40
36.0
 40
37.0
 40
37.0
 40
38.0
 40
38.0
 40
39.0
 40
39.0
 40
40.0
 40
40.0
 40
41.0
 40
41.0
 40
42.0
 40
42.0
 40
43.0
 40
43.0
 40
44.0
 40
44.0
 40
45.0
 40
45.0
 40
46.0
 40
46.0
 40
47.0
 40
47.0
 40
48.0
 40
48.0
 40
49.0
 40
49.0
 40
50.0
 40
50.0
 40
51.0
 40
51.0
 40
52.0
 40
52.0
 40
53.0
 40
53.0
 40
54.0
 40
54.0
 40
55.0
 40
55.0
 40
56.0
 40
56.0
 40
57.0
 40
57.0
 40
58.0
 40
58.0
 40
59.0
 40
59.0
 40
60.0
 40
60.0
 40
61.0
 40
61.0
 40
62.0
 40
62.0
 40
63.0
 40
63.0
 40
64.0
 40
64.0
 40
65.0
 40
65.0
 40
66.0
 40
66.0
 40
67.0
 40
67.0
 40
68.0
 40
68.0
 40
69.0
 40
69.0
 40
70.0
 40
70.0
 40
71.0
 40
71.0
 40
72.0
 40
72.0
 40
73.0
 40
73.0
 40
74.0
 40
74.0
 40
75.0
 40
75.0
 40
76.0
 40
76.0
 40
77.0
 40
77.0
 40
78.0
 40
78.0
 40
79.0
 40
79.0
 40
80.0
 40
80.0
 40
81.0
 40
81.0
 40
82.0
 40
82.0
 40
83.0
 40
83.0
 40
84.0
 40
84.0
 40
85.0
 40
85.0
 40
86.0
 40
86.0
 40
87.0
 40
87.0
 40
88.0
 40
88.0
 40
89.0
 40
89.0
 40
90.0
 40
90.0
 40
91.0
 40
91.0
 40
92.0
 40
92.0
 40
93.0
 40
93.0
 40
94.0
 40
94.0
 40
95.0
 40
95.0
 40
96.0
 40
96.0
 40
97.0
 40
97.0
 40
98.0
 40
98.0
 40
99.0
 40
99.0
 40
100.0
 40
100.0
 40
101.0
 40
101.0
 40
102.0
 40
102.0
 40
103.0
 40
103.0
 40
104.0
 40
104.0
 40
105.0
 40
105.0
 40
106.0
 40
106.0
 40
107.0
 40
107.0
 40
108.0
 40
108.0
 40
109.0
 40
109.0
 40
110.0
 40
110.0
 40
111.0
 40
111.0
 40
112.0
 40
112.0
 40
113.0
 40
113.0
 40
114.0
 40
114.0
 40
115.0
 40
115.0
 40
116.0
 40
116.0
 40
117.0
 40
117.0
 40
118.0
 40
118.0
 40
119.0
 40
119.0
 40
120.0
 40
120.0
 40
121.0
 40
121.0
 40
122.0
 40
122.0
 40
123.0
 40
123.0
 40
124.0
 40
124.0
 40
125.0
 40
125.0
 40
126.0
 40
126.0
 40
127.0
 40
127.0
 40
128.0
 40
128.0
 40
129.0
 40
129.0
 40
130.0
 40
130.0
 40
131.0
 40
131.0
 40
132.0
 40
132.0
 40
133.0
 40
133.0
 40
134.0
 40
134.0
 40
135.0
 40
135.0
 40
136.0
 40
136.0
 40
137.0
 40
137.0
 40
138.0
 40
138.0
 40
139.0
 40
139.0
 40
140.0
 40
140.0
 40
141.0
 40
141.0
 40
142.0
 40
142.0
 40
143.0
 40
143.0
 40
144.0
 40
144.0
 40
145.0
 40
145.0
 40
146.0
 40
146.0
 40
147.0
 40
147.0
 40
148.0
 40
148.0
 40
149.0
 40
149.0
 40
150.0
 40
150.0
 40
151.0
 40
151.0
 40
152.0
 40
152.0
 40
153.0
 40
153.0
 40
154.0
 40
154.0
 40
155.0
 40
155.0
 40
156.0
 40
156.0
 40
157.0
 40
157.0
 40
158.0
 40
158.0
 40
159.0
 40
159.0
 40
160.0
 40
160.0
 40
161.0
 40
161.0
 40
162.0
 40
162.0
 40
163.0
 40
163.0
 40
164.0
 40
164.0
 40
165.0
 40
165.0
 40
166.0
 40
166.0
 40
167.0
 40
167.0
 40
168.0
 40
168.0
 40
169.0
 40
169.0
 40
170.0
 40
170.0
 40
171.0
 40
171.0
 40
172.0
 40
172.0
 40
173.0
 40
173.0
 40
174.0
 40
174.0
 40
175.0
 40
175.0
 40
176.0
 40
176.0
 40
177.0
 40
177.0
 40
178.0
 40
178.0
 40
179.0
 40
179.0
 40
180.0
 40
180.0
 40
181.0
 40
181.0
 40
182.0
 40
182.0
 40
183.0
 40
183.0
 40
184.0
 40
184.0
 40
185.0
 40
185.0
 40
186.0
 40
186.0
 40
187.0
 40
187.0
 40
188.0
 40
188.0
 40
189.0
 40
189.0
 40
190.0
 40
190.0
 40
191.0
 40
191.0
 40
192.0
 40
192.0
 40
193.0
 40
193.0
 40
194.0
 40
194.0
 40
195.0
 40
195.0
 40
196.0
 40
196.0
 40
197.0
 40
197.0
 40
198.0
 40
198.0
 40
199.0
 40
199.0
 40
200.0
 40
200.0
 40
201.0
 40
201.0
 40
202.0
 40
202.0
 40
203.0
 40
203.0
 40
204.0
 40
204.0
 40
205.0
 40
205.0
 40
206.0
 40
206.0
 40
207.0
 40
207.0
 40
208.0
 40
208.0
 40
209.0
 40
209.0
 40
210.0
 40
210.0
 40
211.0
 40
211.0
 40
212.0
 40
212.0
 40
213.0
 40
213.0
 40
214.0
 40
214.0
 40
215.0
 40
215.0
 40
216.0
 40
216.0
 40
217.0
 40
217.0
 40
218.0
 40
218.0
 40
219.0
 40
219.0
 40
220.0
 40
220.0
 40
221.0
 40
221.0
 40
222.0
 40
222.0
 40
223.0
 40
223.0
 40
224.0
 40
224.0
 40
225.0
 40
225.0
 40
226.0
 40
226.0
 40
227.0
 40
227.0
 40
228.0
 40
228.0
 40
229.0
 40
229.0
 40
230.0
 40
230.0
 40
231.0
 40
231.0
 40
232.0
 40
232.0
 40
233.0
 40
233.0
 40
234.0
 40
234.0
 40
235.0
 40
235.0
 40
236.0
 40
236.0
 40
237.0
 40
237.0
 40
238.0
 40
238.0
 40
239.0
 40
239.0
 40
240.0
 40
240.0
 40
241.0
 40
241.0
 40
242.0
 40
242.0
 40
243.0
 40
243.0
 40
244.0
 40
244.0
 40
245.0
 40
245.0
 40
246.0
 40
246.0
 40
247.0
 40
247.0
 40
248.0
 40
248.0
 40
249.0
 40
249.0
 40
250.0
 40
250.0
 40
251.0
 40
251.0
 40
252.0
 40
252.0
 40
253.0
 40
253.0
 40
254.0
 40
254.0
 40
255.0
 40
255.0
 40
256.0
 40
256.0
 40
257.0
 40
257.0
 40
258.0
 40
258.0
 40
259.0
 40
259.0
 40
260.0
 40
260.0
 40
261.0
 40
261.0
 40
262.0
 40
262.0
 40
263.0
 40
263.0
 40
264.0
 40
264.0
 40
265.0
 40
265.0
 40
266.0
 40
266.0
 40
267.0
 40
267.0
 40
268.0
 40
268.0
 40
269.0
 40
269.0
 40
270.0
 40
270.0
 40
271.0
 40
271.0
 40
272.0
 40
272.0
 40
273.0
 40
273.0
 40
274.0
 40
274.0
 40
275.0
 40
275.0
 40
276.0
 40
276.0
 40
277.0
 40
277.0
 40
278.0
 40
278.0
 40
279.0
 40
279.0
 40
280.0
 40
280.0
 40
281.0
 40
281.0
 40
282.0
 40
282.0
 40
283.0
 40
283.0
 40
284.0
 40
284.0
 40
285.0
 40
285.0
 40
286.0
 40
286.0
 40
287.0
 40
287.0
 40
288.0
 40
288.0
 40
289.0
 40
289.0
 40
290.0
 40
290.0
 40
291.0
 40
291.0
 40
292.0
 40
292.0
 40
293.0
 40
293.0
 40
294.0
 40
294.0
 40
295.0
 40
295.0
 40
296.0
 40
296.0
 40
297.0
 40
297.0
 40
298.0
 40
298.0
 40
299.0
 40
299.0
 40
300.0
 40
300.0
 40
301.0
 40
301.0
 40
302.0
 40
302.0
 40
303.0
 40
303.0
 40
304.0
 40
304.0
 40
305.0
 40
305.0
 40
306.0
 40
306.0
 40
307.0
 40
307.0
 40
308.0
 40
308.0
 40
309.0
 40
309.0
 40
310.0
 40
310.0
 40
311.0
 40
311.0
 40
312.0
 40
312.0
 40
313.0
 40
313.0
 40
314.0
 40
314.0
 40
315.0
 40
315.0
 40
316.0
 40
316.0
 40
317.0
 40
317.0
 40
318.0
 40
318.0
 40
319.0
 40
319.0
 40
320.0
 40
320.0
 40
321.0
 40
321.0
 40
322.0
 40
322.0
 40
323.0
 40
323.0
 40
324.0
 40
324.0
 40
325.0
 40
325.0
 40
326.0
 40
326.0
 40
327.0
 40
327.0
 40
328.0
 40
328.0
 40
329.0
 40
329.0
 40
330.0
 40
330.0
 40
331.0
 40
331.0
 40
332.0
 40
332.0
 40
333.0
 40
333.0
 40
334.0
 40
334.0
 40
335.0
 40
335.0
 40
336.0
 40
336.0
 40
337.0
 40
337.0
 40
338.0
 40
338.0
 40
339.0
 40
339.0
 40
340.0
 40
340.0
 40
341.0
 40
341.0
 40
342.0
 40
342.0
 40
343.0
 40
343.0
 40
344.0
 40
344.0
 40
345.0
 40
345.0
 40
346.0
 40
346.0
 40
347.0
 40
347.0
 40
348.0
 40
348.0
 40
349.0
 40
349.0
 40
350.0
 40
350.0
 40
351.0
 40
351.0
 40
352.0
 40
352.0
 40
353.0
 40
353.0
 40
354.0
 40
354.0
 40
355.0
 40
355.0
 40
356.0
 40
356.0
 40
357.0
 40
357.0
 40
358.0
 40
358.0
 40
359.0
 40
359.0
 40
360.0
 40
360.0
 40
361.0
 40
361.0
 40
362.0
 40
362.0
 40
363.0
 40
363.0
 40
364.0
 40
364.0
 40
365.0
 40
365.0
 40
366.0
 40
366.0
 40
367.0
 40
367.0
 40
368.0
 40
368.0
 40
369.0
 40
369.0
 40
370.0
 40
370.0
 40
371.0
 40
371.0
 40
372.0
 40
372.0
 40
373.0
 40
373.0
 40
374.0
 40
374.0
 40
375.0
 40
375.0
 40
376.0
 40
376.0
 40
377.0
 40
377.0
 40
378.0
 40
378.0
 40
379.0
 40
379.0
 40
380.0
 40
380.0
 40
381.0
 40
381.0
 40
382.0
 40
382.0
 40
383.0
 40
383.0
 40
384.0
 40
384.0
 40
385.0
 40
385.0
 40
386.0
 40
386.0
 40
387.0
 40
387.0
 40
388.0
 40
388.0
 40
389.0
 40
389.0
 40
389.0
 10
624.32282042846327
 20
-1679.0626960539421
 30
0.0
 41
1.0
 10
625.14124453718375
 20
-1679.0626960539421
 30
0.0
 41
1.0
 10
625.95966864590423
 20
-1679.0626960539421
 30
0.0
 41
1.0
 10
625.54591491038741
 20
-1680.4053223181918
 30
0.0
 41
1.0
 10
625.13216117487059
 20
-1681.7479485824415
 30
0.0
 41
1.0
 10
625.15050067004859
 20
-1681.7192478095144
 30
0.0
 41
0.999995726443491
 10
625.16900766689037
 20
-1681.6906547593467
 30
0.0
 41
1.0
 10
625.19943699101714
 20
-1681.6436418809872
 30
0.0
 41
1.0
 10
625.22986631514391
 20
-1681.5966290026277
 30
0.0
 41
1.0
 10
625.30923196024855
 20
-1681.4740101957264
 30
0.0
 41
0.9995394069080448
 10
625.39589035179938
 20
-1681.3564321339861
 30
0.0
 41
1.0
 10
625.43164721406265
 20
-1681.3079172413879
 30
0.0
 41
1.0
 10
625.46740407632592
 20
-1681.2594023487898
 30
0.0
 41
1.0
 10
625.60113074414176
 20
-1681.0779620736662
 30
0.0
 41
0.9994460617143411
 10
625.74663122542756
 20
-1680.9058196760193
 30
0.0
 41
1.0
 10
625.75101940640411
 20
-1680.900627995635
 30
0.0
 41
1.0
 10
625.75540758738055
 20
-1680.8954363152507
 30
0.0
 41
1.0
 10
625.89213170671803
 20
-1680.7336772783669
 30
0.0
 41
0.9994359394934478
 10
626.03940593706693
 20
-1680.5814610772049
 30
0.0
 41
1.0
 10
626.04178929102068
 20
-1680.5789977468312
 30
0.0
 41
1.0
 10
626.04417264497442
 20
-1680.5765344164577
 30
0.0
 41
1.0
 10
626.18668016741935
 20
-1680.4292448760395
 30
0.0
 41
0.9995293688567951
 10
626.33795184840062
 20
-1680.290971663876
 30
0.0
 41
1.0
 10
626.35724560766289
 20
-1680.2733357782258
 30
0.0
 41
1.0
 10
626.37653936692516
 20
-1680.2556998925756
 30
0.0
 41
1.0
 10
626.48922352938121
 20
-1680.1526984517134
 30
0.0
 41
0.999708761480352
 10
626.60674641833771
 20
-1680.0552541709142
 30
0.0
 41
1.0
 10
626.62591249151524
 20
-1680.0393625924046
 30
0.0
 41
1.0
 10
626.64507856469265
 20
-1680.023471013895
 30
0.0
 41
1.0
 10
626.72426930729796
 20
-1679.957809890112
 30
0.0
 41
0.9999595338696877
 10
626.80462857814791
 20
-1679.8935841594612
 30
0.0
 41
1.0
 10
626.88498784900219
 20
-1679.8293584288072
 30
0.0
 41
0.99997494175047
 10
626.96624838334628
 20
-1679.7662768748603
 30
0.0
 41
1.0
 10
626.98723452951094
 20
-1679.7499855875569
 30
0.0
 41
1.0
 10
627.0082206756756
 20
-1679.7336943002535
 30
0.0
 41
1.0
 10
627.09278856097581
 20
-1679.6680452904138
 30
0.0
 41
0.9999792037117687
 10
627.17819616074894
 20
-1679.6034925087674
 30
0.0
 41
1.0
 10
627.19902098658849
 20
-1679.5877526865643
 30
0.0
 41
1.0
 10
627.21984581242793
 20
-1679.5720128643609
 30
0.0
 41
1.0
 10
627.26360376042248
 20
-1679.5389397271963
 30
0.0
 41
0.9999993373937826
 10
627.30728544666158
 20
-1679.5057659316997
 30
0.0
 41
1.0
 10
627.35096713279904
 20
-1679.4725921362797
 30
0.0
 41
0.9999160953815734
 10
627.39549354371763
 20
-1679.4405610710824
 30
0.0
 41
1.0
 10
627.4283154311405
 20
-1679.416949915495
 30
0.0
 41
1.0
 10
627.46113731856337
 20
-1679.3933387599077
 30
0.0
 41
1.0
 10
627.57130750431998
 20
-1679.3140853835407
 30
0.0
 41
0.9980964527231081
 10
627.6903964978186
 20
-1679.2489979106858
 30
0.0
 41
1.0
 10
627.72742910474813
 20
-1679.2287579310919
 30
0.0
 41
1.0
 10
627.76446171167754
 20
-1679.2085179514982
 30
0.0
 41
1.0
 10
627.9437887249511
 20
-1679.1105077007965
 30
0.0
 41
0.9984572810572336
 10
628.13287729131071
 20
-1679.0329854394499
 30
0.0
 41
1.0
 10
628.13652356070747
 20
-1679.0314905471116
 30
0.0
 41
1.0
 10
628.14016983010413
 20
-1679.0299956547733
 30
0.0
 41
1.0
 10
628.32196585767099
 20
-1678.9554631781029
 30
0.0
 41
0.9987838528034138
 10
628.51021851622886
 20
-1678.8991975379377
 30
0.0
 41
1.0
 10
628.51445646542732
 20
-1678.8979308842477
 30
0.0
 41
1.0
 10
628.51869441462577
 20
-1678.8966642305575
 30
0.0
 41
1.0
 10
628.69847117478787
 20
-1678.8429318977719
 30
0.0
 41
0.9990652816207103
 10
628.88221710650396
 20
-1678.8049282182299
 30
0.0
 41
1.0
 10
628.88740550753596
 20
-1678.8038551151233
 30
0.0
 41
1.0
 10
628.89259390856807
 20
-1678.8027820120167
 30
0.0
 41
1.0
 10
629.06596303822027
 20
-1678.7669245386878
 30
0.0
 41
0.9992909934270007
 10
629.24153880467816
 20
-1678.7442141062213
 30
0.0
 41
1.0
 10
629.41711457113399
 20
-1678.721503673755
 30
0.0
 41
0.9994553539448712
 10
629.59380600422503
 20
-1678.7104243695487
 30
0.0
 41
1.0
 10
629.6292404120245
 20
-1678.7082024815008
 30
0.0
 41
1.0
 10
629.66467481982409
 20
-1678.7059805934528
 30
0.0
 41
1.0
 10
629.83090058639186
 20
-1678.6955575310412
 30
0.0
 41
0.9990928098293006
 10
629.9974103782929
 20
-1678.6993171722756
 30
0.0
 41
1.0
 10
630.03597221356381
 20
-1678.7001878638087
 30
0.0
 41
1.0
 10
630.07453404883483
 20
-1678.7010585553417
 30
0.0
 41
1.0
 10
630.16392017019473
 20
-1678.7030768135103
 30
0.0
 41
0.9998382089205382
 10
630.25317585298183
 20
-1678.7083089400385
 30
0.0
 41
1.0
 10
630.25360575920058
 20
-1678.7083341409407
 30
0.0
 41
1.0
 10
630.25403566541934
 20
-1678.7083593418429
 30
0.0
 41
1.0
 10
630.34243153576699
 20
-1678.7135410665664
 30
0.0
 41
0.9997558016759045
 10
630.43051211296881
 20
-1678.722623581933
 30
0.0
 41
1.0
 10
630.43098825139964
 20
-1678.7226726794156
 30
0.0
 41
1.0
 10
630.43146438983058
 20
-1678.7227217768984
 30
0.0
 41
1.0
 10
630.51859269017086
 20
-1678.7317060972996
 30
0.0
 41
0.999656514418188
 10
630.60513054351168
 20
-1678.7452434039883
 30
0.0
 41
1.0
 10
630.60559646888782
 20
-1678.7453162897195
 30
0.0
 41
1.0
 10
630.60606239426386
 20
-1678.7453891754506
 30
0.0
 41
1.0
 10
630.69166839685226
 20
-1678.7587807106772
 30
0.0
 41
0.9995321806867119
 10
630.77629547718163
 20
-1678.7773811991067
 30
0.0
 41
1.0
 10
630.77668467175386
 20
-1678.7774667415727
 30
0.0
 41
1.0
 10
630.77707386632619
 20
-1678.7775522840386
 30
0.0
 41
1.0
 10
630.86092255750998
 20
-1678.7959816875361
 30
0.0
 41
0.9993819199219509
 10
630.94326909170582
 20
-1678.8202570707967
 30
0.0
 41
1.0
 10
630.94350752520279
 20
-1678.8203273599058
 30
0.0
 41
1.0
 10
630.94374595869976
 20
-1678.8203976490149
 30
0.0
 41
1.0
 10
631.02561562590051
 20
-1678.8445324540567
 30
0.0
 41
0.9992088568504441
 10
631.10530814489027
 20
-1678.8750976898518
 30
0.0
 41
1.0
 10
631.18498913576923
 20
-1678.9056572905849
 30
0.0
 41
0.9990226101773317
 10
631.26165980567646
 20
-1678.9431347221994
 30
0.0
 41
1.0
 10
631.33831894747448
 20
-1678.9806065187527
 30
0.0
 41
0.9988424273972354
 10
631.41102257468594
 20
-1679.0252712940053
 30
0.0
 41
1.0
 10
631.41129028306568
 20
-1679.0254357580779
 30
0.0
 41
1.0
 10
631.41155799144553
 20
-1679.0256002221504
 30
0.0
 41
1.0
 10
631.4847970354167
 20
-1679.0705939255477
 30
0.0
 41
0.9986928844490428
 10
631.55305990212548
 20
-1679.1228296598267
 30
0.0
 41
1.0
 10
631.55364119434864
 20
-1679.1232744730551
 30
0.0
 41
1.0
 10
631.5542224865718
 20
-1679.1237192862832
 30
0.0
 41
1.0
 10
631.62364793772724
 20
-1679.1768446470187
 30
0.0
 41
0.9986007262277762
 10
631.68707410749312
 20
-1679.2370054167113
 30
0.0
 41
1.0
 10
631.68796852295077
 20
-1679.2378537845468
 30
0.0
 41
1.0
 10
631.68886293840831
 20
-1679.2387021523823
 30
0.0
 41
1.0
 10
631.75407793908914
 20
-1679.3005596577452
 30
0.0
 41
0.99855814913801
 10
631.81228555079008
 20
-1679.3690521480164
 30
0.0
 41
1.0
 10
631.8215440043864
 20
-1679.3799465057186
 30
0.0
 41
1.0
 10
631.83080245798271
 20
-1679.3908408634211
 30
0.0
 41
1.0
 10
631.9075269768756
 20
-1679.4811220690956
 30
0.0
 41
0.9970460233520009
 10
631.96951887803539
 20
-1679.5820891532778
 30
0.0
 41
1.0
 10
631.98398824311494
 20
-1679.605655612359
 30
0.0
 41
1.0
 10
631.99845760819437
 20
-1679.6292220714402
 30
0.0
 41
1.0
 10
632.03819430820613
 20
-1679.6939417954709
 30
0.0
 41
0.9988468816636142
 10
632.07154067895817
 20
-1679.7621742478996
 30
0.0
 41
1.0
 10
632.07857670144995
 20
-1679.7765711690377
 30
0.0
 41
1.0
 10
632.08561272394172
 20
-1679.7909680901755
 30
0.0
 41
1.0
 10
632.10488704970976
 20
-1679.8304067003273
 30
0.0
 41
0.9998431189998608
 10
632.12275237720473
 20
-1679.870503254768
 30
0.0
 41
1.0
 10
632.14061770471835
 20
-1679.9105998092505
 30
0.0
 41
0.9999989990034202
 10
632.15859642813268
 20
-1679.9506456468171
 30
0.0
 41
1.0
 10
632.16476873972147
 20
-1679.9643938636175
 30
0.0
 41
1.0
 10
632.17094105131025
 20
-1679.9781420804179
 30
0.0
 41
1.0
 10
632.20126439792148
 20
-1680.0456843516286
 30
0.0
 41
0.9998790356321244
 10
632.22947227805776
 20
-1680.1141371035619
 30
0.0
 41
1.0
 10
632.2363074593427
 20
-1680.1307242049907
 30
0.0
 41
1.0
 10
632.24314264062752
 20
-1680.1473113064194
 30
0.0
 41
1.0
 10
632.26670030300772
 20
-1680.2044792613042
 30
0.0
 41
0.9998227574561028
 10
632.28808905139692
 20
-1680.2624935695817
 30
0.0
 41
1.0
 10
632.30947779978669
 20
-1680.3205078778608
 30
0.0
 41
0.9996797971041561
 10
632.32790408474511
 20
-1680.3795299969763
 30
0.0
 41
1.0
 10
632.33180788747086
 20
-1680.3920344551457
 30
0.0
 41
1.0
 10
632.33571169019649
 20
-1680.4045389133153
 30
0.0
 41
1.0
 10
632.36194558060686
 20
-1680.4885699487722
 30
0.0
 41
0.9979274938735159
 10
632.37717010408596
 20
-1680.5752743074318
 30
0.0
 41
1.0
 10
632.37939379134696
 20
-1680.587938308252
 30
0.0
 41
1.0
 10
632.38161747860795
 20
-1680.600602309072
 30
0.0
 41
1.0
 10
632.39254741830609
 20
-1680.6628488163615
 30
0.0
 41
0.9994985982138132
 10
632.39951558348355
 20
-1680.7256623175062
 30
0.0
 41
1.0
 10
632.40648374866078
 20
-1680.7884758186492
 30
0.0
 41
0.9996372611200813
 10
632.41005961442841
 20
-1680.8515733973331
 30
0.0
 41
1.0
 10
632.41022819191767
 20
-1680.8545480144139
 30
0.0
 41
1.0
 10
632.41039676940693
 20
-1680.8575226314947
 30
0.0
 41
1.0
 10
632.41430979015331
 20
-1680.9265694443395
 30
0.0
 41
0.999773063073734
 10
632.41527810364141
 20
-1680.995720268377
 30
0.0
 41
1.0
 10
632.41533521005954
 20
-1680.9997984475178
 30
0.0
 41
1.0
 10
632.41539231647755
 20
-1681.0038766266587
 30
0.0
 41
1.0
 10
632.41647484280168
 20
-1681.0811838089794
 30
0.0
 41
0.9998772614071312
 10
632.41513475606996
 20
-1681.1584869555466
 30
0.0
 41
1.0
 10
632.41504549287129
 20
-1681.1636361193787
 30
0.0
 41
1.0
 10
632.41495622967261
 20
-1681.1687852832108
 30
0.0
 41
1.0
 10
632.41343761654332
 20
-1681.256386757452
 30
0.0
 41
0.9999415567327575
 10
632.41002530629692
 20
-1681.3439349191333
 30
0.0
 41
1.0
 10
632.40978398562186
 20
-1681.3501263788639
 30
0.0
 41
1.0
 10
632.4095426649468
 20
-1681.3563178385948
 30
0.0
 41
1.0
 10
632.40564771335005
 20
-1681.4562489197472
 30
0.0
 41
0.9999716810431026
 10
632.40024913023217
 20
-1681.5561100579619
 30
0.0
 41
1.0
 10
632.39703633144313
 20
-1681.6155393076237
 30
0.0
 41
1.0
 10
632.39382353265421
 20
-1681.6749685572856
 30
0.0
 41
1.0
 10
632.3857496235014
 20
-1681.8243169585671
 30
0.0
 41
0.9999819129910997
 10
632.37587983188484
 20
-1681.9735574362803
 30
0.0
 41
1.0
 10
632.36601004026829
 20
-1682.1227979139917
 30
0.0
 41
1.0
 10
632.36357071970428
 20
-1682.159990959841
 30
0.0
 41
1.0
 10
632.38626895352297
 20
-1682.1212499625326
 30
0.0
 41
0.9999982128186428
 10
632.40911351227601
 20
-1682.0825950685785
 30
0.0
 41
1.0
 10
632.43602307216827
 20
-1682.0370618545107
 30
0.0
 41
1.0
 10
632.46293263206053
 20
-1681.991528640443
 30
0.0
 41
1.0
 10
632.53959631058729
 20
-1681.8618073183718
 30
0.0
 41
0.999860919005757
 10
632.62054362345418
 20
-1681.7347149364343
 30
0.0
 41
1.0
 10
632.65019194493357
 20
-1681.6881652034808
 30
0.0
 41
1.0
 10
632.67984026641307
 20
-1681.6416154705271
 30
0.0
 41
1.0
 10
632.76211248664981
 20
-1681.5124429005327
 30
0.0
 41
0.9999067609733514
 10
632.84788149611268
 20
-1681.3855652110933
 30
0.0
 41
1.0
 10
632.85028619931688
 20
-1681.3820079450336
 30
0.0
 41
1.0
 10
632.85269090252109
 20
-1681.3784506789739
 30
0.0
 41
1.0
 10
632.93365050557964
 20
-1681.258687521648
 30
0.0
 41
0.9998784952152012
 10
633.01830411525816
 20
-1681.1415063049431
 30
0.0
 41
1.0
 10
633.10295772493635
 20
-1681.0243250882384
 30
0.0
 41
0.9998532968284337
 10
633.19157534575891
 20
-1680.9101121797682
 30
0.0
 41
1.0
 10
633.21153713475064
 20
-1680.8843848587471
 30
0.0
 41
1.0
 10
633.23149892374249
 20
-1680.8586575377262
 30
0.0
 41
1.0
 10
633.34998297350205
 20
-1680.7059519267564
 30
0.0
 41
0.9991551975795318
 10
633.48060742312668
 20
-1680.5634923646717
 30
0.0
 41
1.0
 10
633.4841170391087
 20
-1680.5596647630448
 30
0.0
 41
1.0
 10
633.48762665509082
 20
-1680.5558371614179
 30
0.0
 41
1.0
 10
633.61123187275246
 20
-1680.4210328025861
 30
0.0
 41
0.999741814418094
 10
633.74083401245082
 20
-1680.2919833919757
 30
0.0
 41
1.0
 10
633.87043615215214
 20
-1680.1629339813626
 30
0.0
 41
0.998923820463321
 10
634.01143870040232
 20
-1680.0464490193244
 30
0.0
 41
1.0
 10
634.05668637854365
 20
-1680.0090690277143
 30
0.0
 41
1.0
 10
634.10193405668508
 20
-1679.971689036104
 30
0.0
 41
1.0
 10
634.24217411390396
 20
-1679.8558339828151
 30
0.0
 41
0.9990825084096495
 10
634.39181404650685
 20
-1679.7524049849831
 30
0.0
 41
1.0
 10
634.40185941056097
 20
-1679.7454617719054
 30
0.0
 41
1.0
 10
634.41190477461498
 20
-1679.738518558828
 30
0.0
 41
1.0
 10
634.54145397910793
 20
-1679.6489759871517
 30
0.0
 41
0.9998164899825324
 10
634.67433818248708
 20
-1679.5644617456337
 30
0.0
 41
1.0
 10
634.686183743014
 20
-1679.5569279791075
 30
0.0
 41
1.0
 10
634.69802930354092
 20
-1679.5493942125811
 30
0.0
 41
1.0
 10
634.80722238586463
 20
-1679.4799475041164
 30
0.0
 41
0.9997473449131757
 10
634.91942634311283
 20
-1679.4154785463015
 30
0.0
 41
1.0
 10
635.03163030036399
 20
-1679.3510095884849
 30
0.0
 41
0.999932786114394
 10
635.14529891113045
 20
-1679.2891595968017
 30
0.0
 41
1.0
 10
635.14585091368883
 20
-1679.2888592381239
 30
0.0
 41
1.0
 10
635.14640291624721
 20
-1679.2885588794461
 30
0.0
 41
1.0
 10
635.26117553213237
 20
-1679.2261081704062
 30
0.0
 41
0.9996956420483224
 10
635.37888885797304
 20
-1679.1693947034314
 30
0.0
 41
1.0
 10
635.40932926286541
 20
-1679.1547287267015
 30
0.0
 41
1.0
 10
635.4397696677579
 20
-1679.1400627499715
 30
0.0
 41
1.0
 10
635.54274677450167
 20
-1679.0904490915282
 30
0.0
 41
0.9998070570176472
 10
635.64759316344248
 20
-1679.0449185046273
 30
0.0
 41
1.0
 10
635.75243955238625
 20
-1678.999387917725
 30
0.0
 41
0.999782743614774
 10
635.85909248899691
 20
-1678.9582667464128
 30
0.0
 41
1.0
 10
635.87831533862641
 20
-1678.9508551727813
 30
0.0
 41
1.0
 10
635.89753818825602
 20
-1678.9434435991495
 30
0.0
 41
1.0
 10
636.04263682412943
 20
-1678.8874992805727
 30
0.0
 41
0.9988031841977063
 10
636.1925071867347
 20
-1678.8459992164046
 30
0.0
 41
1.0
 10
636.21742443509834
 20
-1678.8390994705976
 30
0.0
 41
1.0
 10
636.24234168346186
 20
-1678.8321997247906
 30
0.0
 41
1.0
 10
636.40961170910805
 20
-1678.7858815823843
 30
0.0
 41
0.9984748040550449
 10
636.58096861775596
 20
-1678.7582873501196
 30
0.0
 41
1.0
 10
636.58570775400426
 20
-1678.7575241896063
 30
0.0
 41
1.0
 10
636.59044689025245
 20
-1678.756761029093
 30
0.0
 41
1.0
 10
636.75232552640421
 20
-1678.7306931178548
 30
0.0
 41
0.9984436495479924
 10
636.91610027012973
 20
-1678.7228151640361
 30
0.0
 41
1.0
 10
636.93779747826136
 20
-1678.7217714768365
 30
0.0
 41
1.0
 10
636.95949468639299
 20
-1678.7207277896368
 30
0.0
 41
1.0
 10
637.0798750138548
 20
-1678.7149372102174
 30
0.0
 41
0.9987954789335211
 10
637.20024325876432
 20
-1678.7209737379596
 30
0.0
 41
1.0
 10
637.2202080512584
 20
-1678.7219749822982
 30
0.0
 41
1.0
 10
637.24017284375259
 20
-1678.7229762266368
 30
0.0
 41
1.0
 10
637.32061150367383
 20
-1678.7270102657019
 30
0.0
 41
0.999794159587623
 10
637.40082028176857
 20
-1678.734304331623
 30
0.0
 41
1.0
 10
637.48102905986536
 20
-1678.7415983975443
 30
0.0
 41
0.9998589466236105
 10
637.56094760672249
 20
-1678.7515822519947
 30
0.0
 41
1.0
 10
637.59335380852849
 20
-1678.7556306089136
 30
0.0
 41
1.0
 10
637.62576001033449
 20
-1678.7596789658326
 30
0.0
 41
1.0
 10
637.77049096080293
 20
-1678.7777595341206
 30
0.0
 41
0.9993495063248923
 10
637.9135422045656
 20
-1678.8062252438617
 30
0.0
 41
1.0
 10
637.94647590171985
 20
-1678.8127787070769
 30
0.0
 41
1.0
 10
637.97940959887399
 20
-1678.819332170292
 30
0.0
 41
1.0
 10
638.08870342207922
 20
-1678.8410805044275
 30
0.0
 41
0.9996788715560807
 10
638.19675499403661
 20
-1678.8683383037908
 30
0.0
 41
1.0
 10
638.19881799657549
 20
-1678.8688587303636
 30
0.0
 41
1.0
 10
638.20088099911436
 20
-1678.8693791569365
 30
0.0
 41
1.0
 10
638.30480656599354
 20
-1678.895596103154
 30
0.0
 41
0.9995480654492717
 10
638.40696880122243
 20
-1678.9280110597783
 30
0.0
 41
1.0
 10
638.40865844335303
 20
-1678.9285471646926
 30
0.0
 41
1.0
 10
638.41034808548363
 20
-1678.9290832696072
 30
0.0
 41
1.0
 10
638.5091310364528
 20
-1678.9604260164031
 30
0.0
 41
0.9993867959455952
 10
638.60547819489443
 20
-1678.9986053856924
 30
0.0
 41
1.0
 10
638.60672114397812
 20
-1678.9990979275881
 30
0.0
 41
1.0
 10
638.6079640930617
 20
-1678.999590469484
 30
0.0
 41
1.0
 10
638.70182535333549
 20
-1679.0367847549815
 30
0.0
 41
0.9992050256521707
 10
638.7924250283703
 20
-1679.0813386542209
 30
0.0
 41
1.0
 10
638.79315971108315
 20
-1679.081699946682
 30
0.0
 41
1.0
 10
638.79389439379599
 20
-1679.0820612391428
 30
0.0
 41
1.0
 10
638.88302470340329
 20
-1679.1258925534594
 30
0.0
 41
0.9990222350741721
 10
638.96793476479729
 20
-1679.1774258211581
 30
0.0
 41
1.0
 10
638.96811865007908
 20
-1679.1775374240624
 30
0.0
 41
1.0
 10
638.96830253536086
 20
-1679.1776490269665
 30
0.0
 41
1.0
 10
639.05284482619084
 20
-1679.2289590888563
 30
0.0
 41
0.9988642743805541
 10
639.13211936080995
 20
-1679.2880832763815
 30
0.0
 41
1.0
 10
639.21139389542816
 20
-1679.347207463906
 30
0.0
 41
0.9987681233310328
 10
639.28441767970457
 20
-1679.4138981553069
 30
0.0
 41
1.0
 10
639.28474660767063
 20
-1679.4141985565213
 30
0.0
 41
1.0
 10
639.28507553563668
 20
-1679.4144989577358
 30
0.0
 41
1.0
 10
639.35875717584508
 20
-1679.481790451566
 30
0.0
 41
0.9987496570899879
 10
639.42535098117207
 20
-1679.5561032656522
 30
0.0
 41
1.0
 10
639.42612315093231
 20
-1679.55696493901
 30
0.0
 41
1.0
 10
639.42689532069255
 20
-1679.5578266123675
 30
0.0
 41
1.0
 10
639.49503346554081
 20
-1679.63386277317
 30
0.0
 41
0.9988147669826569
 10
639.55545571976575
 20
-1679.7161637800125
 30
0.0
 41
1.0
 10
639.55657504584337
 20
-1679.7176884113651
 30
0.0
 41
1.0
 10
639.55769437192112
 20
-1679.7192130427175
 30
0.0
 41
1.0
 10
639.62035527830153
 20
-1679.8045633122649
 30
0.0
 41
0.9989452636216319
 10
639.67492219126325
 20
-1679.8953020014233
 30
0.0
 41
1.0
 10
639.6762709173488
 20
-1679.8975447824491
 30
0.0
 41
1.0
 10
639.67761964343424
 20
-1679.899787563475
 30
0.0
 41
1.0
 10
639.73488400856775
 20
-1679.9950118146869
 30
0.0
 41
0.9991046436071024
 10
639.78389322188877
 20
-1680.0947362477111
 30
0.0
 41
1.0
 10
639.78535708347863
 20
-1680.0977149277833
 30
0.0
 41
1.0
 10
639.7868209450686
 20
-1680.1006936078556
 30
0.0
 41
1.0
 10
639.83875788157104
 20
-1680.206375401028
 30
0.0
 41
0.9992763831101306
 10
639.88251101012588
 20
-1680.3156994629837
 30
0.0
 41
1.0
 10
639.88399027978892
 20
-1680.3193956505165
 30
0.0
 41
1.0
 10
639.88546954945195
 20
-1680.3230918380493
 30
0.0
 41
1.0
 10
639.93218121733298
 20
-1680.4398082750699
 30
0.0
 41
0.999416347288279
 10
639.97081424852274
 20
-1680.5594418635346
 30
0.0
 41
1.0
 10
639.97205240077028
 20
-1680.5632760073199
 30
0.0
 41
1.0
 10
639.97329055301793
 20
-1680.567110151105
 30
0.0
 41
1.0
 10
640.01317411403465
 20
-1680.690616212582
 30
0.0
 41
0.9997268055891269
 10
640.04724216994623
 20
-1680.8158512445311
 30
0.0
 41
1.0
 10
640.04817235021574
 20
-1680.8192706106397
 30
0.0
 41
1.0
 10
640.04910253048524
 20
-1680.8226899767485
 30
0.0
 41
1.0
 10
640.08131022585758
 20
-1680.9410862764792
 30
0.0
 41
0.9996701319000797
 10
640.10739584262876
 20
-1681.0609802297454
 30
0.0
 41
1.0
 10
640.13348145939915
 20
-1681.1808741830077
 30
0.0
 41
0.9995785451109244
 10
640.15256503673936
 20
-1681.3020799440424
 30
0.0
 41
1.0
 10
640.15678481891268
 20
-1681.3288810988051
 30
0.0
 41
1.0
 10
640.16100460108601
 20
-1681.3556822535677
 30
0.0
 41
1.0
 10
640.18757957702508
 20
-1681.5244682272714
 30
0.0
 41
0.9979925101215851
 10
640.19260516295128
 20
-1681.6952595553651
 30
0.0
 41
1.0
 10
640.19342997537592
 20
-1681.7232902788483
 30
0.0
 41
1.0
 10
640.19425478780067
 20
-1681.7513210023312
 30
0.0
 41
1.0
 10
640.1976307488776
 20
-1681.86605088346
 30
0.0
 41
0.9995314902263466
 10
640.19398055673912
 20
-1681.9807723672088
 30
0.0
 41
1.0
 10
640.19033036460064
 20
-1682.0954938509612
 30
0.0
 41
0.9996245486944182
 10
640.1804012694696
 20
-1682.2098431220866
 30
0.0
 41
1.0
 10
640.18023822147552
 20
-1682.2117208782208
 30
0.0
 41
1.0
 10
640.18007517348133
 20
-1682.2135986343551
 30
0.0
 41
1.0
 10
640.16981998236201
 20
-1682.3317034177498
 30
0.0
 41
0.9997286095000892
 10
640.15407465879071
 20
-1682.4492023266437
 30
0.0
 41
1.0
 10
640.15368116614036
 20
-1682.452138751346
 30
0.0
 41
1.0
 10
640.1532876734899
 20
-1682.455075176048
 30
0.0
 41
1.0
 10
640.13675536461676
 20
-1682.5784469343525
 30
0.0
 41
0.9998265533968764
 10
640.11563990588411
 20
-1682.7011174091406
 30
0.0
 41
1.0
 10
640.11496336374739
 20
-1682.7050477876451
 30
0.0
 41
1.0
 10
640.11428682161079
 20
-1682.7089781661498
 30
0.0
 41
1.0
 10
640.09181827860459
 20
-1682.8395093979495
 30
0.0
 41
0.9999022530852839
 10
640.06570881399421
 20
-1682.9693613665902
 30
0.0
 41
1.0
 10
640.0647301728286
 20
-1682.9742285089783
 30
0.0
 41
1.0
 10
640.06375153166312
 20
-1682.9790956513664
 30
0.0
 41
1.0
 10
640.03568478472255
 20
-1683.1186819047789
 30
0.0
 41
0.9999524761940677
 10
640.00490181588566
 20
-1683.2576943979534
 30
0.0
 41
1.0
 10
640.00362570871118
 20
-1683.2634571572512
 30
0.0
 41
1.0
 10
640.00234960153671
 20
-1683.269219916549
 30
0.0
 41
1.0
 10
639.96901441834814
 20
-1683.4197579283302
 30
0.0
 41
0.9999813588720991
 10
639.93384341755325
 20
-1683.5698776409822
 30
0.0
 41
1.0
 10
639.93228949209765
 20
-1683.5765102314003
 30
0.0
 41
1.0
 10
639.93073556664217
 20
-1683.5831428218187
 30
0.0
 41
1.0
 10
639.89245671493609
 20
-1683.7465277153074
 30
0.0
 41
0.9999955237638593
 10
639.85320083695728
 20
-1683.909680618907
 30
0.0
 41
1.0
 10
639.84091920132062
 20
-1683.9607248094394
 30
0.0
 41
1.0
 10
639.82863756568395
 20
-1684.011768999972
 30
0.0
 41
1.0
 10
639.76481841642931
 20
-1684.2770102846466
 30
0.0
 41
0.9999993604647354
 10
639.70039946924999
 20
-1684.5421065353778
 30
0.0
 41
1.0
 10
639.69568063371139
 20
-1684.5615254433837
 30
0.0
 41
1.0
 10
639.69096179817268
 20
-1684.5809443513895
 30
0.0
 41
1.0
 10
639.61710517991332
 20
-1684.8848784181437
 30
0.0
 41
0.9999659914726707
 10
639.53824558402937
 20
-1685.1875529646984
 30
0.0
 41
1.0
 10
639.53329289509747
 20
-1685.2065621018855
 30
0.0
 41
1.0
 10
639.52834020616569
 20
-1685.2255712390725
 30
0.0
 41
1.0
 10
639.43957523241806
 20
-1685.5662640600003
 30
0.0
 41
0.9999441976022468
 10
639.34363219945112
 20
-1685.9050054853108
 30
0.0
 41
1.0
 10
639.32693168102844
 20
-1685.9639691978282
 30
0.0
 41
1.0
 10
639.31023116260576
 20
-1686.0229329103458
 30
0.0
 41
1.0
 10
639.18088709279368
 20
-1686.4796017606918
 30
0.0
 41
0.9999625120730293
 10
639.04365432547274
 20
-1686.9339622946793
 30
0.0
 41
1.0
 10
639.00786438238924
 20
-1687.0524583213082
 30
0.0
 41
1.0
 10
638.97207443930574
 20
-1687.1709543479374
 30
0.0
 41
1.0
 10
638.89755423526583
 20
-1687.4176814260368
 30
0.0
 41
0.9999793386306448
 10
638.8198682121232
 20
-1687.6634300652886
 30
0.0
 41
1.0
 10
638.74218218898568
 20
-1687.9091787045247
 30
0.0
 41
1.0
 10
638.73140263011487
 20
-1687.9431966088994
 30
0.0
 41
1.0
 10
636.88102957684578
 20
-1693.830268531367
 30
0.0
 41
1.0
 10
635.03065652357668
 20
-1699.7173404538344
 30
0.0
 41
1.0
 10
634.06939983355312
 20
-1699.7173404538344
 30
0.0
 41
1.0
 10
633.10814314352956
 20
-1699.7173404538344
 30
0.0
 41
1.0
 10
634.72708792220794
 20
-1694.5693119520449
 30
0.0
 41
1.0
 10
636.34603270088633
 20
-1689.4212834502555
 30
0.0
 41
1.0
 10
636.39119852406066
 20
-1689.2772522279859
 30
0.0
 41
1.0
 10
636.43636434723487
 20
-1689.1332210057162
 30
0.0
 41
1.0
 10
636.60666876459777
 20
-1688.5901299765528
 30
0.0
 41
0.999991165789159
 10
636.77240157627796
 20
-1688.0456264451896
 30
0.0
 41
1.0
 10
636.802097519781
 20
-1687.9480625051306
 30
0.0
 41
1.0
 10
636.83179346328404
 20
-1687.8504985650713
 30
0.0
 41
1.0
 10
636.93813438795553
 20
-1687.5011229138349
 30
0.0
 41
0.9999952428194934
 10
637.04231797728312
 20
-1687.1510978894762
 30
0.0
 41
1.0
 10
637.0473774476153
 20
-1687.1340996152021
 30
0.0
 41
1.0
 10
637.05243691794749
 20
-1687.1171013409278
 30
0.0
 41
1.0
 10
637.14650156660559
 20
-1686.8010728651352
 30
0.0
 41
0.9999931687529595
 10
637.23822740448179
 20
-1686.4843576518563
 30
0.0
 41
1.0
 10
637.24316266893982
 20
-1686.4673169425905
 30
0.0
 41
1.0
 10
637.24809793339784
 20
-1686.4502762333248
 30
0.0
 41
1.0
 10
637.32995324235105
 20
-1686.1676424386014
 30
0.0
 41
0.9999893840795504
 10
637.40920046881229
 20
-1685.8842663093392
 30
0.0
 41
1.0
 10
637.48844769526988
 20
-1685.6008901800901
 30
0.0
 41
0.9999833980065204
 10
637.56442393601014
 20
-1685.3166195970668
 30
0.0
 41
1.0
 10
637.57342787273205
 20
-1685.2829307185898
 30
0.0
 41
1.0
 10
637.58243180945396
 20
-1685.2492418401125
 30
0.0
 41
1.0
 10
637.6513963583202
 20
-1684.9912060078163
 30
0.0
 41
0.9999233658069696
 10
637.71395132954251
 20
-1684.7315418490862
 30
0.0
 41
1.0
 10
637.77650630076278
 20
-1684.4718776903637
 30
0.0
 41
1.0
 10
637.81598971962035
 20
-1684.3080710259376
 30
0.0
 41
1.0
 10
637.82096832359991
 20
-1684.2874160640577
 30
0.0
 41
1.0
 10
637.82594692757948
 20
-1684.2667611021777
 30
0.0
 41
1.0
 10
637.85547313847837
 20
-1684.1442643615094
 30
0.0
 41
0.9999868670873275
 10
637.8837422224741
 20
-1684.021471415866
 30
0.0
 41
1.0
 10
637.88763970962952
 20
-1684.004541828459
 30
0.0
 41
1.0
 10
637.89153719678495
 20
-1683.9876122410519
 30
0.0
 41
1.0
 10
637.91201130646743
 20
-1683.8986784702333
 30
0.0
 41
0.9999778173343727
 10
637.93129890458579
 20
-1683.8094798529901
 30
0.0
 41
1.0
 10
637.95058650270255
 20
-1683.7202812357546
 30
0.0
 41
0.9999602692862999
 10
637.96828086133507
 20
-1683.6307529473179
 30
0.0
 41
1.0
 10
637.97148469341118
 20
-1683.6145424924398
 30
0.0
 41
1.0
 10
637.9746885254873
 20
-1683.5983320375619
 30
0.0
 41
1.0
 10
637.99879054827284
 20
-1683.476382839367
 30
0.0
 41
0.999561798532037
 10
638.01563389549165
 20
-1683.3532210916605
 30
0.0
 41
1.0
 10
638.01809838539828
 20
-1683.3352002742922
 30
0.0
 41
1.0
 10
638.0205628753049
 20
-1683.3171794569239
 30
0.0
 41
1.0
 10
638.0408461363528
 20
-1683.1688644072246
 30
0.0
 41
0.9991121410639796
 10
638.04857148994097
 20
-1683.0193683084194
 30
0.0
 41
1.0
 10
638.04949027996554
 20
-1683.0015884718423
 30
0.0
 41
1.0
 10
638.05040906999022
 20
-1682.9838086352652
 30
0.0
 41
1.0
 10
638.05629684352948
 20
-1682.8698722096112
 30
0.0
 41
0.9989792494904655
 10
638.05187775141189
 20
-1682.7558693737151
 30
0.0
 41
1.0
 10
638.05122977954329
 20
-1682.7391531277881
 30
0.0
 41
1.0
 10
638.05058180767458
 20
-1682.7224368818613
 30
0.0
 41
1.0
 10
638.04745865929453
 20
-1682.6418665378194
 30
0.0
 41
0.9997820295394369
 10
638.04097466191888
 20
-1682.5614968160726
 30
0.0
 41
1.0
 10
638.03449066454345
 20
-1682.4811270943312
 30
0.0
 41
0.9998335105974889
 10
638.02507846903143
 20
-1682.4010474778777
 30
0.0
 41
1.0
 10
638.02348354435514
 20
-1682.3874777473952
 30
0.0
 41
1.0
 10
638.02188861967886
 20
-1682.3739080169125
 30
0.0
 41
1.0
 10
638.00928657481461
 20
-1682.2666889394968
 30
0.0
 41
0.999687645787964
 10
637.99134266201634
 20
-1682.1602335117811
 30
0.0
 41
1.0
 10
637.98911099887118
 20
-1682.1469937765401
 30
0.0
 41
1.0
 10
637.98687933572592
 20
-1682.1337540412987
 30
0.0
 41
1.0
 10
637.97308351430502
 20
-1682.0519078973409
 30
0.0
 41
0.9995547496495305
 10
637.95443019241191
 20
-1681.9710304001471
 30
0.0
 41
1.0
 10
637.95405623554063
 20
-1681.9694089894419
 30
0.0
 41
1.0
 10
637.95368227866936
 20
-1681.9677875787365
 30
0.0
 41
1.0
 10
637.93577687051948
 20
-1681.8901529029563
 30
0.0
 41
0.9994899427174725
 10
637.91295196183989
 20
-1681.8138196201216
 30
0.0
 41
1.0
 10
637.91249343509912
 20
-1681.8122861703328
 30
0.0
 41
1.0
 10
637.91203490835824
 20
-1681.8107527205439
 30
0.0
 41
1.0
 10
637.89012705316054
 20
-1681.737486337287
 30
0.0
 41
0.9993784877590547
 10
637.8631114180539
 20
-1681.6659456321281
 30
0.0
 41
1.0
 10
637.86257972707722
 20
-1681.664537649408
 30
0.0
 41
1.0
 10
637.86204803610042
 20
-1681.6631296666878
 30
0.0
 41
1.0
 10
637.8360957829467
 20
-1681.5944049269676
 30
0.0
 41
0.9992430832254544
 10
637.80487924778799
 20
-1681.5279057749008
 30
0.0
 41
1.0
 10
637.80429713173135
 20
-1681.5266657197831
 30
0.0
 41
1.0
 10
637.80371501567458
 20
-1681.5254256646656
 30
0.0
 41
1.0
 10
637.77366271262861
 20
-1681.4614066228321
 30
0.0
 41
0.9990789632797898
 10
637.73823208585202
 20
-1681.4002000110829
 30
0.0
 41
1.0
 10
637.73763637967045
 20
-1681.3991709252243
 30
0.0
 41
1.0
 10
637.73704067348876
 20
-1681.3981418393657
 30
0.0
 41
1.0
 10
637.70280145907543
 20
-1681.3389933993335
 30
0.0
 41
0.9988874801121225
 10
637.66314218304319
 20
-1681.2833336869153
 30
0.0
 41
1.0
 10
637.66258665697887
 20
-1681.2825540352405
 30
0.0
 41
1.0
 10
637.66203113091444
 20
-1681.2817743835656
 30
0.0
 41
1.0
 10
637.62348290701095
 20
-1681.2276739744973
 30
0.0
 41
0.9986762060692672
 10
637.57958043573501
 20
-1681.1778202600585
 30
0.0
 41
1.0
 10
637.57913647540249
 20
-1681.1773161182416
 30
0.0
 41
1.0
 10
637.57869251506997
 20
-1681.1768119764247
 30
0.0
 41
1.0
 10
637.53567796445861
 20
-1681.1279665456191
 30
0.0
 41
0.9984621642487699
 10
637.48752040768102
 20
-1681.0841832451481
 30
0.0
 41
1.0
 10
637.48727377316413
 20
-1681.0839590129845
 30
0.0
 41
1.0
 10
637.48702713864736
 20
-1681.0837347808206
 30
0.0
 41
1.0
 10
637.4393628509024
 20
-1681.0403999446762
 30
0.0
 41
0.9982724693851987
 10
637.38694421906177
 20
-1681.0029555941592
 30
0.0
 41
1.0
 10
637.33452558722104
 20
-1680.9655112436419
 30
0.0
 41
0.9981399180158691
 10
637.27793952382842
 20
-1680.934724724199
 30
0.0
 41
1.0
 10
637.27789386174925
 20
-1680.9346998810415
 30
0.0
 41
1.0
 10
637.27784819967007
 20
-1680.9346750378838
 30
0.0
 41
1.0
 10
637.22117081211979
 20
-1680.903838832126
 30
0.0
 41
0.998092708683788
 10
637.16112546105353
 20
-1680.8802220232735
 30
0.0
 41
1.0
 10
637.16068529134179
 20
-1680.8800488973984
 30
0.0
 41
1.0
 10
637.16024512163006
 20
-1680.8798757715235
 30
0.0
 41
1.0
 10
637.09931943113941
 20
-1680.8559127109206
 30
0.0
 41
0.998141135656107
 10
637.03593090973959
 20
-1680.8395400694151
 30
0.0
 41
1.0
 10
637.03504879303887
 20
-1680.8393122272098
 30
0.0
 41
1.0
 10
637.03416667633803
 20
-1680.8390843850045
 30
0.0
 41
1.0
 10
636.96901392153507
 20
-1680.8222560590877
 30
0.0
 41
0.9983031812934138
 10
636.90234649253955
 20
-1680.8131166979117
 30
0.0
 41
1.0
 10
636.89347546713793
 20
-1680.8119005792405
 30
0.0
 41
1.0
 10
636.8846044417362
 20
-1680.8106844605695
 30
0.0
 41
1.0
 10
636.83025479923049
 20
-1680.8032337305783
 30
0.0
 41
0.998388770826388
 10
636.77541094993614
 20
-1680.8019890569449
 30
0.0
 41
1.0
 10
636.76734754471522
 20
-1680.8018060590698
 30
0.0
 41
1.0
 10
636.7592841394943
 20
-1680.801623061195
 30
0.0
 41
1.0
 10
636.72056710063998
 20
-1680.8007443833114
 30
0.0
 41
0.9998869563077699
 10
636.68184114744065
 20
-1680.8010302526711
 30
0.0
 41
1.0
 10
636.64311519425996
 20
-1680.8013161220306
 30
0.0
 41
0.9999972320093189
 10
636.60439101507097
 20
-1680.8017842215595
 30
0.0
 41
1.0
 10
636.58503799846903
 20
-1680.8020181616491
 30
0.0
 41
1.0
 10
636.56568498186721
 20
-1680.8022521017388
 30
0.0
 41
1.0
 10
636.48825476949742
 20
-1680.8031880814465
 30
0.0
 41
0.9997304945086932
 10
636.41095146326074
 20
-1680.8077171752323
 30
0.0
 41
1.0
 10
636.40190182155561
 20
-1680.8082473812224
 30
0.0
 41
1.0
 10
636.39285217985037
 20
-1680.8087775872123
 30
0.0
 41
1.0
 10
636.29744959020684
 20
-1680.814367092978
 30
0.0
 41
0.9997888306414632
 10
636.20235725436726
 20
-1680.823872057467
 30
0.0
 41
1.0
 10
636.1936361927917
 20
-1680.8247437720993
 30
0.0
 41
1.0
 10
636.18491513121614
 20
-1680.8256154867317
 30
0.0
 41
1.0
 10
636.07238067222897
 20
-1680.8368638804848
 30
0.0
 41
0.998417023819096
 10
635.96182152487813
 20
-1680.8606799624204
 30
0.0
 41
1.0
 10
635.92544039389099
 20
-1680.8685169982266
 30
0.0
 41
1.0
 10
635.88905926290397
 20
-1680.8763540340328
 30
0.0
 41
1.0
 10
635.77386819448247
 20
-1680.9011679005425
 30
0.0
 41
0.9976592854199222
 10
635.66314002807746
 20
-1680.9414665776899
 30
0.0
 41
1.0
 10
635.55241186167268
 20
-1680.9817652548368
 30
0.0
 41
0.9993255074351733
 10
635.44494006288141
 20
-1681.0300821533297
 30
0.0
 41
1.0
 10
635.44031488395831
 20
-1681.0321615295293
 30
0.0
 41
1.0
 10
635.43568970503509
 20
-1681.0342409057289
 30
0.0
 41
1.0
 10
635.31896754839852
 20
-1681.0867165566203
 30
0.0
 41
0.9976475078275368
 10
635.21052020408877
 20
-1681.1546645462781
 30
0.0
 41
1.0
 10
635.19217780995018
 20
-1681.1661570250949
 30
0.0
 41
1.0
 10
635.17383541581171
 20
-1681.1776495039117
 30
0.0
 41
1.0
 10
635.08963322426416
 20
-1681.2304066246775
 30
0.0
 41
0.9995131336406855
 10
635.00888550930802
 20
-1681.2883128366298
 30
0.0
 41
1.0
 10
634.92813779435039
 20
-1681.346219048583
 30
0.0
 41
0.999581010760594
 10
634.85087614662302
 20
-1681.4087007310479
 30
0.0
 41
1.0
 10
634.84790611541234
 20
-1681.411102602513
 30
0.0
 41
1.0
 10
634.84493608420166
 20
-1681.4135044739778
 30
0.0
 41
1.0
 10
634.76173437405362
 20
-1681.4807898993722
 30
0.0
 41
0.9996617837955281
 10
634.68214368691838
 20
-1681.5523103549319
 30
0.0
 41
1.0
 10
634.67001293604267
 20
-1681.5632110879214
 30
0.0
 41
1.0
 10
634.65788218516684
 20
-1681.5741118209112
 30
0.0
 41
1.0
 10
634.58960665776613
 20
-1681.6354644363873
 30
0.0
 41
0.9997267750052082
 10
634.52427314948227
 20
-1681.6999409729128
 30
0.0
 41
1.0
 10
634.45893964119364
 20
-1681.7644175094429
 30
0.0
 41
0.9999667288969976
 10
634.39466669804187
 20
-1681.8299513163427
 30
0.0
 41
1.0
 10
634.32583925027177
 20
-1681.9001289750959
 30
0.0
 41
1.0
 10
634.25701180250167
 20
-1681.9703066338488
 30
0.0
 41
1.0
 10
634.05508396380526
 20
-1682.1761957582596
 30
0.0
 41
0.998820533517543
 10
633.8740783468246
 20
-1682.4006999903215
 30
0.0
 41
1.0
 10
633.84343838192035
 20
-1682.4387032407508
 30
0.0
 41
1.0
 10
633.81279841701598
 20
-1682.4767064911803
 30
0.0
 41
1.0
 10
633.57051287022773
 20
-1682.7772172240998
 30
0.0
 41
0.9997077826754933
 10
633.34303491912112
 20
-1683.089087018318
 30
0.0
 41
1.0
 10
633.34131150399094
 20
-1683.0914498016971
 30
0.0
 41
1.0
 10
633.33958808886086
 20
-1683.0938125850762
 30
0.0
 41
1.0
 10
633.10866330749434
 20
-1683.4104079460521
 30
0.0
 41
0.9989147567078929
 10
632.90819980461038
 20
-1683.747117407238
 30
0.0
 41
1.0
 10
632.88345865930432
 20
-1683.788673987789
 30
0.0
 41
1.0
 10
632.85871751399816
 20
-1683.8302305683399
 30
0.0
 41
1.0
 10
632.70350621535874
 20
-1684.0909319527959
 30
0.0
 41
0.9997476598181889
 10
632.56016122785036
 20
-1684.3583417013765
 30
0.0
 41
1.0
 10
632.41681624033947
 20
-1684.6257514499612
 30
0.0
 41
0.999625896710919
 10
632.28830798840681
 20
-1684.9005993865876
 30
0.0
 41
1.0
 10
632.27510807896022
 20
-1684.9288307866768
 30
0.0
 41
1.0
 10
632.26190816951362
 20
-1684.9570621867658
 30
0.0
 41
1.0
 10
632.12169944851212
 20
-1685.2569345847226
 30
0.0
 41
0.9998735413943722
 10
631.99109810178925
 20
-1685.5611141841955
 30
0.0
 41
1.0
 10
631.98765527372916
 20
-1685.5691327696591
 30
0.0
 41
1.0
 10
631.98421244566919
 20
-1685.5771513551226
 30
0.0
 41
1.0
 10
631.86049675507002
 20
-1685.8652937836607
 30
0.0
 41
0.9999377418859488
 10
631.74324195289421
 20
-1686.1561252513379
 30
0.0
 41
1.0
 10
631.62598715072204
 20
-1686.4469567190063
 30
0.0
 41
0.9999508299509323
 10
631.51452320734529
 20
-1686.7400563958261
 30
0.0
 41
1.0
 10
631.511442438681
 20
-1686.7481574217945
 30
0.0
 41
1.0
 10
631.50836167001671
 20
-1686.7562584477632
 30
0.0
 41
1.0
 10
631.39073618931866
 20
-1687.0655601765004
 30
0.0
 41
0.9999609228437441
 10
631.27859758644411
 20
-1687.3768931925176
 30
0.0
 41
1.0
 10
631.27564157609254
 20
-1687.3851000329323
 30
0.0
 41
1.0
 10
631.27268556574109
 20
-1687.3933068733468
 30
0.0
 41
1.0
 10
631.15463494216465
 20
-1687.72105357019
 30
0.0
 41
0.9999674607399468
 10
631.04188741609721
 20
-1688.0506621901834
 30
0.0
 41
1.0
 10
630.99048902553773
 20
-1688.2009213858666
 30
0.0
 41
1.0
 10
630.93909063497813
 20
-1688.3511805815499
 30
0.0
 41
1.0
 10
630.82308002821856
 20
-1688.6903285640581
 30
0.0
 41
0.9999287532311756
 10
630.71519862424611
 20
-1689.0321493030388
 30
0.0
 41
1.0
 10
630.66872136812412
 20
-1689.1794118473551
 30
0.0
 41
1.0
 10
630.62224411200225
 20
-1689.3266743916715
 30
0.0
 41
1.0
 10
630.60731722031528
 20
-1689.3739700418887
 30
0.0
 41
0.9999998224548641
 10
630.59244671154488
 20
-1689.4212834502555
 30
0.0
 41
1.0
 10
628.97179057474943
 20
-1694.5693119520449
 30
0.0
 41
1.0
 10
627.35113443795399
 20
-1699.7173404538344
 30
0.0
 41
1.0
 10
626.44582599406306
 20
-1699.7173404538344
 30
0.0
 41
1.0
 10
625.54051755017213
 20
-1699.7173404538344
 30
0.0
 41
1.0
 10
627.39260196155817
 20
-1693.830268531367
 30
0.0
 41
1.0
 10
629.24468637294422
 20
-1687.9431966088994
 30
0.0
 41
1.0
 10
629.25480813124705
 20
-1687.9111533954497
 30
0.0
 41
1.0
 10
629.32741580009679
 20
-1687.6808538536238
 30
0.0
 41
1.0
 10
629.40002346894391
 20
-1687.4505543118064
 30
0.0
 41
0.9999825681974925
 10
629.46990650815849
 20
-1687.2194134167314
 30
0.0
 41
1.0
 10
629.51819757032126
 20
-1687.0596888332288
 30
0.0
 41
1.0
 10
629.56648863248404
 20
-1686.8999642497261
 30
0.0
 41
1.0
 10
629.663640985798
 20
-1686.5786290279616
 30
0.0
 41
0.9999672528963146
 10
629.75557979141888
 20
-1686.2557634823829
 30
0.0
 41
1.0
 10
629.75836867508792
 20
-1686.2459696369956
 30
0.0
 41
1.0
 10
629.76115755875685
 20
-1686.2361757916083
 30
0.0
 41
1.0
 10
629.84751859703931
 20
-1685.932897936807
 30
0.0
 41
0.9999899749143589
 10
629.93116020657692
 20
-1685.6288588483444
 30
0.0
 41
1.0
 10
629.94126612559489
 20
-1685.5921236106642
 30
0.0
 41
1.0
 10
629.95137204461298
 20
-1685.555388372984
 30
0.0
 41
1.0
 10
630.01480181611146
 20
-1685.3248197598923
 30
0.0
 41
0.9999214200506119
 10
630.07243124448928
 20
-1685.0927334176827
 30
0.0
 41
1.0
 10
630.08519709666928
 20
-1685.0413225322886
 30
0.0
 41
1.0
 10
630.09796294884927
 20
-1684.9899116468946
 30
0.0
 41
1.0
 10
630.13006067286824
 20
-1684.8606470754676
 30
0.0
 41
0.9999828681668084
 10
630.16064292486237
 20
-1684.7310156010058
 30
0.0
 41
1.0
 10
630.19122517685855
 20
-1684.6013841265344
 30
0.0
 41
0.9999389844475359
 10
630.21893616564648
 20
-1684.4711086706402
 30
0.0
 41
1.0
 10
630.22607390936696
 20
-1684.4375525668017
 30
0.0
 41
1.0
 10
630.23321165308744
 20
-1684.4039964629633
 30
0.0
 41
1.0
 10
630.275198129317
 20
-1684.206608799389
 30
0.0
 41
0.9998933699439191
 10
630.31140239371916
 20
-1684.0080791916309
 30
0.0
 41
1.0
 10
630.3127752189356
 20
-1684.0005511709337
 30
0.0
 41
1.0
 10
630.31414804415203
 20
-1683.9930231502367
 30
0.0
 41
1.0
 10
630.35309795898729
 20
-1683.7794375010837
 30
0.0
 41
0.9996850305193712
 10
630.3812816352455
 20
-1683.5641664956499
 30
0.0
 41
1.0
 10
630.3832766686146
 20
-1683.5489281415298
 30
0.0
 41
1.0
 10
630.38527170198358
 20
-1683.5336897874097
 30
0.0
 41
1.0
 10
630.41267956444324
 20
-1683.3243445602504
 30
0.0
 41
0.9994697936706697
 10
630.42640412366302
 20
-1683.1136593649189
 30
0.0
 41
1.0
 10
630.42688119291267
 20
-1683.1063358927081
 30
0.0
 41
1.0
 10
630.42735826216233
 20
-1683.0990124204973
 30
0.0
 41
1.0
 10
630.44012868288257
 20
-1682.9029741695888
 30
0.0
 41
0.9991804893136825
 10
630.43700036660982
 20
-1682.7065453196149
 30
0.0
 41
1.0
 10
630.4369164877877
 20
-1682.7012785182033
 30
0.0
 41
1.0
 10
630.43683260896557
 20
-1682.6960117167914
 30
0.0
 41
1.0
 10
630.43387205033684
 20
-1682.5101164696434
 30
0.0
 41
0.9988448329322347
 10
630.41308050471321
 20
-1682.325363879808
 30
0.0
 41
1.0
 10
630.41148643101019
 20
-1682.3111990240368
 30
0.0
 41
1.0
 10
630.40989235730717
 20
-1682.2970341682656
 30
0.0
 41
1.0
 10
630.39228895908946
 20
-1682.1406112899745
 30
0.0
 41
0.9985503209458809
 10
630.35797268678994
 20
-1681.9869871058854
 30
0.0
 41
1.0
 10
630.35038669471874
 20
-1681.9530267784853
 30
0.0
 41
1.0
 10
630.34280070264754
 20
-1681.919066451085
 30
0.0
 41
1.0
 10
630.32365641449019
 20
-1681.833362921795
 30
0.0
 41
0.9991036781370095
 10
630.29733155283918
 20
-1681.7495858344712
 30
0.0
 41
1.0
 10
630.29334932738345
 20
-1681.7369126719614
 30
0.0
 41
1.0
 10
630.28936710192772
 20
-1681.7242395094515
 30
0.0
 41
1.0
 10
630.27100669118681
 20
-1681.665808747143
 30
0.0
 41
0.9998874504369969
 10
630.25090148350955
 20
-1681.6079551449229
 30
0.0
 41
1.0
 10
630.23079627583058
 20
-1681.550101542698
 30
0.0
 41
0.9994041637543577
 10
630.20674766289665
 20
-1681.493772838809
 30
0.0
 41
1.0
 10
630.20255087867281
 20
-1681.4839427743275
 30
0.0
 41
1.0
 10
630.19835409444886
 20
-1681.4741127098459
 30
0.0
 41
1.0
 10
630.17047526345425
 20
-1681.4088125438786
 30
0.0
 41
0.9991846840702231
 10
630.13741890676124
 20
-1681.3459745125986
 30
0.0
 41
1.0
 10
630.13628230036647
 20
-1681.3438138961444
 30
0.0
 41
1.0
 10
630.13514569397182
 20
-1681.3416532796903
 30
0.0
 41
1.0
 10
630.10436255006834
 20
-1681.2831364813187
 30
0.0
 41
0.998925316792403
 10
630.06829312601315
 20
-1681.227721552928
 30
0.0
 41
1.0
 10
630.06723900133875
 20
-1681.2261020581655
 30
0.0
 41
1.0
 10
630.06618487666435
 20
-1681.2244825634029
 30
0.0
 41
1.0
 10
630.0322237019584
 20
-1681.1723066245384
 30
0.0
 41
0.9986467172838064
 10
629.9930265493208
 20
-1681.1239405909082
 30
0.0
 41
1.0
 10
629.99215242062053
 20
-1681.1228619886306
 30
0.0
 41
1.0
 10
629.99127829192025
 20
-1681.1217833863527
 30
0.0
 41
1.0
 10
629.95382939668332
 20
-1681.0755745572785
 30
0.0
 41
0.9984001104267816
 10
629.91140266616628
 20
-1681.03388944991
 30
0.0
 41
1.0
 10
629.91081552805713
 20
-1681.033312575029
 30
0.0
 41
1.0
 10
629.91022838994809
 20
-1681.0327357001479
 30
0.0
 41
1.0
 10
629.86897593564936
 20
-1680.9922043425413
 30
0.0
 41
0.9982442159082523
 10
629.82321983431348
 20
-1680.9568357812809
 30
0.0
 41
1.0
 10
629.82300503885153
 20
-1680.9566697486375
 30
0.0
 41
1.0
 10
629.8227902433897
 20
-1680.9565037159944
 30
0.0
 41
1.0
 10
629.77746373297725
 20
-1680.9214672200203
 30
0.0
 41
0.9982450060835666
 10
629.72831275390604
 20
-1680.892035436987
 30
0.0
 41
1.0
 10
629.67916177483471
 20
-1680.8626036539538
 30
0.0
 41
0.9983922639635656
 10
629.6269954686702
 20
-1680.8389240192998
 30
0.0
 41
1.0
 10
629.62676859134535
 20
-1680.8388210338182
 30
0.0
 41
1.0
 10
629.6265417140205
 20
-1680.8387180483367
 30
0.0
 41
1.0
 10
629.57392165320675
 20
-1680.8148324427198
 30
0.0
 41
0.9986517147150366
 10
629.51910868033883
 20
-1680.7965313235979
 30
0.0
 41
1.0
 10
629.51843075891099
 20
-1680.7963049771665
 30
0.0
 41
1.0
 10
629.51775283748316
 20
-1680.7960786307351
 30
0.0
 41
1.0
 10
629.46158402175763
 20
-1680.7773248187498
 30
0.0
 41
0.9989435598955383
 10
629.40393063460476
 20
-1680.7638071165152
 30
0.0
 41
1.0
 10
629.40285051502474
 20
-1680.7635538662626
 30
0.0
 41
1.0
 10
629.40177039544471
 20
-1680.7633006160099
 30
0.0
 41
1.0
 10
629.34195676913089
 20
-1680.7492764132696
 30
0.0
 41
0.9992249241240814
 10
629.28122526023503
 20
-1680.7400010705544
 30
0.0
 41
1.0
 10
629.27981157194267
 20
-1680.7397851621463
 30
0.0
 41
1.0
 10
629.27839788365043
 20
-1680.7395692537384
 30
0.0
 41
1.0
 10
629.21483899817076
 20
-1680.7298620942076
 30
0.0
 41
0.9994396597833533
 10
629.15077306163357
 20
-1680.7244291718621
 30
0.0
 41
1.0
 10
629.13163239415599
 20
-1680.7228060041434
 30
0.0
 41
1.0
 10
629.1124917266784
 20
-1680.7211828364248
 30
0.0
 41
1.0
 10
629.01014445518672
 20
-1680.7125035786416
 30
0.0
 41
0.9987693403121671
 10
628.90744083160064
 20
-1680.7140066420941
 30
0.0
 41
1.0
 10
628.89718649737188
 20
-1680.7141567138683
 30
0.0
 41
1.0
 10
628.886932163143
 20
-1680.7143067856425
 30
0.0
 41
1.0
 10
628.77737639696511
 20
-1680.7159101299301
 30
0.0
 41
0.9989753644966334
 10
628.66841439694906
 20
-1680.7274131368554
 30
0.0
 41
1.0
 10
628.55945239693256
 20
-1680.7389161437804
 30
0.0
 41
0.9983190067305733
 10
628.45255358596762
 20
-1680.7629511355672
 30
0.0
 41
1.0
 10
628.44365263436089
 20
-1680.7649524141298
 30
0.0
 41
1.0
 10
628.43475168275415
 20
-1680.7669536926926
 30
0.0
 41
1.0
 10
628.31005096857405
 20
-1680.7949912416052
 30
0.0
 41
0.9985539388302684
 10
628.1890812148954
 20
-1680.8362549176511
 30
0.0
 41
1.0
 10
628.18673578393623
 20
-1680.8370549614665
 30
0.0
 41
1.0
 10
628.18439035297706
 20
-1680.8378550052821
 30
0.0
 41
1.0
 10
628.05872973737985
 20
-1680.8807187689588
 30
0.0
 41
0.9988468746493638
 10
627.93775939507998
 20
-1680.935436854021
 30
0.0
 41
1.0
 10
627.93457657309045
 20
-1680.9368765285813
 30
0.0
 41
1.0
 10
627.93139375110081
 20
-1680.9383162031415
 30
0.0
 41
1.0
 10
627.80405776482371
 20
-1680.9959136373236
 30
0.0
 41
0.9991322885919346
 10
627.68195718076583
 20
-1681.063908969506
 30
0.0
 41
1.0
 10
627.66435516972138
 20
-1681.0737111714961
 30
0.0
 41
1.0
 10
627.64675315867692
 20
-1681.0835133734863
 30
0.0
 41
1.0
 10
627.54457647762069
 20
-1681.1404134892664
 30
0.0
 41
0.9993860037849037
 10
627.44663547354787
 20
-1681.2043295048545
 30
0.0
 41
1.0
 10
627.44101716069713
 20
-1681.2079959995485
 30
0.0
 41
1.0
 10
627.43539884784639
 20
-1681.2116624942423
 30
0.0
 41
1.0
 10
627.34869446947607
 20
-1681.268245520442
 30
0.0
 41
0.9998821494953971
 10
627.26376809366172
 20
-1681.3274637505197
 30
0.0
 41
1.0
 10
627.17884171784658
 20
-1681.386681980598
 30
0.0
 41
0.9997976482744991
 10
627.09636608744052
 20
-1681.4492683886419
 30
0.0
 41
1.0
 10
627.08172982263795
 20
-1681.4603750784199
 30
0.0
 41
1.0
 10
627.06709355783551
 20
-1681.4714817681979
 30
0.0
 41
1.0
 10
626.95534539782454
 20
-1681.5562815557973
 30
0.0
 41
0.9998091630800396
 10
626.84699511980227
 20
-1681.6453819064941
 30
0.0
 41
1.0
 10
626.83398936732101
 20
-1681.6560770069434
 30
0.0
 41
1.0
 10
626.82098361483975
 20
-1681.6667721073927
 30
0.0
 41
1.0
 10
626.68662183185825
 20
-1681.7772626589858
 30
0.0
 41
0.999503511231765
 10
626.55948595409677
 20
-1681.8959964759986
 30
0.0
 41
1.0
 10
626.54983864370797
 20
-1681.9050062221579
 30
0.0
 41
1.0
 10
626.54019133331906
 20
-1681.9140159683172
 30
0.0
 41
1.0
 10
626.41676827055335
 20
-1682.0292823400737
 30
0.0
 41
0.9994630424299281
 10
626.30115986477017
 20
-1682.152385083308
 30
0.0
 41
1.0
 10
626.29747702599934
 20
-1682.1563066628205
 30
0.0
 41
1.0
 10
626.2937941872284
 20
-1682.160228242333
 30
0.0
 41
1.0
 10
626.18555145898688
 20
-1682.2754878265425
 30
0.0
 41
0.9995160693750076
 10
626.08468542945423
 20
-1682.3972552444156
 30
0.0
 41
1.0
 10
626.08275170937577
 20
-1682.399589668621
 30
0.0
 41
1.0
 10
626.08081798929743
 20
-1682.4019240928264
 30
0.0
 41
1.0
 10
625.9838193999251
 20
-1682.5190226622849
 30
0.0
 41
0.9996561470514602
 10
625.8930931812564
 20
-1682.6410454247375
 30
0.0
 41
1.0
 10
625.88693551535505
 20
-1682.6493272137791
 30
0.0
 41
1.0
 10
625.88077784945369
 20
-1682.6576090028207
 30
0.0
 41
1.0
 10
625.8023669625909
 20
-1682.7630681871865
 30
0.0
 41
0.999834905517333
 10
625.72783968065835
 20
-1682.87130677085
 30
0.0
 41
1.0
 10
625.65331239871375
 20
-1682.9795453545316
 30
0.0
 41
0.9999728109570357
 10
625.58038950280024
 20
-1683.0888712800922
 30
0.0
 41
1.0
 10
625.57907428739645
 20
-1683.0908430495829
 30
0.0
 41
1.0
 10
625.57775907199255
 20
-1683.0928148190737
 30
0.0
 41
1.0
 10
625.50220574528566
 20
-1683.206084283594
 30
0.0
 41
0.9999972147309664
 10
625.42718793493475
 20
-1683.3197091263942
 30
0.0
 41
1.0
 10
625.42221639228751
 20
-1683.3272392149042
 30
0.0
 41
1.0
 10
625.41724484964016
 20
-1683.3347693034143
 30
0.0
 41
1.0
 10
625.33228395402091
 20
-1683.4634543231955
 30
0.0
 41
0.9999371979005316
 10
625.2502286046174
 20
-1683.5940112369717
 30
0.0
 41
1.0
 10
625.24671972025521
 20
-1683.5995941650374
 30
0.0
 41
1.0
 10
625.24321083589302
 20
-1683.6051770931031
 30
0.0
 41
1.0
 10
625.15413771776707
 20
-1683.7468998630075
 30
0.0
 41
0.999827202561079
 10
625.07039432688441
 20
-1683.8918357397506
 30
0.0
 41
1.0
 10
625.05517915485939
 20
-1683.9181688542089
 30
0.0
 41
1.0
 10
625.03996398283437
 20
-1683.9445019686673
 30
0.0
 41
1.0
 10
624.92579024790314
 20
-1684.1421040743253
 30
0.0
 41
0.9995217214838585
 10
624.82405055834681
 20
-1684.346386402189
 30
0.0
 41
1.0
 10
624.81640699571426
 20
-1684.3617338518866
 30
0.0
 41
1.0
 10
624.80876343308182
 20
-1684.3770813015844
 30
0.0
 41
1.0
 10
624.72185814049192
 20
-1684.5515777596665
 30
0.0
 41
0.9998269762608192
 10
624.64150367421678
 20
-1684.7291860463961
 30
0.0
 41
1.0
 10
624.56114920794698
 20
-1684.9067943331142
 30
0.0
 41
0.9998944747388383
 10
624.48598841338162
 20
-1685.0866620587451
 30
0.0
 41
1.0
 10
624.48103474378809
 20
-1685.0985167136678
 30
0.0
 41
1.0
 10
624.47608107419467
 20
-1685.1103713685907
 30
0.0
 41
1.0
 10
624.39543401364108
 20
-1685.3033683086105
 30
0.0
 41
0.9999506734407028
 10
624.31863648474086
 20
-1685.4979291134591
 30
0.0
 41
1.0
 10
624.30403651946892
 20
-1685.5349170352679
 30
0.0
 41
1.0
 10
624.28943655419698
 20
-1685.5719049570764
 30
0.0
 41
1.0
 10
624.24183895583815
 20
-1685.6924899183132
 30
0.0
 41
0.999991239391986
 10
624.19525251181483
 20
-1685.8134691210109
 30
0.0
 41
1.0
 10
624.14866606779788
 20
-1685.9344483236928
 30
0.0
 41
0.9999927113927707
 10
624.10300477340877
 20
-1686.0557797311803
 30
0.0
 41
1.0
 10
624.08903634200578
 20
-1686.0928967131936
 30
0.0
 41
1.0
 10
624.07506791060268
 20
-1686.1300136952066
 30
0.0
 41
1.0
 10
624.00146975341204
 20
-1686.325579066709
 30
0.0
 41
0.9999487550952644
 10
623.93184612844368
 20
-1686.5225944318822
 30
0.0
 41
1.0
 10
623.90825251850367
 20
-1686.5893577421839
 30
0.0
 41
1.0
 10
623.88465890856367
 20
-1686.6561210524853
 30
0.0
 41
1.0
 10
623.78997327419256
 20
-1686.9240548873113
 30
0.0
 41
0.9999808436927112
 10
623.69861168555553
 20
-1687.1931403185638
 30
0.0
 41
1.0
 10
623.60725009691532
 20
-1687.4622257498245
 30
0.0
 41
0.999987393290543
 10
623.51859538819156
 20
-1687.7322151048554
 30
0.0
 41
1.0
 10
623.49850303132439
 20
-1687.7934044376016
 30
0.0
 41
1.0
 10
623.47841067445734
 20
-1687.8545937703475
 30
0.0
 41
1.0
 10
623.34957125200049
 20
-1688.2469617908666
 30
0.0
 41
0.9999794883030049
 10
623.22576846704078
 20
-1688.6409479971499
 30
0.0
 41
1.0
 10
623.21461620761386
 20
-1688.6764386073532
 30
0.0
 41
1.0
 10
623.20346394818694
 20
-1688.7119292175569
 30
0.0
 41
1.0
 10
623.06090578428143
 20
-1689.1656019696686
 30
0.0
 41
0.9999982761756794
 10
622.92003334425476
 20
-1689.6198009918278
 30
0.0
 41
1.0
 10
621.33189301168215
 20
-1694.6685707228312
 30
0.0
 41
1.0
 10
619.74375267910955
 20
-1699.7173404538344
 30
0.0
 41
1.0
 10
618.79500206763316
 20
-1699.7173404538344
 30
0.0
 41
1.0
 10
617.84625145615678
 20
-1699.7173404538344
 30
0.0
 41
1.0
 10
621.08453594231003
 20
-1689.3900182538882
 30
0.0
 41
1.0
 10
624.32282042846327
 20
-1679.0626960539421
 30
0.0
 41
1.0
  0
LWPOLYLINE
  5
5F
100
AcDbEntity
  8
0
370
              15
390
0
  6
Continuous
 62
               7
100
AcDbPolyline
 90
      232
 70
             128
 10
598.61927465463623
 20
-1680.1470388854573
 42
0.0004370800693705
 10
598.56639748060013
 20
-1680.2157055246666
 10
598.52711324943675
 20
-1680.2668126376102
 42
0.0030481992180861
 10
598.39677453228023
 20
-1680.4385343300039
 10
598.35826286056715
 20
-1680.4899211137424
 42
0.0042058245758192
 10
598.15427780991206
 20
-1680.7669268587958
 10
598.10187268739662
 20
-1680.839359705597
 42
0.0120948898743525
 10
597.80582877063637
 20
-1681.2701093101441
 10
597.70963627151298
 20
-1681.4175900453711
 42
0.0141601263948308
 10
597.40599222459127
 20
-1681.9132593821062
 10
597.36645495716368
 20
-1681.9821033495409
 42
0.0071131081305467
 10
597.16118263392684
 20
-1682.351606148376
 42
0.006845879100437
 10
596.96630310708315
 20
-1682.7266977118534
 10
596.95949124462595
 20
-1682.7402594255759
 42
0.0064120880287924
 10
596.76134899458555
 20
-1683.1476839004863
 10
596.75381430906464
 20
-1683.1636957572159
 42
0.0058857236449167
 10
596.55105891718733
 20
-1683.6080718682636
 10
596.54288399089899
 20
-1683.6265620218849
 42
0.0053189741894448
 10
596.33417967823698
 20
-1684.1125254957894
 10
596.3254318725501
 20
-1684.1335073739988
 42
0.0047503650418857
 10
596.10945814640047
 20
-1684.6657068072057
 10
596.10018989805133
 20
-1684.6891831833163
 42
0.0042071762170747
 10
595.87564251431593
 20
-1685.2722767774064
 10
595.86589311197497
 20
-1685.2982429522558
 42
0.0036680086484504
 10
595.63143846866683
 20
-1685.9368783367765
 10
595.6212306888151
 20
-1685.9653268711318
 42
0.0032573142627551
 10
595.37559840284473
 20
-1686.6641795308956
 10
595.30694788201356
 20
-1686.8636426149208
 42
0.0026133366648235
 10
594.95850268324966
 20
-1687.8935058986099
 10
594.89524589574808
 20
-1688.0837367340059
 42
0.0020592950742092
 10
594.68138282678194
 20
-1688.735840386616
 10
594.6783310356135
 20
-1688.7452768750422
 42
0.0025609928537748
 10
594.47651053413301
 20
-1689.3804220973916
 10
594.47391916700383
 20
-1689.3887244383402
 42
0.0031362356243659
 10
594.28442838132935
 20
-1690.0094872945117
 10
594.28229733840578
 20
-1690.01662860071
 42
0.0037229918031073
 10
594.10549695147552
 20
-1690.6256139026968
 10
594.10381836227202
 20
-1690.6315607928609
 42
0.0043077623706139
 10
593.94007756020403
 20
-1691.2313795246405
 42
0.0047654161823384
 10
593.78724883769053
 20
-1691.8340656135329
 10
593.75278422884901
 20
-1691.9756273906924
 42
0.011296936844369
 10
593.55691987070531
 20
-1692.8673195513175
 10
593.52891348160881
 20
-1693.0101475974145
 42
0.0130056762570186
 10
593.32807623796214
 20
-1694.1970886690594
 10
593.30753648781433
 20
-1694.3411667825417
 42
0.0138721532146072
 10
593.20383348327709
 20
-1695.2479962683622
 10
593.18453799536928
 20
-1695.4714939902856
 42
0.0071254697007716
 10
593.15119134944666
 20
-1695.9346809991343
 10
593.14623037528315
 20
-1696.0206849937003
 42
0.0028881799198657
 10
593.13109208199353
 20
-1696.3124267035373
 42
0.0060297297136873
 10
593.12115988221797
 20
-1696.6043756396518
 10
593.12009760055082
 20
-1696.6527680115844
 42
0.0229523164155839
 10
593.1278286283366
 20
-1696.9755228578688
 10
593.13205440185698
 20
-1697.0359263918851
 42
0.0123673300665895
 10
593.1511330483753
 20
-1697.2370471170598
 42
0.0128577674463415
 10
593.18032843878109
 20
-1697.4369449669837
 10
593.1874543121686
 20
-1697.4782737815835
 42
0.0285717853764207
 10
593.25194831386455
 20
-1697.7563899328975
 10
593.26561683753073
 20
-1697.8030447023739
 42
0.0316283099156704
 10
593.38142741744502
 20
-1698.1220592041998
 10
593.38447610920036
 20
-1698.129045576525
 42
0.0338984824240405
 10
593.53390782016777
 20
-1698.4166115407145
 10
593.53621654953758
 20
-1698.4204025699903
 42
0.0350228718354328
 10
593.7185768402112
 20
-1698.6774545546673
 10
593.71946209198666
 20
-1698.6785336324319
 42
0.0347476747526858
 10
593.93388677922633
 20
-1698.9057186796513
 42
0.0331337701908008
 10
594.17713010497232
 20
-1699.1018473417287
 10
594.17823020348885
 20
-1699.1026200449014
 42
0.0305233319080334
 10
594.4467748990636
 20
-1699.2677482149934
 10
594.45000494356339
 20
-1699.2694722268552
 42
0.0273744481157388
 10
594.74255865513953
 20
-1699.4056103707464
 10
594.74766319027515
 20
-1699.4076539552154
 42
0.0240964406197835
 10
595.06314026592281
 20
-1699.5166376814973
 10
595.06972359513088
 20
-1699.5185624211717
 42
0.0209636179814739
 10
595.40712374778548
 20
-1699.6020305691043
 10
595.41475620823223
 20
-1699.6035824821054
 42
0.0181388704695015
 10
595.77307860023302
 20
-1699.6629985753195
 10
595.78135944860878
 20
-1699.6640647591364
 42
0.015608654758613
 10
596.15954681279288
 20
-1699.7008009457127
 10
596.20274206513102
 20
-1699.7036394481925
 42
0.0137148329026564
 10
596.53041521042348
 20
-1699.7161597034433
 10
596.57635140035416
 20
-1699.7166541365584
 42
0.0051057823882139
 10
596.81249698694171
 20
-1699.7167843909679
 42
0.0052256693311114
 10
597.0485942707279
 20
-1699.7120355665033
 10
597.11882105446978
 20
-1699.7098886004894
 42
0.0161507179047855
 10
597.49455813257134
 20
-1699.6862382301629
 10
597.51457109294415
 20
-1699.6843280348753
 42
0.0101216737832479
 10
597.92859831443764
 20
-1699.6363351045095
 10
597.96265160386167
 20
-1699.6316874077002
 42
0.024529177639919
 10
598.43944125941255
 20
-1699.5426123296238
 10
598.52426457493743
 20
-1699.5224164092779
 42
0.0143509212560391
 10
598.8808956788763
 20
-1699.4266117754992
 42
0.0156557857040065
 10
599.23111174360395
 20
-1699.3096005596803
 10
599.2386129580982
 20
-1699.3068303979262
 42
0.0170137333633453
 10
599.59520895378239
 20
-1699.1611727830539
 10
599.60231287618706
 20
-1699.1579849474915
 42
0.0183105364406755
 10
599.96166254434911
 20
-1698.9806499056695
 10
599.96860930899209
 20
-1698.9768994707952
 42
0.0194899958148205
 10
600.32709004997548
 20
-1698.7649204889049
 10
600.33410392931285
 20
-1698.7603951466094
 42
0.0204869852952843
 10
600.68811823141164
 20
-1698.5108751315199
 10
600.69538383999384
 20
-1698.5052950661752
 42
0.0212516938556237
 10
601.04137377109976
 20
-1698.2153910692823
 10
601.08789046517961
 20
-1698.1729237591849
 42
0.021524891825669
 10
601.34791663406509
 20
-1697.9141594801922
 10
601.39294636844841
 20
-1697.8653153588396
 42
0.0114578554959333
 10
601.54773852212304
 20
-1697.6894924253843
 10
601.55893305810446
 20
-1697.676173661845
 42
0.006153130512943
 10
601.68540770410414
 20
-1697.5218841285332
 42
0.0006325587123042
 10
601.80978618823917
 20
-1697.3658807528782
 10
601.83282632330736
 20
-1697.336907232198
 42
0.0041897761553213
 10
602.00128172729285
 20
-1697.1213878561196
 10
602.05974384717217
 20
-1697.0452865091511
 42
0.0092993880036932
 10
602.33635577439406
 20
-1696.6710077452697
 10
602.41875026759578
 20
-1696.5550707416971
 42
0.0159321727087717
 10
602.76535675023729
 20
-1696.0328965209424
 10
602.809712885625
 20
-1695.9612169566944
 42
0.0085547317023208
 10
603.04422465095206
 20
-1695.5673420074677
 42
0.0084601156886719
 10
603.26520082839193
 20
-1695.1657151584398
 10
603.27331630222443
 20
-1695.1503554761625
 42
0.0081429654288257
 10
603.49656557266928
 20
-1694.7106339636068
 10
603.50542573684595
 20
-1694.6924551216025
 42
0.007657458132788
 10
603.73183324741433
 20
-1694.2092722463456
 10
603.74131288813635
 20
-1694.1882077680461
 42
0.0070682724201072
 10
603.97175779594897
 20
-1693.6561704632513
 10
603.98174807992484
 20
-1693.6321812742535
 42
0.0064559514447694
 10
604.21708128810803
 20
-1693.0458690077307
 10
604.22749064627158
 20
-1693.0189340822922
 42
0.0058311413909612
 10
604.46853738303753
 20
-1692.3729019878999
 10
604.4792924604219
 20
-1692.3430176467482
 42
0.0052312425818858
 10
604.72687373846111
 20
-1691.6318152329181
 10
604.73791757484253
 20
-1691.5989885208437
 42
0.0046680544797852
 10
604.9928460025784
 20
-1690.8171622050843
 10
605.03483815262473
 20
-1690.6841789677833
 42
0.0041666856446473
 10
605.23812416501551
 20
-1690.0212101927914
 10
605.27578660567337
 20
-1689.8946290851577
 42
0.0015170975157137
 10
605.39697318409242
 20
-1689.482760733644
 42
-0.000488799311646
 10
605.51731295721845
 20
-1689.0706423215922
 10
605.59379021471057
 20
-1688.8096849356609
 42
0.0002583378929462
 10
605.86700478476678
 20
-1687.8756282325091
 10
605.9487776343866
 20
-1687.5955289727781
 42
0.0006636169674662
 10
606.14264539436272
 20
-1686.9281760493118
 10
606.14774204871674
 20
-1686.9105444664076
 42
0.0010589131323328
 10
606.32919074962638
 20
-1686.2778131233829
 10
606.33417282010748
 20
-1686.2603002163607
 42
0.0015655524460153
 10
606.5024430272897
 20
-1685.6616835371619
 10
606.50727322769524
 20
-1685.64429137826
 42
0.0021640440475394
 10
606.6615631996907
 20
-1685.0792643602081
 10
606.666197419122
 20
-1685.0619996302094
 42
0.0028763871850772
 10
606.8057131371736
 20
-1684.5300316793671
 10
606.81009900134518
 20
-1684.5129077011957
 42
0.0037310511948616
 10
606.9340556931777
 20
-1684.0134601071886
 10
606.93813091346692
 20
-1683.9964998359421
 42
0.0047652197772046
 10
607.04575481397512
 20
-1683.5290220676382
 10
607.04944541329769
 20
-1683.5122625124918
 42
0.0060276699301251
 10
607.13997551245222
 20
-1683.0761867173439
 10
607.14319420274239
 20
-1683.0596855030296
 42
0.0075824337761365
 10
607.21588351215689
 20
-1682.6544183386086
 10
607.21852888953708
 20
-1682.6382633911585
 42
0.0095130624607056
 10
607.27264412516831
 20
-1682.2631740380862
 10
607.2796303490511
 20
-1682.2072404799676
 42
0.012105465322649
 10
607.30622167962872
 20
-1681.9423446514959
 10
607.30708816938807
 20
-1681.9309412085686
 42
0.0069050827379001
 10
607.32217698742602
 20
-1681.6879999817224
 10
607.32331228709461
 20
-1681.6644737246777
 42
0.0169063976694509
 10
607.32613956607486
 20
-1681.468280997377
 10
607.32496891454332
 20
-1681.4079452360186
 42
0.0052007732885361
 10
607.32271546595052
 20
-1681.3323518458758
 42
0.0054038123297149
 10
607.30275195411127
 20
-1681.2123335498634
 10
607.29766609824128
 20
-1681.1836750632847
 42
0.0112050460467348
 10
607.26228173618256
 20
-1681.0073486249446
 10
607.24445677414212
 20
-1680.9278070382247
 42
0.0240764468004513
 10
607.15355940799589
 20
-1680.5975700027236
 10
607.135000645182
 20
-1680.5409498377285
 42
0.0256812331838038
 10
606.99163772499298
 20
-1680.1692256314725
 10
606.98622829917167
 20
-1680.1570942964829
 42
0.0268360501216247
 10
606.81680105832174
 20
-1679.8261011624618
 10
606.81126465068724
 20
-1679.8165814921504
 42
0.0274670231729411
 10
606.61906367427332
 20
-1679.5242941172323
 10
606.61368237431043
 20
-1679.5170149696905
 42
0.0275035967100774
 10
606.40210949474886
 20
-1679.2614990793868
 10
606.39703999378298
 20
-1679.2560199917571
 42
0.0269557673525023
 10
606.16963645034275
 20
-1679.035377705794
 10
606.16489339255929
 20
-1679.0312477513326
 42
0.0259124802208974
 10
605.92533856112937
 20
-1678.843557224181
 10
605.92080771594783
 20
-1678.8403717218509
 42
0.0245162153003706
 10
605.67289136285274
 20
-1678.68363871274
 10
605.66836481652695
 20
-1678.6810785155383
 42
0.0229282588836182
 10
605.41594525970118
 20
-1678.5532103230403
 10
605.41116476586706
 20
-1678.5510580232794
 42
0.021298413568784
 10
605.15812681340265
 20
-1678.449859106036
 10
605.15282252843429
 20
-1678.4479955432764
 42
0.0197555462336027
 10
604.90304419071015
 20
-1678.3711801253112
 42
0.0183511896785697
 10
604.64811546524845
 20
-1678.3135972183461
 10
604.56175026852441
 20
-1678.2973944279609
 42
0.033805787714764
 10
604.27624291926361
 20
-1678.2635860228206
 10
604.18523751422697
 20
-1678.2590063675593
 42
0.0091990524489812
 10
604.07939040558767
 20
-1678.255630511637
 42
0.0028333980775449
 10
603.97347648960067
 20
-1678.2548024041203
 10
603.97256103654547
 20
-1678.2548004342962
 42
-0.0023619827802601
 10
603.86481502141692
 20
-1678.2540595932176
 10
603.8284098512637
 20
-1678.2536372867548
 42
0.0008824598481995
 10
603.64785386149765
 20
-1678.2518615085173
 10
603.6039924290078
 20
-1678.251507546991
 42
0.0038132665768183
 10
603.3357095331379
 20
-1678.2513886109241
 10
603.3191758783355
 20
-1678.2515073770678
 42
0.006066556933662
 10
603.01789538672949
 20
-1678.257327676489
 10
603.00364505471885
 20
-1678.2577759844562
 42
0.0080356953337897
 10
602.67418633837735
 20
-1678.2734437065233
 10
602.66211632329237
 20
-1678.2742122894635
 42
0.0098996399104648
 10
602.30935323864355
 20
-1678.3036975186615
 10
602.2993075292668
 20
-1678.3047378148599
 42
0.0117740981366814
 10
601.92815067091942
 20
-1678.3520300623895
 10
601.9199279744355
 20
-1678.3532751789605
 42
0.0137435215132635
 10
601.53533915495268
 20
-1678.4223721525216
 10
601.52868211582711
 20
-1678.4237580487556
 42
0.0158359869387059
 10
601.13568502202133
 20
-1678.5186501372375
 10
601.13027183515749
 20
-1678.520140078107
 42
0.0180554124026637
 10
600.73395679054647
 20
-1678.6447780943452
 10
600.7294000024616
 20
-1678.646394130612
 42
0.0203657431284764
 10
600.33492248464802
 20
-1678.804654472129
 10
600.33077894564292
 20
-1678.8065160935698
 42
0.0226819684657497
 10
599.94334288943844
 20
-1679.0021586722412
 10
599.93914309842114
 20
-1679.0045242641604
 42
0.0248634984603504
 10
599.56396115724215
 20
-1679.2411509101062
 10
599.51576622845482
 20
-1679.2750079519342
 42
0.0267044190884815
 10
599.24147353153944
 20
-1679.4904483278015
 42
0.0139303002194824
 10
598.98530636560304
 20
-1679.7276871687111
 10
598.98045297987971
 20
-1679.7324398315736
 42
0.0283460963440898
 10
598.73638038565218
 20
-1680.0001704920189
 10
598.69671188049597
 20
-1680.0489720694918
 42
0.0070695364826167
 10
598.61927465463623
 20
-1680.1470388854573
 42
0.0070695364826167
  0
LWPOLYLINE
  5
60
100
AcDbEntity
  8
0
370
              15
390
0
  6
Continuous
 62
               7
100
AcDbPolyline
 90
      226
 70
             128
 10
595.09045421738983
 20
-1695.8686276916412
 42
-0.00262776366196
 10
595.09037633358969
 20
-1695.8018557659166
 10
595.09059369182182
 20
-1695.748700548455
 42
-0.0088680296725871
 10
595.094370308115
 20
-1695.575684766048
 10
595.09671666722727
 20
-1695.5164047405983
 42
-0.0077381705614105
 10
595.11276277799061
 20
-1695.2251442447966
 10
595.11363068916341
 20
-1695.212856011115
 42
-0.006887253053386
 10
595.14026276891184
 20
-1694.8976342590429
 10
595.14146699309765
 20
-1694.8853932800275
 42
-0.0062130021485376
 10
595.17906070992547
 20
-1694.5465235887896
 10
595.18056461346066
 20
-1694.5343497168724
 42
-0.0056726929665607
 10
595.22948647296278
 20
-1694.1721544947607
 10
595.23125991860741
 20
-1694.1600606945135
 42
-0.0052341884493761
 10
595.2918705048678
 20
-1693.7748674389927
 10
595.29388849364398
 20
-1693.7628625090033
 42
-0.0049768450166499
 10
595.36662717506999
 20
-1693.355017941572
 10
595.39087618979204
 20
-1693.2264699585648
 42
-0.0089029805625632
 10
595.52795704158734
 20
-1692.5646945111398
 10
595.56070241690531
 20
-1692.4196630806189
 42
-0.0080318257099506
 10
595.79025103124536
 20
-1691.4739534487676
 10
595.80223595769428
 20
-1691.4278228135749
 42
-0.0074265721317263
 10
596.08624749654723
 20
-1690.3977582351843
 10
596.10612703965853
 20
-1690.3296241746134
 42
-0.0069711922702972
 10
596.43343161816767
 20
-1689.2633564342773
 10
596.49338356526789
 20
-1689.077335075923
 42
-0.0052070422896343
 10
596.72280879053244
 20
-1688.3900629988752
 10
596.7400899827162
 20
-1688.3400357182247
 42
-0.0009167004449226
 10
596.94318186999408
 20
-1687.7555798701042
 42
-0.00251627269436
 10
597.15027950025308
 20
-1687.1725386059516
 10
597.18750411205974
 20
-1687.0693890600426
 42
-0.0028212681457459
 10
597.43568003102519
 20
-1686.3936584278649
 10
597.44551079378039
 20
-1686.367350983176
 42
-0.0031964916820546
 10
597.68180305143812
 20
-1685.7471462210613
 10
597.69143750542969
 20
-1685.7223362309371
 42
-0.003628183645382
 10
597.91654346653831
 20
-1685.1548955500248
 10
597.9259818766925
 20
-1685.1315981185301
 42
-0.0041269166833943
 10
598.14059957335496
 20
-1684.6141572225438
 10
598.17323252977769
 20
-1684.5372787761783
 42
-0.0047472213058289
 10
598.33027733532936
 20
-1684.1768573082993
 10
598.33717141653779
 20
-1684.1614367109667
 42
-0.0025651659995206
 10
598.48552945038773
 20
-1683.8341086552189
 42
-0.0057144634994963
 10
598.63927914415854
 20
-1683.5092989818575
 10
598.66730984956405
 20
-1683.4517905994546
 42
-0.0065388068371154
 10
598.85077687730018
 20
-1683.0875581027972
 10
598.85923533307607
 20
-1683.0712985234327
 42
-0.00745108430238
 10
599.03541757895653
 20
-1682.744610242305
 10
599.04359724948483
 20
-1682.7299694650412
 42
-0.0084648979863684
 10
599.21323110258754
 20
-1682.438060454075
 10
599.22108722907797
 20
-1682.4250534624202
 42
-0.0095638542809223
 10
599.38492267666982
 20
-1682.1651645904456
 10
599.3923976203456
 20
-1682.1537952289839
 42
-0.0107191626799085
 10
599.55119920072912
 20
-1681.9231839944459
 10
599.55821593445944
 20
-1681.9134479020822
 42
-0.0118458573901278
 10
599.7127640329727
 20
-1681.7093757067707
 42
-0.0129184518188119
 10
599.87721665658034
 20
-1681.5132151905934
 10
599.90736142894161
 20
-1681.4790891116961
 42
-0.021774257962829
 10
600.08397375127277
 20
-1681.2958823414506
 10
600.09471929573476
 20
-1681.2856655082462
 42
-0.0097266568648172
 10
600.26077691458886
 20
-1681.1338179338104
 42
-0.0187720905713703
 10
600.43512449047887
 20
-1680.991749080421
 10
600.46583048115201
 20
-1680.9685899980254
 42
-0.0179428207518482
 10
600.69825120114865
 20
-1680.8060378209134
 10
600.70190352806628
 20
-1680.8036738860244
 42
-0.0170047877696757
 10
600.9376671655948
 20
-1680.6622133718743
 10
600.94145015433799
 20
-1680.6601150668398
 42
-0.0160190788372226
 10
601.17835870197666
 20
-1680.5384637648499
 42
-0.0151102861496098
 10
601.42239048442104
 20
-1680.4317809887962
 10
601.47477698663511
 20
-1680.4107408559005
 42
-0.0271945441885953
 10
601.8334395456933
 20
-1680.2888760451945
 10
601.90250434618144
 20
-1680.2695265039281
 42
-0.023759659401951
 10
602.31830119320398
 20
-1680.1740757919465
 10
602.3863640469317
 20
-1680.1618211038203
 42
-0.0213715440555549
 10
602.67223897837971
 20
-1680.12287407231
 10
602.73238614459967
 20
-1680.1172843576089
 42
-0.0101465655815947
 10
602.89987867659181
 20
-1680.1051408143448
 10
602.90921906278652
 20
-1680.1046538993478
 42
-0.0100375910878887
 10
603.0583731633526
 20
-1680.0998780814225
 10
603.06863243303371
 20
-1680.0997556424081
 42
-0.0103625633382279
 10
603.19734042768789
 20
-1680.1008870759347
 10
603.21960607895244
 20
-1680.1015444343996
 42
-0.0115689250233676
 10
603.30365681648277
 20
-1680.1059739406446
 42
-0.007243803742579
 10
603.3874950959256
 20
-1680.1135631403945
 10
603.40429560539474
 20
-1680.1153296831183
 42
-0.0217917313149123
 10
603.5208653687065
 20
-1680.1327495758392
 10
603.58646545927741
 20
-1680.1454961842544
 42
-0.0332943556752709
 10
603.79085762430338
 20
-1680.1995364755608
 10
603.82103019285648
 20
-1680.2097045526803
 42
-0.018482408479063
 10
603.95953524931883
 20
-1680.2621555680657
 42
-0.0198002050687342
 10
604.09360958981893
 20
-1680.3250396282656
 10
604.0954962271951
 20
-1680.3260174151451
 42
-0.0212242342987528
 10
604.22763516959651
 20
-1680.4017801539378
 10
604.22945046514053
 20
-1680.4029259561466
 42
-0.0226090605794522
 10
604.35795436636499
 20
-1680.4924055997133
 10
604.35979880809964
 20
-1680.4938178526986
 42
-0.0238457052231187
 10
604.48298088939362
 20
-1680.5978137485617
 10
604.4849336179517
 20
-1680.5996286263271
 42
-0.0248160564153062
 10
604.60113512525265
 20
-1680.7189032275362
 10
604.60323875865436
 20
-1680.7212885612403
 42
-0.0254109591456789
 10
604.71084397652021
 20
-1680.8565769472045
 10
604.71309199843438
 20
-1680.8597184956052
 42
-0.0255528488296442
 10
604.81053867723142
 20
-1681.0117455498391
 10
604.81286977714763
 20
-1681.0158271614469
 42
-0.0252146793220379
 10
604.89865080315667
 20
-1681.185329407444
 10
604.90095304231431
 20
-1681.1905114893568
 42
-0.0244265635952208
 10
604.97360773607568
 20
-1681.3782580614029
 10
604.98285413754388
 20
-1681.40612347974
 42
-0.0231319612910721
 10
605.02877691653623
 20
-1681.5694245265429
 42
-0.0112130424358128
 10
605.06341293907508
 20
-1681.7356281267341
 10
605.064615464187
 20
-1681.742124713619
 42
-0.0210527881240572
 10
605.09030193955789
 20
-1681.9231803590596
 10
605.09381253437971
 20
-1681.9585859076074
 42
-0.0190029892420999
 10
605.10925400792416
 20
-1682.2121217538781
 10
605.11006398436825
 20
-1682.2475973682485
 42
-0.0137974553662565
 10
605.10851513153273
 20
-1682.5726287749821
 10
605.10766967657707
 20
-1682.5987475195773
 42
-0.0081336634216472
 10
605.09281034135461
 20
-1682.9040949871742
 42
-0.0073526923565976
 10
605.06850180797994
 20
-1683.2088432314599
 10
605.06724038419725
 20
-1683.2221799061253
 42
-0.0066886138697193
 10
605.0315047981511
 20
-1683.5527659496202
 10
605.0298477086809
 20
-1683.5663875686141
 42
-0.0061359187358695
 10
604.98199710663027
 20
-1683.9231515487124
 10
604.97995960555716
 20
-1683.9370463515434
 42
-0.0056698610065762
 10
604.9193092747895
 20
-1684.3203249203848
 10
604.91690384146705
 20
-1684.3344840396121
 42
-0.005272107727547
 10
604.84277164066975
 20
-1684.7446113792782
 10
604.84000849182576
 20
-1684.759028014676
 42
-0.0049289272178643
 10
604.75171437372774
 20
-1685.1963365257889
 10
604.74860187904312
 20
-1685.2110053786141
 42
-0.0047415956712303
 10
604.64536388750923
 20
-1685.6758021360311
 10
604.61059567715097
 20
-1685.825609231408
 42
-0.0084404470903124
 10
604.42057923358107
 20
-1686.5858332559321
 10
604.41445254559346
 20
-1686.6086973800925
 42
-0.0039635940257835
 10
604.19299886130739
 20
-1687.4096862443469
 10
604.17962206612992
 20
-1687.4566178609316
 42
-0.0072475040836638
 10
603.91217517826703
 20
-1688.3458375773216
 10
603.84196285144185
 20
-1688.5675779272867
 42
-0.0051345458829667
 10
603.55520347938057
 20
-1689.4419031151051
 10
603.53367721259713
 20
-1689.5053293822818
 42
-0.0019150016601779
 10
603.27814380574637
 20
-1690.2488785024611
 10
603.27167620136197
 20
-1690.2674659673482
 42
-0.0021524362753365
 10
603.02319815028636
 20
-1690.9717917890907
 10
603.01398772960022
 20
-1690.9975453673633
 42
-0.0024331286822381
 10
602.77773247055393
 20
-1691.6481446755101
 10
602.76868451800408
 20
-1691.6726879818625
 42
-0.002744972179032
 10
602.54406994716794
 20
-1692.271817860789
 10
602.53517993978096
 20
-1692.2951404506275
 42
-0.0031083229768289
 10
602.32163745316575
 20
-1692.8450644882209
 10
602.31290132149479
 20
-1692.867154204067
 42
-0.0035311343285175
 10
602.10986013589843
 20
-1693.3701373298088
 10
602.10127479674918
 20
-1693.3909800533229
 42
-0.0040245640950067
 10
601.90816299295636
 20
-1693.8492893759117
 10
601.89972687935187
 20
-1693.8688687439869
 42
-0.0046015135851538
 10
601.71597058618954
 20
-1694.2847737736258
 10
601.70768440836196
 20
-1694.3030709130765
 42
-0.0052768638266751
 10
601.53270688940563
 20
-1694.6788437973482
 10
601.52457467878025
 20
-1694.6958371358883
 42
-0.0060672675636975
 10
601.35779506601273
 20
-1695.0337527590057
 10
601.34982558552781
 20
-1695.0494180180096
 42
-0.0069904648868774
 10
601.19065719152968
 20
-1695.3517538246665
 10
601.18286579192011
 20
-1695.3660643738917
 42
-0.0080637022767103
 10
601.03071393157302
 20
-1695.635099677047
 10
601.02312489894189
 20
-1695.6480275426477
 42
-0.0093006455663782
 10
600.87738422241034
 20
-1695.8860419411508
 10
600.87003355566276
 20
-1695.8975599103301
 42
-0.0107060778056937
 10
600.73008501222819
 20
-1696.1068302277031
 10
600.72302324395173
 20
-1696.1169157702645
 42
-0.0122723111414249
 10
600.58822952575042
 20
-1696.2997090997578
 10
600.58790330219369
 20
-1696.3001294875708
 42
-0.0141836319634366
 10
600.44432169922231
 20
-1696.474699245397
 10
600.43737394357106
 20
-1696.482674245661
 42
-0.0175957477202139
 10
600.29746777553567
 20
-1696.6322951340667
 42
-0.0080466359679777
 10
600.15000401051202
 20
-1696.7746176622118
 10
600.10396946598803
 20
-1696.8176381003091
 42
-0.0269600260392082
 10
599.85068922000323
 20
-1697.0299613588197
 10
599.7841220837073
 20
-1697.0799127734426
 42
-0.0178362839754787
 10
599.54417759405214
 20
-1697.2469306996945
 10
599.53693262305342
 20
-1697.2515992118983
 42
-0.0174650732649707
 10
599.30059642561048
 20
-1697.3924601768585
 42
-0.0169240130165832
 10
599.05513017975613
 20
-1697.5167524366345
 10
599.00914402419494
 20
-1697.5381143922032
 42
-0.0318883036840343
 10
598.65879316857388
 20
-1697.6744527017136
 10
598.59042763341006
 20
-1697.6961533221888
 42
-0.0284435909902562
 10
598.21437750711914
 20
-1697.7923707576633
 10
598.17921934661956
 20
-1697.7992643534922
 42
-0.0243909341012081
 10
597.86577588570162
 20
-1697.844985384522
 10
597.8154951589346
 20
-1697.8498309314234
 42
-0.0196639292931937
 10
597.59989958140329
 20
-1697.8620792169372
 10
597.54807551023293
 20
-1697.862982477674
 42
-0.0100501510680762
 10
597.43565222857558
 20
-1697.8626820793208
 10
597.40399236725011
 20
-1697.8619610074359
 42
-0.0019752031129098
 10
597.35490003055008
 20
-1697.860648847226
 10
597.35213972731731
 20
-1697.8605641553993
 42
0.0065378752012995
 10
597.30856315257324
 20
-1697.8597972641846
 42
-0.0167974694637545
 10
597.26503232963944
 20
-1697.8581373656584
 10
597.26095299037934
 20
-1697.8578443547635
 42
-0.0081283276285091
 10
597.20939319264335
 20
-1697.8532973611261
 10
597.19765361876227
 20
-1697.8520694435474
 42
-0.0126703440161815
 10
597.12293532296508
 20
-1697.8423346524755
 10
597.10014745529202
 20
-1697.8387763965607
 42
-0.0117852088446667
 10
596.98060846946555
 20
-1697.8172134014046
 10
596.92522801769655
 20
-1697.805869861169
 42
-0.0251774592287663
 10
596.69838397868671
 20
-1697.7473718517356
 10
596.65366478884016
 20
-1697.7334050324016
 42
-0.0146525199884391
 10
596.46727180129915
 20
-1697.6691385052027
 42
-0.0166929435854543
 10
596.28529414517368
 20
-1697.5933313721484
 10
596.28063751389936
 20
-1697.591206471534
 42
-0.0191684358432508
 10
596.09545388264962
 20
-1697.4979703877436
 10
596.0921212968932
 20
-1697.4961291401905
 42
-0.0221181781814584
 10
595.9088109929919
 20
-1697.3839956418205
 10
595.90646118898246
 20
-1697.3824113438288
 42
-0.0254984685380716
 10
595.73017103859672
 20
-1697.2500001938588
 10
595.70768889089538
 20
-1697.2312478849231
 42
-0.0292492648805177
 10
595.58291995205218
 20
-1697.1141550852799
 42
-0.0159048957499792
 10
595.46907995460333
 20
-1696.9861350936824
 10
595.46776116402282
 20
-1696.9845534806609
 42
-0.0343813379560165
 10
595.36512390239636
 20
-1696.842682154891
 10
595.33363237103572
 20
-1696.7921787627972
 42
-0.036911727570077
 10
595.24773986913851
 20
-1696.6287015218488
 42
-0.0191751379910705
 10
595.18054648358168
 20
-1696.4562969158435
 10
595.17878315982193
 20
-1696.451203571168
 42
-0.0378178042232702
 10
595.12898844103768
 20
-1696.2622627950866
 10
595.12299314530753
 20
-1696.2297021768898
 42
-0.0184846046481178
 10
595.10227594601304
 20
-1696.0879493563448
 42
-0.0179866351323622
 10
595.09194294093936
 20
-1695.9450585432644
 10
595.09188649849352
 20
-1695.9435008566511
 42
-0.0085497186124572
 10
595.09045421738983
 20
-1695.8686276916412
 42
-0.0085497186124572
  0
ENDBLK
  5
61
100
AcDbEntity
  8
template
390
0
100
AcDbBlockEnd
  0
BLOCK
  5
62
100
AcDbEntity
  8
notes
390
0
100
AcDbBlockBegin
  2
*D3
 70
               1
 10
0.0
 20
0.0
 30
0.0
  3
*D3
  1

  0
LINE
  5
63
100
AcDbEntity
  8
0
370
              -2
390
0
  6
Continuous
 62
               0
100
AcDbLine
 10
-215.56216977952249
 20
794.63571159387493
 30
0.0
 11
-140.03410544370348
 21
900.0
 31
0.0
  0
CIRCLE
  5
64
102
{ACAD_REACTORS
330
65
102
}
100
AcDbEntity
  8
0
370
              -2
390
0
  6
Continuous
 62
               0
100
AcDbCircle
 10
-215.56216977952249
 20
794.63571159387493
 30
0.0
 40
4.99969482421875
  0
HATCH
  5
65
100
AcDbEntity
  8
0
370
              -2
390
0
  6
Continuous
 62
               0
100
AcDbHatch
 10
0.0
 20
0.0
 30
0.0
210
0.0
220
0.0
230
1.0
  2
SOLID
 70
               1
 71
               1
 91
        1
 92
        1
 93
        1
 72
               2
 10
-215.56216977952249
 20
794.63571159387493
 40
4.99969482421875
 50
0.0
 51
360.0
 73
               0
 97
        1
330
64
 75
               0
 76
               1
 98
        1
 10
0.0
 20
0.0
  0
LINE
  5
66
100
AcDbEntity
  8
0
370
              -2
390
0
  6
Continuous
 62
               0
100
AcDbLine
 10
-140.03410544370348
 20
900.0
 30
0.0
 11
-16.534105443703481
 21
900.0
 31
0.0
  0
MTEXT
  5
67
100
AcDbEntity
  8
0
390
0
 62
               0
100
AcDbMText
 10
-80.034105443703481
 20
933.87761718749994
 30
0.0
 40
24.432617187500004
 41
0.0
 71
               1
 72
               1
  1
φ36
  7
ＭＳ ゴシック
 73
               1
 44
0.7828267384257843
  0
POINT
  5
68
100
AcDbEntity
  8
Defpoints
370
               0
390
0
 62
               0
100
AcDbPoint
 10
-236.53596881045667
 20
765.37652920252367
 30
0.0
  0
POINT
  5
69
100
AcDbEntity
  8
Defpoints
370
               0
390
0
 62
               0
100
AcDbPoint
 10
-215.56216977952249
 20
794.63571159387493
 30
0.0
  0
ENDBLK
  5
6A
100
AcDbEntity
  8
notes
390
0
100
AcDbBlockEnd
  0
BLOCK
  5
6B
100
AcDbEntity
  8
notes
390
0
100
AcDbBlockBegin
  2
*D4
 70
               1
 10
0.0
 20
0.0
 30
0.0
  3
*D4
  1

  0
LINE
  5
6C
100
AcDbEntity
  8
0
370
              -2
390
0
  6
Continuous
 62
               0
100
AcDbLine
 10
-726.03056882224632
 20
-414.81693176078142
 30
0.0
 11
-833.53056882224632
 21
-414.81693176078142
 31
0.0
  0
LINE
  5
6D
100
AcDbEntity
  8
0
370
              -2
390
0
  6
Continuous
 62
               0
100
AcDbLine
 10
-726.03056882224632
 20
-489.81693176078142
 30
0.0
 11
-833.53056882224632
 21
-489.81693176078142
 31
0.0
  0
LINE
  5
6E
100
AcDbEntity
  8
0
370
              -2
390
0
  6
Continuous
 62
               0
100
AcDbLine
 10
-833.53056882224632
 20
-414.81693176078142
 30
0.0
 11
-833.53056882224632
 21
-489.81693176078142
 31
0.0
  0
CIRCLE
  5
6F
102
{ACAD_REACTORS
330
70
102
}
100
AcDbEntity
  8
0
370
              -2
390
0
  6
Continuous
 62
               0
100
AcDbCircle
 10
-833.53056882224632
 20
-414.81693176078142
 30
0.0
 40
4.99969482421875
  0
HATCH
  5
70
100
AcDbEntity
  8
0
370
              -2
390
0
  6
Continuous
 62
               0
100
AcDbHatch
 10
0.0
 20
0.0
 30
0.0
210
0.0
220
0.0
230
1.0
  2
SOLID
 70
               1
 71
               1
 91
        1
 92
        1
 93
        1
 72
               2
 10
-833.53056882224632
 20
-414.81693176078142
 40
4.99969482421875
 50
0.0
 51
360.0
 73
               0
 97
        1
330
6F
 75
               0
 76
               1
 98
        1
 10
0.0
 20
0.0
  0
CIRCLE
  5
71
102
{ACAD_REACTORS
330
72
102
}
100
AcDbEntity
  8
0
370
              -2
390
0
  6
Continuous
 62
               0
100
AcDbCircle
 10
-833.53056882224632
 20
-489.81693176078142
 30
0.0
 40
4.99969482421875
  0
HATCH
  5
72
100
AcDbEntity
  8
0
370
              -2
390
0
  6
Continuous
 62
               0
100
AcDbHatch
 10
0.0
 20
0.0
 30
0.0
210
0.0
220
0.0
230
1.0
  2
SOLID
 70
               1
 71
               1
 91
        1
 92
        1
 93
        1
 72
               2
 10
-833.53056882224632
 20
-489.81693176078142
 40
4.99969482421875
 50
0.0
 51
360.0
 73
               0
 97
        1
330
71
 75
               0
 76
               1
 98
        1
 10
0.0
 20
0.0
  0
MTEXT
  5
73
100
AcDbEntity
  8
0
390
0
 62
               0
100
AcDbMText
 10
-867.40818600974626
 20
-468.19193176078142
 30
0.0
 40
24.432617187500004
 41
0.0
 71
               1
 72
               1
  1
75
  7
ＭＳ ゴシック
 11
0.0
 21
1.0
 31
0.0
 73
               1
 44
0.7828267384257843
  0
POINT
  5
74
100
AcDbEntity
  8
Defpoints
370
               0
390
0
 62
               0
100
AcDbPoint
 10
-701.03056882224632
 20
-489.81693176078142
 30
0.0
  0
POINT
  5
75
100
AcDbEntity
  8
Defpoints
370
               0
390
0
 62
               0
100
AcDbPoint
 10
-701.03056882224632
 20
-414.81693176078142
 30
0.0
  0
POINT
  5
76
100
AcDbEntity
  8
Defpoints
370
               0
390
0
 62
               0
100
AcDbPoint
 10
-833.53056882224632
 20
-414.81693176078142
 30
0.0
  0
ENDBLK
  5
77
100
AcDbEntity
  8
notes
390
0
100
AcDbBlockEnd
  0
BLOCK
  5
78
100
AcDbEntity
  8
notes
390
0
100
AcDbBlockBegin
  2
*D5
 70
               1
 10
0.0
 20
0.0
 30
0.0
  3
*D5
  1

  0
LINE
  5
79
100
AcDbEntity
  8
0
370
              -2
390
0
  6
Continuous
 62
               0
100
AcDbLine
 10
-193.53056882224638
 20
-417.34354836997153
 30
0.0
 11
-193.53056882224638
 21
-289.84354836997153
 31
0.0
  0
LINE
  5
7A
100
AcDbEntity
  8
0
370
              -2
390
0
  6
Continuous
 62
               0
100
AcDbLine
 10
66.46943117775362
 20
-368.34354836997153
 30
0.0
 11
66.46943117775362
 21
-289.84354836997153
 31
0.0
  0
LINE
  5
7B
100
AcDbEntity
  8
0
370
              -2
390
0
  6
Continuous
 62
               0
100
AcDbLine
 10
-193.53056882224638
 20
-289.84354836997153
 30
0.0
 11
66.46943117775362
 21
-289.84354836997153
 31
0.0
  0
CIRCLE
  5
7C
102
{ACAD_REACTORS
330
7D
102
}
100
AcDbEntity
  8
0
370
              -2
390
0
  6
Continuous
 62
               0
100
AcDbCircle
 10
-193.53056882224638
 20
-289.84354836997153
 30
0.0
 40
4.99969482421875
  0
HATCH
  5
7D
100
AcDbEntity
  8
0
370
              -2
390
0
  6
Continuous
 62
               0
100
AcDbHatch
 10
0.0
 20
0.0
 30
0.0
210
0.0
220
0.0
230
1.0
  2
SOLID
 70
               1
 71
               1
 91
        1
 92
        1
 93
        1
 72
               2
 10
-193.53056882224638
 20
-289.84354836997153
 40
4.99969482421875
 50
0.0
 51
360.0
 73
               0
 97
        1
330
7C
 75
               0
 76
               1
 98
        1
 10
0.0
 20
0.0
  0
CIRCLE
  5
7E
102
{ACAD_REACTORS
330
7F
102
}
100
AcDbEntity
  8
0
370
              -2
390
0
  6
Continuous
 62
               0
100
AcDbCircle
 10
66.46943117775362
 20
-289.84354836997153
 30
0.0
 40
4.99969482421875
  0
HATCH
  5
7F
100
AcDbEntity
  8
0
370
              -2
390
0
  6
Continuous
 62
               0
100
AcDbHatch
 10
0.0
 20
0.0
 30
0.0
210
0.0
220
0.0
230
1.0
  2
SOLID
 70
               1
 71
               1
 91
        1
 92
        1
 93
        1
 72
               2
 10
66.46943117775362
 20
-289.84354836997153
 40
4.99969482421875
 50
0.0
 51
360.0
 73
               0
 97
        1
330
7E
 75
               0
 76
               1
 98
        1
 10
0.0
 20
0.0
  0
MTEXT
  5
80
100
AcDbEntity
  8
0
390
0
 62
               0
100
AcDbMText
 10
-87.343070504421917
 20
-255.96593118247148
 30
0.0
 40
24.432617187500004
 41
0.0
 71
               1
 72
               1
  1
260
  7
ＭＳ ゴシック
 73
               1
 44
0.7828267384257843
  0
POINT
  5
81
100
AcDbEntity
  8
Defpoints
370
               0
390
0
 62
               0
100
AcDbPoint
 10
66.46943117775362
 20
-393.34354836997153
 30
0.0
  0
POINT
  5
82
100
AcDbEntity
  8
Defpoints
370
               0
390
0
 62
               0
100
AcDbPoint
 10
-193.53056882224638
 20
-442.34354836997153
 30
0.0
  0
POINT
  5
83
100
AcDbEntity
  8
Defpoints
370
               0
390
0
 62
               0
100
AcDbPoint
 10
-193.53056882224638
 20
-289.84354836997153
 30
0.0
  0
ENDBLK
  5
84
100
AcDbEntity
  8
notes
390
0
100
AcDbBlockEnd
  0
BLOCK
  5
85
100
AcDbEntity
  8
notes
390
0
100
AcDbBlockBegin
  2
*D6
 70
               1
 10
0.0
 20
0.0
 30
0.0
  3
*D6
  1

  0
LINE
  5
86
100
AcDbEntity
  8
0
370
              -2
390
0
  6
Continuous
 62
               0
100
AcDbLine
 10
-733.53056882224632
 20
405.0
 30
0.0
 11
-733.53056882224632
 21
325.00000000000006
 31
0.0
  0
LINE
  5
87
100
AcDbEntity
  8
0
370
              -2
390
0
  6
Continuous
 62
               0
100
AcDbLine
 10
-476.02705800208196
 20
375.00612039819953
 30
0.0
 11
-476.02705800208196
 21
325.00000000000006
 31
0.0
  0
LINE
  5
88
100
AcDbEntity
  8
0
370
              -2
390
0
  6
Continuous
 62
               0
100
AcDbLine
 10
-733.53056882224632
 20
325.00000000000006
 30
0.0
 11
-476.02705800208196
 21
325.00000000000006
 31
0.0
  0
CIRCLE
  5
89
102
{ACAD_REACTORS
330
8A
102
}
100
AcDbEntity
  8
0
370
              -2
390
0
  6
Continuous
 62
               0
100
AcDbCircle
 10
-733.53056882224632
 20
325.00000000000006
 30
0.0
 40
4.99969482421875
  0
HATCH
  5
8A
100
AcDbEntity
  8
0
370
              -2
390
0
  6
Continuous
 62
               0
100
AcDbHatch
 10
0.0
 20
0.0
 30
0.0
210
0.0
220
0.0
230
1.0
  2
SOLID
 70
               1
 71
               1
 91
        1
 92
        1
 93
        1
 72
               2
 10
-733.53056882224632
 20
325.00000000000006
 40
4.99969482421875
 50
0.0
 51
360.0
 73
               0
 97
        1
330
89
 75
               0
 76
               1
 98
        1
 10
0.0
 20
0.0
  0
CIRCLE
  5
8B
102
{ACAD_REACTORS
330
8C
102
}
100
AcDbEntity
  8
0
370
              -2
390
0
  6
Continuous
 62
               0
100
AcDbCircle
 10
-476.02705800208196
 20
325.00000000000006
 30
0.0
 40
4.99969482421875
  0
HATCH
  5
8C
100
AcDbEntity
  8
0
370
              -2
390
0
  6
Continuous
 62
               0
100
AcDbHatch
 10
0.0
 20
0.0
 30
0.0
210
0.0
220
0.0
230
1.0
  2
SOLID
 70
               1
 71
               1
 91
        1
 92
        1
 93
        1
 72
               2
 10
-476.02705800208196
 20
325.00000000000006
 40
4.99969482421875
 50
0.0
 51
360.0
 73
               0
 97
        1
330
8B
 75
               0
 76
               1
 98
        1
 10
0.0
 20
0.0
  0
MTEXT
  5
8D
100
AcDbEntity
  8
0
390
0
 62
               0
100
AcDbMText
 10
-644.46631341216414
 20
358.87761718750005
 30
0.0
 40
24.432617187500004
 41
0.0
 71
               1
 72
               1
  1
257.5
  7
ＭＳ ゴシック
 73
               1
 44
0.7828267384257843
  0
POINT
  5
8E
100
AcDbEntity
  8
Defpoints
370
               0
390
0
 62
               0
100
AcDbPoint
 10
-476.02705800208196
 20
400.00612039819953
 30
0.0
  0
POINT
  5
8F
100
AcDbEntity
  8
Defpoints
370
               0
390
0
 62
               0
100
AcDbPoint
 10
-733.53056882224632
 20
430.0
 30
0.0
  0
POINT
  5
90
100
AcDbEntity
  8
Defpoints
370
               0
390
0
 62
               0
100
AcDbPoint
 10
-733.53056882224632
 20
325.00000000000006
 30
0.0
  0
ENDBLK
  5
91
100
AcDbEntity
  8
notes
390
0
100
AcDbBlockEnd
  0
BLOCK
  5
92
100
AcDbEntity
  8
notes
390
0
100
AcDbBlockBegin
  2
*D7
 70
               1
 10
0.0
 20
0.0
 30
0.0
  3
*D7
  1

  0
LINE
  5
93
100
AcDbEntity
  8
0
370
              -2
390
0
  6
Continuous
 62
               0
100
AcDbLine
 10
-476.02705800208196
 20
400.00612039819953
 30
0.0
 11
-476.02705800208196
 21
325.00612039819958
 31
0.0
  0
LINE
  5
94
100
AcDbEntity
  8
0
370
              -2
390
0
  6
Continuous
 62
               0
100
AcDbLine
 10
23.972941997917985
 20
400.00612039819953
 30
0.0
 11
23.972941997917985
 21
325.00612039819958
 31
0.0
  0
LINE
  5
95
100
AcDbEntity
  8
0
370
              -2
390
0
  6
Continuous
 62
               0
100
AcDbLine
 10
-476.02705800208196
 20
325.00612039819958
 30
0.0
 11
23.972941997917985
 21
325.00612039819958
 31
0.0
  0
CIRCLE
  5
96
102
{ACAD_REACTORS
330
97
102
}
100
AcDbEntity
  8
0
370
              -2
390
0
  6
Continuous
 62
               0
100
AcDbCircle
 10
-476.02705800208196
 20
325.00612039819958
 30
0.0
 40
4.99969482421875
  0
HATCH
  5
97
100
AcDbEntity
  8
0
370
              -2
390
0
  6
Continuous
 62
               0
100
AcDbHatch
 10
0.0
 20
0.0
 30
0.0
210
0.0
220
0.0
230
1.0
  2
SOLID
 70
               1
 71
               1
 91
        1
 92
        1
 93
        1
 72
               2
 10
-476.02705800208196
 20
325.00612039819958
 40
4.99969482421875
 50
0.0
 51
360.0
 73
               0
 97
        1
330
96
 75
               0
 76
               1
 98
        1
 10
0.0
 20
0.0
  0
CIRCLE
  5
98
102
{ACAD_REACTORS
330
99
102
}
100
AcDbEntity
  8
0
370
              -2
390
0
  6
Continuous
 62
               0
100
AcDbCircle
 10
23.972941997917985
 20
325.00612039819958
 30
0.0
 40
4.99969482421875
  0
HATCH
  5
99
100
AcDbEntity
  8
0
370
              -2
390
0
  6
Continuous
 62
               0
100
AcDbHatch
 10
0.0
 20
0.0
 30
0.0
210
0.0
220
0.0
230
1.0
  2
SOLID
 70
               1
 71
               1
 91
        1
 92
        1
 93
        1
 72
               2
 10
23.972941997917985
 20
325.00612039819958
 40
4.99969482421875
 50
0.0
 51
360.0
 73
               0
 97
        1
330
98
 75
               0
 76
               1
 98
        1
 10
0.0
 20
0.0
  0
MTEXT
  5
9A
100
AcDbEntity
  8
0
390
0
 62
               0
100
AcDbMText
 10
-249.83955968425744
 20
358.88373758569958
 30
0.0
 40
24.432617187500004
 41
0.0
 71
               1
 72
               1
  1
500
  7
ＭＳ ゴシック
 73
               1
 44
0.7828267384257843
  0
POINT
  5
9B
100
AcDbEntity
  8
Defpoints
370
               0
390
0
 62
               0
100
AcDbPoint
 10
23.972941997917985
 20
425.00612039819953
 30
0.0
  0
POINT
  5
9C
100
AcDbEntity
  8
Defpoints
370
               0
390
0
 62
               0
100
AcDbPoint
 10
-476.02705800208196
 20
425.00612039819953
 30
0.0
  0
POINT
  5
9D
100
AcDbEntity
  8
Defpoints
370
               0
390
0
 62
               0
100
AcDbPoint
 10
-476.02705800208196
 20
325.00612039819958
 30
0.0
  0
ENDBLK
  5
9E
100
AcDbEntity
  8
notes
390
0
100
AcDbBlockEnd
  0
BLOCK
  5
9F
100
AcDbEntity
  8
notes
390
0
100
AcDbBlockBegin
  2
*D8
 70
               1
 10
0.0
 20
0.0
 30
0.0
  3
*D8
  1

  0
LINE
  5
A0
100
AcDbEntity
  8
0
370
              -2
390
0
  6
Continuous
 62
               0
100
AcDbLine
 10
870.89760675492607
 20
-368.34354836997153
 30
0.0
 11
870.89760675492607
 21
-289.84354836997153
 31
0.0
  0
LINE
  5
A1
100
AcDbEntity
  8
0
370
              -2
390
0
  6
Continuous
 62
               0
100
AcDbLine
 10
820.89760675492607
 20
-364.84354836997153
 30
0.0
 11
820.89760675492607
 21
-289.84354836997153
 31
0.0
  0
LINE
  5
A2
100
AcDbEntity
  8
0
370
              -2
390
0
  6
Continuous
 62
               0
100
AcDbLine
 10
870.89760675492607
 20
-289.84354836997153
 30
0.0
 11
820.89760675492607
 21
-289.84354836997153
 31
0.0
  0
CIRCLE
  5
A3
102
{ACAD_REACTORS
330
A4
102
}
100
AcDbEntity
  8
0
370
              -2
390
0
  6
Continuous
 62
               0
100
AcDbCircle
 10
870.89760675492607
 20
-289.84354836997153
 30
0.0
 40
4.99969482421875
  0
HATCH
  5
A4
100
AcDbEntity
  8
0
370
              -2
390
0
  6
Continuous
 62
               0
100
AcDbHatch
 10
0.0
 20
0.0
 30
0.0
210
0.0
220
0.0
230
1.0
  2
SOLID
 70
               1
 71
               1
 91
        1
 92
        1
 93
        1
 72
               2
 10
870.89760675492607
 20
-289.84354836997153
 40
4.99969482421875
 50
0.0
 51
360.0
 73
               0
 97
        1
330
A3
 75
               0
 76
               1
 98
        1
 10
0.0
 20
0.0
  0
CIRCLE
  5
A5
102
{ACAD_REACTORS
330
A6
102
}
100
AcDbEntity
  8
0
370
              -2
390
0
  6
Continuous
 62
               0
100
AcDbCircle
 10
820.89760675492607
 20
-289.84354836997153
 30
0.0
 40
4.99969482421875
  0
HATCH
  5
A6
100
AcDbEntity
  8
0
370
              -2
390
0
  6
Continuous
 62
               0
100
AcDbHatch
 10
0.0
 20
0.0
 30
0.0
210
0.0
220
0.0
230
1.0
  2
SOLID
 70
               1
 71
               1
 91
        1
 92
        1
 93
        1
 72
               2
 10
820.89760675492607
 20
-289.84354836997153
 40
4.99969482421875
 50
0.0
 51
360.0
 73
               0
 97
        1
330
A5
 75
               0
 76
               1
 98
        1
 10
0.0
 20
0.0
  0
MTEXT
  5
A7
100
AcDbEntity
  8
0
390
0
 62
               0
100
AcDbMText
 10
830.02260675492607
 20
-255.96593118247148
 30
0.0
 40
24.432617187500004
 41
0.0
 71
               1
 72
               1
  1
50
  7
ＭＳ ゴシック
 73
               1
 44
0.7828267384257843
  0
POINT
  5
A8
100
AcDbEntity
  8
Defpoints
370
               0
390
0
 62
               0
100
AcDbPoint
 10
820.89760675492607
 20
-389.84354836997153
 30
0.0
  0
POINT
  5
A9
100
AcDbEntity
  8
Defpoints
370
               0
390
0
 62
               0
100
AcDbPoint
 10
870.89760675492607
 20
-393.34354836997153
 30
0.0
  0
POINT
  5
AA
100
AcDbEntity
  8
Defpoints
370
               0
390
0
 62
               0
100
AcDbPoint
 10
870.89760675492607
 20
-289.84354836997153
 30
0.0
  0
ENDBLK
  5
AB
100
AcDbEntity
  8
notes
390
0
100
AcDbBlockEnd
  0
BLOCK
  5
AC
100
AcDbEntity
  8
notes
390
0
100
AcDbBlockBegin
  2
*D9
 70
               1
 10
0.0
 20
0.0
 30
0.0
  3
*D9
  1

  0
LINE
  5
AD
100
AcDbEntity
  8
0
370
              -2
390
0
  6
Continuous
 62
               0
100
AcDbLine
 10
-691.03056882224632
 20
-369.81693176078142
 30
0.0
 11
-691.03056882224632
 21
-239.84354836997153
 31
0.0
  0
LINE
  5
AE
100
AcDbEntity
  8
0
370
              -2
390
0
  6
Continuous
 62
               0
100
AcDbLine
 10
-733.53056882224632
 20
-369.81693176078142
 30
0.0
 11
-733.53056882224632
 21
-239.84354836997153
 31
0.0
  0
LINE
  5
AF
100
AcDbEntity
  8
0
370
              -2
390
0
  6
Continuous
 62
               0
100
AcDbLine
 10
-691.03056882224632
 20
-239.84354836997153
 30
0.0
 11
-733.53056882224632
 21
-239.84354836997153
 31
0.0
  0
CIRCLE
  5
B0
102
{ACAD_REACTORS
330
B1
102
}
100
AcDbEntity
  8
0
370
              -2
390
0
  6
Continuous
 62
               0
100
AcDbCircle
 10
-691.03056882224632
 20
-239.84354836997153
 30
0.0
 40
4.99969482421875
  0
HATCH
  5
B1
100
AcDbEntity
  8
0
370
              -2
390
0
  6
Continuous
 62
               0
100
AcDbHatch
 10
0.0
 20
0.0
 30
0.0
210
0.0
220
0.0
230
1.0
  2
SOLID
 70
               1
 71
               1
 91
        1
 92
        1
 93
        1
 72
               2
 10
-691.03056882224632
 20
-239.84354836997153
 40
4.99969482421875
 50
0.0
 51
360.0
 73
               0
 97
        1
330
B0
 75
               0
 76
               1
 98
        1
 10
0.0
 20
0.0
  0
CIRCLE
  5
B2
102
{ACAD_REACTORS
330
B3
102
}
100
AcDbEntity
  8
0
370
              -2
390
0
  6
Continuous
 62
               0
100
AcDbCircle
 10
-733.53056882224632
 20
-239.84354836997153
 30
0.0
 40
4.99969482421875
  0
HATCH
  5
B3
100
AcDbEntity
  8
0
370
              -2
390
0
  6
Continuous
 62
               0
100
AcDbHatch
 10
0.0
 20
0.0
 30
0.0
210
0.0
220
0.0
230
1.0
  2
SOLID
 70
               1
 71
               1
 91
        1
 92
        1
 93
        1
 72
               2
 10
-733.53056882224632
 20
-239.84354836997153
 40
4.99969482421875
 50
0.0
 51
360.0
 73
               0
 97
        1
330
B2
 75
               0
 76
               1
 98
        1
 10
0.0
 20
0.0
  0
MTEXT
  5
B4
100
AcDbEntity
  8
0
390
0
 62
               0
100
AcDbMText
 10
-744.03056882224632
 20
-205.96593118247148
 30
0.0
 40
24.432617187500004
 41
0.0
 71
               1
 72
               1
  1
42.5
  7
ＭＳ ゴシック
 73
               1
 44
0.7828267384257843
  0
POINT
  5
B5
100
AcDbEntity
  8
Defpoints
370
               0
390
0
 62
               0
100
AcDbPoint
 10
-733.53056882224632
 20
-394.81693176078142
 30
0.0
  0
POINT
  5
B6
100
AcDbEntity
  8
Defpoints
370
               0
390
0
 62
               0
100
AcDbPoint
 10
-691.03056882224632
 20
-394.81693176078142
 30
0.0
  0
POINT
  5
B7
100
AcDbEntity
  8
Defpoints
370
               0
390
0
 62
               0
100
AcDbPoint
 10
-691.03056882224632
 20
-239.84354836997153
 30
0.0
  0
ENDBLK
  5
B8
100
AcDbEntity
  8
notes
390
0
100
AcDbBlockEnd
  0
BLOCK
  5
B9
100
AcDbEntity
  8
notes
390
0
100
AcDbBlockBegin
  2
*D10
 70
               1
 10
0.0
 20
0.0
 30
0.0
  3
*D10
  1

  0
LINE
  5
BA
100
AcDbEntity
  8
0
370
              -2
390
0
  6
Continuous
 62
               0
100
AcDbLine
 10
-691.03056882224632
 20
-369.81693176078142
 30
0.0
 11
-691.03056882224632
 21
-239.84354836997153
 31
0.0
  0
LINE
  5
BB
100
AcDbEntity
  8
0
370
              -2
390
0
  6
Continuous
 62
               0
100
AcDbLine
 10
23.969431177753734
 20
-369.81693176078142
 30
0.0
 11
23.969431177753734
 21
-239.84354836997153
 31
0.0
  0
LINE
  5
BC
100
AcDbEntity
  8
0
370
              -2
390
0
  6
Continuous
 62
               0
100
AcDbLine
 10
-691.03056882224632
 20
-239.84354836997153
 30
0.0
 11
23.969431177753734
 21
-239.84354836997153
 31
0.0
  0
CIRCLE
  5
BD
102
{ACAD_REACTORS
330
BE
102
}
100
AcDbEntity
  8
0
370
              -2
390
0
  6
Continuous
 62
               0
100
AcDbCircle
 10
-691.03056882224632
 20
-239.84354836997153
 30
0.0
 40
4.99969482421875
  0
HATCH
  5
BE
100
AcDbEntity
  8
0
370
              -2
390
0
  6
Continuous
 62
               0
100
AcDbHatch
 10
0.0
 20
0.0
 30
0.0
210
0.0
220
0.0
230
1.0
  2
SOLID
 70
               1
 71
               1
 91
        1
 92
        1
 93
        1
 72
               2
 10
-691.03056882224632
 20
-239.84354836997153
 40
4.99969482421875
 50
0.0
 51
360.0
 73
               0
 97
        1
330
BD
 75
               0
 76
               1
 98
        1
 10
0.0
 20
0.0
  0
CIRCLE
  5
BF
102
{ACAD_REACTORS
330
C0
102
}
100
AcDbEntity
  8
0
370
              -2
390
0
  6
Continuous
 62
               0
100
AcDbCircle
 10
23.969431177753734
 20
-239.84354836997153
 30
0.0
 40
4.99969482421875
  0
HATCH
  5
C0
100
AcDbEntity
  8
0
370
              -2
390
0
  6
Continuous
 62
               0
100
AcDbHatch
 10
0.0
 20
0.0
 30
0.0
210
0.0
220
0.0
230
1.0
  2
SOLID
 70
               1
 71
               1
 91
        1
 92
        1
 93
        1
 72
               2
 10
23.969431177753734
 20
-239.84354836997153
 40
4.99969482421875
 50
0.0
 51
360.0
 73
               0
 97
        1
330
BF
 75
               0
 76
               1
 98
        1
 10
0.0
 20
0.0
  0
MTEXT
  5
C1
100
AcDbEntity
  8
0
390
0
 62
               0
100
AcDbMText
 10
-357.3430705044218
 20
-205.96593118247148
 30
0.0
 40
24.432617187500004
 41
0.0
 71
               1
 72
               1
  1
715
  7
ＭＳ ゴシック
 73
               1
 44
0.7828267384257843
  0
POINT
  5
C2
100
AcDbEntity
  8
Defpoints
370
               0
390
0
 62
               0
100
AcDbPoint
 10
23.969431177753734
 20
-394.81693176078142
 30
0.0
  0
POINT
  5
C3
100
AcDbEntity
  8
Defpoints
370
               0
390
0
 62
               0
100
AcDbPoint
 10
-691.03056882224632
 20
-394.81693176078142
 30
0.0
  0
POINT
  5
C4
100
AcDbEntity
  8
Defpoints
370
               0
390
0
 62
               0
100
AcDbPoint
 10
-691.03056882224632
 20
-239.84354836997153
 30
0.0
  0
ENDBLK
  5
C5
100
AcDbEntity
  8
notes
390
0
100
AcDbBlockEnd
  0
BLOCK
  5
C6
100
AcDbEntity
  8
notes
390
0
100
AcDbBlockBegin
  2
*D11
 70
               1
 10
0.0
 20
0.0
 30
0.0
  3
*D11
  1

  0
LINE
  5
C7
100
AcDbEntity
  8
0
370
              -2
390
0
  6
Continuous
 62
               0
100
AcDbLine
 10
-473.53056882224632
 20
-407.34354836997153
 30
0.0
 11
-473.53056882224632
 21
-289.84354836997153
 31
0.0
  0
LINE
  5
C8
100
AcDbEntity
  8
0
370
              -2
390
0
  6
Continuous
 62
               0
100
AcDbLine
 10
-193.53056882224638
 20
-407.34354836997153
 30
0.0
 11
-193.53056882224638
 21
-289.84354836997153
 31
0.0
  0
LINE
  5
C9
100
AcDbEntity
  8
0
370
              -2
390
0
  6
Continuous
 62
               0
100
AcDbLine
 10
-473.53056882224632
 20
-289.84354836997153
 30
0.0
 11
-193.53056882224638
 21
-289.84354836997153
 31
0.0
  0
CIRCLE
  5
CA
102
{ACAD_REACTORS
330
CB
102
}
100
AcDbEntity
  8
0
370
              -2
390
0
  6
Continuous
 62
               0
100
AcDbCircle
 10
-473.53056882224632
 20
-289.84354836997153
 30
0.0
 40
4.99969482421875
  0
HATCH
  5
CB
100
AcDbEntity
  8
0
370
              -2
390
0
  6
Continuous
 62
               0
100
AcDbHatch
 10
0.0
 20
0.0
 30
0.0
210
0.0
220
0.0
230
1.0
  2
SOLID
 70
               1
 71
               1
 91
        1
 92
        1
 93
        1
 72
               2
 10
-473.53056882224632
 20
-289.84354836997153
 40
4.99969482421875
 50
0.0
 51
360.0
 73
               0
 97
        1
330
CA
 75
               0
 76
               1
 98
        1
 10
0.0
 20
0.0
  0
CIRCLE
  5
CC
102
{ACAD_REACTORS
330
CD
102
}
100
AcDbEntity
  8
0
370
              -2
390
0
  6
Continuous
 62
               0
100
AcDbCircle
 10
-193.53056882224638
 20
-289.84354836997153
 30
0.0
 40
4.99969482421875
  0
HATCH
  5
CD
100
AcDbEntity
  8
0
370
              -2
390
0
  6
Continuous
 62
               0
100
AcDbHatch
 10
0.0
 20
0.0
 30
0.0
210
0.0
220
0.0
230
1.0
  2
SOLID
 70
               1
 71
               1
 91
        1
 92
        1
 93
        1
 72
               2
 10
-193.53056882224638
 20
-289.84354836997153
 40
4.99969482421875
 50
0.0
 51
360.0
 73
               0
 97
        1
330
CC
 75
               0
 76
               1
 98
        1
 10
0.0
 20
0.0
  0
MTEXT
  5
CE
100
AcDbEntity
  8
0
390
0
 62
               0
100
AcDbMText
 10
-357.3430705044218
 20
-255.96593118247148
 30
0.0
 40
24.432617187500004
 41
0.0
 71
               1
 72
               1
  1
280
  7
ＭＳ ゴシック
 73
               1
 44
0.7828267384257843
  0
POINT
  5
CF
100
AcDbEntity
  8
Defpoints
370
               0
390
0
 62
               0
100
AcDbPoint
 10
-193.53056882224638
 20
-432.34354836997153
 30
0.0
  0
POINT
  5
D0
100
AcDbEntity
  8
Defpoints
370
               0
390
0
 62
               0
100
AcDbPoint
 10
-473.53056882224632
 20
-432.34354836997153
 30
0.0
  0
POINT
  5
D1
100
AcDbEntity
  8
Defpoints
370
               0
390
0
 62
               0
100
AcDbPoint
 10
-473.53056882224632
 20
-289.84354836997153
 30
0.0
  0
ENDBLK
  5
D2
100
AcDbEntity
  8
notes
390
0
100
AcDbBlockEnd
  0
BLOCK
  5
D3
100
AcDbEntity
  8
notes
390
0
100
AcDbBlockBegin
  2
*D12
 70
               1
 10
0.0
 20
0.0
 30
0.0
  3
*D12
  1

  0
LINE
  5
D4
100
AcDbEntity
  8
0
370
              -2
390
0
  6
Continuous
 62
               0
100
AcDbLine
 10
-518.53056882224632
 20
-452.34354836997153
 30
0.0
 11
-547.00855752933887
 21
-452.34354836997153
 31
0.0
  0
LINE
  5
D5
100
AcDbEntity
  8
0
370
              -2
390
0
  6
Continuous
 62
               0
100
AcDbLine
 10
-518.53056882224632
 20
-389.84354836997153
 30
0.0
 11
-547.00855752933887
 21
-389.84354836997153
 31
0.0
  0
LINE
  5
D6
100
AcDbEntity
  8
0
370
              -2
390
0
  6
Continuous
 62
               0
100
AcDbLine
 10
-547.00855752933887
 20
-389.84354836997153
 30
0.0
 11
-547.00855752933887
 21
-317.00156453351912
 31
0.0
  0
LINE
  5
D7
100
AcDbEntity
  8
0
370
              -2
390
0
  6
Continuous
 62
               0
100
AcDbLine
 10
-547.00855752933887
 20
-452.34354836997153
 30
0.0
 11
-547.00855752933887
 21
-389.84354836997153
 31
0.0
  0
CIRCLE
  5
D8
102
{ACAD_REACTORS
330
D9
102
}
100
AcDbEntity
  8
0
370
              -2
390
0
  6
Continuous
 62
               0
100
AcDbCircle
 10
-547.00855752933887
 20
-452.34354836997153
 30
0.0
 40
4.99969482421875
  0
HATCH
  5
D9
100
AcDbEntity
  8
0
370
              -2
390
0
  6
Continuous
 62
               0
100
AcDbHatch
 10
0.0
 20
0.0
 30
0.0
210
0.0
220
0.0
230
1.0
  2
SOLID
 70
               1
 71
               1
 91
        1
 92
        1
 93
        1
 72
               2
 10
-547.00855752933887
 20
-452.34354836997153
 40
4.99969482421875
 50
0.0
 51
360.0
 73
               0
 97
        1
330
D8
 75
               0
 76
               1
 98
        1
 10
0.0
 20
0.0
  0
CIRCLE
  5
DA
102
{ACAD_REACTORS
330
DB
102
}
100
AcDbEntity
  8
0
370
              -2
390
0
  6
Continuous
 62
               0
100
AcDbCircle
 10
-547.00855752933887
 20
-389.84354836997153
 30
0.0
 40
4.99969482421875
  0
HATCH
  5
DB
100
AcDbEntity
  8
0
370
              -2
390
0
  6
Continuous
 62
               0
100
AcDbHatch
 10
0.0
 20
0.0
 30
0.0
210
0.0
220
0.0
230
1.0
  2
SOLID
 70
               1
 71
               1
 91
        1
 92
        1
 93
        1
 72
               2
 10
-547.00855752933887
 20
-389.84354836997153
 40
4.99969482421875
 50
0.0
 51
360.0
 73
               0
 97
        1
330
DA
 75
               0
 76
               1
 98
        1
 10
0.0
 20
0.0
  0
MTEXT
  5
DC
100
AcDbEntity
  8
0
390
0
 62
               0
100
AcDbMText
 10
-580.88617471683892
 20
-380.50156453351912
 30
0.0
 40
24.432617187500004
 41
0.0
 71
               1
 72
               1
  1
62.5
  7
ＭＳ ゴシック
 11
0.0
 21
1.0
 31
0.0
 73
               1
 44
0.7828267384257843
  0
POINT
  5
DD
100
AcDbEntity
  8
Defpoints
370
               0
390
0
 62
               0
100
AcDbPoint
 10
-493.53056882224632
 20
-389.84354836997153
 30
0.0
  0
POINT
  5
DE
100
AcDbEntity
  8
Defpoints
370
               0
390
0
 62
               0
100
AcDbPoint
 10
-493.53056882224632
 20
-452.34354836997153
 30
0.0
  0
POINT
  5
DF
100
AcDbEntity
  8
Defpoints
370
               0
390
0
 62
               0
100
AcDbPoint
 10
-547.00855752933887
 20
-452.34354836997153
 30
0.0
  0
ENDBLK
  5
E0
100
AcDbEntity
  8
notes
390
0
100
AcDbBlockEnd
  0
BLOCK
  5
E1
100
AcDbEntity
  8
notes
390
0
100
AcDbBlockBegin
  2
*D13
 70
               1
 10
0.0
 20
0.0
 30
0.0
  3
*D13
  1

  0
LINE
  5
E2
100
AcDbEntity
  8
0
370
              -2
390
0
  6
Continuous
 62
               0
100
AcDbLine
 10
-733.53056882224632
 20
855.0
 30
0.0
 11
-733.53056882224632
 21
979.99999999999977
 31
0.0
  0
LINE
  5
E3
100
AcDbEntity
  8
0
370
              -2
390
0
  6
Continuous
 62
               0
100
AcDbLine
 10
66.46943117775362
 20
855.0
 30
0.0
 11
66.46943117775362
 21
979.99999999999977
 31
0.0
  0
LINE
  5
E4
100
AcDbEntity
  8
0
370
              -2
390
0
  6
Continuous
 62
               0
100
AcDbLine
 10
-733.53056882224632
 20
979.99999999999977
 30
0.0
 11
66.46943117775362
 21
979.99999999999977
 31
0.0
  0
CIRCLE
  5
E5
102
{ACAD_REACTORS
330
E6
102
}
100
AcDbEntity
  8
0
370
              -2
390
0
  6
Continuous
 62
               0
100
AcDbCircle
 10
-733.53056882224632
 20
979.99999999999977
 30
0.0
 40
4.99969482421875
  0
HATCH
  5
E6
100
AcDbEntity
  8
0
370
              -2
390
0
  6
Continuous
 62
               0
100
AcDbHatch
 10
0.0
 20
0.0
 30
0.0
210
0.0
220
0.0
230
1.0
  2
SOLID
 70
               1
 71
               1
 91
        1
 92
        1
 93
        1
 72
               2
 10
-733.53056882224632
 20
979.99999999999977
 40
4.99969482421875
 50
0.0
 51
360.0
 73
               0
 97
        1
330
E5
 75
               0
 76
               1
 98
        1
 10
0.0
 20
0.0
  0
CIRCLE
  5
E7
102
{ACAD_REACTORS
330
E8
102
}
100
AcDbEntity
  8
0
370
              -2
390
0
  6
Continuous
 62
               0
100
AcDbCircle
 10
66.46943117775362
 20
979.99999999999977
 30
0.0
 40
4.99969482421875
  0
HATCH
  5
E8
100
AcDbEntity
  8
0
370
              -2
390
0
  6
Continuous
 62
               0
100
AcDbHatch
 10
0.0
 20
0.0
 30
0.0
210
0.0
220
0.0
230
1.0
  2
SOLID
 70
               1
 71
               1
 91
        1
 92
        1
 93
        1
 72
               2
 10
66.46943117775362
 20
979.99999999999977
 40
4.99969482421875
 50
0.0
 51
360.0
 73
               0
 97
        1
330
E7
 75
               0
 76
               1
 98
        1
 10
0.0
 20
0.0
  0
MTEXT
  5
E9
100
AcDbEntity
  8
0
390
0
 62
               0
100
AcDbMText
 10
-357.34307050442192
 20
1013.8776171874999
 30
0.0
 40
24.432617187500004
 41
0.0
 71
               1
 72
               1
  1
800
  7
ＭＳ ゴシック
 73
               1
 44
0.7828267384257843
  0
POINT
  5
EA
100
AcDbEntity
  8
Defpoints
370
               0
390
0
 62
               0
100
AcDbPoint
 10
66.46943117775362
 20
830.0
 30
0.0
  0
POINT
  5
EB
100
AcDbEntity
  8
Defpoints
370
               0
390
0
 62
               0
100
AcDbPoint
 10
-733.53056882224632
 20
830.0
 30
0.0
  0
POINT
  5
EC
100
AcDbEntity
  8
Defpoints
370
               0
390
0
 62
               0
100
AcDbPoint
 10
-733.53056882224632
 20
979.99999999999977
 30
0.0
  0
ENDBLK
  5
ED
100
AcDbEntity
  8
notes
390
0
100
AcDbBlockEnd
  0
BLOCK
  5
EE
100
AcDbEntity
  8
notes
390
0
100
AcDbBlockBegin
  2
*D14
 70
               1
 10
0.0
 20
0.0
 30
0.0
  3
*D14
  1

  0
LINE
  5
EF
100
AcDbEntity
  8
0
370
              -2
390
0
  6
Continuous
 62
               0
100
AcDbLine
 10
870.89760675492607
 20
-536.34354836997159
 30
0.0
 11
870.89760675492607
 21
-633.11205906917144
 31
0.0
  0
LINE
  5
F0
100
AcDbEntity
  8
0
370
              -2
390
0
  6
Continuous
 62
               0
100
AcDbLine
 10
695.89760675492607
 20
-558.07993742954864
 30
0.0
 11
695.89760675492607
 21
-633.11205906917144
 31
0.0
  0
LINE
  5
F1
100
AcDbEntity
  8
0
370
              -2
390
0
  6
Continuous
 62
               0
100
AcDbLine
 10
870.89760675492607
 20
-633.11205906917144
 30
0.0
 11
695.89760675492607
 21
-633.11205906917144
 31
0.0
  0
CIRCLE
  5
F2
102
{ACAD_REACTORS
330
F3
102
}
100
AcDbEntity
  8
0
370
              -2
390
0
  6
Continuous
 62
               0
100
AcDbCircle
 10
870.89760675492607
 20
-633.11205906917144
 30
0.0
 40
4.99969482421875
  0
HATCH
  5
F3
100
AcDbEntity
  8
0
370
              -2
390
0
  6
Continuous
 62
               0
100
AcDbHatch
 10
0.0
 20
0.0
 30
0.0
210
0.0
220
0.0
230
1.0
  2
SOLID
 70
               1
 71
               1
 91
        1
 92
        1
 93
        1
 72
               2
 10
870.89760675492607
 20
-633.11205906917144
 40
4.99969482421875
 50
0.0
 51
360.0
 73
               0
 97
        1
330
F2
 75
               0
 76
               1
 98
        1
 10
0.0
 20
0.0
  0
CIRCLE
  5
F4
102
{ACAD_REACTORS
330
F5
102
}
100
AcDbEntity
  8
0
370
              -2
390
0
  6
Continuous
 62
               0
100
AcDbCircle
 10
695.89760675492607
 20
-633.11205906917144
 30
0.0
 40
4.99969482421875
  0
HATCH
  5
F5
100
AcDbEntity
  8
0
370
              -2
390
0
  6
Continuous
 62
               0
100
AcDbHatch
 10
0.0
 20
0.0
 30
0.0
210
0.0
220
0.0
230
1.0
  2
SOLID
 70
               1
 71
               1
 91
        1
 92
        1
 93
        1
 72
               2
 10
695.89760675492607
 20
-633.11205906917144
 40
4.99969482421875
 50
0.0
 51
360.0
 73
               0
 97
        1
330
F4
 75
               0
 76
               1
 98
        1
 10
0.0
 20
0.0
  0
MTEXT
  5
F6
100
AcDbEntity
  8
0
390
0
 62
               0
100
AcDbMText
 10
759.58510507275059
 20
-599.2344418816715
 30
0.0
 40
24.432617187500004
 41
0.0
 71
               1
 72
               1
  1
175
  7
ＭＳ ゴシック
 73
               1
 44
0.7828267384257843
  0
POINT
  5
F7
100
AcDbEntity
  8
Defpoints
370
               0
390
0
 62
               0
100
AcDbPoint
 10
695.89760675492607
 20
-533.07993742954864
 30
0.0
  0
POINT
  5
F8
100
AcDbEntity
  8
Defpoints
370
               0
390
0
 62
               0
100
AcDbPoint
 10
870.89760675492607
 20
-511.34354836997153
 30
0.0
  0
POINT
  5
F9
100
AcDbEntity
  8
Defpoints
370
               0
390
0
 62
               0
100
AcDbPoint
 10
870.89760675492607
 20
-633.11205906917144
 30
0.0
  0
ENDBLK
  5
FA
100
AcDbEntity
  8
notes
390
0
100
AcDbBlockEnd
  0
BLOCK
  5
FB
100
AcDbEntity
  8
notes
390
0
100
AcDbBlockBegin
  2
*D15
 70
               1
 10
0.0
 20
0.0
 30
0.0
  3
*D15
  1

  0
LINE
  5
FC
100
AcDbEntity
  8
0
370
              -2
390
0
  6
Continuous
 62
               0
100
AcDbLine
 10
86.469431177753734
 20
830.0
 30
0.0
 11
166.46943117775362
 21
830.0
 31
0.0
  0
LINE
  5
FD
100
AcDbEntity
  8
0
370
              -2
390
0
  6
Continuous
 62
               0
100
AcDbLine
 10
91.46943117775362
 20
730.0
 30
0.0
 11
166.46943117775362
 21
730.0
 31
0.0
  0
LINE
  5
FE
100
AcDbEntity
  8
0
370
              -2
390
0
  6
Continuous
 62
               0
100
AcDbLine
 10
166.46943117775362
 20
830.0
 30
0.0
 11
166.46943117775362
 21
730.0
 31
0.0
  0
CIRCLE
  5
FF
102
{ACAD_REACTORS
330
100
102
}
100
AcDbEntity
  8
0
370
              -2
390
0
  6
Continuous
 62
               0
100
AcDbCircle
 10
166.46943117775362
 20
830.0
 30
0.0
 40
4.99969482421875
  0
HATCH
  5
100
100
AcDbEntity
  8
0
370
              -2
390
0
  6
Continuous
 62
               0
100
AcDbHatch
 10
0.0
 20
0.0
 30
0.0
210
0.0
220
0.0
230
1.0
  2
SOLID
 70
               1
 71
               1
 91
        1
 92
        1
 93
        1
 72
               2
 10
166.46943117775362
 20
830.0
 40
4.99969482421875
 50
0.0
 51
360.0
 73
               0
 97
        1
330
FF
 75
               0
 76
               1
 98
        1
 10
0.0
 20
0.0
  0
CIRCLE
  5
101
102
{ACAD_REACTORS
330
102
102
}
100
AcDbEntity
  8
0
370
              -2
390
0
  6
Continuous
 62
               0
100
AcDbCircle
 10
166.46943117775362
 20
730.0
 30
0.0
 40
4.99969482421875
  0
HATCH
  5
102
100
AcDbEntity
  8
0
370
              -2
390
0
  6
Continuous
 62
               0
100
AcDbHatch
 10
0.0
 20
0.0
 30
0.0
210
0.0
220
0.0
230
1.0
  2
SOLID
 70
               1
 71
               1
 91
        1
 92
        1
 93
        1
 72
               2
 10
166.46943117775362
 20
730.0
 40
4.99969482421875
 50
0.0
 51
360.0
 73
               0
 97
        1
330
101
 75
               0
 76
               1
 98
        1
 10
0.0
 20
0.0
  0
MTEXT
  5
103
100
AcDbEntity
  8
0
390
0
 62
               0
100
AcDbMText
 10
132.59181399025363
 20
756.18749831782452
 30
0.0
 40
24.432617187500004
 41
0.0
 71
               1
 72
               1
  1
100
  7
ＭＳ ゴシック
 11
0.0
 21
1.0
 31
0.0
 73
               1
 44
0.7828267384257843
  0
POINT
  5
104
100
AcDbEntity
  8
Defpoints
370
               0
390
0
 62
               0
100
AcDbPoint
 10
66.46943117775362
 20
730.0
 30
0.0
  0
POINT
  5
105
100
AcDbEntity
  8
Defpoints
370
               0
390
0
 62
               0
100
AcDbPoint
 10
61.469431177753734
 20
830.0
 30
0.0
  0
POINT
  5
106
100
AcDbEntity
  8
Defpoints
370
               0
390
0
 62
               0
100
AcDbPoint
 10
166.46943117775362
 20
830.0
 30
0.0
  0
ENDBLK
  5
107
100
AcDbEntity
  8
notes
390
0
100
AcDbBlockEnd
  0
BLOCK
  5
108
100
AcDbEntity
  8
notes
390
0
100
AcDbBlockBegin
  2
*D16
 70
               1
 10
0.0
 20
0.0
 30
0.0
  3
*D16
  1

  0
LINE
  5
109
100
AcDbEntity
  8
0
370
              -2
390
0
  6
Continuous
 62
               0
100
AcDbLine
 10
91.46943117775362
 20
730.0
 30
0.0
 11
166.46943117775362
 21
730.0
 31
0.0
  0
LINE
  5
10A
100
AcDbEntity
  8
0
370
              -2
390
0
  6
Continuous
 62
               0
100
AcDbLine
 10
91.46943117775362
 20
470.00000000000006
 30
0.0
 11
166.46943117775362
 21
470.00000000000006
 31
0.0
  0
LINE
  5
10B
100
AcDbEntity
  8
0
370
              -2
390
0
  6
Continuous
 62
               0
100
AcDbLine
 10
166.46943117775362
 20
730.0
 30
0.0
 11
166.46943117775362
 21
470.00000000000006
 31
0.0
  0
CIRCLE
  5
10C
102
{ACAD_REACTORS
330
10D
102
}
100
AcDbEntity
  8
0
370
              -2
390
0
  6
Continuous
 62
               0
100
AcDbCircle
 10
166.46943117775362
 20
730.0
 30
0.0
 40
4.99969482421875
  0
HATCH
  5
10D
100
AcDbEntity
  8
0
370
              -2
390
0
  6
Continuous
 62
               0
100
AcDbHatch
 10
0.0
 20
0.0
 30
0.0
210
0.0
220
0.0
230
1.0
  2
SOLID
 70
               1
 71
               1
 91
        1
 92
        1
 93
        1
 72
               2
 10
166.46943117775362
 20
730.0
 40
4.99969482421875
 50
0.0
 51
360.0
 73
               0
 97
        1
330
10C
 75
               0
 76
               1
 98
        1
 10
0.0
 20
0.0
  0
CIRCLE
  5
10E
102
{ACAD_REACTORS
330
10F
102
}
100
AcDbEntity
  8
0
370
              -2
390
0
  6
Continuous
 62
               0
100
AcDbCircle
 10
166.46943117775362
 20
470.00000000000006
 30
0.0
 40
4.99969482421875
  0
HATCH
  5
10F
100
AcDbEntity
  8
0
370
              -2
390
0
  6
Continuous
 62
               0
100
AcDbHatch
 10
0.0
 20
0.0
 30
0.0
210
0.0
220
0.0
230
1.0
  2
SOLID
 70
               1
 71
               1
 91
        1
 92
        1
 93
        1
 72
               2
 10
166.46943117775362
 20
470.00000000000006
 40
4.99969482421875
 50
0.0
 51
360.0
 73
               0
 97
        1
330
10E
 75
               0
 76
               1
 98
        1
 10
0.0
 20
0.0
  0
MTEXT
  5
110
100
AcDbEntity
  8
0
390
0
 62
               0
100
AcDbMText
 10
132.59181399025363
 20
576.18749831782452
 30
0.0
 40
24.432617187500004
 41
0.0
 71
               1
 72
               1
  1
260
  7
ＭＳ ゴシック
 11
0.0
 21
1.0
 31
0.0
 73
               1
 44
0.7828267384257843
  0
POINT
  5
111
100
AcDbEntity
  8
Defpoints
370
               0
390
0
 62
               0
100
AcDbPoint
 10
66.46943117775362
 20
470.00000000000006
 30
0.0
  0
POINT
  5
112
100
AcDbEntity
  8
Defpoints
370
               0
390
0
 62
               0
100
AcDbPoint
 10
66.46943117775362
 20
730.0
 30
0.0
  0
POINT
  5
113
100
AcDbEntity
  8
Defpoints
370
               0
390
0
 62
               0
100
AcDbPoint
 10
166.46943117775362
 20
730.0
 30
0.0
  0
ENDBLK
  5
114
100
AcDbEntity
  8
notes
390
0
100
AcDbBlockEnd
  0
BLOCK
  5
115
100
AcDbEntity
  8
notes
390
0
100
AcDbBlockBegin
  2
*D17
 70
               1
 10
0.0
 20
0.0
 30
0.0
  3
*D17
  1

  0
LINE
  5
116
100
AcDbEntity
  8
0
370
              -2
390
0
  6
Continuous
 62
               0
100
AcDbLine
 10
-753.53056882224632
 20
830.0
 30
0.0
 11
-833.53056882224632
 21
830.0
 31
0.0
  0
LINE
  5
117
100
AcDbEntity
  8
0
370
              -2
390
0
  6
Continuous
 62
               0
100
AcDbLine
 10
-753.53056882224632
 20
425.0
 30
0.0
 11
-833.53056882224632
 21
425.0
 31
0.0
  0
LINE
  5
118
100
AcDbEntity
  8
0
370
              -2
390
0
  6
Continuous
 62
               0
100
AcDbLine
 10
-833.53056882224632
 20
830.0
 30
0.0
 11
-833.53056882224632
 21
425.0
 31
0.0
  0
CIRCLE
  5
119
102
{ACAD_REACTORS
330
11A
102
}
100
AcDbEntity
  8
0
370
              -2
390
0
  6
Continuous
 62
               0
100
AcDbCircle
 10
-833.53056882224632
 20
830.0
 30
0.0
 40
4.99969482421875
  0
HATCH
  5
11A
100
AcDbEntity
  8
0
370
              -2
390
0
  6
Continuous
 62
               0
100
AcDbHatch
 10
0.0
 20
0.0
 30
0.0
210
0.0
220
0.0
230
1.0
  2
SOLID
 70
               1
 71
               1
 91
        1
 92
        1
 93
        1
 72
               2
 10
-833.53056882224632
 20
830.0
 40
4.99969482421875
 50
0.0
 51
360.0
 73
               0
 97
        1
330
119
 75
               0
 76
               1
 98
        1
 10
0.0
 20
0.0
  0
CIRCLE
  5
11B
102
{ACAD_REACTORS
330
11C
102
}
100
AcDbEntity
  8
0
370
              -2
390
0
  6
Continuous
 62
               0
100
AcDbCircle
 10
-833.53056882224632
 20
425.0
 30
0.0
 40
4.99969482421875
  0
HATCH
  5
11C
100
AcDbEntity
  8
0
370
              -2
390
0
  6
Continuous
 62
               0
100
AcDbHatch
 10
0.0
 20
0.0
 30
0.0
210
0.0
220
0.0
230
1.0
  2
SOLID
 70
               1
 71
               1
 91
        1
 92
        1
 93
        1
 72
               2
 10
-833.53056882224632
 20
425.0
 40
4.99969482421875
 50
0.0
 51
360.0
 73
               0
 97
        1
330
11B
 75
               0
 76
               1
 98
        1
 10
0.0
 20
0.0
  0
MTEXT
  5
11D
100
AcDbEntity
  8
0
390
0
 62
               0
100
AcDbMText
 10
-867.40818600974626
 20
603.68749831782452
 30
0.0
 40
24.432617187500004
 41
0.0
 71
               1
 72
               1
  1
405
  7
ＭＳ ゴシック
 11
0.0
 21
1.0
 31
0.0
 73
               1
 44
0.7828267384257843
  0
POINT
  5
11E
100
AcDbEntity
  8
Defpoints
370
               0
390
0
 62
               0
100
AcDbPoint
 10
-728.53056882224632
 20
425.0
 30
0.0
  0
POINT
  5
11F
100
AcDbEntity
  8
Defpoints
370
               0
390
0
 62
               0
100
AcDbPoint
 10
-728.53056882224632
 20
830.0
 30
0.0
  0
POINT
  5
120
100
AcDbEntity
  8
Defpoints
370
               0
390
0
 62
               0
100
AcDbPoint
 10
-833.53056882224632
 20
830.0
 30
0.0
  0
ENDBLK
  5
121
100
AcDbEntity
  8
notes
390
0
100
AcDbBlockEnd
  0
BLOCK
  5
122
100
AcDbEntity
  8
notes
390
0
100
AcDbBlockBegin
  2
*D18
 70
               1
 10
0.0
 20
0.0
 30
0.0
  3
*D18
  1

  0
LINE
  5
123
100
AcDbEntity
  8
0
370
              -2
390
0
  6
Continuous
 62
               0
100
AcDbLine
 10
445.89760675492613
 20
-389.84354836997153
 30
0.0
 11
365.89760675492613
 21
-389.84354836997153
 31
0.0
  0
LINE
  5
124
100
AcDbEntity
  8
0
370
              -2
390
0
  6
Continuous
 62
               0
100
AcDbLine
 10
445.89760675492613
 20
-514.84354836997159
 30
0.0
 11
365.89760675492613
 21
-514.84354836997159
 31
0.0
  0
LINE
  5
125
100
AcDbEntity
  8
0
370
              -2
390
0
  6
Continuous
 62
               0
100
AcDbLine
 10
365.89760675492613
 20
-389.84354836997153
 30
0.0
 11
365.89760675492613
 21
-514.84354836997159
 31
0.0
  0
CIRCLE
  5
126
102
{ACAD_REACTORS
330
127
102
}
100
AcDbEntity
  8
0
370
              -2
390
0
  6
Continuous
 62
               0
100
AcDbCircle
 10
365.89760675492613
 20
-389.84354836997153
 30
0.0
 40
4.99969482421875
  0
HATCH
  5
127
100
AcDbEntity
  8
0
370
              -2
390
0
  6
Continuous
 62
               0
100
AcDbHatch
 10
0.0
 20
0.0
 30
0.0
210
0.0
220
0.0
230
1.0
  2
SOLID
 70
               1
 71
               1
 91
        1
 92
        1
 93
        1
 72
               2
 10
365.89760675492613
 20
-389.84354836997153
 40
4.99969482421875
 50
0.0
 51
360.0
 73
               0
 97
        1
330
126
 75
               0
 76
               1
 98
        1
 10
0.0
 20
0.0
  0
CIRCLE
  5
128
102
{ACAD_REACTORS
330
129
102
}
100
AcDbEntity
  8
0
370
              -2
390
0
  6
Continuous
 62
               0
100
AcDbCircle
 10
365.89760675492613
 20
-514.84354836997159
 30
0.0
 40
4.99969482421875
  0
HATCH
  5
129
100
AcDbEntity
  8
0
370
              -2
390
0
  6
Continuous
 62
               0
100
AcDbHatch
 10
0.0
 20
0.0
 30
0.0
210
0.0
220
0.0
230
1.0
  2
SOLID
 70
               1
 71
               1
 91
        1
 92
        1
 93
        1
 72
               2
 10
365.89760675492613
 20
-514.84354836997159
 40
4.99969482421875
 50
0.0
 51
360.0
 73
               0
 97
        1
330
128
 75
               0
 76
               1
 98
        1
 10
0.0
 20
0.0
  0
MTEXT
  5
12A
100
AcDbEntity
  8
0
390
0
 62
               0
100
AcDbMText
 10
332.01998956742614
 20
-476.15605005214701
 30
0.0
 40
24.432617187500004
 41
0.0
 71
               1
 72
               1
  1
125
  7
ＭＳ ゴシック
 11
0.0
 21
1.0
 31
0.0
 73
               1
 44
0.7828267384257843
  0
POINT
  5
12B
100
AcDbEntity
  8
Defpoints
370
               0
390
0
 62
               0
100
AcDbPoint
 10
470.89760675492613
 20
-514.84354836997159
 30
0.0
  0
POINT
  5
12C
100
AcDbEntity
  8
Defpoints
370
               0
390
0
 62
               0
100
AcDbPoint
 10
470.89760675492613
 20
-389.84354836997153
 30
0.0
  0
POINT
  5
12D
100
AcDbEntity
  8
Defpoints
370
               0
390
0
 62
               0
100
AcDbPoint
 10
365.89760675492613
 20
-389.84354836997153
 30
0.0
  0
ENDBLK
  5
12E
100
AcDbEntity
  8
notes
390
0
100
AcDbBlockEnd
  0
BLOCK
  5
12F
100
AcDbEntity
  8
notes
390
0
100
AcDbBlockBegin
  2
*D19
 70
               1
 10
0.0
 20
0.0
 30
0.0
  3
*D19
  1

  0
LINE
  5
130
100
AcDbEntity
  8
0
370
              -2
390
0
  6
Continuous
 62
               0
100
AcDbLine
 10
75.96943117775362
 20
-389.84354836997153
 30
0.0
 11
205.96943117775362
 21
-389.84354836997153
 31
0.0
  0
LINE
  5
131
100
AcDbEntity
  8
0
370
              -2
390
0
  6
Continuous
 62
               0
100
AcDbLine
 10
-176.0658513551893
 20
-572.84354836997159
 30
0.0
 11
205.96943117775362
 21
-572.84354836997159
 31
0.0
  0
LINE
  5
132
100
AcDbEntity
  8
0
370
              -2
390
0
  6
Continuous
 62
               0
100
AcDbLine
 10
205.96943117775362
 20
-389.84354836997153
 30
0.0
 11
205.96943117775362
 21
-572.84354836997159
 31
0.0
  0
CIRCLE
  5
133
102
{ACAD_REACTORS
330
134
102
}
100
AcDbEntity
  8
0
370
              -2
390
0
  6
Continuous
 62
               0
100
AcDbCircle
 10
205.96943117775362
 20
-389.84354836997153
 30
0.0
 40
4.99969482421875
  0
HATCH
  5
134
100
AcDbEntity
  8
0
370
              -2
390
0
  6
Continuous
 62
               0
100
AcDbHatch
 10
0.0
 20
0.0
 30
0.0
210
0.0
220
0.0
230
1.0
  2
SOLID
 70
               1
 71
               1
 91
        1
 92
        1
 93
        1
 72
               2
 10
205.96943117775362
 20
-389.84354836997153
 40
4.99969482421875
 50
0.0
 51
360.0
 73
               0
 97
        1
330
133
 75
               0
 76
               1
 98
        1
 10
0.0
 20
0.0
  0
CIRCLE
  5
135
102
{ACAD_REACTORS
330
136
102
}
100
AcDbEntity
  8
0
370
              -2
390
0
  6
Continuous
 62
               0
100
AcDbCircle
 10
205.96943117775362
 20
-572.84354836997159
 30
0.0
 40
4.99969482421875
  0
HATCH
  5
136
100
AcDbEntity
  8
0
370
              -2
390
0
  6
Continuous
 62
               0
100
AcDbHatch
 10
0.0
 20
0.0
 30
0.0
210
0.0
220
0.0
230
1.0
  2
SOLID
 70
               1
 71
               1
 91
        1
 92
        1
 93
        1
 72
               2
 10
205.96943117775362
 20
-572.84354836997159
 40
4.99969482421875
 50
0.0
 51
360.0
 73
               0
 97
        1
330
135
 75
               0
 76
               1
 98
        1
 10
0.0
 20
0.0
  0
MTEXT
  5
137
100
AcDbEntity
  8
0
390
0
 62
               0
100
AcDbMText
 10
172.09181399025363
 20
-505.15605005214701
 30
0.0
 40
24.432617187500004
 41
0.0
 71
               1
 72
               1
  1
183
  7
ＭＳ ゴシック
 11
0.0
 21
1.0
 31
0.0
 73
               1
 44
0.7828267384257843
  0
POINT
  5
138
100
AcDbEntity
  8
Defpoints
370
               0
390
0
 62
               0
100
AcDbPoint
 10
-201.0658513551893
 20
-572.84354836997159
 30
0.0
  0
POINT
  5
139
100
AcDbEntity
  8
Defpoints
370
               0
390
0
 62
               0
100
AcDbPoint
 10
50.96943117775362
 20
-389.84354836997153
 30
0.0
  0
POINT
  5
13A
100
AcDbEntity
  8
Defpoints
370
               0
390
0
 62
               0
100
AcDbPoint
 10
205.96943117775362
 20
-389.84354836997153
 30
0.0
  0
ENDBLK
  5
13B
100
AcDbEntity
  8
notes
390
0
100
AcDbBlockEnd
  0
BLOCK
  5
13C
100
AcDbEntity
  8
notes
390
0
100
AcDbBlockBegin
  2
*D20
 70
               1
 10
0.0
 20
0.0
 30
0.0
  3
*D20
  1

  0
LINE
  5
13D
100
AcDbEntity
  8
0
370
              -2
390
0
  6
Continuous
 62
               0
100
AcDbLine
 10
66.46943117775362
 20
-536.34354836997136
 30
0.0
 11
66.46943117775362
 21
-633.11356806557183
 31
0.0
  0
LINE
  5
13E
100
AcDbEntity
  8
0
370
              -2
390
0
  6
Continuous
 62
               0
100
AcDbLine
 10
-226.04906929493939
 20
-558.11356806557183
 30
0.0
 11
-226.04906929493939
 21
-633.11356806557183
 31
0.0
  0
LINE
  5
13F
100
AcDbEntity
  8
0
370
              -2
390
0
  6
Continuous
 62
               0
100
AcDbLine
 10
66.46943117775362
 20
-633.11356806557183
 30
0.0
 11
-226.04906929493939
 21
-633.11356806557183
 31
0.0
  0
CIRCLE
  5
140
102
{ACAD_REACTORS
330
141
102
}
100
AcDbEntity
  8
0
370
              -2
390
0
  6
Continuous
 62
               0
100
AcDbCircle
 10
66.46943117775362
 20
-633.11356806557183
 30
0.0
 40
4.99969482421875
  0
HATCH
  5
141
100
AcDbEntity
  8
0
370
              -2
390
0
  6
Continuous
 62
               0
100
AcDbHatch
 10
0.0
 20
0.0
 30
0.0
210
0.0
220
0.0
230
1.0
  2
SOLID
 70
               1
 71
               1
 91
        1
 92
        1
 93
        1
 72
               2
 10
66.46943117775362
 20
-633.11356806557183
 40
4.99969482421875
 50
0.0
 51
360.0
 73
               0
 97
        1
330
140
 75
               0
 76
               1
 98
        1
 10
0.0
 20
0.0
  0
CIRCLE
  5
142
102
{ACAD_REACTORS
330
143
102
}
100
AcDbEntity
  8
0
370
              -2
390
0
  6
Continuous
 62
               0
100
AcDbCircle
 10
-226.04906929493939
 20
-633.11356806557183
 30
0.0
 40
4.99969482421875
  0
HATCH
  5
143
100
AcDbEntity
  8
0
370
              -2
390
0
  6
Continuous
 62
               0
100
AcDbHatch
 10
0.0
 20
0.0
 30
0.0
210
0.0
220
0.0
230
1.0
  2
SOLID
 70
               1
 71
               1
 91
        1
 92
        1
 93
        1
 72
               2
 10
-226.04906929493939
 20
-633.11356806557183
 40
4.99969482421875
 50
0.0
 51
360.0
 73
               0
 97
        1
330
142
 75
               0
 76
               1
 98
        1
 10
0.0
 20
0.0
  0
MTEXT
  5
144
100
AcDbEntity
  8
0
390
0
 62
               0
100
AcDbMText
 10
-119.47731905859291
 20
-599.23595087807189
 30
0.0
 40
24.432617187500004
 41
0.0
 71
               1
 72
               1
  1
292.5
  7
ＭＳ ゴシック
 73
               1
 44
0.7828267384257843
  0
POINT
  5
145
100
AcDbEntity
  8
Defpoints
370
               0
390
0
 62
               0
100
AcDbPoint
 10
-226.04906929493939
 20
-533.11356806557183
 30
0.0
  0
POINT
  5
146
100
AcDbEntity
  8
Defpoints
370
               0
390
0
 62
               0
100
AcDbPoint
 10
66.46943117775362
 20
-511.34354836997142
 30
0.0
  0
POINT
  5
147
100
AcDbEntity
  8
Defpoints
370
               0
390
0
 62
               0
100
AcDbPoint
 10
66.46943117775362
 20
-633.11356806557183
 30
0.0
  0
ENDBLK
  5
148
100
AcDbEntity
  8
notes
390
0
100
AcDbBlockEnd
  0
BLOCK
  5
149
100
AcDbEntity
  8
notes
390
0
100
AcDbBlockBegin
  2
グループ-1
 70
               0
 10
0.0
 20
0.0
 30
0.0
  3
グループ-1
  1

  0
POLYLINE
  5
14A
100
AcDbEntity
  8
0
370
              15
390
0
  6
Continuous
 62
               7
100
AcDb2dPolyline
 66
               1
 10
0.0
 20
0.0
 30
0.0
 70
               1
 75
               5
  0
VERTEX
  5
14B
100
AcDbEntity
  8
0
370
              15
390
0
  6
Continuous
 62
               7
100
AcDbVertex
100
AcDb2dVertex
 10
-569.97705122034813
 20
-857.73360042260151
 30
0.0
  0
VERTEX
  5
14C
100
AcDbEntity
  8
0
370
              15
390
0
  6
Continuous
 62
               7
100
AcDbVertex
100
AcDb2dVertex
 10
-494.97705122034813
 20
-857.73360042260151
 30
0.0
  0
VERTEX
  5
14D
100
AcDbEntity
  8
0
370
              15
390
0
  6
Continuous
 62
               7
100
AcDbVertex
100
AcDb2dVertex
 10
-494.97705122034813
 20
-907.62281603276654
 30
0.0
  0
VERTEX
  5
14E
100
AcDbEntity
  8
0
370
              15
390
0
  6
Continuous
 62
               7
100
AcDbVertex
100
AcDb2dVertex
 10
-569.97705122034813
 20
-907.62281603276654
 30
0.0
  0
SEQEND
  5
14F
100
AcDbEntity
  8
0
370
              15
390
0
  6
Continuous
 62
               7
  0
LINE
  5
150
100
AcDbEntity
  8
0
370
              15
390
0
  6
Continuous
 62
               7
100
AcDbLine
 10
-569.97705122034813
 20
-870.41841027722523
 30
0.0
 11
-494.97705122034813
 21
-870.41841027722523
 31
0.0
  0
ENDBLK
  5
151
100
AcDbEntity
  8
notes
390
0
100
AcDbBlockEnd
  0
BLOCK
  5
152
100
AcDbEntity
  8
notes
390
0
100
AcDbBlockBegin
  2
グループ-2
 70
               0
 10
0.0
 20
0.0
 30
0.0
  3
グループ-2
  1

  0
POLYLINE
  5
153
100
AcDbEntity
  8
0
370
              15
390
0
  6
Continuous
 62
               7
100
AcDb2dPolyline
 66
               1
 10
0.0
 20
0.0
 30
0.0
 70
               1
 75
               5
  0
VERTEX
  5
154
100
AcDbEntity
  8
0
370
              15
390
0
  6
Continuous
 62
               7
100
AcDbVertex
100
AcDb2dVertex
 10
353.89527679215803
 20
-856.27677005459918
 30
0.0
  0
VERTEX
  5
155
100
AcDbEntity
  8
0
370
              15
390
0
  6
Continuous
 62
               7
100
AcDbVertex
100
AcDb2dVertex
 10
428.89527679215803
 20
-856.27677005459918
 30
0.0
  0
VERTEX
  5
156
100
AcDbEntity
  8
0
370
              15
390
0
  6
Continuous
 62
               7
100
AcDbVertex
100
AcDb2dVertex
 10
428.89527679215803
 20
-907.62281603276654
 30
0.0
  0
VERTEX
  5
157
100
AcDbEntity
  8
0
370
              15
390
0
  6
Continuous
 62
               7
100
AcDbVertex
100
AcDb2dVertex
 10
353.89527679215803
 20
-907.62281603276654
 30
0.0
  0
SEQEND
  5
158
100
AcDbEntity
  8
0
370
              15
390
0
  6
Continuous
 62
               7
  0
LINE
  5
159
100
AcDbEntity
  8
0
370
              15
390
0
  6
Continuous
 62
               7
100
AcDbLine
 10
353.89527679215803
 20
-869.33199295305485
 30
0.0
 11
428.89527679215803
 21
-869.33199295305485
 31
0.0
  0
ENDBLK
  5
15A
100
AcDbEntity
  8
notes
390
0
100
AcDbBlockEnd
  0
BLOCK
  5
15B
100
AcDbEntity
  8
notes
390
0
100
AcDbBlockBegin
  2
*D23
 70
               1
 10
0.0
 20
0.0
 30
0.0
  3
*D23
  1

  0
LINE
  5
15C
100
AcDbEntity
  8
0
370
              -2
390
0
  6
Continuous
 62
               0
100
AcDbLine
 10
694.04589176791524
 20
-519.53428490217152
 30
0.0
 11
695.0
 21
-519.53428490217152
 31
0.0
  0
LINE
  5
15D
100
AcDbEntity
  8
0
370
              -2
390
0
  6
Continuous
 62
               0
100
AcDbLine
 10
694.04589176791524
 20
-386.53428490217158
 30
0.0
 11
695.0
 21
-386.53428490217158
 31
0.0
  0
LINE
  5
15E
100
AcDbEntity
  8
0
370
              -2
390
0
  6
Continuous
 62
               0
100
AcDbLine
 10
695.0
 20
-386.53428490217158
 30
0.0
 11
695.0
 21
-235.12500000000006
 31
0.0
  0
LINE
  5
15F
100
AcDbEntity
  8
0
370
              -2
390
0
  6
Continuous
 62
               0
100
AcDbLine
 10
695.0
 20
-519.53428490217152
 30
0.0
 11
695.0
 21
-386.53428490217158
 31
0.0
  0
CIRCLE
  5
160
102
{ACAD_REACTORS
330
161
102
}
100
AcDbEntity
  8
0
370
              -2
390
0
  6
Continuous
 62
               0
100
AcDbCircle
 10
695.0
 20
-519.53428490217152
 30
0.0
 40
4.99969482421875
  0
HATCH
  5
161
100
AcDbEntity
  8
0
370
              -2
390
0
  6
Continuous
 62
               0
100
AcDbHatch
 10
0.0
 20
0.0
 30
0.0
210
0.0
220
0.0
230
1.0
  2
SOLID
 70
               1
 71
               1
 91
        1
 92
        1
 93
        1
 72
               2
 10
695.0
 20
-519.53428490217152
 40
4.99969482421875
 50
0.0
 51
360.0
 73
               0
 97
        1
330
160
 75
               0
 76
               1
 98
        1
 10
0.0
 20
0.0
  0
CIRCLE
  5
162
102
{ACAD_REACTORS
330
163
102
}
100
AcDbEntity
  8
0
370
              -2
390
0
  6
Continuous
 62
               0
100
AcDbCircle
 10
695.0
 20
-386.53428490217158
 30
0.0
 40
4.99969482421875
  0
HATCH
  5
163
100
AcDbEntity
  8
0
370
              -2
390
0
  6
Continuous
 62
               0
100
AcDbHatch
 10
0.0
 20
0.0
 30
0.0
210
0.0
220
0.0
230
1.0
  2
SOLID
 70
               1
 71
               1
 91
        1
 92
        1
 93
        1
 72
               2
 10
695.0
 20
-386.53428490217158
 40
4.99969482421875
 50
0.0
 51
360.0
 73
               0
 97
        1
330
162
 75
               0
 76
               1
 98
        1
 10
0.0
 20
0.0
  0
MTEXT
  5
164
100
AcDbEntity
  8
0
390
0
 62
               0
100
AcDbMText
 10
661.12238281250006
 20
-378.00000000000006
 30
0.0
 40
24.432617187500004
 41
0.0
 71
               1
 72
               1
  1
133(深さ)
  7
ＭＳ ゴシック
 11
0.0
 21
1.0
 31
0.0
 73
               1
 44
0.7828267384257843
  0
POINT
  5
165
100
AcDbEntity
  8
Defpoints
370
               0
390
0
 62
               0
100
AcDbPoint
 10
669.04589176791524
 20
-386.53428490217158
 30
0.0
  0
POINT
  5
166
100
AcDbEntity
  8
Defpoints
370
               0
390
0
 62
               0
100
AcDbPoint
 10
669.04589176791524
 20
-519.53428490217152
 30
0.0
  0
POINT
  5
167
100
AcDbEntity
  8
Defpoints
370
               0
390
0
 62
               0
100
AcDbPoint
 10
695.0
 20
-519.53428490217152
 30
0.0
  0
ENDBLK
  5
168
100
AcDbEntity
  8
notes
390
0
100
AcDbBlockEnd
  0
ENDSEC
  0
SECTION
  2
ENTITIES
  0
MTEXT
  5
169
100
AcDbEntity
  8
template
390
0
 62
               7
100
AcDbMText
 10
-967.99999999975921
 20
-1147.4176292337004
 30
0.0
 40
16.288411458333332
 41
0.0
 71
               1
 72
               1
  1
品名
  7
ＭＳ ゴシック
 73
               1
 44
0.7828267384257843
  0
MTEXT
  5
16A
100
AcDbEntity
  8
template
390
0
 62
               7
100
AcDbMText
 10
-967.99999999975921
 20
-1232.4176292337002
 30
0.0
 40
16.288411458333332
 41
0.0
 71
               1
 72
               1
  1
仕様
  7
ＭＳ ゴシック
 73
               1
 44
0.7828267384257843
  0
MTEXT
  5
16B
100
AcDbEntity
  8
template
390
0
 62
               7
100
AcDbMText
 10
-914.99999999975921
 20
-1176.0000901712003
 30
0.0
 40
24.432617187500004
 41
0.0
 71
               1
 72
               1
  1
洗面器 -ALAPE-
  7
ＭＳ ゴシック
 73
               1
 44
0.7828267384257843
  0
LINE
  5
16C
100
AcDbEntity
  8
template
370
               5
390
0
  6
Continuous
 62
               7
100
AcDbLine
 10
974.99999999975876
 20
-1224.0027073587003
 30
0.0
 11
-975.00000000024124
 21
-1224.0027073587003
 31
0.0
  0
LWPOLYLINE
  5
16D
100
AcDbEntity
  8
template
370
               5
390
0
  6
Continuous
 62
               7
100
AcDbPolyline
 90
        5
 70
             128
 10
975.00000000024124
 20
1405.9972926412997
 10
-974.99999999975921
 20
1405.9972926412997
 10
-974.99999999975921
 20
-1394.0027073587003
 10
975.00000000024124
 20
-1394.0027073587003
 10
975.00000000024124
 20
1405.9972926412997
  0
LINE
  5
16E
100
AcDbEntity
  8
template
370
               5
390
0
  6
Continuous
 62
               7
100
AcDbLine
 10
974.99999999975876
 20
-1139.0027073587005
 30
0.0
 11
-975.00000000024124
 21
-1139.0027073587005
 31
0.0
  0
LINE
  5
16F
100
AcDbEntity
  8
template
370
               5
390
0
  6
Continuous
 62
               7
100
AcDbLine
 10
975.00000000024124
 20
-1309.0027073587003
 30
0.0
 11
222.00000000024124
 21
-1309.0027073587003
 31
0.0
  0
MTEXT
  5
170
100
AcDbEntity
  8
template
390
0
 62
               7
100
AcDbMText
 10
-974.99999999955594
 20
-1405.8565294155571
 30
0.0
 40
21.717881944444446
 41
0.0
 71
               1
 72
               1
  1
120516SH
  7
ＭＳ ゴシック
 73
               1
 44
0.7828267384257843
  0
MTEXT
  5
171
100
AcDbEntity
  8
template
390
0
 62
               7
100
AcDbMText
 10
251.87140625250089
 20
-1338.9131018320079
 30
0.0
 40
24.432617187500004
 41
0.0
 71
               1
 72
               1
  1
大洋金物株式会社 ティーフォルム事業部
  7
ＭＳ ゴシック
 73
               1
 44
0.7828267384257843
  0
INSERT
  5
172
100
AcDbEntity
  8
template
390
0
 62
               7
100
AcDbBlockReference
  2
グループ
 10
305.97705122034813
 20
334.77926766279501
 30
0.0
  0
MTEXT
  5
173
100
AcDbEntity
  8
template
390
0
 62
               7
100
AcDbMText
 10
784.00000000049999
 20
-1261.0000901712003
 30
0.0
 40
24.432617187500004
 41
0.0
 71
               1
 72
               1
  1
1:10
  7
ＭＳ ゴシック
 73
               1
 44
0.7828267384257843
  0
MTEXT
  5
174
100
AcDbEntity
  8
template
390
0
 62
               7
100
AcDbMText
 10
731.00000000049999
 20
-1232.4176292337002
 30
0.0
 40
16.288411458333332
 41
0.0
 71
               1
 72
               1
  1
縮尺
  7
ＭＳ ゴシック
 73
               1
 44
0.7828267384257843
  0
LINE
  5
175
100
AcDbEntity
  8
template
370
               5
390
0
  6
Continuous
 62
               7
100
AcDbLine
 10
724.00000000049999
 20
-1309.0027073587003
 30
0.0
 11
724.00000000049999
 21
-1224.0027073587003
 31
0.0
  0
MTEXT
  5
176
100
AcDbEntity
  8
template
390
0
 62
               7
100
AcDbMText
 10
480.00000000049999
 20
-1232.4176292337002
 30
0.0
 40
16.288411458333332
 41
0.0
 71
               1
 72
               1
  1
容量
  7
ＭＳ ゴシック
 73
               1
 44
0.7828267384257843
  0
LINE
  5
177
100
AcDbEntity
  8
template
370
               5
390
0
  6
Continuous
 62
               7
100
AcDbLine
 10
473.00000000049999
 20
-1309.0027073587003
 30
0.0
 11
473.00000000049999
 21
-1224.0027073587003
 31
0.0
  0
MTEXT
  5
178
100
AcDbEntity
  8
template
390
0
 62
               7
100
AcDbMText
 10
229.00000000049999
 20
-1147.4176292337004
 30
0.0
 40
16.288411458333332
 41
0.0
 71
               1
 72
               1
  1
品番
  7
ＭＳ ゴシック
 73
               1
 44
0.7828267384257843
  0
MTEXT
  5
179
100
AcDbEntity
  8
template
390
0
 62
               7
100
AcDbMText
 10
229.00000000049999
 20
-1232.4176292337002
 30
0.0
 40
16.288411458333332
 41
0.0
 71
               1
 72
               1
  1
重量
  7
ＭＳ ゴシック
 73
               1
 44
0.7828267384257843
  0
MTEXT
  5
17A
100
AcDbEntity
  8
template
390
0
 62
               7
100
AcDbMText
 10
282.00000000049999
 20
-1176.0000901712003
 30
0.0
 40
24.432617187500004
 41
0.0
 71
               1
 72
               1
  1
FAN70-1305
  7
ＭＳ ゴシック
 73
               1
 44
0.7828267384257843
  0
MTEXT
  5
17B
100
AcDbEntity
  8
template
390
0
 62
               7
100
AcDbMText
 10
282.00000000049999
 20
-1261.0000901712003
 30
0.0
 40
24.432617187500004
 41
0.0
 71
               1
 72
               1
  1
9.2kg
  7
ＭＳ ゴシック
 73
               1
 44
0.7828267384257843
  0
LINE
  5
17C
100
AcDbEntity
  8
template
370
               5
390
0
  6
Continuous
 62
               7
100
AcDbLine
 10
222.00000000049999
 20
-1394.0027073587003
 30
0.0
 11
222.00000000049999
 21
-1139.0027073587005
 31
0.0
  0
MTEXT
  5
17D
100
AcDbEntity
  8
template
390
0
 62
               7
100
AcDbMText
 10
-914.99999999975921
 20
-1261.0000901712003
 30
0.0
 40
24.432617187500004
 41
0.0
 71
               1
 72
               1
  1
壁掛け/オーバーフロー付き/壁取付ボルト付属/\P鋼板ホーロー/ホワイト
  7
ＭＳ ゴシック
 73
               1
 44
1.1307497332816883
  0
MTEXT
  5
17E
100
AcDbEntity
  8
template
390
0
 62
               7
100
AcDbMText
 10
538.78972465950983
 20
-1261.0000901712003
 30
0.0
 40
24.432617187500004
 41
0.0
 71
               1
 72
               1
  1
6.2L
  7
ＭＳ ゴシック
 73
               1
 44
0.7828267384257843
  0
DIMENSION
  5
17F
100
AcDbEntity
  8
notes
370
               5
390
0
  6
Continuous
 62
               7
100
AcDbDimension
  2
*D3
 10
-236.53596881045667
 20
765.37652920252367
 30
0.0
 11
-80.034105443703652
 21
900.0
 31
0.0
 70
               3
 71
               5
 72
               1
 41
1.0
 42
0.0
  3
tfrom線あり
100
AcDbDiametricDimension
 15
-215.56216977952249
 25
794.63571159387493
 35
0.0
 40
129.63842707177795
1001
ACAD
1000
DSTYLE
1002
{
1070
             289
1070
               0
1070
             342
1005
4C
1070
             340
1005
39
1070
              73
1070
               1
1070
              74
1070
               1
1070
              75
1070
               1
1070
              76
1070
               1
1070
               3
1000

1070
             174
1070
               0
1070
             147
1040
5.0
1002
}
  0
DIMENSION
  5
180
100
AcDbEntity
  8
notes
370
               5
390
0
  6
Continuous
 62
               7
100
AcDbDimension
  2
*D4
 10
-833.53056882224632
 20
-414.81693176078142
 30
0.0
 11
-833.53056882224632
 21
-452.31693176078142
 31
0.0
 71
               5
 72
               1
 41
1.0
 42
0.0
  3
tfrom線あり
100
AcDbAlignedDimension
 13
-701.03056882224632
 23
-489.81693176078142
 33
0.0
 14
-701.03056882224632
 24
-414.81693176078142
 34
0.0
 50
90.0
100
AcDbRotatedDimension
1001
ACAD
1000
DSTYLE
1002
{
1070
             279
1070
               2
1070
             340
1005
39
1070
             147
1040
5.0
1002
}
  0
DIMENSION
  5
181
100
AcDbEntity
  8
notes
370
               5
390
0
  6
Continuous
 62
               7
100
AcDbDimension
  2
*D5
 10
-193.53056882224638
 20
-289.84354836997153
 30
0.0
 11
-63.53056882224638
 21
-289.84354836997153
 31
0.0
 71
               5
 72
               1
 41
1.0
 42
0.0
  3
tfrom線あり
100
AcDbAlignedDimension
 13
66.46943117775362
 23
-393.34354836997153
 33
0.0
 14
-193.53056882224638
 24
-442.34354836997153
 34
0.0
100
AcDbRotatedDimension
1001
ACAD
1000
DSTYLE
1002
{
1070
             279
1070
               2
1070
             340
1005
39
1070
             147
1040
5.0
1002
}
  0
DIMENSION
  5
182
100
AcDbEntity
  8
notes
370
               5
390
0
  6
Continuous
 62
               7
100
AcDbDimension
  2
*D6
 10
-733.53056882224632
 20
325.00000000000006
 30
0.0
 11
-604.77881341216414
 21
325.00000000000006
 31
0.0
 71
               5
 72
               1
 41
1.0
 42
0.0
  3
tfrom線あり
100
AcDbAlignedDimension
 13
-476.02705800208196
 23
400.00612039819953
 33
0.0
 14
-733.53056882224632
 24
430.0
 34
0.0
100
AcDbRotatedDimension
1001
ACAD
1000
DSTYLE
1002
{
1070
             279
1070
               2
1070
             340
1005
39
1070
             147
1040
5.0
1002
}
  0
DIMENSION
  5
183
100
AcDbEntity
  8
notes
370
               5
390
0
  6
Continuous
 62
               7
100
AcDbDimension
  2
*D7
 10
-476.02705800208196
 20
325.00612039819958
 30
0.0
 11
-226.02705800208196
 21
325.00612039819958
 31
0.0
 71
               5
 72
               1
 41
1.0
 42
0.0
  3
tfrom線あり
100
AcDbAlignedDimension
 13
23.972941997917985
 23
425.00612039819953
 33
0.0
 14
-476.02705800208196
 24
425.00612039819953
 34
0.0
100
AcDbRotatedDimension
1001
ACAD
1000
DSTYLE
1002
{
1070
             279
1070
               2
1070
             340
1005
39
1070
             147
1040
5.0
1002
}
  0
DIMENSION
  5
184
100
AcDbEntity
  8
notes
370
               5
390
0
  6
Continuous
 62
               7
100
AcDbDimension
  2
*D8
 10
870.89760675492607
 20
-289.84354836997153
 30
0.0
 11
845.89760675492607
 21
-289.84354836997153
 31
0.0
 71
               5
 72
               1
 41
1.0
 42
0.0
  3
tfrom線あり
100
AcDbAlignedDimension
 13
820.89760675492607
 23
-389.84354836997153
 33
0.0
 14
870.89760675492607
 24
-393.34354836997153
 34
0.0
100
AcDbRotatedDimension
1001
ACAD
1000
DSTYLE
1002
{
1070
             279
1070
               2
1070
             340
1005
39
1070
             147
1040
5.0
1002
}
  0
DIMENSION
  5
185
100
AcDbEntity
  8
notes
370
               5
390
0
  6
Continuous
 62
               7
100
AcDbDimension
  2
*D9
 10
-691.03056882224632
 20
-239.84354836997153
 30
0.0
 11
-712.28056882224632
 21
-239.84354836997153
 31
0.0
 71
               5
 72
               1
 41
1.0
 42
0.0
  3
tfrom線あり
100
AcDbAlignedDimension
 13
-733.53056882224632
 23
-394.81693176078142
 33
0.0
 14
-691.03056882224632
 24
-394.81693176078142
 34
0.0
100
AcDbRotatedDimension
1001
ACAD
1000
DSTYLE
1002
{
1070
             279
1070
               2
1070
             340
1005
39
1070
             147
1040
5.0
1002
}
  0
DIMENSION
  5
186
100
AcDbEntity
  8
notes
370
               5
390
0
  6
Continuous
 62
               7
100
AcDbDimension
  2
*D10
 10
-691.03056882224632
 20
-239.84354836997153
 30
0.0
 11
-333.53056882224632
 21
-239.84354836997153
 31
0.0
 71
               5
 72
               1
 41
1.0
 42
0.0
  3
tfrom線あり
100
AcDbAlignedDimension
 13
23.969431177753734
 23
-394.81693176078142
 33
0.0
 14
-691.03056882224632
 24
-394.81693176078142
 34
0.0
100
AcDbRotatedDimension
1001
ACAD
1000
DSTYLE
1002
{
1070
             279
1070
               2
1070
             340
1005
39
1070
             147
1040
5.0
1002
}
  0
DIMENSION
  5
187
100
AcDbEntity
  8
notes
370
               5
390
0
  6
Continuous
 62
               7
100
AcDbDimension
  2
*D11
 10
-473.53056882224632
 20
-289.84354836997153
 30
0.0
 11
-333.53056882224632
 21
-289.84354836997153
 31
0.0
 71
               5
 72
               1
 41
1.0
 42
0.0
  3
tfrom線あり
100
AcDbAlignedDimension
 13
-193.53056882224638
 23
-432.34354836997153
 33
0.0
 14
-473.53056882224632
 24
-432.34354836997153
 34
0.0
100
AcDbRotatedDimension
1001
ACAD
1000
DSTYLE
1002
{
1070
             279
1070
               2
1070
             340
1005
39
1070
             147
1040
5.0
1002
}
  0
DIMENSION
  5
188
100
AcDbEntity
  8
notes
370
               5
390
0
  6
Continuous
 62
               7
100
AcDbDimension
  2
*D12
 10
-547.00855752933887
 20
-452.34354836997153
 30
0.0
 11
-552.00855752933887
 21
-380.50156453351912
 31
0.0
 70
             128
 71
               5
 72
               1
 41
1.0
 42
0.0
  3
tfrom線あり
100
AcDbAlignedDimension
 13
-493.53056882224632
 23
-389.84354836997153
 33
0.0
 14
-493.53056882224632
 24
-452.34354836997153
 34
0.0
 50
90.0
100
AcDbRotatedDimension
1001
ACAD
1000
DSTYLE
1002
{
1070
             279
1070
               2
1070
             340
1005
39
1070
             174
1070
               0
1070
             147
1040
5.0
1002
}
  0
DIMENSION
  5
189
100
AcDbEntity
  8
notes
370
               5
390
0
  6
Continuous
 62
               7
100
AcDbDimension
  2
*D13
 10
-733.53056882224632
 20
979.99999999999977
 30
0.0
 11
-333.53056882224644
 21
984.99999999999977
 31
0.0
 70
             128
 71
               5
 72
               1
 41
1.0
 42
0.0
  3
tfrom線あり
100
AcDbAlignedDimension
 13
66.46943117775362
 23
830.0
 33
0.0
 14
-733.53056882224632
 24
830.0
 34
0.0
100
AcDbRotatedDimension
1001
ACAD
1000
DSTYLE
1002
{
1070
             271
1070
               2
1070
             279
1070
               2
1070
             340
1005
39
1070
             147
1040
5.0
1002
}
  0
DIMENSION
  5
18A
100
AcDbEntity
  8
notes
370
               5
390
0
  6
Continuous
 62
               7
100
AcDbDimension
  2
*D14
 10
870.89760675492607
 20
-633.11205906917144
 30
0.0
 11
783.39760675492607
 21
-633.11205906917144
 31
0.0
 71
               5
 72
               1
 41
1.0
 42
0.0
  3
tfrom線あり
100
AcDbAlignedDimension
 13
695.89760675492607
 23
-533.07993742954864
 33
0.0
 14
870.89760675492607
 24
-511.34354836997153
 34
0.0
100
AcDbRotatedDimension
1001
ACAD
1000
DSTYLE
1002
{
1070
             279
1070
               2
1070
             340
1005
39
1070
             147
1040
5.0
1002
}
  0
DIMENSION
  5
18B
100
AcDbEntity
  8
notes
370
               5
390
0
  6
Continuous
 62
               7
100
AcDbDimension
  2
*D15
 10
166.46943117775362
 20
830.0
 30
0.0
 11
166.46943117775362
 21
780.0
 31
0.0
 71
               5
 72
               1
 41
1.0
 42
0.0
  3
tfrom線あり
100
AcDbAlignedDimension
 13
66.46943117775362
 23
730.0
 33
0.0
 14
61.469431177753734
 24
830.0
 34
0.0
 50
90.0
100
AcDbRotatedDimension
1001
ACAD
1000
DSTYLE
1002
{
1070
             279
1070
               2
1070
             340
1005
39
1070
             147
1040
5.0
1002
}
  0
DIMENSION
  5
18C
100
AcDbEntity
  8
notes
370
               5
390
0
  6
Continuous
 62
               7
100
AcDbDimension
  2
*D16
 10
166.46943117775362
 20
730.0
 30
0.0
 11
166.46943117775362
 21
600.0
 31
0.0
 71
               5
 72
               1
 41
1.0
 42
0.0
  3
tfrom線あり
100
AcDbAlignedDimension
 13
66.46943117775362
 23
470.00000000000006
 33
0.0
 14
66.46943117775362
 24
730.0
 34
0.0
 50
90.0
100
AcDbRotatedDimension
1001
ACAD
1000
DSTYLE
1002
{
1070
             279
1070
               2
1070
             340
1005
39
1070
             147
1040
5.0
1002
}
  0
DIMENSION
  5
18D
100
AcDbEntity
  8
notes
370
               5
390
0
  6
Continuous
 62
               7
100
AcDbDimension
  2
*D17
 10
-833.53056882224632
 20
830.0
 30
0.0
 11
-833.53056882224632
 21
627.5
 31
0.0
 71
               5
 72
               1
 41
1.0
 42
0.0
  3
tfrom線あり
100
AcDbAlignedDimension
 13
-728.53056882224632
 23
425.0
 33
0.0
 14
-728.53056882224632
 24
830.0
 34
0.0
 50
90.0
100
AcDbRotatedDimension
1001
ACAD
1000
DSTYLE
1002
{
1070
             279
1070
               2
1070
             340
1005
39
1070
             147
1040
5.0
1002
}
  0
DIMENSION
  5
18E
100
AcDbEntity
  8
notes
370
               5
390
0
  6
Continuous
 62
               7
100
AcDbDimension
  2
*D18
 10
365.89760675492613
 20
-389.84354836997153
 30
0.0
 11
365.89760675492613
 21
-452.34354836997153
 31
0.0
 71
               5
 72
               1
 41
1.0
 42
0.0
  3
tfrom線あり
100
AcDbAlignedDimension
 13
470.89760675492613
 23
-514.84354836997159
 33
0.0
 14
470.89760675492613
 24
-389.84354836997153
 34
0.0
 50
90.0
100
AcDbRotatedDimension
1001
ACAD
1000
DSTYLE
1002
{
1070
             279
1070
               2
1070
             340
1005
39
1070
             147
1040
5.0
1002
}
  0
DIMENSION
  5
18F
100
AcDbEntity
  8
notes
370
               5
390
0
  6
Continuous
 62
               7
100
AcDbDimension
  2
*D19
 10
205.96943117775362
 20
-389.84354836997153
 30
0.0
 11
205.96943117775362
 21
-481.34354836997153
 31
0.0
 71
               5
 72
               1
 41
1.0
 42
0.0
  3
tfrom線あり
100
AcDbAlignedDimension
 13
-201.0658513551893
 23
-572.84354836997159
 33
0.0
 14
50.96943117775362
 24
-389.84354836997153
 34
0.0
 50
90.0
100
AcDbRotatedDimension
1001
ACAD
1000
DSTYLE
1002
{
1070
             279
1070
               2
1070
             340
1005
39
1070
             147
1040
5.0
1002
}
  0
DIMENSION
  5
190
100
AcDbEntity
  8
notes
370
               5
390
0
  6
Continuous
 62
               7
100
AcDbDimension
  2
*D20
 10
66.46943117775362
 20
-633.11356806557183
 30
0.0
 11
-79.789819058592911
 21
-633.11356806557183
 31
0.0
 71
               5
 72
               1
 41
1.0
 42
0.0
  3
tfrom線あり
100
AcDbAlignedDimension
 13
-226.04906929493939
 23
-533.11356806557183
 33
0.0
 14
66.46943117775362
 24
-511.34354836997142
 34
0.0
100
AcDbRotatedDimension
1001
ACAD
1000
DSTYLE
1002
{
1070
             279
1070
               2
1070
             340
1005
39
1070
             147
1040
5.0
1002
}
  0
INSERT
  5
191
100
AcDbEntity
  8
notes
390
0
 62
               7
100
AcDbBlockReference
  2
グループ-1
 10
305.97705122034813
 20
334.77926766279501
 30
0.0
  0
INSERT
  5
192
100
AcDbEntity
  8
notes
390
0
 62
               7
100
AcDbBlockReference
  2
グループ-2
 10
305.97705122034813
 20
334.77926766279501
 30
0.0
  0
DIMENSION
  5
193
100
AcDbEntity
  8
notes
370
               5
390
0
  6
Continuous
 62
               7
100
AcDbDimension
  2
*D23
 10
695.0
 20
-519.53428490217152
 30
0.0
 11
700.0
 21
-378.00000000000006
 31
0.0
 70
             128
 71
               5
 72
               1
 41
1.0
 42
0.0
  3
tfrom線あり
100
AcDbAlignedDimension
 13
669.04589176791524
 23
-386.53428490217158
 33
0.0
 14
669.04589176791524
 24
-519.53428490217152
 34
0.0
 50
90.0
100
AcDbRotatedDimension
1001
ACAD
1000
DSTYLE
1002
{
1070
             279
1070
               2
1070
             340
1005
39
1070
               3
1000
<>(深さ)
1070
             174
1070
               0
1070
             147
1040
5.0
1002
}
  0
LINE
  5
194
100
AcDbEntity
  8
FAN70-1305
370
              15
390
0
  6
STYLE_05
 62
               7
100
AcDbLine
 10
-192.94337926268935
 20
-523.44928586287187
 30
0.0
 11
-201.0658513551893
 21
-533.11356806557183
 31
0.0
  0
LINE
  5
195
100
AcDbEntity
  8
FAN70-1305
370
              15
390
0
  6
STYLE_05
 62
               7
100
AcDbLine
 10
-251.03228723468942
 20
-533.11356806557183
 30
0.0
 11
-259.17197016838941
 21
-523.42881166737175
 31
0.0
  0
POLYLINE
  5
196
100
AcDbEntity
  8
FAN70-1305
370
              15
390
0
  6
Continuous
 62
               7
100
AcDb2dPolyline
 66
               1
 10
0.0
 20
0.0
 30
0.0
 75
               5
  0
VERTEX
  5
197
100
AcDbEntity
  8
FAN70-1305
370
              15
390
0
  6
Continuous
 62
               7
100
AcDbVertex
100
AcDb2dVertex
 10
-147.47294656656453
 20
-514.84354836997159
 30
0.0
  0
VERTEX
  5
198
100
AcDbEntity
  8
FAN70-1305
370
              15
390
0
  6
Continuous
 62
               7
100
AcDbVertex
100
AcDb2dVertex
 10
-154.46963402630257
 20
-516.67030873259091
 30
0.0
  0
VERTEX
  5
199
100
AcDbEntity
  8
FAN70-1305
370
              15
390
0
  6
Continuous
 62
               7
100
AcDbVertex
100
AcDb2dVertex
 10
-163.85777395521092
 20
-518.8026385031294
 30
0.0
  0
VERTEX
  5
19A
100
AcDbEntity
  8
FAN70-1305
370
              15
390
0
  6
Continuous
 62
               7
100
AcDbVertex
100
AcDb2dVertex
 10
-173.44059007059383
 20
-520.65788452815355
 30
0.0
  0
VERTEX
  5
19B
100
AcDbEntity
  8
FAN70-1305
370
              15
390
0
  6
Continuous
 62
               7
100
AcDbVertex
100
AcDb2dVertex
 10
-183.0692936121863
 20
-522.20029454646146
 30
0.0
  0
VERTEX
  5
19C
100
AcDbEntity
  8
FAN70-1305
370
              15
390
0
  6
Continuous
 62
               7
100
AcDbVertex
100
AcDb2dVertex
 10
-192.7472396535548
 20
-523.43076199244365
 30
0.0
  0
VERTEX
  5
19D
100
AcDbEntity
  8
FAN70-1305
370
              15
390
0
  6
Continuous
 62
               7
100
AcDbVertex
100
AcDb2dVertex
 10
-192.94337926268935
 20
-523.44928586287187
 30
0.0
  0
SEQEND
  5
19E
100
AcDbEntity
  8
FAN70-1305
370
              15
390
0
  6
Continuous
 62
               7
  0
POLYLINE
  5
19F
100
AcDbEntity
  8
FAN70-1305
370
              15
390
0
  6
Continuous
 62
               7
100
AcDb2dPolyline
 66
               1
 10
0.0
 20
0.0
 30
0.0
 75
               5
  0
VERTEX
  5
1A0
100
AcDbEntity
  8
FAN70-1305
370
              15
390
0
  6
Continuous
 62
               7
100
AcDbVertex
100
AcDb2dVertex
 10
-259.17197016838941
 20
-523.42881166737175
 30
0.0
  0
VERTEX
  5
1A1
100
AcDbEntity
  8
FAN70-1305
370
              15
390
0
  6
Continuous
 62
               7
100
AcDbVertex
100
AcDb2dVertex
 10
-267.16217769148943
 20
-522.4621882418719
 30
0.0
  0
VERTEX
  5
1A2
100
AcDbEntity
  8
FAN70-1305
370
              15
390
0
  6
Continuous
 62
               7
100
AcDbVertex
100
AcDb2dVertex
 10
-276.79652346138937
 20
-520.98049127857189
 30
0.0
  0
VERTEX
  5
1A3
100
AcDbEntity
  8
FAN70-1305
370
              15
390
0
  6
Continuous
 62
               7
100
AcDbVertex
100
AcDb2dVertex
 10
-286.3767966425894
 20
-519.18800079627204
 30
0.0
  0
VERTEX
  5
1A4
100
AcDbEntity
  8
FAN70-1305
370
              15
390
0
  6
Continuous
 62
               7
100
AcDbVertex
100
AcDb2dVertex
 10
-295.90376091958933
 20
-517.0847913006719
 30
0.0
  0
VERTEX
  5
1A5
100
AcDbEntity
  8
FAN70-1305
370
              15
390
0
  6
Continuous
 62
               7
100
AcDbVertex
100
AcDb2dVertex
 10
-304.71738798378942
 20
-514.83742797177206
 30
0.0
  0
SEQEND
  5
1A6
100
AcDbEntity
  8
FAN70-1305
370
              15
390
0
  6
Continuous
 62
               7
  0
LINE
  5
1A7
100
AcDbEntity
  8
FAN70-1305
370
              15
390
0
  6
Continuous
 62
               7
100
AcDbLine
 10
61.469431177753734
 20
-514.84354836997159
 30
0.0
 11
62.96943117775362
 21
-514.84354836997159
 31
0.0
  0
ARC
  5
1A8
100
AcDbEntity
  8
FAN70-1305
370
              15
390
0
  6
Continuous
 62
               7
100
AcDbCircle
 10
62.96943117775362
 20
-511.34354836997142
 30
0.0
 40
3.5
100
AcDbArc
 50
270.0
 51
0.0
  0
LINE
  5
1A9
100
AcDbEntity
  8
FAN70-1305
370
              15
390
0
  6
Continuous
 62
               7
100
AcDbLine
 10
66.46943117775362
 20
-511.34354836997142
 30
0.0
 11
66.46943117775362
 21
-393.34354836997153
 31
0.0
  0
ARC
  5
1AA
100
AcDbEntity
  8
FAN70-1305
370
              15
390
0
  6
Continuous
 62
               7
100
AcDbCircle
 10
62.96943117775362
 20
-393.34354836997153
 30
0.0
 40
3.5
100
AcDbArc
 50
0.0
 51
90.0
  0
LINE
  5
1AB
100
AcDbEntity
  8
FAN70-1305
370
              15
390
0
  6
Continuous
 62
               7
100
AcDbLine
 10
62.96943117775362
 20
-389.84354836997153
 30
0.0
 11
61.469431177753734
 21
-389.84354836997153
 31
0.0
  0
LINE
  5
1AC
100
AcDbEntity
  8
FAN70-1305
370
              15
390
0
  6
Continuous
 62
               7
100
AcDbLine
 10
61.469431177753734
 20
-389.84354836997153
 30
0.0
 11
-728.53056882224632
 21
-389.84354836997153
 31
0.0
  0
LINE
  5
1AD
100
AcDbEntity
  8
FAN70-1305
370
              15
390
0
  6
Continuous
 62
               7
100
AcDbLine
 10
-728.53056882224632
 20
-514.84354836997159
 30
0.0
 11
61.469431177753734
 21
-514.84354836997159
 31
0.0
  0
LINE
  5
1AE
100
AcDbEntity
  8
FAN70-1305
370
              15
390
0
  6
Continuous
 62
               7
100
AcDbLine
 10
-730.03056882224632
 20
-389.84354836997153
 30
0.0
 11
-728.53056882224632
 21
-389.84354836997153
 31
0.0
  0
ARC
  5
1AF
100
AcDbEntity
  8
FAN70-1305
370
              15
390
0
  6
Continuous
 62
               7
100
AcDbCircle
 10
-730.03056882224632
 20
-393.34354836997153
 30
0.0
 40
3.5
100
AcDbArc
 50
90.0
 51
180.0
  0
LINE
  5
1B0
100
AcDbEntity
  8
FAN70-1305
370
              15
390
0
  6
Continuous
 62
               7
100
AcDbLine
 10
-733.53056882224632
 20
-511.34354836997142
 30
0.0
 11
-733.53056882224632
 21
-393.34354836997153
 31
0.0
  0
ARC
  5
1B1
100
AcDbEntity
  8
FAN70-1305
370
              15
390
0
  6
Continuous
 62
               7
100
AcDbCircle
 10
-730.03056882224632
 20
-511.34354836997142
 30
0.0
 40
3.5
100
AcDbArc
 50
180.0
 51
270.0
  0
LINE
  5
1B2
100
AcDbEntity
  8
FAN70-1305
370
              15
390
0
  6
Continuous
 62
               7
100
AcDbLine
 10
-728.53056882224632
 20
-514.84354836997159
 30
0.0
 11
-730.03056882224632
 21
-514.84354836997159
 31
0.0
  0
POLYLINE
  5
1B3
100
AcDbEntity
  8
FAN70-1305
370
              15
390
0
  6
Continuous
 62
               7
100
AcDb2dPolyline
 66
               1
 10
0.0
 20
0.0
 30
0.0
 75
               5
  0
VERTEX
  5
1B4
100
AcDbEntity
  8
FAN70-1305
370
              15
390
0
  6
Continuous
 62
               7
100
AcDbVertex
100
AcDb2dVertex
 10
-475.00445319178925
 20
489.72150464309954
 30
0.0
  0
VERTEX
  5
1B5
100
AcDbEntity
  8
FAN70-1305
370
              15
390
0
  6
Continuous
 62
               7
100
AcDbVertex
100
AcDb2dVertex
 10
-474.73670912748935
 20
486.89374108559952
 30
0.0
  0
VERTEX
  5
1B6
100
AcDbEntity
  8
FAN70-1305
370
              15
390
0
  6
Continuous
 62
               7
100
AcDbVertex
100
AcDb2dVertex
 10
-473.95536674028949
 20
484.16220922719953
 30
0.0
  0
VERTEX
  5
1B7
100
AcDbEntity
  8
FAN70-1305
370
              15
390
0
  6
Continuous
 62
               7
100
AcDbVertex
100
AcDb2dVertex
 10
-472.68940878868943
 20
481.59310002579952
 30
0.0
  0
VERTEX
  5
1B8
100
AcDbEntity
  8
FAN70-1305
370
              15
390
0
  6
Continuous
 62
               7
100
AcDbVertex
100
AcDb2dVertex
 10
-471.02339936258954
 20
479.26178355469955
 30
0.0
  0
VERTEX
  5
1B9
100
AcDbEntity
  8
FAN70-1305
370
              15
390
0
  6
Continuous
 62
               7
100
AcDbVertex
100
AcDb2dVertex
 10
-468.8614494895894
 20
477.05220957049954
 30
0.0
  0
VERTEX
  5
1BA
100
AcDbEntity
  8
FAN70-1305
370
              15
390
0
  6
Continuous
 62
               7
100
AcDbVertex
100
AcDb2dVertex
 10
-466.40980614188925
 20
475.16727228409951
 30
0.0
  0
VERTEX
  5
1BB
100
AcDbEntity
  8
FAN70-1305
370
              15
390
0
  6
Continuous
 62
               7
100
AcDbVertex
100
AcDb2dVertex
 10
-462.3672701215894
 20
472.95060534729953
 30
0.0
  0
VERTEX
  5
1BC
100
AcDbEntity
  8
FAN70-1305
370
              15
390
0
  6
Continuous
 62
               7
100
AcDbVertex
100
AcDb2dVertex
 10
-458.02127195358935
 20
471.40007992039955
 30
0.0
  0
VERTEX
  5
1BD
100
AcDbEntity
  8
FAN70-1305
370
              15
390
0
  6
Continuous
 62
               7
100
AcDbVertex
100
AcDb2dVertex
 10
-454.00382948878951
 20
470.54055114039954
 30
0.0
  0
VERTEX
  5
1BE
100
AcDbEntity
  8
FAN70-1305
370
              15
390
0
  6
Continuous
 62
               7
100
AcDbVertex
100
AcDb2dVertex
 10
-449.91483164788951
 20
470.13598461399954
 30
0.0
  0
VERTEX
  5
1BF
100
AcDbEntity
  8
FAN70-1305
370
              15
390
0
  6
Continuous
 62
               7
100
AcDbVertex
100
AcDb2dVertex
 10
-448.02721215248948
 20
470.09536404859955
 30
0.0
  0
SEQEND
  5
1C0
100
AcDbEntity
  8
FAN70-1305
370
              15
390
0
  6
Continuous
 62
               7
  0
POLYLINE
  5
1C1
100
AcDbEntity
  8
FAN70-1305
370
              15
390
0
  6
Continuous
 62
               7
100
AcDb2dPolyline
 66
               1
 10
0.0
 20
0.0
 30
0.0
 75
               5
  0
VERTEX
  5
1C2
100
AcDbEntity
  8
FAN70-1305
370
              15
390
0
  6
Continuous
 62
               7
100
AcDbVertex
100
AcDb2dVertex
 10
-226.04906929498952
 20
472.75945325149951
 30
0.0
  0
VERTEX
  5
1C3
100
AcDbEntity
  8
FAN70-1305
370
              15
390
0
  6
Continuous
 62
               7
100
AcDbVertex
100
AcDb2dVertex
 10
-229.12526757298929
 20
472.7590360189995
 30
0.0
  0
VERTEX
  5
1C4
100
AcDbEntity
  8
FAN70-1305
370
              15
390
0
  6
Continuous
 62
               7
100
AcDbVertex
100
AcDb2dVertex
 10
-248.81266427998935
 20
472.73593921909952
 30
0.0
  0
VERTEX
  5
1C5
100
AcDbEntity
  8
FAN70-1305
370
              15
390
0
  6
Continuous
 62
               7
100
AcDbVertex
100
AcDb2dVertex
 10
-268.46241203908926
 20
472.67788429509955
 30
0.0
  0
VERTEX
  5
1C6
100
AcDbEntity
  8
FAN70-1305
370
              15
390
0
  6
Continuous
 62
               7
100
AcDbVertex
100
AcDb2dVertex
 10
-287.94270006778925
 20
472.58552689799956
 30
0.0
  0
VERTEX
  5
1C7
100
AcDbEntity
  8
FAN70-1305
370
              15
390
0
  6
Continuous
 62
               7
100
AcDbVertex
100
AcDb2dVertex
 10
-307.12172014478938
 20
472.45943327199956
 30
0.0
  0
VERTEX
  5
1C8
100
AcDbEntity
  8
FAN70-1305
370
              15
390
0
  6
Continuous
 62
               7
100
AcDbVertex
100
AcDb2dVertex
 10
-325.86765659808952
 20
472.30028887039953
 30
0.0
  0
VERTEX
  5
1C9
100
AcDbEntity
  8
FAN70-1305
370
              15
390
0
  6
Continuous
 62
               7
100
AcDbVertex
100
AcDb2dVertex
 10
-342.09793431518938
 20
472.13160772569955
 30
0.0
  0
VERTEX
  5
1CA
100
AcDbEntity
  8
FAN70-1305
370
              15
390
0
  6
Continuous
 62
               7
100
AcDbVertex
100
AcDb2dVertex
 10
-357.94371737008942
 20
471.93759460699954
 30
0.0
  0
VERTEX
  5
1CB
100
AcDbEntity
  8
FAN70-1305
370
              15
390
0
  6
Continuous
 62
               7
100
AcDbVertex
100
AcDb2dVertex
 10
-373.32220746038956
 20
471.71929259549955
 30
0.0
  0
VERTEX
  5
1CC
100
AcDbEntity
  8
FAN70-1305
370
              15
390
0
  6
Continuous
 62
               7
100
AcDbVertex
100
AcDb2dVertex
 10
-388.15065098768923
 20
471.47786398179954
 30
0.0
  0
VERTEX
  5
1CD
100
AcDbEntity
  8
FAN70-1305
370
              15
390
0
  6
Continuous
 62
               7
100
AcDbVertex
100
AcDb2dVertex
 10
-404.41358459948924
 20
471.17340345629952
 30
0.0
  0
VERTEX
  5
1CE
100
AcDbEntity
  8
FAN70-1305
370
              15
390
0
  6
Continuous
 62
               7
100
AcDbVertex
100
AcDb2dVertex
 10
-419.88300157548952
 20
470.83988566649953
 30
0.0
  0
VERTEX
  5
1CF
100
AcDbEntity
  8
FAN70-1305
370
              15
390
0
  6
Continuous
 62
               7
100
AcDbVertex
100
AcDb2dVertex
 10
-434.45538354878931
 20
470.47972460039955
 30
0.0
  0
VERTEX
  5
1D0
100
AcDbEntity
  8
FAN70-1305
370
              15
390
0
  6
Continuous
 62
               7
100
AcDbVertex
100
AcDb2dVertex
 10
-448.02721215248948
 20
470.09536404859955
 30
0.0
  0
SEQEND
  5
1D1
100
AcDbEntity
  8
FAN70-1305
370
              15
390
0
  6
Continuous
 62
               7
  0
POLYLINE
  5
1D2
100
AcDbEntity
  8
FAN70-1305
370
              15
390
0
  6
Continuous
 62
               7
100
AcDb2dPolyline
 66
               1
 10
0.0
 20
0.0
 30
0.0
 75
               5
  0
VERTEX
  5
1D3
100
AcDbEntity
  8
FAN70-1305
370
              15
390
0
  6
Continuous
 62
               7
100
AcDbVertex
100
AcDb2dVertex
 10
-475.00445319178925
 20
489.72150464309954
 30
0.0
  0
VERTEX
  5
1D4
100
AcDbEntity
  8
FAN70-1305
370
              15
390
0
  6
Continuous
 62
               7
100
AcDbVertex
100
AcDb2dVertex
 10
-464.09881485458936
 20
489.95744962939955
 30
0.0
  0
VERTEX
  5
1D5
100
AcDbEntity
  8
FAN70-1305
370
              15
390
0
  6
Continuous
 62
               7
100
AcDbVertex
100
AcDb2dVertex
 10
-452.42518557068934
 20
490.18308301219957
 30
0.0
  0
VERTEX
  5
1D6
100
AcDbEntity
  8
FAN70-1305
370
              15
390
0
  6
Continuous
 62
               7
100
AcDbVertex
100
AcDb2dVertex
 10
-440.04133714198952
 20
490.39751072179951
 30
0.0
  0
VERTEX
  5
1D7
100
AcDbEntity
  8
FAN70-1305
370
              15
390
0
  6
Continuous
 62
               7
100
AcDbVertex
100
AcDb2dVertex
 10
-427.00504137038956
 20
490.59974928149956
 30
0.0
  0
VERTEX
  5
1D8
100
AcDbEntity
  8
FAN70-1305
370
              15
390
0
  6
Continuous
 62
               7
100
AcDbVertex
100
AcDb2dVertex
 10
-413.37407005788941
 20
490.7888450170995
 30
0.0
  0
VERTEX
  5
1D9
100
AcDbEntity
  8
FAN70-1305
370
              15
390
0
  6
Continuous
 62
               7
100
AcDbVertex
100
AcDb2dVertex
 10
-399.20619500638941
 20
490.96390385879954
 30
0.0
  0
VERTEX
  5
1DA
100
AcDbEntity
  8
FAN70-1305
370
              15
390
0
  6
Continuous
 62
               7
100
AcDbVertex
100
AcDb2dVertex
 10
-383.36536658768932
 20
491.13642950309958
 30
0.0
  0
VERTEX
  5
1DB
100
AcDbEntity
  8
FAN70-1305
370
              15
390
0
  6
Continuous
 62
               7
100
AcDbVertex
100
AcDb2dVertex
 10
-366.93722380158943
 20
491.2924446607995
 30
0.0
  0
VERTEX
  5
1DC
100
AcDbEntity
  8
FAN70-1305
370
              15
390
0
  6
Continuous
 62
               7
100
AcDbVertex
100
AcDb2dVertex
 10
-350.01023484228949
 20
491.43117447149956
 30
0.0
  0
VERTEX
  5
1DD
100
AcDbEntity
  8
FAN70-1305
370
              15
390
0
  6
Continuous
 62
               7
100
AcDbVertex
100
AcDb2dVertex
 10
-332.67286045318929
 20
491.55178447019955
 30
0.0
  0
VERTEX
  5
1DE
100
AcDbEntity
  8
FAN70-1305
370
              15
390
0
  6
Continuous
 62
               7
100
AcDbVertex
100
AcDb2dVertex
 10
-314.87055493358935
 20
491.65442366849953
 30
0.0
  0
VERTEX
  5
1DF
100
AcDbEntity
  8
FAN70-1305
370
              15
390
0
  6
Continuous
 62
               7
100
AcDbVertex
100
AcDb2dVertex
 10
-296.73389715908934
 20
491.73831720599952
 30
0.0
  0
VERTEX
  5
1E0
100
AcDbEntity
  8
FAN70-1305
370
              15
390
0
  6
Continuous
 62
               7
100
AcDbVertex
100
AcDb2dVertex
 10
-278.36025876758958
 20
491.80295844329953
 30
0.0
  0
VERTEX
  5
1E1
100
AcDbEntity
  8
FAN70-1305
370
              15
390
0
  6
Continuous
 62
               7
100
AcDbVertex
100
AcDb2dVertex
 10
-261.01894674658934
 20
491.84581418289957
 30
0.0
  0
VERTEX
  5
1E2
100
AcDbEntity
  8
FAN70-1305
370
              15
390
0
  6
Continuous
 62
               7
100
AcDbVertex
100
AcDb2dVertex
 10
-243.55456417268942
 20
491.87159319169956
 30
0.0
  0
VERTEX
  5
1E3
100
AcDbEntity
  8
FAN70-1305
370
              15
390
0
  6
Continuous
 62
               7
100
AcDbVertex
100
AcDb2dVertex
 10
-226.04906929498952
 20
491.8802060628995
 30
0.0
  0
SEQEND
  5
1E4
100
AcDbEntity
  8
FAN70-1305
370
              15
390
0
  6
Continuous
 62
               7
  0
POLYLINE
  5
1E5
100
AcDbEntity
  8
FAN70-1305
370
              15
390
0
  6
Continuous
 62
               7
100
AcDb2dPolyline
 66
               1
 10
0.0
 20
0.0
 30
0.0
 75
               5
  0
VERTEX
  5
1E6
100
AcDbEntity
  8
FAN70-1305
370
              15
390
0
  6
Continuous
 62
               7
100
AcDbVertex
100
AcDb2dVertex
 10
-226.04906929498952
 20
472.75945325149951
 30
0.0
  0
VERTEX
  5
1E7
100
AcDbEntity
  8
FAN70-1305
370
              15
390
0
  6
Continuous
 62
               7
100
AcDbVertex
100
AcDb2dVertex
 10
-222.97287101698953
 20
472.7590360189995
 30
0.0
  0
VERTEX
  5
1E8
100
AcDbEntity
  8
FAN70-1305
370
              15
390
0
  6
Continuous
 62
               7
100
AcDbVertex
100
AcDb2dVertex
 10
-203.28547430988937
 20
472.73593921909952
 30
0.0
  0
VERTEX
  5
1E9
100
AcDbEntity
  8
FAN70-1305
370
              15
390
0
  6
Continuous
 62
               7
100
AcDbVertex
100
AcDb2dVertex
 10
-183.63572655078946
 20
472.67788429509955
 30
0.0
  0
VERTEX
  5
1EA
100
AcDbEntity
  8
FAN70-1305
370
              15
390
0
  6
Continuous
 62
               7
100
AcDbVertex
100
AcDb2dVertex
 10
-164.15543852208947
 20
472.58552689799956
 30
0.0
  0
VERTEX
  5
1EB
100
AcDbEntity
  8
FAN70-1305
370
              15
390
0
  6
Continuous
 62
               7
100
AcDbVertex
100
AcDb2dVertex
 10
-144.97641844508945
 20
472.45943327199956
 30
0.0
  0
VERTEX
  5
1EC
100
AcDbEntity
  8
FAN70-1305
370
              15
390
0
  6
Continuous
 62
               7
100
AcDbVertex
100
AcDb2dVertex
 10
-126.23048199178942
 20
472.30028887039953
 30
0.0
  0
VERTEX
  5
1ED
100
AcDbEntity
  8
FAN70-1305
370
              15
390
0
  6
Continuous
 62
               7
100
AcDbVertex
100
AcDb2dVertex
 10
-110.00020427468945
 20
472.13160772569955
 30
0.0
  0
VERTEX
  5
1EE
100
AcDbEntity
  8
FAN70-1305
370
              15
390
0
  6
Continuous
 62
               7
100
AcDbVertex
100
AcDb2dVertex
 10
-94.154421219889457
 20
471.93759460699954
 30
0.0
  0
VERTEX
  5
1EF
100
AcDbEntity
  8
FAN70-1305
370
              15
390
0
  6
Continuous
 62
               7
100
AcDbVertex
100
AcDb2dVertex
 10
-78.775931129489379
 20
471.71929259549955
 30
0.0
  0
VERTEX
  5
1F0
100
AcDbEntity
  8
FAN70-1305
370
              15
390
0
  6
Continuous
 62
               7
100
AcDbVertex
100
AcDb2dVertex
 10
-63.947487602289527
 20
471.47786398179954
 30
0.0
  0
VERTEX
  5
1F1
100
AcDbEntity
  8
FAN70-1305
370
              15
390
0
  6
Continuous
 62
               7
100
AcDbVertex
100
AcDb2dVertex
 10
-47.684553990389475
 20
471.17340345629952
 30
0.0
  0
VERTEX
  5
1F2
100
AcDbEntity
  8
FAN70-1305
370
              15
390
0
  6
Continuous
 62
               7
100
AcDbVertex
100
AcDb2dVertex
 10
-32.215137014389313
 20
470.83988566649953
 30
0.0
  0
VERTEX
  5
1F3
100
AcDbEntity
  8
FAN70-1305
370
              15
390
0
  6
Continuous
 62
               7
100
AcDbVertex
100
AcDb2dVertex
 10
-17.642755041189446
 20
470.47972460039955
 30
0.0
  0
VERTEX
  5
1F4
100
AcDbEntity
  8
FAN70-1305
370
              15
390
0
  6
Continuous
 62
               7
100
AcDbVertex
100
AcDb2dVertex
 10
-4.0709264373893461
 20
470.09536404859955
 30
0.0
  0
SEQEND
  5
1F5
100
AcDbEntity
  8
FAN70-1305
370
              15
390
0
  6
Continuous
 62
               7
  0
POLYLINE
  5
1F6
100
AcDbEntity
  8
FAN70-1305
370
              15
390
0
  6
Continuous
 62
               7
100
AcDb2dPolyline
 66
               1
 10
0.0
 20
0.0
 30
0.0
 75
               5
  0
VERTEX
  5
1F7
100
AcDbEntity
  8
FAN70-1305
370
              15
390
0
  6
Continuous
 62
               7
100
AcDbVertex
100
AcDb2dVertex
 10
23.967287007268112
 20
489.72150464309954
 30
0.0
  0
VERTEX
  5
1F8
100
AcDbEntity
  8
FAN70-1305
370
              15
390
0
  6
Continuous
 62
               7
100
AcDbVertex
100
AcDb2dVertex
 10
23.689012990468143
 20
486.89374108559952
 30
0.0
  0
VERTEX
  5
1F9
100
AcDbEntity
  8
FAN70-1305
370
              15
390
0
  6
Continuous
 62
               7
100
AcDbVertex
100
AcDb2dVertex
 10
22.876941637665198
 20
484.16220922719953
 30
0.0
  0
VERTEX
  5
1FA
100
AcDbEntity
  8
FAN70-1305
370
              15
390
0
  6
Continuous
 62
               7
100
AcDbVertex
100
AcDb2dVertex
 10
21.561195553608343
 20
481.59310002579952
 30
0.0
  0
VERTEX
  5
1FB
100
AcDbEntity
  8
FAN70-1305
370
              15
390
0
  6
Continuous
 62
               7
100
AcDbVertex
100
AcDb2dVertex
 10
19.829664600470721
 20
479.26178355469955
 30
0.0
  0
VERTEX
  5
1FC
100
AcDbEntity
  8
FAN70-1305
370
              15
390
0
  6
Continuous
 62
               7
100
AcDbVertex
100
AcDb2dVertex
 10
17.582688643681252
 20
477.05220957049954
 30
0.0
  0
VERTEX
  5
1FD
100
AcDbEntity
  8
FAN70-1305
370
              15
390
0
  6
Continuous
 62
               7
100
AcDbVertex
100
AcDb2dVertex
 10
15.034626024051079
 20
475.16727228409951
 30
0.0
  0
VERTEX
  5
1FE
100
AcDbEntity
  8
FAN70-1305
370
              15
390
0
  6
Continuous
 62
               7
100
AcDbVertex
100
AcDb2dVertex
 10
10.833103428402239
 20
472.95060534729953
 30
0.0
  0
VERTEX
  5
1FF
100
AcDbEntity
  8
FAN70-1305
370
              15
390
0
  6
Continuous
 62
               7
100
AcDbVertex
100
AcDb2dVertex
 10
6.3161839966872435
 20
471.40007992039955
 30
0.0
  0
VERTEX
  5
200
100
AcDbEntity
  8
FAN70-1305
370
              15
390
0
  6
Continuous
 62
               7
100
AcDbVertex
100
AcDb2dVertex
 10
2.1407418465577734
 20
470.54055114039954
 30
0.0
  0
VERTEX
  5
201
100
AcDbEntity
  8
FAN70-1305
370
              15
390
0
  6
Continuous
 62
               7
100
AcDbVertex
100
AcDb2dVertex
 10
-2.1090698399256667
 20
470.13598461399954
 30
0.0
  0
VERTEX
  5
202
100
AcDbEntity
  8
FAN70-1305
370
              15
390
0
  6
Continuous
 62
               7
100
AcDbVertex
100
AcDb2dVertex
 10
-4.0709264373893461
 20
470.09536404859955
 30
0.0
  0
SEQEND
  5
203
100
AcDbEntity
  8
FAN70-1305
370
              15
390
0
  6
Continuous
 62
               7
  0
POLYLINE
  5
204
100
AcDbEntity
  8
FAN70-1305
370
              15
390
0
  6
Continuous
 62
               7
100
AcDb2dPolyline
 66
               1
 10
0.0
 20
0.0
 30
0.0
 75
               5
  0
VERTEX
  5
205
100
AcDbEntity
  8
FAN70-1305
370
              15
390
0
  6
Continuous
 62
               7
100
AcDbVertex
100
AcDb2dVertex
 10
22.906314601910651
 20
489.72150464309954
 30
0.0
  0
VERTEX
  5
206
100
AcDbEntity
  8
FAN70-1305
370
              15
390
0
  6
Continuous
 62
               7
100
AcDbVertex
100
AcDb2dVertex
 10
12.000676264710535
 20
489.95744962939955
 30
0.0
  0
VERTEX
  5
207
100
AcDbEntity
  8
FAN70-1305
370
              15
390
0
  6
Continuous
 62
               7
100
AcDbVertex
100
AcDb2dVertex
 10
0.3270469808106213
 20
490.18308301219957
 30
0.0
  0
VERTEX
  5
208
100
AcDbEntity
  8
FAN70-1305
370
              15
390
0
  6
Continuous
 62
               7
100
AcDbVertex
100
AcDb2dVertex
 10
-12.056801447889427
 20
490.39751072179951
 30
0.0
  0
VERTEX
  5
209
100
AcDbEntity
  8
FAN70-1305
370
              15
390
0
  6
Continuous
 62
               7
100
AcDbVertex
100
AcDb2dVertex
 10
-25.09309721948938
 20
490.59974928149956
 30
0.0
  0
VERTEX
  5
20A
100
AcDbEntity
  8
FAN70-1305
370
              15
390
0
  6
Continuous
 62
               7
100
AcDbVertex
100
AcDb2dVertex
 10
-38.724068531989531
 20
490.7888450170995
 30
0.0
  0
VERTEX
  5
20B
100
AcDbEntity
  8
FAN70-1305
370
              15
390
0
  6
Continuous
 62
               7
100
AcDbVertex
100
AcDb2dVertex
 10
-52.891943583489422
 20
490.96390385879954
 30
0.0
  0
VERTEX
  5
20C
100
AcDbEntity
  8
FAN70-1305
370
              15
390
0
  6
Continuous
 62
               7
100
AcDbVertex
100
AcDb2dVertex
 10
-68.732772002189392
 20
491.13642950309958
 30
0.0
  0
VERTEX
  5
20D
100
AcDbEntity
  8
FAN70-1305
370
              15
390
0
  6
Continuous
 62
               7
100
AcDbVertex
100
AcDb2dVertex
 10
-85.160914788289517
 20
491.2924446607995
 30
0.0
  0
VERTEX
  5
20E
100
AcDbEntity
  8
FAN70-1305
370
              15
390
0
  6
Continuous
 62
               7
100
AcDbVertex
100
AcDb2dVertex
 10
-102.08790374758945
 20
491.43117447149956
 30
0.0
  0
VERTEX
  5
20F
100
AcDbEntity
  8
FAN70-1305
370
              15
390
0
  6
Continuous
 62
               7
100
AcDbVertex
100
AcDb2dVertex
 10
-119.42527813678947
 20
491.55178447019955
 30
0.0
  0
VERTEX
  5
210
100
AcDbEntity
  8
FAN70-1305
370
              15
390
0
  6
Continuous
 62
               7
100
AcDbVertex
100
AcDb2dVertex
 10
-137.22758365628937
 20
491.65442366849953
 30
0.0
  0
VERTEX
  5
211
100
AcDbEntity
  8
FAN70-1305
370
              15
390
0
  6
Continuous
 62
               7
100
AcDbVertex
100
AcDb2dVertex
 10
-155.36424143078949
 20
491.73831720599952
 30
0.0
  0
VERTEX
  5
212
100
AcDbEntity
  8
FAN70-1305
370
              15
390
0
  6
Continuous
 62
               7
100
AcDbVertex
100
AcDb2dVertex
 10
-173.73787982228936
 20
491.80295844329953
 30
0.0
  0
VERTEX
  5
213
100
AcDbEntity
  8
FAN70-1305
370
              15
390
0
  6
Continuous
 62
               7
100
AcDbVertex
100
AcDb2dVertex
 10
-191.07919184328949
 20
491.84581418289957
 30
0.0
  0
VERTEX
  5
214
100
AcDbEntity
  8
FAN70-1305
370
              15
390
0
  6
Continuous
 62
               7
100
AcDbVertex
100
AcDb2dVertex
 10
-208.54357441728939
 20
491.87159319169956
 30
0.0
  0
VERTEX
  5
215
100
AcDbEntity
  8
FAN70-1305
370
              15
390
0
  6
Continuous
 62
               7
100
AcDbVertex
100
AcDb2dVertex
 10
-226.04906929498952
 20
491.8802060628995
 30
0.0
  0
SEQEND
  5
216
100
AcDbEntity
  8
FAN70-1305
370
              15
390
0
  6
Continuous
 62
               7
  0
POLYLINE
  5
217
100
AcDbEntity
  8
FAN70-1305
370
              15
390
0
  6
Continuous
 62
               7
100
AcDb2dPolyline
 66
               1
 10
0.0
 20
0.0
 30
0.0
 75
               5
  0
VERTEX
  5
218
100
AcDbEntity
  8
FAN70-1305
370
              15
390
0
  6
Continuous
 62
               7
100
AcDbVertex
100
AcDb2dVertex
 10
-226.04906929498952
 20
705.14289815679945
 30
0.0
  0
VERTEX
  5
219
100
AcDbEntity
  8
FAN70-1305
370
              15
390
0
  6
Continuous
 62
               7
100
AcDbVertex
100
AcDb2dVertex
 10
-223.04786809558937
 20
705.14347930199938
 30
0.0
  0
VERTEX
  5
21A
100
AcDbEntity
  8
FAN70-1305
370
              15
390
0
  6
Continuous
 62
               7
100
AcDbVertex
100
AcDb2dVertex
 10
-202.85095458688949
 20
705.1783852720996
 30
0.0
  0
VERTEX
  5
21B
100
AcDbEntity
  8
FAN70-1305
370
              15
390
0
  6
Continuous
 62
               7
100
AcDbVertex
100
AcDb2dVertex
 10
-182.6918907260893
 20
705.26673425689955
 30
0.0
  0
VERTEX
  5
21C
100
AcDbEntity
  8
FAN70-1305
370
              15
390
0
  6
Continuous
 62
               7
100
AcDbVertex
100
AcDb2dVertex
 10
-162.70586473708926
 20
705.40760983479959
 30
0.0
  0
VERTEX
  5
21D
100
AcDbEntity
  8
FAN70-1305
370
              15
390
0
  6
Continuous
 62
               7
100
AcDbVertex
100
AcDb2dVertex
 10
-143.02806181668944
 20
705.60007323279956
 30
0.0
  0
VERTEX
  5
21E
100
AcDbEntity
  8
FAN70-1305
370
              15
390
0
  6
Continuous
 62
               7
100
AcDbVertex
100
AcDb2dVertex
 10
-123.79368765118949
 20
705.84320057879927
 30
0.0
  0
VERTEX
  5
21F
100
AcDbEntity
  8
FAN70-1305
370
              15
390
0
  6
Continuous
 62
               7
100
AcDbVertex
100
AcDb2dVertex
 10
-110.27628553868948
 20
706.04888875729944
 30
0.0
  0
VERTEX
  5
220
100
AcDbEntity
  8
FAN70-1305
370
              15
390
0
  6
Continuous
 62
               7
100
AcDbVertex
100
AcDb2dVertex
 10
-97.021017203389363
 20
706.27999086629939
 30
0.0
  0
VERTEX
  5
221
100
AcDbEntity
  8
FAN70-1305
370
              15
390
0
  6
Continuous
 62
               7
100
AcDbVertex
100
AcDb2dVertex
 10
-84.074366817489533
 20
706.53569479239945
 30
0.0
  0
VERTEX
  5
222
100
AcDbEntity
  8
FAN70-1305
370
              15
390
0
  6
Continuous
 62
               7
100
AcDbVertex
100
AcDb2dVertex
 10
-67.857984433189529
 20
706.90169711359954
 30
0.0
  0
VERTEX
  5
223
100
AcDbEntity
  8
FAN70-1305
370
              15
390
0
  6
Continuous
 62
               7
100
AcDbVertex
100
AcDb2dVertex
 10
-52.227217683789434
 20
707.30738867769946
 30
0.0
  0
VERTEX
  5
224
100
AcDbEntity
  8
FAN70-1305
370
              15
390
0
  6
Continuous
 62
               7
100
AcDbVertex
100
AcDb2dVertex
 10
-37.271831164389425
 20
707.75031824359962
 30
0.0
  0
VERTEX
  5
225
100
AcDbEntity
  8
FAN70-1305
370
              15
390
0
  6
Continuous
 62
               7
100
AcDbVertex
100
AcDb2dVertex
 10
-23.081589469889366
 20
708.22802711969939
 30
0.0
  0
VERTEX
  5
226
100
AcDbEntity
  8
FAN70-1305
370
              15
390
0
  6
Continuous
 62
               7
100
AcDbVertex
100
AcDb2dVertex
 10
-10.428089628189525
 20
708.70985616699954
 30
0.0
  0
VERTEX
  5
227
100
AcDbEntity
  8
FAN70-1305
370
              15
390
0
  6
Continuous
 62
               7
100
AcDbVertex
100
AcDb2dVertex
 10
1.4968030357105704
 20
709.2209287429996
 30
0.0
  0
VERTEX
  5
228
100
AcDbEntity
  8
FAN70-1305
370
              15
390
0
  6
Continuous
 62
               7
100
AcDbVertex
100
AcDb2dVertex
 10
12.632306685410697
 20
709.75844342959954
 30
0.0
  0
VERTEX
  5
229
100
AcDbEntity
  8
FAN70-1305
370
              15
390
0
  6
Continuous
 62
               7
100
AcDbVertex
100
AcDb2dVertex
 10
22.917624583210511
 20
710.31960625899933
 30
0.0
  0
SEQEND
  5
22A
100
AcDbEntity
  8
FAN70-1305
370
              15
390
0
  6
Continuous
 62
               7
  0
POLYLINE
  5
22B
100
AcDbEntity
  8
FAN70-1305
370
              15
390
0
  6
Continuous
 62
               7
100
AcDb2dPolyline
 66
               1
 10
0.0
 20
0.0
 30
0.0
 75
               5
  0
VERTEX
  5
22C
100
AcDbEntity
  8
FAN70-1305
370
              15
390
0
  6
Continuous
 62
               7
100
AcDbVertex
100
AcDb2dVertex
 10
-2.4403668737892872
 20
729.88816131599947
 30
0.0
  0
VERTEX
  5
22D
100
AcDbEntity
  8
FAN70-1305
370
              15
390
0
  6
Continuous
 62
               7
100
AcDbVertex
100
AcDb2dVertex
 10
2.9299818182105923
 20
729.48352773439956
 30
0.0
  0
VERTEX
  5
22E
100
AcDbEntity
  8
FAN70-1305
370
              15
390
0
  6
Continuous
 62
               7
100
AcDbVertex
100
AcDb2dVertex
 10
8.1582181358106141
 20
728.20468027839956
 30
0.0
  0
VERTEX
  5
22F
100
AcDbEntity
  8
FAN70-1305
370
              15
390
0
  6
Continuous
 62
               7
100
AcDbVertex
100
AcDb2dVertex
 10
11.965092291810663
 20
726.5809826994996
 30
0.0
  0
VERTEX
  5
230
100
AcDbEntity
  8
FAN70-1305
370
              15
390
0
  6
Continuous
 62
               7
100
AcDbVertex
100
AcDb2dVertex
 10
15.462558736810649
 20
724.37309254659931
 30
0.0
  0
VERTEX
  5
231
100
AcDbEntity
  8
FAN70-1305
370
              15
390
0
  6
Continuous
 62
               7
100
AcDbVertex
100
AcDb2dVertex
 10
17.993968000410689
 20
722.11113353029941
 30
0.0
  0
VERTEX
  5
232
100
AcDbEntity
  8
FAN70-1305
370
              15
390
0
  6
Continuous
 62
               7
100
AcDbVertex
100
AcDb2dVertex
 10
20.113673081410582
 20
719.46197529089955
 30
0.0
  0
VERTEX
  5
233
100
AcDbEntity
  8
FAN70-1305
370
              15
390
0
  6
Continuous
 62
               7
100
AcDbVertex
100
AcDb2dVertex
 10
21.065186729410641
 20
717.84467031009945
 30
0.0
  0
VERTEX
  5
234
100
AcDbEntity
  8
FAN70-1305
370
              15
390
0
  6
Continuous
 62
               7
100
AcDbVertex
100
AcDb2dVertex
 10
22.02507483001051
 20
715.61551620019964
 30
0.0
  0
VERTEX
  5
235
100
AcDbEntity
  8
FAN70-1305
370
              15
390
0
  6
Continuous
 62
               7
100
AcDbVertex
100
AcDb2dVertex
 10
22.649552693310682
 20
713.27046085849929
 30
0.0
  0
VERTEX
  5
236
100
AcDbEntity
  8
FAN70-1305
370
              15
390
0
  6
Continuous
 62
               7
100
AcDbVertex
100
AcDb2dVertex
 10
22.917624583210511
 20
710.31960625899933
 30
0.0
  0
SEQEND
  5
237
100
AcDbEntity
  8
FAN70-1305
370
              15
390
0
  6
Continuous
 62
               7
  0
POLYLINE
  5
238
100
AcDbEntity
  8
FAN70-1305
370
              15
390
0
  6
Continuous
 62
               7
100
AcDb2dPolyline
 66
               1
 10
0.0
 20
0.0
 30
0.0
 75
               5
  0
VERTEX
  5
239
100
AcDbEntity
  8
FAN70-1305
370
              15
390
0
  6
Continuous
 62
               7
100
AcDbVertex
100
AcDb2dVertex
 10
-2.4403668737892872
 20
729.88816131599947
 30
0.0
  0
VERTEX
  5
23A
100
AcDbEntity
  8
FAN70-1305
370
              15
390
0
  6
Continuous
 62
               7
100
AcDbVertex
100
AcDb2dVertex
 10
-13.056132922189306
 20
729.42673940909958
 30
0.0
  0
VERTEX
  5
23B
100
AcDbEntity
  8
FAN70-1305
370
              15
390
0
  6
Continuous
 62
               7
100
AcDbVertex
100
AcDb2dVertex
 10
-24.464953670489365
 20
728.98822803749931
 30
0.0
  0
VERTEX
  5
23C
100
AcDbEntity
  8
FAN70-1305
370
              15
390
0
  6
Continuous
 62
               7
100
AcDbVertex
100
AcDb2dVertex
 10
-36.603245863889413
 20
728.57504118929955
 30
0.0
  0
VERTEX
  5
23D
100
AcDbEntity
  8
FAN70-1305
370
              15
390
0
  6
Continuous
 62
               7
100
AcDbVertex
100
AcDb2dVertex
 10
-49.846965799389466
 20
728.17703117379938
 30
0.0
  0
VERTEX
  5
23E
100
AcDbEntity
  8
FAN70-1305
370
              15
390
0
  6
Continuous
 62
               7
100
AcDbVertex
100
AcDb2dVertex
 10
-63.804704675689379
 20
727.8079592133995
 30
0.0
  0
VERTEX
  5
23F
100
AcDbEntity
  8
FAN70-1305
370
              15
390
0
  6
Continuous
 62
               7
100
AcDbVertex
100
AcDb2dVertex
 10
-78.392673263589529
 20
727.4698667669993
 30
0.0
  0
VERTEX
  5
240
100
AcDbEntity
  8
FAN70-1305
370
              15
390
0
  6
Continuous
 62
               7
100
AcDbVertex
100
AcDb2dVertex
 10
-93.527097234789437
 20
727.16480274449941
 30
0.0
  0
VERTEX
  5
241
100
AcDbEntity
  8
FAN70-1305
370
              15
390
0
  6
Continuous
 62
               7
100
AcDbVertex
100
AcDb2dVertex
 10
-105.61129076248932
 20
726.95161183129949
 30
0.0
  0
VERTEX
  5
242
100
AcDbEntity
  8
FAN70-1305
370
              15
390
0
  6
Continuous
 62
               7
100
AcDbVertex
100
AcDb2dVertex
 10
-117.98350883488951
 20
726.75891001469927
 30
0.0
  0
VERTEX
  5
243
100
AcDbEntity
  8
FAN70-1305
370
              15
390
0
  6
Continuous
 62
               7
100
AcDbVertex
100
AcDb2dVertex
 10
-130.60039652348945
 20
726.58736784709959
 30
0.0
  0
VERTEX
  5
244
100
AcDbEntity
  8
FAN70-1305
370
              15
390
0
  6
Continuous
 62
               7
100
AcDbVertex
100
AcDb2dVertex
 10
-149.08952636478938
 20
726.37927313099931
 30
0.0
  0
VERTEX
  5
245
100
AcDbEntity
  8
FAN70-1305
370
              15
390
0
  6
Continuous
 62
               7
100
AcDbVertex
100
AcDb2dVertex
 10
-168.01676152108945
 20
726.21596385489943
 30
0.0
  0
VERTEX
  5
246
100
AcDbEntity
  8
FAN70-1305
370
              15
390
0
  6
Continuous
 62
               7
100
AcDbVertex
100
AcDb2dVertex
 10
-187.24429605368954
 20
726.09826703319959
 30
0.0
  0
VERTEX
  5
247
100
AcDbEntity
  8
FAN70-1305
370
              15
390
0
  6
Continuous
 62
               7
100
AcDbVertex
100
AcDb2dVertex
 10
-206.63433333698936
 20
726.02703203209944
 30
0.0
  0
VERTEX
  5
248
100
AcDbEntity
  8
FAN70-1305
370
              15
390
0
  6
Continuous
 62
               7
100
AcDbVertex
100
AcDb2dVertex
 10
-226.04906929498952
 20
726.00310076719938
 30
0.0
  0
SEQEND
  5
249
100
AcDbEntity
  8
FAN70-1305
370
              15
390
0
  6
Continuous
 62
               7
  0
POLYLINE
  5
24A
100
AcDbEntity
  8
FAN70-1305
370
              15
390
0
  6
Continuous
 62
               7
100
AcDb2dPolyline
 66
               1
 10
0.0
 20
0.0
 30
0.0
 75
               5
  0
VERTEX
  5
24B
100
AcDbEntity
  8
FAN70-1305
370
              15
390
0
  6
Continuous
 62
               7
100
AcDbVertex
100
AcDb2dVertex
 10
-449.65777171608943
 20
729.88816131599947
 30
0.0
  0
VERTEX
  5
24C
100
AcDbEntity
  8
FAN70-1305
370
              15
390
0
  6
Continuous
 62
               7
100
AcDbVertex
100
AcDb2dVertex
 10
-455.02812040808953
 20
729.48352773439956
 30
0.0
  0
VERTEX
  5
24D
100
AcDbEntity
  8
FAN70-1305
370
              15
390
0
  6
Continuous
 62
               7
100
AcDbVertex
100
AcDb2dVertex
 10
-460.25635672568956
 20
728.20468027839956
 30
0.0
  0
VERTEX
  5
24E
100
AcDbEntity
  8
FAN70-1305
370
              15
390
0
  6
Continuous
 62
               7
100
AcDbVertex
100
AcDb2dVertex
 10
-464.06323088168961
 20
726.5809826994996
 30
0.0
  0
VERTEX
  5
24F
100
AcDbEntity
  8
FAN70-1305
370
              15
390
0
  6
Continuous
 62
               7
100
AcDbVertex
100
AcDb2dVertex
 10
-467.56069732668948
 20
724.37309254659931
 30
0.0
  0
VERTEX
  5
250
100
AcDbEntity
  8
FAN70-1305
370
              15
390
0
  6
Continuous
 62
               7
100
AcDbVertex
100
AcDb2dVertex
 10
-470.0921065902894
 20
722.11113353029941
 30
0.0
  0
VERTEX
  5
251
100
AcDbEntity
  8
FAN70-1305
370
              15
390
0
  6
Continuous
 62
               7
100
AcDbVertex
100
AcDb2dVertex
 10
-472.21181167128952
 20
719.46197529089955
 30
0.0
  0
VERTEX
  5
252
100
AcDbEntity
  8
FAN70-1305
370
              15
390
0
  6
Continuous
 62
               7
100
AcDbVertex
100
AcDb2dVertex
 10
-473.16332531928924
 20
717.84467031009945
 30
0.0
  0
VERTEX
  5
253
100
AcDbEntity
  8
FAN70-1305
370
              15
390
0
  6
Continuous
 62
               7
100
AcDbVertex
100
AcDb2dVertex
 10
-474.12321341988923
 20
715.61551620019964
 30
0.0
  0
VERTEX
  5
254
100
AcDbEntity
  8
FAN70-1305
370
              15
390
0
  6
Continuous
 62
               7
100
AcDbVertex
100
AcDb2dVertex
 10
-474.74769128328944
 20
713.27046085849929
 30
0.0
  0
VERTEX
  5
255
100
AcDbEntity
  8
FAN70-1305
370
              15
390
0
  6
Continuous
 62
               7
100
AcDbVertex
100
AcDb2dVertex
 10
-475.01576317308945
 20
710.31960625899933
 30
0.0
  0
SEQEND
  5
256
100
AcDbEntity
  8
FAN70-1305
370
              15
390
0
  6
Continuous
 62
               7
  0
POLYLINE
  5
257
100
AcDbEntity
  8
FAN70-1305
370
              15
390
0
  6
Continuous
 62
               7
100
AcDb2dPolyline
 66
               1
 10
0.0
 20
0.0
 30
0.0
 75
               5
  0
VERTEX
  5
258
100
AcDbEntity
  8
FAN70-1305
370
              15
390
0
  6
Continuous
 62
               7
100
AcDbVertex
100
AcDb2dVertex
 10
-226.04906929498952
 20
705.14289815679945
 30
0.0
  0
VERTEX
  5
259
100
AcDbEntity
  8
FAN70-1305
370
              15
390
0
  6
Continuous
 62
               7
100
AcDbVertex
100
AcDb2dVertex
 10
-229.05027049428941
 20
705.14347930199938
 30
0.0
  0
VERTEX
  5
25A
100
AcDbEntity
  8
FAN70-1305
370
              15
390
0
  6
Continuous
 62
               7
100
AcDbVertex
100
AcDb2dVertex
 10
-249.24718400298934
 20
705.1783852720996
 30
0.0
  0
VERTEX
  5
25B
100
AcDbEntity
  8
FAN70-1305
370
              15
390
0
  6
Continuous
 62
               7
100
AcDbVertex
100
AcDb2dVertex
 10
-269.40624786378953
 20
705.26673425689955
 30
0.0
  0
VERTEX
  5
25C
100
AcDbEntity
  8
FAN70-1305
370
              15
390
0
  6
Continuous
 62
               7
100
AcDbVertex
100
AcDb2dVertex
 10
-289.39227385288928
 20
705.40760983479959
 30
0.0
  0
VERTEX
  5
25D
100
AcDbEntity
  8
FAN70-1305
370
              15
390
0
  6
Continuous
 62
               7
100
AcDbVertex
100
AcDb2dVertex
 10
-309.07007677318938
 20
705.60007323279956
 30
0.0
  0
VERTEX
  5
25E
100
AcDbEntity
  8
FAN70-1305
370
              15
390
0
  6
Continuous
 62
               7
100
AcDbVertex
100
AcDb2dVertex
 10
-328.30445093868957
 20
705.84320057879927
 30
0.0
  0
VERTEX
  5
25F
100
AcDbEntity
  8
FAN70-1305
370
              15
390
0
  6
Continuous
 62
               7
100
AcDbVertex
100
AcDb2dVertex
 10
-341.82185305118946
 20
706.04888875729944
 30
0.0
  0
VERTEX
  5
260
100
AcDbEntity
  8
FAN70-1305
370
              15
390
0
  6
Continuous
 62
               7
100
AcDbVertex
100
AcDb2dVertex
 10
-355.0771213865894
 20
706.27999086629939
 30
0.0
  0
VERTEX
  5
261
100
AcDbEntity
  8
FAN70-1305
370
              15
390
0
  6
Continuous
 62
               7
100
AcDbVertex
100
AcDb2dVertex
 10
-368.02377177238941
 20
706.53569479239945
 30
0.0
  0
VERTEX
  5
262
100
AcDbEntity
  8
FAN70-1305
370
              15
390
0
  6
Continuous
 62
               7
100
AcDbVertex
100
AcDb2dVertex
 10
-384.24015415668941
 20
706.90169711359954
 30
0.0
  0
VERTEX
  5
263
100
AcDbEntity
  8
FAN70-1305
370
              15
390
0
  6
Continuous
 62
               7
100
AcDbVertex
100
AcDb2dVertex
 10
-399.8709209060894
 20
707.30738867769946
 30
0.0
  0
VERTEX
  5
264
100
AcDbEntity
  8
FAN70-1305
370
              15
390
0
  6
Continuous
 62
               7
100
AcDbVertex
100
AcDb2dVertex
 10
-414.8263074254894
 20
707.75031824359962
 30
0.0
  0
VERTEX
  5
265
100
AcDbEntity
  8
FAN70-1305
370
              15
390
0
  6
Continuous
 62
               7
100
AcDbVertex
100
AcDb2dVertex
 10
-429.01654911998935
 20
708.22802711969939
 30
0.0
  0
VERTEX
  5
266
100
AcDbEntity
  8
FAN70-1305
370
              15
390
0
  6
Continuous
 62
               7
100
AcDbVertex
100
AcDb2dVertex
 10
-441.67004896168942
 20
708.70985616699954
 30
0.0
  0
VERTEX
  5
267
100
AcDbEntity
  8
FAN70-1305
370
              15
390
0
  6
Continuous
 62
               7
100
AcDbVertex
100
AcDb2dVertex
 10
-453.5949416255894
 20
709.2209287429996
 30
0.0
  0
VERTEX
  5
268
100
AcDbEntity
  8
FAN70-1305
370
              15
390
0
  6
Continuous
 62
               7
100
AcDbVertex
100
AcDb2dVertex
 10
-464.73044527528941
 20
709.75844342959954
 30
0.0
  0
VERTEX
  5
269
100
AcDbEntity
  8
FAN70-1305
370
              15
390
0
  6
Continuous
 62
               7
100
AcDbVertex
100
AcDb2dVertex
 10
-475.01576317308945
 20
710.31960625899933
 30
0.0
  0
SEQEND
  5
26A
100
AcDbEntity
  8
FAN70-1305
370
              15
390
0
  6
Continuous
 62
               7
  0
POLYLINE
  5
26B
100
AcDbEntity
  8
FAN70-1305
370
              15
390
0
  6
Continuous
 62
               7
100
AcDb2dPolyline
 66
               1
 10
0.0
 20
0.0
 30
0.0
 75
               5
  0
VERTEX
  5
26C
100
AcDbEntity
  8
FAN70-1305
370
              15
390
0
  6
Continuous
 62
               7
100
AcDbVertex
100
AcDb2dVertex
 10
-449.65777171608943
 20
729.88816131599947
 30
0.0
  0
VERTEX
  5
26D
100
AcDbEntity
  8
FAN70-1305
370
              15
390
0
  6
Continuous
 62
               7
100
AcDbVertex
100
AcDb2dVertex
 10
-439.04200566768918
 20
729.42673940909958
 30
0.0
  0
VERTEX
  5
26E
100
AcDbEntity
  8
FAN70-1305
370
              15
390
0
  6
Continuous
 62
               7
100
AcDbVertex
100
AcDb2dVertex
 10
-427.63318491938935
 20
728.98822803749931
 30
0.0
  0
VERTEX
  5
26F
100
AcDbEntity
  8
FAN70-1305
370
              15
390
0
  6
Continuous
 62
               7
100
AcDbVertex
100
AcDb2dVertex
 10
-415.49489272598953
 20
728.57504118929955
 30
0.0
  0
VERTEX
  5
270
100
AcDbEntity
  8
FAN70-1305
370
              15
390
0
  6
Continuous
 62
               7
100
AcDbVertex
100
AcDb2dVertex
 10
-402.25117279058941
 20
728.17703117379938
 30
0.0
  0
VERTEX
  5
271
100
AcDbEntity
  8
FAN70-1305
370
              15
390
0
  6
Continuous
 62
               7
100
AcDbVertex
100
AcDb2dVertex
 10
-388.29343391418934
 20
727.8079592133995
 30
0.0
  0
VERTEX
  5
272
100
AcDbEntity
  8
FAN70-1305
370
              15
390
0
  6
Continuous
 62
               7
100
AcDbVertex
100
AcDb2dVertex
 10
-373.70546532628941
 20
727.4698667669993
 30
0.0
  0
VERTEX
  5
273
100
AcDbEntity
  8
FAN70-1305
370
              15
390
0
  6
Continuous
 62
               7
100
AcDbVertex
100
AcDb2dVertex
 10
-358.57104135518944
 20
727.16480274449941
 30
0.0
  0
VERTEX
  5
274
100
AcDbEntity
  8
FAN70-1305
370
              15
390
0
  6
Continuous
 62
               7
100
AcDbVertex
100
AcDb2dVertex
 10
-346.48684782748956
 20
726.95161183129949
 30
0.0
  0
VERTEX
  5
275
100
AcDbEntity
  8
FAN70-1305
370
              15
390
0
  6
Continuous
 62
               7
100
AcDbVertex
100
AcDb2dVertex
 10
-334.11462975498966
 20
726.75891001469927
 30
0.0
  0
VERTEX
  5
276
100
AcDbEntity
  8
FAN70-1305
370
              15
390
0
  6
Continuous
 62
               7
100
AcDbVertex
100
AcDb2dVertex
 10
-321.49774206638949
 20
726.58736784709959
 30
0.0
  0
VERTEX
  5
277
100
AcDbEntity
  8
FAN70-1305
370
              15
390
0
  6
Continuous
 62
               7
100
AcDbVertex
100
AcDb2dVertex
 10
-303.00861222508956
 20
726.37927313099931
 30
0.0
  0
VERTEX
  5
278
100
AcDbEntity
  8
FAN70-1305
370
              15
390
0
  6
Continuous
 62
               7
100
AcDbVertex
100
AcDb2dVertex
 10
-284.08137706878938
 20
726.21596385489943
 30
0.0
  0
VERTEX
  5
279
100
AcDbEntity
  8
FAN70-1305
370
              15
390
0
  6
Continuous
 62
               7
100
AcDbVertex
100
AcDb2dVertex
 10
-264.8538425361894
 20
726.09826703319959
 30
0.0
  0
VERTEX
  5
27A
100
AcDbEntity
  8
FAN70-1305
370
              15
390
0
  6
Continuous
 62
               7
100
AcDbVertex
100
AcDb2dVertex
 10
-245.46380525288941
 20
726.02703203209944
 30
0.0
  0
VERTEX
  5
27B
100
AcDbEntity
  8
FAN70-1305
370
              15
390
0
  6
Continuous
 62
               7
100
AcDbVertex
100
AcDb2dVertex
 10
-226.04906929498952
 20
726.00310076719938
 30
0.0
  0
SEQEND
  5
27C
100
AcDbEntity
  8
FAN70-1305
370
              15
390
0
  6
Continuous
 62
               7
  0
LINE
  5
27D
100
AcDbEntity
  8
FAN70-1305
370
              15
390
0
  6
Continuous
 62
               7
100
AcDbLine
 10
-449.83393734328001
 20
729.98918863741824
 30
0.0
 11
-2.6165306495800564
 21
729.98918863741824
 31
0.0
  0
POLYLINE
  5
27E
100
AcDbEntity
  8
FAN70-1305
370
              15
390
0
  6
Continuous
 62
               7
100
AcDb2dPolyline
 66
               1
 10
0.0
 20
0.0
 30
0.0
 75
               5
  0
VERTEX
  5
27F
100
AcDbEntity
  8
FAN70-1305
370
              15
390
0
  6
Continuous
 62
               7
100
AcDbVertex
100
AcDb2dVertex
 10
-226.04906929498952
 20
727.7671374822994
 30
0.0
  0
VERTEX
  5
280
100
AcDbEntity
  8
FAN70-1305
370
              15
390
0
  6
Continuous
 62
               7
100
AcDbVertex
100
AcDb2dVertex
 10
-223.17108416768929
 20
727.77333636529943
 30
0.0
  0
VERTEX
  5
281
100
AcDbEntity
  8
FAN70-1305
370
              15
390
0
  6
Continuous
 62
               7
100
AcDbVertex
100
AcDb2dVertex
 10
-220.33672638078951
 20
727.79185105809938
 30
0.0
  0
VERTEX
  5
282
100
AcDbEntity
  8
FAN70-1305
370
              15
390
0
  6
Continuous
 62
               7
100
AcDbVertex
100
AcDb2dVertex
 10
-217.58896110418937
 20
727.82238353739945
 30
0.0
  0
VERTEX
  5
283
100
AcDbEntity
  8
FAN70-1305
370
              15
390
0
  6
Continuous
 62
               7
100
AcDbVertex
100
AcDb2dVertex
 10
-214.96944313708923
 20
727.8644867683995
 30
0.0
  0
VERTEX
  5
284
100
AcDbEntity
  8
FAN70-1305
370
              15
390
0
  6
Continuous
 62
               7
100
AcDbVertex
100
AcDb2dVertex
 10
-212.51788174568946
 20
727.9175200009995
 30
0.0
  0
VERTEX
  5
285
100
AcDbEntity
  8
FAN70-1305
370
              15
390
0
  6
Continuous
 62
               7
100
AcDbVertex
100
AcDb2dVertex
 10
-210.27143856348948
 20
727.98067112219951
 30
0.0
  0
VERTEX
  5
286
100
AcDbEntity
  8
FAN70-1305
370
              15
390
0
  6
Continuous
 62
               7
100
AcDbVertex
100
AcDb2dVertex
 10
-208.26416833168946
 20
728.05299390799951
 30
0.0
  0
VERTEX
  5
287
100
AcDbEntity
  8
FAN70-1305
370
              15
390
0
  6
Continuous
 62
               7
100
AcDbVertex
100
AcDb2dVertex
 10
-206.52649922138949
 20
728.13337822209951
 30
0.0
  0
VERTEX
  5
288
100
AcDbEntity
  8
FAN70-1305
370
              15
390
0
  6
Continuous
 62
               7
100
AcDbVertex
100
AcDb2dVertex
 10
-205.08477089768934
 20
728.22062452089949
 30
0.0
  0
VERTEX
  5
289
100
AcDbEntity
  8
FAN70-1305
370
              15
390
0
  6
Continuous
 62
               7
100
AcDbVertex
100
AcDb2dVertex
 10
-203.96084150138921
 20
728.31339169989928
 30
0.0
  0
VERTEX
  5
28A
100
AcDbEntity
  8
FAN70-1305
370
              15
390
0
  6
Continuous
 62
               7
100
AcDbVertex
100
AcDb2dVertex
 10
-203.1717467850894
 20
728.41027904999942
 30
0.0
  0
VERTEX
  5
28B
100
AcDbEntity
  8
FAN70-1305
370
              15
390
0
  6
Continuous
 62
               7
100
AcDbVertex
100
AcDb2dVertex
 10
-202.72944865588937
 20
728.50982625729944
 30
0.0
  0
VERTEX
  5
28C
100
AcDbEntity
  8
FAN70-1305
370
              15
390
0
  6
Continuous
 62
               7
100
AcDbVertex
100
AcDb2dVertex
 10
-202.64065263628942
 20
728.61051340349945
 30
0.0
  0
VERTEX
  5
28D
100
AcDbEntity
  8
FAN70-1305
370
              15
390
0
  6
Continuous
 62
               7
100
AcDbVertex
100
AcDb2dVertex
 10
-202.90670541888932
 20
728.71082057009949
 30
0.0
  0
VERTEX
  5
28E
100
AcDbEntity
  8
FAN70-1305
370
              15
390
0
  6
Continuous
 62
               7
100
AcDbVertex
100
AcDb2dVertex
 10
-203.52357065138932
 20
728.8092203879994
 30
0.0
  0
VERTEX
  5
28F
100
AcDbEntity
  8
FAN70-1305
370
              15
390
0
  6
Continuous
 62
               7
100
AcDbVertex
100
AcDb2dVertex
 10
-204.48190158068923
 20
728.90423019179957
 30
0.0
  0
VERTEX
  5
290
100
AcDbEntity
  8
FAN70-1305
370
              15
390
0
  6
Continuous
 62
               7
100
AcDbVertex
100
AcDb2dVertex
 10
-205.7671677118895
 20
728.99440456879938
 30
0.0
  0
VERTEX
  5
291
100
AcDbEntity
  8
FAN70-1305
370
              15
390
0
  6
Continuous
 62
               7
100
AcDbVertex
100
AcDb2dVertex
 10
-207.35988577668945
 20
729.07838006269958
 30
0.0
  0
VERTEX
  5
292
100
AcDbEntity
  8
FAN70-1305
370
              15
390
0
  6
Continuous
 62
               7
100
AcDbVertex
100
AcDb2dVertex
 10
-209.23591403128944
 20
729.15487517369957
 30
0.0
  0
VERTEX
  5
293
100
AcDbEntity
  8
FAN70-1305
370
              15
390
0
  6
Continuous
 62
               7
100
AcDbVertex
100
AcDb2dVertex
 10
-211.36681267828953
 20
729.22274251229942
 30
0.0
  0
VERTEX
  5
294
100
AcDbEntity
  8
FAN70-1305
370
              15
390
0
  6
Continuous
 62
               7
100
AcDbVertex
100
AcDb2dVertex
 10
-213.72027879418943
 20
729.28094644799944
 30
0.0
  0
VERTEX
  5
295
100
AcDbEntity
  8
FAN70-1305
370
              15
390
0
  6
Continuous
 62
               7
100
AcDbVertex
100
AcDb2dVertex
 10
-216.26063713638951
 20
729.32860036149941
 30
0.0
  0
VERTEX
  5
296
100
AcDbEntity
  8
FAN70-1305
370
              15
390
0
  6
Continuous
 62
               7
100
AcDbVertex
100
AcDb2dVertex
 10
-218.94937798218939
 20
729.36498899709954
 30
0.0
  0
VERTEX
  5
297
100
AcDbEntity
  8
FAN70-1305
370
              15
390
0
  6
Continuous
 62
               7
100
AcDbVertex
100
AcDb2dVertex
 10
-221.7457429303895
 20
729.38956101189956
 30
0.0
  0
VERTEX
  5
298
100
AcDbEntity
  8
FAN70-1305
370
              15
390
0
  6
Continuous
 62
               7
100
AcDbVertex
100
AcDb2dVertex
 10
-224.60734225178953
 20
729.4019438768994
 30
0.0
  0
VERTEX
  5
299
100
AcDbEntity
  8
FAN70-1305
370
              15
390
0
  6
Continuous
 62
               7
100
AcDbVertex
100
AcDb2dVertex
 10
-227.49079633808947
 20
729.4019438768994
 30
0.0
  0
VERTEX
  5
29A
100
AcDbEntity
  8
FAN70-1305
370
              15
390
0
  6
Continuous
 62
               7
100
AcDbVertex
100
AcDb2dVertex
 10
-230.35239565958955
 20
729.38956101189956
 30
0.0
  0
VERTEX
  5
29B
100
AcDbEntity
  8
FAN70-1305
370
              15
390
0
  6
Continuous
 62
               7
100
AcDbVertex
100
AcDb2dVertex
 10
-233.14876060768938
 20
729.36498899709954
 30
0.0
  0
VERTEX
  5
29C
100
AcDbEntity
  8
FAN70-1305
370
              15
390
0
  6
Continuous
 62
               7
100
AcDbVertex
100
AcDb2dVertex
 10
-235.83750145348927
 20
729.32860036149941
 30
0.0
  0
VERTEX
  5
29D
100
AcDbEntity
  8
FAN70-1305
370
              15
390
0
  6
Continuous
 62
               7
100
AcDbVertex
100
AcDb2dVertex
 10
-238.37785979568957
 20
729.28094644799944
 30
0.0
  0
VERTEX
  5
29E
100
AcDbEntity
  8
FAN70-1305
370
              15
390
0
  6
Continuous
 62
               7
100
AcDbVertex
100
AcDb2dVertex
 10
-240.73132591158947
 20
729.22274251229942
 30
0.0
  0
VERTEX
  5
29F
100
AcDbEntity
  8
FAN70-1305
370
              15
390
0
  6
Continuous
 62
               7
100
AcDbVertex
100
AcDb2dVertex
 10
-242.86222455858956
 20
729.15487517369957
 30
0.0
  0
VERTEX
  5
2A0
100
AcDbEntity
  8
FAN70-1305
370
              15
390
0
  6
Continuous
 62
               7
100
AcDbVertex
100
AcDb2dVertex
 10
-244.73825281318955
 20
729.07838006269958
 30
0.0
  0
VERTEX
  5
2A1
100
AcDbEntity
  8
FAN70-1305
370
              15
390
0
  6
Continuous
 62
               7
100
AcDbVertex
100
AcDb2dVertex
 10
-246.33097087798933
 20
728.99440456879938
 30
0.0
  0
VERTEX
  5
2A2
100
AcDbEntity
  8
FAN70-1305
370
              15
390
0
  6
Continuous
 62
               7
100
AcDbVertex
100
AcDb2dVertex
 10
-247.61623700918949
 20
728.90423019179957
 30
0.0
  0
VERTEX
  5
2A3
100
AcDbEntity
  8
FAN70-1305
370
              15
390
0
  6
Continuous
 62
               7
100
AcDbVertex
100
AcDb2dVertex
 10
-248.57456793848951
 20
728.8092203879994
 30
0.0
  0
VERTEX
  5
2A4
100
AcDbEntity
  8
FAN70-1305
370
              15
390
0
  6
Continuous
 62
               7
100
AcDbVertex
100
AcDb2dVertex
 10
-249.19143317108956
 20
728.71082057009949
 30
0.0
  0
VERTEX
  5
2A5
100
AcDbEntity
  8
FAN70-1305
370
              15
390
0
  6
Continuous
 62
               7
100
AcDbVertex
100
AcDb2dVertex
 10
-249.45748595358941
 20
728.61051340349945
 30
0.0
  0
VERTEX
  5
2A6
100
AcDbEntity
  8
FAN70-1305
370
              15
390
0
  6
Continuous
 62
               7
100
AcDbVertex
100
AcDb2dVertex
 10
-249.36868993398957
 20
728.50982625729944
 30
0.0
  0
VERTEX
  5
2A7
100
AcDbEntity
  8
FAN70-1305
370
              15
390
0
  6
Continuous
 62
               7
100
AcDbVertex
100
AcDb2dVertex
 10
-248.92639180478932
 20
728.41027904999942
 30
0.0
  0
VERTEX
  5
2A8
100
AcDbEntity
  8
FAN70-1305
370
              15
390
0
  6
Continuous
 62
               7
100
AcDbVertex
100
AcDb2dVertex
 10
-248.1372970884895
 20
728.31339169989928
 30
0.0
  0
VERTEX
  5
2A9
100
AcDbEntity
  8
FAN70-1305
370
              15
390
0
  6
Continuous
 62
               7
100
AcDbVertex
100
AcDb2dVertex
 10
-247.01336769228942
 20
728.22062452089949
 30
0.0
  0
VERTEX
  5
2AA
100
AcDbEntity
  8
FAN70-1305
370
              15
390
0
  6
Continuous
 62
               7
100
AcDbVertex
100
AcDb2dVertex
 10
-245.57163936858956
 20
728.13337822209951
 30
0.0
  0
VERTEX
  5
2AB
100
AcDbEntity
  8
FAN70-1305
370
              15
390
0
  6
Continuous
 62
               7
100
AcDbVertex
100
AcDb2dVertex
 10
-243.83397025828958
 20
728.05299390799951
 30
0.0
  0
VERTEX
  5
2AC
100
AcDbEntity
  8
FAN70-1305
370
              15
390
0
  6
Continuous
 62
               7
100
AcDbVertex
100
AcDb2dVertex
 10
-241.82670002638929
 20
727.98067112219951
 30
0.0
  0
VERTEX
  5
2AD
100
AcDbEntity
  8
FAN70-1305
370
              15
390
0
  6
Continuous
 62
               7
100
AcDbVertex
100
AcDb2dVertex
 10
-239.58025684418953
 20
727.9175200009995
 30
0.0
  0
VERTEX
  5
2AE
100
AcDbEntity
  8
FAN70-1305
370
              15
390
0
  6
Continuous
 62
               7
100
AcDbVertex
100
AcDb2dVertex
 10
-237.12869545278932
 20
727.8644867683995
 30
0.0
  0
VERTEX
  5
2AF
100
AcDbEntity
  8
FAN70-1305
370
              15
390
0
  6
Continuous
 62
               7
100
AcDbVertex
100
AcDb2dVertex
 10
-234.50917748568941
 20
727.82238353739945
 30
0.0
  0
VERTEX
  5
2B0
100
AcDbEntity
  8
FAN70-1305
370
              15
390
0
  6
Continuous
 62
               7
100
AcDbVertex
100
AcDb2dVertex
 10
-231.7614122091893
 20
727.79185105809938
 30
0.0
  0
VERTEX
  5
2B1
100
AcDbEntity
  8
FAN70-1305
370
              15
390
0
  6
Continuous
 62
               7
100
AcDbVertex
100
AcDb2dVertex
 10
-228.92705442218949
 20
727.77333636529943
 30
0.0
  0
VERTEX
  5
2B2
100
AcDbEntity
  8
FAN70-1305
370
              15
390
0
  6
Continuous
 62
               7
100
AcDbVertex
100
AcDb2dVertex
 10
-226.04906929498952
 20
727.7671374822994
 30
0.0
  0
SEQEND
  5
2B3
100
AcDbEntity
  8
FAN70-1305
370
              15
390
0
  6
Continuous
 62
               7
  0
LINE
  5
2B4
100
AcDbEntity
  8
FAN70-1305
370
              15
390
0
  6
Continuous
 62
               7
100
AcDbLine
 10
-4.0709322442893949
 20
470.09537198729953
 30
0.0
 11
-448.02720634558955
 21
470.09537198729953
 31
0.0
  0
POLYLINE
  5
2B5
100
AcDbEntity
  8
FAN70-1305
370
              15
390
0
  6
Continuous
 62
               7
100
AcDb2dPolyline
 66
               1
 10
0.0
 20
0.0
 30
0.0
 75
               5
  0
VERTEX
  5
2B6
100
AcDbEntity
  8
FAN70-1305
370
              15
390
0
  6
Continuous
 62
               7
100
AcDbVertex
100
AcDb2dVertex
 10
-477.92002929208934
 20
710.3178479219996
 30
0.0
  0
VERTEX
  5
2B7
100
AcDbEntity
  8
FAN70-1305
370
              15
390
0
  6
Continuous
 62
               7
100
AcDbVertex
100
AcDb2dVertex
 10
-477.49290240768937
 20
710.31810869229935
 30
0.0
  0
VERTEX
  5
2B8
100
AcDbEntity
  8
FAN70-1305
370
              15
390
0
  6
Continuous
 62
               7
100
AcDbVertex
100
AcDb2dVertex
 10
-477.07215322018919
 20
710.3183620119994
 30
0.0
  0
VERTEX
  5
2B9
100
AcDbEntity
  8
FAN70-1305
370
              15
390
0
  6
Continuous
 62
               7
100
AcDbVertex
100
AcDb2dVertex
 10
-476.66409982208938
 20
710.31860788119934
 30
0.0
  0
VERTEX
  5
2BA
100
AcDbEntity
  8
FAN70-1305
370
              15
390
0
  6
Continuous
 62
               7
100
AcDbVertex
100
AcDb2dVertex
 10
-476.27479208468935
 20
710.31884629979959
 30
0.0
  0
VERTEX
  5
2BB
100
AcDbEntity
  8
FAN70-1305
370
              15
390
0
  6
Continuous
 62
               7
100
AcDbVertex
100
AcDb2dVertex
 10
-475.91010106568956
 20
710.31906981719953
 30
0.0
  0
VERTEX
  5
2BC
100
AcDbEntity
  8
FAN70-1305
370
              15
390
0
  6
Continuous
 62
               7
100
AcDbVertex
100
AcDb2dVertex
 10
-475.57545078758926
 20
710.3192709828993
 30
0.0
  0
VERTEX
  5
2BD
100
AcDbEntity
  8
FAN70-1305
370
              15
390
0
  6
Continuous
 62
               7
100
AcDbVertex
100
AcDb2dVertex
 10
-475.27584804058961
 20
710.31944979679952
 30
0.0
  0
VERTEX
  5
2BE
100
AcDbEntity
  8
FAN70-1305
370
              15
390
0
  6
Continuous
 62
               7
100
AcDbVertex
100
AcDb2dVertex
 10
-475.01576317308945
 20
710.31960625899933
 30
0.0
  0
SEQEND
  5
2BF
100
AcDbEntity
  8
FAN70-1305
370
              15
390
0
  6
Continuous
 62
               7
  0
ARC
  5
2C0
100
AcDbEntity
  8
FAN70-1305
370
              15
390
0
  6
Continuous
 62
               7
100
AcDbCircle
 10
-728.53056882224632
 20
824.99999999999977
 30
0.0
 40
5.0
100
AcDbArc
 50
90.0
 51
180.0
  0
LINE
  5
2C1
100
AcDbEntity
  8
FAN70-1305
370
              15
390
0
  6
Continuous
 62
               7
100
AcDbLine
 10
61.469431177753734
 20
830.0
 30
0.0
 11
-728.53056882224632
 21
830.0
 31
0.0
  0
ARC
  5
2C2
100
AcDbEntity
  8
FAN70-1305
370
              15
390
0
  6
Continuous
 62
               7
100
AcDbCircle
 10
61.469431177753734
 20
824.99999999999977
 30
0.0
 40
5.0
100
AcDbArc
 50
0.0
 51
90.0
  0
CIRCLE
  5
2C3
100
AcDbEntity
  8
FAN70-1305
370
              15
390
0
  6
Continuous
 62
               7
100
AcDbCircle
 10
-226.04906929498952
 20
780.0061203981993
 30
0.0
 40
18.0
  0
LINE
  5
2C4
100
AcDbEntity
  8
FAN70-1305
370
              15
390
0
  6
Continuous
 62
               7
100
AcDbLine
 10
-733.53056882224632
 20
430.0
 30
0.0
 11
-733.53056882224632
 21
824.99999999999977
 31
0.0
  0
LINE
  5
2C5
100
AcDbEntity
  8
FAN70-1305
370
              15
390
0
  6
Continuous
 62
               7
100
AcDbLine
 10
66.46943117775362
 20
430.0
 30
0.0
 11
66.46943117775362
 21
824.99999999999977
 31
0.0
  0
POLYLINE
  5
2C6
100
AcDbEntity
  8
FAN70-1305
370
              15
390
0
  6
Continuous
 62
               7
100
AcDb2dPolyline
 66
               1
 10
0.0
 20
0.0
 30
0.0
 75
               5
  0
VERTEX
  5
2C7
100
AcDbEntity
  8
FAN70-1305
370
              15
390
0
  6
Continuous
 62
               7
100
AcDbVertex
100
AcDb2dVertex
 10
23.978596988567972
 20
710.31960625899933
 30
0.0
  0
VERTEX
  5
2C8
100
AcDbEntity
  8
FAN70-1305
370
              15
390
0
  6
Continuous
 62
               7
100
AcDbVertex
100
AcDb2dVertex
 10
23.978015843267997
 20
703.31960697419936
 30
0.0
  0
VERTEX
  5
2C9
100
AcDbEntity
  8
FAN70-1305
370
              15
390
0
  6
Continuous
 62
               7
100
AcDbVertex
100
AcDb2dVertex
 10
23.97587007606802
 20
675.31962473639942
 30
0.0
  0
VERTEX
  5
2CA
100
AcDbEntity
  8
FAN70-1305
370
              15
390
0
  6
Continuous
 62
               7
100
AcDbVertex
100
AcDb2dVertex
 10
23.969492379068072
 20
563.31965108169948
 30
0.0
  0
VERTEX
  5
2CB
100
AcDbEntity
  8
FAN70-1305
370
              15
390
0
  6
Continuous
 62
               7
100
AcDbVertex
100
AcDb2dVertex
 10
23.967287007268112
 20
489.72150464309954
 30
0.0
  0
SEQEND
  5
2CC
100
AcDbEntity
  8
FAN70-1305
370
              15
390
0
  6
Continuous
 62
               7
  0
POLYLINE
  5
2CD
100
AcDbEntity
  8
FAN70-1305
370
              15
390
0
  6
Continuous
 62
               7
100
AcDb2dPolyline
 66
               1
 10
0.0
 20
0.0
 30
0.0
 75
               5
  0
VERTEX
  5
2CE
100
AcDbEntity
  8
FAN70-1305
370
              15
390
0
  6
Continuous
 62
               7
100
AcDbVertex
100
AcDb2dVertex
 10
-476.03836798338216
 20
710.31960625899933
 30
0.0
  0
VERTEX
  5
2CF
100
AcDbEntity
  8
FAN70-1305
370
              15
390
0
  6
Continuous
 62
               7
100
AcDbVertex
100
AcDb2dVertex
 10
-476.03778683808218
 20
703.31960697419936
 30
0.0
  0
VERTEX
  5
2D0
100
AcDbEntity
  8
FAN70-1305
370
              15
390
0
  6
Continuous
 62
               7
100
AcDbVertex
100
AcDb2dVertex
 10
-476.03564107088232
 20
675.31962473639942
 30
0.0
  0
VERTEX
  5
2D1
100
AcDbEntity
  8
FAN70-1305
370
              15
390
0
  6
Continuous
 62
               7
100
AcDbVertex
100
AcDb2dVertex
 10
-476.02926337388203
 20
563.31965108169948
 30
0.0
  0
VERTEX
  5
2D2
100
AcDbEntity
  8
FAN70-1305
370
              15
390
0
  6
Continuous
 62
               7
100
AcDbVertex
100
AcDb2dVertex
 10
-476.02705800208196
 20
489.72150464309954
 30
0.0
  0
SEQEND
  5
2D3
100
AcDbEntity
  8
FAN70-1305
370
              15
390
0
  6
Continuous
 62
               7
  0
ARC
  5
2D4
100
AcDbEntity
  8
FAN70-1305
370
              15
390
0
  6
Continuous
 62
               7
100
AcDbCircle
 10
61.469431177753734
 20
430.0
 30
0.0
 40
5.0
100
AcDbArc
 50
270.0
 51
0.0
  0
ARC
  5
2D5
100
AcDbEntity
  8
FAN70-1305
370
              15
390
0
  6
Continuous
 62
               7
100
AcDbCircle
 10
-728.53056882224632
 20
430.0
 30
0.0
 40
5.0
100
AcDbArc
 50
180.0
 51
270.0
  0
LINE
  5
2D6
100
AcDbEntity
  8
FAN70-1305
370
              15
390
0
  6
Continuous
 62
               7
100
AcDbLine
 10
-728.53056882224632
 20
425.0
 30
0.0
 11
61.469431177753734
 21
425.0
 31
0.0
  0
POLYLINE
  5
2D7
100
AcDbEntity
  8
FAN70-1305
370
              15
390
0
  6
Continuous
 62
               7
100
AcDb2dPolyline
 66
               1
 10
0.0
 20
0.0
 30
0.0
 75
               5
  0
VERTEX
  5
2D8
100
AcDbEntity
  8
FAN70-1305
370
              15
390
0
  6
Continuous
 62
               7
100
AcDbVertex
100
AcDb2dVertex
 10
-226.04906929498952
 20
688.1637253308993
 30
0.0
  0
VERTEX
  5
2D9
100
AcDbEntity
  8
FAN70-1305
370
              15
390
0
  6
Continuous
 62
               7
100
AcDbVertex
100
AcDb2dVertex
 10
-231.07406681238945
 20
687.81132776989944
 30
0.0
  0
VERTEX
  5
2DA
100
AcDbEntity
  8
FAN70-1305
370
              15
390
0
  6
Continuous
 62
               7
100
AcDbVertex
100
AcDb2dVertex
 10
-235.9990877827895
 20
686.76587720169937
 30
0.0
  0
VERTEX
  5
2DB
100
AcDbEntity
  8
FAN70-1305
370
              15
390
0
  6
Continuous
 62
               7
100
AcDbVertex
100
AcDb2dVertex
 10
-241.60133672718939
 20
684.62665159949938
 30
0.0
  0
VERTEX
  5
2DC
100
AcDbEntity
  8
FAN70-1305
370
              15
390
0
  6
Continuous
 62
               7
100
AcDbVertex
100
AcDb2dVertex
 10
-246.75413591628944
 20
681.57492358929949
 30
0.0
  0
VERTEX
  5
2DD
100
AcDbEntity
  8
FAN70-1305
370
              15
390
0
  6
Continuous
 62
               7
100
AcDbVertex
100
AcDb2dVertex
 10
-251.21697222648936
 20
677.74225552329949
 30
0.0
  0
VERTEX
  5
2DE
100
AcDbEntity
  8
FAN70-1305
370
              15
390
0
  6
Continuous
 62
               7
100
AcDbVertex
100
AcDb2dVertex
 10
-254.93935307328957
 20
673.19193263299962
 30
0.0
  0
VERTEX
  5
2DF
100
AcDbEntity
  8
FAN70-1305
370
              15
390
0
  6
Continuous
 62
               7
100
AcDbVertex
100
AcDb2dVertex
 10
-257.67422837978938
 20
668.25890321979955
 30
0.0
  0
VERTEX
  5
2E0
100
AcDbEntity
  8
FAN70-1305
370
              15
390
0
  6
Continuous
 62
               7
100
AcDbVertex
100
AcDb2dVertex
 10
-259.49900222778933
 20
662.91811843169944
 30
0.0
  0
VERTEX
  5
2E1
100
AcDbEntity
  8
FAN70-1305
370
              15
390
0
  6
Continuous
 62
               7
100
AcDbVertex
100
AcDb2dVertex
 10
-260.30561698438942
 20
657.61983175529963
 30
0.0
  0
VERTEX
  5
2E2
100
AcDbEntity
  8
FAN70-1305
370
              15
390
0
  6
Continuous
 62
               7
100
AcDbVertex
100
AcDb2dVertex
 10
-260.19484175208936
 20
652.25682933579947
 30
0.0
  0
VERTEX
  5
2E3
100
AcDbEntity
  8
FAN70-1305
370
              15
390
0
  6
Continuous
 62
               7
100
AcDbVertex
100
AcDb2dVertex
 10
-259.20091567398936
 20
647.14522440679957
 30
0.0
  0
VERTEX
  5
2E4
100
AcDbEntity
  8
FAN70-1305
370
              15
390
0
  6
Continuous
 62
               7
100
AcDbVertex
100
AcDb2dVertex
 10
-257.38370416518933
 20
642.26320166839946
 30
0.0
  0
VERTEX
  5
2E5
100
AcDbEntity
  8
FAN70-1305
370
              15
390
0
  6
Continuous
 62
               7
100
AcDbVertex
100
AcDb2dVertex
 10
-254.75933028218924
 20
637.69036312349954
 30
0.0
  0
VERTEX
  5
2E6
100
AcDbEntity
  8
FAN70-1305
370
              15
390
0
  6
Continuous
 62
               7
100
AcDbVertex
100
AcDb2dVertex
 10
-251.44005378548945
 20
633.59375078929952
 30
0.0
  0
VERTEX
  5
2E7
100
AcDbEntity
  8
FAN70-1305
370
              15
390
0
  6
Continuous
 62
               7
100
AcDbVertex
100
AcDb2dVertex
 10
-247.33346698638934
 20
629.93322093739948
 30
0.0
  0
VERTEX
  5
2E8
100
AcDbEntity
  8
FAN70-1305
370
              15
390
0
  6
Continuous
 62
               7
100
AcDbVertex
100
AcDb2dVertex
 10
-242.69601141868952
 20
626.97237510929949
 30
0.0
  0
VERTEX
  5
2E9
100
AcDbEntity
  8
FAN70-1305
370
              15
390
0
  6
Continuous
 62
               7
100
AcDbVertex
100
AcDb2dVertex
 10
-237.39877806818959
 20
624.6979959750995
 30
0.0
  0
VERTEX
  5
2EA
100
AcDbEntity
  8
FAN70-1305
370
              15
390
0
  6
Continuous
 62
               7
100
AcDbVertex
100
AcDb2dVertex
 10
-231.80229354488938
 20
623.30882032169939
 30
0.0
  0
VERTEX
  5
2EB
100
AcDbEntity
  8
FAN70-1305
370
              15
390
0
  6
Continuous
 62
               7
100
AcDbVertex
100
AcDb2dVertex
 10
-226.04906929498952
 20
622.84287591229963
 30
0.0
  0
SEQEND
  5
2EC
100
AcDbEntity
  8
FAN70-1305
370
              15
390
0
  6
Continuous
 62
               7
  0
POLYLINE
  5
2ED
100
AcDbEntity
  8
FAN70-1305
370
              15
390
0
  6
Continuous
 62
               7
100
AcDb2dPolyline
 66
               1
 10
0.0
 20
0.0
 30
0.0
 75
               5
  0
VERTEX
  5
2EE
100
AcDbEntity
  8
FAN70-1305
370
              15
390
0
  6
Continuous
 62
               7
100
AcDbVertex
100
AcDb2dVertex
 10
-226.04906929498952
 20
688.1637253308993
 30
0.0
  0
VERTEX
  5
2EF
100
AcDbEntity
  8
FAN70-1305
370
              15
390
0
  6
Continuous
 62
               7
100
AcDbVertex
100
AcDb2dVertex
 10
-221.02407177748955
 20
687.81132776989944
 30
0.0
  0
VERTEX
  5
2F0
100
AcDbEntity
  8
FAN70-1305
370
              15
390
0
  6
Continuous
 62
               7
100
AcDbVertex
100
AcDb2dVertex
 10
-216.09905080708927
 20
686.76587720169937
 30
0.0
  0
VERTEX
  5
2F1
100
AcDbEntity
  8
FAN70-1305
370
              15
390
0
  6
Continuous
 62
               7
100
AcDbVertex
100
AcDb2dVertex
 10
-210.49680186268938
 20
684.62665159949938
 30
0.0
  0
VERTEX
  5
2F2
100
AcDbEntity
  8
FAN70-1305
370
              15
390
0
  6
Continuous
 62
               7
100
AcDbVertex
100
AcDb2dVertex
 10
-205.34400267368954
 20
681.57492358929949
 30
0.0
  0
VERTEX
  5
2F3
100
AcDbEntity
  8
FAN70-1305
370
              15
390
0
  6
Continuous
 62
               7
100
AcDbVertex
100
AcDb2dVertex
 10
-200.88116636338935
 20
677.74225552329949
 30
0.0
  0
VERTEX
  5
2F4
100
AcDbEntity
  8
FAN70-1305
370
              15
390
0
  6
Continuous
 62
               7
100
AcDbVertex
100
AcDb2dVertex
 10
-197.15878551658938
 20
673.19193263299962
 30
0.0
  0
VERTEX
  5
2F5
100
AcDbEntity
  8
FAN70-1305
370
              15
390
0
  6
Continuous
 62
               7
100
AcDbVertex
100
AcDb2dVertex
 10
-194.42391021018938
 20
668.25890321979955
 30
0.0
  0
VERTEX
  5
2F6
100
AcDbEntity
  8
FAN70-1305
370
              15
390
0
  6
Continuous
 62
               7
100
AcDbVertex
100
AcDb2dVertex
 10
-192.59913636208927
 20
662.91811843169944
 30
0.0
  0
VERTEX
  5
2F7
100
AcDbEntity
  8
FAN70-1305
370
              15
390
0
  6
Continuous
 62
               7
100
AcDbVertex
100
AcDb2dVertex
 10
-191.79252160548941
 20
657.61983175529963
 30
0.0
  0
VERTEX
  5
2F8
100
AcDbEntity
  8
FAN70-1305
370
              15
390
0
  6
Continuous
 62
               7
100
AcDbVertex
100
AcDb2dVertex
 10
-191.90329683778936
 20
652.25682933579947
 30
0.0
  0
VERTEX
  5
2F9
100
AcDbEntity
  8
FAN70-1305
370
              15
390
0
  6
Continuous
 62
               7
100
AcDbVertex
100
AcDb2dVertex
 10
-192.89722291588936
 20
647.14522440679957
 30
0.0
  0
VERTEX
  5
2FA
100
AcDbEntity
  8
FAN70-1305
370
              15
390
0
  6
Continuous
 62
               7
100
AcDbVertex
100
AcDb2dVertex
 10
-194.71443442468939
 20
642.26320166839946
 30
0.0
  0
VERTEX
  5
2FB
100
AcDbEntity
  8
FAN70-1305
370
              15
390
0
  6
Continuous
 62
               7
100
AcDbVertex
100
AcDb2dVertex
 10
-197.33880830768936
 20
637.69036312349954
 30
0.0
  0
VERTEX
  5
2FC
100
AcDbEntity
  8
FAN70-1305
370
              15
390
0
  6
Continuous
 62
               7
100
AcDbVertex
100
AcDb2dVertex
 10
-200.65808480438949
 20
633.59375078929952
 30
0.0
  0
VERTEX
  5
2FD
100
AcDbEntity
  8
FAN70-1305
370
              15
390
0
  6
Continuous
 62
               7
100
AcDbVertex
100
AcDb2dVertex
 10
-204.76467160348926
 20
629.93322093739948
 30
0.0
  0
VERTEX
  5
2FE
100
AcDbEntity
  8
FAN70-1305
370
              15
390
0
  6
Continuous
 62
               7
100
AcDbVertex
100
AcDb2dVertex
 10
-209.40212717118948
 20
626.97237510929949
 30
0.0
  0
VERTEX
  5
2FF
100
AcDbEntity
  8
FAN70-1305
370
              15
390
0
  6
Continuous
 62
               7
100
AcDbVertex
100
AcDb2dVertex
 10
-214.69936052178946
 20
624.6979959750995
 30
0.0
  0
VERTEX
  5
300
100
AcDbEntity
  8
FAN70-1305
370
              15
390
0
  6
Continuous
 62
               7
100
AcDbVertex
100
AcDb2dVertex
 10
-220.29584504498939
 20
623.30882032169939
 30
0.0
  0
VERTEX
  5
301
100
AcDbEntity
  8
FAN70-1305
370
              15
390
0
  6
Continuous
 62
               7
100
AcDbVertex
100
AcDb2dVertex
 10
-226.04906929498952
 20
622.84287591229963
 30
0.0
  0
SEQEND
  5
302
100
AcDbEntity
  8
FAN70-1305
370
              15
390
0
  6
Continuous
 62
               7
  0
POLYLINE
  5
303
100
AcDbEntity
  8
FAN70-1305
370
              15
390
0
  6
Continuous
 62
               7
100
AcDb2dPolyline
 66
               1
 10
0.0
 20
0.0
 30
0.0
 75
               5
  0
VERTEX
  5
304
100
AcDbEntity
  8
FAN70-1305
370
              15
390
0
  6
Continuous
 62
               7
100
AcDbVertex
100
AcDb2dVertex
 10
-226.04906929498952
 20
678.02163739449929
 30
0.0
  0
VERTEX
  5
305
100
AcDbEntity
  8
FAN70-1305
370
              15
390
0
  6
Continuous
 62
               7
100
AcDbVertex
100
AcDb2dVertex
 10
-223.16115487208958
 20
677.84012634999931
 30
0.0
  0
VERTEX
  5
306
100
AcDbEntity
  8
FAN70-1305
370
              15
390
0
  6
Continuous
 62
               7
100
AcDbVertex
100
AcDb2dVertex
 10
-220.31878445138955
 20
677.2984244371994
 30
0.0
  0
VERTEX
  5
307
100
AcDbEntity
  8
FAN70-1305
370
              15
390
0
  6
Continuous
 62
               7
100
AcDbVertex
100
AcDb2dVertex
 10
-217.56678445098942
 20
676.40509982359958
 30
0.0
  0
VERTEX
  5
308
100
AcDbEntity
  8
FAN70-1305
370
              15
390
0
  6
Continuous
 62
               7
100
AcDbVertex
100
AcDb2dVertex
 10
-214.94855450308955
 20
675.17421920549941
 30
0.0
  0
VERTEX
  5
309
100
AcDbEntity
  8
FAN70-1305
370
              15
390
0
  6
Continuous
 62
               7
100
AcDbVertex
100
AcDb2dVertex
 10
-212.50538712208936
 20
673.62521369709953
 30
0.0
  0
VERTEX
  5
30A
100
AcDbEntity
  8
FAN70-1305
370
              15
390
0
  6
Continuous
 62
               7
100
AcDbVertex
100
AcDb2dVertex
 10
-210.27581019168952
 20
671.78250630149955
 30
0.0
  0
VERTEX
  5
30B
100
AcDbEntity
  8
FAN70-1305
370
              15
390
0
  6
Continuous
 62
               7
100
AcDbVertex
100
AcDb2dVertex
 10
-208.29498952088943
 20
669.67515428319962
 30
0.0
  0
VERTEX
  5
30C
100
AcDbEntity
  8
FAN70-1305
370
              15
390
0
  6
Continuous
 62
               7
100
AcDbVertex
100
AcDb2dVertex
 10
-206.59415980638937
 20
667.33638723149943
 30
0.0
  0
VERTEX
  5
30D
100
AcDbEntity
  8
FAN70-1305
370
              15
390
0
  6
Continuous
 62
               7
100
AcDbVertex
100
AcDb2dVertex
 10
-205.20014500078941
 20
664.80310042149949
 30
0.0
  0
VERTEX
  5
30E
100
AcDbEntity
  8
FAN70-1305
370
              15
390
0
  6
Continuous
 62
               7
100
AcDbVertex
100
AcDb2dVertex
 10
-204.13492990498952
 20
662.11524386659949
 30
0.0
  0
VERTEX
  5
30F
100
AcDbEntity
  8
FAN70-1305
370
              15
390
0
  6
Continuous
 62
               7
100
AcDbVertex
100
AcDb2dVertex
 10
-203.41531557798925
 20
659.31519646889956
 30
0.0
  0
VERTEX
  5
310
100
AcDbEntity
  8
FAN70-1305
370
              15
390
0
  6
Continuous
 62
               7
100
AcDbVertex
100
AcDb2dVertex
 10
-203.05264739158946
 20
656.44711036929948
 30
0.0
  0
VERTEX
  5
311
100
AcDbEntity
  8
FAN70-1305
370
              15
390
0
  6
Continuous
 62
               7
100
AcDbVertex
100
AcDb2dVertex
 10
-203.05264739158946
 20
653.55624039419945
 30
0.0
  0
VERTEX
  5
312
100
AcDbEntity
  8
FAN70-1305
370
              15
390
0
  6
Continuous
 62
               7
100
AcDbVertex
100
AcDb2dVertex
 10
-203.41531557798925
 20
650.68816919579945
 30
0.0
  0
VERTEX
  5
313
100
AcDbEntity
  8
FAN70-1305
370
              15
390
0
  6
Continuous
 62
               7
100
AcDbVertex
100
AcDb2dVertex
 10
-204.13492990498952
 20
647.88812179819956
 30
0.0
  0
VERTEX
  5
314
100
AcDbEntity
  8
FAN70-1305
370
              15
390
0
  6
Continuous
 62
               7
100
AcDbVertex
100
AcDb2dVertex
 10
-205.20014500078941
 20
645.20026524319951
 30
0.0
  0
VERTEX
  5
315
100
AcDbEntity
  8
FAN70-1305
370
              15
390
0
  6
Continuous
 62
               7
100
AcDbVertex
100
AcDb2dVertex
 10
-206.59415980638937
 20
642.66696353209954
 30
0.0
  0
VERTEX
  5
316
100
AcDbEntity
  8
FAN70-1305
370
              15
390
0
  6
Continuous
 62
               7
100
AcDbVertex
100
AcDb2dVertex
 10
-208.29498952088943
 20
640.32821138149939
 30
0.0
  0
VERTEX
  5
317
100
AcDbEntity
  8
FAN70-1305
370
              15
390
0
  6
Continuous
 62
               7
100
AcDbVertex
100
AcDb2dVertex
 10
-210.27581019168952
 20
638.22085936319945
 30
0.0
  0
VERTEX
  5
318
100
AcDbEntity
  8
FAN70-1305
370
              15
390
0
  6
Continuous
 62
               7
100
AcDbVertex
100
AcDb2dVertex
 10
-212.50538712208936
 20
636.37813706649945
 30
0.0
  0
VERTEX
  5
319
100
AcDbEntity
  8
FAN70-1305
370
              15
390
0
  6
Continuous
 62
               7
100
AcDbVertex
100
AcDb2dVertex
 10
-214.94855450308955
 20
634.82913155809933
 30
0.0
  0
VERTEX
  5
31A
100
AcDbEntity
  8
FAN70-1305
370
              15
390
0
  6
Continuous
 62
               7
100
AcDbVertex
100
AcDb2dVertex
 10
-217.56678445098942
 20
633.59826584109965
 30
0.0
  0
VERTEX
  5
31B
100
AcDbEntity
  8
FAN70-1305
370
              15
390
0
  6
Continuous
 62
               7
100
AcDbVertex
100
AcDb2dVertex
 10
-220.31878445138955
 20
632.7049412274996
 30
0.0
  0
VERTEX
  5
31C
100
AcDbEntity
  8
FAN70-1305
370
              15
390
0
  6
Continuous
 62
               7
100
AcDbVertex
100
AcDb2dVertex
 10
-223.16115487208958
 20
632.16323931469947
 30
0.0
  0
VERTEX
  5
31D
100
AcDbEntity
  8
FAN70-1305
370
              15
390
0
  6
Continuous
 62
               7
100
AcDbVertex
100
AcDb2dVertex
 10
-226.04906929498952
 20
631.98172827019948
 30
0.0
  0
VERTEX
  5
31E
100
AcDbEntity
  8
FAN70-1305
370
              15
390
0
  6
Continuous
 62
               7
100
AcDbVertex
100
AcDb2dVertex
 10
-228.93698371788923
 20
632.16323931469947
 30
0.0
  0
VERTEX
  5
31F
100
AcDbEntity
  8
FAN70-1305
370
              15
390
0
  6
Continuous
 62
               7
100
AcDbVertex
100
AcDb2dVertex
 10
-231.7793541385895
 20
632.7049412274996
 30
0.0
  0
VERTEX
  5
320
100
AcDbEntity
  8
FAN70-1305
370
              15
390
0
  6
Continuous
 62
               7
100
AcDbVertex
100
AcDb2dVertex
 10
-234.53135413888958
 20
633.59826584109965
 30
0.0
  0
VERTEX
  5
321
100
AcDbEntity
  8
FAN70-1305
370
              15
390
0
  6
Continuous
 62
               7
100
AcDbVertex
100
AcDb2dVertex
 10
-237.14958408688949
 20
634.82913155809933
 30
0.0
  0
VERTEX
  5
322
100
AcDbEntity
  8
FAN70-1305
370
              15
390
0
  6
Continuous
 62
               7
100
AcDbVertex
100
AcDb2dVertex
 10
-239.59275146788946
 20
636.37813706649945
 30
0.0
  0
VERTEX
  5
323
100
AcDbEntity
  8
FAN70-1305
370
              15
390
0
  6
Continuous
 62
               7
100
AcDbVertex
100
AcDb2dVertex
 10
-241.82232839828953
 20
638.22085936319945
 30
0.0
  0
VERTEX
  5
324
100
AcDbEntity
  8
FAN70-1305
370
              15
390
0
  6
Continuous
 62
               7
100
AcDbVertex
100
AcDb2dVertex
 10
-243.80314906898957
 20
640.32821138149939
 30
0.0
  0
VERTEX
  5
325
100
AcDbEntity
  8
FAN70-1305
370
              15
390
0
  6
Continuous
 62
               7
100
AcDbVertex
100
AcDb2dVertex
 10
-245.5039787834894
 20
642.66696353209954
 30
0.0
  0
VERTEX
  5
326
100
AcDbEntity
  8
FAN70-1305
370
              15
390
0
  6
Continuous
 62
               7
100
AcDbVertex
100
AcDb2dVertex
 10
-246.89799358908931
 20
645.20026524319951
 30
0.0
  0
VERTEX
  5
327
100
AcDbEntity
  8
FAN70-1305
370
              15
390
0
  6
Continuous
 62
               7
100
AcDbVertex
100
AcDb2dVertex
 10
-247.96320868488942
 20
647.88812179819956
 30
0.0
  0
VERTEX
  5
328
100
AcDbEntity
  8
FAN70-1305
370
              15
390
0
  6
Continuous
 62
               7
100
AcDbVertex
100
AcDb2dVertex
 10
-248.68282301188947
 20
650.68816919579945
 30
0.0
  0
VERTEX
  5
329
100
AcDbEntity
  8
FAN70-1305
370
              15
390
0
  6
Continuous
 62
               7
100
AcDbVertex
100
AcDb2dVertex
 10
-249.04549119828948
 20
653.55624039419945
 30
0.0
  0
VERTEX
  5
32A
100
AcDbEntity
  8
FAN70-1305
370
              15
390
0
  6
Continuous
 62
               7
100
AcDbVertex
100
AcDb2dVertex
 10
-249.04549119828948
 20
656.44711036929948
 30
0.0
  0
VERTEX
  5
32B
100
AcDbEntity
  8
FAN70-1305
370
              15
390
0
  6
Continuous
 62
               7
100
AcDbVertex
100
AcDb2dVertex
 10
-248.68282301188947
 20
659.31519646889956
 30
0.0
  0
VERTEX
  5
32C
100
AcDbEntity
  8
FAN70-1305
370
              15
390
0
  6
Continuous
 62
               7
100
AcDbVertex
100
AcDb2dVertex
 10
-247.96320868488942
 20
662.11524386659949
 30
0.0
  0
VERTEX
  5
32D
100
AcDbEntity
  8
FAN70-1305
370
              15
390
0
  6
Continuous
 62
               7
100
AcDbVertex
100
AcDb2dVertex
 10
-246.89799358908931
 20
664.80310042149949
 30
0.0
  0
VERTEX
  5
32E
100
AcDbEntity
  8
FAN70-1305
370
              15
390
0
  6
Continuous
 62
               7
100
AcDbVertex
100
AcDb2dVertex
 10
-245.5039787834894
 20
667.33638723149943
 30
0.0
  0
VERTEX
  5
32F
100
AcDbEntity
  8
FAN70-1305
370
              15
390
0
  6
Continuous
 62
               7
100
AcDbVertex
100
AcDb2dVertex
 10
-243.80314906898957
 20
669.67515428319962
 30
0.0
  0
VERTEX
  5
330
100
AcDbEntity
  8
FAN70-1305
370
              15
390
0
  6
Continuous
 62
               7
100
AcDbVertex
100
AcDb2dVertex
 10
-241.82232839828953
 20
671.78250630149955
 30
0.0
  0
VERTEX
  5
331
100
AcDbEntity
  8
FAN70-1305
370
              15
390
0
  6
Continuous
 62
               7
100
AcDbVertex
100
AcDb2dVertex
 10
-239.59275146788946
 20
673.62521369709953
 30
0.0
  0
VERTEX
  5
332
100
AcDbEntity
  8
FAN70-1305
370
              15
390
0
  6
Continuous
 62
               7
100
AcDbVertex
100
AcDb2dVertex
 10
-237.14958408688949
 20
675.17421920549941
 30
0.0
  0
VERTEX
  5
333
100
AcDbEntity
  8
FAN70-1305
370
              15
390
0
  6
Continuous
 62
               7
100
AcDbVertex
100
AcDb2dVertex
 10
-234.53135413888958
 20
676.40509982359958
 30
0.0
  0
VERTEX
  5
334
100
AcDbEntity
  8
FAN70-1305
370
              15
390
0
  6
Continuous
 62
               7
100
AcDbVertex
100
AcDb2dVertex
 10
-231.7793541385895
 20
677.2984244371994
 30
0.0
  0
VERTEX
  5
335
100
AcDbEntity
  8
FAN70-1305
370
              15
390
0
  6
Continuous
 62
               7
100
AcDbVertex
100
AcDb2dVertex
 10
-228.93698371788923
 20
677.84012634999931
 30
0.0
  0
VERTEX
  5
336
100
AcDbEntity
  8
FAN70-1305
370
              15
390
0
  6
Continuous
 62
               7
100
AcDbVertex
100
AcDb2dVertex
 10
-226.04906929498952
 20
678.02163739449929
 30
0.0
  0
SEQEND
  5
337
100
AcDbEntity
  8
FAN70-1305
370
              15
390
0
  6
Continuous
 62
               7
  0
LINE
  5
338
100
AcDbEntity
  8
FAN70-1305
370
              15
390
0
  6
STYLE_05
 62
               7
100
AcDbLine
 10
732.021323501197
 20
-522.0
 30
0.0
 11
721.83900137974433
 21
-533.11205906917144
 31
0.0
  0
LINE
  5
339
100
AcDbEntity
  8
FAN70-1305
370
              15
390
0
  6
STYLE_05
 62
               7
100
AcDbLine
 10
671.7785185447824
 20
-533.11205906917144
 30
0.0
 11
662.97014131602623
 21
-521.63275582847155
 31
0.0
  0
LINE
  5
33A
100
AcDbEntity
  8
FAN70-1305
370
              15
390
0
  6
Continuous
 62
               7
100
AcDbLine
 10
470.89760675492613
 20
-514.84354836997159
 30
0.0
 11
865.89760675492607
 21
-514.84354836997159
 31
0.0
  0
ARC
  5
33B
100
AcDbEntity
  8
FAN70-1305
370
              15
390
0
  6
Continuous
 62
               7
100
AcDbCircle
 10
867.39760675492607
 20
-393.34354836997153
 30
0.0
 40
3.5
100
AcDbArc
 50
0.0
 51
90.0
  0
LINE
  5
33C
100
AcDbEntity
  8
FAN70-1305
370
              15
390
0
  6
Continuous
 62
               7
100
AcDbLine
 10
867.39760675492607
 20
-389.84354836997153
 30
0.0
 11
865.89760675492607
 21
-389.84354836997153
 31
0.0
  0
LINE
  5
33D
100
AcDbEntity
  8
FAN70-1305
370
              15
390
0
  6
Continuous
 62
               7
100
AcDbLine
 10
865.89760675492607
 20
-514.84354836997159
 30
0.0
 11
867.39760675492607
 21
-514.84354836997159
 31
0.0
  0
ARC
  5
33E
100
AcDbEntity
  8
FAN70-1305
370
              15
390
0
  6
Continuous
 62
               7
100
AcDbCircle
 10
867.39760675492607
 20
-511.34354836997153
 30
0.0
 40
3.5
100
AcDbArc
 50
270.0
 51
0.0
  0
LINE
  5
33F
100
AcDbEntity
  8
FAN70-1305
370
              15
390
0
  6
Continuous
 62
               7
100
AcDbLine
 10
865.89760675492607
 20
-389.84354836997153
 30
0.0
 11
470.89760675492613
 21
-389.84354836997153
 31
0.0
  0
LINE
  5
340
100
AcDbEntity
  8
FAN70-1305
370
              15
390
0
  6
Continuous
 62
               7
100
AcDbLine
 10
870.89760675492607
 20
-511.34354836997153
 30
0.0
 11
870.89760675492607
 21
-393.34354836997153
 31
0.0
  0
LINE
  5
341
100
AcDbEntity
  8
FAN70-1305
370
              15
390
0
  6
Continuous
 62
               7
100
AcDbLine
 10
465.89760675492613
 20
-393.34354836997153
 30
0.0
 11
465.89760675492613
 21
-511.34354836997153
 31
0.0
  0
LINE
  5
342
100
AcDbEntity
  8
FAN70-1305
370
              15
390
0
  6
Continuous
 62
               7
100
AcDbLine
 10
470.89760675492613
 20
-389.84354836997153
 30
0.0
 11
469.39760675492613
 21
-389.84354836997153
 31
0.0
  0
ARC
  5
343
100
AcDbEntity
  8
FAN70-1305
370
              15
390
0
  6
Continuous
 62
               7
100
AcDbCircle
 10
469.39760675492613
 20
-393.34354836997153
 30
0.0
 40
3.5
100
AcDbArc
 50
90.0
 51
180.0
  0
LINE
  5
344
100
AcDbEntity
  8
FAN70-1305
370
              15
390
0
  6
Continuous
 62
               7
100
AcDbLine
 10
469.39760675492613
 20
-514.84354836997159
 30
0.0
 11
470.89760675492613
 21
-514.84354836997159
 31
0.0
  0
ARC
  5
345
100
AcDbEntity
  8
FAN70-1305
370
              15
390
0
  6
Continuous
 62
               7
100
AcDbCircle
 10
469.39760675492613
 20
-511.34354836997153
 30
0.0
 40
3.5
100
AcDbArc
 50
180.0
 51
270.0
  0
ARC
  5
346
100
AcDbEntity
  8
FAN70-1305
370
              15
390
0
  6
Continuous
 62
               7
100
AcDbCircle
 10
743.55970411062879
 20
-500.08289848657677
 30
0.0
 40
21.499999999999993
100
AcDbArc
 50
267.50000000000006
 51
317.90211637481997
  0
ARC
  5
347
100
AcDbEntity
  8
FAN70-1305
370
              15
390
0
  6
Continuous
 62
               7
100
AcDbCircle
 10
533.64409222242602
 20
-494.46578251387172
 30
0.0
 40
21.499999999999929
100
AcDbArc
 50
251.40622585680012
 51
267.50000000000006
  0
LINE
  5
348
100
AcDbEntity
  8
FAN70-1305
370
              15
390
0
  6
Continuous
 62
               7
100
AcDbLine
 10
743.0
 20
-521.57561193343076
 30
0.0
 11
732.04641468601255
 21
-521.22224010736113
 31
0.0
  0
POLYLINE
  5
349
100
AcDbEntity
  8
FAN70-1305
370
              15
390
0
  6
Continuous
 62
               7
100
AcDb2dPolyline
 66
               1
 10
0.0
 20
0.0
 30
0.0
 75
               5
  0
VERTEX
  5
34A
100
AcDbEntity
  8
FAN70-1305
370
              15
390
0
  6
Continuous
 62
               7
100
AcDbVertex
100
AcDb2dVertex
 10
662.97014131602623
 20
-521.63275582847155
 30
0.0
  0
VERTEX
  5
34B
100
AcDbEntity
  8
FAN70-1305
370
              15
390
0
  6
Continuous
 62
               7
100
AcDbVertex
100
AcDb2dVertex
 10
614.90725054802624
 20
-519.53428490217152
 30
0.0
  0
VERTEX
  5
34C
100
AcDbEntity
  8
FAN70-1305
370
              15
390
0
  6
Continuous
 62
               7
100
AcDbVertex
100
AcDb2dVertex
 10
532.70627632202718
 20
-515.94532532747144
 30
0.0
  0
SEQEND
  5
34D
100
AcDbEntity
  8
FAN70-1305
370
              15
390
0
  6
Continuous
 62
               7
  0
LINE
  5
34E
100
AcDbEntity
  8
FAN70-1305
370
              15
390
0
  6
Continuous
 62
               7
100
AcDbLine
 10
802.89760675492607
 20
-389.84354836997153
 30
0.0
 11
802.89760675492607
 21
-404.84354836997153
 31
0.0
  0
LINE
  5
34F
100
AcDbEntity
  8
FAN70-1305
370
              15
390
0
  6
Continuous
 62
               7
100
AcDbLine
 10
838.89760675492607
 20
-389.84354836997153
 30
0.0
 11
838.89760675492607
 21
-404.84354836997153
 31
0.0
  0
CIRCLE
  5
350
100
AcDbEntity
  8
FAN70-1305
370
              15
390
0
  6
STYLE_12
 62
               7
100
AcDbCircle
 10
-193.53056882224638
 20
-452.34354836997153
 30
0.0
 40
10.0
  0
LINE
  5
351
100
AcDbEntity
  8
FAN70-1305
370
              15
390
0
  6
STYLE_12
 62
               7
100
AcDbLine
 10
-193.53056882224638
 20
-472.34354836997153
 30
0.0
 11
-193.53056882224638
 21
-432.34354836997153
 31
0.0
  0
LINE
  5
352
100
AcDbEntity
  8
FAN70-1305
370
              15
390
0
  6
STYLE_12
 62
               7
100
AcDbLine
 10
-213.53056882224632
 20
-452.34354836997153
 30
0.0
 11
-173.53056882224638
 21
-452.34354836997153
 31
0.0
  0
CIRCLE
  5
353
100
AcDbEntity
  8
FAN70-1305
370
              15
390
0
  6
STYLE_12
 62
               7
100
AcDbCircle
 10
-473.53056882224632
 20
-452.34354836997153
 30
0.0
 40
10.0
  0
LINE
  5
354
100
AcDbEntity
  8
FAN70-1305
370
              15
390
0
  6
STYLE_12
 62
               7
100
AcDbLine
 10
-473.53056882224632
 20
-472.34354836997153
 30
0.0
 11
-473.53056882224632
 21
-432.34354836997153
 31
0.0
  0
LINE
  5
355
100
AcDbEntity
  8
FAN70-1305
370
              15
390
0
  6
STYLE_12
 62
               7
100
AcDbLine
 10
-493.53056882224632
 20
-452.34354836997153
 30
0.0
 11
-453.53056882224632
 21
-452.34354836997153
 31
0.0
  0
CIRCLE
  5
356
100
AcDbEntity
  8
FAN70-1305
370
              15
390
0
  6
STYLE_12
 62
               7
100
AcDbCircle
 10
-691.03056882224632
 20
-489.81693176078142
 30
0.0
 40
10.0
  0
LINE
  5
357
100
AcDbEntity
  8
FAN70-1305
370
              15
390
0
  6
STYLE_12
 62
               7
100
AcDbLine
 10
-691.03056882224632
 20
-509.81693176078142
 30
0.0
 11
-691.03056882224632
 21
-469.81693176078142
 31
0.0
  0
CIRCLE
  5
358
100
AcDbEntity
  8
FAN70-1305
370
              15
390
0
  6
STYLE_12
 62
               7
100
AcDbCircle
 10
-691.03056882224632
 20
-414.81693176078142
 30
0.0
 40
10.0
  0
LINE
  5
359
100
AcDbEntity
  8
FAN70-1305
370
              15
390
0
  6
STYLE_12
 62
               7
100
AcDbLine
 10
-691.03056882224632
 20
-434.81693176078142
 30
0.0
 11
-691.03056882224632
 21
-394.81693176078142
 31
0.0
  0
CIRCLE
  5
35A
100
AcDbEntity
  8
FAN70-1305
370
              15
390
0
  6
STYLE_12
 62
               7
100
AcDbCircle
 10
23.969431177753734
 20
-489.81693176078142
 30
0.0
 40
10.0
  0
LINE
  5
35B
100
AcDbEntity
  8
FAN70-1305
370
              15
390
0
  6
STYLE_12
 62
               7
100
AcDbLine
 10
23.969431177753734
 20
-509.81693176078142
 30
0.0
 11
23.969431177753734
 21
-469.81693176078142
 31
0.0
  0
LINE
  5
35C
100
AcDbEntity
  8
FAN70-1305
370
              15
390
0
  6
STYLE_12
 62
               7
100
AcDbLine
 10
3.9694311777537337
 20
-489.81693176078142
 30
0.0
 11
43.969431177753734
 21
-489.81693176078142
 31
0.0
  0
CIRCLE
  5
35D
100
AcDbEntity
  8
FAN70-1305
370
              15
390
0
  6
STYLE_12
 62
               7
100
AcDbCircle
 10
23.969431177753734
 20
-414.81693176078142
 30
0.0
 40
10.0
  0
LINE
  5
35E
100
AcDbEntity
  8
FAN70-1305
370
              15
390
0
  6
STYLE_12
 62
               7
100
AcDbLine
 10
23.969431177753734
 20
-434.81693176078142
 30
0.0
 11
23.969431177753734
 21
-394.81693176078142
 31
0.0
  0
LINE
  5
35F
100
AcDbEntity
  8
FAN70-1305
370
              15
390
0
  6
STYLE_12
 62
               7
100
AcDbLine
 10
3.9694311777537337
 20
-414.81693176078142
 30
0.0
 11
43.969431177753734
 21
-414.81693176078142
 31
0.0
  0
LINE
  5
360
100
AcDbEntity
  8
FAN70-1305
370
              15
390
0
  6
STYLE_12
 62
               7
100
AcDbLine
 10
671.63329496442611
 20
-533.11205906917144
 30
0.0
 11
721.83900137974433
 21
-533.11205906917144
 31
0.0
  0
ARC
  5
361
100
AcDbEntity
  8
FAN70-1305
370
              15
390
0
  6
STYLE_12
 62
               7
100
AcDbCircle
 10
532.07834805726134
 20
-494.09670152391874
 30
0.0
 40
18.840287171468439
100
AcDbArc
 50
187.2395386975831
 51
270.6193909568089
  0
LINE
  5
362
100
AcDbEntity
  8
FAN70-1305
370
              15
390
0
  6
STYLE_12
 62
               7
100
AcDbLine
 10
513.58835681734877
 20
-496.90237916164114
 30
0.0
 11
510.70339384049345
 21
-392.16417522928697
 31
0.0
  0
LINE
  5
363
100
AcDbEntity
  8
FAN70-1305
370
              15
390
0
  6
STYLE_12
 62
               7
100
AcDbLine
 10
532.26439121741714
 20
-512.59591511173085
 30
0.0
 11
668.50704714219546
 21
-518.77926766279529
 31
0.0
  0
LINE
  5
364
100
AcDbEntity
  8
FAN70-1305
370
              15
390
0
  6
STYLE_12
 62
               7
100
AcDbLine
 10
771.19240583316719
 20
-392.52079340948677
 30
0.0
 11
762.33110939537482
 21
-500.60301340039422
 31
0.0
  0
ARC
  5
365
100
AcDbEntity
  8
FAN70-1305
370
              15
390
0
  6
STYLE_12
 62
               7
100
AcDbCircle
 10
742.77188049168649
 20
-499.0311950099404
 30
0.0
 40
19.62228448370508
100
AcDbArc
 50
266.50628937604824
 51
355.40547121621319
  0
LINE
  5
366
100
AcDbEntity
  8
FAN70-1305
370
              15
390
0
  6
STYLE_12
 62
               7
100
AcDbLine
 10
512.85945450495933
 20
-389.84354836997153
 30
0.0
 11
494.85945450495939
 21
-389.84354836997153
 31
0.0
  0
ARC
  5
367
100
AcDbEntity
  8
FAN70-1305
370
              15
390
0
  6
STYLE_12
 62
               7
100
AcDbCircle
 10
506.74813424546284
 20
-393.84354836997153
 30
0.0
 40
3.9999999999999631
100
AcDbArc
 50
1.5777854881537827
 51
90.0
  0
ARC
  5
368
100
AcDbEntity
  8
FAN70-1305
370
              15
390
0
  6
STYLE_12
 62
               7
100
AcDbCircle
 10
-226.02705800208196
 20
-223.69255206375425
 30
0.0
 40
299.32959627593522
100
AcDbArc
 50
213.71461515937074
 51
326.28538484062926
  0
LINE
  5
369
100
AcDbEntity
  8
FAN70-1305
370
              15
390
0
  6
STYLE_12
 62
               7
100
AcDbLine
 10
-711.03056882224632
 20
-414.81693176078142
 30
0.0
 11
-671.03056882224632
 21
-414.81693176078142
 31
0.0
  0
LINE
  5
36A
100
AcDbEntity
  8
FAN70-1305
370
              15
390
0
  6
STYLE_12
 62
               7
100
AcDbLine
 10
-711.03056882224632
 20
-489.81693176078142
 30
0.0
 11
-671.03056882224632
 21
-489.81693176078142
 31
0.0
  0
LINE
  5
36B
100
AcDbEntity
  8
FAN70-1305
370
              15
390
0
  6
STYLE_12
 62
               7
100
AcDbLine
 10
-201.0658513551893
 20
-533.11356806557183
 30
0.0
 11
-251.03228723468942
 21
-533.11356806557183
 31
0.0
  0
LINE
  5
36C
100
AcDbEntity
  8
FAN70-1305
370
              15
390
0
  6
STYLE_12
 62
               7
100
AcDbLine
 10
678.73614817208522
 20
-533.11205906917144
 30
0.0
 11
668.50704714219546
 21
-518.77926766279529
 31
0.0
  0
LINE
  5
36D
100
AcDbEntity
  8
FAN70-1305
370
              15
390
0
  6
STYLE_12
 62
               7
100
AcDbLine
 10
714.73614817208522
 20
-533.11205906917144
 30
0.0
 11
727.0
 21
-518.75704836658247
 31
0.0
  0
LINE
  5
36E
100
AcDbEntity
  8
FAN70-1305
370
              15
390
0
  6
Continuous
 62
               7
100
AcDbLine
 10
743.0
 20
-518.75704836658247
 30
0.0
 11
727.0
 21
-518.75704836658247
 31
0.0
  0
ENDSEC
  0
SECTION
  2
OBJECTS
  0
DICTIONARY
  5
19
100
AcDbDictionary
280
               0
281
               1
  3
ACAD_GROUP
350
1A
  3
ACAD_MLINESTYLE
350
1B
  3
ACAD_LAYOUT
350
1E
  3
ACAD_PLOTSETTINGS
350
22
  3
ACAD_PLOTSTYLENAME
350
1F
  0
DICTIONARY
  5
1A
102
{ACAD_REACTORS
330
19
102
}
100
AcDbDictionary
280
               0
281
               1
  0
DICTIONARY
  5
1B
102
{ACAD_REACTORS
330
19
102
}
100
AcDbDictionary
280
               0
281
               1
  3
Standard
350
1C
  0
MLINESTYLE
  5
1C
102
{ACAD_REACTORS
330
1B
102
}
100
AcDbMlineStyle
  2
Standard
 70
               0
  3

 62
               0
 51
90.0
 52
90.0
 71
               2
 49
0.5
 62
             256
  6
ByLayer
 49
-0.5
 62
             256
  6
ByLayer
  0
ACDBDICTIONARYWDFLT
  5
1F
102
{ACAD_REACTORS
330
19
102
}
100
AcDbDictionary
281
               1
  3
Normal
350
1D
100
AcDbDictionaryWithDefault
340
1D
  0
ACDBPLACEHOLDER
  5
1D
102
{ACAD_REACTORS
330
1F
102
}
  0
LAYOUT
  5
20
102
{ACAD_REACTORS
330
1E
102
}
100
AcDbPlotSettings
  1

  2

  4

  6

 40
0.0
 41
0.0
 42
0.0
 43
0.0
 44
0.0
 45
0.0
 46
0.0
 47
0.0
 48
0.0
 49
0.0
140
0.0
141
0.0
142
1.0
143
1.0
 70
            1024
 72
               0
 73
               0
 74
               0
  7

 75
               0
147
1.0
148
0.0
149
0.0
100
AcDbLayout
  1
Model
 70
               0
 71
               0
 10
0.0
 20
0.0
 11
0.0
 21
0.0
 12
0.0
 22
0.0
 32
0.0
 14
0.0
 24
0.0
 34
0.0
 15
0.0
 25
0.0
 35
0.0
146
0.0
 13
0.0
 23
0.0
 33
0.0
 16
0.0
 26
0.0
 36
0.0
 17
0.0
 27
0.0
 37
0.0
 76
               0
330
A
331
0
345
0
346
0
  0
LAYOUT
  5
21
102
{ACAD_REACTORS
330
1E
102
}
100
AcDbPlotSettings
  1

  2

  4

  6

 40
0.0
 41
0.0
 42
0.0
 43
0.0
 44
0.0
 45
0.0
 46
0.0
 47
0.0
 48
0.0
 49
0.0
140
0.0
141
0.0
142
1.0
143
1.0
 70
               0
 72
               0
 73
               0
 74
               0
  7

 75
               0
147
1.0
148
0.0
149
0.0
100
AcDbLayout
  1
Layout1
 70
               0
 71
               0
 10
0.0
 20
0.0
 11
0.0
 21
0.0
 12
0.0
 22
0.0
 32
0.0
 14
0.0
 24
0.0
 34
0.0
 15
0.0
 25
0.0
 35
0.0
146
0.0
 13
0.0
 23
0.0
 33
0.0
 16
0.0
 26
0.0
 36
0.0
 17
0.0
 27
0.0
 37
0.0
 76
               0
330
B
331
0
345
0
346
0
  0
DICTIONARY
  5
1E
102
{ACAD_REACTORS
330
19
102
}
100
AcDbDictionary
280
               0
281
               1
  3
Layout1
350
21
  3
Model
350
20
  0
DICTIONARY
  5
22
102
{ACAD_REACTORS
330
19
102
}
100
AcDbDictionary
280
               0
281
               1
  0
ENDSEC
  0
EOF
