  0
SECTION
  2
HEADER
  9
$ACADVER
  1
AC1015
  9
$ACADMAINTVER
 70
               6
  9
$DWGCODEPAGE
  3
ANSI_932
  9
$INSBASE
 10
0.0
 20
0.0
 30
0.0
  9
$EXTMIN
 10
-975.00000000024124
 20
-1431.5255224711127
 30
-14.428611111111111
  9
$EXTMAX
 10
975.00000000024124
 20
1405.9972926412995
 30
14.428611111111111
  9
$LIMMIN
 10
0.0
 20
0.0
  9
$LIMMAX
 10
0.0
 20
0.0
  9
$ORTHOMODE
 70
               0
  9
$REGENMODE
 70
               1
  9
$FILLMODE
 70
               1
  9
$QTEXTMODE
 70
               0
  9
$MIRRTEXT
 70
               1
  9
$LTSCALE
 40
50.799999999999997
  9
$ATTMODE
 70
               1
  9
$TEXTSIZE
 40
0.2
  9
$TRACEWID
 40
1.0
  9
$TEXTSTYLE
  7
Standard
  9
$CLAYER
  8
template
  9
$CELTYPE
  6
Continuous
  9
$CECOLOR
 62
             256
  9
$CELTSCALE
 40
1.0
  9
$DISPSILH
 70
               0
  9
$DIMSCALE
 40
1.0
  9
$DIMASZ
 40
31.75
  9
$DIMEXO
 40
0.0
  9
$DIMDLI
 40
6.9999999999999396
  9
$DIMRND
 40
0.0
  9
$DIMDLE
 40
0.0
  9
$DIMEXE
 40
19.999999999996199
  9
$DIMTP
 40
0.0
  9
$DIMTM
 40
0.0
  9
$DIMTXT
 40
24.432617187500004
  9
$DIMCEN
 40
0.0
  9
$DIMTSZ
 40
0.0
  9
$DIMTOL
 70
               0
  9
$DIMLIM
 70
               0
  9
$DIMTIH
 70
               0
  9
$DIMTOH
 70
               0
  9
$DIMSE1
 70
               0
  9
$DIMSE2
 70
               0
  9
$DIMTAD
 70
               1
  9
$DIMZIN
 70
              11
  9
$DIMBLK
  1
VW_FILLEDARROW
  9
$DIMASO
 70
               1
  9
$DIMSHO
 70
               1
  9
$DIMPOST
  1
<>
  9
$DIMAPOST
  1
[]
  9
$DIMALT
 70
               0
  9
$DIMALTD
 70
               1
  9
$DIMALTF
 40
1.0
  9
$DIMLFAC
 40
1.0
  9
$DIMTOFL
 70
               0
  9
$DIMTVP
 40
0.0
  9
$DIMTIX
 70
               1
  9
$DIMSOXD
 70
               0
  9
$DIMSAH
 70
               0
  9
$DIMBLK1
  1

  9
$DIMBLK2
  1

  9
$DIMSTYLE
  2
JIS
  9
$DIMCLRD
 70
               0
  9
$DIMCLRE
 70
               0
  9
$DIMCLRT
 70
               0
  9
$DIMTFAC
 40
1.0
  9
$DIMGAP
 40
1.00000000000108
  9
$DIMJUST
 70
               0
  9
$DIMSD1
 70
               0
  9
$DIMSD2
 70
               0
  9
$DIMTOLJ
 70
               1
  9
$DIMTZIN
 70
              11
  9
$DIMALTZ
 70
              11
  9
$DIMALTTZ
 70
              11
  9
$DIMUPT
 70
               0
  9
$DIMDEC
 70
               1
  9
$DIMTDEC
 70
               1
  9
$DIMALTU
 70
               2
  9
$DIMALTTD
 70
               2
  9
$DIMTXSTY
  7
ＭＳ ゴシック
  9
$DIMAUNIT
 70
               0
  9
$DIMADEC
 70
               2
  9
$DIMALTRND
 40
0.0
  9
$DIMAZIN
 70
               0
  9
$DIMDSEP
 70
              46
  9
$DIMATFIT
 70
               0
  9
$DIMFRAC
 70
               2
  9
$DIMLDRBLK
  1

  9
$DIMLUNIT
 70
               2
  9
$DIMLWD
 70
              -2
  9
$DIMLWE
 70
              -2
  9
$DIMTMOVE
 70
               0
  9
$LUNITS
 70
               2
  9
$LUPREC
 70
               4
  9
$SKETCHINC
 40
0.1
  9
$FILLETRAD
 40
0.0
  9
$AUNITS
 70
               0
  9
$AUPREC
 70
               0
  9
$MENU
  1
acad
  9
$ELEVATION
 40
0.0
  9
$PELEVATION
 40
0.0
  9
$THICKNESS
 40
0.0
  9
$LIMCHECK
 70
               0
  9
$CHAMFERA
 40
0.0
  9
$CHAMFERB
 40
0.0
  9
$CHAMFERC
 40
0.0
  9
$CHAMFERD
 40
0.0
  9
$SKPOLY
 70
               0
  9
$TDCREATE
 40
2456066.708854167
  9
$TDUCREATE
 40
0.000000000
  9
$TDUPDATE
 40
2456066.708854167
  9
$TDUUPDATE
 40
0.000000000
  9
$TDINDWG
 40
0.0000000000
  9
$TDUSRTIMER
 40
0.0000000000
  9
$USRTIMER
 70
               1
  9
$ANGBASE
 50
0.0
  9
$ANGDIR
 70
               0
  9
$PDMODE
 70
               1
  9
$PDSIZE
 40
-2.0
  9
$PLINEWID
 40
0.0
  9
$SPLFRAME
 70
               0
  9
$SPLINETYPE
 70
               6
  9
$SPLINESEGS
 70
               8
  9
$HANDSEED
  5
363
  9
$SURFTAB1
 70
               6
  9
$SURFTAB2
 70
               6
  9
$SURFTYPE
 70
               6
  9
$SURFU
 70
               6
  9
$SURFV
 70
               6
  9
$UCSBASE
  2

  9
$UCSNAME
  2

  9
$UCSORG
 10
0.0
 20
0.0
 30
0.0
  9
$UCSXDIR
 10
1.0
 20
0.0
 30
0.0
  9
$UCSYDIR
 10
0.0
 20
1.0
 30
0.0
  9
$UCSORTHOREF
  2

  9
$UCSORTHOVIEW
 70
               0
  9
$UCSORGTOP
 10
0.0
 20
0.0
 30
0.0
  9
$UCSORGBOTTOM
 10
0.0
 20
0.0
 30
0.0
  9
$UCSORGLEFT
 10
0.0
 20
0.0
 30
0.0
  9
$UCSORGRIGHT
 10
0.0
 20
0.0
 30
0.0
  9
$UCSORGFRONT
 10
0.0
 20
0.0
 30
0.0
  9
$UCSORGBACK
 10
0.0
 20
0.0
 30
0.0
  9
$PUCSBASE
  2

  9
$PUCSNAME
  2

  9
$PUCSORG
 10
0.0
 20
0.0
 30
0.0
  9
$PUCSXDIR
 10
1.0
 20
0.0
 30
0.0
  9
$PUCSYDIR
 10
0.0
 20
1.0
 30
0.0
  9
$PUCSORTHOREF
  2

  9
$PUCSORTHOVIEW
 70
               0
  9
$PUCSORGTOP
 10
0.0
 20
0.0
 30
0.0
  9
$PUCSORGBOTTOM
 10
0.0
 20
0.0
 30
0.0
  9
$PUCSORGLEFT
 10
0.0
 20
0.0
 30
0.0
  9
$PUCSORGRIGHT
 10
0.0
 20
0.0
 30
0.0
  9
$PUCSORGFRONT
 10
0.0
 20
0.0
 30
0.0
  9
$PUCSORGBACK
 10
0.0
 20
0.0
 30
0.0
  9
$USERI1
 70
               0
  9
$USERI2
 70
               0
  9
$USERI3
 70
               0
  9
$USERI4
 70
               0
  9
$USERI5
 70
               0
  9
$USERR1
 40
0.0
  9
$USERR2
 40
0.0
  9
$USERR3
 40
0.0
  9
$USERR4
 40
0.0
  9
$USERR5
 40
0.0
  9
$WORLDVIEW
 70
               1
  9
$SHADEDGE
 70
               3
  9
$SHADEDIF
 70
              70
  9
$TILEMODE
 70
               1
  9
$MAXACTVP
 70
              64
  9
$PINSBASE
 10
0.0
 20
0.0
 30
0.0
  9
$PLIMCHECK
 70
               0
  9
$PEXTMIN
 10
1.0000000000000000E+20
 20
1.0000000000000000E+20
 30
1.0000000000000000E+20
  9
$PEXTMAX
 10
-1.0000000000000000E+20
 20
-1.0000000000000000E+20
 30
-1.0000000000000000E+20
  9
$PLIMMIN
 10
0.0
 20
0.0
  9
$PLIMMAX
 10
12.0
 20
9.0
  9
$UNITMODE
 70
               0
  9
$VISRETAIN
 70
               0
  9
$PLINEGEN
 70
               1
  9
$PSLTSCALE
 70
               0
  9
$TREEDEPTH
 70
            3020
  9
$CMLSTYLE
  2
Standard
  9
$CMLJUST
 70
               0
  9
$CMLSCALE
 40
1.0
  9
$PROXYGRAPHICS
 70
               0
  9
$MEASUREMENT
 70
               1
  9
$CELWEIGHT
370
               0
  9
$ENDCAPS
280
               0
  9
$JOINSTYLE
280
               0
  9
$LWDISPLAY
290
               1
  9
$INSUNITS
 70
               4
  9
$HYPERLINKBASE
  1

  9
$STYLESHEET
  1

  9
$XEDIT
290
               1
  9
$CEPSNTYPE
380
               0
  9
$PSTYLEMODE
290
               1
  9
$FINGERPRINTGUID
  2

  9
$VERSIONGUID
  2

  9
$EXTNAMES
290
               1
  9
$PSVPSCALE
 40
0.0
  0
ENDSEC
  0
SECTION
  2
CLASSES
  0
CLASS
  1
LWPOLYLINE
  2
AcDbPolyline
  3
AutoCAD 2000
 90
        0
280
               0
281
               1
  0
CLASS
  1
IMAGE
  2
AcDbRasterImage
  3
ISM
 90
      127
280
               0
281
               1
  0
CLASS
  1
OLE2FRAME
  2
AcDbOle2Frame
  3
AutoCAD 2000
 90
        0
280
               0
281
               1
  0
CLASS
  1
HATCH
  2
AcDbHatch
  3
AutoCAD 2000
 90
        0
280
               0
281
               1
  0
CLASS
  1
DICTIONARYVAR
  2
AcDbDictionaryVar
  3
AutoCAD 2000
 90
        0
280
               0
281
               0
  0
CLASS
  1
RASTERVARIABLES
  2
AcDbRasterVariables
  3
ISM
 90
        0
280
               0
281
               0
  0
CLASS
  1
IMAGEDEF
  2
AcDbRasterImageDef
  3
ISM
 90
        0
280
               0
281
               0
  0
CLASS
  1
IMAGEDEF_REACTOR
  2
AcDbRasterImageDefReactor
  3
ISM
 90
        1
280
               0
281
               0
  0
CLASS
  1
IDBUFFER
  2
AcDbIdBuffer
  3
AutoCAD 2000
 90
        0
280
               0
281
               0
  0
CLASS
  1
SPATIAL_FILTER
  2
AcDbSpatialFilter
  3
AutoCAD 2000
 90
        0
280
               0
281
               0
  0
CLASS
  1
XRECORD
  2
AcDbXrecord
  3
AutoCAD 2000
 90
        0
280
               0
281
               0
  0
CLASS
  1
SORTENTSTABLE
  2
AcDbSortentsTable
  3
AutoCAD 2000
 90
        0
280
               0
281
               0
  0
CLASS
  1
LAYER_INDEX
  2
AcDbLayerIndex
  3
AutoCAD 2000
 90
        0
280
               0
281
               0
  0
CLASS
  1
SPATIAL_INDEX
  2
AcDbSpatialIndex
  3
AutoCAD 2000
 90
        0
280
               0
281
               0
  0
CLASS
  1
OBJECT_PTR
  2
CAseDLPNTableRecord
  3
"ASE-LPNTableRecord"
 90
        1
280
               0
281
               0
  0
CLASS
  1
LAYOUT
  2
AcDbLayout
  3
AutoCAD 2000
 90
        0
280
               0
281
               0
  0
CLASS
  1
PLOTSETTINGS
  2
AcDbPlotSettings
  3
AutoCAD 2000
 90
        0
280
               0
281
               0
  0
CLASS
  1
ACDBDICTIONARYWDFLT
  2
AcDbDictionaryWithDefault
  3
AutoCAD 2000
 90
        0
280
               0
281
               0
  0
CLASS
  1
ACDBPLACEHOLDER
  2
AcDbPlaceHolder
  3
AutoCAD 2000
 90
        0
280
               0
281
               0
  0
ENDSEC
  0
SECTION
  2
TABLES
  0
TABLE
  2
VPORT
  5
7
100
AcDbSymbolTable
 70
               1
  0
VPORT
  5
15
100
AcDbSymbolTableRecord
100
AcDbViewportTableRecord
  2
*ACTIVE
 70
               0
 10
0.0
 20
0.0
 11
1.0
 21
1.0
 12
0.0
 22
-12.764114914906713
 13
0.0
 23
0.0
 14
1.0
 24
1.0
 15
0.0
 25
0.0
 16
0.0
 26
0.0
 36
1.0
 17
0.0
 27
0.0
 37
0.0
 40
2837.522815112412
 41
0.688564
 42
50.0
 43
0.0
 44
0.0
 50
0.0
 51
0.0
 71
               0
 72
            2000
 73
               1
 74
               1
 75
               0
 76
               0
 77
               0
 78
               0
281
               0
 65
               0
110
0.0
120
0.0
130
0.0
111
1.0
121
0.0
131
0.0
112
0.0
122
1.0
132
0.0
345
0
346
0
 79
               0
146
0.0
  0
ENDTAB
  0
TABLE
  2
LTYPE
  5
4
100
AcDbSymbolTable
 70
              17
  0
LTYPE
  5
11
100
AcDbSymbolTableRecord
100
AcDbLinetypeTableRecord
  2
ByBlock
 70
              64
  3

 72
              65
 73
               0
 40
0.0
  0
LTYPE
  5
12
100
AcDbSymbolTableRecord
100
AcDbLinetypeTableRecord
  2
ByLayer
 70
              64
  3

 72
              65
 73
               0
 40
0.0
  0
LTYPE
  5
13
100
AcDbSymbolTableRecord
100
AcDbLinetypeTableRecord
  2
Continuous
 70
              64
  3
Solid line
 72
              65
 73
               0
 40
0.0
  0
LTYPE
  5
39
100
AcDbSymbolTableRecord
100
AcDbLinetypeTableRecord
  2
STYLE_01
 70
               0
  3

 72
              65
 73
               4
 40
0.3999999999999999
 49
0.25
 74
               0
 49
-0.05
 74
               0
 49
0.05
 74
               0
 49
-0.05
 74
               0
  0
LTYPE
  5
3A
100
AcDbSymbolTableRecord
100
AcDbLinetypeTableRecord
  2
STYLE_02
 70
               0
  3

 72
              65
 73
               4
 40
0.3999999999999999
 49
0.25
 74
               0
 49
-0.05
 74
               0
 49
0.05
 74
               0
 49
-0.05
 74
               0
  0
LTYPE
  5
3B
100
AcDbSymbolTableRecord
100
AcDbLinetypeTableRecord
  2
STYLE_03
 70
               0
  3

 72
              65
 73
               2
 40
1.25
 49
1.0416400000000001
 74
               0
 49
-0.2083599999999999
 74
               0
  0
LTYPE
  5
3C
100
AcDbSymbolTableRecord
100
AcDbLinetypeTableRecord
  2
STYLE_04
 70
               0
  3

 72
              65
 73
               2
 40
1.5277099999999999
 49
1.3194249999999998
 74
               0
 49
-0.208285
 74
               0
  0
LTYPE
  5
3D
100
AcDbSymbolTableRecord
100
AcDbLinetypeTableRecord
  2
STYLE_05
 70
               0
  3

 72
              65
 73
               2
 40
0.20828
 49
0.069425
 74
               0
 49
-0.138855
 74
               0
  0
LTYPE
  5
3E
100
AcDbSymbolTableRecord
100
AcDbLinetypeTableRecord
  2
STYLE_06
 70
               0
  3

 72
              65
 73
               4
 40
1.0416400000000001
 49
0.625
 74
               0
 49
-0.20828
 74
               0
 49
0.06943
 74
               0
 49
-0.13893
 74
               0
  0
LTYPE
  5
3F
100
AcDbSymbolTableRecord
100
AcDbLinetypeTableRecord
  2
STYLE_07
 70
               0
  3

 72
              65
 73
               6
 40
1.875
 49
0.625
 74
               0
 49
-0.20828
 74
               0
 49
0.6250000000000001
 74
               0
 49
-0.2083599999999999
 74
               0
 49
0.06943
 74
               0
 49
-0.1389299999999999
 74
               0
  0
LTYPE
  5
40
100
AcDbSymbolTableRecord
100
AcDbLinetypeTableRecord
  2
STYLE_08
 70
               0
  3

 72
              65
 73
               6
 40
1.25
 49
0.625
 74
               0
 49
-0.20828
 74
               0
 49
0.06943
 74
               0
 49
-0.13893
 74
               0
 49
0.0694299999999999
 74
               0
 49
-0.13893
 74
               0
  0
LTYPE
  5
41
100
AcDbSymbolTableRecord
100
AcDbLinetypeTableRecord
  2
STYLE_09
 70
               0
  3

 72
              65
 73
               4
 40
5.0
 49
3.75
 74
               0
 49
-0.2777849999999998
 74
               0
 49
0.6944300000000003
 74
               0
 49
-0.2777849999999998
 74
               0
  0
LTYPE
  5
42
100
AcDbSymbolTableRecord
100
AcDbLinetypeTableRecord
  2
STYLE_10
 70
               0
  3

 72
              65
 73
               6
 40
5.9375
 49
3.75
 74
               0
 49
-0.2777849999999998
 74
               0
 49
0.6944300000000003
 74
               0
 49
-0.2777849999999998
 74
               0
 49
0.625
 74
               0
 49
-0.3125
 74
               0
  0
LTYPE
  5
43
100
AcDbSymbolTableRecord
100
AcDbLinetypeTableRecord
  2
STYLE_11
 70
               0
  3

 72
              65
 73
               2
 40
0.0694444881889764
 49
0.0347222440944882
 74
               0
 49
-0.0347222440944882
 74
               0
  0
LTYPE
  5
44
100
AcDbSymbolTableRecord
100
AcDbLinetypeTableRecord
  2
STYLE_12
 70
               0
  3

 72
              65
 73
               2
 40
0.3937007874015748
 49
0.1968503937007874
 74
               0
 49
-0.1968503937007874
 74
               0
  0
LTYPE
  5
45
100
AcDbSymbolTableRecord
100
AcDbLinetypeTableRecord
  2
STYLE_13
 70
               0
  3

 72
              65
 73
               2
 40
0.5905511811023622
 49
0.2952755905511811
 74
               0
 49
-0.2952755905511811
 74
               0
  0
LTYPE
  5
46
100
AcDbSymbolTableRecord
100
AcDbLinetypeTableRecord
  2
STYLE_14
 70
               0
  3

 72
              65
 73
               2
 40
1.9685039370078738
 49
0.9842519685039369
 74
               0
 49
-0.9842519685039369
 74
               0
  0
ENDTAB
  0
TABLE
  2
LAYER
  5
2
100
AcDbSymbolTable
 70
               5
  0
LAYER
  5
14
100
AcDbSymbolTableRecord
100
AcDbLayerTableRecord
  2
0
 70
               0
 62
               7
  6
Continuous
290
               1
370
              -3
390
1D
  0
LAYER
  5
47
100
AcDbSymbolTableRecord
100
AcDbLayerTableRecord
  2
Defpoints
 70
               0
 62
               7
  6
Continuous
290
               0
370
              -3
390
1D
  0
LAYER
  5
48
100
AcDbSymbolTableRecord
100
AcDbLayerTableRecord
  2
template
 70
               0
 62
               7
  6
Continuous
290
               1
370
              -3
390
1D
  0
LAYER
  5
49
100
AcDbSymbolTableRecord
100
AcDbLayerTableRecord
  2
notes
 70
               0
 62
               7
  6
Continuous
290
               1
370
              -3
390
1D
  0
LAYER
  5
4A
100
AcDbSymbolTableRecord
100
AcDbLayerTableRecord
  2
FAN70-1306
 70
               0
 62
               7
  6
Continuous
290
               1
370
              -3
390
1D
  0
ENDTAB
  0
TABLE
  2
STYLE
  5
3
100
AcDbSymbolTable
 70
               2
  0
STYLE
  5
17
100
AcDbSymbolTableRecord
100
AcDbTextStyleTableRecord
  2
Standard
 70
               0
 40
0.0
 41
1.0
 50
0.0
 71
               0
 42
0.0
  3
txt
  4
BIGFONT.SHX
  0
STYLE
  5
38
100
AcDbSymbolTableRecord
100
AcDbTextStyleTableRecord
  2
ＭＳ ゴシック
 70
               0
 40
0.0
 41
1.0
 50
0.0
 71
               0
 42
0.0
  3

  4
ＭＳ ゴシック
1001
ACAD
1000
ＭＳ ゴシック
1071
        0
  0
ENDTAB
  0
TABLE
  2
VIEW
  5
5
100
AcDbSymbolTable
 70
               0
  0
ENDTAB
  0
TABLE
  2
UCS
  5
6
100
AcDbSymbolTable
 70
               0
  0
ENDTAB
  0
TABLE
  2
APPID
  5
8
100
AcDbSymbolTable
 70
               1
  0
APPID
  5
16
100
AcDbSymbolTableRecord
100
AcDbRegAppTableRecord
  2
ACAD
 70
               0
  0
ENDTAB
  0
TABLE
  2
DIMSTYLE
  5
9
100
AcDbSymbolTable
 70
               3
100
AcDbDimStyleTable
 71
               0
  0
DIMSTYLE
105
18
100
AcDbSymbolTableRecord
100
AcDbDimStyleTableRecord
  2
Standard
 70
               0
  3

  4

 40
1.0
 41
0.18
 42
0.0625
 43
0.38
 44
0.18
 45
0.0
 46
0.0
 47
0.0
 48
0.0
 71
               0
 72
               0
 73
               1
 74
               1
 75
               0
 76
               0
 77
               0
 78
               0
 79
               0
140
0.18
141
0.09
142
0.0
143
25.399999999999999
144
1.0
145
0.0
146
1.0
147
0.09
148
0.0
170
               0
171
               2
172
               0
173
               0
174
               0
175
               0
176
               0
177
               0
178
               0
179
               0
271
               4
272
               4
273
               2
274
               2
275
               0
276
               0
277
               2
278
              46
279
               0
280
               0
281
               0
282
               0
283
               1
284
               0
285
               0
286
               0
288
               0
289
               3
340
17
341
0
342
0
343
0
344
0
371
              -2
372
              -2
  0
DIMSTYLE
105
53
100
AcDbSymbolTableRecord
100
AcDbDimStyleTableRecord
  2
tfrom線あり
 70
               0
  3
<>
  4
[]
 40
1.0
 41
9.9993896484374982
 42
24.999999999999996
 43
0.9999999999999999
 44
0.0
 45
0.0
 46
0.0
 47
0.0
 48
0.0
 71
               0
 72
               0
 73
               0
 74
               0
 75
               0
 76
               0
 77
               1
 78
              11
 79
               0
140
24.432617187500004
141
0.0
142
0.0
143
1.0
144
1.0
145
0.0
146
1.0
147
0.4999999999999999
148
0.0
170
               0
171
               1
172
               0
173
               0
174
               1
175
               0
176
               0
177
               0
178
               0
179
               2
271
               1
272
               1
273
               2
274
               2
275
               0
276
               2
277
               2
278
              46
279
               0
280
               0
281
               0
282
               0
283
               1
284
              11
285
              11
286
              11
288
               0
289
               0
340
38
341
4B
342
4B
343
0
344
0
371
              -2
372
              -2
  0
DIMSTYLE
105
58
100
AcDbSymbolTableRecord
100
AcDbDimStyleTableRecord
  2
JIS
 70
               0
  3
<>
  4
[]
 40
1.0
 41
31.75
 42
0.0
 43
6.9999999999999396
 44
19.999999999996199
 45
0.0
 46
0.0
 47
0.0
 48
0.0
 71
               0
 72
               0
 73
               0
 74
               0
 75
               0
 76
               0
 77
               1
 78
              11
 79
               0
140
24.432617187500004
141
0.0
142
0.0
143
1.0
144
1.0
145
0.0
146
1.0
147
1.00000000000108
148
0.0
170
               0
171
               1
172
               0
173
               0
174
               1
175
               0
176
               0
177
               0
178
               0
179
               2
271
               1
272
               1
273
               2
274
               2
275
               0
276
               2
277
               2
278
              46
279
               0
280
               0
281
               0
282
               0
283
               1
284
              11
285
              11
286
              11
288
               0
289
               0
340
38
341
54
342
54
343
0
344
0
371
              -2
372
              -2
  0
ENDTAB
  0
TABLE
  2
BLOCK_RECORD
  5
1
100
AcDbSymbolTable
 70
              23
  0
BLOCK_RECORD
  5
A
100
AcDbSymbolTableRecord
100
AcDbBlockTableRecord
  2
*MODEL_SPACE
340
20
  0
BLOCK_RECORD
  5
B
100
AcDbSymbolTableRecord
100
AcDbBlockTableRecord
  2
*PAPER_SPACE
340
21
  0
BLOCK_RECORD
  5
4B
100
AcDbSymbolTableRecord
100
AcDbBlockTableRecord
  2
_DOT
340
0
  0
BLOCK_RECORD
  5
54
100
AcDbSymbolTableRecord
100
AcDbBlockTableRecord
  2
VW_FILLEDARROW
340
0
  0
BLOCK_RECORD
  5
23
100
AcDbSymbolTableRecord
100
AcDbBlockTableRecord
  2
グループ
340
0
102
{BLKREFS
331
164
102
}
  0
BLOCK_RECORD
  5
24
100
AcDbSymbolTableRecord
100
AcDbBlockTableRecord
  2
グループ-1
340
0
102
{BLKREFS
331
171
102
}
  0
BLOCK_RECORD
  5
25
100
AcDbSymbolTableRecord
100
AcDbBlockTableRecord
  2
グループ-2
340
0
102
{BLKREFS
331
172
102
}
  0
BLOCK_RECORD
  5
26
100
AcDbSymbolTableRecord
100
AcDbBlockTableRecord
  2
*D5
340
0
  0
BLOCK_RECORD
  5
27
100
AcDbSymbolTableRecord
100
AcDbBlockTableRecord
  2
*D6
340
0
  0
BLOCK_RECORD
  5
28
100
AcDbSymbolTableRecord
100
AcDbBlockTableRecord
  2
*D7
340
0
  0
BLOCK_RECORD
  5
29
100
AcDbSymbolTableRecord
100
AcDbBlockTableRecord
  2
*D8
340
0
  0
BLOCK_RECORD
  5
2A
100
AcDbSymbolTableRecord
100
AcDbBlockTableRecord
  2
*D9
340
0
  0
BLOCK_RECORD
  5
2B
100
AcDbSymbolTableRecord
100
AcDbBlockTableRecord
  2
*D10
340
0
  0
BLOCK_RECORD
  5
2C
100
AcDbSymbolTableRecord
100
AcDbBlockTableRecord
  2
*D11
340
0
  0
BLOCK_RECORD
  5
2D
100
AcDbSymbolTableRecord
100
AcDbBlockTableRecord
  2
*D12
340
0
  0
BLOCK_RECORD
  5
2E
100
AcDbSymbolTableRecord
100
AcDbBlockTableRecord
  2
*D13
340
0
  0
BLOCK_RECORD
  5
2F
100
AcDbSymbolTableRecord
100
AcDbBlockTableRecord
  2
*D14
340
0
  0
BLOCK_RECORD
  5
30
100
AcDbSymbolTableRecord
100
AcDbBlockTableRecord
  2
*D15
340
0
  0
BLOCK_RECORD
  5
31
100
AcDbSymbolTableRecord
100
AcDbBlockTableRecord
  2
*D16
340
0
  0
BLOCK_RECORD
  5
32
100
AcDbSymbolTableRecord
100
AcDbBlockTableRecord
  2
*D17
340
0
  0
BLOCK_RECORD
  5
33
100
AcDbSymbolTableRecord
100
AcDbBlockTableRecord
  2
*D18
340
0
  0
BLOCK_RECORD
  5
34
100
AcDbSymbolTableRecord
100
AcDbBlockTableRecord
  2
*D19
340
0
  0
BLOCK_RECORD
  5
35
100
AcDbSymbolTableRecord
100
AcDbBlockTableRecord
  2
*D20
340
0
  0
BLOCK_RECORD
  5
36
100
AcDbSymbolTableRecord
100
AcDbBlockTableRecord
  2
*D21
340
0
  0
BLOCK_RECORD
  5
37
100
AcDbSymbolTableRecord
100
AcDbBlockTableRecord
  2
*D22
340
0
  0
ENDTAB
  0
ENDSEC
  0
SECTION
  2
BLOCKS
  0
BLOCK
  5
D
100
AcDbEntity
  8
0
390
0
100
AcDbBlockBegin
  2
*MODEL_SPACE
 70
               0
 10
0.0
 20
0.0
 30
0.0
  3
*MODEL_SPACE
  1

  0
ENDBLK
  5
E
100
AcDbEntity
  8
0
390
0
100
AcDbBlockEnd
  0
BLOCK
  5
F
100
AcDbEntity
 67
               1
  8
0
390
0
100
AcDbBlockBegin
  2
*PAPER_SPACE
 70
               0
 10
0.0
 20
0.0
 30
0.0
  3
*PAPER_SPACE
  1

  0
ENDBLK
  5
10
100
AcDbEntity
 67
               1
  8
0
390
0
100
AcDbBlockEnd
  0
BLOCK
  5
4C
100
AcDbEntity
  8
0
390
0
100
AcDbBlockBegin
  2
_DOT
 70
               0
 10
0.0
 20
0.0
 30
0.0
  3
_DOT
  1

  0
POLYLINE
  5
4D
100
AcDbEntity
  8
0
370
              -2
390
0
  6
ByBlock
 62
               0
100
AcDb2dPolyline
 66
               1
 10
0.0
 20
0.0
 30
0.0
 70
               1
 40
0.5
 41
0.5
  0
VERTEX
  5
4E
100
AcDbEntity
  8
0
370
              -2
390
0
  6
ByBlock
 62
               0
100
AcDbVertex
100
AcDb2dVertex
 10
-0.25
 20
0.0
 30
0.0
 42
1.0
  0
VERTEX
  5
4F
100
AcDbEntity
  8
0
370
              -2
390
0
  6
ByBlock
 62
               0
100
AcDbVertex
100
AcDb2dVertex
 10
0.25
 20
0.0
 30
0.0
 42
1.0
  0
SEQEND
  5
50
100
AcDbEntity
  8
0
390
0
  0
LINE
  5
51
100
AcDbEntity
  8
0
370
              -2
390
0
  6
ByBlock
 62
               0
100
AcDbLine
 10
-0.5
 20
0.0
 30
0.0
 11
-1.0
 21
0.0
 31
0.0
  0
ENDBLK
  5
52
100
AcDbEntity
  8
0
390
0
100
AcDbBlockEnd
  0
BLOCK
  5
55
100
AcDbEntity
  8
0
370
              -2
390
0
  6
ByBlock
 62
               0
100
AcDbBlockBegin
  2
VW_FILLEDARROW
 70
               0
 10
0.0
 20
0.0
 30
0.0
  3
VW_FILLEDARROW
  1

  0
SOLID
  5
56
100
AcDbEntity
  8
0
370
              -2
390
0
 62
               0
100
AcDbTrace
 10
0.0
 20
0.0
 30
0.0
 11
-0.9921874999999999
 21
-0.2658558393652545
 31
0.0
 12
-0.9921874999999999
 22
0.2658558393652548
 32
0.0
 13
-0.9921874999999999
 23
0.2658558393652548
 33
0.0
  0
ENDBLK
  5
57
100
AcDbEntity
  8
0
390
0
100
AcDbBlockEnd
  0
BLOCK
  5
59
100
AcDbEntity
  8
template
390
0
100
AcDbBlockBegin
  2
グループ
 70
               0
 10
0.0
 20
0.0
 30
0.0
  3
グループ
  1

  0
LWPOLYLINE
  5
5A
100
AcDbEntity
  8
0
370
              15
390
0
  6
Continuous
 62
               7
100
AcDbPolyline
 90
        8
 70
             129
 10
1582.3728679465805
 20
-775.99070484580545
 10
1582.3728679465805
 20
-781.98809353938134
 10
1572.8716710285773
 20
-781.98809353938134
 10
1572.8716710285773
 20
-806.43905680289015
 10
1564.5162937667944
 20
-806.43905680289015
 10
1564.5162937667944
 20
-781.98809353938134
 10
1555.183336820485
 20
-781.98809353938134
 10
1555.183336820485
 20
-775.99070484580545
  0
LWPOLYLINE
  5
5B
100
AcDbEntity
  8
0
370
              15
390
0
  6
Continuous
 62
               7
100
AcDbPolyline
 90
      101
 70
             128
 10
1595.1011597771376
 20
-776.71895333874193
 10
1595.1165098059246
 20
-776.7145925820563
 42
-0.0222221607813403
 10
1595.4065143825937
 20
-776.64596811681224
 10
1595.4223081465852
 20
-776.64296469371561
 42
-0.0146883565585156
 10
1595.6850108518115
 20
-776.60096150676588
 42
-0.0127458844186578
 10
1595.9496498189626
 20
-776.57342453869353
 10
1596.0121048972771
 20
-776.56853111610519
 42
-0.0198099018565778
 10
1596.4029540067509
 20
-776.55344595870861
 10
1596.4547654761977
 20
-776.55349973437364
 42
-0.014761738276136
 10
1596.9493889371734
 20
-776.56861975961863
 10
1597.0220803920458
 20
-776.57299236650613
 42
-0.016262454900343
 10
1597.4122340215115
 20
-776.60922524177852
 10
1597.5337664127753
 20
-776.62451180077562
 42
-0.0080020874663092
 10
1597.6793454438623
 20
-776.64519464804346
 10
1597.7176649144496
 20
-776.65126592585329
 42
-0.0053821929687266
 10
1597.7861490197722
 20
-776.66287344967611
 10
1597.0597433205735
 20
-778.84380190539002
 42
0.0108667757412435
 10
1596.9924262504421
 20
-778.8306147901701
 10
1596.9549582272532
 20
-778.82411704757567
 42
0.0170663203304047
 10
1596.8117414403382
 20
-778.80428745028394
 10
1596.7438661076546
 20
-778.79724027969644
 42
0.0220162375274529
 10
1596.4634866998003
 20
-778.78055791892632
 10
1596.3856311327461
 20
-778.77935855165981
 42
0.0282606915789039
 10
1596.0499948091692
 20
-778.79316182862885
 10
1596.0060815353975
 20
-778.79746181863243
 42
0.0169677213690988
 10
1595.7601570404381
 20
-778.82999886818448
 42
0.0190576269872787
 10
1595.5172490778557
 20
-778.88014574029148
 10
1595.5109898897472
 20
-778.88168871440018
 42
0.0213685642841825
 10
1595.2606054052696
 20
-778.95488899950487
 10
1595.2551155103533
 20
-778.95675199556399
 42
0.0237595297600946
 10
1595.0016206254538
 20
-779.05643651745993
 10
1594.996518551425
 20
-779.05872829293776
 42
0.0261857468820339
 10
1594.7443477751951
 20
-779.18826463031223
 10
1594.7339215861075
 20
-779.19433010478087
 42
0.0272553062026527
 10
1594.4974918108696
 20
-779.34970231072498
 10
1594.4627287973594
 20
-779.37536345881779
 42
0.0325996893176783
 10
1594.3125734537084
 20
-779.50211133178857
 10
1594.2888640245769
 20
-779.52492936030956
 42
0.0138050960647751
 10
1594.1969808683752
 20
-779.61837902185312
 42
0.0125280103804838
 10
1594.1101383355394
 20
-779.71654234845596
 10
1594.0864578906335
 20
-779.74470084664051
 42
0.020521802474222
 10
1593.9613578151179
 20
-779.90649416087206
 10
1593.9388914746326
 20
-779.93815389069653
 42
0.0163110129576709
 10
1593.7831810953835
 20
-780.1734843257625
 10
1593.7804571993302
 20
-780.17790808775192
 42
0.0131897341897009
 10
1593.6336566784257
 20
-780.43104018011411
 10
1593.6319565830579
 20
-780.43415841925207
 42
0.0107895576063828
 10
1593.4941798808502
 20
-780.70037362888115
 10
1593.4934469913221
 20
-780.70186786153374
 42
0.0091371507209888
 10
1593.364967042678
 20
-780.97639305928101
 10
1593.3352214112633
 20
-781.04309956645216
 42
0.0135418326349242
 10
1593.1635074721912
 20
-781.45803735172194
 10
1593.1299026637582
 20
-781.54590349399984
 42
0.0092834542410572
 10
1592.9586736038366
 20
-782.01980199230752
 10
1592.9330564761224
 20
-782.09504306209078
 42
0.0054261043578768
 10
1592.8254183278259
 20
-782.42280703516599
 10
1592.8078923416554
 20
-782.47819519737436
 42
0.0008225090815496
 10
1592.7392222898186
 20
-782.69646395554525
 10
1591.7545331578851
 20
-785.72135524880184
 10
1594.9871569979589
 20
-785.72135524880184
 10
1594.4829645681054
 20
-787.62583354715423
 10
1591.2269082861221
 20
-787.62583354715423
 10
1585.3977592537683
 20
-806.4390566131591
 10
1583.5726616434581
 20
-806.4390566131591
 10
1589.407339678959
 20
-787.62583354715423
 10
1587.0022233099187
 20
-787.62583354715423
 10
1587.5064157397721
 20
-785.72135524880184
 10
1589.934964550722
 20
-785.72135524880184
 10
1590.7951194689108
 20
-783.08494224810295
 42
-0.0005863560656179
 10
1590.8318541471147
 20
-782.96811582781072
 10
1590.9079419807745
 20
-782.72712352842575
 42
-0.0087522378927192
 10
1591.1074101242325
 20
-782.13184744127659
 10
1591.1996743996494
 20
-781.87170727275372
 42
-0.0077400953828948
 10
1591.457608058776
 20
-781.17870259521806
 10
1591.4733730303569
 20
-781.13827171182709
 42
-0.0082369946329515
 10
1591.7204575009669
 20
-780.53419264563627
 42
-0.0085725238365517
 10
1591.9877035969669
 20
-779.9387666063551
 10
1592.0893331979782
 20
-779.72234550436167
 42
-0.0168109410595251
 10
1592.3762776267072
 20
-779.16113797825972
 10
1592.502121017124
 20
-778.93417394533833
 42
-0.0007817726873915
 10
1592.5564053672229
 20
-778.83662970023124
 10
1592.5565336732427
 20
-778.83639999149045
 42
-0.0036626142158961
 10
1592.6114215372613
 20
-778.73980211152627
 42
-0.0080221150669868
 10
1592.6685457926683
 20
-778.64452287677295
 10
1592.6992457440292
 20
-778.59513192765121
 42
-0.0202139325567142
 10
1592.8269014838379
 20
-778.4071503269671
 10
1592.8809689490236
 20
-778.33407146272896
 42
-0.0249323791800587
 10
1593.1401317427387
 20
-778.01802622057903
 10
1593.1642715568696
 20
-777.99141194766207
 42
-0.0242132121538367
 10
1593.5039522984146
 20
-777.65152846145565
 10
1593.5518638711635
 20
-777.6080193252709
 42
-0.0251017527853591
 10
1593.835845571803
 20
-777.37502657950722
 10
1593.8372910486203
 20
-777.37395732192567
 42
-0.0130868069032495
 10
1594.1355516985741
 20
-777.16517685338579
 10
1594.1371135177185
 20
-777.16414341310974
 42
-0.0290329526390984
 10
1594.4482246591101
 20
-776.98331791148144
 10
1594.4780702210962
 20
-776.96821552864185
 42
-0.0160250190051676
 10
1594.7439746348609
 20
-776.84419941842862
 42
-0.0267600374782658
 10
1595.0192507123322
 20
-776.7434510978793
 10
1595.0459866318506
 20
-776.73525853905437
 42
-0.0049981587670178
 10
1595.1011597771376
 20
-776.71895333874193
 42
-0.0049981587670178
  0
LWPOLYLINE
  5
5C
100
AcDbEntity
  8
0
370
              15
390
0
  6
Continuous
 62
               7
100
AcDbPolyline
 90
      118
 70
             128
 10
1614.9155273415845
 20
-785.79533857662921
 10
1616.7906492660838
 20
-785.79533857662921
 10
1615.952610360484
 20
-788.47690510302925
 42
-0.0010587229233968
 10
1615.9840661760729
 20
-788.4400005696541
 10
1616.0422602666879
 20
-788.37201831349819
 42
-0.0071874740409541
 10
1616.1926354847863
 20
-788.20137762146885
 10
1616.3343582580483
 20
-788.04514148015596
 42
-0.014811805350985
 10
1616.7844875507631
 20
-787.57752763414055
 10
1616.8717098856582
 20
-787.49213031329373
 42
-0.0086273358692951
 10
1617.2072586866711
 20
-787.17475467927295
 10
1617.2510924028988
 20
-787.13470503493829
 42
-0.0103138323111465
 10
1617.5091161051305
 20
-786.90854189760159
 10
1617.5548905114708
 20
-786.87005985033045
 42
-0.0060206748561911
 10
1617.7277385755699
 20
-786.72826519958699
 10
1617.7297697064421
 20
-786.72663949396679
 42
-0.0067069027295052
 10
1617.9020625211183
 20
-786.59248886016076
 10
1617.9046112870508
 20
-786.59055869028055
 42
-0.0076184352040032
 10
1618.0755165529156
 20
-786.46518381504166
 42
-0.0089652861678168
 10
1618.2504775156499
 20
-786.34555055470923
 10
1618.286829235793
 20
-786.32163934122741
 42
-0.0156916245943233
 10
1618.4827887329552
 20
-786.20137685475174
 42
-0.0023299011056827
 10
1618.68305077694
 20
-786.08819891520807
 10
1618.698434909315
 20
-786.07959892014617
 42
-0.0107669341481184
 10
1618.9326717344225
 20
-785.9551987867934
 10
1618.954936535491
 20
-785.94398203684671
 42
-0.0078058045899073
 10
1619.2385266534366
 20
-785.80662058121163
 10
1619.2484337411529
 20
-785.80201145333979
 42
-0.0181829330470558
 10
1619.5587431457682
 20
-785.67114771224431
 10
1619.6127985883325
 20
-785.6506325923018
 42
-0.0208411536030905
 10
1619.9618835557858
 20
-785.53454212980751
 10
1619.9762396559127
 20
-785.53042368485421
 42
-0.0222799817142457
 10
1620.3049594498302
 20
-785.45178211871371
 10
1620.3138484130679
 20
-785.45007010812844
 42
-0.0215509523880116
 10
1620.6303193813471
 20
-785.40315441959433
 10
1620.6728013423958
 20
-785.39871689280346
 42
-0.0182545924871143
 10
1620.9069101217015
 20
-785.38287306741256
 10
1620.9463111380448
 20
-785.38164852233353
 42
-0.0072962856540498
 10
1621.1022340177383
 20
-785.37907919381121
 10
1621.1313336883093
 20
-785.37902435840749
 42
-0.0059227516333228
 10
1621.2290831874552
 20
-785.37999807019787
 10
1621.2583254049371
 20
-785.38063583680139
 42
-0.0011833111906076
 10
1621.2975766886595
 20
-785.38158484111125
 10
1620.5021900930524
 20
-787.92031878621026
 42
0.0143932051590655
 10
1620.4757887107014
 20
-787.91011981616487
 10
1620.4685167382845
 20
-787.9075485973076
 42
0.0234388603484753
 10
1620.4266858723513
 20
-787.89492936159195
 10
1620.4180042094399
 20
-787.89274839958728
 42
0.0199162742985605
 10
1620.3577153753617
 20
-787.88013166425253
 10
1620.3369014375535
 20
-787.87663446482372
 42
0.029364355066735
 10
1620.2338265787942
 20
-787.86548441917057
 10
1620.2091413980741
 20
-787.86427280215196
 42
0.0214606686863095
 10
1620.0560004821239
 20
-787.86333424173449
 10
1620.0466285713037
 20
-787.86367915327878
 42
0.0167564054179955
 10
1619.875108380189
 20
-787.87575619564745
 10
1619.8666485874362
 20
-787.87663753607399
 42
0.0137677553237023
 10
1619.6792952741725
 20
-787.90138684461726
 10
1619.6719435346636
 20
-787.90256476458546
 42
0.0118497261481838
 10
1619.4714457705659
 20
-787.93958211477377
 10
1619.4652957633152
 20
-787.94086897749469
 42
0.0106421143890996
 10
1619.2544148760301
 20
-787.98970135306945
 10
1619.2495060676411
 20
-787.99094869575458
 42
0.0099746379706015
 10
1619.0310475984691
 20
-788.05112322407206
 10
1618.9694995583081
 20
-788.06940510269999
 42
0.0191613675857857
 10
1618.6335150957934
 20
-788.18338248298664
 10
1618.5454553230475
 20
-788.21706939331091
 42
0.020527408014298
 10
1618.1601485511464
 20
-788.38289780113757
 10
1618.1024992691659
 20
-788.41056576570929
 42
0.0181256912192445
 10
1617.8442223284974
 20
-788.54624958468776
 10
1617.7912669451798
 20
-788.57656719790464
 42
0.0140709242414249
 10
1617.6463120105552
 20
-788.66506187133689
 10
1617.6200631419424
 20
-788.6821186900487
 42
0.0086667884392535
 10
1617.5311369803942
 20
-788.74212135793516
 42
0.0036408192025019
 10
1617.4437037423522
 20
-788.80430221573374
 10
1617.4084768678922
 20
-788.82974316164029
 42
0.0052260781277527
 10
1617.2522481704973
 20
-788.94507554827749
 10
1617.2360413142414
 20
-788.95730365889267
 42
0.005002443589747
 10
1617.0500379711748
 20
-789.10058622716087
 10
1617.0347198146674
 20
-789.11263224960067
 42
0.0136138710272588
 10
1616.8242785463483
 20
-789.28759875450874
 10
1616.7906106705486
 20
-789.31717772722823
 42
0.0172815186913085
 10
1616.5262071288901
 20
-789.56617439984768
 10
1616.5236447830434
 20
-789.56876021699873
 42
0.018940385799304
 10
1616.2730629844618
 20
-789.84156548180601
 10
1616.2404314909306
 20
-789.87990941329758
 42
0.0185044199501483
 10
1616.0484750519483
 20
-790.12315799442308
 42
0.0088565243898026
 10
1615.8700149453266
 20
-790.37667441456324
 10
1615.8608369656713
 20
-790.39021579433313
 42
0.0157195347229058
 10
1615.6776163593343
 20
-790.67973800365371
 10
1615.6315334174028
 20
-790.75789020067577
 42
0.0095451879783822
 10
1615.4664478672689
 20
-791.0504848430262
 10
1615.4552999483326
 20
-791.07115551517074
 42
0.0100351706264651
 10
1615.3232561991799
 20
-791.32821107564894
 42
0.0086935915421357
 10
1615.2009250473873
 20
-791.59004422105056
 10
1615.1976043059715
 20
-791.59748654402517
 42
0.0072580174862672
 10
1615.0772578540311
 20
-791.87807853559696
 10
1615.0739962207201
 20
-791.88599856162614
 42
0.0060005122610909
 10
1614.9547955523817
 20
-792.18560823222015
 10
1614.9515845740357
 20
-792.19396976013604
 42
0.0049017786975104
 10
1614.8326844151904
 20
-792.5128987407071
 10
1614.829518608788
 20
-792.52165167797079
 42
0.0039415167607406
 10
1614.7100823307287
 20
-792.86019374039154
 10
1614.7069512280791
 20
-792.86929694126013
 42
0.0031035838768184
 10
1614.5861464423715
 20
-793.22773680307796
 10
1614.5830363978557
 20
-793.23715742440845
 42
0.0025070747149137
 10
1614.4601350465634
 20
-793.61580464127996
 10
1614.4228411501149
 20
-793.73269630660536
 42
0.0029081910282163
 10
1614.2308228523107
 20
-794.34685996487462
 10
1614.1900196837869
 20
-794.48008320717292
 42
0.0009266453733838
 10
1613.9216023094518
 20
-795.36230766716403
 10
1613.9007148368489
 20
-795.43141954627492
 42
-0.0005809993666188
 10
1613.6233781562405
 20
-796.34522765297129
 10
1613.5570963579869
 20
-796.56271258506774
 42
-0.0012018708172709
 10
1613.4101120485384
 20
-797.04087524965166
 10
1613.3577921969793
 20
-797.20963439049649
 42
-0.0002691059604846
 10
1613.3142227158044
 20
-797.34990201085941
 10
1610.481266817515
 20
-806.4390566131591
 10
1608.6632779255365
 20
-806.4390566131591
 10
1614.9155273415845
 20
-785.79533857662921
  0
SPLINE
  5
5D
100
AcDbEntity
  8
0
370
              15
390
0
  6
Continuous
 62
               7
100
AcDbSpline
210
0.0
220
0.0
230
1.0
 70
              13
 71
               2
 72
             782
 73
             779
 74
               0
 42
0.000001
 43
0.000001
 40
0.0
 40
0.0
 40
0.0
 40
1.0
 40
1.0
 40
2.0
 40
2.0
 40
3.0
 40
3.0
 40
4.0
 40
4.0
 40
5.0
 40
5.0
 40
6.0
 40
6.0
 40
7.0
 40
7.0
 40
8.0
 40
8.0
 40
9.0
 40
9.0
 40
10.0
 40
10.0
 40
11.0
 40
11.0
 40
12.0
 40
12.0
 40
13.0
 40
13.0
 40
14.0
 40
14.0
 40
15.0
 40
15.0
 40
16.0
 40
16.0
 40
17.0
 40
17.0
 40
18.0
 40
18.0
 40
19.0
 40
19.0
 40
20.0
 40
20.0
 40
21.0
 40
21.0
 40
22.0
 40
22.0
 40
23.0
 40
23.0
 40
24.0
 40
24.0
 40
25.0
 40
25.0
 40
26.0
 40
26.0
 40
27.0
 40
27.0
 40
28.0
 40
28.0
 40
29.0
 40
29.0
 40
30.0
 40
30.0
 40
31.0
 40
31.0
 40
32.0
 40
32.0
 40
33.0
 40
33.0
 40
34.0
 40
34.0
 40
35.0
 40
35.0
 40
36.0
 40
36.0
 40
37.0
 40
37.0
 40
38.0
 40
38.0
 40
39.0
 40
39.0
 40
40.0
 40
40.0
 40
41.0
 40
41.0
 40
42.0
 40
42.0
 40
43.0
 40
43.0
 40
44.0
 40
44.0
 40
45.0
 40
45.0
 40
46.0
 40
46.0
 40
47.0
 40
47.0
 40
48.0
 40
48.0
 40
49.0
 40
49.0
 40
50.0
 40
50.0
 40
51.0
 40
51.0
 40
52.0
 40
52.0
 40
53.0
 40
53.0
 40
54.0
 40
54.0
 40
55.0
 40
55.0
 40
56.0
 40
56.0
 40
57.0
 40
57.0
 40
58.0
 40
58.0
 40
59.0
 40
59.0
 40
60.0
 40
60.0
 40
61.0
 40
61.0
 40
62.0
 40
62.0
 40
63.0
 40
63.0
 40
64.0
 40
64.0
 40
65.0
 40
65.0
 40
66.0
 40
66.0
 40
67.0
 40
67.0
 40
68.0
 40
68.0
 40
69.0
 40
69.0
 40
70.0
 40
70.0
 40
71.0
 40
71.0
 40
72.0
 40
72.0
 40
73.0
 40
73.0
 40
74.0
 40
74.0
 40
75.0
 40
75.0
 40
76.0
 40
76.0
 40
77.0
 40
77.0
 40
78.0
 40
78.0
 40
79.0
 40
79.0
 40
80.0
 40
80.0
 40
81.0
 40
81.0
 40
82.0
 40
82.0
 40
83.0
 40
83.0
 40
84.0
 40
84.0
 40
85.0
 40
85.0
 40
86.0
 40
86.0
 40
87.0
 40
87.0
 40
88.0
 40
88.0
 40
89.0
 40
89.0
 40
90.0
 40
90.0
 40
91.0
 40
91.0
 40
92.0
 40
92.0
 40
93.0
 40
93.0
 40
94.0
 40
94.0
 40
95.0
 40
95.0
 40
96.0
 40
96.0
 40
97.0
 40
97.0
 40
98.0
 40
98.0
 40
99.0
 40
99.0
 40
100.0
 40
100.0
 40
101.0
 40
101.0
 40
102.0
 40
102.0
 40
103.0
 40
103.0
 40
104.0
 40
104.0
 40
105.0
 40
105.0
 40
106.0
 40
106.0
 40
107.0
 40
107.0
 40
108.0
 40
108.0
 40
109.0
 40
109.0
 40
110.0
 40
110.0
 40
111.0
 40
111.0
 40
112.0
 40
112.0
 40
113.0
 40
113.0
 40
114.0
 40
114.0
 40
115.0
 40
115.0
 40
116.0
 40
116.0
 40
117.0
 40
117.0
 40
118.0
 40
118.0
 40
119.0
 40
119.0
 40
120.0
 40
120.0
 40
121.0
 40
121.0
 40
122.0
 40
122.0
 40
123.0
 40
123.0
 40
124.0
 40
124.0
 40
125.0
 40
125.0
 40
126.0
 40
126.0
 40
127.0
 40
127.0
 40
128.0
 40
128.0
 40
129.0
 40
129.0
 40
130.0
 40
130.0
 40
131.0
 40
131.0
 40
132.0
 40
132.0
 40
133.0
 40
133.0
 40
134.0
 40
134.0
 40
135.0
 40
135.0
 40
136.0
 40
136.0
 40
137.0
 40
137.0
 40
138.0
 40
138.0
 40
139.0
 40
139.0
 40
140.0
 40
140.0
 40
141.0
 40
141.0
 40
142.0
 40
142.0
 40
143.0
 40
143.0
 40
144.0
 40
144.0
 40
145.0
 40
145.0
 40
146.0
 40
146.0
 40
147.0
 40
147.0
 40
148.0
 40
148.0
 40
149.0
 40
149.0
 40
150.0
 40
150.0
 40
151.0
 40
151.0
 40
152.0
 40
152.0
 40
153.0
 40
153.0
 40
154.0
 40
154.0
 40
155.0
 40
155.0
 40
156.0
 40
156.0
 40
157.0
 40
157.0
 40
158.0
 40
158.0
 40
159.0
 40
159.0
 40
160.0
 40
160.0
 40
161.0
 40
161.0
 40
162.0
 40
162.0
 40
163.0
 40
163.0
 40
164.0
 40
164.0
 40
165.0
 40
165.0
 40
166.0
 40
166.0
 40
167.0
 40
167.0
 40
168.0
 40
168.0
 40
169.0
 40
169.0
 40
170.0
 40
170.0
 40
171.0
 40
171.0
 40
172.0
 40
172.0
 40
173.0
 40
173.0
 40
174.0
 40
174.0
 40
175.0
 40
175.0
 40
176.0
 40
176.0
 40
177.0
 40
177.0
 40
178.0
 40
178.0
 40
179.0
 40
179.0
 40
180.0
 40
180.0
 40
181.0
 40
181.0
 40
182.0
 40
182.0
 40
183.0
 40
183.0
 40
184.0
 40
184.0
 40
185.0
 40
185.0
 40
186.0
 40
186.0
 40
187.0
 40
187.0
 40
188.0
 40
188.0
 40
189.0
 40
189.0
 40
190.0
 40
190.0
 40
191.0
 40
191.0
 40
192.0
 40
192.0
 40
193.0
 40
193.0
 40
194.0
 40
194.0
 40
195.0
 40
195.0
 40
196.0
 40
196.0
 40
197.0
 40
197.0
 40
198.0
 40
198.0
 40
199.0
 40
199.0
 40
200.0
 40
200.0
 40
201.0
 40
201.0
 40
202.0
 40
202.0
 40
203.0
 40
203.0
 40
204.0
 40
204.0
 40
205.0
 40
205.0
 40
206.0
 40
206.0
 40
207.0
 40
207.0
 40
208.0
 40
208.0
 40
209.0
 40
209.0
 40
210.0
 40
210.0
 40
211.0
 40
211.0
 40
212.0
 40
212.0
 40
213.0
 40
213.0
 40
214.0
 40
214.0
 40
215.0
 40
215.0
 40
216.0
 40
216.0
 40
217.0
 40
217.0
 40
218.0
 40
218.0
 40
219.0
 40
219.0
 40
220.0
 40
220.0
 40
221.0
 40
221.0
 40
222.0
 40
222.0
 40
223.0
 40
223.0
 40
224.0
 40
224.0
 40
225.0
 40
225.0
 40
226.0
 40
226.0
 40
227.0
 40
227.0
 40
228.0
 40
228.0
 40
229.0
 40
229.0
 40
230.0
 40
230.0
 40
231.0
 40
231.0
 40
232.0
 40
232.0
 40
233.0
 40
233.0
 40
234.0
 40
234.0
 40
235.0
 40
235.0
 40
236.0
 40
236.0
 40
237.0
 40
237.0
 40
238.0
 40
238.0
 40
239.0
 40
239.0
 40
240.0
 40
240.0
 40
241.0
 40
241.0
 40
242.0
 40
242.0
 40
243.0
 40
243.0
 40
244.0
 40
244.0
 40
245.0
 40
245.0
 40
246.0
 40
246.0
 40
247.0
 40
247.0
 40
248.0
 40
248.0
 40
249.0
 40
249.0
 40
250.0
 40
250.0
 40
251.0
 40
251.0
 40
252.0
 40
252.0
 40
253.0
 40
253.0
 40
254.0
 40
254.0
 40
255.0
 40
255.0
 40
256.0
 40
256.0
 40
257.0
 40
257.0
 40
258.0
 40
258.0
 40
259.0
 40
259.0
 40
260.0
 40
260.0
 40
261.0
 40
261.0
 40
262.0
 40
262.0
 40
263.0
 40
263.0
 40
264.0
 40
264.0
 40
265.0
 40
265.0
 40
266.0
 40
266.0
 40
267.0
 40
267.0
 40
268.0
 40
268.0
 40
269.0
 40
269.0
 40
270.0
 40
270.0
 40
271.0
 40
271.0
 40
272.0
 40
272.0
 40
273.0
 40
273.0
 40
274.0
 40
274.0
 40
275.0
 40
275.0
 40
276.0
 40
276.0
 40
277.0
 40
277.0
 40
278.0
 40
278.0
 40
279.0
 40
279.0
 40
280.0
 40
280.0
 40
281.0
 40
281.0
 40
282.0
 40
282.0
 40
283.0
 40
283.0
 40
284.0
 40
284.0
 40
285.0
 40
285.0
 40
286.0
 40
286.0
 40
287.0
 40
287.0
 40
288.0
 40
288.0
 40
289.0
 40
289.0
 40
290.0
 40
290.0
 40
291.0
 40
291.0
 40
292.0
 40
292.0
 40
293.0
 40
293.0
 40
294.0
 40
294.0
 40
295.0
 40
295.0
 40
296.0
 40
296.0
 40
297.0
 40
297.0
 40
298.0
 40
298.0
 40
299.0
 40
299.0
 40
300.0
 40
300.0
 40
301.0
 40
301.0
 40
302.0
 40
302.0
 40
303.0
 40
303.0
 40
304.0
 40
304.0
 40
305.0
 40
305.0
 40
306.0
 40
306.0
 40
307.0
 40
307.0
 40
308.0
 40
308.0
 40
309.0
 40
309.0
 40
310.0
 40
310.0
 40
311.0
 40
311.0
 40
312.0
 40
312.0
 40
313.0
 40
313.0
 40
314.0
 40
314.0
 40
315.0
 40
315.0
 40
316.0
 40
316.0
 40
317.0
 40
317.0
 40
318.0
 40
318.0
 40
319.0
 40
319.0
 40
320.0
 40
320.0
 40
321.0
 40
321.0
 40
322.0
 40
322.0
 40
323.0
 40
323.0
 40
324.0
 40
324.0
 40
325.0
 40
325.0
 40
326.0
 40
326.0
 40
327.0
 40
327.0
 40
328.0
 40
328.0
 40
329.0
 40
329.0
 40
330.0
 40
330.0
 40
331.0
 40
331.0
 40
332.0
 40
332.0
 40
333.0
 40
333.0
 40
334.0
 40
334.0
 40
335.0
 40
335.0
 40
336.0
 40
336.0
 40
337.0
 40
337.0
 40
338.0
 40
338.0
 40
339.0
 40
339.0
 40
340.0
 40
340.0
 40
341.0
 40
341.0
 40
342.0
 40
342.0
 40
343.0
 40
343.0
 40
344.0
 40
344.0
 40
345.0
 40
345.0
 40
346.0
 40
346.0
 40
347.0
 40
347.0
 40
348.0
 40
348.0
 40
349.0
 40
349.0
 40
350.0
 40
350.0
 40
351.0
 40
351.0
 40
352.0
 40
352.0
 40
353.0
 40
353.0
 40
354.0
 40
354.0
 40
355.0
 40
355.0
 40
356.0
 40
356.0
 40
357.0
 40
357.0
 40
358.0
 40
358.0
 40
359.0
 40
359.0
 40
360.0
 40
360.0
 40
361.0
 40
361.0
 40
362.0
 40
362.0
 40
363.0
 40
363.0
 40
364.0
 40
364.0
 40
365.0
 40
365.0
 40
366.0
 40
366.0
 40
367.0
 40
367.0
 40
368.0
 40
368.0
 40
369.0
 40
369.0
 40
370.0
 40
370.0
 40
371.0
 40
371.0
 40
372.0
 40
372.0
 40
373.0
 40
373.0
 40
374.0
 40
374.0
 40
375.0
 40
375.0
 40
376.0
 40
376.0
 40
377.0
 40
377.0
 40
378.0
 40
378.0
 40
379.0
 40
379.0
 40
380.0
 40
380.0
 40
381.0
 40
381.0
 40
382.0
 40
382.0
 40
383.0
 40
383.0
 40
384.0
 40
384.0
 40
385.0
 40
385.0
 40
386.0
 40
386.0
 40
387.0
 40
387.0
 40
388.0
 40
388.0
 40
389.0
 40
389.0
 40
389.0
 10
1625.2442317923171
 20
-785.78441221326682
 30
0.0
 41
1.0
 10
1626.0626559010375
 20
-785.78441221326682
 30
0.0
 41
1.0
 10
1626.8810800097581
 20
-785.78441221326682
 30
0.0
 41
1.0
 10
1626.4673262742413
 20
-787.12703847751652
 30
0.0
 41
1.0
 10
1626.0535725387244
 20
-788.46966474176622
 30
0.0
 41
1.0
 10
1626.0719120338908
 20
-788.44096396885698
 30
0.0
 41
0.9999957264443397
 10
1626.090419030721
 20
-788.4123709187071
 30
0.0
 41
1.0
 10
1626.1208483548594
 20
-788.36535804032974
 30
0.0
 41
1.0
 10
1626.1512776789978
 20
-788.31834516195238
 30
0.0
 41
1.0
 10
1626.2306433241035
 20
-788.1957263550496
 30
0.0
 41
0.9995394069081611
 10
1626.3173017156555
 20
-788.07814829330744
 30
0.0
 41
1.0
 10
1626.3530585779154
 20
-788.02963340071415
 30
0.0
 41
1.0
 10
1626.388815440175
 20
-787.98111850812074
 30
0.0
 41
1.0
 10
1626.5225421079931
 20
-787.79967823299398
 30
0.0
 41
0.9994460617143165
 10
1626.6680425892814
 20
-787.62753583534391
 30
0.0
 41
1.0
 10
1626.6724307702552
 20
-787.62234415496289
 30
0.0
 41
1.0
 10
1626.6768189512288
 20
-787.61715247458187
 30
0.0
 41
1.0
 10
1626.8135430705688
 20
-787.45539343769485
 30
0.0
 41
0.9994359394934302
 10
1626.9608173009208
 20
-787.30317723652968
 30
0.0
 41
1.0
 10
1626.9632006548727
 20
-787.30071390615785
 30
0.0
 41
1.0
 10
1626.9655840088249
 20
-787.29825057578614
 30
0.0
 41
1.0
 10
1627.1080915312705
 20
-787.15096103536678
 30
0.0
 41
0.9995293688567841
 10
1627.2593632122544
 20
-787.01268782320085
 30
0.0
 41
1.0
 10
1627.2786569715158
 20
-786.99505193755135
 30
0.0
 41
1.0
 10
1627.2979507307773
 20
-786.97741605190186
 30
0.0
 41
1.0
 10
1627.4106348932339
 20
-786.8744146110389
 30
0.0
 41
0.9997087614803084
 10
1627.5281577821916
 20
-786.7769703302389
 30
0.0
 41
1.0
 10
1627.5473238553625
 20
-786.76107875173477
 30
0.0
 41
1.0
 10
1627.5664899285334
 20
-786.74518717323065
 30
0.0
 41
1.0
 10
1627.6456806711458
 20
-786.67952604944162
 30
0.0
 41
0.9999595338695404
 10
1627.7260399420018
 20
-786.61530031878601
 30
0.0
 41
1.0
 10
1627.8063992128355
 20
-786.5510745881478
 30
0.0
 41
0.9999749417508594
 10
1627.887659747169
 20
-786.48799303420913
 30
0.0
 41
1.0
 10
1627.9086458933498
 20
-786.47170174689336
 30
0.0
 41
1.0
 10
1627.9296320395304
 20
-786.45541045957759
 30
0.0
 41
1.0
 10
1628.0141999248249
 20
-786.38976144974231
 30
0.0
 41
0.9999792037114252
 10
1628.0996075246028
 20
-786.32520866809205
 30
0.0
 41
1.0
 10
1628.1204323505099
 20
-786.30946884583773
 30
0.0
 41
1.0
 10
1628.141257176417
 20
-786.2937290235833
 30
0.0
 41
1.0
 10
1628.1850151243648
 20
-786.26065588645406
 30
0.0
 41
0.9999993374052543
 10
1628.2286968105154
 20
-786.2274820910244
 30
0.0
 41
1.0
 10
1628.272378496662
 20
-786.19430829559803
 30
0.0
 41
0.9999160953815878
 10
1628.3169049075793
 20
-786.16227723040129
 30
0.0
 41
1.0
 10
1628.3497267949983
 20
-786.1386660748168
 30
0.0
 41
1.0
 10
1628.3825486824171
 20
-786.11505491923231
 30
0.0
 41
1.0
 10
1628.4927188681761
 20
-786.03580154286396
 30
0.0
 41
0.99809645272318
 10
1628.6118078616773
 20
-785.97071407000772
 30
0.0
 41
1.0
 10
1628.6488404686042
 20
-785.95047409041536
 30
0.0
 41
1.0
 10
1628.6858730755312
 20
-785.93023411082288
 30
0.0
 41
1.0
 10
1628.8652000888039
 20
-785.83222386012142
 30
0.0
 41
0.9984572810572254
 10
1629.0542886551646
 20
-785.75470159877455
 30
0.0
 41
1.0
 10
1629.0579349245604
 20
-785.75320670643669
 30
0.0
 41
1.0
 10
1629.061581193956
 20
-785.75171181409871
 30
0.0
 41
1.0
 10
1629.2433772215234
 20
-785.67717933742813
 30
0.0
 41
0.9987838528034154
 10
1629.4316298800827
 20
-785.62091369726238
 30
0.0
 41
1.0
 10
1629.4358678292806
 20
-785.6196470435724
 30
0.0
 41
1.0
 10
1629.4401057784785
 20
-785.61838038988242
 30
0.0
 41
1.0
 10
1629.6198825386409
 20
-785.56464805709686
 30
0.0
 41
0.9990652816207066
 10
1629.8036284703578
 20
-785.52664437755459
 30
0.0
 41
1.0
 10
1629.8088168713894
 20
-785.525571274448
 30
0.0
 41
1.0
 10
1629.8140052724211
 20
-785.52449817134141
 30
0.0
 41
1.0
 10
1629.987374402074
 20
-785.48864069801255
 30
0.0
 41
0.9992909934270332
 10
1630.162950168532
 20
-785.46593026554604
 30
0.0
 41
1.0
 10
1630.3385259349905
 20
-785.44321983307952
 30
0.0
 41
0.9994553539448735
 10
1630.5152173680838
 20
-785.43214052887322
 30
0.0
 41
1.0
 10
1630.5506517758804
 20
-785.42991864082546
 30
0.0
 41
1.0
 10
1630.5860861836768
 20
-785.42769675277759
 30
0.0
 41
1.0
 10
1630.7523119502453
 20
-785.41727369036585
 30
0.0
 41
0.9990928098292672
 10
1630.9188217421467
 20
-785.42103333160048
 30
0.0
 41
1.0
 10
1630.9573835774163
 20
-785.42190402313338
 30
0.0
 41
1.0
 10
1630.9959454126861
 20
-785.42277471466628
 30
0.0
 41
1.0
 10
1631.0853315340471
 20
-785.42479297283501
 30
0.0
 41
0.999838208920566
 10
1631.1745872168358
 20
-785.43002509936309
 30
0.0
 41
1.0
 10
1631.1750171230547
 20
-785.43005030026529
 30
0.0
 41
1.0
 10
1631.1754470292733
 20
-785.43007550116749
 30
0.0
 41
1.0
 10
1631.2638428996206
 20
-785.43525722589095
 30
0.0
 41
0.9997558016758082
 10
1631.3519234768228
 20
-785.44433974125764
 30
0.0
 41
1.0
 10
1631.352399615253
 20
-785.44438883874022
 30
0.0
 41
1.0
 10
1631.3528757536833
 20
-785.44443793622293
 30
0.0
 41
1.0
 10
1631.4400040540215
 20
-785.45342225662398
 30
0.0
 41
0.9996565144182396
 10
1631.5265419073655
 20
-785.46695956331314
 30
0.0
 41
1.0
 10
1631.5270078327421
 20
-785.46703244904438
 30
0.0
 41
1.0
 10
1631.5274737581185
 20
-785.46710533477551
 30
0.0
 41
1.0
 10
1631.6130797607066
 20
-785.48049687000196
 30
0.0
 41
0.9995321806867561
 10
1631.6977068410356
 20
-785.49909735843141
 30
0.0
 41
1.0
 10
1631.6980960356073
 20
-785.49918290089727
 30
0.0
 41
1.0
 10
1631.6984852301789
 20
-785.49926844336301
 30
0.0
 41
1.0
 10
1631.7823339213635
 20
-785.51769784686053
 30
0.0
 41
0.9993819199219181
 10
1631.8646804555597
 20
-785.54197323012136
 30
0.0
 41
1.0
 10
1631.8649188890581
 20
-785.5420435192309
 30
0.0
 41
1.0
 10
1631.8651573225568
 20
-785.54211380834033
 30
0.0
 41
1.0
 10
1631.9470269897552
 20
-785.56624861338184
 30
0.0
 41
0.9992088568505763
 10
1632.026719508744
 20
-785.59681384917644
 30
0.0
 41
1.0
 10
1632.1064004996229
 20
-785.62737344990956
 30
0.0
 41
0.9990226101773228
 10
1632.1830711695302
 20
-785.66485088152422
 30
0.0
 41
1.0
 10
1632.2597303113278
 20
-785.70232267807705
 30
0.0
 41
0.9988424273971441
 10
1632.3324339385392
 20
-785.74698745332967
 30
0.0
 41
1.0
 10
1632.3327016469193
 20
-785.74715191740233
 30
0.0
 41
1.0
 10
1632.3329693552994
 20
-785.747316381475
 30
0.0
 41
1.0
 10
1632.4062083992696
 20
-785.79231008487181
 30
0.0
 41
0.9986928844491225
 10
1632.4744712659799
 20
-785.84454581915168
 30
0.0
 41
1.0
 10
1632.4750525582028
 20
-785.84499063237968
 30
0.0
 41
1.0
 10
1632.4756338504258
 20
-785.84543544560779
 30
0.0
 41
1.0
 10
1632.545059301581
 20
-785.89856080634331
 30
0.0
 41
0.9986007262278324
 10
1632.6084854713479
 20
-785.95872157603708
 30
0.0
 41
1.0
 10
1632.6093798868051
 20
-785.959569943872
 30
0.0
 41
1.0
 10
1632.610274302262
 20
-785.96041831170692
 30
0.0
 41
1.0
 10
1632.6754893029424
 20
-786.0222758170695
 30
0.0
 41
0.9985581491379729
 10
1632.7336969146436
 20
-786.0907683073408
 30
0.0
 41
1.0
 10
1632.74295536824
 20
-786.10166266504325
 30
0.0
 41
1.0
 10
1632.7522138218364
 20
-786.1125570227457
 30
0.0
 41
1.0
 10
1632.82893834073
 20
-786.20283822842089
 30
0.0
 41
0.9970460233519395
 10
1632.8909302418892
 20
-786.30380531260289
 30
0.0
 41
1.0
 10
1632.9053996069688
 20
-786.32737177168394
 30
0.0
 41
1.0
 10
1632.9198689720481
 20
-786.350938230765
 30
0.0
 41
1.0
 10
1632.9596056720602
 20
-786.41565795479607
 30
0.0
 41
0.9988468816635908
 10
1632.992952042812
 20
-786.48389040722429
 30
0.0
 41
1.0
 10
1632.999988065304
 20
-786.49828732836284
 30
0.0
 41
1.0
 10
1633.007024087796
 20
-786.51268424950138
 30
0.0
 41
1.0
 10
1633.0262984135638
 20
-786.55212285965274
 30
0.0
 41
0.9998431189999999
 10
1633.0441637410586
 20
-786.59221941409271
 30
0.0
 41
1.0
 10
1633.0620290685488
 20
-786.63231596852302
 30
0.0
 41
0.9999989989775476
 10
1633.0800077919587
 20
-786.67236180607983
 30
0.0
 41
1.0
 10
1633.0861801035612
 20
-786.68611002291118
 30
0.0
 41
1.0
 10
1633.092352415164
 20
-786.69985823974253
 30
0.0
 41
1.0
 10
1633.122675761774
 20
-786.76740051095032
 30
0.0
 41
0.9998790356323482
 10
1633.1508836419127
 20
-786.83585326288937
 30
0.0
 41
1.0
 10
1633.1577188231972
 20
-786.85244036431709
 30
0.0
 41
1.0
 10
1633.1645540044817
 20
-786.86902746574481
 30
0.0
 41
1.0
 10
1633.1881116668621
 20
-786.92619542063062
 30
0.0
 41
0.9998227574560938
 10
1633.2095004152507
 20
-786.98420972890654
 30
0.0
 41
1.0
 10
1633.2308891636405
 20
-787.04222403718506
 30
0.0
 41
0.9996797971041131
 10
1633.2493154485994
 20
-787.10124615630309
 30
0.0
 41
1.0
 10
1633.2532192513249
 20
-787.11375061447154
 30
0.0
 41
1.0
 10
1633.2571230540502
 20
-787.12625507263999
 30
0.0
 41
1.0
 10
1633.2833569444601
 20
-787.21028610809299
 30
0.0
 41
0.9979274938732813
 10
1633.2985814679387
 20
-787.29699046675034
 30
0.0
 41
1.0
 10
1633.3008051551997
 20
-787.30965446757148
 30
0.0
 41
1.0
 10
1633.3030288424609
 20
-787.32231846839261
 30
0.0
 41
1.0
 10
1633.3139587821599
 20
-787.38456497568552
 30
0.0
 41
0.9994985982136695
 10
1633.3209269473373
 20
-787.44737847683086
 30
0.0
 41
1.0
 10
1633.3278951125142
 20
-787.51019197796995
 30
0.0
 41
0.9996372611200743
 10
1633.3314709782819
 20
-787.57328955665002
 30
0.0
 41
1.0
 10
1633.3316395557713
 20
-787.57626417373467
 30
0.0
 41
1.0
 10
1633.3318081332609
 20
-787.57923879081943
 30
0.0
 41
1.0
 10
1633.3357211540072
 20
-787.64828560367084
 30
0.0
 41
0.9997730630737268
 10
1633.3366894674953
 20
-787.71743642771014
 30
0.0
 41
1.0
 10
1633.3367465739134
 20
-787.72151460684677
 30
0.0
 41
1.0
 10
1633.3368036803313
 20
-787.72559278598339
 30
0.0
 41
1.0
 10
1633.3378862066559
 20
-787.8028999682864
 30
0.0
 41
0.9998772614069943
 10
1633.3365461199246
 20
-787.88020311483592
 30
0.0
 41
1.0
 10
1633.3364568567256
 20
-787.88535227868579
 30
0.0
 41
1.0
 10
1633.3363675935266
 20
-787.89050144253554
 30
0.0
 41
1.0
 10
1633.3348489803975
 20
-787.97810291676433
 30
0.0
 41
0.9999415567326743
 10
1633.3314366701516
 20
-788.06565107843369
 30
0.0
 41
1.0
 10
1633.331195349476
 20
-788.07184253817661
 30
0.0
 41
1.0
 10
1633.3309540288005
 20
-788.07803399791953
 30
0.0
 41
1.0
 10
1633.3270590772029
 20
-788.17796507908861
 30
0.0
 41
0.9999716810429388
 10
1633.3216604940835
 20
-788.27782621733502
 30
0.0
 41
1.0
 10
1633.3184476952956
 20
-788.33725546697872
 30
0.0
 41
1.0
 10
1633.3152348965075
 20
-788.39668471662242
 30
0.0
 41
1.0
 10
1633.307160987355
 20
-788.54603311789879
 30
0.0
 41
0.9999819129891977
 10
1633.2972911957386
 20
-788.69527359560504
 30
0.0
 41
1.0
 10
1633.2874214041221
 20
-788.84451407331642
 30
0.0
 41
1.0
 10
1633.2849820835581
 20
-788.88170711916575
 30
0.0
 41
1.0
 10
1633.3076803173717
 20
-788.84296612186608
 30
0.0
 41
0.9999982128046977
 10
1633.330524876118
 20
-788.80431122792345
 30
0.0
 41
1.0
 10
1633.3574344360163
 20
-788.75877801384559
 30
0.0
 41
1.0
 10
1633.3843439959144
 20
-788.71324479976772
 30
0.0
 41
1.0
 10
1633.4610076744432
 20
-788.58352347769323
 30
0.0
 41
0.9998609190058422
 10
1633.5419549873091
 20
-788.45643109575747
 30
0.0
 41
1.0
 10
1633.5716033087883
 20
-788.40988136280407
 30
0.0
 41
1.0
 10
1633.6012516302676
 20
-788.36333162985068
 30
0.0
 41
1.0
 10
1633.6835238505028
 20
-788.2341590598586
 30
0.0
 41
0.9999067609732301
 10
1633.7692928599665
 20
-788.10728137041792
 30
0.0
 41
1.0
 10
1633.7716975631624
 20
-788.10372410437026
 30
0.0
 41
1.0
 10
1633.7741022663586
 20
-788.10016683832259
 30
0.0
 41
1.0
 10
1633.8550618694248
 20
-787.98040368098452
 30
0.0
 41
0.9998784952149992
 10
1633.939715479112
 20
-787.86322246426789
 30
0.0
 41
1.0
 10
1634.0243690887942
 20
-787.74604124755808
 30
0.0
 41
0.9998532968282597
 10
1634.1129867096172
 20
-787.63182833908695
 30
0.0
 41
1.0
 10
1634.1329484986059
 20
-787.60610101806992
 30
0.0
 41
1.0
 10
1634.1529102875945
 20
-787.58037369705289
 30
0.0
 41
1.0
 10
1634.2713943373558
 20
-787.42766808608133
 30
0.0
 41
0.9991551975795302
 10
1634.4020187869805
 20
-787.2852085239964
 30
0.0
 41
1.0
 10
1634.4055284029637
 20
-787.28138092236838
 30
0.0
 41
1.0
 10
1634.4090380189468
 20
-787.27755332074037
 30
0.0
 41
1.0
 10
1634.5326432366073
 20
-787.14274896190966
 30
0.0
 41
0.9997418144181771
 10
1634.6622453763048
 20
-787.01369955130042
 30
0.0
 41
1.0
 10
1634.7918475160061
 20
-786.88465014068731
 30
0.0
 41
0.9989238204633044
 10
1634.9328500642575
 20
-786.76816517864802
 30
0.0
 41
1.0
 10
1634.9780977423957
 20
-786.73078518704028
 30
0.0
 41
1.0
 10
1635.023345420534
 20
-786.69340519543243
 30
0.0
 41
1.0
 10
1635.163585477756
 20
-786.57755014214104
 30
0.0
 41
0.9990825084096423
 10
1635.3132254103607
 20
-786.47412114430767
 30
0.0
 41
1.0
 10
1635.3232707744169
 20
-786.46717793122866
 30
0.0
 41
1.0
 10
1635.3333161384728
 20
-786.46023471814976
 30
0.0
 41
1.0
 10
1635.4628653429659
 20
-786.37069214647408
 30
0.0
 41
0.9998164899827564
 10
1635.5957495463408
 20
-786.28617790495832
 30
0.0
 41
1.0
 10
1635.6075951068653
 20
-786.27864413843361
 30
0.0
 41
1.0
 10
1635.6194406673899
 20
-786.27111037190889
 30
0.0
 41
1.0
 10
1635.7286337497178
 20
-786.20166366344165
 30
0.0
 41
0.9997473449131688
 10
1635.8408377069668
 20
-786.13719470562626
 30
0.0
 41
1.0
 10
1635.9530416642174
 20
-786.07272574780995
 30
0.0
 41
0.9999327861141886
 10
1636.0667102749833
 20
-786.01087575612712
 30
0.0
 41
1.0
 10
1636.0672622775423
 20
-786.01057539744897
 30
0.0
 41
1.0
 10
1636.0678142801012
 20
-786.01027503877083
 30
0.0
 41
1.0
 10
1636.1825868959847
 20
-785.9478243297317
 30
0.0
 41
0.9996956420484418
 10
1636.300300221824
 20
-785.89111086275727
 30
0.0
 41
1.0
 10
1636.3307406267181
 20
-785.87644488602655
 30
0.0
 41
1.0
 10
1636.3611810316124
 20
-785.86177890929594
 30
0.0
 41
1.0
 10
1636.464158138356
 20
-785.81216525085279
 30
0.0
 41
0.9998070570176189
 10
1636.5690045272963
 20
-785.76663466395189
 30
0.0
 41
1.0
 10
1636.6738509162376
 20
-785.72110407705077
 30
0.0
 41
0.9997827436147962
 10
1636.780503852852
 20
-785.67998290573712
 30
0.0
 41
1.0
 10
1636.7997267024809
 20
-785.67257133210569
 30
0.0
 41
1.0
 10
1636.8189495521099
 20
-785.66515975847426
 30
0.0
 41
1.0
 10
1636.9640481879826
 20
-785.60921543989753
 30
0.0
 41
0.9988031841976406
 10
1637.1139185505867
 20
-785.56771537573002
 30
0.0
 41
1.0
 10
1637.1388357989508
 20
-785.5608156299229
 30
0.0
 41
1.0
 10
1637.1637530473151
 20
-785.55391588411567
 30
0.0
 41
1.0
 10
1637.3310230729626
 20
-785.50759774170899
 30
0.0
 41
0.9984748040550232
 10
1637.5023799816099
 20
-785.48000350944437
 30
0.0
 41
1.0
 10
1637.5071191178586
 20
-785.47924034893094
 30
0.0
 41
1.0
 10
1637.5118582541074
 20
-785.47847718841751
 30
0.0
 41
1.0
 10
1637.6737368902584
 20
-785.45240927717953
 30
0.0
 41
0.998443649547998
 10
1637.8375116339835
 20
-785.44453132336082
 30
0.0
 41
1.0
 10
1637.8592088421146
 20
-785.44348763616108
 30
0.0
 41
1.0
 10
1637.8809060502458
 20
-785.44244394896145
 30
0.0
 41
1.0
 10
1638.0012863777094
 20
-785.43665336954211
 30
0.0
 41
0.9987954789335776
 10
1638.1216546226183
 20
-785.44268989728437
 30
0.0
 41
1.0
 10
1638.1416194151109
 20
-785.44369114162282
 30
0.0
 41
1.0
 10
1638.1615842076035
 20
-785.44469238596139
 30
0.0
 41
1.0
 10
1638.2420228675235
 20
-785.44872642502628
 30
0.0
 41
0.9997941595876875
 10
1638.3222316456224
 20
-785.45602049094771
 30
0.0
 41
1.0
 10
1638.4024404237186
 20
-785.46331455686902
 30
0.0
 41
0.9998589466236684
 10
1638.4823589705748
 20
-785.47329841131921
 30
0.0
 41
1.0
 10
1638.5147651723814
 20
-785.47734676823825
 30
0.0
 41
1.0
 10
1638.5471713741883
 20
-785.48139512515729
 30
0.0
 41
1.0
 10
1638.6919023246576
 20
-785.49947569344545
 30
0.0
 41
0.9993495063249025
 10
1638.8349535684242
 20
-785.52794140318724
 30
0.0
 41
1.0
 10
1638.8678872655764
 20
-785.53449486640216
 30
0.0
 41
1.0
 10
1638.9008209627289
 20
-785.54104832961696
 30
0.0
 41
1.0
 10
1639.0101147859339
 20
-785.56279666375247
 30
0.0
 41
0.9996788715560578
 10
1639.1181663578905
 20
-785.59005446311551
 30
0.0
 41
1.0
 10
1639.1202293604299
 20
-785.59057488968847
 30
0.0
 41
1.0
 10
1639.1222923629693
 20
-785.59109531626154
 30
0.0
 41
1.0
 10
1639.2262179298475
 20
-785.61731226247866
 30
0.0
 41
0.9995480654492412
 10
1639.3283801650764
 20
-785.64972721910294
 30
0.0
 41
1.0
 10
1639.3300698072057
 20
-785.65026332401703
 30
0.0
 41
1.0
 10
1639.3317594493351
 20
-785.65079942893101
 30
0.0
 41
1.0
 10
1639.4305424003057
 20
-785.68214217572734
 30
0.0
 41
0.9993867959456331
 10
1639.5268895587483
 20
-785.7203215450171
 30
0.0
 41
1.0
 10
1639.5281325078331
 20
-785.72081408691338
 30
0.0
 41
1.0
 10
1639.5293754569182
 20
-785.72130662880977
 30
0.0
 41
1.0
 10
1639.6232367171892
 20
-785.75850091430607
 30
0.0
 41
0.999205025652135
 10
1639.713836392224
 20
-785.8030548135456
 30
0.0
 41
1.0
 10
1639.7145710749369
 20
-785.80341610600669
 30
0.0
 41
1.0
 10
1639.71530575765
 20
-785.80377739846779
 30
0.0
 41
1.0
 10
1639.8044360672586
 20
-785.84760871278513
 30
0.0
 41
0.9990222350742176
 10
1639.8893461286511
 20
-785.89914198048268
 30
0.0
 41
1.0
 10
1639.8895300139343
 20
-785.89925358338769
 30
0.0
 41
1.0
 10
1639.8897138992174
 20
-785.89936518629281
 30
0.0
 41
1.0
 10
1639.9742561900453
 20
-785.95067524818137
 30
0.0
 41
0.9988642743805362
 10
1640.0535307246637
 20
-786.00979943570621
 30
0.0
 41
1.0
 10
1640.1328052592821
 20
-786.06892362323094
 30
0.0
 41
0.9987681233310529
 10
1640.2058290435596
 20
-786.1356143146329
 30
0.0
 41
1.0
 10
1640.206157971525
 20
-786.13591471584675
 30
0.0
 41
1.0
 10
1640.2064868994905
 20
-786.1362151170606
 30
0.0
 41
1.0
 10
1640.2801685396994
 20
-786.20350661089105
 30
0.0
 41
0.9987496570899749
 10
1640.3467623450267
 20
-786.27781942497757
 30
0.0
 41
1.0
 10
1640.3475345147867
 20
-786.27868109833491
 30
0.0
 41
1.0
 10
1640.3483066845465
 20
-786.27954277169226
 30
0.0
 41
1.0
 10
1640.4164448293948
 20
-786.35557893249506
 30
0.0
 41
0.9988147669826749
 10
1640.4768670836211
 20
-786.43787993933938
 30
0.0
 41
1.0
 10
1640.4779864096981
 20
-786.43940457069084
 30
0.0
 41
1.0
 10
1640.479105735775
 20
-786.44092920204218
 30
0.0
 41
1.0
 10
1640.5417666421556
 20
-786.52627947158987
 30
0.0
 41
0.9989452636215339
 10
1640.5963335551176
 20
-786.61701816074924
 30
0.0
 41
1.0
 10
1640.5976822812027
 20
-786.61926094177454
 30
0.0
 41
1.0
 10
1640.599031007288
 20
-786.62150372279984
 30
0.0
 41
1.0
 10
1640.6562953724213
 20
-786.71672797401084
 30
0.0
 41
0.9991046436071097
 10
1640.705304585744
 20
-786.81645240703813
 30
0.0
 41
1.0
 10
1640.7067684473332
 20
-786.81943108710925
 30
0.0
 41
1.0
 10
1640.7082323089226
 20
-786.82240976718049
 30
0.0
 41
1.0
 10
1640.7601692454248
 20
-786.92809156035253
 30
0.0
 41
0.9992763831101603
 10
1640.8039223739802
 20
-787.03741562230948
 30
0.0
 41
1.0
 10
1640.8054016436431
 20
-787.04111180984182
 30
0.0
 41
1.0
 10
1640.8068809133058
 20
-787.04480799737405
 30
0.0
 41
1.0
 10
1640.8535925811875
 20
-787.16152443439751
 30
0.0
 41
0.9994163472883668
 10
1640.8922256123774
 20
-787.28115802286186
 30
0.0
 41
1.0
 10
1640.8934637646239
 20
-787.28499216664409
 30
0.0
 41
1.0
 10
1640.8947019168706
 20
-787.28882631042643
 30
0.0
 41
1.0
 10
1640.9345854778883
 20
-787.41233237190568
 30
0.0
 41
0.9997268055890545
 10
1640.9686535338001
 20
-787.53756740385586
 30
0.0
 41
1.0
 10
1640.9695837140694
 20
-787.54098676996387
 30
0.0
 41
1.0
 10
1640.9705138943386
 20
-787.54440613607176
 30
0.0
 41
1.0
 10
1641.0027215897119
 20
-787.66280243580513
 30
0.0
 41
0.999670131900099
 10
1641.0288072064827
 20
-787.78269638907
 30
0.0
 41
1.0
 10
1641.0548928232533
 20
-787.90259034233543
 30
0.0
 41
0.999578545110949
 10
1641.0739764005937
 20
-788.02379610336925
 30
0.0
 41
1.0
 10
1641.078196182767
 20
-788.05059725813226
 30
0.0
 41
1.0
 10
1641.0824159649405
 20
-788.07739841289526
 30
0.0
 41
1.0
 10
1641.1089909408788
 20
-788.24618438659832
 30
0.0
 41
0.9979925101217384
 10
1641.1140165268052
 20
-788.41697571468978
 30
0.0
 41
1.0
 10
1641.1148413392298
 20
-788.44500643816991
 30
0.0
 41
1.0
 10
1641.1156661516545
 20
-788.47303716165004
 30
0.0
 41
1.0
 10
1641.1190421127314
 20
-788.58776704277989
 30
0.0
 41
0.9995314902263353
 10
1641.1153919205931
 20
-788.70248852653344
 30
0.0
 41
1.0
 10
1641.1117417284545
 20
-788.81721001028563
 30
0.0
 41
0.9996245486944191
 10
1641.1018126333236
 20
-788.93155928141073
 30
0.0
 41
1.0
 10
1641.1016495853294
 20
-788.93343703754522
 30
0.0
 41
1.0
 10
1641.1014865373352
 20
-788.93531479367982
 30
0.0
 41
1.0
 10
1641.0912313462152
 20
-789.05341957707969
 30
0.0
 41
0.9997286095001572
 10
1641.075486022643
 20
-789.17091848597863
 30
0.0
 41
1.0
 10
1641.0750925299933
 20
-789.17385491067569
 30
0.0
 41
1.0
 10
1641.0746990373436
 20
-789.17679133537274
 30
0.0
 41
1.0
 10
1641.0581667284719
 20
-789.30016309366931
 30
0.0
 41
0.9998265533970168
 10
1641.0370512697398
 20
-789.42283356845473
 30
0.0
 41
1.0
 10
1641.0363747276024
 20
-789.42676394696468
 30
0.0
 41
1.0
 10
1641.0356981854648
 20
-789.43069432547463
 30
0.0
 41
1.0
 10
1641.0132296424567
 20
-789.56122555728234
 30
0.0
 41
0.9999022530851797
 10
1640.9871201778465
 20
-789.69107752592322
 30
0.0
 41
1.0
 10
1640.9861415366818
 20
-789.69594466830722
 30
0.0
 41
1.0
 10
1640.9851628955171
 20
-789.70081181069111
 30
0.0
 41
1.0
 10
1640.9570961485745
 20
-789.84039806411226
 30
0.0
 41
0.9999524761935016
 10
1640.9263131797381
 20
-789.97941055728381
 30
0.0
 41
1.0
 10
1640.9250370725645
 20
-789.98517331657877
 30
0.0
 41
1.0
 10
1640.9237609653906
 20
-789.99093607587361
 30
0.0
 41
1.0
 10
1640.8904257822028
 20
-790.141474087652
 30
0.0
 41
0.999981358872815
 10
1640.8552547814045
 20
-790.2915938003182
 30
0.0
 41
1.0
 10
1640.8537008559501
 20
-790.29822639073086
 30
0.0
 41
1.0
 10
1640.852146930496
 20
-790.30485898114341
 30
0.0
 41
1.0
 10
1640.8138680787774
 20
-790.46824387468416
 30
0.0
 41
0.9999955237634983
 10
1640.7746122007884
 20
-790.63139677832646
 30
0.0
 41
1.0
 10
1640.7623305651632
 20
-790.68244096881153
 30
0.0
 41
1.0
 10
1640.7500489295378
 20
-790.73348515929672
 30
0.0
 41
1.0
 10
1640.686229780302
 20
-790.99872644389347
 30
0.0
 41
0.9999993604822071
 10
1640.6218108331518
 20
-791.2638226945046
 30
0.0
 41
1.0
 10
1640.6170919975891
 20
-791.28324160260934
 30
0.0
 41
1.0
 10
1640.6123731620264
 20
-791.30266051071408
 30
0.0
 41
1.0
 10
1640.5385165437679
 20
-791.60659457746647
 30
0.0
 41
0.99996599147289
 10
1640.4596569478845
 20
-791.90926912401801
 30
0.0
 41
1.0
 10
1640.454704258952
 20
-791.92827826120765
 30
0.0
 41
1.0
 10
1640.4497515700195
 20
-791.94728739839718
 30
0.0
 41
1.0
 10
1640.3609865962733
 20
-792.28798021931982
 30
0.0
 41
0.9999441976029005
 10
1640.2650435633077
 20
-792.62672164462572
 30
0.0
 41
1.0
 10
1640.2483430448838
 20
-792.68568535714826
 30
0.0
 41
1.0
 10
1640.2316425264596
 20
-792.74464906967069
 30
0.0
 41
1.0
 10
1640.1022984566446
 20
-793.20131792002576
 30
0.0
 41
0.9999625120735777
 10
1639.9650656893211
 20
-793.65567845402234
 30
0.0
 41
1.0
 10
1639.9292757462388
 20
-793.7741744806475
 30
0.0
 41
1.0
 10
1639.8934858031564
 20
-793.89267050727267
 30
0.0
 41
1.0
 10
1639.8189655991164
 20
-794.13939758537185
 30
0.0
 41
0.9999793386319372
 10
1639.7412795759769
 20
-794.38514622461332
 30
0.0
 41
1.0
 10
1639.6635935528395
 20
-794.63089486384945
 30
0.0
 41
1.0
 10
1639.6528139939687
 20
-794.6649127682241
 30
0.0
 41
1.0
 10
1637.8024409406996
 20
-800.5519846906916
 30
0.0
 41
1.0
 10
1635.9520678874305
 20
-806.4390566131591
 30
0.0
 41
1.0
 10
1634.9908111974069
 20
-806.4390566131591
 30
0.0
 41
1.0
 10
1634.0295545073834
 20
-806.4390566131591
 30
0.0
 41
1.0
 10
1635.6484992860619
 20
-801.29102811136966
 30
0.0
 41
1.0
 10
1637.2674440647402
 20
-796.14299960958022
 30
0.0
 41
1.0
 10
1637.3126098879175
 20
-795.99896838730069
 30
0.0
 41
1.0
 10
1637.3577757110947
 20
-795.85493716502128
 30
0.0
 41
1.0
 10
1637.5280801284566
 20
-795.31184613586174
 30
0.0
 41
0.9999911657924996
 10
1637.6938129401319
 20
-794.76734260451428
 30
0.0
 41
1.0
 10
1637.7235088836351
 20
-794.66977866445484
 30
0.0
 41
1.0
 10
1637.7532048271382
 20
-794.57221472439539
 30
0.0
 41
1.0
 10
1637.8595457518118
 20
-794.22283907315091
 30
0.0
 41
0.9999952428135348
 10
1637.963729341137
 20
-793.87281404880105
 30
0.0
 41
1.0
 10
1637.9687888114686
 20
-793.85581577452911
 30
0.0
 41
1.0
 10
1637.9738482818
 20
-793.83881750025716
 30
0.0
 41
1.0
 10
1638.0679129304617
 20
-793.52278902445255
 30
0.0
 41
0.9999931687501487
 10
1638.1596387683358
 20
-793.206073811181
 30
0.0
 41
1.0
 10
1638.1645740327904
 20
-793.18903310192718
 30
0.0
 41
1.0
 10
1638.1695092972448
 20
-793.17199239267347
 30
0.0
 41
1.0
 10
1638.2513646062052
 20
-792.88935859792423
 30
0.0
 41
0.9999893840813858
 10
1638.3306118326661
 20
-792.60598246866391
 30
0.0
 41
1.0
 10
1638.4098590591216
 20
-792.32260633942224
 30
0.0
 41
0.9999833980082167
 10
1638.4858352998585
 20
-792.03833575641193
 30
0.0
 41
1.0
 10
1638.4948392365852
 20
-792.00464687791714
 30
0.0
 41
1.0
 10
1638.5038431733119
 20
-791.97095799942224
 30
0.0
 41
1.0
 10
1638.572807722177
 20
-791.71292216712959
 30
0.0
 41
0.9999233658068945
 10
1638.6353626933965
 20
-791.4532580084109
 30
0.0
 41
1.0
 10
1638.6979176646166
 20
-791.19359384968845
 30
0.0
 41
1.0
 10
1638.7374010834742
 20
-791.02978718526231
 30
0.0
 41
1.0
 10
1638.7423796874496
 20
-791.00913222339932
 30
0.0
 41
1.0
 10
1638.7473582914251
 20
-790.98847726153633
 30
0.0
 41
1.0
 10
1638.7768845023306
 20
-790.86598052084082
 30
0.0
 41
0.9999868670879221
 10
1638.8051535863278
 20
-790.74318757519075
 30
0.0
 41
1.0
 10
1638.8090510734814
 20
-790.726257987792
 30
0.0
 41
1.0
 10
1638.812948560635
 20
-790.70932840039313
 30
0.0
 41
1.0
 10
1638.8334226703198
 20
-790.62039462956454
 30
0.0
 41
0.9999778173351602
 10
1638.8527102684398
 20
-790.53119601231481
 30
0.0
 41
1.0
 10
1638.8719978665536
 20
-790.44199739509156
 30
0.0
 41
0.9999602692856412
 10
1638.889692225184
 20
-790.3524691066674
 30
0.0
 41
1.0
 10
1638.8928960572625
 20
-790.33625865177703
 30
0.0
 41
1.0
 10
1638.8960998893413
 20
-790.32004819688666
 30
0.0
 41
1.0
 10
1638.9202019121274
 20
-790.19809899868801
 30
0.0
 41
0.9995617985320985
 10
1638.9370452593462
 20
-790.07493725098084
 30
0.0
 41
1.0
 10
1638.939509749252
 20
-790.05691643361797
 30
0.0
 41
1.0
 10
1638.9419742391576
 20
-790.0388956162551
 30
0.0
 41
1.0
 10
1638.9622575002063
 20
-789.89058056655267
 30
0.0
 41
0.999112141063963
 10
1638.9699828537948
 20
-789.74108446774426
 30
0.0
 41
1.0
 10
1638.9709016438194
 20
-789.72330463116759
 30
0.0
 41
1.0
 10
1638.971820433844
 20
-789.70552479459104
 30
0.0
 41
1.0
 10
1638.9777082073831
 20
-789.59158836893766
 30
0.0
 41
0.9989792494905245
 10
1638.9732891152657
 20
-789.4775855330397
 30
0.0
 41
1.0
 10
1638.9726411433971
 20
-789.46086928711156
 30
0.0
 41
1.0
 10
1638.9719931715283
 20
-789.44415304118343
 30
0.0
 41
1.0
 10
1638.9688700231484
 20
-789.36358269714026
 30
0.0
 41
0.9997820295394114
 10
1638.9623860257727
 20
-789.2832129753973
 30
0.0
 41
1.0
 10
1638.9559020283968
 20
-789.20284325365174
 30
0.0
 41
0.9998335105972963
 10
1638.9464898328849
 20
-789.12276363719991
 30
0.0
 41
1.0
 10
1638.9448949082089
 20
-789.10919390671847
 30
0.0
 41
1.0
 10
1638.9432999835326
 20
-789.09562417623715
 30
0.0
 41
1.0
 10
1638.9306979386681
 20
-788.98840509881995
 30
0.0
 41
0.9996876457878922
 10
1638.9127540258696
 20
-788.8819496711036
 30
0.0
 41
1.0
 10
1638.9105223627239
 20
-788.86870993585956
 30
0.0
 41
1.0
 10
1638.9082906995782
 20
-788.85547020061551
 30
0.0
 41
1.0
 10
1638.894494878158
 20
-788.77362405665997
 30
0.0
 41
0.9995547496494114
 10
1638.8758415562656
 20
-788.69274655947186
 30
0.0
 41
1.0
 10
1638.8754675993951
 20
-788.69112514876906
 30
0.0
 41
1.0
 10
1638.8750936425242
 20
-788.68950373806626
 30
0.0
 41
1.0
 10
1638.8571882343738
 20
-788.61186906228306
 30
0.0
 41
0.9994899427175248
 10
1638.8343633256936
 20
-788.53553577944626
 30
0.0
 41
1.0
 10
1638.8339047989527
 20
-788.53400232965737
 30
0.0
 41
1.0
 10
1638.8334462722119
 20
-788.53246887986847
 30
0.0
 41
1.0
 10
1638.8115384170146
 20
-788.45920249661242
 30
0.0
 41
0.9993784877590445
 10
1638.7845227819078
 20
-788.38766179145284
 30
0.0
 41
1.0
 10
1638.7839910909304
 20
-788.38625380873123
 30
0.0
 41
1.0
 10
1638.783459399953
 20
-788.3848458260095
 30
0.0
 41
1.0
 10
1638.7575071468007
 20
-788.31612108629281
 30
0.0
 41
0.9992430832254509
 10
1638.7262906116418
 20
-788.2496219342255
 30
0.0
 41
1.0
 10
1638.7257084955852
 20
-788.24838187910814
 30
0.0
 41
1.0
 10
1638.7251263795285
 20
-788.24714182399066
 30
0.0
 41
1.0
 10
1638.6950740764828
 20
-788.18312278215785
 30
0.0
 41
0.999078963279906
 10
1638.659643449706
 20
-788.12191617040764
 30
0.0
 41
1.0
 10
1638.6590477435229
 20
-788.12088708454689
 30
0.0
 41
1.0
 10
1638.6584520373401
 20
-788.11985799868603
 30
0.0
 41
1.0
 10
1638.624212822928
 20
-788.06070955865607
 30
0.0
 41
0.9988874801119879
 10
1638.584553546897
 20
-788.00504984624013
 30
0.0
 41
1.0
 10
1638.5839980208327
 20
-788.00427019456527
 30
0.0
 41
1.0
 10
1638.5834424947684
 20
-788.0034905428904
 30
0.0
 41
1.0
 10
1638.5448942708649
 20
-787.94939013382202
 30
0.0
 41
0.9986762060693473
 10
1638.500991799589
 20
-787.89953641938314
 30
0.0
 41
1.0
 10
1638.5005478392568
 20
-787.89903227756645
 30
0.0
 41
1.0
 10
1638.5001038789244
 20
-787.89852813574964
 30
0.0
 41
1.0
 10
1638.4570893283123
 20
-787.84968270494358
 30
0.0
 41
0.9984621642487724
 10
1638.4089317715348
 20
-787.80589940447283
 30
0.0
 41
1.0
 10
1638.4086851370171
 20
-787.80567517230838
 30
0.0
 41
1.0
 10
1638.4084385024996
 20
-787.80545094014394
 30
0.0
 41
1.0
 10
1638.3607742147565
 20
-787.76211610400128
 30
0.0
 41
0.998272469385173
 10
1638.3083555829157
 20
-787.72467175348402
 30
0.0
 41
1.0
 10
1638.2559369510739
 20
-787.6872274029663
 30
0.0
 41
0.9981399180159554
 10
1638.1993508876803
 20
-787.65644088352269
 30
0.0
 41
1.0
 10
1638.1993052256021
 20
-787.65641604036568
 30
0.0
 41
1.0
 10
1638.1992595635238
 20
-787.65639119720856
 30
0.0
 41
1.0
 10
1638.1425821759731
 20
-787.62555499145037
 30
0.0
 41
0.9980927086836415
 10
1638.0825368249075
 20
-787.60193818259836
 30
0.0
 41
1.0
 10
1638.0820966551958
 20
-787.60176505672325
 30
0.0
 41
1.0
 10
1638.081656485484
 20
-787.60159193084826
 30
0.0
 41
1.0
 10
1638.0207307949947
 20
-787.57762887024592
 30
0.0
 41
0.9981411356561906
 10
1637.9573422735957
 20
-787.56125622874049
 30
0.0
 41
1.0
 10
1637.9564601568939
 20
-787.56102838653487
 30
0.0
 41
1.0
 10
1637.955578040192
 20
-787.56080054432925
 30
0.0
 41
1.0
 10
1637.8904252853904
 20
-787.54397221841293
 30
0.0
 41
0.998303181293536
 10
1637.8237578563944
 20
-787.53483285723655
 30
0.0
 41
1.0
 10
1637.81488683099
 20
-787.53361673856512
 30
0.0
 41
1.0
 10
1637.8060158055857
 20
-787.53240061989379
 30
0.0
 41
1.0
 10
1637.7516661630812
 20
-787.52494988990247
 30
0.0
 41
0.9983887708261736
 10
1637.6968223137901
 20
-787.52370521626949
 30
0.0
 41
1.0
 10
1637.6887589085709
 20
-787.52352221839465
 30
0.0
 41
1.0
 10
1637.6806955033514
 20
-787.52333922051969
 30
0.0
 41
1.0
 10
1637.6419784644954
 20
-787.52246054263617
 30
0.0
 41
0.9998869563079477
 10
1637.6032525112946
 20
-787.52274641199585
 30
0.0
 41
1.0
 10
1637.5645265580793
 20
-787.52303228135565
 30
0.0
 41
0.9999972320135069
 10
1637.5258023788545
 20
-787.52350038088491
 30
0.0
 41
1.0
 10
1637.5064493622876
 20
-787.5237343209742
 30
0.0
 41
1.0
 10
1637.4870963457211
 20
-787.52396826106337
 30
0.0
 41
1.0
 10
1637.4096661333501
 20
-787.52490424077109
 30
0.0
 41
0.9997304945086847
 10
1637.3323628271123
 20
-787.52943333455732
 30
0.0
 41
1.0
 10
1637.3233131854083
 20
-787.52996354054721
 30
0.0
 41
1.0
 10
1637.3142635437043
 20
-787.5304937465371
 30
0.0
 41
1.0
 10
1637.2188609540556
 20
-787.53608325230311
 30
0.0
 41
0.9997888306415533
 10
1637.1237686182164
 20
-787.545588216792
 30
0.0
 41
1.0
 10
1637.1150475566433
 20
-787.54645993142412
 30
0.0
 41
1.0
 10
1637.1063264950699
 20
-787.54733164605636
 30
0.0
 41
1.0
 10
1636.9937920360808
 20
-787.55858003980973
 30
0.0
 41
0.9984170238190215
 10
1636.8832328887293
 20
-787.58239612174566
 30
0.0
 41
1.0
 10
1636.846851757743
 20
-787.59023315755189
 30
0.0
 41
1.0
 10
1636.8104706267566
 20
-787.59807019335801
 30
0.0
 41
1.0
 10
1636.695279558335
 20
-787.6228840598676
 30
0.0
 41
0.9976592854198418
 10
1636.5845513919312
 20
-787.66318273701449
 30
0.0
 41
1.0
 10
1636.4738232255252
 20
-787.70348141416218
 30
0.0
 41
0.9993255074352506
 10
1636.366351426733
 20
-787.75179831265518
 30
0.0
 41
1.0
 10
1636.361726247811
 20
-787.75387768885435
 30
0.0
 41
1.0
 10
1636.3571010688888
 20
-787.75595706505351
 30
0.0
 41
1.0
 10
1636.2403789122509
 20
-787.80843271594563
 30
0.0
 41
0.9976475078274539
 10
1636.1319315679382
 20
-787.87638070560558
 30
0.0
 41
1.0
 10
1636.113589173804
 20
-787.88787318441973
 30
0.0
 41
1.0
 10
1636.0952467796697
 20
-787.89936566323399
 30
0.0
 41
1.0
 10
1636.0110445881203
 20
-787.95212278400084
 30
0.0
 41
0.9995131336407144
 10
1635.9302968731618
 20
-788.01002899595449
 30
0.0
 41
1.0
 10
1635.8495491582071
 20
-788.06793520790575
 30
0.0
 41
0.9995810107606211
 10
1635.7722875104805
 20
-788.1304168903697
 30
0.0
 41
1.0
 10
1635.769317479268
 20
-788.13281876183623
 30
0.0
 41
1.0
 10
1635.7663474480555
 20
-788.13522063330265
 30
0.0
 41
1.0
 10
1635.6831457379033
 20
-788.20250605870046
 30
0.0
 41
0.99966178379542
 10
1635.6035550507645
 20
-788.27402651426382
 30
0.0
 41
1.0
 10
1635.5914242998929
 20
-788.28492724724958
 30
0.0
 41
1.0
 10
1635.5792935490215
 20
-788.29582798023534
 30
0.0
 41
1.0
 10
1635.5110180216216
 20
-788.3571805957107
 30
0.0
 41
0.9997267750053883
 10
1635.4456845133361
 20
-788.42165713223744
 30
0.0
 41
1.0
 10
1635.3803510050557
 20
-788.48613366875941
 30
0.0
 41
0.999966728896413
 10
1635.3160780619048
 20
-788.55166747565806
 30
0.0
 41
1.0
 10
1635.2472506141303
 20
-788.62184513441593
 30
0.0
 41
1.0
 10
1635.1784231663555
 20
-788.69202279317369
 30
0.0
 41
1.0
 10
1634.9764953276579
 20
-788.89791191758559
 30
0.0
 41
0.9988205335175303
 10
1634.7954897106781
 20
-789.12241614964648
 30
0.0
 41
1.0
 10
1634.764849745774
 20
-789.16041940007574
 30
0.0
 41
1.0
 10
1634.7342097808698
 20
-789.19842265050499
 30
0.0
 41
1.0
 10
1634.4919242340827
 20
-789.49893338342315
 30
0.0
 41
0.9997077826755147
 10
1634.2644462829794
 20
-789.81080317763656
 30
0.0
 41
1.0
 10
1634.2627228678471
 20
-789.81316596101874
 30
0.0
 41
1.0
 10
1634.2609994527147
 20
-789.81552874440092
 30
0.0
 41
1.0
 10
1634.0300746713483
 20
-790.13212410537665
 30
0.0
 41
0.9989147567078789
 10
1633.8296111684651
 20
-790.46883356656122
 30
0.0
 41
1.0
 10
1633.8048700231611
 20
-790.51039014710875
 30
0.0
 41
1.0
 10
1633.7801288778571
 20
-790.55194672765629
 30
0.0
 41
1.0
 10
1633.6249175792157
 20
-790.81264811211554
 30
0.0
 41
0.9997476598182635
 10
1633.4815725917042
 20
-791.08005786070123
 30
0.0
 41
1.0
 10
1633.3382276041923
 20
-791.34746760928772
 30
0.0
 41
0.9996258967109949
 10
1633.2097193522591
 20
-791.62231554591619
 30
0.0
 41
1.0
 10
1633.1965194428053
 20
-791.65054694602031
 30
0.0
 41
1.0
 10
1633.1833195333516
 20
-791.67877834612455
 30
0.0
 41
1.0
 10
1633.043110812358
 20
-791.97865074406445
 30
0.0
 41
0.9998735413943118
 10
1632.9125094656431
 20
-792.28283034352012
 30
0.0
 41
1.0
 10
1632.9090666375873
 20
-792.2908489289739
 30
0.0
 41
1.0
 10
1632.9056238095313
 20
-792.29886751442768
 30
0.0
 41
1.0
 10
1632.7819081189277
 20
-792.58700994297601
 30
0.0
 41
0.9999377418863016
 10
1632.6646533167482
 20
-792.87784141066277
 30
0.0
 41
1.0
 10
1632.5473985145727
 20
-793.16867287833952
 30
0.0
 41
0.9999508299500007
 10
1632.4359345711946
 20
-793.46177255516238
 30
0.0
 41
1.0
 10
1632.4328538025325
 20
-793.46987358112506
 30
0.0
 41
1.0
 10
1632.4297730338706
 20
-793.47797460708784
 30
0.0
 41
1.0
 10
1632.312147553165
 20
-793.78727633584504
 30
0.0
 41
0.9999609228435832
 10
1632.2000089502858
 20
-794.09860935187578
 30
0.0
 41
1.0
 10
1632.1970529399405
 20
-794.10681619227353
 30
0.0
 41
1.0
 10
1632.1940969295949
 20
-794.11502303267139
 30
0.0
 41
1.0
 10
1632.076046306016
 20
-794.44276972952161
 30
0.0
 41
0.9999674607396734
 10
1631.963298779943
 20
-794.77237834953178
 30
0.0
 41
1.0
 10
1631.9119003893854
 20
-794.92263754520923
 30
0.0
 41
1.0
 10
1631.8605019988279
 20
-795.07289674088679
 30
0.0
 41
1.0
 10
1631.7444913920701
 20
-795.41204472338904
 30
0.0
 41
0.9999287532309731
 10
1631.6366099881
 20
-795.75386546236359
 30
0.0
 41
1.0
 10
1631.5901327319298
 20
-795.90112800683346
 30
0.0
 41
1.0
 10
1631.5436554757594
 20
-796.04839055130333
 30
0.0
 41
1.0
 10
1631.5287285840852
 20
-796.09568620147888
 30
0.0
 41
0.9999998222657219
 10
1631.5138580753987
 20
-796.14299960958022
 30
0.0
 41
1.0
 10
1629.8932019386034
 20
-801.29102811136966
 30
0.0
 41
1.0
 10
1628.2725458018078
 20
-806.4390566131591
 30
0.0
 41
1.0
 10
1627.367237357917
 20
-806.4390566131591
 30
0.0
 41
1.0
 10
1626.461928914026
 20
-806.4390566131591
 30
0.0
 41
1.0
 10
1628.3140133254119
 20
-800.5519846906916
 30
0.0
 41
1.0
 10
1630.1660977367981
 20
-794.6649127682241
 30
0.0
 41
1.0
 10
1630.1762194951009
 20
-794.6328695547744
 30
0.0
 41
1.0
 10
1630.2488271639506
 20
-794.40257001294856
 30
0.0
 41
1.0
 10
1630.3214348328054
 20
-794.17227047110691
 30
0.0
 41
0.9999825681969763
 10
1630.3913178720218
 20
-793.94112957602499
 30
0.0
 41
1.0
 10
1630.4396089341794
 20
-793.78140499253891
 30
0.0
 41
1.0
 10
1630.4878999963373
 20
-793.62168040905283
 30
0.0
 41
1.0
 10
1630.5850523496511
 20
-793.30034518728894
 30
0.0
 41
0.9999672528969168
 10
1630.6769911552728
 20
-792.97747964170776
 30
0.0
 41
1.0
 10
1630.67978003894
 20
-792.96768579632692
 30
0.0
 41
1.0
 10
1630.6825689226071
 20
-792.95789195094608
 30
0.0
 41
1.0
 10
1630.768929960894
 20
-792.65461409612885
 30
0.0
 41
0.9999899749152489
 10
1630.8525715704309
 20
-792.35057500766902
 30
0.0
 41
1.0
 10
1630.8626774894492
 20
-792.31383976998768
 30
0.0
 41
1.0
 10
1630.8727834084675
 20
-792.27710453230634
 30
0.0
 41
1.0
 10
1630.9362131799658
 20
-792.0465359192159
 30
0.0
 41
0.9999214200504208
 10
1630.9938426083431
 20
-791.81444957700728
 30
0.0
 41
1.0
 10
1631.0066084605232
 20
-791.76303869161256
 30
0.0
 41
1.0
 10
1631.0193743127036
 20
-791.71162780621773
 30
0.0
 41
1.0
 10
1631.05147203672
 20
-791.58236323480105
 30
0.0
 41
0.9999828681665504
 10
1631.0820542887163
 20
-791.45273176033049
 30
0.0
 41
1.0
 10
1631.1126365407133
 20
-791.32310028585562
 30
0.0
 41
0.9999389844476764
 10
1631.1403475295042
 20
-791.19282482994788
 30
0.0
 41
1.0
 10
1631.1474852732226
 20
-791.15926872611794
 30
0.0
 41
1.0
 10
1631.1546230169413
 20
-791.12571262228812
 30
0.0
 41
1.0
 10
1631.1966094931693
 20
-790.92832495872074
 30
0.0
 41
0.9998933699441805
 10
1631.2328137575701
 20
-790.72979535097113
 30
0.0
 41
1.0
 10
1631.234186582788
 20
-790.72226733026628
 30
0.0
 41
1.0
 10
1631.2355594080059
 20
-790.71473930956142
 30
0.0
 41
1.0
 10
1631.2745093228398
 20
-790.50115366041609
 30
0.0
 41
0.999685030519331
 10
1631.3026929990979
 20
-790.28588265498581
 30
0.0
 41
1.0
 10
1631.3046880324682
 20
-790.27064430085613
 30
0.0
 41
1.0
 10
1631.3066830658386
 20
-790.25540594672646
 30
0.0
 41
1.0
 10
1631.3340909282974
 20
-790.04606071957255
 30
0.0
 41
0.9994697936706517
 10
1631.347815487517
 20
-789.83537552424377
 30
0.0
 41
1.0
 10
1631.3482925567666
 20
-789.8280520520334
 30
0.0
 41
1.0
 10
1631.3487696260163
 20
-789.82072857982303
 30
0.0
 41
1.0
 10
1631.3615400467365
 20
-789.62469032891374
 30
0.0
 41
0.9991804893137015
 10
1631.3584117304636
 20
-789.42826147893959
 30
0.0
 41
1.0
 10
1631.3583278516414
 20
-789.42299467752673
 30
0.0
 41
1.0
 10
1631.3582439728193
 20
-789.41772787611376
 30
0.0
 41
1.0
 10
1631.3552834141908
 20
-789.231832628966
 30
0.0
 41
0.9988448329321402
 10
1631.3344918685671
 20
-789.04708003913277
 30
0.0
 41
1.0
 10
1631.332897794864
 20
-789.03291518336232
 30
0.0
 41
1.0
 10
1631.3313037211612
 20
-789.01875032759199
 30
0.0
 41
1.0
 10
1631.3137003229433
 20
-788.8623274493001
 30
0.0
 41
0.9985503209459004
 10
1631.2793840506438
 20
-788.70870326521015
 30
0.0
 41
1.0
 10
1631.2717980585735
 20
-788.67474293781402
 30
0.0
 41
1.0
 10
1631.2642120665032
 20
-788.64078261041777
 30
0.0
 41
1.0
 10
1631.2450677783452
 20
-788.55507908112463
 30
0.0
 41
0.9991036781370695
 10
1631.2187429166929
 20
-788.47130199379592
 30
0.0
 41
1.0
 10
1631.2147606912363
 20
-788.4586288312837
 30
0.0
 41
1.0
 10
1631.2107784657799
 20
-788.4459556687716
 30
0.0
 41
1.0
 10
1631.1924180550407
 20
-788.38752490646777
 30
0.0
 41
0.9998874504369463
 10
1631.1723128473634
 20
-788.32967130424765
 30
0.0
 41
1.0
 10
1631.1522076396841
 20
-788.27181770202139
 30
0.0
 41
0.9994041637542824
 10
1631.1281590267486
 20
-788.21548899812956
 30
0.0
 41
1.0
 10
1631.1239622425257
 20
-788.2056589336504
 30
0.0
 41
1.0
 10
1631.1197654583029
 20
-788.19582886917124
 30
0.0
 41
1.0
 10
1631.091886627308
 20
-788.13052870320325
 30
0.0
 41
0.9991846840702225
 10
1631.0588302706151
 20
-788.06769067192329
 30
0.0
 41
1.0
 10
1631.0576936642215
 20
-788.06553005547107
 30
0.0
 41
1.0
 10
1631.0565570578276
 20
-788.06336943901874
 30
0.0
 41
1.0
 10
1631.0257739139233
 20
-788.00485264064548
 30
0.0
 41
0.9989253167924459
 10
1630.9897044898671
 20
-787.9494377122528
 30
0.0
 41
1.0
 10
1630.9886503651919
 20
-787.94781821748916
 30
0.0
 41
1.0
 10
1630.987596240517
 20
-787.9461987227254
 30
0.0
 41
1.0
 10
1630.9536350658113
 20
-787.89402278386171
 30
0.0
 41
0.9986467172837237
 10
1630.9144379131747
 20
-787.84565675023305
 30
0.0
 41
1.0
 10
1630.913563784474
 20
-787.84457814795496
 30
0.0
 41
1.0
 10
1630.9126896557734
 20
-787.84349954567676
 30
0.0
 41
1.0
 10
1630.8752407605368
 20
-787.7972907166029
 30
0.0
 41
0.998400110426691
 10
1630.83281403002
 20
-787.75560560923464
 30
0.0
 41
1.0
 10
1630.8322268919105
 20
-787.75502873435335
 30
0.0
 41
1.0
 10
1630.8316397538013
 20
-787.75445185947217
 30
0.0
 41
1.0
 10
1630.790387299503
 20
-787.71392050186569
 30
0.0
 41
0.9982442159081456
 10
1630.7446311981673
 20
-787.67855194060564
 30
0.0
 41
1.0
 10
1630.7444164027052
 20
-787.67838590796214
 30
0.0
 41
1.0
 10
1630.7442016072428
 20
-787.67821987531852
 30
0.0
 41
1.0
 10
1630.6988750968312
 20
-787.64318337934515
 30
0.0
 41
0.9982450060834788
 10
1630.6497241177599
 20
-787.61375159631189
 30
0.0
 41
1.0
 10
1630.6005731386874
 20
-787.58431981327806
 30
0.0
 41
0.9983922639635416
 10
1630.5484068325236
 20
-787.56064017862434
 30
0.0
 41
1.0
 10
1630.548179955199
 20
-787.56053719314286
 30
0.0
 41
1.0
 10
1630.5479530778744
 20
-787.56043420766139
 30
0.0
 41
1.0
 10
1630.4953330170608
 20
-787.5365486020446
 30
0.0
 41
0.9986517147150309
 10
1630.4405200441931
 20
-787.5182474829229
 30
0.0
 41
1.0
 10
1630.4398421227652
 20
-787.51802113649137
 30
0.0
 41
1.0
 10
1630.439164201337
 20
-787.51779479005984
 30
0.0
 41
1.0
 10
1630.382995385612
 20
-787.49904097807473
 30
0.0
 41
0.9989435598956062
 10
1630.3253419984615
 20
-787.48552327584048
 30
0.0
 41
1.0
 10
1630.32426187888
 20
-787.48527002558762
 30
0.0
 41
1.0
 10
1630.3231817592987
 20
-787.48501677533466
 30
0.0
 41
1.0
 10
1630.2633681329835
 20
-787.47099257259401
 30
0.0
 41
0.9992249241239922
 10
1630.2026366240857
 20
-787.4617172298789
 30
0.0
 41
1.0
 10
1630.2012229357949
 20
-787.46150132147113
 30
0.0
 41
1.0
 10
1630.1998092475042
 20
-787.46128541306325
 30
0.0
 41
1.0
 10
1630.1362503620262
 20
-787.45157825353249
 30
0.0
 41
0.9994396597833044
 10
1630.0721844254908
 20
-787.44614533118693
 30
0.0
 41
1.0
 10
1630.0530437580114
 20
-787.44452216346815
 30
0.0
 41
1.0
 10
1630.0339030905322
 20
-787.44289899574937
 30
0.0
 41
1.0
 10
1629.9315558190401
 20
-787.43421973796649
 30
0.0
 41
0.9987693403121873
 10
1629.8288521954512
 20
-787.43572280141905
 30
0.0
 41
1.0
 10
1629.818597861225
 20
-787.43587287319326
 30
0.0
 41
1.0
 10
1629.8083435269987
 20
-787.43602294496748
 30
0.0
 41
1.0
 10
1629.6987877608185
 20
-787.43762628925481
 30
0.0
 41
0.998975364496576
 10
1629.5898257608028
 20
-787.44912929617999
 30
0.0
 41
1.0
 10
1629.4808637607873
 20
-787.46063230310494
 30
0.0
 41
0.9983190067305655
 10
1629.3739649498234
 20
-787.48466729489155
 30
0.0
 41
1.0
 10
1629.3650639982156
 20
-787.48666857345438
 30
0.0
 41
1.0
 10
1629.3561630466079
 20
-787.48866985201732
 30
0.0
 41
1.0
 10
1629.2314623324301
 20
-787.51670740092936
 30
0.0
 41
0.9985539388303132
 10
1629.1104925787527
 20
-787.5579710769747
 30
0.0
 41
1.0
 10
1629.1081471477919
 20
-787.55877112079065
 30
0.0
 41
1.0
 10
1629.1058017168309
 20
-787.55957116460672
 30
0.0
 41
1.0
 10
1628.9801411012336
 20
-787.60243492828351
 30
0.0
 41
0.9988468746493485
 10
1628.8591707589339
 20
-787.65715301334558
 30
0.0
 41
1.0
 10
1628.8559879369443
 20
-787.65859268790587
 30
0.0
 41
1.0
 10
1628.8528051149547
 20
-787.66003236246627
 30
0.0
 41
1.0
 10
1628.7254691286757
 20
-787.71762979664902
 30
0.0
 41
0.9991322885919064
 10
1628.6033685446175
 20
-787.78562512883184
 30
0.0
 41
1.0
 10
1628.5857665335725
 20
-787.79542733082224
 30
0.0
 41
1.0
 10
1628.5681645225275
 20
-787.80522953281263
 30
0.0
 41
1.0
 10
1628.465987841473
 20
-787.86212964859192
 30
0.0
 41
0.9993860037848955
 10
1628.3680468374018
 20
-787.92604566417924
 30
0.0
 41
1.0
 10
1628.362428524556
 20
-787.92971215886996
 30
0.0
 41
1.0
 10
1628.3568102117099
 20
-787.93337865356068
 30
0.0
 41
1.0
 10
1628.2701058333373
 20
-787.9899616797619
 30
0.0
 41
0.9998821494953573
 10
1628.1851794575155
 20
-788.0491799098445
 30
0.0
 41
1.0
 10
1628.100253081707
 20
-788.10839813991811
 30
0.0
 41
0.9997976482744275
 10
1628.017777451304
 20
-788.17098454795939
 30
0.0
 41
1.0
 10
1628.0031411864966
 20
-788.18209123774102
 30
0.0
 41
1.0
 10
1627.9885049216894
 20
-788.19319792752265
 30
0.0
 41
1.0
 10
1627.8767567616699
 20
-788.27799771512855
 30
0.0
 41
0.9998091630799824
 10
1627.7684064836408
 20
-788.36709806583144
 30
0.0
 41
1.0
 10
1627.7554007311671
 20
-788.3777931662745
 30
0.0
 41
1.0
 10
1627.7423949786935
 20
-788.38848826671756
 30
0.0
 41
1.0
 10
1627.6080331957116
 20
-788.498978818311
 30
0.0
 41
0.9995035112317172
 10
1627.4808973179486
 20
-788.61771263532523
 30
0.0
 41
1.0
 10
1627.4712500075593
 20
-788.6267223814848
 30
0.0
 41
1.0
 10
1627.4616026971703
 20
-788.63573212764447
 30
0.0
 41
1.0
 10
1627.3381796344067
 20
-788.75099849939875
 30
0.0
 41
0.9994630424299256
 10
1627.222571228624
 20
-788.87410124263272
 30
0.0
 41
1.0
 10
1627.2188883898546
 20
-788.87802282214352
 30
0.0
 41
1.0
 10
1627.2152055510851
 20
-788.88194440165444
 30
0.0
 41
1.0
 10
1627.1069628228422
 20
-788.99720398586544
 30
0.0
 41
0.9995160693749873
 10
1627.0060967933082
 20
-789.11897140374049
 30
0.0
 41
1.0
 10
1627.0041630732271
 20
-789.12130582794885
 30
0.0
 41
1.0
 10
1627.0022293531463
 20
-789.12364025215732
 30
0.0
 41
1.0
 10
1626.9052307637753
 20
-789.24073882161406
 30
0.0
 41
0.999656147051479
 10
1626.8145045451101
 20
-789.36276158406224
 30
0.0
 41
1.0
 10
1626.8083468792126
 20
-789.37104337309847
 30
0.0
 41
1.0
 10
1626.8021892133152
 20
-789.37932516213482
 30
0.0
 41
1.0
 10
1626.7237783264484
 20
-789.48478434650588
 30
0.0
 41
0.9998349055175179
 10
1626.6492510445123
 20
-789.59302293017481
 30
0.0
 41
1.0
 10
1626.5747237625742
 20
-789.70126151384659
 30
0.0
 41
0.9999728109563869
 10
1626.5018008666598
 20
-789.81058743940844
 30
0.0
 41
1.0
 10
1626.500485651253
 20
-789.81255920890339
 30
0.0
 41
1.0
 10
1626.4991704358463
 20
-789.81453097839847
 30
0.0
 41
1.0
 10
1626.4236171090979
 20
-789.92780044298092
 30
0.0
 41
0.9999972147380929
 10
1626.3485992987239
 20
-790.04142528581679
 30
0.0
 41
1.0
 10
1626.3436277561091
 20
-790.04895537427797
 30
0.0
 41
1.0
 10
1626.338656213494
 20
-790.05648546273915
 30
0.0
 41
1.0
 10
1626.2536953178756
 20
-790.18517048251886
 30
0.0
 41
0.9999371979008356
 10
1626.1716399684728
 20
-790.31572739629382
 30
0.0
 41
1.0
 10
1626.16813108411
 20
-790.32131032436087
 30
0.0
 41
1.0
 10
1626.1646221997469
 20
-790.32689325242779
 30
0.0
 41
1.0
 10
1626.0755490816196
 20
-790.46861602233423
 30
0.0
 41
0.9998272025609712
 10
1625.991805690737
 20
-790.61355189907749
 30
0.0
 41
1.0
 10
1625.9765905187128
 20
-790.63988501353481
 30
0.0
 41
1.0
 10
1625.9613753466883
 20
-790.66621812799212
 30
0.0
 41
1.0
 10
1625.8472016117573
 20
-790.86382023364922
 30
0.0
 41
0.9995217214838024
 10
1625.7454619222003
 20
-791.06810256151437
 30
0.0
 41
1.0
 10
1625.7378183595645
 20
-791.08345001121904
 30
0.0
 41
1.0
 10
1625.7301747969286
 20
-791.09879746092372
 30
0.0
 41
1.0
 10
1625.6432695043409
 20
-791.27329391900093
 30
0.0
 41
0.9998269762606332
 10
1625.5629150380705
 20
-791.45090220572081
 30
0.0
 41
1.0
 10
1625.4825605717999
 20
-791.62851049244136
 30
0.0
 41
0.9998944747387704
 10
1625.4073997772375
 20
-791.80837821806517
 30
0.0
 41
1.0
 10
1625.4024461076442
 20
-791.82023287298762
 30
0.0
 41
1.0
 10
1625.3974924380509
 20
-791.83208752790995
 30
0.0
 41
1.0
 10
1625.316845377499
 20
-792.02508446792581
 30
0.0
 41
0.9999506734407645
 10
1625.2400478485947
 20
-792.21964527278374
 30
0.0
 41
1.0
 10
1625.2254478833224
 20
-792.25663319459295
 30
0.0
 41
1.0
 10
1625.2108479180504
 20
-792.29362111640228
 30
0.0
 41
1.0
 10
1625.1632503196874
 20
-792.4142060776494
 30
0.0
 41
0.9999912393905912
 10
1625.1166638756686
 20
-792.53518528033567
 30
0.0
 41
1.0
 10
1625.0700774316401
 20
-792.65616448304763
 30
0.0
 41
0.9999927113946195
 10
1625.0244161372368
 20
-792.77749589057362
 30
0.0
 41
1.0
 10
1625.0104477058467
 20
-792.81461287255252
 30
0.0
 41
1.0
 10
1624.9964792744565
 20
-792.8517298545313
 30
0.0
 41
1.0
 10
1624.9228811172718
 20
-793.04729522601792
 30
0.0
 41
0.9999487550948737
 10
1624.8532574923049
 20
-793.24431059118581
 30
0.0
 41
1.0
 10
1624.8296638823554
 20
-793.31107390151419
 30
0.0
 41
1.0
 10
1624.806070272406
 20
-793.37783721184246
 30
0.0
 41
1.0
 10
1624.7113846380425
 20
-793.64577104664693
 30
0.0
 41
0.9999808436942221
 10
1624.6200230494094
 20
-793.91485647788852
 30
0.0
 41
1.0
 10
1624.5286614607589
 20
-794.18394190917968
 30
0.0
 41
0.9999873932911929
 10
1624.4400067520346
 20
-794.45393126421277
 30
0.0
 41
1.0
 10
1624.4199143951728
 20
-794.51512059694255
 30
0.0
 41
1.0
 10
1624.3998220383112
 20
-794.57630992967222
 30
0.0
 41
1.0
 10
1624.270982615858
 20
-794.96867795018045
 30
0.0
 41
0.9999794883030196
 10
1624.1471798309015
 20
-795.36266415645321
 30
0.0
 41
1.0
 10
1624.1360275714842
 20
-795.39815476662636
 30
0.0
 41
1.0
 10
1624.1248753120667
 20
-795.43364537679952
 30
0.0
 41
1.0
 10
1623.982317148153
 20
-795.88731812893684
 30
0.0
 41
0.9999982761831928
 10
1623.8414447081086
 20
-796.34151715115252
 30
0.0
 41
1.0
 10
1622.2533043755361
 20
-801.39028688215581
 30
0.0
 41
1.0
 10
1620.6651640429634
 20
-806.4390566131591
 30
0.0
 41
1.0
 10
1619.7164134314871
 20
-806.4390566131591
 30
0.0
 41
1.0
 10
1618.7676628200106
 20
-806.4390566131591
 30
0.0
 41
1.0
 10
1622.0059473061638
 20
-796.11173441321296
 30
0.0
 41
1.0
 10
1625.2442317923171
 20
-785.78441221326682
 30
0.0
 41
1.0
  0
LWPOLYLINE
  5
5E
100
AcDbEntity
  8
0
370
              15
390
0
  6
Continuous
 62
               7
100
AcDbPolyline
 90
      232
 70
             128
 10
1599.5406860184901
 20
-786.86875504478201
 42
0.0004370800692276
 10
1599.4878088444357
 20
-786.93742168401525
 10
1599.4485246132906
 20
-786.98852879693482
 42
0.0030481992174646
 10
1599.3181858961764
 20
-787.16025048927247
 10
1599.2796742244209
 20
-787.21163727306714
 42
0.0042058245756988
 10
1599.0756891737481
 20
-787.48864301814501
 10
1599.0232840512504
 20
-787.56107586492158
 42
0.012094889874457
 10
1598.727240134486
 20
-787.99182546947543
 10
1598.6310476353649
 20
-788.13930620469887
 42
0.0141601263950333
 10
1598.3274035884451
 20
-788.63497554143089
 10
1598.2878663210172
 20
-788.70381950886599
 42
0.0071131081300988
 10
1598.0825939977808
 20
-789.07332230770078
 42
0.006845879100509
 10
1597.8877144709347
 20
-789.44841387118231
 10
1597.8809026084798
 20
-789.46197558490053
 42
0.0064120880289061
 10
1597.6827603584356
 20
-789.86940005981921
 10
1597.6752256729185
 20
-789.88541191654065
 42
0.0058857236447953
 10
1597.472470281049
 20
-790.32978802757054
 10
1597.4642953547527
 20
-790.34827818120959
 42
0.0053189741897044
 10
1597.2555910420745
 20
-790.83424165515351
 10
1597.2468432364039
 20
-790.85522353332362
 42
0.0047503650419924
 10
1597.0308695102585
 20
-791.38742296652015
 10
1597.0216012619053
 20
-791.41089934264119
 42
0.0042071762171687
 10
1596.7970538781822
 20
-791.99399293669853
 10
1596.7873044758289
 20
-792.01995911158065
 42
0.0036680086484542
 10
1596.5528498325223
 20
-792.6585944960965
 10
1596.542642052669
 20
-792.68704303045638
 42
0.0032573142626103
 10
1596.2970097667026
 20
-793.38589569020837
 10
1596.2283592458491
 20
-793.58535877429892
 42
0.0026133366650439
 10
1595.8799140471035
 20
-794.6152220579346
 10
1595.8166572596206
 20
-794.80545289327426
 42
0.0020592950739632
 10
1595.6027941906359
 20
-795.45755654594075
 10
1595.599742399465
 20
-795.46699303437492
 42
0.0025609928536881
 10
1595.3979218979869
 20
-796.10213825671633
 10
1595.3953305308701
 20
-796.11044059762514
 42
0.0031362356240672
 10
1595.2058397451833
 20
-796.73120345383643
 10
1595.2037087022645
 20
-796.73834476001855
 42
0.0037229918028557
 10
1595.0269083153294
 20
-797.34733006202168
 10
1595.0252297261261
 20
-797.35327695218518
 42
0.0043077623708668
 10
1594.861488924058
 20
-797.9530956839651
 42
0.0047654161825597
 10
1594.7086602015399
 20
-798.55578177287532
 10
1594.6741955927027
 20
-798.69734355001719
 42
0.0112969368444919
 10
1594.4783312345576
 20
-799.58903571064957
 10
1594.4503248454625
 20
-799.73186375673924
 42
0.0130056762570148
 10
1594.2494876018159
 20
-800.91880482838417
 10
1594.2289478516682
 20
-801.06288294186561
 42
0.0138721532145171
 10
1594.1252448471309
 20
-801.96971242768689
 10
1594.1059493592236
 20
-802.19321014960406
 42
0.0071254697006128
 10
1594.0726027133005
 20
-802.65639715845919
 10
1594.0676417391353
 20
-802.74240115305543
 42
0.0028881799204567
 10
1594.0525034458474
 20
-803.03414286286193
 42
0.0060297297133523
 10
1594.0425712460719
 20
-803.32609179897065
 10
1594.0415089644046
 20
-803.37448417091207
 42
0.0229523164154958
 10
1594.0492399921905
 20
-803.6972390171934
 10
1594.0534657657111
 20
-803.75764255121385
 42
0.0123673300667124
 10
1594.072544412229
 20
-803.95876327638439
 42
0.0128577674471337
 10
1594.1017398026347
 20
-804.15866112630647
 10
1594.1088656760226
 20
-804.19998994090815
 42
0.028571785376591
 10
1594.1733596777176
 20
-804.47810609221983
 10
1594.1870282013845
 20
-804.5247608616985
 42
0.0316283099155559
 10
1594.3028387812988
 20
-804.84377536352451
 10
1594.3058874730543
 20
-804.85076173584991
 42
0.0338984824236007
 10
1594.4553191840216
 20
-805.13832770003921
 10
1594.457627913391
 20
-805.14211872931435
 42
0.0350228718353158
 10
1594.639988204065
 20
-805.39917071399202
 10
1594.6408734558413
 20
-805.40024979175746
 42
0.0347476747535898
 10
1594.8552981430803
 20
-805.62743483897611
 42
0.0331337701917015
 10
1595.0985414688269
 20
-805.82356350105374
 10
1595.0996415673426
 20
-805.82433620422603
 42
0.0305233319087262
 10
1595.3681862629178
 20
-805.98946437431823
 10
1595.3714163074173
 20
-805.99118838618006
 42
0.0273744481158245
 10
1595.6639700189912
 20
-806.12732653007026
 10
1595.6690745541291
 20
-806.12937011454017
 42
0.0240964406197061
 10
1595.9845516297748
 20
-806.23835384082156
 10
1595.9911349589847
 20
-806.24027858049658
 42
0.0209636179809307
 10
1596.3285351116385
 20
-806.32374672842889
 10
1596.3361675720862
 20
-806.32529864143009
 42
0.0181388704693483
 10
1596.6944899640832
 20
-806.38471473464392
 10
1596.7027708124626
 20
-806.38578091846114
 42
0.0156086547587826
 10
1597.0809581766528
 20
-806.42251710503785
 10
1597.1241534289793
 20
-806.42535560751685
 42
0.0137148329018676
 10
1597.4518265742772
 20
-806.43787586276812
 10
1597.4977627642197
 20
-806.43837029588337
 42
0.0051057823882465
 10
1597.7339083507954
 20
-806.43850055029247
 42
0.0052256693316931
 10
1597.9700056345791
 20
-806.43375172582819
 10
1598.0402324183237
 20
-806.43160475981415
 42
0.0161507179049816
 10
1598.4159694964269
 20
-806.40795438948737
 10
1598.435982456798
 20
-806.40604419420004
 42
0.0101216737835099
 10
1598.8500096782898
 20
-806.35805126383434
 10
1598.8840629677156
 20
-806.35340356702488
 42
0.0245291776398342
 10
1599.3608526232681
 20
-806.26432848894831
 10
1599.4456759387888
 20
-806.24413256860316
 42
0.0143509212554589
 10
1599.8023070427303
 20
-806.14832793482401
 42
0.0156557857033081
 10
1600.1525231074547
 20
-806.03131671900621
 10
1600.1600243219521
 20
-806.02854655725105
 42
0.0170137333628561
 10
1600.5166203176343
 20
-805.8828889423794
 10
1600.5237242400408
 20
-805.87970110681624
 42
0.0183105364407927
 10
1600.8830739082041
 20
-805.70236606499361
 10
1600.8900206728458
 20
-805.69861563011978
 42
0.019489995815043
 10
1601.2485014138281
 20
-805.48663664823027
 10
1601.2555152931668
 20
-805.48211130593404
 42
0.0204869852950577
 10
1601.6095295952625
 20
-805.2325912908467
 10
1601.6167952038477
 20
-805.22701122549984
 42
0.0212516938557853
 10
1601.9627851349546
 20
-804.93710722860624
 10
1602.0093018290333
 20
-804.89463991850971
 42
0.0215248918256926
 10
1602.2693279979189
 20
-804.63587563951705
 10
1602.3143577323035
 20
-804.58703151816303
 42
0.0114578554951553
 10
1602.469149885977
 20
-804.4112085847089
 10
1602.4803444219649
 20
-804.39788982116204
 42
0.0061531305130648
 10
1602.606819067958
 20
-804.24360028785782
 42
0.0006325587117887
 10
1602.7311975520504
 20
-804.08759691225646
 10
1602.7542376871611
 20
-804.0586233915227
 42
0.0041897761557204
 10
1602.9226930911368
 20
-803.84310401545702
 10
1602.9811552110259
 20
-803.7670026684757
 42
0.0092993880041978
 10
1603.2577671382578
 20
-803.39272390458052
 10
1603.3401616314463
 20
-803.27678690102664
 42
0.0159321727084918
 10
1603.6867681140911
 20
-802.75461268026709
 10
1603.731124249472
 20
-802.68293311603043
 42
0.00855473170192
 10
1603.965636014806
 20
-802.28905816679242
 42
0.0084601156887729
 10
1604.1866121922494
 20
-801.88743131775777
 10
1604.1947276660783
 20
-801.87207163548726
 42
0.0081429654286322
 10
1604.4179769365169
 20
-801.43235012294406
 10
1604.4268371006997
 20
-801.41417128092712
 42
0.0076574581329013
 10
1604.6532446112681
 20
-800.93098840567075
 10
1604.6627242519903
 20
-800.90992392737098
 42
0.0070682724197851
 10
1604.8931691597927
 20
-800.37788662260027
 10
1604.9031594437788
 20
-800.35389743357814
 42
0.0064559514443211
 10
1605.1384926519549
 20
-799.76758516707332
 10
1605.1489020101253
 20
-799.740650241617
 42
0.0058311413908493
 10
1605.3899487468962
 20
-799.09461814721135
 10
1605.4007038242758
 20
-799.06473380607281
 42
0.0052312425819972
 10
1605.6482851023261
 20
-798.35353139221024
 10
1605.6593289386965
 20
-798.32070468016855
 42
0.0046680544794924
 10
1605.914257366428
 20
-797.53887836442209
 10
1605.9562495164685
 20
-797.40589512714041
 42
0.0041666856442609
 10
1606.1595355288694
 20
-796.74292635211611
 10
1606.1971979695415
 20
-796.61634524443411
 42
0.001517097515979
 10
1606.3183845479462
 20
-796.20447689296873
 42
-0.0004887993107658
 10
1606.4387243211518
 20
-795.79235848064525
 10
1606.5152015785643
 20
-795.53140109498565
 42
0.0002583378927851
 10
1606.7884161486957
 20
-794.59734439157762
 10
1606.8701889982196
 20
-794.31724513217489
 42
0.0006636169671525
 10
1607.0640567582166
 20
-793.64989220863652
 10
1607.0691534125369
 20
-793.63226062584886
 42
0.0010589131320969
 10
1607.2506021134802
 20
-792.99952928270761
 10
1607.2555841839498
 20
-792.98201637572561
 42
0.0015655524461394
 10
1607.4238543911435
 20
-792.38339969648666
 10
1607.4286845915622
 20
-792.36600753753794
 42
0.0021640440478152
 10
1607.5829745635447
 20
-791.80098051953269
 10
1607.5876087829815
 20
-791.7837157895126
 42
0.0028763871851906
 10
1607.7271245010274
 20
-791.25174783869181
 10
1607.7315103651897
 20
-791.23462386055689
 42
0.0037310511944766
 10
1607.8554670570315
 20
-790.73517626651346
 10
1607.8595422773233
 20
-790.71821599525697
 42
0.0047652197772629
 10
1607.9671661778289
 20
-790.25073822696288
 10
1607.9708567771538
 20
-790.23397867180574
 42
0.0060276699302241
 10
1608.0613868763062
 20
-789.79790287666867
 10
1608.0646055665884
 20
-789.78140166239541
 42
0.0075824337748395
 10
1608.1372948760109
 20
-789.37613449793332
 10
1608.1399402533909
 20
-789.35997955048344
 42
0.0095130624609041
 10
1608.194055489022
 20
-788.984890197411
 10
1608.2010417129036
 20
-788.92895663930244
 42
0.0121054653227516
 10
1608.2276330434825
 20
-788.66406081082062
 10
1608.2284995332416
 20
-788.65265736789604
 42
0.0069050827387776
 10
1608.2435883512799
 20
-788.40971614104728
 10
1608.2447236509493
 20
-788.38618988398525
 42
0.0169063976713476
 10
1608.2475509299288
 20
-788.18999715670179
 10
1608.2463802783977
 20
-788.12966139535899
 42
0.005200773287973
 10
1608.2441268298044
 20
-788.05406800520052
 42
0.0054038123293861
 10
1608.2241633179665
 20
-787.93404970919596
 10
1608.2190774620951
 20
-787.90539122260941
 42
0.0112050460464838
 10
1608.1836931000375
 20
-787.72906478427444
 10
1608.1658681379959
 20
-787.64952319754957
 42
0.0240764468014638
 10
1608.074970771848
 20
-787.31928616204368
 10
1608.0564120090369
 20
-787.26266599705696
 42
0.0256812331834178
 10
1607.9130490888469
 20
-786.89094179079723
 10
1607.9076396630262
 20
-786.87881045580923
 42
0.026836050121537
 10
1607.7382124221756
 20
-786.54781732178651
 10
1607.732676014539
 20
-786.53829765147168
 42
0.0274670231732114
 10
1607.5404750381272
 20
-786.24601027655694
 10
1607.5350937381636
 20
-786.23873112901413
 42
0.0275035967100263
 10
1607.3235208586027
 20
-785.98321523871152
 10
1607.3184513576368
 20
-785.9777361510819
 42
0.0269557673525341
 10
1607.0910478141966
 20
-785.7570938651188
 10
1607.0863047564119
 20
-785.75296391065626
 42
0.0259124802208548
 10
1606.8467499249832
 20
-785.56527338350566
 10
1606.8422190798008
 20
-785.5620878811751
 42
0.0245162153002327
 10
1606.5943027267067
 20
-785.40535487206489
 10
1606.5897761803822
 20
-785.40279467486391
 42
0.0229282588837374
 10
1606.337356623555
 20
-785.27492648236512
 10
1606.3325761297194
 20
-785.2727741826036
 42
0.0212984135699221
 10
1606.0795381772564
 20
-785.17157526536084
 10
1606.074233892288
 20
-785.16971170260126
 42
0.0197555462338683
 10
1605.8244555545639
 20
-785.09289628463603
 42
0.0183511896793879
 10
1605.5695268290992
 20
-785.03531337767026
 10
1605.4831616323781
 20
-785.01911058728558
 42
0.0338057877149113
 10
1605.1976542831176
 20
-784.98530218214523
 10
1605.1066488780755
 20
-784.98072252688371
 42
0.009199052449649
 10
1605.0008017694415
 20
-784.97734667096177
 42
0.0028333980782527
 10
1604.8948878534352
 20
-784.97651856344498
 10
1604.8939724003994
 20
-784.976516593621
 42
-0.0023619827790497
 10
1604.7862263852828
 20
-784.9757757525424
 10
1604.7498212151177
 20
-784.97535344607945
 42
0.0008824598485927
 10
1604.5692652252903
 20
-784.97357766784137
 10
1604.5254037928617
 20
-784.97322370631559
 42
0.0038132665763961
 10
1604.2571208969864
 20
-784.97310477024894
 10
1604.2405872421893
 20
-784.97322353639254
 42
0.0060665569334538
 10
1603.9393067505885
 20
-784.97904383581363
 10
1603.9250564185727
 20
-784.97949214378093
 42
0.0080356953333543
 10
1603.5955977022395
 20
-784.99515986584743
 10
1603.5835276871462
 20
-784.99592844878828
 42
0.0098996399107277
 10
1603.2307646024942
 20
-785.02541367798665
 10
1603.2207188931206
 20
-785.02645397418462
 42
0.0117740981371124
 10
1602.8495620347687
 20
-785.07374622171506
 10
1602.8413393382893
 20
-785.07499133828526
 42
0.0137435215134717
 10
1602.4567505188099
 20
-785.14408831184585
 10
1602.4500934796811
 20
-785.14547420808049
 42
0.0158359869379936
 10
1602.0570963858795
 20
-785.24036629656086
 10
1602.0516831990112
 20
-785.24185623743176
 42
0.018055412402768
 10
1601.6553681543958
 20
-785.36649425367159
 10
1601.6508113663153
 20
-785.36811028993679
 42
0.0203657431285771
 10
1601.2563338484997
 20
-785.52637063145437
 10
1601.2521903094967
 20
-785.52823225289444
 42
0.0226819684655569
 10
1600.8647542532935
 20
-785.72387483156524
 10
1600.8605544622751
 20
-785.72624042348525
 42
0.0248634984608644
 10
1600.4853725210933
 20
-785.96286706943272
 10
1600.4371775923082
 20
-785.99672411125925
 42
0.0267044190889711
 10
1600.1628848953933
 20
-786.2121644871263
 42
0.0139303002202984
 10
1599.9067177294526
 20
-786.44940332804015
 10
1599.9018643437335
 20
-786.45415599089836
 42
0.0283460963439658
 10
1599.6577917495092
 20
-786.72188665134001
 10
1599.6181232443498
 20
-786.77068822881654
 42
0.0070695364826285
 10
1599.5406860184901
 20
-786.86875504478201
 42
0.0070695364826285
  0
LWPOLYLINE
  5
5F
100
AcDbEntity
  8
0
370
              15
390
0
  6
Continuous
 62
               7
100
AcDbPolyline
 90
      226
 70
             128
 10
1596.0118655812437
 20
-802.59034385096595
 42
-0.002627763658131
 10
1596.0117876974437
 20
-802.5235719251624
 10
1596.0120050556757
 20
-802.4704167077798
 42
-0.0088680296727444
 10
1596.0157816719689
 20
-802.29740092537372
 10
1596.0181280310812
 20
-802.23812089992316
 42
-0.0077381705620644
 10
1596.0341741418426
 20
-801.9468604041441
 10
1596.0350420530172
 20
-801.93457217043988
 42
-0.0068872530532237
 10
1596.061674132764
 20
-801.61935041838501
 10
1596.0628783569514
 20
-801.60710943935214
 42
-0.0062130021480931
 10
1596.1004720737812
 20
-801.26823974809724
 10
1596.1019759773144
 20
-801.25606587619711
 42
-0.0056726929663405
 10
1596.1508978368183
 20
-800.89387065407288
 10
1596.1526712824611
 20
-800.88177685383835
 42
-0.00523418844938
 10
1596.2132818687207
 20
-800.49658359832392
 10
1596.2152998574979
 20
-800.48457866832803
 42
-0.0049768450173025
 10
1596.2880385389242
 20
-800.07673410089603
 10
1596.312287553646
 20
-799.94818611788946
 42
-0.0089029805625624
 10
1596.4493684054407
 20
-799.28641067046669
 10
1596.4821137807592
 20
-799.1413792399436
 42
-0.0080318257099428
 10
1596.7116623950999
 20
-798.19566960808982
 10
1596.723647321548
 20
-798.14953897289979
 42
-0.0074265721318889
 10
1597.0076588603949
 20
-797.1194743945299
 10
1597.0275384035131
 20
-797.05134033393551
 42
-0.0069711922702932
 10
1597.3548429820216
 20
-795.9850725936019
 10
1597.4147949291228
 20
-795.79905123524475
 42
-0.0052070422895877
 10
1597.6442201543864
 20
-795.11177915819997
 10
1597.6615013465425
 20
-795.06175187762949
 42
-0.0009167004450967
 10
1597.8645932338479
 20
-794.47729602942877
 42
-0.0025162726945999
 10
1598.0716908640986
 20
-793.89425476529937
 10
1598.1089154759161
 20
-793.79110521936025
 42
-0.0028212681458025
 10
1598.357091394879
 20
-793.11537458718976
 10
1598.3669221576281
 20
-793.08906714251702
 42
-0.0031964916820611
 10
1598.6032144152919
 20
-792.46886238038599
 10
1598.6128488692736
 20
-792.44405239028674
 42
-0.00362818364525
 10
1598.8379548303922
 20
-791.87661170934962
 10
1598.8473932405439
 20
-791.85331427786105
 42
-0.0041269166834313
 10
1599.0620109372089
 20
-791.33587338186851
 10
1599.0946438936205
 20
-791.25899493552868
 42
-0.0047472213058962
 10
1599.2516886991832
 20
-790.89857346762403
 10
1599.2585827804053
 20
-790.88315287026126
 42
-0.0025651659994368
 10
1599.4069408142416
 20
-790.5558248145436
 42
-0.0057144634993894
 10
1599.560690508006
 20
-790.23101514119503
 10
1599.5887212134076
 20
-790.17350675880016
 42
-0.0065388068373319
 10
1599.772188241154
 20
-789.8092742621219
 10
1599.7806466969328
 20
-789.79301468275207
 42
-0.0074510843025383
 10
1599.9568289428103
 20
-789.46632640162966
 10
1599.9650086133438
 20
-789.45168562435617
 42
-0.0084648979854976
 10
1600.1346424664414
 20
-789.15977661339969
 10
1600.1424985929243
 20
-789.14676962175724
 42
-0.0095638542809339
 10
1600.3063340405238
 20
-788.88688074977028
 10
1600.3138089841959
 20
-788.87551138831441
 42
-0.0107191626806533
 10
1600.472610564583
 20
-788.64490015377078
 10
1600.4796272983158
 20
-788.63516406140377
 42
-0.0118458573902515
 10
1600.6341753968265
 20
-788.43109186609547
 42
-0.0129184518192247
 10
1600.7986280204232
 20
-788.23493134993078
 10
1600.8287727927905
 20
-788.20080527102641
 42
-0.0217742579637954
 10
1601.0053851151265
 20
-788.01759850077542
 10
1601.0161306595837
 20
-788.0073816675756
 42
-0.009726656865498
 10
1601.1821882784427
 20
-787.85553409313513
 42
-0.0187720905715072
 10
1601.3565358543337
 20
-787.71346523974478
 10
1601.3872418450026
 20
-787.69030615735267
 42
-0.017942820752271
 10
1601.6196625650025
 20
-787.52775398023812
 10
1601.6233148919207
 20
-787.5253900453489
 42
-0.0170047877699514
 10
1601.8590785294487
 20
-787.38392953119887
 10
1601.8628615181951
 20
-787.3818312261626
 42
-0.0160190788359778
 10
1602.0997700658304
 20
-787.26017992417451
 42
-0.0151102861485223
 10
1602.3438018482811
 20
-787.15349714811828
 10
1602.396188350489
 20
-787.13245701522521
 42
-0.0271945441889595
 10
1602.7548509095443
 20
-787.01059220452009
 10
1602.8239157100365
 20
-786.99124266325259
 42
-0.0237596594018152
 10
1603.2397125570578
 20
-786.89579195127135
 10
1603.3077754107894
 20
-786.88353726314438
 42
-0.0213715440552865
 10
1603.5936503422336
 20
-786.8445902316347
 10
1603.6537975084518
 20
-786.83900051693377
 42
-0.0101465655825204
 10
1603.8212900404455
 20
-786.82685697366969
 10
1603.8306304266466
 20
-786.8263700586723
 42
-0.0100375910877808
 10
1603.9797845272064
 20
-786.82159424074723
 10
1603.9900437968872
 20
-786.82147180173274
 42
-0.0103625633373269
 10
1604.1187517915419
 20
-786.82260323525941
 10
1604.1410174428081
 20
-786.82326059372429
 42
-0.0115689250214304
 10
1604.2250681803366
 20
-786.82769009996946
 42
-0.0072438037423635
 10
1604.308906459778
 20
-786.83527929971899
 10
1604.3257069692486
 20
-786.83704584244299
 42
-0.0217917313115877
 10
1604.4422767325643
 20
-786.85446573516447
 10
1604.5078768231303
 20
-786.86721234357879
 42
-0.0332943556750245
 10
1604.7122689881571
 20
-786.9212526348856
 10
1604.7424415567084
 20
-786.93142071200441
 42
-0.0184824084793453
 10
1604.8809466131727
 20
-786.98387172739058
 42
-0.0198002050700416
 10
1605.01502095367
 20
-787.04675578758884
 10
1605.0169075910489
 20
-787.04773357446982
 42
-0.0212242342965961
 10
1605.1490465334505
 20
-787.12349631326242
 10
1605.1508618289945
 20
-787.12464211547126
 42
-0.0226090605796506
 10
1605.2793657302161
 20
-787.21412175903583
 10
1605.2812101719535
 20
-787.21553401202323
 42
-0.0238457052240724
 10
1605.4043922532469
 20
-787.31952990788602
 10
1605.4063449818054
 20
-787.32134478565172
 42
-0.0248160564148325
 10
1605.5225464891068
 20
-787.44061938686104
 10
1605.5246501225083
 20
-787.44300472056489
 42
-0.0254109591439286
 10
1605.632255340375
 20
-787.57829310653028
 10
1605.6345033622883
 20
-787.58143465492981
 42
-0.0255528488279292
 10
1605.7319500410865
 20
-787.73346170916602
 10
1605.7342811410015
 20
-787.73754332077169
 42
-0.0252146793221783
 10
1605.8200621670096
 20
-787.90704556676644
 10
1605.8223644061682
 20
-787.91222764868155
 42
-0.0244265635957812
 10
1605.895019099928
 20
-788.09997422072354
 10
1605.9042655013977
 20
-788.12783963906531
 42
-0.0231319612902812
 10
1605.9501882803902
 20
-788.29114068586762
 42
-0.0112130424357478
 10
1605.9848243029278
 20
-788.45734428605317
 10
1605.9860268280408
 20
-788.46384087294359
 42
-0.0210527881233044
 10
1606.0117133034121
 20
-788.64489651838835
 10
1606.0152238982337
 20
-788.68030206693209
 42
-0.0190029892422019
 10
1606.030665371778
 20
-788.93383791319843
 10
1606.0314753482221
 20
-788.96931352757338
 42
-0.0137974553664508
 10
1606.0299264953867
 20
-789.29434493430074
 10
1606.029081040431
 20
-789.32046367889939
 42
-0.0081336634214808
 10
1606.0142217052085
 20
-789.6258111464989
 42
-0.007352692357499
 10
1605.9899131718353
 20
-789.9305593907693
 10
1605.9886517480511
 20
-789.94389606545008
 42
-0.0066886138694091
 10
1605.9529161620069
 20
-790.27448210892965
 10
1605.9512590725349
 20
-790.28810372793873
 42
-0.0061359187356048
 10
1605.9034084704847
 20
-790.64486770803296
 10
1605.9013709694109
 20
-790.65876251086797
 42
-0.005669861006493
 10
1605.8407206386453
 20
-791.04204107969883
 10
1605.8383152053209
 20
-791.05620019893672
 42
-0.0052721077274298
 10
1605.7641830045202
 20
-791.46632753862048
 10
1605.7614198556796
 20
-791.48074417400062
 42
-0.0049289272179994
 10
1605.6731257375832
 20
-791.91805268510586
 10
1605.6700132428969
 20
-791.93272153793885
 42
-0.0047415956711498
 10
1605.5667752513639
 20
-792.39751829535237
 10
1605.5320070410048
 20
-792.54732539073268
 42
-0.0084404470905361
 10
1605.3419905974379
 20
-793.30754941524526
 10
1605.3358639094472
 20
-793.33041353941724
 42
-0.0039635940258693
 10
1605.1144102251642
 20
-794.13140240366181
 10
1605.1010334299838
 20
-794.17833402025644
 42
-0.00724750408348
 10
1604.8335865421175
 20
-795.06755373665749
 10
1604.7633742153018
 20
-795.28929408659235
 42
-0.0051345458828005
 10
1604.4766148432345
 20
-796.16361927442983
 10
1604.4550885764666
 20
-796.22704554156121
 42
-0.0019150016600946
 10
1604.1995551696002
 20
-796.97059466178587
 10
1604.1930875652033
 20
-796.98918212670924
 42
-0.0021524362751301
 10
1603.9446095141402
 20
-797.69350794841534
 10
1603.9353990934396
 20
-797.71926152672859
 42
-0.0024331286821355
 10
1603.6991438344078
 20
-798.36986083483498
 10
1603.6900958818612
 20
-798.39440414117848
 42
-0.002744972178802
 10
1603.4654813110219
 20
-798.99353402011377
 10
1603.4565913036377
 20
-799.01685660994531
 42
-0.0031083229767664
 10
1603.2430488170196
 20
-799.56678064754567
 10
1603.2343126853395
 20
-799.58887036341469
 42
-0.0035311343281756
 10
1603.0312714997522
 20
-800.09185348913354
 10
1603.0226861606129
 20
-800.11269621262318
 42
-0.0040245640952343
 10
1602.8295743568101
 20
-800.57100553523628
 10
1602.8211382432037
 20
-800.59058490331643
 42
-0.0046015135850934
 10
1602.6373819500434
 20
-801.00648993295056
 10
1602.6290957722056
 20
-801.02478707242358
 42
-0.0052768638268974
 10
1602.4541182532594
 20
-801.40055995667296
 10
1602.4459860426339
 20
-801.41755329521311
 42
-0.0060672675643598
 10
1602.2792064298665
 20
-801.75546891833039
 10
1602.2712369493813
 20
-801.7711341773346
 42
-0.0069904648874651
 10
1602.1120685553835
 20
-802.07346998399134
 10
1602.1042771557707
 20
-802.0877805332226
 42
-0.0080637022762989
 10
1601.9521252954269
 20
-802.35681583637177
 10
1601.9445362627996
 20
-802.3697437019656
 42
-0.0093006455677447
 10
1601.7987955862641
 20
-802.60775810047562
 10
1601.7914449195209
 20
-802.61927606964798
 42
-0.0107060778057061
 10
1601.6514963760819
 20
-802.82854638702781
 10
1601.6444346078099
 20
-802.8386319295829
 42
-0.0122723111417847
 10
1601.5096408896043
 20
-803.02142525908266
 10
1601.5093146660502
 20
-803.02184564689242
 42
-0.0141836319628539
 10
1601.3657330630763
 20
-803.19641540472185
 10
1601.358785307428
 20
-803.20439040498241
 42
-0.0175957477206115
 10
1601.2188791393896
 20
-803.35401129339141
 42
-0.0080466359671108
 10
1601.0714153743606
 20
-803.4963338215415
 10
1601.0253808298419
 20
-803.5393542596338
 42
-0.0269600260395799
 10
1600.7721005838628
 20
-803.75167751814001
 10
1600.7055334475672
 20
-803.80162893276292
 42
-0.0178362839758277
 10
1600.465588957906
 20
-803.96864685901926
 10
1600.4583439869034
 20
-803.97331537122557
 42
-0.0174650732646525
 10
1600.2220077894644
 20
-804.11417633618328
 42
-0.016924013016334
 10
1599.976541543605
 20
-804.23846859596154
 10
1599.9305553880488
 20
-804.2598305515279
 42
-0.0318883036836925
 10
1599.580204532429
 20
-804.39616886103795
 10
1599.511838997262
 20
-804.41786948151412
 42
-0.0284435909896766
 10
1599.1357888709731
 20
-804.51408691698816
 10
1599.1006307104751
 20
-804.52098051281655
 42
-0.0243909341011343
 10
1598.7871872495555
 20
-804.56670154384676
 10
1598.7369065227836
 20
-804.57154709074848
 42
-0.0196639292927495
 10
1598.521310945257
 20
-804.58379537626195
 10
1598.4694868740937
 20
-804.58469863699872
 42
-0.0100501510680679
 10
1598.3570635924293
 20
-804.58439823864558
 10
1598.3254037310965
 20
-804.58367716676059
 42
-0.0019752031085712
 10
1598.2763113944038
 20
-804.58236500655062
 10
1598.2735510911832
 20
-804.58228031472436
 42
0.0065378751952425
 10
1598.2299745164271
 20
-804.58151342350936
 42
-0.0167974694649811
 10
1598.1864436934961
 20
-804.57985352498338
 10
1598.1823643542332
 20
-804.57956051408837
 42
-0.0081283276273914
 10
1598.1308045564981
 20
-804.57501352045085
 10
1598.1190649826162
 20
-804.57378560287214
 42
-0.0126703440174748
 10
1598.0443466868237
 20
-804.56405081180094
 10
1598.0215588191459
 20
-804.56049255588539
 42
-0.0117852088447186
 10
1597.9020198333126
 20
-804.53892956072809
 10
1597.8466393815504
 20
-804.52758602049369
 42
-0.0251774592292556
 10
1597.6197953425424
 20
-804.46908801106065
 10
1597.5750761526917
 20
-804.45512119172554
 42
-0.0146525199892297
 10
1597.388683165153
 20
-804.3908546645273
 42
-0.0166929435862428
 10
1597.2067055090274
 20
-804.31504753147317
 10
1597.2020488777532
 20
-804.31292263085868
 42
-0.0191684358425942
 10
1597.0168652465047
 20
-804.21968654706916
 10
1597.0135326607469
 20
-804.21784529951537
 42
-0.0221181781804186
 10
1596.8302223568442
 20
-804.10571180114425
 10
1596.8278725528362
 20
-804.10412750315356
 42
-0.0254984685378127
 10
1596.651582402452
 20
-803.97171635318477
 10
1596.6291002547493
 20
-803.95296404424789
 42
-0.0292492648810376
 10
1596.504331315906
 20
-803.83587124460462
 42
-0.0159048957508526
 10
1596.3904913184588
 20
-803.70785125300881
 10
1596.3891725278768
 20
-803.70626963998552
 42
-0.0343813379571145
 10
1596.2865352662513
 20
-803.56439831421733
 10
1596.25504373489
 20
-803.51389492212263
 42
-0.0369117275702709
 10
1596.1691512329924
 20
-803.35041768117355
 42
-0.0191751379910901
 10
1596.1019578474363
 20
-803.17801307517038
 10
1596.1001945236758
 20
-803.17291973049271
 42
-0.0378178042222846
 10
1596.050399804891
 20
-802.9839789544086
 10
1596.0444045091615
 20
-802.95141833621597
 42
-0.0184846046473221
 10
1596.023687309867
 20
-802.80966551566951
 42
-0.0179866351324093
 10
1596.0133543047932
 20
-802.66677470258742
 10
1596.0132978623474
 20
-802.66521701597583
 42
-0.0085497186124101
 10
1596.0118655812437
 20
-802.59034385096595
 42
-0.0085497186124101
  0
ENDBLK
  5
60
100
AcDbEntity
  8
template
390
0
100
AcDbBlockEnd
  0
BLOCK
  5
61
100
AcDbEntity
  8
template
390
0
100
AcDbBlockBegin
  2
グループ-1
 70
               0
 10
0.0
 20
0.0
 30
0.0
  3
グループ-1
  1

  0
POLYLINE
  5
62
100
AcDbEntity
  8
0
370
              15
390
0
  6
Continuous
 62
               7
100
AcDb2dPolyline
 66
               1
 10
0.0
 20
0.0
 30
0.0
 70
               1
 75
               5
  0
VERTEX
  5
63
100
AcDbEntity
  8
0
370
              15
390
0
  6
Continuous
 62
               7
100
AcDbVertex
100
AcDb2dVertex
 10
1365.2851690359305
 20
428.49901617788032
 30
0.0
  0
VERTEX
  5
64
100
AcDbEntity
  8
0
370
              15
390
0
  6
Continuous
 62
               7
100
AcDbVertex
100
AcDb2dVertex
 10
1415.3075194664807
 20
428.49901617788032
 30
0.0
  0
VERTEX
  5
65
100
AcDbEntity
  8
0
370
              15
390
0
  6
Continuous
 62
               7
100
AcDbVertex
100
AcDb2dVertex
 10
1415.3075194664807
 20
353.41319499456932
 30
0.0
  0
VERTEX
  5
66
100
AcDbEntity
  8
0
370
              15
390
0
  6
Continuous
 62
               7
100
AcDbVertex
100
AcDb2dVertex
 10
1365.2851690359305
 20
353.41319499456932
 30
0.0
  0
SEQEND
  5
67
100
AcDbEntity
  8
0
370
              15
390
0
  6
Continuous
 62
               7
  0
LINE
  5
68
100
AcDbEntity
  8
0
370
              15
390
0
  6
Continuous
 62
               7
100
AcDbLine
 10
1378.003829690992
 20
353.41319499456932
 30
0.0
 11
1378.003829690992
 21
428.49901617788032
 31
0.0
  0
ENDBLK
  5
69
100
AcDbEntity
  8
template
390
0
100
AcDbBlockEnd
  0
BLOCK
  5
6A
100
AcDbEntity
  8
template
390
0
100
AcDbBlockBegin
  2
グループ-2
 70
               0
 10
0.0
 20
0.0
 30
0.0
  3
グループ-2
  1

  0
POLYLINE
  5
6B
100
AcDbEntity
  8
0
370
              15
390
0
  6
Continuous
 62
               7
100
AcDb2dPolyline
 66
               1
 10
0.0
 20
0.0
 30
0.0
 70
               1
 75
               5
  0
VERTEX
  5
6C
100
AcDbEntity
  8
0
370
              15
390
0
  6
Continuous
 62
               7
100
AcDbVertex
100
AcDb2dVertex
 10
1365.2851690359305
 20
1620.5848373611914
 30
0.0
  0
VERTEX
  5
6D
100
AcDbEntity
  8
0
370
              15
390
0
  6
Continuous
 62
               7
100
AcDbVertex
100
AcDb2dVertex
 10
1415.3075194664807
 20
1620.5848373611914
 30
0.0
  0
VERTEX
  5
6E
100
AcDbEntity
  8
0
370
              15
390
0
  6
Continuous
 62
               7
100
AcDbVertex
100
AcDb2dVertex
 10
1415.3075194664807
 20
1545.4990161778803
 30
0.0
  0
VERTEX
  5
6F
100
AcDbEntity
  8
0
370
              15
390
0
  6
Continuous
 62
               7
100
AcDbVertex
100
AcDb2dVertex
 10
1365.2851690359305
 20
1545.4990161778803
 30
0.0
  0
SEQEND
  5
70
100
AcDbEntity
  8
0
370
              15
390
0
  6
Continuous
 62
               7
  0
LINE
  5
71
100
AcDbEntity
  8
0
370
              15
390
0
  6
Continuous
 62
               7
100
AcDbLine
 10
1378.003829690992
 20
1545.4990161778803
 30
0.0
 11
1378.003829690992
 21
1620.5848373611914
 31
0.0
  0
ENDBLK
  5
72
100
AcDbEntity
  8
template
390
0
100
AcDbBlockEnd
  0
BLOCK
  5
73
100
AcDbEntity
  8
template
390
0
100
AcDbBlockBegin
  2
*D5
 70
               1
 10
0.0
 20
0.0
 30
0.0
  3
*D5
  1

  0
LINE
  5
74
100
AcDbEntity
  8
0
370
              -2
390
0
  6
Continuous
 62
               0
100
AcDbLine
 10
670.37029184284665
 20
1018.5461298993237
 30
0.0
 11
670.37029184284665
 21
1024.4179105916555
 31
0.0
  0
LINE
  5
75
100
AcDbEntity
  8
0
370
              -2
390
0
  6
Continuous
 62
               0
100
AcDbLine
 10
537.37029184284665
 20
1018.5461298993237
 30
0.0
 11
537.37029184284665
 21
1024.4179105916555
 31
0.0
  0
LINE
  5
76
100
AcDbEntity
  8
0
370
              -2
390
0
  6
Continuous
 62
               0
100
AcDbLine
 10
537.37029184284665
 20
1024.4179105916555
 30
0.0
 11
344.49529184284665
 21
1024.4179105916555
 31
0.0
  0
LINE
  5
77
100
AcDbEntity
  8
0
370
              -2
390
0
  6
Continuous
 62
               0
100
AcDbLine
 10
670.37029184284665
 20
1024.4179105916555
 30
0.0
 11
537.37029184284665
 21
1024.4179105916555
 31
0.0
  0
CIRCLE
  5
78
102
{ACAD_REACTORS
330
79
102
}
100
AcDbEntity
  8
0
370
              -2
390
0
  6
Continuous
 62
               0
100
AcDbCircle
 10
670.37029184284665
 20
1024.4179105916555
 30
0.0
 40
4.99969482421875
  0
HATCH
  5
79
100
AcDbEntity
  8
0
370
              -2
390
0
  6
Continuous
 62
               0
100
AcDbHatch
 10
0.0
 20
0.0
 30
0.0
210
0.0
220
0.0
230
1.0
  2
SOLID
 70
               1
 71
               1
 91
        1
 92
        1
 93
        1
 72
               2
 10
670.37029184284665
 20
1024.4179105916555
 40
4.99969482421875
 50
0.0
 51
360.0
 73
               0
 97
        1
330
78
 75
               0
 76
               1
 98
        1
 10
0.0
 20
0.0
  0
CIRCLE
  5
7A
102
{ACAD_REACTORS
330
7B
102
}
100
AcDbEntity
  8
0
370
              -2
390
0
  6
Continuous
 62
               0
100
AcDbCircle
 10
537.37029184284665
 20
1024.4179105916555
 30
0.0
 40
4.99969482421875
  0
HATCH
  5
7B
100
AcDbEntity
  8
0
370
              -2
390
0
  6
Continuous
 62
               0
100
AcDbHatch
 10
0.0
 20
0.0
 30
0.0
210
0.0
220
0.0
230
1.0
  2
SOLID
 70
               1
 71
               1
 91
        1
 92
        1
 93
        1
 72
               2
 10
537.37029184284665
 20
1024.4179105916555
 40
4.99969482421875
 50
0.0
 51
360.0
 73
               0
 97
        1
330
7A
 75
               0
 76
               1
 98
        1
 10
0.0
 20
0.0
  0
MTEXT
  5
7C
100
AcDbEntity
  8
0
390
0
 62
               0
100
AcDbMText
 10
344.49529184284665
 20
1058.2955277791555
 30
0.0
 40
24.432617187500004
 41
0.0
 71
               1
 72
               1
  1
133(深さ)
  7
ＭＳ ゴシック
 73
               1
 44
0.7828267384257843
  0
POINT
  5
7D
100
AcDbEntity
  8
Defpoints
370
               0
390
0
 62
               0
100
AcDbPoint
 10
537.37029184284665
 20
993.54612989932366
 30
0.0
  0
POINT
  5
7E
100
AcDbEntity
  8
Defpoints
370
               0
390
0
 62
               0
100
AcDbPoint
 10
670.37029184284665
 20
993.54612989932366
 30
0.0
  0
POINT
  5
7F
100
AcDbEntity
  8
Defpoints
370
               0
390
0
 62
               0
100
AcDbPoint
 10
670.37029184284665
 20
1024.4179105916555
 30
0.0
  0
ENDBLK
  5
80
100
AcDbEntity
  8
template
390
0
100
AcDbBlockEnd
  0
BLOCK
  5
81
100
AcDbEntity
  8
notes
390
0
100
AcDbBlockBegin
  2
*D6
 70
               1
 10
0.0
 20
0.0
 30
0.0
  3
*D6
  1

  0
LINE
  5
82
100
AcDbEntity
  8
0
370
              -2
390
0
  6
Continuous
 62
               0
100
AcDbLine
 10
-150.25768433235658
 20
333.05710208243886
 30
0.0
 11
-70.257684332356575
 21
333.05710208243886
 31
0.0
  0
LINE
  5
83
100
AcDbEntity
  8
0
370
              -2
390
0
  6
Continuous
 62
               0
100
AcDbLine
 10
-145.25768433235658
 20
83.035090789531523
 30
0.0
 11
-70.257684332356575
 21
83.035090789531523
 31
0.0
  0
LINE
  5
84
100
AcDbEntity
  8
0
370
              -2
390
0
  6
Continuous
 62
               0
100
AcDbLine
 10
-70.257684332356575
 20
333.05710208243886
 30
0.0
 11
-70.257684332356575
 21
83.035090789531523
 31
0.0
  0
CIRCLE
  5
85
102
{ACAD_REACTORS
330
86
102
}
100
AcDbEntity
  8
0
370
              -2
390
0
  6
Continuous
 62
               0
100
AcDbCircle
 10
-70.257684332356575
 20
333.05710208243886
 30
0.0
 40
4.99969482421875
  0
HATCH
  5
86
100
AcDbEntity
  8
0
370
              -2
390
0
  6
Continuous
 62
               0
100
AcDbHatch
 10
0.0
 20
0.0
 30
0.0
210
0.0
220
0.0
230
1.0
  2
SOLID
 70
               1
 71
               1
 91
        1
 92
        1
 93
        1
 72
               2
 10
-70.257684332356575
 20
333.05710208243886
 40
4.99969482421875
 50
0.0
 51
360.0
 73
               0
 97
        1
330
85
 75
               0
 76
               1
 98
        1
 10
0.0
 20
0.0
  0
CIRCLE
  5
87
102
{ACAD_REACTORS
330
88
102
}
100
AcDbEntity
  8
0
370
              -2
390
0
  6
Continuous
 62
               0
100
AcDbCircle
 10
-70.257684332356575
 20
83.035090789531523
 30
0.0
 40
4.99969482421875
  0
HATCH
  5
88
100
AcDbEntity
  8
0
370
              -2
390
0
  6
Continuous
 62
               0
100
AcDbHatch
 10
0.0
 20
0.0
 30
0.0
210
0.0
220
0.0
230
1.0
  2
SOLID
 70
               1
 71
               1
 91
        1
 92
        1
 93
        1
 72
               2
 10
-70.257684332356575
 20
83.035090789531523
 40
4.99969482421875
 50
0.0
 51
360.0
 73
               0
 97
        1
330
87
 75
               0
 76
               1
 98
        1
 10
0.0
 20
0.0
  0
MTEXT
  5
89
100
AcDbEntity
  8
0
390
0
 62
               0
100
AcDbMText
 10
-104.13530151985663
 20
184.23359475380971
 30
0.0
 40
24.432617187500004
 41
0.0
 71
               1
 72
               1
  1
250
  7
ＭＳ ゴシック
 11
0.0
 21
1.0
 31
0.0
 73
               1
 44
0.7828267384257843
  0
POINT
  5
8A
100
AcDbEntity
  8
Defpoints
370
               0
390
0
 62
               0
100
AcDbPoint
 10
-170.25768433235658
 20
83.035090789531523
 30
0.0
  0
POINT
  5
8B
100
AcDbEntity
  8
Defpoints
370
               0
390
0
 62
               0
100
AcDbPoint
 10
-175.25768433235658
 20
333.05710208243886
 30
0.0
  0
POINT
  5
8C
100
AcDbEntity
  8
Defpoints
370
               0
390
0
 62
               0
100
AcDbPoint
 10
-70.257684332356575
 20
333.05710208243886
 30
0.0
  0
ENDBLK
  5
8D
100
AcDbEntity
  8
notes
390
0
100
AcDbBlockEnd
  0
BLOCK
  5
8E
100
AcDbEntity
  8
notes
390
0
100
AcDbBlockBegin
  2
*D7
 70
               1
 10
0.0
 20
0.0
 30
0.0
  3
*D7
  1

  0
LINE
  5
8F
100
AcDbEntity
  8
0
370
              -2
390
0
  6
Continuous
 62
               0
100
AcDbLine
 10
-145.25768433235658
 20
83.035090789531523
 30
0.0
 11
-70.257684332356575
 21
83.035090789531523
 31
0.0
  0
LINE
  5
90
100
AcDbEntity
  8
0
370
              -2
390
0
  6
Continuous
 62
               0
100
AcDbLine
 10
-145.25768433235658
 20
-416.96490921046848
 30
0.0
 11
-70.257684332356575
 21
-416.96490921046848
 31
0.0
  0
LINE
  5
91
100
AcDbEntity
  8
0
370
              -2
390
0
  6
Continuous
 62
               0
100
AcDbLine
 10
-70.257684332356575
 20
83.035090789531523
 30
0.0
 11
-70.257684332356575
 21
-416.96490921046848
 31
0.0
  0
CIRCLE
  5
92
102
{ACAD_REACTORS
330
93
102
}
100
AcDbEntity
  8
0
370
              -2
390
0
  6
Continuous
 62
               0
100
AcDbCircle
 10
-70.257684332356575
 20
83.035090789531523
 30
0.0
 40
4.99969482421875
  0
HATCH
  5
93
100
AcDbEntity
  8
0
370
              -2
390
0
  6
Continuous
 62
               0
100
AcDbHatch
 10
0.0
 20
0.0
 30
0.0
210
0.0
220
0.0
230
1.0
  2
SOLID
 70
               1
 71
               1
 91
        1
 92
        1
 93
        1
 72
               2
 10
-70.257684332356575
 20
83.035090789531523
 40
4.99969482421875
 50
0.0
 51
360.0
 73
               0
 97
        1
330
92
 75
               0
 76
               1
 98
        1
 10
0.0
 20
0.0
  0
CIRCLE
  5
94
102
{ACAD_REACTORS
330
95
102
}
100
AcDbEntity
  8
0
370
              -2
390
0
  6
Continuous
 62
               0
100
AcDbCircle
 10
-70.257684332356575
 20
-416.96490921046848
 30
0.0
 40
4.99969482421875
  0
HATCH
  5
95
100
AcDbEntity
  8
0
370
              -2
390
0
  6
Continuous
 62
               0
100
AcDbHatch
 10
0.0
 20
0.0
 30
0.0
210
0.0
220
0.0
230
1.0
  2
SOLID
 70
               1
 71
               1
 91
        1
 92
        1
 93
        1
 72
               2
 10
-70.257684332356575
 20
-416.96490921046848
 40
4.99969482421875
 50
0.0
 51
360.0
 73
               0
 97
        1
330
94
 75
               0
 76
               1
 98
        1
 10
0.0
 20
0.0
  0
MTEXT
  5
96
100
AcDbEntity
  8
0
390
0
 62
               0
100
AcDbMText
 10
-104.13530151985663
 20
-190.77741089264401
 30
0.0
 40
24.432617187500004
 41
0.0
 71
               1
 72
               1
  1
500
  7
ＭＳ ゴシック
 11
0.0
 21
1.0
 31
0.0
 73
               1
 44
0.7828267384257843
  0
POINT
  5
97
100
AcDbEntity
  8
Defpoints
370
               0
390
0
 62
               0
100
AcDbPoint
 10
-170.25768433235658
 20
-416.96490921046848
 30
0.0
  0
POINT
  5
98
100
AcDbEntity
  8
Defpoints
370
               0
390
0
 62
               0
100
AcDbPoint
 10
-170.25768433235658
 20
83.035090789531523
 30
0.0
  0
POINT
  5
99
100
AcDbEntity
  8
Defpoints
370
               0
390
0
 62
               0
100
AcDbPoint
 10
-70.257684332356575
 20
83.035090789531523
 30
0.0
  0
ENDBLK
  5
9A
100
AcDbEntity
  8
notes
390
0
100
AcDbBlockEnd
  0
BLOCK
  5
9B
100
AcDbEntity
  8
notes
390
0
100
AcDbBlockBegin
  2
*D8
 70
               1
 10
0.0
 20
0.0
 30
0.0
  3
*D8
  1

  0
LINE
  5
9C
100
AcDbEntity
  8
0
370
              -2
390
0
  6
Continuous
 62
               0
100
AcDbLine
 10
515.86315932297498
 20
1199.2373837361988
 30
0.0
 11
437.36315932297498
 21
1199.2373837361988
 31
0.0
  0
LINE
  5
9D
100
AcDbEntity
  8
0
370
              -2
390
0
  6
Continuous
 62
               0
100
AcDbLine
 10
512.36315932297498
 20
1149.2373837361981
 30
0.0
 11
437.36315932297498
 21
1149.2373837361981
 31
0.0
  0
LINE
  5
9E
100
AcDbEntity
  8
0
370
              -2
390
0
  6
Continuous
 62
               0
100
AcDbLine
 10
437.36315932297498
 20
1199.2373837361988
 30
0.0
 11
437.36315932297498
 21
1149.2373837361981
 31
0.0
  0
CIRCLE
  5
9F
102
{ACAD_REACTORS
330
A0
102
}
100
AcDbEntity
  8
0
370
              -2
390
0
  6
Continuous
 62
               0
100
AcDbCircle
 10
437.36315932297498
 20
1199.2373837361988
 30
0.0
 40
4.99969482421875
  0
HATCH
  5
A0
100
AcDbEntity
  8
0
370
              -2
390
0
  6
Continuous
 62
               0
100
AcDbHatch
 10
0.0
 20
0.0
 30
0.0
210
0.0
220
0.0
230
1.0
  2
SOLID
 70
               1
 71
               1
 91
        1
 92
        1
 93
        1
 72
               2
 10
437.36315932297498
 20
1199.2373837361988
 40
4.99969482421875
 50
0.0
 51
360.0
 73
               0
 97
        1
330
9F
 75
               0
 76
               1
 98
        1
 10
0.0
 20
0.0
  0
CIRCLE
  5
A1
102
{ACAD_REACTORS
330
A2
102
}
100
AcDbEntity
  8
0
370
              -2
390
0
  6
Continuous
 62
               0
100
AcDbCircle
 10
437.36315932297498
 20
1149.2373837361981
 30
0.0
 40
4.99969482421875
  0
HATCH
  5
A2
100
AcDbEntity
  8
0
370
              -2
390
0
  6
Continuous
 62
               0
100
AcDbHatch
 10
0.0
 20
0.0
 30
0.0
210
0.0
220
0.0
230
1.0
  2
SOLID
 70
               1
 71
               1
 91
        1
 92
        1
 93
        1
 72
               2
 10
437.36315932297498
 20
1149.2373837361981
 40
4.99969482421875
 50
0.0
 51
360.0
 73
               0
 97
        1
330
A1
 75
               0
 76
               1
 98
        1
 10
0.0
 20
0.0
  0
MTEXT
  5
A3
100
AcDbEntity
  8
0
390
0
 62
               0
100
AcDbMText
 10
403.48554213547504
 20
1158.3623837361986
 30
0.0
 40
24.432617187500004
 41
0.0
 71
               1
 72
               1
  1
50
  7
ＭＳ ゴシック
 11
0.0
 21
1.0
 31
0.0
 73
               1
 44
0.7828267384257843
  0
POINT
  5
A4
100
AcDbEntity
  8
Defpoints
370
               0
390
0
 62
               0
100
AcDbPoint
 10
537.36315932297498
 20
1149.2373837361981
 30
0.0
  0
POINT
  5
A5
100
AcDbEntity
  8
Defpoints
370
               0
390
0
 62
               0
100
AcDbPoint
 10
540.86315932297498
 20
1199.2373837361988
 30
0.0
  0
POINT
  5
A6
100
AcDbEntity
  8
Defpoints
370
               0
390
0
 62
               0
100
AcDbPoint
 10
437.36315932297498
 20
1199.2373837361988
 30
0.0
  0
ENDBLK
  5
A7
100
AcDbEntity
  8
notes
390
0
100
AcDbBlockEnd
  0
BLOCK
  5
A8
100
AcDbEntity
  8
notes
390
0
100
AcDbBlockBegin
  2
*D9
 70
               1
 10
0.0
 20
0.0
 30
0.0
  3
*D9
  1

  0
LINE
  5
A9
100
AcDbEntity
  8
0
370
              -2
390
0
  6
Continuous
 62
               0
100
AcDbLine
 10
517.33654271378487
 20
290.55710208243886
 30
0.0
 11
387.36315932297498
 21
290.55710208243886
 31
0.0
  0
LINE
  5
AA
100
AcDbEntity
  8
0
370
              -2
390
0
  6
Continuous
 62
               0
100
AcDbLine
 10
517.33654271378487
 20
333.05710208243886
 30
0.0
 11
387.36315932297498
 21
333.05710208243886
 31
0.0
  0
LINE
  5
AB
100
AcDbEntity
  8
0
370
              -2
390
0
  6
Continuous
 62
               0
100
AcDbLine
 10
387.36315932297498
 20
290.55710208243886
 30
0.0
 11
387.36315932297498
 21
333.05710208243886
 31
0.0
  0
CIRCLE
  5
AC
102
{ACAD_REACTORS
330
AD
102
}
100
AcDbEntity
  8
0
370
              -2
390
0
  6
Continuous
 62
               0
100
AcDbCircle
 10
387.36315932297498
 20
290.55710208243886
 30
0.0
 40
4.99969482421875
  0
HATCH
  5
AD
100
AcDbEntity
  8
0
370
              -2
390
0
  6
Continuous
 62
               0
100
AcDbHatch
 10
0.0
 20
0.0
 30
0.0
210
0.0
220
0.0
230
1.0
  2
SOLID
 70
               1
 71
               1
 91
        1
 92
        1
 93
        1
 72
               2
 10
387.36315932297498
 20
290.55710208243886
 40
4.99969482421875
 50
0.0
 51
360.0
 73
               0
 97
        1
330
AC
 75
               0
 76
               1
 98
        1
 10
0.0
 20
0.0
  0
CIRCLE
  5
AE
102
{ACAD_REACTORS
330
AF
102
}
100
AcDbEntity
  8
0
370
              -2
390
0
  6
Continuous
 62
               0
100
AcDbCircle
 10
387.36315932297498
 20
333.05710208243886
 30
0.0
 40
4.99969482421875
  0
HATCH
  5
AF
100
AcDbEntity
  8
0
370
              -2
390
0
  6
Continuous
 62
               0
100
AcDbHatch
 10
0.0
 20
0.0
 30
0.0
210
0.0
220
0.0
230
1.0
  2
SOLID
 70
               1
 71
               1
 91
        1
 92
        1
 93
        1
 72
               2
 10
387.36315932297498
 20
333.05710208243886
 40
4.99969482421875
 50
0.0
 51
360.0
 73
               0
 97
        1
330
AE
 75
               0
 76
               1
 98
        1
 10
0.0
 20
0.0
  0
MTEXT
  5
B0
100
AcDbEntity
  8
0
390
0
 62
               0
100
AcDbMText
 10
353.48554213547504
 20
280.05710208243886
 30
0.0
 40
24.432617187500004
 41
0.0
 71
               1
 72
               1
  1
42.5
  7
ＭＳ ゴシック
 11
0.0
 21
1.0
 31
0.0
 73
               1
 44
0.7828267384257843
  0
POINT
  5
B1
100
AcDbEntity
  8
Defpoints
370
               0
390
0
 62
               0
100
AcDbPoint
 10
542.33654271378487
 20
333.05710208243886
 30
0.0
  0
POINT
  5
B2
100
AcDbEntity
  8
Defpoints
370
               0
390
0
 62
               0
100
AcDbPoint
 10
542.33654271378487
 20
290.55710208243886
 30
0.0
  0
POINT
  5
B3
100
AcDbEntity
  8
Defpoints
370
               0
390
0
 62
               0
100
AcDbPoint
 10
387.36315932297498
 20
290.55710208243886
 30
0.0
  0
ENDBLK
  5
B4
100
AcDbEntity
  8
notes
390
0
100
AcDbBlockEnd
  0
BLOCK
  5
B5
100
AcDbEntity
  8
notes
390
0
100
AcDbBlockBegin
  2
*D10
 70
               1
 10
0.0
 20
0.0
 30
0.0
  3
*D10
  1

  0
LINE
  5
B6
100
AcDbEntity
  8
0
370
              -2
390
0
  6
Continuous
 62
               0
100
AcDbLine
 10
517.33654271378487
 20
290.55710208243886
 30
0.0
 11
387.36315932297498
 21
290.55710208243886
 31
0.0
  0
LINE
  5
B7
100
AcDbEntity
  8
0
370
              -2
390
0
  6
Continuous
 62
               0
100
AcDbLine
 10
517.33654271378487
 20
-624.44289791756114
 30
0.0
 11
387.36315932297498
 21
-624.44289791756114
 31
0.0
  0
LINE
  5
B8
100
AcDbEntity
  8
0
370
              -2
390
0
  6
Continuous
 62
               0
100
AcDbLine
 10
387.36315932297498
 20
290.55710208243886
 30
0.0
 11
387.36315932297498
 21
-624.44289791756114
 31
0.0
  0
CIRCLE
  5
B9
102
{ACAD_REACTORS
330
BA
102
}
100
AcDbEntity
  8
0
370
              -2
390
0
  6
Continuous
 62
               0
100
AcDbCircle
 10
387.36315932297498
 20
290.55710208243886
 30
0.0
 40
4.99969482421875
  0
HATCH
  5
BA
100
AcDbEntity
  8
0
370
              -2
390
0
  6
Continuous
 62
               0
100
AcDbHatch
 10
0.0
 20
0.0
 30
0.0
210
0.0
220
0.0
230
1.0
  2
SOLID
 70
               1
 71
               1
 91
        1
 92
        1
 93
        1
 72
               2
 10
387.36315932297498
 20
290.55710208243886
 40
4.99969482421875
 50
0.0
 51
360.0
 73
               0
 97
        1
330
B9
 75
               0
 76
               1
 98
        1
 10
0.0
 20
0.0
  0
CIRCLE
  5
BB
102
{ACAD_REACTORS
330
BC
102
}
100
AcDbEntity
  8
0
370
              -2
390
0
  6
Continuous
 62
               0
100
AcDbCircle
 10
387.36315932297498
 20
-624.44289791756114
 30
0.0
 40
4.99969482421875
  0
HATCH
  5
BC
100
AcDbEntity
  8
0
370
              -2
390
0
  6
Continuous
 62
               0
100
AcDbHatch
 10
0.0
 20
0.0
 30
0.0
210
0.0
220
0.0
230
1.0
  2
SOLID
 70
               1
 71
               1
 91
        1
 92
        1
 93
        1
 72
               2
 10
387.36315932297498
 20
-624.44289791756114
 40
4.99969482421875
 50
0.0
 51
360.0
 73
               0
 97
        1
330
BB
 75
               0
 76
               1
 98
        1
 10
0.0
 20
0.0
  0
MTEXT
  5
BD
100
AcDbEntity
  8
0
390
0
 62
               0
100
AcDbMText
 10
353.48554213547504
 20
-190.75539959973668
 30
0.0
 40
24.432617187500004
 41
0.0
 71
               1
 72
               1
  1
915
  7
ＭＳ ゴシック
 11
0.0
 21
1.0
 31
0.0
 73
               1
 44
0.7828267384257843
  0
POINT
  5
BE
100
AcDbEntity
  8
Defpoints
370
               0
390
0
 62
               0
100
AcDbPoint
 10
542.33654271378487
 20
-624.44289791756114
 30
0.0
  0
POINT
  5
BF
100
AcDbEntity
  8
Defpoints
370
               0
390
0
 62
               0
100
AcDbPoint
 10
542.33654271378487
 20
290.55710208243886
 30
0.0
  0
POINT
  5
C0
100
AcDbEntity
  8
Defpoints
370
               0
390
0
 62
               0
100
AcDbPoint
 10
387.36315932297498
 20
290.55710208243886
 30
0.0
  0
ENDBLK
  5
C1
100
AcDbEntity
  8
notes
390
0
100
AcDbBlockEnd
  0
BLOCK
  5
C2
100
AcDbEntity
  8
notes
390
0
100
AcDbBlockBegin
  2
*D11
 70
               1
 10
0.0
 20
0.0
 30
0.0
  3
*D11
  1

  0
LINE
  5
C3
100
AcDbEntity
  8
0
370
              -2
390
0
  6
Continuous
 62
               0
100
AcDbLine
 10
554.86315932297498
 20
-26.942897917560913
 30
0.0
 11
437.36315932297498
 21
-26.942897917560913
 31
0.0
  0
LINE
  5
C4
100
AcDbEntity
  8
0
370
              -2
390
0
  6
Continuous
 62
               0
100
AcDbLine
 10
554.86315932297498
 20
-306.94289791756103
 30
0.0
 11
437.36315932297498
 21
-306.94289791756103
 31
0.0
  0
LINE
  5
C5
100
AcDbEntity
  8
0
370
              -2
390
0
  6
Continuous
 62
               0
100
AcDbLine
 10
437.36315932297498
 20
-26.942897917560913
 30
0.0
 11
437.36315932297498
 21
-306.94289791756103
 31
0.0
  0
CIRCLE
  5
C6
102
{ACAD_REACTORS
330
C7
102
}
100
AcDbEntity
  8
0
370
              -2
390
0
  6
Continuous
 62
               0
100
AcDbCircle
 10
437.36315932297498
 20
-26.942897917560913
 30
0.0
 40
4.99969482421875
  0
HATCH
  5
C7
100
AcDbEntity
  8
0
370
              -2
390
0
  6
Continuous
 62
               0
100
AcDbHatch
 10
0.0
 20
0.0
 30
0.0
210
0.0
220
0.0
230
1.0
  2
SOLID
 70
               1
 71
               1
 91
        1
 92
        1
 93
        1
 72
               2
 10
437.36315932297498
 20
-26.942897917560913
 40
4.99969482421875
 50
0.0
 51
360.0
 73
               0
 97
        1
330
C6
 75
               0
 76
               1
 98
        1
 10
0.0
 20
0.0
  0
CIRCLE
  5
C8
102
{ACAD_REACTORS
330
C9
102
}
100
AcDbEntity
  8
0
370
              -2
390
0
  6
Continuous
 62
               0
100
AcDbCircle
 10
437.36315932297498
 20
-306.94289791756103
 30
0.0
 40
4.99969482421875
  0
HATCH
  5
C9
100
AcDbEntity
  8
0
370
              -2
390
0
  6
Continuous
 62
               0
100
AcDbHatch
 10
0.0
 20
0.0
 30
0.0
210
0.0
220
0.0
230
1.0
  2
SOLID
 70
               1
 71
               1
 91
        1
 92
        1
 93
        1
 72
               2
 10
437.36315932297498
 20
-306.94289791756103
 40
4.99969482421875
 50
0.0
 51
360.0
 73
               0
 97
        1
330
C8
 75
               0
 76
               1
 98
        1
 10
0.0
 20
0.0
  0
MTEXT
  5
CA
100
AcDbEntity
  8
0
390
0
 62
               0
100
AcDbMText
 10
403.48554213547504
 20
-190.75539959973651
 30
0.0
 40
24.432617187500004
 41
0.0
 71
               1
 72
               1
  1
280
  7
ＭＳ ゴシック
 11
0.0
 21
1.0
 31
0.0
 73
               1
 44
0.7828267384257843
  0
POINT
  5
CB
100
AcDbEntity
  8
Defpoints
370
               0
390
0
 62
               0
100
AcDbPoint
 10
579.86315932297498
 20
-306.94289791756103
 30
0.0
  0
POINT
  5
CC
100
AcDbEntity
  8
Defpoints
370
               0
390
0
 62
               0
100
AcDbPoint
 10
579.86315932297498
 20
-26.942897917560913
 30
0.0
  0
POINT
  5
CD
100
AcDbEntity
  8
Defpoints
370
               0
390
0
 62
               0
100
AcDbPoint
 10
437.36315932297498
 20
-26.942897917560913
 30
0.0
  0
ENDBLK
  5
CE
100
AcDbEntity
  8
notes
390
0
100
AcDbBlockEnd
  0
BLOCK
  5
CF
100
AcDbEntity
  8
notes
390
0
100
AcDbBlockBegin
  2
*D12
 70
               1
 10
0.0
 20
0.0
 30
0.0
  3
*D12
  1

  0
LINE
  5
D0
100
AcDbEntity
  8
0
370
              -2
390
0
  6
Continuous
 62
               0
100
AcDbLine
 10
599.86315932297498
 20
18.057102082438973
 30
0.0
 11
599.86315932297498
 21
46.535090789531523
 31
0.0
  0
LINE
  5
D1
100
AcDbEntity
  8
0
370
              -2
390
0
  6
Continuous
 62
               0
100
AcDbLine
 10
537.36315932297498
 20
18.057102082438973
 30
0.0
 11
537.36315932297498
 21
46.535090789531523
 31
0.0
  0
LINE
  5
D2
100
AcDbEntity
  8
0
370
              -2
390
0
  6
Continuous
 62
               0
100
AcDbLine
 10
537.36315932297498
 20
46.535090789531523
 30
0.0
 11
464.52117548652245
 21
46.535090789531523
 31
0.0
  0
LINE
  5
D3
100
AcDbEntity
  8
0
370
              -2
390
0
  6
Continuous
 62
               0
100
AcDbLine
 10
599.86315932297498
 20
46.535090789531523
 30
0.0
 11
537.36315932297498
 21
46.535090789531523
 31
0.0
  0
CIRCLE
  5
D4
102
{ACAD_REACTORS
330
D5
102
}
100
AcDbEntity
  8
0
370
              -2
390
0
  6
Continuous
 62
               0
100
AcDbCircle
 10
599.86315932297498
 20
46.535090789531523
 30
0.0
 40
4.99969482421875
  0
HATCH
  5
D5
100
AcDbEntity
  8
0
370
              -2
390
0
  6
Continuous
 62
               0
100
AcDbHatch
 10
0.0
 20
0.0
 30
0.0
210
0.0
220
0.0
230
1.0
  2
SOLID
 70
               1
 71
               1
 91
        1
 92
        1
 93
        1
 72
               2
 10
599.86315932297498
 20
46.535090789531523
 40
4.99969482421875
 50
0.0
 51
360.0
 73
               0
 97
        1
330
D4
 75
               0
 76
               1
 98
        1
 10
0.0
 20
0.0
  0
CIRCLE
  5
D6
102
{ACAD_REACTORS
330
D7
102
}
100
AcDbEntity
  8
0
370
              -2
390
0
  6
Continuous
 62
               0
100
AcDbCircle
 10
537.36315932297498
 20
46.535090789531523
 30
0.0
 40
4.99969482421875
  0
HATCH
  5
D7
100
AcDbEntity
  8
0
370
              -2
390
0
  6
Continuous
 62
               0
100
AcDbHatch
 10
0.0
 20
0.0
 30
0.0
210
0.0
220
0.0
230
1.0
  2
SOLID
 70
               1
 71
               1
 91
        1
 92
        1
 93
        1
 72
               2
 10
537.36315932297498
 20
46.535090789531523
 40
4.99969482421875
 50
0.0
 51
360.0
 73
               0
 97
        1
330
D6
 75
               0
 76
               1
 98
        1
 10
0.0
 20
0.0
  0
MTEXT
  5
D8
100
AcDbEntity
  8
0
390
0
 62
               0
100
AcDbMText
 10
464.52117548652245
 20
80.412707977031573
 30
0.0
 40
24.432617187500004
 41
0.0
 71
               1
 72
               1
  1
62.5
  7
ＭＳ ゴシック
 73
               1
 44
0.7828267384257843
  0
POINT
  5
D9
100
AcDbEntity
  8
Defpoints
370
               0
390
0
 62
               0
100
AcDbPoint
 10
537.36315932297498
 20
-6.9428979175610266
 30
0.0
  0
POINT
  5
DA
100
AcDbEntity
  8
Defpoints
370
               0
390
0
 62
               0
100
AcDbPoint
 10
599.86315932297498
 20
-6.9428979175610266
 30
0.0
  0
POINT
  5
DB
100
AcDbEntity
  8
Defpoints
370
               0
390
0
 62
               0
100
AcDbPoint
 10
599.86315932297498
 20
46.535090789531523
 30
0.0
  0
ENDBLK
  5
DC
100
AcDbEntity
  8
notes
390
0
100
AcDbBlockEnd
  0
BLOCK
  5
DD
100
AcDbEntity
  8
notes
390
0
100
AcDbBlockBegin
  2
*D13
 70
               1
 10
0.0
 20
0.0
 30
0.0
  3
*D13
  1

  0
LINE
  5
DE
100
AcDbEntity
  8
0
370
              -2
390
0
  6
Continuous
 62
               0
100
AcDbLine
 10
564.86315932297498
 20
-26.942897917561027
 30
0.0
 11
437.36315932297498
 21
-26.942897917561027
 31
0.0
  0
LINE
  5
DF
100
AcDbEntity
  8
0
370
              -2
390
0
  6
Continuous
 62
               0
100
AcDbLine
 10
515.86315932297498
 20
333.05710208243886
 30
0.0
 11
437.36315932297498
 21
333.05710208243886
 31
0.0
  0
LINE
  5
E0
100
AcDbEntity
  8
0
370
              -2
390
0
  6
Continuous
 62
               0
100
AcDbLine
 10
437.36315932297498
 20
-26.942897917561027
 30
0.0
 11
437.36315932297498
 21
333.05710208243886
 31
0.0
  0
CIRCLE
  5
E1
102
{ACAD_REACTORS
330
E2
102
}
100
AcDbEntity
  8
0
370
              -2
390
0
  6
Continuous
 62
               0
100
AcDbCircle
 10
437.36315932297498
 20
-26.942897917561027
 30
0.0
 40
4.99969482421875
  0
HATCH
  5
E2
100
AcDbEntity
  8
0
370
              -2
390
0
  6
Continuous
 62
               0
100
AcDbHatch
 10
0.0
 20
0.0
 30
0.0
210
0.0
220
0.0
230
1.0
  2
SOLID
 70
               1
 71
               1
 91
        1
 92
        1
 93
        1
 72
               2
 10
437.36315932297498
 20
-26.942897917561027
 40
4.99969482421875
 50
0.0
 51
360.0
 73
               0
 97
        1
330
E1
 75
               0
 76
               1
 98
        1
 10
0.0
 20
0.0
  0
CIRCLE
  5
E3
102
{ACAD_REACTORS
330
E4
102
}
100
AcDbEntity
  8
0
370
              -2
390
0
  6
Continuous
 62
               0
100
AcDbCircle
 10
437.36315932297498
 20
333.05710208243886
 30
0.0
 40
4.99969482421875
  0
HATCH
  5
E4
100
AcDbEntity
  8
0
370
              -2
390
0
  6
Continuous
 62
               0
100
AcDbHatch
 10
0.0
 20
0.0
 30
0.0
210
0.0
220
0.0
230
1.0
  2
SOLID
 70
               1
 71
               1
 91
        1
 92
        1
 93
        1
 72
               2
 10
437.36315932297498
 20
333.05710208243886
 40
4.99969482421875
 50
0.0
 51
360.0
 73
               0
 97
        1
330
E3
 75
               0
 76
               1
 98
        1
 10
0.0
 20
0.0
  0
MTEXT
  5
E5
100
AcDbEntity
  8
0
390
0
 62
               0
100
AcDbMText
 10
403.48554213547504
 20
129.24460040026338
 30
0.0
 40
24.432617187500004
 41
0.0
 71
               1
 72
               1
  1
360
  7
ＭＳ ゴシック
 11
0.0
 21
1.0
 31
0.0
 73
               1
 44
0.7828267384257843
  0
POINT
  5
E6
100
AcDbEntity
  8
Defpoints
370
               0
390
0
 62
               0
100
AcDbPoint
 10
540.86315932297498
 20
333.05710208243886
 30
0.0
  0
POINT
  5
E7
100
AcDbEntity
  8
Defpoints
370
               0
390
0
 62
               0
100
AcDbPoint
 10
589.86315932297498
 20
-26.942897917561027
 30
0.0
  0
POINT
  5
E8
100
AcDbEntity
  8
Defpoints
370
               0
390
0
 62
               0
100
AcDbPoint
 10
437.36315932297498
 20
-26.942897917561027
 30
0.0
  0
ENDBLK
  5
E9
100
AcDbEntity
  8
notes
390
0
100
AcDbBlockEnd
  0
BLOCK
  5
EA
100
AcDbEntity
  8
notes
390
0
100
AcDbBlockBegin
  2
*D14
 70
               1
 10
0.0
 20
0.0
 30
0.0
  3
*D14
  1

  0
LINE
  5
EB
100
AcDbEntity
  8
0
370
              -2
390
0
  6
Continuous
 62
               0
100
AcDbLine
 10
-575.25768433235658
 20
-686.94289791756114
 30
0.0
 11
-575.25768433235658
 21
-766.94289791756103
 31
0.0
  0
LINE
  5
EC
100
AcDbEntity
  8
0
370
              -2
390
0
  6
Continuous
 62
               0
100
AcDbLine
 10
-475.25768433235658
 20
-691.94289791756091
 30
0.0
 11
-475.25768433235658
 21
-766.94289791756103
 31
0.0
  0
LINE
  5
ED
100
AcDbEntity
  8
0
370
              -2
390
0
  6
Continuous
 62
               0
100
AcDbLine
 10
-575.25768433235658
 20
-766.94289791756103
 30
0.0
 11
-475.25768433235658
 21
-766.94289791756103
 31
0.0
  0
CIRCLE
  5
EE
102
{ACAD_REACTORS
330
EF
102
}
100
AcDbEntity
  8
0
370
              -2
390
0
  6
Continuous
 62
               0
100
AcDbCircle
 10
-575.25768433235658
 20
-766.94289791756103
 30
0.0
 40
4.99969482421875
  0
HATCH
  5
EF
100
AcDbEntity
  8
0
370
              -2
390
0
  6
Continuous
 62
               0
100
AcDbHatch
 10
0.0
 20
0.0
 30
0.0
210
0.0
220
0.0
230
1.0
  2
SOLID
 70
               1
 71
               1
 91
        1
 92
        1
 93
        1
 72
               2
 10
-575.25768433235658
 20
-766.94289791756103
 40
4.99969482421875
 50
0.0
 51
360.0
 73
               0
 97
        1
330
EE
 75
               0
 76
               1
 98
        1
 10
0.0
 20
0.0
  0
CIRCLE
  5
F0
102
{ACAD_REACTORS
330
F1
102
}
100
AcDbEntity
  8
0
370
              -2
390
0
  6
Continuous
 62
               0
100
AcDbCircle
 10
-475.25768433235658
 20
-766.94289791756103
 30
0.0
 40
4.99969482421875
  0
HATCH
  5
F1
100
AcDbEntity
  8
0
370
              -2
390
0
  6
Continuous
 62
               0
100
AcDbHatch
 10
0.0
 20
0.0
 30
0.0
210
0.0
220
0.0
230
1.0
  2
SOLID
 70
               1
 71
               1
 91
        1
 92
        1
 93
        1
 72
               2
 10
-475.25768433235658
 20
-766.94289791756103
 40
4.99969482421875
 50
0.0
 51
360.0
 73
               0
 97
        1
330
F0
 75
               0
 76
               1
 98
        1
 10
0.0
 20
0.0
  0
MTEXT
  5
F2
100
AcDbEntity
  8
0
390
0
 62
               0
100
AcDbMText
 10
-549.07018601453206
 20
-733.06528073006098
 30
0.0
 40
24.432617187500004
 41
0.0
 71
               1
 72
               1
  1
100
  7
ＭＳ ゴシック
 73
               1
 44
0.7828267384257843
  0
POINT
  5
F3
100
AcDbEntity
  8
Defpoints
370
               0
390
0
 62
               0
100
AcDbPoint
 10
-475.25768433235658
 20
-666.94289791756091
 30
0.0
  0
POINT
  5
F4
100
AcDbEntity
  8
Defpoints
370
               0
390
0
 62
               0
100
AcDbPoint
 10
-575.25768433235658
 20
-661.94289791756114
 30
0.0
  0
POINT
  5
F5
100
AcDbEntity
  8
Defpoints
370
               0
390
0
 62
               0
100
AcDbPoint
 10
-575.25768433235658
 20
-766.94289791756103
 30
0.0
  0
ENDBLK
  5
F6
100
AcDbEntity
  8
notes
390
0
100
AcDbBlockEnd
  0
BLOCK
  5
F7
100
AcDbEntity
  8
notes
390
0
100
AcDbBlockBegin
  2
*D15
 70
               1
 10
0.0
 20
0.0
 30
0.0
  3
*D15
  1

  0
LINE
  5
F8
100
AcDbEntity
  8
0
370
              -2
390
0
  6
Continuous
 62
               0
100
AcDbLine
 10
-475.25768433235658
 20
-691.94289791756091
 30
0.0
 11
-475.25768433235658
 21
-766.94289791756103
 31
0.0
  0
LINE
  5
F9
100
AcDbEntity
  8
0
370
              -2
390
0
  6
Continuous
 62
               0
100
AcDbLine
 10
-215.25768433235663
 20
-691.94289791756091
 30
0.0
 11
-215.25768433235663
 21
-766.94289791756103
 31
0.0
  0
LINE
  5
FA
100
AcDbEntity
  8
0
370
              -2
390
0
  6
Continuous
 62
               0
100
AcDbLine
 10
-475.25768433235658
 20
-766.94289791756103
 30
0.0
 11
-215.25768433235663
 21
-766.94289791756103
 31
0.0
  0
CIRCLE
  5
FB
102
{ACAD_REACTORS
330
FC
102
}
100
AcDbEntity
  8
0
370
              -2
390
0
  6
Continuous
 62
               0
100
AcDbCircle
 10
-475.25768433235658
 20
-766.94289791756103
 30
0.0
 40
4.99969482421875
  0
HATCH
  5
FC
100
AcDbEntity
  8
0
370
              -2
390
0
  6
Continuous
 62
               0
100
AcDbHatch
 10
0.0
 20
0.0
 30
0.0
210
0.0
220
0.0
230
1.0
  2
SOLID
 70
               1
 71
               1
 91
        1
 92
        1
 93
        1
 72
               2
 10
-475.25768433235658
 20
-766.94289791756103
 40
4.99969482421875
 50
0.0
 51
360.0
 73
               0
 97
        1
330
FB
 75
               0
 76
               1
 98
        1
 10
0.0
 20
0.0
  0
CIRCLE
  5
FD
102
{ACAD_REACTORS
330
FE
102
}
100
AcDbEntity
  8
0
370
              -2
390
0
  6
Continuous
 62
               0
100
AcDbCircle
 10
-215.25768433235663
 20
-766.94289791756103
 30
0.0
 40
4.99969482421875
  0
HATCH
  5
FE
100
AcDbEntity
  8
0
370
              -2
390
0
  6
Continuous
 62
               0
100
AcDbHatch
 10
0.0
 20
0.0
 30
0.0
210
0.0
220
0.0
230
1.0
  2
SOLID
 70
               1
 71
               1
 91
        1
 92
        1
 93
        1
 72
               2
 10
-215.25768433235663
 20
-766.94289791756103
 40
4.99969482421875
 50
0.0
 51
360.0
 73
               0
 97
        1
330
FD
 75
               0
 76
               1
 98
        1
 10
0.0
 20
0.0
  0
MTEXT
  5
FF
100
AcDbEntity
  8
0
390
0
 62
               0
100
AcDbMText
 10
-369.07018601453211
 20
-733.06528073006098
 30
0.0
 40
24.432617187500004
 41
0.0
 71
               1
 72
               1
  1
260
  7
ＭＳ ゴシック
 73
               1
 44
0.7828267384257843
  0
POINT
  5
100
100
AcDbEntity
  8
Defpoints
370
               0
390
0
 62
               0
100
AcDbPoint
 10
-215.25768433235663
 20
-666.94289791756091
 30
0.0
  0
POINT
  5
101
100
AcDbEntity
  8
Defpoints
370
               0
390
0
 62
               0
100
AcDbPoint
 10
-475.25768433235658
 20
-666.94289791756091
 30
0.0
  0
POINT
  5
102
100
AcDbEntity
  8
Defpoints
370
               0
390
0
 62
               0
100
AcDbPoint
 10
-475.25768433235658
 20
-766.94289791756103
 30
0.0
  0
ENDBLK
  5
103
100
AcDbEntity
  8
notes
390
0
100
AcDbBlockEnd
  0
BLOCK
  5
104
100
AcDbEntity
  8
notes
390
0
100
AcDbBlockBegin
  2
*D16
 70
               1
 10
0.0
 20
0.0
 30
0.0
  3
*D16
  1

  0
LINE
  5
105
100
AcDbEntity
  8
0
370
              -2
390
0
  6
Continuous
 62
               0
100
AcDbLine
 10
562.33654271378487
 20
-669.44289791756114
 30
0.0
 11
562.33654271378487
 21
-766.94289791756103
 31
0.0
  0
LINE
  5
106
100
AcDbEntity
  8
0
370
              -2
390
0
  6
Continuous
 62
               0
100
AcDbLine
 10
637.33654271378487
 20
-669.44289791756114
 30
0.0
 11
637.33654271378487
 21
-766.94289791756103
 31
0.0
  0
LINE
  5
107
100
AcDbEntity
  8
0
370
              -2
390
0
  6
Continuous
 62
               0
100
AcDbLine
 10
562.33654271378487
 20
-766.94289791756103
 30
0.0
 11
637.33654271378487
 21
-766.94289791756103
 31
0.0
  0
CIRCLE
  5
108
102
{ACAD_REACTORS
330
109
102
}
100
AcDbEntity
  8
0
370
              -2
390
0
  6
Continuous
 62
               0
100
AcDbCircle
 10
562.33654271378487
 20
-766.94289791756103
 30
0.0
 40
4.99969482421875
  0
HATCH
  5
109
100
AcDbEntity
  8
0
370
              -2
390
0
  6
Continuous
 62
               0
100
AcDbHatch
 10
0.0
 20
0.0
 30
0.0
210
0.0
220
0.0
230
1.0
  2
SOLID
 70
               1
 71
               1
 91
        1
 92
        1
 93
        1
 72
               2
 10
562.33654271378487
 20
-766.94289791756103
 40
4.99969482421875
 50
0.0
 51
360.0
 73
               0
 97
        1
330
108
 75
               0
 76
               1
 98
        1
 10
0.0
 20
0.0
  0
CIRCLE
  5
10A
102
{ACAD_REACTORS
330
10B
102
}
100
AcDbEntity
  8
0
370
              -2
390
0
  6
Continuous
 62
               0
100
AcDbCircle
 10
637.33654271378487
 20
-766.94289791756103
 30
0.0
 40
4.99969482421875
  0
HATCH
  5
10B
100
AcDbEntity
  8
0
370
              -2
390
0
  6
Continuous
 62
               0
100
AcDbHatch
 10
0.0
 20
0.0
 30
0.0
210
0.0
220
0.0
230
1.0
  2
SOLID
 70
               1
 71
               1
 91
        1
 92
        1
 93
        1
 72
               2
 10
637.33654271378487
 20
-766.94289791756103
 40
4.99969482421875
 50
0.0
 51
360.0
 73
               0
 97
        1
330
10A
 75
               0
 76
               1
 98
        1
 10
0.0
 20
0.0
  0
MTEXT
  5
10C
100
AcDbEntity
  8
0
390
0
 62
               0
100
AcDbMText
 10
583.96154271378487
 20
-733.06528073006098
 30
0.0
 40
24.432617187500004
 41
0.0
 71
               1
 72
               1
  1
75
  7
ＭＳ ゴシック
 73
               1
 44
0.7828267384257843
  0
POINT
  5
10D
100
AcDbEntity
  8
Defpoints
370
               0
390
0
 62
               0
100
AcDbPoint
 10
637.33654271378487
 20
-644.44289791756114
 30
0.0
  0
POINT
  5
10E
100
AcDbEntity
  8
Defpoints
370
               0
390
0
 62
               0
100
AcDbPoint
 10
562.33654271378487
 20
-644.44289791756114
 30
0.0
  0
POINT
  5
10F
100
AcDbEntity
  8
Defpoints
370
               0
390
0
 62
               0
100
AcDbPoint
 10
562.33654271378487
 20
-766.94289791756103
 30
0.0
  0
ENDBLK
  5
110
100
AcDbEntity
  8
notes
390
0
100
AcDbBlockEnd
  0
BLOCK
  5
111
100
AcDbEntity
  8
notes
390
0
100
AcDbBlockBegin
  2
*D17
 70
               1
 10
0.0
 20
0.0
 30
0.0
  3
*D17
  1

  0
LINE
  5
112
100
AcDbEntity
  8
0
370
              -2
390
0
  6
Continuous
 62
               0
100
AcDbLine
 10
-575.25768433235658
 20
353.05710208243886
 30
0.0
 11
-575.25768433235658
 21
433.05710208243886
 31
0.0
  0
LINE
  5
113
100
AcDbEntity
  8
0
370
              -2
390
0
  6
Continuous
 62
               0
100
AcDbLine
 10
-170.25768433235658
 20
353.05710208243886
 30
0.0
 11
-170.25768433235658
 21
433.05710208243886
 31
0.0
  0
LINE
  5
114
100
AcDbEntity
  8
0
370
              -2
390
0
  6
Continuous
 62
               0
100
AcDbLine
 10
-575.25768433235658
 20
433.05710208243886
 30
0.0
 11
-170.25768433235658
 21
433.05710208243886
 31
0.0
  0
CIRCLE
  5
115
102
{ACAD_REACTORS
330
116
102
}
100
AcDbEntity
  8
0
370
              -2
390
0
  6
Continuous
 62
               0
100
AcDbCircle
 10
-575.25768433235658
 20
433.05710208243886
 30
0.0
 40
4.99969482421875
  0
HATCH
  5
116
100
AcDbEntity
  8
0
370
              -2
390
0
  6
Continuous
 62
               0
100
AcDbHatch
 10
0.0
 20
0.0
 30
0.0
210
0.0
220
0.0
230
1.0
  2
SOLID
 70
               1
 71
               1
 91
        1
 92
        1
 93
        1
 72
               2
 10
-575.25768433235658
 20
433.05710208243886
 40
4.99969482421875
 50
0.0
 51
360.0
 73
               0
 97
        1
330
115
 75
               0
 76
               1
 98
        1
 10
0.0
 20
0.0
  0
CIRCLE
  5
117
102
{ACAD_REACTORS
330
118
102
}
100
AcDbEntity
  8
0
370
              -2
390
0
  6
Continuous
 62
               0
100
AcDbCircle
 10
-170.25768433235658
 20
433.05710208243886
 30
0.0
 40
4.99969482421875
  0
HATCH
  5
118
100
AcDbEntity
  8
0
370
              -2
390
0
  6
Continuous
 62
               0
100
AcDbHatch
 10
0.0
 20
0.0
 30
0.0
210
0.0
220
0.0
230
1.0
  2
SOLID
 70
               1
 71
               1
 91
        1
 92
        1
 93
        1
 72
               2
 10
-170.25768433235658
 20
433.05710208243886
 40
4.99969482421875
 50
0.0
 51
360.0
 73
               0
 97
        1
330
117
 75
               0
 76
               1
 98
        1
 10
0.0
 20
0.0
  0
MTEXT
  5
119
100
AcDbEntity
  8
0
390
0
 62
               0
100
AcDbMText
 10
-396.57018601453211
 20
466.9347192699388
 30
0.0
 40
24.432617187500004
 41
0.0
 71
               1
 72
               1
  1
405
  7
ＭＳ ゴシック
 73
               1
 44
0.7828267384257843
  0
POINT
  5
11A
100
AcDbEntity
  8
Defpoints
370
               0
390
0
 62
               0
100
AcDbPoint
 10
-170.25768433235658
 20
328.05710208243886
 30
0.0
  0
POINT
  5
11B
100
AcDbEntity
  8
Defpoints
370
               0
390
0
 62
               0
100
AcDbPoint
 10
-575.25768433235658
 20
328.05710208243886
 30
0.0
  0
POINT
  5
11C
100
AcDbEntity
  8
Defpoints
370
               0
390
0
 62
               0
100
AcDbPoint
 10
-575.25768433235658
 20
433.05710208243886
 30
0.0
  0
ENDBLK
  5
11D
100
AcDbEntity
  8
notes
390
0
100
AcDbBlockEnd
  0
BLOCK
  5
11E
100
AcDbEntity
  8
notes
390
0
100
AcDbBlockBegin
  2
*D18
 70
               1
 10
0.0
 20
0.0
 30
0.0
  3
*D18
  1

  0
LINE
  5
11F
100
AcDbEntity
  8
0
370
              -2
390
0
  6
Continuous
 62
               0
100
AcDbLine
 10
537.36315932297498
 20
774.23738373619835
 30
0.0
 11
537.36315932297498
 21
694.23738373619835
 31
0.0
  0
LINE
  5
120
100
AcDbEntity
  8
0
370
              -2
390
0
  6
Continuous
 62
               0
100
AcDbLine
 10
662.36315932297498
 20
774.23738373619835
 30
0.0
 11
662.36315932297498
 21
694.23738373619835
 31
0.0
  0
LINE
  5
121
100
AcDbEntity
  8
0
370
              -2
390
0
  6
Continuous
 62
               0
100
AcDbLine
 10
537.36315932297498
 20
694.23738373619835
 30
0.0
 11
662.36315932297498
 21
694.23738373619835
 31
0.0
  0
CIRCLE
  5
122
102
{ACAD_REACTORS
330
123
102
}
100
AcDbEntity
  8
0
370
              -2
390
0
  6
Continuous
 62
               0
100
AcDbCircle
 10
537.36315932297498
 20
694.23738373619835
 30
0.0
 40
4.99969482421875
  0
HATCH
  5
123
100
AcDbEntity
  8
0
370
              -2
390
0
  6
Continuous
 62
               0
100
AcDbHatch
 10
0.0
 20
0.0
 30
0.0
210
0.0
220
0.0
230
1.0
  2
SOLID
 70
               1
 71
               1
 91
        1
 92
        1
 93
        1
 72
               2
 10
537.36315932297498
 20
694.23738373619835
 40
4.99969482421875
 50
0.0
 51
360.0
 73
               0
 97
        1
330
122
 75
               0
 76
               1
 98
        1
 10
0.0
 20
0.0
  0
CIRCLE
  5
124
102
{ACAD_REACTORS
330
125
102
}
100
AcDbEntity
  8
0
370
              -2
390
0
  6
Continuous
 62
               0
100
AcDbCircle
 10
662.36315932297498
 20
694.23738373619835
 30
0.0
 40
4.99969482421875
  0
HATCH
  5
125
100
AcDbEntity
  8
0
370
              -2
390
0
  6
Continuous
 62
               0
100
AcDbHatch
 10
0.0
 20
0.0
 30
0.0
210
0.0
220
0.0
230
1.0
  2
SOLID
 70
               1
 71
               1
 91
        1
 92
        1
 93
        1
 72
               2
 10
662.36315932297498
 20
694.23738373619835
 40
4.99969482421875
 50
0.0
 51
360.0
 73
               0
 97
        1
330
124
 75
               0
 76
               1
 98
        1
 10
0.0
 20
0.0
  0
MTEXT
  5
126
100
AcDbEntity
  8
0
390
0
 62
               0
100
AcDbMText
 10
576.0506576407995
 20
728.11500092369829
 30
0.0
 40
24.432617187500004
 41
0.0
 71
               1
 72
               1
  1
125
  7
ＭＳ ゴシック
 73
               1
 44
0.7828267384257843
  0
POINT
  5
127
100
AcDbEntity
  8
Defpoints
370
               0
390
0
 62
               0
100
AcDbPoint
 10
662.36315932297498
 20
799.23738373619835
 30
0.0
  0
POINT
  5
128
100
AcDbEntity
  8
Defpoints
370
               0
390
0
 62
               0
100
AcDbPoint
 10
537.36315932297498
 20
799.23738373619835
 30
0.0
  0
POINT
  5
129
100
AcDbEntity
  8
Defpoints
370
               0
390
0
 62
               0
100
AcDbPoint
 10
537.36315932297498
 20
694.23738373619835
 30
0.0
  0
ENDBLK
  5
12A
100
AcDbEntity
  8
notes
390
0
100
AcDbBlockEnd
  0
BLOCK
  5
12B
100
AcDbEntity
  8
notes
390
0
100
AcDbBlockBegin
  2
*D19
 70
               1
 10
0.0
 20
0.0
 30
0.0
  3
*D19
  1

  0
LINE
  5
12C
100
AcDbEntity
  8
0
370
              -2
390
0
  6
Continuous
 62
               0
100
AcDbLine
 10
537.36315932297498
 20
353.05710208243886
 30
0.0
 11
537.36315932297498
 21
483.05710208243886
 31
0.0
  0
LINE
  5
12D
100
AcDbEntity
  8
0
370
              -2
390
0
  6
Continuous
 62
               0
100
AcDbLine
 10
720.36315932297498
 20
-16.953877838261064
 30
0.0
 11
720.36315932297498
 21
483.05710208243886
 31
0.0
  0
LINE
  5
12E
100
AcDbEntity
  8
0
370
              -2
390
0
  6
Continuous
 62
               0
100
AcDbLine
 10
537.36315932297498
 20
483.05710208243886
 30
0.0
 11
720.36315932297498
 21
483.05710208243886
 31
0.0
  0
CIRCLE
  5
12F
102
{ACAD_REACTORS
330
130
102
}
100
AcDbEntity
  8
0
370
              -2
390
0
  6
Continuous
 62
               0
100
AcDbCircle
 10
537.36315932297498
 20
483.05710208243886
 30
0.0
 40
4.99969482421875
  0
HATCH
  5
130
100
AcDbEntity
  8
0
370
              -2
390
0
  6
Continuous
 62
               0
100
AcDbHatch
 10
0.0
 20
0.0
 30
0.0
210
0.0
220
0.0
230
1.0
  2
SOLID
 70
               1
 71
               1
 91
        1
 92
        1
 93
        1
 72
               2
 10
537.36315932297498
 20
483.05710208243886
 40
4.99969482421875
 50
0.0
 51
360.0
 73
               0
 97
        1
330
12F
 75
               0
 76
               1
 98
        1
 10
0.0
 20
0.0
  0
CIRCLE
  5
131
102
{ACAD_REACTORS
330
132
102
}
100
AcDbEntity
  8
0
370
              -2
390
0
  6
Continuous
 62
               0
100
AcDbCircle
 10
720.36315932297498
 20
483.05710208243886
 30
0.0
 40
4.99969482421875
  0
HATCH
  5
132
100
AcDbEntity
  8
0
370
              -2
390
0
  6
Continuous
 62
               0
100
AcDbHatch
 10
0.0
 20
0.0
 30
0.0
210
0.0
220
0.0
230
1.0
  2
SOLID
 70
               1
 71
               1
 91
        1
 92
        1
 93
        1
 72
               2
 10
720.36315932297498
 20
483.05710208243886
 40
4.99969482421875
 50
0.0
 51
360.0
 73
               0
 97
        1
330
131
 75
               0
 76
               1
 98
        1
 10
0.0
 20
0.0
  0
MTEXT
  5
133
100
AcDbEntity
  8
0
390
0
 62
               0
100
AcDbMText
 10
605.0506576407995
 20
516.9347192699388
 30
0.0
 40
24.432617187500004
 41
0.0
 71
               1
 72
               1
  1
183
  7
ＭＳ ゴシック
 73
               1
 44
0.7828267384257843
  0
POINT
  5
134
100
AcDbEntity
  8
Defpoints
370
               0
390
0
 62
               0
100
AcDbPoint
 10
720.36315932297498
 20
-41.953877838261064
 30
0.0
  0
POINT
  5
135
100
AcDbEntity
  8
Defpoints
370
               0
390
0
 62
               0
100
AcDbPoint
 10
537.36315932297498
 20
328.05710208243886
 30
0.0
  0
POINT
  5
136
100
AcDbEntity
  8
Defpoints
370
               0
390
0
 62
               0
100
AcDbPoint
 10
537.36315932297498
 20
483.05710208243886
 30
0.0
  0
ENDBLK
  5
137
100
AcDbEntity
  8
notes
390
0
100
AcDbBlockEnd
  0
BLOCK
  5
138
100
AcDbEntity
  8
notes
390
0
100
AcDbBlockBegin
  2
*D20
 70
               1
 10
0.0
 20
0.0
 30
0.0
  3
*D20
  1

  0
LINE
  5
139
100
AcDbEntity
  8
0
370
              -2
390
0
  6
Continuous
 62
               0
100
AcDbLine
 10
-595.25768433235635
 20
333.05710208243886
 30
0.0
 11
-725.25768433235635
 21
333.05710208243886
 31
0.0
  0
LINE
  5
13A
100
AcDbEntity
  8
0
370
              -2
390
0
  6
Continuous
 62
               0
100
AcDbLine
 10
-595.25768433235635
 20
-666.94289791756091
 30
0.0
 11
-725.25768433235635
 21
-666.94289791756091
 31
0.0
  0
LINE
  5
13B
100
AcDbEntity
  8
0
370
              -2
390
0
  6
Continuous
 62
               0
100
AcDbLine
 10
-725.25768433235635
 20
333.05710208243886
 30
0.0
 11
-725.25768433235635
 21
-666.94289791756091
 31
0.0
  0
CIRCLE
  5
13C
102
{ACAD_REACTORS
330
13D
102
}
100
AcDbEntity
  8
0
370
              -2
390
0
  6
Continuous
 62
               0
100
AcDbCircle
 10
-725.25768433235635
 20
333.05710208243886
 30
0.0
 40
4.99969482421875
  0
HATCH
  5
13D
100
AcDbEntity
  8
0
370
              -2
390
0
  6
Continuous
 62
               0
100
AcDbHatch
 10
0.0
 20
0.0
 30
0.0
210
0.0
220
0.0
230
1.0
  2
SOLID
 70
               1
 71
               1
 91
        1
 92
        1
 93
        1
 72
               2
 10
-725.25768433235635
 20
333.05710208243886
 40
4.99969482421875
 50
0.0
 51
360.0
 73
               0
 97
        1
330
13C
 75
               0
 76
               1
 98
        1
 10
0.0
 20
0.0
  0
CIRCLE
  5
13E
102
{ACAD_REACTORS
330
13F
102
}
100
AcDbEntity
  8
0
370
              -2
390
0
  6
Continuous
 62
               0
100
AcDbCircle
 10
-725.25768433235635
 20
-666.94289791756091
 30
0.0
 40
4.99969482421875
  0
HATCH
  5
13F
100
AcDbEntity
  8
0
370
              -2
390
0
  6
Continuous
 62
               0
100
AcDbHatch
 10
0.0
 20
0.0
 30
0.0
210
0.0
220
0.0
230
1.0
  2
SOLID
 70
               1
 71
               1
 91
        1
 92
        1
 93
        1
 72
               2
 10
-725.25768433235635
 20
-666.94289791756091
 40
4.99969482421875
 50
0.0
 51
360.0
 73
               0
 97
        1
330
13E
 75
               0
 76
               1
 98
        1
 10
0.0
 20
0.0
  0
MTEXT
  5
140
100
AcDbEntity
  8
0
390
0
 62
               0
100
AcDbMText
 10
-759.1353015198564
 20
-198.69289791756091
 30
0.0
 40
24.432617187500004
 41
0.0
 71
               1
 72
               1
  1
1000
  7
ＭＳ ゴシック
 11
0.0
 21
1.0
 31
0.0
 73
               1
 44
0.7828267384257843
  0
POINT
  5
141
100
AcDbEntity
  8
Defpoints
370
               0
390
0
 62
               0
100
AcDbPoint
 10
-570.25768433235635
 20
-666.94289791756091
 30
0.0
  0
POINT
  5
142
100
AcDbEntity
  8
Defpoints
370
               0
390
0
 62
               0
100
AcDbPoint
 10
-570.25768433235635
 20
333.05710208243886
 30
0.0
  0
POINT
  5
143
100
AcDbEntity
  8
Defpoints
370
               0
390
0
 62
               0
100
AcDbPoint
 10
-725.25768433235635
 20
333.05710208243886
 30
0.0
  0
ENDBLK
  5
144
100
AcDbEntity
  8
notes
390
0
100
AcDbBlockEnd
  0
BLOCK
  5
145
100
AcDbEntity
  8
notes
390
0
100
AcDbBlockBegin
  2
*D21
 70
               1
 10
0.0
 20
0.0
 30
0.0
  3
*D21
  1

  0
LINE
  5
146
100
AcDbEntity
  8
0
370
              -2
390
0
  6
Continuous
 62
               0
100
AcDbLine
 10
683.86315932297498
 20
1199.2373837361988
 30
0.0
 11
780.63167002217483
 21
1199.2373837361988
 31
0.0
  0
LINE
  5
147
100
AcDbEntity
  8
0
370
              -2
390
0
  6
Continuous
 62
               0
100
AcDbLine
 10
705.59954838255203
 20
1024.2373837361981
 30
0.0
 11
780.63167002217483
 21
1024.2373837361981
 31
0.0
  0
LINE
  5
148
100
AcDbEntity
  8
0
370
              -2
390
0
  6
Continuous
 62
               0
100
AcDbLine
 10
780.63167002217483
 20
1199.2373837361988
 30
0.0
 11
780.63167002217483
 21
1024.2373837361981
 31
0.0
  0
CIRCLE
  5
149
102
{ACAD_REACTORS
330
14A
102
}
100
AcDbEntity
  8
0
370
              -2
390
0
  6
Continuous
 62
               0
100
AcDbCircle
 10
780.63167002217483
 20
1199.2373837361988
 30
0.0
 40
4.99969482421875
  0
HATCH
  5
14A
100
AcDbEntity
  8
0
370
              -2
390
0
  6
Continuous
 62
               0
100
AcDbHatch
 10
0.0
 20
0.0
 30
0.0
210
0.0
220
0.0
230
1.0
  2
SOLID
 70
               1
 71
               1
 91
        1
 92
        1
 93
        1
 72
               2
 10
780.63167002217483
 20
1199.2373837361988
 40
4.99969482421875
 50
0.0
 51
360.0
 73
               0
 97
        1
330
149
 75
               0
 76
               1
 98
        1
 10
0.0
 20
0.0
  0
CIRCLE
  5
14B
102
{ACAD_REACTORS
330
14C
102
}
100
AcDbEntity
  8
0
370
              -2
390
0
  6
Continuous
 62
               0
100
AcDbCircle
 10
780.63167002217483
 20
1024.2373837361981
 30
0.0
 40
4.99969482421875
  0
HATCH
  5
14C
100
AcDbEntity
  8
0
370
              -2
390
0
  6
Continuous
 62
               0
100
AcDbHatch
 10
0.0
 20
0.0
 30
0.0
210
0.0
220
0.0
230
1.0
  2
SOLID
 70
               1
 71
               1
 91
        1
 92
        1
 93
        1
 72
               2
 10
780.63167002217483
 20
1024.2373837361981
 40
4.99969482421875
 50
0.0
 51
360.0
 73
               0
 97
        1
330
14B
 75
               0
 76
               1
 98
        1
 10
0.0
 20
0.0
  0
MTEXT
  5
14D
100
AcDbEntity
  8
0
390
0
 62
               0
100
AcDbMText
 10
746.75405283467489
 20
1087.9248820540231
 30
0.0
 40
24.432617187500004
 41
0.0
 71
               1
 72
               1
  1
175
  7
ＭＳ ゴシック
 11
0.0
 21
1.0
 31
0.0
 73
               1
 44
0.7828267384257843
  0
POINT
  5
14E
100
AcDbEntity
  8
Defpoints
370
               0
390
0
 62
               0
100
AcDbPoint
 10
680.59954838255203
 20
1024.2373837361981
 30
0.0
  0
POINT
  5
14F
100
AcDbEntity
  8
Defpoints
370
               0
390
0
 62
               0
100
AcDbPoint
 10
658.86315932297498
 20
1199.2373837361988
 30
0.0
  0
POINT
  5
150
100
AcDbEntity
  8
Defpoints
370
               0
390
0
 62
               0
100
AcDbPoint
 10
780.63167002217483
 20
1199.2373837361988
 30
0.0
  0
ENDBLK
  5
151
100
AcDbEntity
  8
notes
390
0
100
AcDbBlockEnd
  0
BLOCK
  5
152
100
AcDbEntity
  8
notes
390
0
100
AcDbBlockBegin
  2
*D22
 70
               1
 10
0.0
 20
0.0
 30
0.0
  3
*D22
  1

  0
LINE
  5
153
100
AcDbEntity
  8
0
370
              -2
390
0
  6
Continuous
 62
               0
100
AcDbLine
 10
-510.95153948550853
 20
-156.01887761270478
 30
0.0
 11
-400.25768433235658
 21
-71.494225146161057
 31
0.0
  0
CIRCLE
  5
154
102
{ACAD_REACTORS
330
155
102
}
100
AcDbEntity
  8
0
370
              -2
390
0
  6
Continuous
 62
               0
100
AcDbCircle
 10
-510.95153948550853
 20
-156.01887761270478
 30
0.0
 40
4.99969482421875
  0
HATCH
  5
155
100
AcDbEntity
  8
0
370
              -2
390
0
  6
Continuous
 62
               0
100
AcDbHatch
 10
0.0
 20
0.0
 30
0.0
210
0.0
220
0.0
230
1.0
  2
SOLID
 70
               1
 71
               1
 91
        1
 92
        1
 93
        1
 72
               2
 10
-510.95153948550853
 20
-156.01887761270478
 40
4.99969482421875
 50
0.0
 51
360.0
 73
               0
 97
        1
330
154
 75
               0
 76
               1
 98
        1
 10
0.0
 20
0.0
  0
LINE
  5
156
100
AcDbEntity
  8
0
370
              -2
390
0
  6
Continuous
 62
               0
100
AcDbLine
 10
-400.25768433235658
 20
-71.494225146161057
 30
0.0
 11
-276.75768433235658
 21
-71.494225146161057
 31
0.0
  0
MTEXT
  5
157
100
AcDbEntity
  8
0
390
0
 62
               0
100
AcDbMText
 10
-340.25768433235658
 20
-37.616607958661007
 30
0.0
 40
24.432617187500004
 41
0.0
 71
               1
 72
               1
  1
φ36
  7
ＭＳ ゴシック
 73
               1
 44
0.7828267384257843
  0
POINT
  5
158
100
AcDbEntity
  8
Defpoints
370
               0
390
0
 62
               0
100
AcDbPoint
 10
-539.56382917920405
 20
-177.86691822241721
 30
0.0
  0
POINT
  5
159
100
AcDbEntity
  8
Defpoints
370
               0
390
0
 62
               0
100
AcDbPoint
 10
-510.95153948550853
 20
-156.01887761270478
 30
0.0
  0
ENDBLK
  5
15A
100
AcDbEntity
  8
notes
390
0
100
AcDbBlockEnd
  0
ENDSEC
  0
SECTION
  2
ENTITIES
  0
MTEXT
  5
15B
100
AcDbEntity
  8
template
390
0
 62
               7
100
AcDbMText
 10
-967.99999999975921
 20
-1147.4176292337006
 30
0.0
 40
16.288411458333332
 41
0.0
 71
               1
 72
               1
  1
品名
  7
ＭＳ ゴシック
 73
               1
 44
0.7828267384257843
  0
MTEXT
  5
15C
100
AcDbEntity
  8
template
390
0
 62
               7
100
AcDbMText
 10
-967.99999999975921
 20
-1232.4176292337004
 30
0.0
 40
16.288411458333332
 41
0.0
 71
               1
 72
               1
  1
仕様
  7
ＭＳ ゴシック
 73
               1
 44
0.7828267384257843
  0
MTEXT
  5
15D
100
AcDbEntity
  8
template
390
0
 62
               7
100
AcDbMText
 10
-914.99999999975921
 20
-1176.0000901712003
 30
0.0
 40
24.432617187500004
 41
0.0
 71
               1
 72
               1
  1
洗面器 -ALAPE-
  7
ＭＳ ゴシック
 73
               1
 44
0.7828267384257843
  0
LINE
  5
15E
100
AcDbEntity
  8
template
370
               5
390
0
  6
Continuous
 62
               7
100
AcDbLine
 10
974.99999999975876
 20
-1224.0027073587003
 30
0.0
 11
-975.00000000024124
 21
-1224.0027073587003
 31
0.0
  0
LWPOLYLINE
  5
15F
100
AcDbEntity
  8
template
370
               5
390
0
  6
Continuous
 62
               7
100
AcDbPolyline
 90
        5
 70
             128
 10
975.00000000024124
 20
1405.9972926412995
 10
-974.99999999975921
 20
1405.9972926412995
 10
-974.99999999975921
 20
-1394.0027073587003
 10
975.00000000024124
 20
-1394.0027073587003
 10
975.00000000024124
 20
1405.9972926412995
  0
LINE
  5
160
100
AcDbEntity
  8
template
370
               5
390
0
  6
Continuous
 62
               7
100
AcDbLine
 10
974.99999999975876
 20
-1139.0027073587005
 30
0.0
 11
-975.00000000024124
 21
-1139.0027073587005
 31
0.0
  0
LINE
  5
161
100
AcDbEntity
  8
template
370
               5
390
0
  6
Continuous
 62
               7
100
AcDbLine
 10
975.00000000024124
 20
-1309.0027073587003
 30
0.0
 11
222.00000000024124
 21
-1309.0027073587003
 31
0.0
  0
MTEXT
  5
162
100
AcDbEntity
  8
template
390
0
 62
               7
100
AcDbMText
 10
-974.99999999955594
 20
-1405.8565294155574
 30
0.0
 40
21.717881944444446
 41
0.0
 71
               1
 72
               1
  1
120516SH
  7
ＭＳ ゴシック
 73
               1
 44
0.7828267384257843
  0
MTEXT
  5
163
100
AcDbEntity
  8
template
390
0
 62
               7
100
AcDbMText
 10
251.87140625250095
 20
-1338.9131018320079
 30
0.0
 40
24.432617187500004
 41
0.0
 71
               1
 72
               1
  1
大洋金物株式会社 ティーフォルム事業部
  7
ＭＳ ゴシック
 73
               1
 44
0.7828267384257843
  0
INSERT
  5
164
100
AcDbEntity
  8
template
390
0
 62
               7
100
AcDbBlockReference
  2
グループ
 10
-694.94436014350572
 20
-558.49901617788032
 30
0.0
  0
MTEXT
  5
165
100
AcDbEntity
  8
template
390
0
 62
               7
100
AcDbMText
 10
784.00000000049999
 20
-1261.0000901712003
 30
0.0
 40
24.432617187500004
 41
0.0
 71
               1
 72
               1
  1
1:10
  7
ＭＳ ゴシック
 73
               1
 44
0.7828267384257843
  0
MTEXT
  5
166
100
AcDbEntity
  8
template
390
0
 62
               7
100
AcDbMText
 10
731.00000000049999
 20
-1232.4176292337004
 30
0.0
 40
16.288411458333332
 41
0.0
 71
               1
 72
               1
  1
縮尺
  7
ＭＳ ゴシック
 73
               1
 44
0.7828267384257843
  0
LINE
  5
167
100
AcDbEntity
  8
template
370
               5
390
0
  6
Continuous
 62
               7
100
AcDbLine
 10
724.00000000049999
 20
-1309.0027073587003
 30
0.0
 11
724.00000000049999
 21
-1224.0027073587003
 31
0.0
  0
MTEXT
  5
168
100
AcDbEntity
  8
template
390
0
 62
               7
100
AcDbMText
 10
480.00000000049999
 20
-1232.4176292337004
 30
0.0
 40
16.288411458333332
 41
0.0
 71
               1
 72
               1
  1
容量
  7
ＭＳ ゴシック
 73
               1
 44
0.7828267384257843
  0
LINE
  5
169
100
AcDbEntity
  8
template
370
               5
390
0
  6
Continuous
 62
               7
100
AcDbLine
 10
473.00000000049999
 20
-1309.0027073587003
 30
0.0
 11
473.00000000049999
 21
-1224.0027073587003
 31
0.0
  0
MTEXT
  5
16A
100
AcDbEntity
  8
template
390
0
 62
               7
100
AcDbMText
 10
229.00000000049999
 20
-1147.4176292337006
 30
0.0
 40
16.288411458333332
 41
0.0
 71
               1
 72
               1
  1
品番
  7
ＭＳ ゴシック
 73
               1
 44
0.7828267384257843
  0
MTEXT
  5
16B
100
AcDbEntity
  8
template
390
0
 62
               7
100
AcDbMText
 10
229.00000000049999
 20
-1232.4176292337004
 30
0.0
 40
16.288411458333332
 41
0.0
 71
               1
 72
               1
  1
重量
  7
ＭＳ ゴシック
 73
               1
 44
0.7828267384257843
  0
MTEXT
  5
16C
100
AcDbEntity
  8
template
390
0
 62
               7
100
AcDbMText
 10
282.00000000049999
 20
-1176.0000901712003
 30
0.0
 40
24.432617187500004
 41
0.0
 71
               1
 72
               1
  1
FAN70-1306
  7
ＭＳ ゴシック
 73
               1
 44
0.7828267384257843
  0
MTEXT
  5
16D
100
AcDbEntity
  8
template
390
0
 62
               7
100
AcDbMText
 10
282.00000000049999
 20
-1261.0000901712003
 30
0.0
 40
24.432617187500004
 41
0.0
 71
               1
 72
               1
  1
11.1kg
  7
ＭＳ ゴシック
 73
               1
 44
0.7828267384257843
  0
LINE
  5
16E
100
AcDbEntity
  8
template
370
               5
390
0
  6
Continuous
 62
               7
100
AcDbLine
 10
222.00000000049999
 20
-1394.0027073587003
 30
0.0
 11
222.00000000049999
 21
-1139.0027073587005
 31
0.0
  0
MTEXT
  5
16F
100
AcDbEntity
  8
template
390
0
 62
               7
100
AcDbMText
 10
-914.99999999975921
 20
-1261.0000901712003
 30
0.0
 40
24.432617187500004
 41
0.0
 71
               1
 72
               1
  1
壁掛け/オーバーフロー付き/壁取付ボルト付属/\P鋼板ホーロー/ホワイト
  7
ＭＳ ゴシック
 73
               1
 44
1.1307497332816883
  0
MTEXT
  5
170
100
AcDbEntity
  8
template
390
0
 62
               7
100
AcDbMText
 10
532.00000000049999
 20
-1261.0000901712003
 30
0.0
 40
24.432617187500004
 41
0.0
 71
               1
 72
               1
  1
6.2L
  7
ＭＳ ゴシック
 73
               1
 44
0.7828267384257843
  0
INSERT
  5
171
100
AcDbEntity
  8
template
390
0
 62
               7
100
AcDbBlockReference
  2
グループ-1
 10
-694.94436014350572
 20
-558.49901617788032
 30
0.0
  0
INSERT
  5
172
100
AcDbEntity
  8
template
390
0
 62
               7
100
AcDbBlockReference
  2
グループ-2
 10
-694.94436014350572
 20
-558.49901617788032
 30
0.0
  0
LINE
  5
173
100
AcDbEntity
  8
template
370
               5
390
0
  6
STYLE_12
 62
               7
100
AcDbLine
 10
668.0
 20
992.04165075235119
 30
0.0
 11
668.0
 21
1058.0
 31
0.0
  0
DIMENSION
  5
174
100
AcDbEntity
  8
template
370
              15
390
0
  6
Continuous
 62
               7
100
AcDbDimension
  2
*D5
 10
670.37029184284665
 20
1024.4179105916555
 30
0.0
 11
487.37029184284665
 21
1029.4179105916555
 31
0.0
 70
             128
 71
               5
 72
               1
 41
1.0
 42
0.0
  3
tfrom線あり
100
AcDbAlignedDimension
 13
537.37029184284665
 23
993.54612989932366
 33
0.0
 14
670.37029184284665
 24
993.54612989932366
 34
0.0
100
AcDbRotatedDimension
1001
ACAD
1000
DSTYLE
1002
{
1070
             279
1070
               2
1070
             340
1005
38
1070
               3
1000
<>(深さ)
1070
             174
1070
               0
1070
             147
1040
5.0
1002
}
  0
DIMENSION
  5
175
100
AcDbEntity
  8
notes
370
               5
390
0
  6
Continuous
 62
               7
100
AcDbDimension
  2
*D6
 10
-70.257684332356575
 20
333.05710208243886
 30
0.0
 11
-70.257684332356575
 21
208.04609643598519
 31
0.0
 71
               5
 72
               1
 41
1.0
 42
0.0
  3
tfrom線あり
100
AcDbAlignedDimension
 13
-170.25768433235658
 23
83.035090789531523
 33
0.0
 14
-175.25768433235658
 24
333.05710208243886
 34
0.0
 50
90.0
100
AcDbRotatedDimension
1001
ACAD
1000
DSTYLE
1002
{
1070
             279
1070
               2
1070
             340
1005
38
1070
             147
1040
5.0
1002
}
  0
DIMENSION
  5
176
100
AcDbEntity
  8
notes
370
               5
390
0
  6
Continuous
 62
               7
100
AcDbDimension
  2
*D7
 10
-70.257684332356575
 20
83.035090789531523
 30
0.0
 11
-70.257684332356575
 21
-166.96490921046848
 31
0.0
 71
               5
 72
               1
 41
1.0
 42
0.0
  3
tfrom線あり
100
AcDbAlignedDimension
 13
-170.25768433235658
 23
-416.96490921046848
 33
0.0
 14
-170.25768433235658
 24
83.035090789531523
 34
0.0
 50
90.0
100
AcDbRotatedDimension
1001
ACAD
1000
DSTYLE
1002
{
1070
             279
1070
               2
1070
             340
1005
38
1070
             147
1040
5.0
1002
}
  0
DIMENSION
  5
177
100
AcDbEntity
  8
notes
370
               5
390
0
  6
Continuous
 62
               7
100
AcDbDimension
  2
*D8
 10
437.36315932297498
 20
1199.2373837361988
 30
0.0
 11
437.36315932297498
 21
1174.2373837361986
 31
0.0
 71
               5
 72
               1
 41
1.0
 42
0.0
  3
tfrom線あり
100
AcDbAlignedDimension
 13
537.36315932297498
 23
1149.2373837361981
 33
0.0
 14
540.86315932297498
 24
1199.2373837361988
 34
0.0
 50
90.0
100
AcDbRotatedDimension
1001
ACAD
1000
DSTYLE
1002
{
1070
             279
1070
               2
1070
             340
1005
38
1070
             147
1040
5.0
1002
}
  0
DIMENSION
  5
178
100
AcDbEntity
  8
notes
370
               5
390
0
  6
Continuous
 62
               7
100
AcDbDimension
  2
*D9
 10
387.36315932297498
 20
290.55710208243886
 30
0.0
 11
387.36315932297498
 21
311.80710208243886
 31
0.0
 71
               5
 72
               1
 41
1.0
 42
0.0
  3
tfrom線あり
100
AcDbAlignedDimension
 13
542.33654271378487
 23
333.05710208243886
 33
0.0
 14
542.33654271378487
 24
290.55710208243886
 34
0.0
 50
90.0
100
AcDbRotatedDimension
1001
ACAD
1000
DSTYLE
1002
{
1070
             279
1070
               2
1070
             340
1005
38
1070
             147
1040
5.0
1002
}
  0
DIMENSION
  5
179
100
AcDbEntity
  8
notes
370
               5
390
0
  6
Continuous
 62
               7
100
AcDbDimension
  2
*D10
 10
387.36315932297498
 20
290.55710208243886
 30
0.0
 11
387.36315932297498
 21
-166.94289791756114
 31
0.0
 71
               5
 72
               1
 41
1.0
 42
0.0
  3
tfrom線あり
100
AcDbAlignedDimension
 13
542.33654271378487
 23
-624.44289791756114
 33
0.0
 14
542.33654271378487
 24
290.55710208243886
 34
0.0
 50
90.0
100
AcDbRotatedDimension
1001
ACAD
1000
DSTYLE
1002
{
1070
             279
1070
               2
1070
             340
1005
38
1070
             147
1040
5.0
1002
}
  0
DIMENSION
  5
17A
100
AcDbEntity
  8
notes
370
               5
390
0
  6
Continuous
 62
               7
100
AcDbDimension
  2
*D11
 10
437.36315932297498
 20
-26.942897917560913
 30
0.0
 11
437.36315932297498
 21
-166.94289791756097
 31
0.0
 71
               5
 72
               1
 41
1.0
 42
0.0
  3
tfrom線あり
100
AcDbAlignedDimension
 13
579.86315932297498
 23
-306.94289791756103
 33
0.0
 14
579.86315932297498
 24
-26.942897917560913
 34
0.0
 50
90.0
100
AcDbRotatedDimension
1001
ACAD
1000
DSTYLE
1002
{
1070
             279
1070
               2
1070
             340
1005
38
1070
             147
1040
5.0
1002
}
  0
DIMENSION
  5
17B
100
AcDbEntity
  8
notes
370
               5
390
0
  6
Continuous
 62
               7
100
AcDbDimension
  2
*D12
 10
599.86315932297498
 20
46.535090789531523
 30
0.0
 11
528.02117548652245
 21
51.535090789531523
 31
0.0
 70
             128
 71
               5
 72
               1
 41
1.0
 42
0.0
  3
tfrom線あり
100
AcDbAlignedDimension
 13
537.36315932297498
 23
-6.9428979175610266
 33
0.0
 14
599.86315932297498
 24
-6.9428979175610266
 34
0.0
100
AcDbRotatedDimension
1001
ACAD
1000
DSTYLE
1002
{
1070
             279
1070
               2
1070
             340
1005
38
1070
             174
1070
               0
1070
             147
1040
5.0
1002
}
  0
DIMENSION
  5
17C
100
AcDbEntity
  8
notes
370
               5
390
0
  6
Continuous
 62
               7
100
AcDbDimension
  2
*D13
 10
437.36315932297498
 20
-26.942897917561027
 30
0.0
 11
437.36315932297498
 21
153.05710208243886
 31
0.0
 71
               5
 72
               1
 41
1.0
 42
0.0
  3
tfrom線あり
100
AcDbAlignedDimension
 13
540.86315932297498
 23
333.05710208243886
 33
0.0
 14
589.86315932297498
 24
-26.942897917561027
 34
0.0
 50
90.0
100
AcDbRotatedDimension
1001
ACAD
1000
DSTYLE
1002
{
1070
             279
1070
               2
1070
             340
1005
38
1070
             147
1040
5.0
1002
}
  0
DIMENSION
  5
17D
100
AcDbEntity
  8
notes
370
               5
390
0
  6
Continuous
 62
               7
100
AcDbDimension
  2
*D14
 10
-575.25768433235658
 20
-766.94289791756103
 30
0.0
 11
-525.25768433235658
 21
-766.94289791756103
 31
0.0
 71
               5
 72
               1
 41
1.0
 42
0.0
  3
tfrom線あり
100
AcDbAlignedDimension
 13
-475.25768433235658
 23
-666.94289791756091
 33
0.0
 14
-575.25768433235658
 24
-661.94289791756114
 34
0.0
100
AcDbRotatedDimension
1001
ACAD
1000
DSTYLE
1002
{
1070
             279
1070
               2
1070
             340
1005
38
1070
             147
1040
5.0
1002
}
  0
DIMENSION
  5
17E
100
AcDbEntity
  8
notes
370
               5
390
0
  6
Continuous
 62
               7
100
AcDbDimension
  2
*D15
 10
-475.25768433235658
 20
-766.94289791756103
 30
0.0
 11
-345.25768433235658
 21
-766.94289791756103
 31
0.0
 71
               5
 72
               1
 41
1.0
 42
0.0
  3
tfrom線あり
100
AcDbAlignedDimension
 13
-215.25768433235663
 23
-666.94289791756091
 33
0.0
 14
-475.25768433235658
 24
-666.94289791756091
 34
0.0
100
AcDbRotatedDimension
1001
ACAD
1000
DSTYLE
1002
{
1070
             279
1070
               2
1070
             340
1005
38
1070
             147
1040
5.0
1002
}
  0
DIMENSION
  5
17F
100
AcDbEntity
  8
notes
370
               5
390
0
  6
Continuous
 62
               7
100
AcDbDimension
  2
*D16
 10
562.33654271378487
 20
-766.94289791756103
 30
0.0
 11
599.83654271378487
 21
-766.94289791756103
 31
0.0
 71
               5
 72
               1
 41
1.0
 42
0.0
  3
tfrom線あり
100
AcDbAlignedDimension
 13
637.33654271378487
 23
-644.44289791756114
 33
0.0
 14
562.33654271378487
 24
-644.44289791756114
 34
0.0
100
AcDbRotatedDimension
1001
ACAD
1000
DSTYLE
1002
{
1070
             279
1070
               2
1070
             340
1005
38
1070
             147
1040
5.0
1002
}
  0
DIMENSION
  5
180
100
AcDbEntity
  8
notes
370
               5
390
0
  6
Continuous
 62
               7
100
AcDbDimension
  2
*D17
 10
-575.25768433235658
 20
433.05710208243886
 30
0.0
 11
-372.75768433235658
 21
433.05710208243886
 31
0.0
 71
               5
 72
               1
 41
1.0
 42
0.0
  3
tfrom線あり
100
AcDbAlignedDimension
 13
-170.25768433235658
 23
328.05710208243886
 33
0.0
 14
-575.25768433235658
 24
328.05710208243886
 34
0.0
100
AcDbRotatedDimension
1001
ACAD
1000
DSTYLE
1002
{
1070
             279
1070
               2
1070
             340
1005
38
1070
             147
1040
5.0
1002
}
  0
DIMENSION
  5
181
100
AcDbEntity
  8
notes
370
               5
390
0
  6
Continuous
 62
               7
100
AcDbDimension
  2
*D18
 10
537.36315932297498
 20
694.23738373619835
 30
0.0
 11
599.86315932297498
 21
694.23738373619835
 31
0.0
 71
               5
 72
               1
 41
1.0
 42
0.0
  3
tfrom線あり
100
AcDbAlignedDimension
 13
662.36315932297498
 23
799.23738373619835
 33
0.0
 14
537.36315932297498
 24
799.23738373619835
 34
0.0
100
AcDbRotatedDimension
1001
ACAD
1000
DSTYLE
1002
{
1070
             279
1070
               2
1070
             340
1005
38
1070
             147
1040
5.0
1002
}
  0
DIMENSION
  5
182
100
AcDbEntity
  8
notes
370
               5
390
0
  6
Continuous
 62
               7
100
AcDbDimension
  2
*D19
 10
537.36315932297498
 20
483.05710208243886
 30
0.0
 11
628.86315932297498
 21
483.05710208243886
 31
0.0
 71
               5
 72
               1
 41
1.0
 42
0.0
  3
tfrom線あり
100
AcDbAlignedDimension
 13
720.36315932297498
 23
-41.953877838261064
 33
0.0
 14
537.36315932297498
 24
328.05710208243886
 34
0.0
100
AcDbRotatedDimension
1001
ACAD
1000
DSTYLE
1002
{
1070
             279
1070
               2
1070
             340
1005
38
1070
             147
1040
5.0
1002
}
  0
DIMENSION
  5
183
100
AcDbEntity
  8
notes
370
               5
390
0
  6
Continuous
 62
               7
100
AcDbDimension
  2
*D20
 10
-725.25768433235635
 20
333.05710208243886
 30
0.0
 11
-730.25768433235635
 21
-166.94289791756091
 31
0.0
 70
             128
 71
               5
 72
               1
 41
1.0
 42
0.0
  3
tfrom線あり
100
AcDbAlignedDimension
 13
-570.25768433235635
 23
-666.94289791756091
 33
0.0
 14
-570.25768433235635
 24
333.05710208243886
 34
0.0
 50
90.0
100
AcDbRotatedDimension
1001
ACAD
1000
DSTYLE
1002
{
1070
             271
1070
               2
1070
             279
1070
               2
1070
             340
1005
38
1070
             147
1040
5.0
1002
}
  0
DIMENSION
  5
184
100
AcDbEntity
  8
notes
370
               5
390
0
  6
Continuous
 62
               7
100
AcDbDimension
  2
*D21
 10
780.63167002217483
 20
1199.2373837361988
 30
0.0
 11
780.63167002217483
 21
1111.7373837361986
 31
0.0
 71
               5
 72
               1
 41
1.0
 42
0.0
  3
tfrom線あり
100
AcDbAlignedDimension
 13
680.59954838255203
 23
1024.2373837361981
 33
0.0
 14
658.86315932297498
 24
1199.2373837361988
 34
0.0
 50
90.0
100
AcDbRotatedDimension
1001
ACAD
1000
DSTYLE
1002
{
1070
             279
1070
               2
1070
             340
1005
38
1070
             147
1040
5.0
1002
}
  0
DIMENSION
  5
185
100
AcDbEntity
  8
notes
370
               5
390
0
  6
Continuous
 62
               7
100
AcDbDimension
  2
*D22
 10
-539.56382917920405
 20
-177.86691822241721
 30
0.0
 11
-340.2576843323568
 21
-71.494225146160829
 31
0.0
 70
               3
 71
               5
 72
               1
 41
1.0
 42
0.0
  3
tfrom線あり
100
AcDbDiametricDimension
 15
-510.95153948550853
 25
-156.01887761270478
 35
0.0
 40
139.27507473793358
1001
ACAD
1000
DSTYLE
1002
{
1070
             289
1070
               0
1070
             342
1005
4B
1070
             340
1005
38
1070
              73
1070
               1
1070
              74
1070
               1
1070
              75
1070
               1
1070
              76
1070
               1
1070
               3
1000

1070
             174
1070
               0
1070
             147
1040
5.0
1002
}
  0
LINE
  5
186
100
AcDbEntity
  8
FAN70-1306
370
              15
390
0
  6
STYLE_05
 62
               7
100
AcDbLine
 10
670.97501721407457
 20
-200.04858794986114
 30
0.0
 11
680.63929941677475
 21
-191.9261158573612
 31
0.0
  0
LINE
  5
187
100
AcDbEntity
  8
FAN70-1306
370
              15
390
0
  6
STYLE_05
 62
               7
100
AcDbLine
 10
680.63929941677475
 20
-141.95967997786101
 30
0.0
 11
670.95454301857467
 21
-133.81999704416103
 31
0.0
  0
POLYLINE
  5
188
100
AcDbEntity
  8
FAN70-1306
370
              15
390
0
  6
Continuous
 62
               7
100
AcDb2dPolyline
 66
               1
 10
0.0
 20
0.0
 30
0.0
 75
               5
  0
VERTEX
  5
189
100
AcDbEntity
  8
FAN70-1306
370
              15
390
0
  6
Continuous
 62
               7
100
AcDbVertex
100
AcDb2dVertex
 10
662.36315932297498
 20
-245.53817111426122
 30
0.0
  0
VERTEX
  5
18A
100
AcDbEntity
  8
FAN70-1306
370
              15
390
0
  6
Continuous
 62
               7
100
AcDbVertex
100
AcDb2dVertex
 10
664.19121887707456
 20
-238.53853690796097
 30
0.0
  0
VERTEX
  5
18B
100
AcDbEntity
  8
FAN70-1306
370
              15
390
0
  6
Continuous
 62
               7
100
AcDbVertex
100
AcDb2dVertex
 10
666.32506515997488
 20
-229.14644304096112
 30
0.0
  0
VERTEX
  5
18C
100
AcDbEntity
  8
FAN70-1306
370
              15
390
0
  6
Continuous
 62
               7
100
AcDbVertex
100
AcDb2dVertex
 10
668.18163063547468
 20
-219.55959099706115
 30
0.0
  0
VERTEX
  5
18D
100
AcDbEntity
  8
FAN70-1306
370
              15
390
0
  6
Continuous
 62
               7
100
AcDbVertex
100
AcDb2dVertex
 10
669.72513761537471
 20
-209.92683220086099
 30
0.0
  0
VERTEX
  5
18E
100
AcDbEntity
  8
FAN70-1306
370
              15
390
0
  6
Continuous
 62
               7
100
AcDbVertex
100
AcDb2dVertex
 10
670.95648016947484
 20
-200.24481016576101
 30
0.0
  0
VERTEX
  5
18F
100
AcDbEntity
  8
FAN70-1306
370
              15
390
0
  6
Continuous
 62
               7
100
AcDbVertex
100
AcDb2dVertex
 10
670.97501721407457
 20
-200.04858794986114
 30
0.0
  0
SEQEND
  5
190
100
AcDbEntity
  8
FAN70-1306
370
              15
390
0
  6
Continuous
 62
               7
  0
POLYLINE
  5
191
100
AcDbEntity
  8
FAN70-1306
370
              15
390
0
  6
Continuous
 62
               7
100
AcDb2dPolyline
 66
               1
 10
0.0
 20
0.0
 30
0.0
 75
               5
  0
VERTEX
  5
192
100
AcDbEntity
  8
FAN70-1306
370
              15
390
0
  6
Continuous
 62
               7
100
AcDbVertex
100
AcDb2dVertex
 10
670.95454301857467
 20
-133.81999704416103
 30
0.0
  0
VERTEX
  5
193
100
AcDbEntity
  8
FAN70-1306
370
              15
390
0
  6
Continuous
 62
               7
100
AcDbVertex
100
AcDb2dVertex
 10
669.98791959307459
 20
-125.829789521061
 30
0.0
  0
VERTEX
  5
194
100
AcDbEntity
  8
FAN70-1306
370
              15
390
0
  6
Continuous
 62
               7
100
AcDbVertex
100
AcDb2dVertex
 10
668.50622262977481
 20
-116.19544375116118
 30
0.0
  0
VERTEX
  5
195
100
AcDbEntity
  8
FAN70-1306
370
              15
390
0
  6
Continuous
 62
               7
100
AcDbVertex
100
AcDb2dVertex
 10
666.71373214747496
 20
-106.61517056996104
 30
0.0
  0
VERTEX
  5
196
100
AcDbEntity
  8
FAN70-1306
370
              15
390
0
  6
Continuous
 62
               7
100
AcDbVertex
100
AcDb2dVertex
 10
664.61052265187459
 20
-97.088206292961218
 30
0.0
  0
VERTEX
  5
197
100
AcDbEntity
  8
FAN70-1306
370
              15
390
0
  6
Continuous
 62
               7
100
AcDbVertex
100
AcDb2dVertex
 10
662.36315932297498
 20
-88.274579228761013
 30
0.0
  0
SEQEND
  5
198
100
AcDbEntity
  8
FAN70-1306
370
              15
390
0
  6
Continuous
 62
               7
  0
LINE
  5
199
100
AcDbEntity
  8
FAN70-1306
370
              15
390
0
  6
Continuous
 62
               7
100
AcDbLine
 10
662.36315932297498
 20
-661.94289791756114
 30
0.0
 11
662.36315932297498
 21
-663.44289791756091
 31
0.0
  0
ARC
  5
19A
100
AcDbEntity
  8
FAN70-1306
370
              15
390
0
  6
Continuous
 62
               7
100
AcDbCircle
 10
658.86315932297452
 20
-663.44289791756091
 30
0.0
 40
3.5
100
AcDbArc
 50
270.0
 51
0.0
  0
LINE
  5
19B
100
AcDbEntity
  8
FAN70-1306
370
              15
390
0
  6
Continuous
 62
               7
100
AcDbLine
 10
658.86315932297452
 20
-666.94289791756091
 30
0.0
 11
540.86315932297498
 21
-666.94289791756091
 31
0.0
  0
ARC
  5
19C
100
AcDbEntity
  8
FAN70-1306
370
              15
390
0
  6
Continuous
 62
               7
100
AcDbCircle
 10
540.86315932297452
 20
-663.44289791756091
 30
0.0
 40
3.5
100
AcDbArc
 50
180.0
 51
270.0
  0
LINE
  5
19D
100
AcDbEntity
  8
FAN70-1306
370
              15
390
0
  6
Continuous
 62
               7
100
AcDbLine
 10
537.36315932297498
 20
-663.44289791756091
 30
0.0
 11
537.36315932297498
 21
-661.94289791756114
 31
0.0
  0
LINE
  5
19E
100
AcDbEntity
  8
FAN70-1306
370
              15
390
0
  6
Continuous
 62
               7
100
AcDbLine
 10
537.36315932297498
 20
-661.94289791756114
 30
0.0
 11
537.36315932297498
 21
328.05710208243886
 31
0.0
  0
LINE
  5
19F
100
AcDbEntity
  8
FAN70-1306
370
              15
390
0
  6
Continuous
 62
               7
100
AcDbLine
 10
662.36315932297498
 20
328.05710208243886
 30
0.0
 11
662.36315932297498
 21
-661.94289791756114
 31
0.0
  0
LINE
  5
1A0
100
AcDbEntity
  8
FAN70-1306
370
              15
390
0
  6
Continuous
 62
               7
100
AcDbLine
 10
537.36315932297498
 20
329.55710208243886
 30
0.0
 11
537.36315932297498
 21
328.05710208243886
 31
0.0
  0
ARC
  5
1A1
100
AcDbEntity
  8
FAN70-1306
370
              15
390
0
  6
Continuous
 62
               7
100
AcDbCircle
 10
540.86315932297498
 20
329.55710208243886
 30
0.0
 40
3.5
100
AcDbArc
 50
90.0
 51
180.0
  0
LINE
  5
1A2
100
AcDbEntity
  8
FAN70-1306
370
              15
390
0
  6
Continuous
 62
               7
100
AcDbLine
 10
658.86315932297452
 20
333.05710208243886
 30
0.0
 11
540.86315932297498
 21
333.05710208243886
 31
0.0
  0
ARC
  5
1A3
100
AcDbEntity
  8
FAN70-1306
370
              15
390
0
  6
Continuous
 62
               7
100
AcDbCircle
 10
658.86315932297452
 20
329.55710208243886
 30
0.0
 40
3.5
100
AcDbArc
 50
0.0
 51
90.0
  0
LINE
  5
1A4
100
AcDbEntity
  8
FAN70-1306
370
              15
390
0
  6
Continuous
 62
               7
100
AcDbLine
 10
662.36315932297498
 20
328.05710208243886
 30
0.0
 11
662.36315932297498
 21
329.55710208243886
 31
0.0
  0
POLYLINE
  5
1A5
100
AcDbEntity
  8
FAN70-1306
370
              15
390
0
  6
Continuous
 62
               7
100
AcDb2dPolyline
 66
               1
 10
0.0
 20
0.0
 30
0.0
 75
               5
  0
VERTEX
  5
1A6
100
AcDbEntity
  8
FAN70-1306
370
              15
390
0
  6
Continuous
 62
               7
100
AcDbVertex
100
AcDb2dVertex
 10
-234.97306857725658
 20
82.012485979238818
 30
0.0
  0
VERTEX
  5
1A7
100
AcDbEntity
  8
FAN70-1306
370
              15
390
0
  6
Continuous
 62
               7
100
AcDbVertex
100
AcDb2dVertex
 10
-232.14530501975656
 20
81.744741914938913
 30
0.0
  0
VERTEX
  5
1A8
100
AcDbEntity
  8
FAN70-1306
370
              15
390
0
  6
Continuous
 62
               7
100
AcDbVertex
100
AcDb2dVertex
 10
-229.41377316135657
 20
80.963399527739057
 30
0.0
  0
VERTEX
  5
1A9
100
AcDbEntity
  8
FAN70-1306
370
              15
390
0
  6
Continuous
 62
               7
100
AcDbVertex
100
AcDb2dVertex
 10
-226.84466395995656
 20
79.697441576138999
 30
0.0
  0
VERTEX
  5
1AA
100
AcDbEntity
  8
FAN70-1306
370
              15
390
0
  6
Continuous
 62
               7
100
AcDbVertex
100
AcDb2dVertex
 10
-224.5133474888566
 20
78.031432150038995
 30
0.0
  0
VERTEX
  5
1AB
100
AcDbEntity
  8
FAN70-1306
370
              15
390
0
  6
Continuous
 62
               7
100
AcDbVertex
100
AcDb2dVertex
 10
-222.30377350465659
 20
75.869482277038969
 30
0.0
  0
VERTEX
  5
1AC
100
AcDbEntity
  8
FAN70-1306
370
              15
390
0
  6
Continuous
 62
               7
100
AcDbVertex
100
AcDb2dVertex
 10
-220.41883621825656
 20
73.4178389293387
 30
0.0
  0
VERTEX
  5
1AD
100
AcDbEntity
  8
FAN70-1306
370
              15
390
0
  6
Continuous
 62
               7
100
AcDbVertex
100
AcDb2dVertex
 10
-218.20216928145652
 20
69.375302909038965
 30
0.0
  0
VERTEX
  5
1AE
100
AcDbEntity
  8
FAN70-1306
370
              15
390
0
  6
Continuous
 62
               7
100
AcDbVertex
100
AcDb2dVertex
 10
-216.65164385455665
 20
65.029304741038914
 30
0.0
  0
VERTEX
  5
1AF
100
AcDbEntity
  8
FAN70-1306
370
              15
390
0
  6
Continuous
 62
               7
100
AcDbVertex
100
AcDb2dVertex
 10
-215.79211507455653
 20
61.011862276238958
 30
0.0
  0
VERTEX
  5
1B0
100
AcDbEntity
  8
FAN70-1306
370
              15
390
0
  6
Continuous
 62
               7
100
AcDbVertex
100
AcDb2dVertex
 10
-215.38754854815653
 20
56.922864435338965
 30
0.0
  0
VERTEX
  5
1B1
100
AcDbEntity
  8
FAN70-1306
370
              15
390
0
  6
Continuous
 62
               7
100
AcDbVertex
100
AcDb2dVertex
 10
-215.34692798275665
 20
55.035244939938934
 30
0.0
  0
SEQEND
  5
1B2
100
AcDbEntity
  8
FAN70-1306
370
              15
390
0
  6
Continuous
 62
               7
  0
POLYLINE
  5
1B3
100
AcDbEntity
  8
FAN70-1306
370
              15
390
0
  6
Continuous
 62
               7
100
AcDb2dPolyline
 66
               1
 10
0.0
 20
0.0
 30
0.0
 75
               5
  0
VERTEX
  5
1B4
100
AcDbEntity
  8
FAN70-1306
370
              15
390
0
  6
Continuous
 62
               7
100
AcDbVertex
100
AcDb2dVertex
 10
-218.01101718565661
 20
-166.94289791756103
 30
0.0
  0
VERTEX
  5
1B5
100
AcDbEntity
  8
FAN70-1306
370
              15
390
0
  6
Continuous
 62
               7
100
AcDbVertex
100
AcDb2dVertex
 10
-218.0105999531566
 20
-163.86669963956115
 30
0.0
  0
VERTEX
  5
1B6
100
AcDbEntity
  8
FAN70-1306
370
              15
390
0
  6
Continuous
 62
               7
100
AcDbVertex
100
AcDb2dVertex
 10
-217.98750315325657
 20
-144.1793029325612
 30
0.0
  0
VERTEX
  5
1B7
100
AcDbEntity
  8
FAN70-1306
370
              15
390
0
  6
Continuous
 62
               7
100
AcDbVertex
100
AcDb2dVertex
 10
-217.92944822925659
 20
-124.52955517346118
 30
0.0
  0
VERTEX
  5
1B8
100
AcDbEntity
  8
FAN70-1306
370
              15
390
0
  6
Continuous
 62
               7
100
AcDbVertex
100
AcDb2dVertex
 10
-217.83709083215655
 20
-105.04926714476119
 30
0.0
  0
VERTEX
  5
1B9
100
AcDbEntity
  8
FAN70-1306
370
              15
390
0
  6
Continuous
 62
               7
100
AcDbVertex
100
AcDb2dVertex
 10
-217.71099720615661
 20
-85.87024706776117
 30
0.0
  0
VERTEX
  5
1BA
100
AcDbEntity
  8
FAN70-1306
370
              15
390
0
  6
Continuous
 62
               7
100
AcDbVertex
100
AcDb2dVertex
 10
-217.55185280455663
 20
-67.124310614461024
 30
0.0
  0
VERTEX
  5
1BB
100
AcDbEntity
  8
FAN70-1306
370
              15
390
0
  6
Continuous
 62
               7
100
AcDbVertex
100
AcDb2dVertex
 10
-217.3831716598566
 20
-50.894032897361058
 30
0.0
  0
VERTEX
  5
1BC
100
AcDbEntity
  8
FAN70-1306
370
              15
390
0
  6
Continuous
 62
               7
100
AcDbVertex
100
AcDb2dVertex
 10
-217.18915854115659
 20
-35.048249842461018
 30
0.0
  0
VERTEX
  5
1BD
100
AcDbEntity
  8
FAN70-1306
370
              15
390
0
  6
Continuous
 62
               7
100
AcDbVertex
100
AcDb2dVertex
 10
-216.9708565296566
 20
-19.669759752160985
 30
0.0
  0
VERTEX
  5
1BE
100
AcDbEntity
  8
FAN70-1306
370
              15
390
0
  6
Continuous
 62
               7
100
AcDbVertex
100
AcDb2dVertex
 10
-216.72942791595659
 20
-4.8413162248612025
 30
0.0
  0
VERTEX
  5
1BF
100
AcDbEntity
  8
FAN70-1306
370
              15
390
0
  6
Continuous
 62
               7
100
AcDbVertex
100
AcDb2dVertex
 10
-216.42496739045652
 20
11.421617386938806
 30
0.0
  0
VERTEX
  5
1C0
100
AcDbEntity
  8
FAN70-1306
370
              15
390
0
  6
Continuous
 62
               7
100
AcDbVertex
100
AcDb2dVertex
 10
-216.09144960065652
 20
26.891034362938967
 30
0.0
  0
VERTEX
  5
1C1
100
AcDbEntity
  8
FAN70-1306
370
              15
390
0
  6
Continuous
 62
               7
100
AcDbVertex
100
AcDb2dVertex
 10
-215.73128853455665
 20
41.463416336238765
 30
0.0
  0
VERTEX
  5
1C2
100
AcDbEntity
  8
FAN70-1306
370
              15
390
0
  6
Continuous
 62
               7
100
AcDbVertex
100
AcDb2dVertex
 10
-215.34692798275665
 20
55.035244939938934
 30
0.0
  0
SEQEND
  5
1C3
100
AcDbEntity
  8
FAN70-1306
370
              15
390
0
  6
Continuous
 62
               7
  0
POLYLINE
  5
1C4
100
AcDbEntity
  8
FAN70-1306
370
              15
390
0
  6
Continuous
 62
               7
100
AcDb2dPolyline
 66
               1
 10
0.0
 20
0.0
 30
0.0
 75
               5
  0
VERTEX
  5
1C5
100
AcDbEntity
  8
FAN70-1306
370
              15
390
0
  6
Continuous
 62
               7
100
AcDbVertex
100
AcDb2dVertex
 10
-234.97306857725658
 20
82.012485979238818
 30
0.0
  0
VERTEX
  5
1C6
100
AcDbEntity
  8
FAN70-1306
370
              15
390
0
  6
Continuous
 62
               7
100
AcDbVertex
100
AcDb2dVertex
 10
-235.20901356355654
 20
71.106847642038815
 30
0.0
  0
VERTEX
  5
1C7
100
AcDbEntity
  8
FAN70-1306
370
              15
390
0
  6
Continuous
 62
               7
100
AcDbVertex
100
AcDb2dVertex
 10
-235.43464694635662
 20
59.433218358138788
 30
0.0
  0
VERTEX
  5
1C8
100
AcDbEntity
  8
FAN70-1306
370
              15
390
0
  6
Continuous
 62
               7
100
AcDbVertex
100
AcDb2dVertex
 10
-235.64907465595655
 20
47.049369929438967
 30
0.0
  0
VERTEX
  5
1C9
100
AcDbEntity
  8
FAN70-1306
370
              15
390
0
  6
Continuous
 62
               7
100
AcDbVertex
100
AcDb2dVertex
 10
-235.8513132156566
 20
34.013074157839014
 30
0.0
  0
VERTEX
  5
1CA
100
AcDbEntity
  8
FAN70-1306
370
              15
390
0
  6
Continuous
 62
               7
100
AcDbVertex
100
AcDb2dVertex
 10
-236.04040895125655
 20
20.382102845338977
 30
0.0
  0
VERTEX
  5
1CB
100
AcDbEntity
  8
FAN70-1306
370
              15
390
0
  6
Continuous
 62
               7
100
AcDbVertex
100
AcDb2dVertex
 10
-236.21546779295664
 20
6.2142277938389725
 30
0.0
  0
VERTEX
  5
1CC
100
AcDbEntity
  8
FAN70-1306
370
              15
390
0
  6
Continuous
 62
               7
100
AcDbVertex
100
AcDb2dVertex
 10
-236.38799343725663
 20
-9.626600624861112
 30
0.0
  0
VERTEX
  5
1CD
100
AcDbEntity
  8
FAN70-1306
370
              15
390
0
  6
Continuous
 62
               7
100
AcDbVertex
100
AcDb2dVertex
 10
-236.54400859495655
 20
-26.054743410961123
 30
0.0
  0
VERTEX
  5
1CE
100
AcDbEntity
  8
FAN70-1306
370
              15
390
0
  6
Continuous
 62
               7
100
AcDbVertex
100
AcDb2dVertex
 10
-236.68273840565661
 20
-42.981732370261057
 30
0.0
  0
VERTEX
  5
1CF
100
AcDbEntity
  8
FAN70-1306
370
              15
390
0
  6
Continuous
 62
               7
100
AcDbVertex
100
AcDb2dVertex
 10
-236.80334840435654
 20
-60.319106759361148
 30
0.0
  0
VERTEX
  5
1D0
100
AcDbEntity
  8
FAN70-1306
370
              15
390
0
  6
Continuous
 62
               7
100
AcDbVertex
100
AcDb2dVertex
 10
-236.90598760265658
 20
-78.121412278961202
 30
0.0
  0
VERTEX
  5
1D1
100
AcDbEntity
  8
FAN70-1306
370
              15
390
0
  6
Continuous
 62
               7
100
AcDbVertex
100
AcDb2dVertex
 10
-236.98988114015657
 20
-96.258070053461211
 30
0.0
  0
VERTEX
  5
1D2
100
AcDbEntity
  8
FAN70-1306
370
              15
390
0
  6
Continuous
 62
               7
100
AcDbVertex
100
AcDb2dVertex
 10
-237.05452237745664
 20
-114.63170844496096
 30
0.0
  0
VERTEX
  5
1D3
100
AcDbEntity
  8
FAN70-1306
370
              15
390
0
  6
Continuous
 62
               7
100
AcDbVertex
100
AcDb2dVertex
 10
-237.09737811705662
 20
-131.9730204659611
 30
0.0
  0
VERTEX
  5
1D4
100
AcDbEntity
  8
FAN70-1306
370
              15
390
0
  6
Continuous
 62
               7
100
AcDbVertex
100
AcDb2dVertex
 10
-237.12315712585661
 20
-149.43740303986112
 30
0.0
  0
VERTEX
  5
1D5
100
AcDbEntity
  8
FAN70-1306
370
              15
390
0
  6
Continuous
 62
               7
100
AcDbVertex
100
AcDb2dVertex
 10
-237.13176999705655
 20
-166.94289791756103
 30
0.0
  0
SEQEND
  5
1D6
100
AcDbEntity
  8
FAN70-1306
370
              15
390
0
  6
Continuous
 62
               7
  0
POLYLINE
  5
1D7
100
AcDbEntity
  8
FAN70-1306
370
              15
390
0
  6
Continuous
 62
               7
100
AcDb2dPolyline
 66
               1
 10
0.0
 20
0.0
 30
0.0
 75
               5
  0
VERTEX
  5
1D8
100
AcDbEntity
  8
FAN70-1306
370
              15
390
0
  6
Continuous
 62
               7
100
AcDbVertex
100
AcDb2dVertex
 10
-218.01101718565661
 20
-166.94289791756103
 30
0.0
  0
VERTEX
  5
1D9
100
AcDbEntity
  8
FAN70-1306
370
              15
390
0
  6
Continuous
 62
               7
100
AcDbVertex
100
AcDb2dVertex
 10
-218.0105999531566
 20
-170.01909619556102
 30
0.0
  0
VERTEX
  5
1DA
100
AcDbEntity
  8
FAN70-1306
370
              15
390
0
  6
Continuous
 62
               7
100
AcDbVertex
100
AcDb2dVertex
 10
-217.98750315325657
 20
-189.70649290266113
 30
0.0
  0
VERTEX
  5
1DB
100
AcDbEntity
  8
FAN70-1306
370
              15
390
0
  6
Continuous
 62
               7
100
AcDbVertex
100
AcDb2dVertex
 10
-217.92944822925659
 20
-209.35624066176103
 30
0.0
  0
VERTEX
  5
1DC
100
AcDbEntity
  8
FAN70-1306
370
              15
390
0
  6
Continuous
 62
               7
100
AcDbVertex
100
AcDb2dVertex
 10
-217.83709083215655
 20
-228.83652869046102
 30
0.0
  0
VERTEX
  5
1DD
100
AcDbEntity
  8
FAN70-1306
370
              15
390
0
  6
Continuous
 62
               7
100
AcDbVertex
100
AcDb2dVertex
 10
-217.71099720615661
 20
-248.01554876746104
 30
0.0
  0
VERTEX
  5
1DE
100
AcDbEntity
  8
FAN70-1306
370
              15
390
0
  6
Continuous
 62
               7
100
AcDbVertex
100
AcDb2dVertex
 10
-217.55185280455663
 20
-266.76148522076107
 30
0.0
  0
VERTEX
  5
1DF
100
AcDbEntity
  8
FAN70-1306
370
              15
390
0
  6
Continuous
 62
               7
100
AcDbVertex
100
AcDb2dVertex
 10
-217.3831716598566
 20
-282.99176293786104
 30
0.0
  0
VERTEX
  5
1E0
100
AcDbEntity
  8
FAN70-1306
370
              15
390
0
  6
Continuous
 62
               7
100
AcDbVertex
100
AcDb2dVertex
 10
-217.18915854115659
 20
-298.83754599266103
 30
0.0
  0
VERTEX
  5
1E1
100
AcDbEntity
  8
FAN70-1306
370
              15
390
0
  6
Continuous
 62
               7
100
AcDbVertex
100
AcDb2dVertex
 10
-216.9708565296566
 20
-314.21603608306111
 30
0.0
  0
VERTEX
  5
1E2
100
AcDbEntity
  8
FAN70-1306
370
              15
390
0
  6
Continuous
 62
               7
100
AcDbVertex
100
AcDb2dVertex
 10
-216.72942791595659
 20
-329.04447961026096
 30
0.0
  0
VERTEX
  5
1E3
100
AcDbEntity
  8
FAN70-1306
370
              15
390
0
  6
Continuous
 62
               7
100
AcDbVertex
100
AcDb2dVertex
 10
-216.42496739045652
 20
-345.30741322216102
 30
0.0
  0
VERTEX
  5
1E4
100
AcDbEntity
  8
FAN70-1306
370
              15
390
0
  6
Continuous
 62
               7
100
AcDbVertex
100
AcDb2dVertex
 10
-216.09144960065652
 20
-360.77683019816118
 30
0.0
  0
VERTEX
  5
1E5
100
AcDbEntity
  8
FAN70-1306
370
              15
390
0
  6
Continuous
 62
               7
100
AcDbVertex
100
AcDb2dVertex
 10
-215.73128853455665
 20
-375.34921217136105
 30
0.0
  0
VERTEX
  5
1E6
100
AcDbEntity
  8
FAN70-1306
370
              15
390
0
  6
Continuous
 62
               7
100
AcDbVertex
100
AcDb2dVertex
 10
-215.34692798275665
 20
-388.92104077516115
 30
0.0
  0
SEQEND
  5
1E7
100
AcDbEntity
  8
FAN70-1306
370
              15
390
0
  6
Continuous
 62
               7
  0
POLYLINE
  5
1E8
100
AcDbEntity
  8
FAN70-1306
370
              15
390
0
  6
Continuous
 62
               7
100
AcDb2dPolyline
 66
               1
 10
0.0
 20
0.0
 30
0.0
 75
               5
  0
VERTEX
  5
1E9
100
AcDbEntity
  8
FAN70-1306
370
              15
390
0
  6
Continuous
 62
               7
100
AcDbVertex
100
AcDb2dVertex
 10
-234.97306857725658
 20
-416.9592542198186
 30
0.0
  0
VERTEX
  5
1EA
100
AcDbEntity
  8
FAN70-1306
370
              15
390
0
  6
Continuous
 62
               7
100
AcDbVertex
100
AcDb2dVertex
 10
-232.14530501975656
 20
-416.68098020301863
 30
0.0
  0
VERTEX
  5
1EB
100
AcDbEntity
  8
FAN70-1306
370
              15
390
0
  6
Continuous
 62
               7
100
AcDbVertex
100
AcDb2dVertex
 10
-229.41377316135657
 20
-415.86890885021569
 30
0.0
  0
VERTEX
  5
1EC
100
AcDbEntity
  8
FAN70-1306
370
              15
390
0
  6
Continuous
 62
               7
100
AcDbVertex
100
AcDb2dVertex
 10
-226.84466395995656
 20
-414.55316276615883
 30
0.0
  0
VERTEX
  5
1ED
100
AcDbEntity
  8
FAN70-1306
370
              15
390
0
  6
Continuous
 62
               7
100
AcDbVertex
100
AcDb2dVertex
 10
-224.5133474888566
 20
-412.82163181302121
 30
0.0
  0
VERTEX
  5
1EE
100
AcDbEntity
  8
FAN70-1306
370
              15
390
0
  6
Continuous
 62
               7
100
AcDbVertex
100
AcDb2dVertex
 10
-222.30377350465659
 20
-410.57465585623174
 30
0.0
  0
VERTEX
  5
1EF
100
AcDbEntity
  8
FAN70-1306
370
              15
390
0
  6
Continuous
 62
               7
100
AcDbVertex
100
AcDb2dVertex
 10
-220.41883621825656
 20
-408.02659323660157
 30
0.0
  0
VERTEX
  5
1F0
100
AcDbEntity
  8
FAN70-1306
370
              15
390
0
  6
Continuous
 62
               7
100
AcDbVertex
100
AcDb2dVertex
 10
-218.20216928145652
 20
-403.82507064095273
 30
0.0
  0
VERTEX
  5
1F1
100
AcDbEntity
  8
FAN70-1306
370
              15
390
0
  6
Continuous
 62
               7
100
AcDbVertex
100
AcDb2dVertex
 10
-216.65164385455665
 20
-399.30815120923774
 30
0.0
  0
VERTEX
  5
1F2
100
AcDbEntity
  8
FAN70-1306
370
              15
390
0
  6
Continuous
 62
               7
100
AcDbVertex
100
AcDb2dVertex
 10
-215.79211507455653
 20
-395.13270905910827
 30
0.0
  0
VERTEX
  5
1F3
100
AcDbEntity
  8
FAN70-1306
370
              15
390
0
  6
Continuous
 62
               7
100
AcDbVertex
100
AcDb2dVertex
 10
-215.38754854815653
 20
-390.88289737262483
 30
0.0
  0
VERTEX
  5
1F4
100
AcDbEntity
  8
FAN70-1306
370
              15
390
0
  6
Continuous
 62
               7
100
AcDbVertex
100
AcDb2dVertex
 10
-215.34692798275665
 20
-388.92104077516115
 30
0.0
  0
SEQEND
  5
1F5
100
AcDbEntity
  8
FAN70-1306
370
              15
390
0
  6
Continuous
 62
               7
  0
POLYLINE
  5
1F6
100
AcDbEntity
  8
FAN70-1306
370
              15
390
0
  6
Continuous
 62
               7
100
AcDb2dPolyline
 66
               1
 10
0.0
 20
0.0
 30
0.0
 75
               5
  0
VERTEX
  5
1F7
100
AcDbEntity
  8
FAN70-1306
370
              15
390
0
  6
Continuous
 62
               7
100
AcDbVertex
100
AcDb2dVertex
 10
-234.97306857725658
 20
-415.89828181446114
 30
0.0
  0
VERTEX
  5
1F8
100
AcDbEntity
  8
FAN70-1306
370
              15
390
0
  6
Continuous
 62
               7
100
AcDbVertex
100
AcDb2dVertex
 10
-235.20901356355654
 20
-404.99264347726103
 30
0.0
  0
VERTEX
  5
1F9
100
AcDbEntity
  8
FAN70-1306
370
              15
390
0
  6
Continuous
 62
               7
100
AcDbVertex
100
AcDb2dVertex
 10
-235.43464694635662
 20
-393.31901419336111
 30
0.0
  0
VERTEX
  5
1FA
100
AcDbEntity
  8
FAN70-1306
370
              15
390
0
  6
Continuous
 62
               7
100
AcDbVertex
100
AcDb2dVertex
 10
-235.64907465595655
 20
-380.93516576466106
 30
0.0
  0
VERTEX
  5
1FB
100
AcDbEntity
  8
FAN70-1306
370
              15
390
0
  6
Continuous
 62
               7
100
AcDbVertex
100
AcDb2dVertex
 10
-235.8513132156566
 20
-367.89886999306111
 30
0.0
  0
VERTEX
  5
1FC
100
AcDbEntity
  8
FAN70-1306
370
              15
390
0
  6
Continuous
 62
               7
100
AcDbVertex
100
AcDb2dVertex
 10
-236.04040895125655
 20
-354.26789868056096
 30
0.0
  0
VERTEX
  5
1FD
100
AcDbEntity
  8
FAN70-1306
370
              15
390
0
  6
Continuous
 62
               7
100
AcDbVertex
100
AcDb2dVertex
 10
-236.21546779295664
 20
-340.10002362906107
 30
0.0
  0
VERTEX
  5
1FE
100
AcDbEntity
  8
FAN70-1306
370
              15
390
0
  6
Continuous
 62
               7
100
AcDbVertex
100
AcDb2dVertex
 10
-236.38799343725663
 20
-324.2591952103611
 30
0.0
  0
VERTEX
  5
1FF
100
AcDbEntity
  8
FAN70-1306
370
              15
390
0
  6
Continuous
 62
               7
100
AcDbVertex
100
AcDb2dVertex
 10
-236.54400859495655
 20
-307.83105242426097
 30
0.0
  0
VERTEX
  5
200
100
AcDbEntity
  8
FAN70-1306
370
              15
390
0
  6
Continuous
 62
               7
100
AcDbVertex
100
AcDb2dVertex
 10
-236.68273840565661
 20
-290.90406346496104
 30
0.0
  0
VERTEX
  5
201
100
AcDbEntity
  8
FAN70-1306
370
              15
390
0
  6
Continuous
 62
               7
100
AcDbVertex
100
AcDb2dVertex
 10
-236.80334840435654
 20
-273.56668907576102
 30
0.0
  0
VERTEX
  5
202
100
AcDbEntity
  8
FAN70-1306
370
              15
390
0
  6
Continuous
 62
               7
100
AcDbVertex
100
AcDb2dVertex
 10
-236.90598760265658
 20
-255.76438355626112
 30
0.0
  0
VERTEX
  5
203
100
AcDbEntity
  8
FAN70-1306
370
              15
390
0
  6
Continuous
 62
               7
100
AcDbVertex
100
AcDb2dVertex
 10
-236.98988114015657
 20
-237.627725781761
 30
0.0
  0
VERTEX
  5
204
100
AcDbEntity
  8
FAN70-1306
370
              15
390
0
  6
Continuous
 62
               7
100
AcDbVertex
100
AcDb2dVertex
 10
-237.05452237745664
 20
-219.25408739026113
 30
0.0
  0
VERTEX
  5
205
100
AcDbEntity
  8
FAN70-1306
370
              15
390
0
  6
Continuous
 62
               7
100
AcDbVertex
100
AcDb2dVertex
 10
-237.09737811705662
 20
-201.912775369261
 30
0.0
  0
VERTEX
  5
206
100
AcDbEntity
  8
FAN70-1306
370
              15
390
0
  6
Continuous
 62
               7
100
AcDbVertex
100
AcDb2dVertex
 10
-237.12315712585661
 20
-184.44839279526116
 30
0.0
  0
VERTEX
  5
207
100
AcDbEntity
  8
FAN70-1306
370
              15
390
0
  6
Continuous
 62
               7
100
AcDbVertex
100
AcDb2dVertex
 10
-237.13176999705655
 20
-166.94289791756103
 30
0.0
  0
SEQEND
  5
208
100
AcDbEntity
  8
FAN70-1306
370
              15
390
0
  6
Continuous
 62
               7
  0
POLYLINE
  5
209
100
AcDbEntity
  8
FAN70-1306
370
              15
390
0
  6
Continuous
 62
               7
100
AcDb2dPolyline
 66
               1
 10
0.0
 20
0.0
 30
0.0
 75
               5
  0
VERTEX
  5
20A
100
AcDbEntity
  8
FAN70-1306
370
              15
390
0
  6
Continuous
 62
               7
100
AcDbVertex
100
AcDb2dVertex
 10
-450.39446209095649
 20
-166.94289791756103
 30
0.0
  0
VERTEX
  5
20B
100
AcDbEntity
  8
FAN70-1306
370
              15
390
0
  6
Continuous
 62
               7
100
AcDbVertex
100
AcDb2dVertex
 10
-450.39504323615643
 20
-169.94409911696107
 30
0.0
  0
VERTEX
  5
20C
100
AcDbEntity
  8
FAN70-1306
370
              15
390
0
  6
Continuous
 62
               7
100
AcDbVertex
100
AcDb2dVertex
 10
-450.42994920625665
 20
-190.14101262566101
 30
0.0
  0
VERTEX
  5
20D
100
AcDbEntity
  8
FAN70-1306
370
              15
390
0
  6
Continuous
 62
               7
100
AcDbVertex
100
AcDb2dVertex
 10
-450.5182981910566
 20
-210.30007648646119
 30
0.0
  0
VERTEX
  5
20E
100
AcDbEntity
  8
FAN70-1306
370
              15
390
0
  6
Continuous
 62
               7
100
AcDbVertex
100
AcDb2dVertex
 10
-450.65917376895663
 20
-230.28610247546123
 30
0.0
  0
VERTEX
  5
20F
100
AcDbEntity
  8
FAN70-1306
370
              15
390
0
  6
Continuous
 62
               7
100
AcDbVertex
100
AcDb2dVertex
 10
-450.85163716695661
 20
-249.96390539586105
 30
0.0
  0
VERTEX
  5
210
100
AcDbEntity
  8
FAN70-1306
370
              15
390
0
  6
Continuous
 62
               7
100
AcDbVertex
100
AcDb2dVertex
 10
-451.09476451295632
 20
-269.19827956136101
 30
0.0
  0
VERTEX
  5
211
100
AcDbEntity
  8
FAN70-1306
370
              15
390
0
  6
Continuous
 62
               7
100
AcDbVertex
100
AcDb2dVertex
 10
-451.30045269145648
 20
-282.71568167386101
 30
0.0
  0
VERTEX
  5
212
100
AcDbEntity
  8
FAN70-1306
370
              15
390
0
  6
Continuous
 62
               7
100
AcDbVertex
100
AcDb2dVertex
 10
-451.53155480045643
 20
-295.97095000916113
 30
0.0
  0
VERTEX
  5
213
100
AcDbEntity
  8
FAN70-1306
370
              15
390
0
  6
Continuous
 62
               7
100
AcDbVertex
100
AcDb2dVertex
 10
-451.7872587265565
 20
-308.91760039506096
 30
0.0
  0
VERTEX
  5
214
100
AcDbEntity
  8
FAN70-1306
370
              15
390
0
  6
Continuous
 62
               7
100
AcDbVertex
100
AcDb2dVertex
 10
-452.15326104775659
 20
-325.13398277936096
 30
0.0
  0
VERTEX
  5
215
100
AcDbEntity
  8
FAN70-1306
370
              15
390
0
  6
Continuous
 62
               7
100
AcDbVertex
100
AcDb2dVertex
 10
-452.55895261185651
 20
-340.76474952876106
 30
0.0
  0
VERTEX
  5
216
100
AcDbEntity
  8
FAN70-1306
370
              15
390
0
  6
Continuous
 62
               7
100
AcDbVertex
100
AcDb2dVertex
 10
-453.00188217775667
 20
-355.72013604816107
 30
0.0
  0
VERTEX
  5
217
100
AcDbEntity
  8
FAN70-1306
370
              15
390
0
  6
Continuous
 62
               7
100
AcDbVertex
100
AcDb2dVertex
 10
-453.47959105385644
 20
-369.91037774266113
 30
0.0
  0
VERTEX
  5
218
100
AcDbEntity
  8
FAN70-1306
370
              15
390
0
  6
Continuous
 62
               7
100
AcDbVertex
100
AcDb2dVertex
 10
-453.96142010115659
 20
-382.56387758436097
 30
0.0
  0
VERTEX
  5
219
100
AcDbEntity
  8
FAN70-1306
370
              15
390
0
  6
Continuous
 62
               7
100
AcDbVertex
100
AcDb2dVertex
 10
-454.47249267715665
 20
-394.48877024826106
 30
0.0
  0
VERTEX
  5
21A
100
AcDbEntity
  8
FAN70-1306
370
              15
390
0
  6
Continuous
 62
               7
100
AcDbVertex
100
AcDb2dVertex
 10
-455.01000736375659
 20
-405.62427389796119
 30
0.0
  0
VERTEX
  5
21B
100
AcDbEntity
  8
FAN70-1306
370
              15
390
0
  6
Continuous
 62
               7
100
AcDbVertex
100
AcDb2dVertex
 10
-455.57117019315638
 20
-415.909591795761
 30
0.0
  0
SEQEND
  5
21C
100
AcDbEntity
  8
FAN70-1306
370
              15
390
0
  6
Continuous
 62
               7
  0
POLYLINE
  5
21D
100
AcDbEntity
  8
FAN70-1306
370
              15
390
0
  6
Continuous
 62
               7
100
AcDb2dPolyline
 66
               1
 10
0.0
 20
0.0
 30
0.0
 75
               5
  0
VERTEX
  5
21E
100
AcDbEntity
  8
FAN70-1306
370
              15
390
0
  6
Continuous
 62
               7
100
AcDbVertex
100
AcDb2dVertex
 10
-475.13972525015652
 20
-390.5516003387612
 30
0.0
  0
VERTEX
  5
21F
100
AcDbEntity
  8
FAN70-1306
370
              15
390
0
  6
Continuous
 62
               7
100
AcDbVertex
100
AcDb2dVertex
 10
-474.73509166855661
 20
-395.92194903076108
 30
0.0
  0
VERTEX
  5
220
100
AcDbEntity
  8
FAN70-1306
370
              15
390
0
  6
Continuous
 62
               7
100
AcDbVertex
100
AcDb2dVertex
 10
-473.45624421255661
 20
-401.15018534836111
 30
0.0
  0
VERTEX
  5
221
100
AcDbEntity
  8
FAN70-1306
370
              15
390
0
  6
Continuous
 62
               7
100
AcDbVertex
100
AcDb2dVertex
 10
-471.83254663365665
 20
-404.95705950436115
 30
0.0
  0
VERTEX
  5
222
100
AcDbEntity
  8
FAN70-1306
370
              15
390
0
  6
Continuous
 62
               7
100
AcDbVertex
100
AcDb2dVertex
 10
-469.62465648075636
 20
-408.45452594936114
 30
0.0
  0
VERTEX
  5
223
100
AcDbEntity
  8
FAN70-1306
370
              15
390
0
  6
Continuous
 62
               7
100
AcDbVertex
100
AcDb2dVertex
 10
-467.36269746445646
 20
-410.98593521296118
 30
0.0
  0
VERTEX
  5
224
100
AcDbEntity
  8
FAN70-1306
370
              15
390
0
  6
Continuous
 62
               7
100
AcDbVertex
100
AcDb2dVertex
 10
-464.71353922505659
 20
-413.10564029396107
 30
0.0
  0
VERTEX
  5
225
100
AcDbEntity
  8
FAN70-1306
370
              15
390
0
  6
Continuous
 62
               7
100
AcDbVertex
100
AcDb2dVertex
 10
-463.09623424425649
 20
-414.05715394196113
 30
0.0
  0
VERTEX
  5
226
100
AcDbEntity
  8
FAN70-1306
370
              15
390
0
  6
Continuous
 62
               7
100
AcDbVertex
100
AcDb2dVertex
 10
-460.86708013435668
 20
-415.017042042561
 30
0.0
  0
VERTEX
  5
227
100
AcDbEntity
  8
FAN70-1306
370
              15
390
0
  6
Continuous
 62
               7
100
AcDbVertex
100
AcDb2dVertex
 10
-458.52202479265634
 20
-415.64151990586117
 30
0.0
  0
VERTEX
  5
228
100
AcDbEntity
  8
FAN70-1306
370
              15
390
0
  6
Continuous
 62
               7
100
AcDbVertex
100
AcDb2dVertex
 10
-455.57117019315638
 20
-415.909591795761
 30
0.0
  0
SEQEND
  5
229
100
AcDbEntity
  8
FAN70-1306
370
              15
390
0
  6
Continuous
 62
               7
  0
POLYLINE
  5
22A
100
AcDbEntity
  8
FAN70-1306
370
              15
390
0
  6
Continuous
 62
               7
100
AcDb2dPolyline
 66
               1
 10
0.0
 20
0.0
 30
0.0
 75
               5
  0
VERTEX
  5
22B
100
AcDbEntity
  8
FAN70-1306
370
              15
390
0
  6
Continuous
 62
               7
100
AcDbVertex
100
AcDb2dVertex
 10
-475.13972525015652
 20
-390.5516003387612
 30
0.0
  0
VERTEX
  5
22C
100
AcDbEntity
  8
FAN70-1306
370
              15
390
0
  6
Continuous
 62
               7
100
AcDbVertex
100
AcDb2dVertex
 10
-474.67830334325663
 20
-379.93583429036119
 30
0.0
  0
VERTEX
  5
22D
100
AcDbEntity
  8
FAN70-1306
370
              15
390
0
  6
Continuous
 62
               7
100
AcDbVertex
100
AcDb2dVertex
 10
-474.23979197165636
 20
-368.52701354206113
 30
0.0
  0
VERTEX
  5
22E
100
AcDbEntity
  8
FAN70-1306
370
              15
390
0
  6
Continuous
 62
               7
100
AcDbVertex
100
AcDb2dVertex
 10
-473.8266051234566
 20
-356.38872134866108
 30
0.0
  0
VERTEX
  5
22F
100
AcDbEntity
  8
FAN70-1306
370
              15
390
0
  6
Continuous
 62
               7
100
AcDbVertex
100
AcDb2dVertex
 10
-473.42859510795643
 20
-343.14500141316103
 30
0.0
  0
VERTEX
  5
230
100
AcDbEntity
  8
FAN70-1306
370
              15
390
0
  6
Continuous
 62
               7
100
AcDbVertex
100
AcDb2dVertex
 10
-473.05952314755655
 20
-329.18726253686111
 30
0.0
  0
VERTEX
  5
231
100
AcDbEntity
  8
FAN70-1306
370
              15
390
0
  6
Continuous
 62
               7
100
AcDbVertex
100
AcDb2dVertex
 10
-472.72143070115635
 20
-314.59929394896096
 30
0.0
  0
VERTEX
  5
232
100
AcDbEntity
  8
FAN70-1306
370
              15
390
0
  6
Continuous
 62
               7
100
AcDbVertex
100
AcDb2dVertex
 10
-472.41636667865646
 20
-299.46486997776105
 30
0.0
  0
VERTEX
  5
233
100
AcDbEntity
  8
FAN70-1306
370
              15
390
0
  6
Continuous
 62
               7
100
AcDbVertex
100
AcDb2dVertex
 10
-472.20317576545654
 20
-287.38067645006117
 30
0.0
  0
VERTEX
  5
234
100
AcDbEntity
  8
FAN70-1306
370
              15
390
0
  6
Continuous
 62
               7
100
AcDbVertex
100
AcDb2dVertex
 10
-472.01047394885632
 20
-275.00845837766099
 30
0.0
  0
VERTEX
  5
235
100
AcDbEntity
  8
FAN70-1306
370
              15
390
0
  6
Continuous
 62
               7
100
AcDbVertex
100
AcDb2dVertex
 10
-471.83893178125663
 20
-262.39157068906104
 30
0.0
  0
VERTEX
  5
236
100
AcDbEntity
  8
FAN70-1306
370
              15
390
0
  6
Continuous
 62
               7
100
AcDbVertex
100
AcDb2dVertex
 10
-471.63083706515636
 20
-243.90244084776111
 30
0.0
  0
VERTEX
  5
237
100
AcDbEntity
  8
FAN70-1306
370
              15
390
0
  6
Continuous
 62
               7
100
AcDbVertex
100
AcDb2dVertex
 10
-471.46752778905648
 20
-224.97520569146104
 30
0.0
  0
VERTEX
  5
238
100
AcDbEntity
  8
FAN70-1306
370
              15
390
0
  6
Continuous
 62
               7
100
AcDbVertex
100
AcDb2dVertex
 10
-471.34983096735664
 20
-205.74767115886095
 30
0.0
  0
VERTEX
  5
239
100
AcDbEntity
  8
FAN70-1306
370
              15
390
0
  6
Continuous
 62
               7
100
AcDbVertex
100
AcDb2dVertex
 10
-471.27859596625649
 20
-186.35763387556108
 30
0.0
  0
VERTEX
  5
23A
100
AcDbEntity
  8
FAN70-1306
370
              15
390
0
  6
Continuous
 62
               7
100
AcDbVertex
100
AcDb2dVertex
 10
-471.25466470135643
 20
-166.94289791756103
 30
0.0
  0
SEQEND
  5
23B
100
AcDbEntity
  8
FAN70-1306
370
              15
390
0
  6
Continuous
 62
               7
  0
POLYLINE
  5
23C
100
AcDbEntity
  8
FAN70-1306
370
              15
390
0
  6
Continuous
 62
               7
100
AcDb2dPolyline
 66
               1
 10
0.0
 20
0.0
 30
0.0
 75
               5
  0
VERTEX
  5
23D
100
AcDbEntity
  8
FAN70-1306
370
              15
390
0
  6
Continuous
 62
               7
100
AcDbVertex
100
AcDb2dVertex
 10
-475.13972525015652
 20
56.66580450353888
 30
0.0
  0
VERTEX
  5
23E
100
AcDbEntity
  8
FAN70-1306
370
              15
390
0
  6
Continuous
 62
               7
100
AcDbVertex
100
AcDb2dVertex
 10
-474.73509166855661
 20
62.036153195538986
 30
0.0
  0
VERTEX
  5
23F
100
AcDbEntity
  8
FAN70-1306
370
              15
390
0
  6
Continuous
 62
               7
100
AcDbVertex
100
AcDb2dVertex
 10
-473.45624421255661
 20
67.264389513139008
 30
0.0
  0
VERTEX
  5
240
100
AcDbEntity
  8
FAN70-1306
370
              15
390
0
  6
Continuous
 62
               7
100
AcDbVertex
100
AcDb2dVertex
 10
-471.83254663365665
 20
71.071263669139057
 30
0.0
  0
VERTEX
  5
241
100
AcDbEntity
  8
FAN70-1306
370
              15
390
0
  6
Continuous
 62
               7
100
AcDbVertex
100
AcDb2dVertex
 10
-469.62465648075636
 20
74.568730114139044
 30
0.0
  0
VERTEX
  5
242
100
AcDbEntity
  8
FAN70-1306
370
              15
390
0
  6
Continuous
 62
               7
100
AcDbVertex
100
AcDb2dVertex
 10
-467.36269746445646
 20
77.100139377738969
 30
0.0
  0
VERTEX
  5
243
100
AcDbEntity
  8
FAN70-1306
370
              15
390
0
  6
Continuous
 62
               7
100
AcDbVertex
100
AcDb2dVertex
 10
-464.71353922505659
 20
79.219844458738976
 30
0.0
  0
VERTEX
  5
244
100
AcDbEntity
  8
FAN70-1306
370
              15
390
0
  6
Continuous
 62
               7
100
AcDbVertex
100
AcDb2dVertex
 10
-463.09623424425649
 20
80.171358106738808
 30
0.0
  0
VERTEX
  5
245
100
AcDbEntity
  8
FAN70-1306
370
              15
390
0
  6
Continuous
 62
               7
100
AcDbVertex
100
AcDb2dVertex
 10
-460.86708013435668
 20
81.131246207338791
 30
0.0
  0
VERTEX
  5
246
100
AcDbEntity
  8
FAN70-1306
370
              15
390
0
  6
Continuous
 62
               7
100
AcDbVertex
100
AcDb2dVertex
 10
-458.52202479265634
 20
81.755724070738893
 30
0.0
  0
VERTEX
  5
247
100
AcDbEntity
  8
FAN70-1306
370
              15
390
0
  6
Continuous
 62
               7
100
AcDbVertex
100
AcDb2dVertex
 10
-455.57117019315638
 20
82.023795960539019
 30
0.0
  0
SEQEND
  5
248
100
AcDbEntity
  8
FAN70-1306
370
              15
390
0
  6
Continuous
 62
               7
  0
POLYLINE
  5
249
100
AcDbEntity
  8
FAN70-1306
370
              15
390
0
  6
Continuous
 62
               7
100
AcDb2dPolyline
 66
               1
 10
0.0
 20
0.0
 30
0.0
 75
               5
  0
VERTEX
  5
24A
100
AcDbEntity
  8
FAN70-1306
370
              15
390
0
  6
Continuous
 62
               7
100
AcDbVertex
100
AcDb2dVertex
 10
-450.39446209095649
 20
-166.94289791756103
 30
0.0
  0
VERTEX
  5
24B
100
AcDbEntity
  8
FAN70-1306
370
              15
390
0
  6
Continuous
 62
               7
100
AcDbVertex
100
AcDb2dVertex
 10
-450.39504323615643
 20
-163.94169671826103
 30
0.0
  0
VERTEX
  5
24C
100
AcDbEntity
  8
FAN70-1306
370
              15
390
0
  6
Continuous
 62
               7
100
AcDbVertex
100
AcDb2dVertex
 10
-450.42994920625665
 20
-143.74478320956121
 30
0.0
  0
VERTEX
  5
24D
100
AcDbEntity
  8
FAN70-1306
370
              15
390
0
  6
Continuous
 62
               7
100
AcDbVertex
100
AcDb2dVertex
 10
-450.5182981910566
 20
-123.58571934876102
 30
0.0
  0
VERTEX
  5
24E
100
AcDbEntity
  8
FAN70-1306
370
              15
390
0
  6
Continuous
 62
               7
100
AcDbVertex
100
AcDb2dVertex
 10
-450.65917376895663
 20
-103.59969335966116
 30
0.0
  0
VERTEX
  5
24F
100
AcDbEntity
  8
FAN70-1306
370
              15
390
0
  6
Continuous
 62
               7
100
AcDbVertex
100
AcDb2dVertex
 10
-450.85163716695661
 20
-83.921890439361164
 30
0.0
  0
VERTEX
  5
250
100
AcDbEntity
  8
FAN70-1306
370
              15
390
0
  6
Continuous
 62
               7
100
AcDbVertex
100
AcDb2dVertex
 10
-451.09476451295632
 20
-64.687516273860979
 30
0.0
  0
VERTEX
  5
251
100
AcDbEntity
  8
FAN70-1306
370
              15
390
0
  6
Continuous
 62
               7
100
AcDbVertex
100
AcDb2dVertex
 10
-451.30045269145648
 20
-51.170114161360971
 30
0.0
  0
VERTEX
  5
252
100
AcDbEntity
  8
FAN70-1306
370
              15
390
0
  6
Continuous
 62
               7
100
AcDbVertex
100
AcDb2dVertex
 10
-451.53155480045643
 20
-37.914845825961152
 30
0.0
  0
VERTEX
  5
253
100
AcDbEntity
  8
FAN70-1306
370
              15
390
0
  6
Continuous
 62
               7
100
AcDbVertex
100
AcDb2dVertex
 10
-451.7872587265565
 20
-24.968195440161026
 30
0.0
  0
VERTEX
  5
254
100
AcDbEntity
  8
FAN70-1306
370
              15
390
0
  6
Continuous
 62
               7
100
AcDbVertex
100
AcDb2dVertex
 10
-452.15326104775659
 20
-8.751813055861021
 30
0.0
  0
VERTEX
  5
255
100
AcDbEntity
  8
FAN70-1306
370
              15
390
0
  6
Continuous
 62
               7
100
AcDbVertex
100
AcDb2dVertex
 10
-452.55895261185651
 20
6.8789536935389606
 30
0.0
  0
VERTEX
  5
256
100
AcDbEntity
  8
FAN70-1306
370
              15
390
0
  6
Continuous
 62
               7
100
AcDbVertex
100
AcDb2dVertex
 10
-453.00188217775667
 20
21.834340212938969
 30
0.0
  0
VERTEX
  5
257
100
AcDbEntity
  8
FAN70-1306
370
              15
390
0
  6
Continuous
 62
               7
100
AcDbVertex
100
AcDb2dVertex
 10
-453.47959105385644
 20
36.024581907438915
 30
0.0
  0
VERTEX
  5
258
100
AcDbEntity
  8
FAN70-1306
370
              15
390
0
  6
Continuous
 62
               7
100
AcDbVertex
100
AcDb2dVertex
 10
-453.96142010115659
 20
48.678081749138983
 30
0.0
  0
VERTEX
  5
259
100
AcDbEntity
  8
FAN70-1306
370
              15
390
0
  6
Continuous
 62
               7
100
AcDbVertex
100
AcDb2dVertex
 10
-454.47249267715665
 20
60.602974413038964
 30
0.0
  0
VERTEX
  5
25A
100
AcDbEntity
  8
FAN70-1306
370
              15
390
0
  6
Continuous
 62
               7
100
AcDbVertex
100
AcDb2dVertex
 10
-455.01000736375659
 20
71.738478062738977
 30
0.0
  0
VERTEX
  5
25B
100
AcDbEntity
  8
FAN70-1306
370
              15
390
0
  6
Continuous
 62
               7
100
AcDbVertex
100
AcDb2dVertex
 10
-455.57117019315638
 20
82.023795960539019
 30
0.0
  0
SEQEND
  5
25C
100
AcDbEntity
  8
FAN70-1306
370
              15
390
0
  6
Continuous
 62
               7
  0
POLYLINE
  5
25D
100
AcDbEntity
  8
FAN70-1306
370
              15
390
0
  6
Continuous
 62
               7
100
AcDb2dPolyline
 66
               1
 10
0.0
 20
0.0
 30
0.0
 75
               5
  0
VERTEX
  5
25E
100
AcDbEntity
  8
FAN70-1306
370
              15
390
0
  6
Continuous
 62
               7
100
AcDbVertex
100
AcDb2dVertex
 10
-475.13972525015652
 20
56.66580450353888
 30
0.0
  0
VERTEX
  5
25F
100
AcDbEntity
  8
FAN70-1306
370
              15
390
0
  6
Continuous
 62
               7
100
AcDbVertex
100
AcDb2dVertex
 10
-474.67830334325663
 20
46.050038455138747
 30
0.0
  0
VERTEX
  5
260
100
AcDbEntity
  8
FAN70-1306
370
              15
390
0
  6
Continuous
 62
               7
100
AcDbVertex
100
AcDb2dVertex
 10
-474.23979197165636
 20
34.641217706838802
 30
0.0
  0
VERTEX
  5
261
100
AcDbEntity
  8
FAN70-1306
370
              15
390
0
  6
Continuous
 62
               7
100
AcDbVertex
100
AcDb2dVertex
 10
-473.8266051234566
 20
22.502925513438981
 30
0.0
  0
VERTEX
  5
262
100
AcDbEntity
  8
FAN70-1306
370
              15
390
0
  6
Continuous
 62
               7
100
AcDbVertex
100
AcDb2dVertex
 10
-473.42859510795643
 20
9.2592055780389728
 30
0.0
  0
VERTEX
  5
263
100
AcDbEntity
  8
FAN70-1306
370
              15
390
0
  6
Continuous
 62
               7
100
AcDbVertex
100
AcDb2dVertex
 10
-473.05952314755655
 20
-4.6985332983612125
 30
0.0
  0
VERTEX
  5
264
100
AcDbEntity
  8
FAN70-1306
370
              15
390
0
  6
Continuous
 62
               7
100
AcDbVertex
100
AcDb2dVertex
 10
-472.72143070115635
 20
-19.286501886261021
 30
0.0
  0
VERTEX
  5
265
100
AcDbEntity
  8
FAN70-1306
370
              15
390
0
  6
Continuous
 62
               7
100
AcDbVertex
100
AcDb2dVertex
 10
-472.41636667865646
 20
-34.420925857361112
 30
0.0
  0
VERTEX
  5
266
100
AcDbEntity
  8
FAN70-1306
370
              15
390
0
  6
Continuous
 62
               7
100
AcDbVertex
100
AcDb2dVertex
 10
-472.20317576545654
 20
-46.505119385060993
 30
0.0
  0
VERTEX
  5
267
100
AcDbEntity
  8
FAN70-1306
370
              15
390
0
  6
Continuous
 62
               7
100
AcDbVertex
100
AcDb2dVertex
 10
-472.01047394885632
 20
-58.877337457560884
 30
0.0
  0
VERTEX
  5
268
100
AcDbEntity
  8
FAN70-1306
370
              15
390
0
  6
Continuous
 62
               7
100
AcDbVertex
100
AcDb2dVertex
 10
-471.83893178125663
 20
-71.494225146161057
 30
0.0
  0
VERTEX
  5
269
100
AcDbEntity
  8
FAN70-1306
370
              15
390
0
  6
Continuous
 62
               7
100
AcDbVertex
100
AcDb2dVertex
 10
-471.63083706515636
 20
-89.983354987460984
 30
0.0
  0
VERTEX
  5
26A
100
AcDbEntity
  8
FAN70-1306
370
              15
390
0
  6
Continuous
 62
               7
100
AcDbVertex
100
AcDb2dVertex
 10
-471.46752778905648
 20
-108.91059014376117
 30
0.0
  0
VERTEX
  5
26B
100
AcDbEntity
  8
FAN70-1306
370
              15
390
0
  6
Continuous
 62
               7
100
AcDbVertex
100
AcDb2dVertex
 10
-471.34983096735664
 20
-128.13812467636103
 30
0.0
  0
VERTEX
  5
26C
100
AcDbEntity
  8
FAN70-1306
370
              15
390
0
  6
Continuous
 62
               7
100
AcDbVertex
100
AcDb2dVertex
 10
-471.27859596625649
 20
-147.52816195966102
 30
0.0
  0
VERTEX
  5
26D
100
AcDbEntity
  8
FAN70-1306
370
              15
390
0
  6
Continuous
 62
               7
100
AcDbVertex
100
AcDb2dVertex
 10
-471.25466470135643
 20
-166.94289791756103
 30
0.0
  0
SEQEND
  5
26E
100
AcDbEntity
  8
FAN70-1306
370
              15
390
0
  6
Continuous
 62
               7
  0
LINE
  5
26F
100
AcDbEntity
  8
FAN70-1306
370
              15
390
0
  6
Continuous
 62
               7
100
AcDbLine
 10
-475.24075257157529
 20
56.841970130729578
 30
0.0
 11
-475.24075257157529
 21
-390.37543656297044
 31
0.0
  0
POLYLINE
  5
270
100
AcDbEntity
  8
FAN70-1306
370
              15
390
0
  6
Continuous
 62
               7
100
AcDb2dPolyline
 66
               1
 10
0.0
 20
0.0
 30
0.0
 75
               5
  0
VERTEX
  5
271
100
AcDbEntity
  8
FAN70-1306
370
              15
390
0
  6
Continuous
 62
               7
100
AcDbVertex
100
AcDb2dVertex
 10
-473.01870141645645
 20
-166.94289791756103
 30
0.0
  0
VERTEX
  5
272
100
AcDbEntity
  8
FAN70-1306
370
              15
390
0
  6
Continuous
 62
               7
100
AcDbVertex
100
AcDb2dVertex
 10
-473.02490029945648
 20
-169.82088304486115
 30
0.0
  0
VERTEX
  5
273
100
AcDbEntity
  8
FAN70-1306
370
              15
390
0
  6
Continuous
 62
               7
100
AcDbVertex
100
AcDb2dVertex
 10
-473.04341499225643
 20
-172.65524083176103
 30
0.0
  0
VERTEX
  5
274
100
AcDbEntity
  8
FAN70-1306
370
              15
390
0
  6
Continuous
 62
               7
100
AcDbVertex
100
AcDb2dVertex
 10
-473.07394747155649
 20
-175.40300610836107
 30
0.0
  0
VERTEX
  5
275
100
AcDbEntity
  8
FAN70-1306
370
              15
390
0
  6
Continuous
 62
               7
100
AcDbVertex
100
AcDb2dVertex
 10
-473.11605070255655
 20
-178.02252407546121
 30
0.0
  0
VERTEX
  5
276
100
AcDbEntity
  8
FAN70-1306
370
              15
390
0
  6
Continuous
 62
               7
100
AcDbVertex
100
AcDb2dVertex
 10
-473.16908393515655
 20
-180.47408546686108
 30
0.0
  0
VERTEX
  5
277
100
AcDbEntity
  8
FAN70-1306
370
              15
390
0
  6
Continuous
 62
               7
100
AcDbVertex
100
AcDb2dVertex
 10
-473.23223505635656
 20
-182.72052864906107
 30
0.0
  0
VERTEX
  5
278
100
AcDbEntity
  8
FAN70-1306
370
              15
390
0
  6
Continuous
 62
               7
100
AcDbVertex
100
AcDb2dVertex
 10
-473.30455784215656
 20
-184.72779888086109
 30
0.0
  0
VERTEX
  5
279
100
AcDbEntity
  8
FAN70-1306
370
              15
390
0
  6
Continuous
 62
               7
100
AcDbVertex
100
AcDb2dVertex
 10
-473.38494215625656
 20
-186.46546799116106
 30
0.0
  0
VERTEX
  5
27A
100
AcDbEntity
  8
FAN70-1306
370
              15
390
0
  6
Continuous
 62
               7
100
AcDbVertex
100
AcDb2dVertex
 10
-473.47218845505654
 20
-187.90719631486115
 30
0.0
  0
VERTEX
  5
27B
100
AcDbEntity
  8
FAN70-1306
370
              15
390
0
  6
Continuous
 62
               7
100
AcDbVertex
100
AcDb2dVertex
 10
-473.56495563405633
 20
-189.03112571116128
 30
0.0
  0
VERTEX
  5
27C
100
AcDbEntity
  8
FAN70-1306
370
              15
390
0
  6
Continuous
 62
               7
100
AcDbVertex
100
AcDb2dVertex
 10
-473.66184298415646
 20
-189.82022042746109
 30
0.0
  0
VERTEX
  5
27D
100
AcDbEntity
  8
FAN70-1306
370
              15
390
0
  6
Continuous
 62
               7
100
AcDbVertex
100
AcDb2dVertex
 10
-473.76139019145648
 20
-190.26251855666112
 30
0.0
  0
VERTEX
  5
27E
100
AcDbEntity
  8
FAN70-1306
370
              15
390
0
  6
Continuous
 62
               7
100
AcDbVertex
100
AcDb2dVertex
 10
-473.8620773376565
 20
-190.35131457626107
 30
0.0
  0
VERTEX
  5
27F
100
AcDbEntity
  8
FAN70-1306
370
              15
390
0
  6
Continuous
 62
               7
100
AcDbVertex
100
AcDb2dVertex
 10
-473.96238450425653
 20
-190.08526179366118
 30
0.0
  0
VERTEX
  5
280
100
AcDbEntity
  8
FAN70-1306
370
              15
390
0
  6
Continuous
 62
               7
100
AcDbVertex
100
AcDb2dVertex
 10
-474.06078432215645
 20
-189.46839656116117
 30
0.0
  0
VERTEX
  5
281
100
AcDbEntity
  8
FAN70-1306
370
              15
390
0
  6
Continuous
 62
               7
100
AcDbVertex
100
AcDb2dVertex
 10
-474.15579412595662
 20
-188.51006563186127
 30
0.0
  0
VERTEX
  5
282
100
AcDbEntity
  8
FAN70-1306
370
              15
390
0
  6
Continuous
 62
               7
100
AcDbVertex
100
AcDb2dVertex
 10
-474.24596850295643
 20
-187.22479950066099
 30
0.0
  0
VERTEX
  5
283
100
AcDbEntity
  8
FAN70-1306
370
              15
390
0
  6
Continuous
 62
               7
100
AcDbVertex
100
AcDb2dVertex
 10
-474.32994399685663
 20
-185.6320814358611
 30
0.0
  0
VERTEX
  5
284
100
AcDbEntity
  8
FAN70-1306
370
              15
390
0
  6
Continuous
 62
               7
100
AcDbVertex
100
AcDb2dVertex
 10
-474.40643910785661
 20
-183.75605318126111
 30
0.0
  0
VERTEX
  5
285
100
AcDbEntity
  8
FAN70-1306
370
              15
390
0
  6
Continuous
 62
               7
100
AcDbVertex
100
AcDb2dVertex
 10
-474.47430644645647
 20
-181.62515453426101
 30
0.0
  0
VERTEX
  5
286
100
AcDbEntity
  8
FAN70-1306
370
              15
390
0
  6
Continuous
 62
               7
100
AcDbVertex
100
AcDb2dVertex
 10
-474.53251038215649
 20
-179.27168841836112
 30
0.0
  0
VERTEX
  5
287
100
AcDbEntity
  8
FAN70-1306
370
              15
390
0
  6
Continuous
 62
               7
100
AcDbVertex
100
AcDb2dVertex
 10
-474.58016429565646
 20
-176.73133007616104
 30
0.0
  0
VERTEX
  5
288
100
AcDbEntity
  8
FAN70-1306
370
              15
390
0
  6
Continuous
 62
               7
100
AcDbVertex
100
AcDb2dVertex
 10
-474.61655293125659
 20
-174.04258923036116
 30
0.0
  0
VERTEX
  5
289
100
AcDbEntity
  8
FAN70-1306
370
              15
390
0
  6
Continuous
 62
               7
100
AcDbVertex
100
AcDb2dVertex
 10
-474.64112494605661
 20
-171.24622428216105
 30
0.0
  0
VERTEX
  5
28A
100
AcDbEntity
  8
FAN70-1306
370
              15
390
0
  6
Continuous
 62
               7
100
AcDbVertex
100
AcDb2dVertex
 10
-474.65350781105644
 20
-168.38462496076102
 30
0.0
  0
VERTEX
  5
28B
100
AcDbEntity
  8
FAN70-1306
370
              15
390
0
  6
Continuous
 62
               7
100
AcDbVertex
100
AcDb2dVertex
 10
-474.65350781105644
 20
-165.50117087446108
 30
0.0
  0
VERTEX
  5
28C
100
AcDbEntity
  8
FAN70-1306
370
              15
390
0
  6
Continuous
 62
               7
100
AcDbVertex
100
AcDb2dVertex
 10
-474.64112494605661
 20
-162.639571552961
 30
0.0
  0
VERTEX
  5
28D
100
AcDbEntity
  8
FAN70-1306
370
              15
390
0
  6
Continuous
 62
               7
100
AcDbVertex
100
AcDb2dVertex
 10
-474.61655293125659
 20
-159.84320660486105
 30
0.0
  0
VERTEX
  5
28E
100
AcDbEntity
  8
FAN70-1306
370
              15
390
0
  6
Continuous
 62
               7
100
AcDbVertex
100
AcDb2dVertex
 10
-474.58016429565646
 20
-157.15446575906128
 30
0.0
  0
VERTEX
  5
28F
100
AcDbEntity
  8
FAN70-1306
370
              15
390
0
  6
Continuous
 62
               7
100
AcDbVertex
100
AcDb2dVertex
 10
-474.53251038215649
 20
-154.61410741686097
 30
0.0
  0
VERTEX
  5
290
100
AcDbEntity
  8
FAN70-1306
370
              15
390
0
  6
Continuous
 62
               7
100
AcDbVertex
100
AcDb2dVertex
 10
-474.47430644645647
 20
-152.26064130096108
 30
0.0
  0
VERTEX
  5
291
100
AcDbEntity
  8
FAN70-1306
370
              15
390
0
  6
Continuous
 62
               7
100
AcDbVertex
100
AcDb2dVertex
 10
-474.40643910785661
 20
-150.12974265396099
 30
0.0
  0
VERTEX
  5
292
100
AcDbEntity
  8
FAN70-1306
370
              15
390
0
  6
Continuous
 62
               7
100
AcDbVertex
100
AcDb2dVertex
 10
-474.32994399685663
 20
-148.253714399361
 30
0.0
  0
VERTEX
  5
293
100
AcDbEntity
  8
FAN70-1306
370
              15
390
0
  6
Continuous
 62
               7
100
AcDbVertex
100
AcDb2dVertex
 10
-474.24596850295643
 20
-146.6609963345611
 30
0.0
  0
VERTEX
  5
294
100
AcDbEntity
  8
FAN70-1306
370
              15
390
0
  6
Continuous
 62
               7
100
AcDbVertex
100
AcDb2dVertex
 10
-474.15579412595662
 20
-145.37573020336106
 30
0.0
  0
VERTEX
  5
295
100
AcDbEntity
  8
FAN70-1306
370
              15
390
0
  6
Continuous
 62
               7
100
AcDbVertex
100
AcDb2dVertex
 10
-474.06078432215645
 20
-144.41739927406104
 30
0.0
  0
VERTEX
  5
296
100
AcDbEntity
  8
FAN70-1306
370
              15
390
0
  6
Continuous
 62
               7
100
AcDbVertex
100
AcDb2dVertex
 10
-473.96238450425653
 20
-143.80053404146099
 30
0.0
  0
VERTEX
  5
297
100
AcDbEntity
  8
FAN70-1306
370
              15
390
0
  6
Continuous
 62
               7
100
AcDbVertex
100
AcDb2dVertex
 10
-473.8620773376565
 20
-143.53448125896102
 30
0.0
  0
VERTEX
  5
298
100
AcDbEntity
  8
FAN70-1306
370
              15
390
0
  6
Continuous
 62
               7
100
AcDbVertex
100
AcDb2dVertex
 10
-473.76139019145648
 20
-143.62327727856098
 30
0.0
  0
VERTEX
  5
299
100
AcDbEntity
  8
FAN70-1306
370
              15
390
0
  6
Continuous
 62
               7
100
AcDbVertex
100
AcDb2dVertex
 10
-473.66184298415646
 20
-144.06557540776112
 30
0.0
  0
VERTEX
  5
29A
100
AcDbEntity
  8
FAN70-1306
370
              15
390
0
  6
Continuous
 62
               7
100
AcDbVertex
100
AcDb2dVertex
 10
-473.56495563405633
 20
-144.85467012406104
 30
0.0
  0
VERTEX
  5
29B
100
AcDbEntity
  8
FAN70-1306
370
              15
390
0
  6
Continuous
 62
               7
100
AcDbVertex
100
AcDb2dVertex
 10
-473.47218845505654
 20
-145.97859952026113
 30
0.0
  0
VERTEX
  5
29C
100
AcDbEntity
  8
FAN70-1306
370
              15
390
0
  6
Continuous
 62
               7
100
AcDbVertex
100
AcDb2dVertex
 10
-473.38494215625656
 20
-147.42032784396099
 30
0.0
  0
VERTEX
  5
29D
100
AcDbEntity
  8
FAN70-1306
370
              15
390
0
  6
Continuous
 62
               7
100
AcDbVertex
100
AcDb2dVertex
 10
-473.30455784215656
 20
-149.15799695426097
 30
0.0
  0
VERTEX
  5
29E
100
AcDbEntity
  8
FAN70-1306
370
              15
390
0
  6
Continuous
 62
               7
100
AcDbVertex
100
AcDb2dVertex
 10
-473.23223505635656
 20
-151.16526718616115
 30
0.0
  0
VERTEX
  5
29F
100
AcDbEntity
  8
FAN70-1306
370
              15
390
0
  6
Continuous
 62
               7
100
AcDbVertex
100
AcDb2dVertex
 10
-473.16908393515655
 20
-153.41171036836101
 30
0.0
  0
VERTEX
  5
2A0
100
AcDbEntity
  8
FAN70-1306
370
              15
390
0
  6
Continuous
 62
               7
100
AcDbVertex
100
AcDb2dVertex
 10
-473.11605070255655
 20
-155.86327175976123
 30
0.0
  0
VERTEX
  5
2A1
100
AcDbEntity
  8
FAN70-1306
370
              15
390
0
  6
Continuous
 62
               7
100
AcDbVertex
100
AcDb2dVertex
 10
-473.07394747155649
 20
-158.48278972686103
 30
0.0
  0
VERTEX
  5
2A2
100
AcDbEntity
  8
FAN70-1306
370
              15
390
0
  6
Continuous
 62
               7
100
AcDbVertex
100
AcDb2dVertex
 10
-473.04341499225643
 20
-161.23055500336125
 30
0.0
  0
VERTEX
  5
2A3
100
AcDbEntity
  8
FAN70-1306
370
              15
390
0
  6
Continuous
 62
               7
100
AcDbVertex
100
AcDb2dVertex
 10
-473.02490029945648
 20
-164.06491279036106
 30
0.0
  0
VERTEX
  5
2A4
100
AcDbEntity
  8
FAN70-1306
370
              15
390
0
  6
Continuous
 62
               7
100
AcDbVertex
100
AcDb2dVertex
 10
-473.01870141645645
 20
-166.94289791756103
 30
0.0
  0
SEQEND
  5
2A5
100
AcDbEntity
  8
FAN70-1306
370
              15
390
0
  6
Continuous
 62
               7
  0
LINE
  5
2A6
100
AcDbEntity
  8
FAN70-1306
370
              15
390
0
  6
Continuous
 62
               7
100
AcDbLine
 10
-215.34693592145658
 20
-388.9210349682611
 30
0.0
 11
-215.34693592145658
 21
55.035239133038999
 31
0.0
  0
POLYLINE
  5
2A7
100
AcDbEntity
  8
FAN70-1306
370
              15
390
0
  6
Continuous
 62
               7
100
AcDb2dPolyline
 66
               1
 10
0.0
 20
0.0
 30
0.0
 75
               5
  0
VERTEX
  5
2A8
100
AcDbEntity
  8
FAN70-1306
370
              15
390
0
  6
Continuous
 62
               7
100
AcDbVertex
100
AcDb2dVertex
 10
-455.56941185615665
 20
84.928062079538904
 30
0.0
  0
VERTEX
  5
2A9
100
AcDbEntity
  8
FAN70-1306
370
              15
390
0
  6
Continuous
 62
               7
100
AcDbVertex
100
AcDb2dVertex
 10
-455.56967262645639
 20
84.500935195138936
 30
0.0
  0
VERTEX
  5
2AA
100
AcDbEntity
  8
FAN70-1306
370
              15
390
0
  6
Continuous
 62
               7
100
AcDbVertex
100
AcDb2dVertex
 10
-455.56992594615645
 20
84.080186007638758
 30
0.0
  0
VERTEX
  5
2AB
100
AcDbEntity
  8
FAN70-1306
370
              15
390
0
  6
Continuous
 62
               7
100
AcDbVertex
100
AcDb2dVertex
 10
-455.57017181535639
 20
83.672132609538949
 30
0.0
  0
VERTEX
  5
2AC
100
AcDbEntity
  8
FAN70-1306
370
              15
390
0
  6
Continuous
 62
               7
100
AcDbVertex
100
AcDb2dVertex
 10
-455.57041023395664
 20
83.282824872138917
 30
0.0
  0
VERTEX
  5
2AD
100
AcDbEntity
  8
FAN70-1306
370
              15
390
0
  6
Continuous
 62
               7
100
AcDbVertex
100
AcDb2dVertex
 10
-455.57063375135658
 20
82.918133853139125
 30
0.0
  0
VERTEX
  5
2AE
100
AcDbEntity
  8
FAN70-1306
370
              15
390
0
  6
Continuous
 62
               7
100
AcDbVertex
100
AcDb2dVertex
 10
-455.57083491705635
 20
82.583483575038827
 30
0.0
  0
VERTEX
  5
2AF
100
AcDbEntity
  8
FAN70-1306
370
              15
390
0
  6
Continuous
 62
               7
100
AcDbVertex
100
AcDb2dVertex
 10
-455.57101373095657
 20
82.283880828039059
 30
0.0
  0
VERTEX
  5
2B0
100
AcDbEntity
  8
FAN70-1306
370
              15
390
0
  6
Continuous
 62
               7
100
AcDbVertex
100
AcDb2dVertex
 10
-455.57117019315638
 20
82.023795960539019
 30
0.0
  0
SEQEND
  5
2B1
100
AcDbEntity
  8
FAN70-1306
370
              15
390
0
  6
Continuous
 62
               7
  0
ARC
  5
2B2
100
AcDbEntity
  8
FAN70-1306
370
              15
390
0
  6
Continuous
 62
               7
100
AcDbCircle
 10
-570.25768433235635
 20
328.05710208243886
 30
0.0
 40
5.0
100
AcDbArc
 50
90.0
 51
180.0
  0
LINE
  5
2B3
100
AcDbEntity
  8
FAN70-1306
370
              15
390
0
  6
Continuous
 62
               7
100
AcDbLine
 10
-575.25768433235635
 20
-661.94289791756114
 30
0.0
 11
-575.25768433235635
 21
328.05710208243886
 31
0.0
  0
ARC
  5
2B4
100
AcDbEntity
  8
FAN70-1306
370
              15
390
0
  6
Continuous
 62
               7
100
AcDbCircle
 10
-570.25768433235658
 20
-661.94289791756114
 30
0.0
 40
5.0
100
AcDbArc
 50
180.0
 51
270.0
  0
CIRCLE
  5
2B5
100
AcDbEntity
  8
FAN70-1306
370
              15
390
0
  6
Continuous
 62
               7
100
AcDbCircle
 10
-525.25768433235635
 20
-166.94289791756091
 30
0.0
 40
18.0
  0
LINE
  5
2B6
100
AcDbEntity
  8
FAN70-1306
370
              15
390
0
  6
Continuous
 62
               7
100
AcDbLine
 10
-175.25768433235658
 20
333.05710208243886
 30
0.0
 11
-570.25768433235635
 21
333.05710208243886
 31
0.0
  0
LINE
  5
2B7
100
AcDbEntity
  8
FAN70-1306
370
              15
390
0
  6
Continuous
 62
               7
100
AcDbLine
 10
-175.25768433235658
 20
-666.94289791756091
 30
0.0
 11
-570.25768433235635
 21
-666.94289791756091
 31
0.0
  0
POLYLINE
  5
2B8
100
AcDbEntity
  8
FAN70-1306
370
              15
390
0
  6
Continuous
 62
               7
100
AcDb2dPolyline
 66
               1
 10
0.0
 20
0.0
 30
0.0
 75
               5
  0
VERTEX
  5
2B9
100
AcDbEntity
  8
FAN70-1306
370
              15
390
0
  6
Continuous
 62
               7
100
AcDbVertex
100
AcDb2dVertex
 10
-455.57117019315638
 20
-416.97056420111846
 30
0.0
  0
VERTEX
  5
2BA
100
AcDbEntity
  8
FAN70-1306
370
              15
390
0
  6
Continuous
 62
               7
100
AcDbVertex
100
AcDb2dVertex
 10
-448.57117090835641
 20
-416.96998305581849
 30
0.0
  0
VERTEX
  5
2BB
100
AcDbEntity
  8
FAN70-1306
370
              15
390
0
  6
Continuous
 62
               7
100
AcDbVertex
100
AcDb2dVertex
 10
-420.57118867055647
 20
-416.96783728861851
 30
0.0
  0
VERTEX
  5
2BC
100
AcDbEntity
  8
FAN70-1306
370
              15
390
0
  6
Continuous
 62
               7
100
AcDbVertex
100
AcDb2dVertex
 10
-308.57121501585647
 20
-416.96145959161856
 30
0.0
  0
VERTEX
  5
2BD
100
AcDbEntity
  8
FAN70-1306
370
              15
390
0
  6
Continuous
 62
               7
100
AcDbVertex
100
AcDb2dVertex
 10
-234.97306857725658
 20
-416.9592542198186
 30
0.0
  0
SEQEND
  5
2BE
100
AcDbEntity
  8
FAN70-1306
370
              15
390
0
  6
Continuous
 62
               7
  0
POLYLINE
  5
2BF
100
AcDbEntity
  8
FAN70-1306
370
              15
390
0
  6
Continuous
 62
               7
100
AcDb2dPolyline
 66
               1
 10
0.0
 20
0.0
 30
0.0
 75
               5
  0
VERTEX
  5
2C0
100
AcDbEntity
  8
FAN70-1306
370
              15
390
0
  6
Continuous
 62
               7
100
AcDbVertex
100
AcDb2dVertex
 10
-455.57117019315638
 20
83.046400770831724
 30
0.0
  0
VERTEX
  5
2C1
100
AcDbEntity
  8
FAN70-1306
370
              15
390
0
  6
Continuous
 62
               7
100
AcDbVertex
100
AcDb2dVertex
 10
-448.57117090835641
 20
83.045819625531749
 30
0.0
  0
VERTEX
  5
2C2
100
AcDbEntity
  8
FAN70-1306
370
              15
390
0
  6
Continuous
 62
               7
100
AcDbVertex
100
AcDb2dVertex
 10
-420.57118867055647
 20
83.043673858331772
 30
0.0
  0
VERTEX
  5
2C3
100
AcDbEntity
  8
FAN70-1306
370
              15
390
0
  6
Continuous
 62
               7
100
AcDbVertex
100
AcDb2dVertex
 10
-308.57121501585647
 20
83.037296161331597
 30
0.0
  0
VERTEX
  5
2C4
100
AcDbEntity
  8
FAN70-1306
370
              15
390
0
  6
Continuous
 62
               7
100
AcDbVertex
100
AcDb2dVertex
 10
-234.97306857725658
 20
83.035090789531523
 30
0.0
  0
SEQEND
  5
2C5
100
AcDbEntity
  8
FAN70-1306
370
              15
390
0
  6
Continuous
 62
               7
  0
ARC
  5
2C6
100
AcDbEntity
  8
FAN70-1306
370
              15
390
0
  6
Continuous
 62
               7
100
AcDbCircle
 10
-175.25768433235658
 20
-661.94289791756114
 30
0.0
 40
5.0
100
AcDbArc
 50
270.0
 51
0.0
  0
ARC
  5
2C7
100
AcDbEntity
  8
FAN70-1306
370
              15
390
0
  6
Continuous
 62
               7
100
AcDbCircle
 10
-175.25768433235658
 20
328.05710208243886
 30
0.0
 40
5.0
100
AcDbArc
 50
0.0
 51
90.0
  0
LINE
  5
2C8
100
AcDbEntity
  8
FAN70-1306
370
              15
390
0
  6
Continuous
 62
               7
100
AcDbLine
 10
-170.25768433235658
 20
328.05710208243886
 30
0.0
 11
-170.25768433235658
 21
-661.94289791756114
 31
0.0
  0
POLYLINE
  5
2C9
100
AcDbEntity
  8
FAN70-1306
370
              15
390
0
  6
Continuous
 62
               7
100
AcDb2dPolyline
 66
               1
 10
0.0
 20
0.0
 30
0.0
 75
               5
  0
VERTEX
  5
2CA
100
AcDbEntity
  8
FAN70-1306
370
              15
390
0
  6
Continuous
 62
               7
100
AcDbVertex
100
AcDb2dVertex
 10
-433.41528926505634
 20
-166.94289791756103
 30
0.0
  0
VERTEX
  5
2CB
100
AcDbEntity
  8
FAN70-1306
370
              15
390
0
  6
Continuous
 62
               7
100
AcDbVertex
100
AcDb2dVertex
 10
-433.06289170405648
 20
-161.9179004001611
 30
0.0
  0
VERTEX
  5
2CC
100
AcDbEntity
  8
FAN70-1306
370
              15
390
0
  6
Continuous
 62
               7
100
AcDbVertex
100
AcDb2dVertex
 10
-432.01744113585642
 20
-156.99287942976105
 30
0.0
  0
VERTEX
  5
2CD
100
AcDbEntity
  8
FAN70-1306
370
              15
390
0
  6
Continuous
 62
               7
100
AcDbVertex
100
AcDb2dVertex
 10
-429.87821553365643
 20
-151.39063048536104
 30
0.0
  0
VERTEX
  5
2CE
100
AcDbEntity
  8
FAN70-1306
370
              15
390
0
  6
Continuous
 62
               7
100
AcDbVertex
100
AcDb2dVertex
 10
-426.82648752345654
 20
-146.23783129626111
 30
0.0
  0
VERTEX
  5
2CF
100
AcDbEntity
  8
FAN70-1306
370
              15
390
0
  6
Continuous
 62
               7
100
AcDbVertex
100
AcDb2dVertex
 10
-422.99381945745654
 20
-141.77499498606107
 30
0.0
  0
VERTEX
  5
2D0
100
AcDbEntity
  8
FAN70-1306
370
              15
390
0
  6
Continuous
 62
               7
100
AcDbVertex
100
AcDb2dVertex
 10
-418.44349656715667
 20
-138.05261413926098
 30
0.0
  0
VERTEX
  5
2D1
100
AcDbEntity
  8
FAN70-1306
370
              15
390
0
  6
Continuous
 62
               7
100
AcDbVertex
100
AcDb2dVertex
 10
-413.51046715395665
 20
-135.31773883276117
 30
0.0
  0
VERTEX
  5
2D2
100
AcDbEntity
  8
FAN70-1306
370
              15
390
0
  6
Continuous
 62
               7
100
AcDbVertex
100
AcDb2dVertex
 10
-408.16968236585654
 20
-133.49296498476122
 30
0.0
  0
VERTEX
  5
2D3
100
AcDbEntity
  8
FAN70-1306
370
              15
390
0
  6
Continuous
 62
               7
100
AcDbVertex
100
AcDb2dVertex
 10
-402.87139568945662
 20
-132.68635022816102
 30
0.0
  0
VERTEX
  5
2D4
100
AcDbEntity
  8
FAN70-1306
370
              15
390
0
  6
Continuous
 62
               7
100
AcDbVertex
100
AcDb2dVertex
 10
-397.50839326995657
 20
-132.79712546046119
 30
0.0
  0
VERTEX
  5
2D5
100
AcDbEntity
  8
FAN70-1306
370
              15
390
0
  6
Continuous
 62
               7
100
AcDbVertex
100
AcDb2dVertex
 10
-392.39678834095656
 20
-133.79105153856119
 30
0.0
  0
VERTEX
  5
2D6
100
AcDbEntity
  8
FAN70-1306
370
              15
390
0
  6
Continuous
 62
               7
100
AcDbVertex
100
AcDb2dVertex
 10
-387.51476560255657
 20
-135.60826304736111
 30
0.0
  0
VERTEX
  5
2D7
100
AcDbEntity
  8
FAN70-1306
370
              15
390
0
  6
Continuous
 62
               7
100
AcDbVertex
100
AcDb2dVertex
 10
-382.94192705765664
 20
-138.2326369303612
 30
0.0
  0
VERTEX
  5
2D8
100
AcDbEntity
  8
FAN70-1306
370
              15
390
0
  6
Continuous
 62
               7
100
AcDbVertex
100
AcDb2dVertex
 10
-378.84531472345662
 20
-141.55191342706109
 30
0.0
  0
VERTEX
  5
2D9
100
AcDbEntity
  8
FAN70-1306
370
              15
390
0
  6
Continuous
 62
               7
100
AcDbVertex
100
AcDb2dVertex
 10
-375.18478487155647
 20
-145.65850022616121
 30
0.0
  0
VERTEX
  5
2DA
100
AcDbEntity
  8
FAN70-1306
370
              15
390
0
  6
Continuous
 62
               7
100
AcDbVertex
100
AcDb2dVertex
 10
-372.2239390434566
 20
-150.29595579386103
 30
0.0
  0
VERTEX
  5
2DB
100
AcDbEntity
  8
FAN70-1306
370
              15
390
0
  6
Continuous
 62
               7
100
AcDbVertex
100
AcDb2dVertex
 10
-369.94955990925649
 20
-155.59318914436096
 30
0.0
  0
VERTEX
  5
2DC
100
AcDbEntity
  8
FAN70-1306
370
              15
390
0
  6
Continuous
 62
               7
100
AcDbVertex
100
AcDb2dVertex
 10
-368.56038425585649
 20
-161.18967366766105
 30
0.0
  0
VERTEX
  5
2DD
100
AcDbEntity
  8
FAN70-1306
370
              15
390
0
  6
Continuous
 62
               7
100
AcDbVertex
100
AcDb2dVertex
 10
-368.09443984645662
 20
-166.94289791756103
 30
0.0
  0
SEQEND
  5
2DE
100
AcDbEntity
  8
FAN70-1306
370
              15
390
0
  6
Continuous
 62
               7
  0
POLYLINE
  5
2DF
100
AcDbEntity
  8
FAN70-1306
370
              15
390
0
  6
Continuous
 62
               7
100
AcDb2dPolyline
 66
               1
 10
0.0
 20
0.0
 30
0.0
 75
               5
  0
VERTEX
  5
2E0
100
AcDbEntity
  8
FAN70-1306
370
              15
390
0
  6
Continuous
 62
               7
100
AcDbVertex
100
AcDb2dVertex
 10
-433.41528926505634
 20
-166.94289791756103
 30
0.0
  0
VERTEX
  5
2E1
100
AcDbEntity
  8
FAN70-1306
370
              15
390
0
  6
Continuous
 62
               7
100
AcDbVertex
100
AcDb2dVertex
 10
-433.06289170405648
 20
-171.967895435061
 30
0.0
  0
VERTEX
  5
2E2
100
AcDbEntity
  8
FAN70-1306
370
              15
390
0
  6
Continuous
 62
               7
100
AcDbVertex
100
AcDb2dVertex
 10
-432.01744113585642
 20
-176.89291640546128
 30
0.0
  0
VERTEX
  5
2E3
100
AcDbEntity
  8
FAN70-1306
370
              15
390
0
  6
Continuous
 62
               7
100
AcDbVertex
100
AcDb2dVertex
 10
-429.87821553365643
 20
-182.49516534986105
 30
0.0
  0
VERTEX
  5
2E4
100
AcDbEntity
  8
FAN70-1306
370
              15
390
0
  6
Continuous
 62
               7
100
AcDbVertex
100
AcDb2dVertex
 10
-426.82648752345654
 20
-187.64796453886095
 30
0.0
  0
VERTEX
  5
2E5
100
AcDbEntity
  8
FAN70-1306
370
              15
390
0
  6
Continuous
 62
               7
100
AcDbVertex
100
AcDb2dVertex
 10
-422.99381945745654
 20
-192.11080084916114
 30
0.0
  0
VERTEX
  5
2E6
100
AcDbEntity
  8
FAN70-1306
370
              15
390
0
  6
Continuous
 62
               7
100
AcDbVertex
100
AcDb2dVertex
 10
-418.44349656715667
 20
-195.83318169596112
 30
0.0
  0
VERTEX
  5
2E7
100
AcDbEntity
  8
FAN70-1306
370
              15
390
0
  6
Continuous
 62
               7
100
AcDbVertex
100
AcDb2dVertex
 10
-413.51046715395665
 20
-198.56805700236112
 30
0.0
  0
VERTEX
  5
2E8
100
AcDbEntity
  8
FAN70-1306
370
              15
390
0
  6
Continuous
 62
               7
100
AcDbVertex
100
AcDb2dVertex
 10
-408.16968236585654
 20
-200.39283085046122
 30
0.0
  0
VERTEX
  5
2E9
100
AcDbEntity
  8
FAN70-1306
370
              15
390
0
  6
Continuous
 62
               7
100
AcDbVertex
100
AcDb2dVertex
 10
-402.87139568945662
 20
-201.19944560706108
 30
0.0
  0
VERTEX
  5
2EA
100
AcDbEntity
  8
FAN70-1306
370
              15
390
0
  6
Continuous
 62
               7
100
AcDbVertex
100
AcDb2dVertex
 10
-397.50839326995657
 20
-201.08867037476114
 30
0.0
  0
VERTEX
  5
2EB
100
AcDbEntity
  8
FAN70-1306
370
              15
390
0
  6
Continuous
 62
               7
100
AcDbVertex
100
AcDb2dVertex
 10
-392.39678834095656
 20
-200.09474429666113
 30
0.0
  0
VERTEX
  5
2EC
100
AcDbEntity
  8
FAN70-1306
370
              15
390
0
  6
Continuous
 62
               7
100
AcDbVertex
100
AcDb2dVertex
 10
-387.51476560255657
 20
-198.27753278786111
 30
0.0
  0
VERTEX
  5
2ED
100
AcDbEntity
  8
FAN70-1306
370
              15
390
0
  6
Continuous
 62
               7
100
AcDbVertex
100
AcDb2dVertex
 10
-382.94192705765664
 20
-195.65315890486113
 30
0.0
  0
VERTEX
  5
2EE
100
AcDbEntity
  8
FAN70-1306
370
              15
390
0
  6
Continuous
 62
               7
100
AcDbVertex
100
AcDb2dVertex
 10
-378.84531472345662
 20
-192.333882408161
 30
0.0
  0
VERTEX
  5
2EF
100
AcDbEntity
  8
FAN70-1306
370
              15
390
0
  6
Continuous
 62
               7
100
AcDbVertex
100
AcDb2dVertex
 10
-375.18478487155647
 20
-188.22729560906123
 30
0.0
  0
VERTEX
  5
2F0
100
AcDbEntity
  8
FAN70-1306
370
              15
390
0
  6
Continuous
 62
               7
100
AcDbVertex
100
AcDb2dVertex
 10
-372.2239390434566
 20
-183.58984004136107
 30
0.0
  0
VERTEX
  5
2F1
100
AcDbEntity
  8
FAN70-1306
370
              15
390
0
  6
Continuous
 62
               7
100
AcDbVertex
100
AcDb2dVertex
 10
-369.94955990925649
 20
-178.29260669076109
 30
0.0
  0
VERTEX
  5
2F2
100
AcDbEntity
  8
FAN70-1306
370
              15
390
0
  6
Continuous
 62
               7
100
AcDbVertex
100
AcDb2dVertex
 10
-368.56038425585649
 20
-172.69612216756116
 30
0.0
  0
VERTEX
  5
2F3
100
AcDbEntity
  8
FAN70-1306
370
              15
390
0
  6
Continuous
 62
               7
100
AcDbVertex
100
AcDb2dVertex
 10
-368.09443984645662
 20
-166.94289791756103
 30
0.0
  0
SEQEND
  5
2F4
100
AcDbEntity
  8
FAN70-1306
370
              15
390
0
  6
Continuous
 62
               7
  0
POLYLINE
  5
2F5
100
AcDbEntity
  8
FAN70-1306
370
              15
390
0
  6
Continuous
 62
               7
100
AcDb2dPolyline
 66
               1
 10
0.0
 20
0.0
 30
0.0
 75
               5
  0
VERTEX
  5
2F6
100
AcDbEntity
  8
FAN70-1306
370
              15
390
0
  6
Continuous
 62
               7
100
AcDbVertex
100
AcDb2dVertex
 10
-423.27320132865634
 20
-166.94289791756103
 30
0.0
  0
VERTEX
  5
2F7
100
AcDbEntity
  8
FAN70-1306
370
              15
390
0
  6
Continuous
 62
               7
100
AcDbVertex
100
AcDb2dVertex
 10
-423.09169028415636
 20
-169.83081234046097
 30
0.0
  0
VERTEX
  5
2F8
100
AcDbEntity
  8
FAN70-1306
370
              15
390
0
  6
Continuous
 62
               7
100
AcDbVertex
100
AcDb2dVertex
 10
-422.54998837135645
 20
-172.673182761161
 30
0.0
  0
VERTEX
  5
2F9
100
AcDbEntity
  8
FAN70-1306
370
              15
390
0
  6
Continuous
 62
               7
100
AcDbVertex
100
AcDb2dVertex
 10
-421.65666375775663
 20
-175.42518276156113
 30
0.0
  0
VERTEX
  5
2FA
100
AcDbEntity
  8
FAN70-1306
370
              15
390
0
  6
Continuous
 62
               7
100
AcDbVertex
100
AcDb2dVertex
 10
-420.42578313965646
 20
-178.04341270946099
 30
0.0
  0
VERTEX
  5
2FB
100
AcDbEntity
  8
FAN70-1306
370
              15
390
0
  6
Continuous
 62
               7
100
AcDbVertex
100
AcDb2dVertex
 10
-418.87677763125657
 20
-180.48658009046119
 30
0.0
  0
VERTEX
  5
2FC
100
AcDbEntity
  8
FAN70-1306
370
              15
390
0
  6
Continuous
 62
               7
100
AcDbVertex
100
AcDb2dVertex
 10
-417.03407023565666
 20
-182.71615702086103
 30
0.0
  0
VERTEX
  5
2FD
100
AcDbEntity
  8
FAN70-1306
370
              15
390
0
  6
Continuous
 62
               7
100
AcDbVertex
100
AcDb2dVertex
 10
-414.92671821735661
 20
-184.69697769166112
 30
0.0
  0
VERTEX
  5
2FE
100
AcDbEntity
  8
FAN70-1306
370
              15
390
0
  6
Continuous
 62
               7
100
AcDbVertex
100
AcDb2dVertex
 10
-412.58795116565653
 20
-186.39780740616118
 30
0.0
  0
VERTEX
  5
2FF
100
AcDbEntity
  8
FAN70-1306
370
              15
390
0
  6
Continuous
 62
               7
100
AcDbVertex
100
AcDb2dVertex
 10
-410.0546643556566
 20
-187.79182221176109
 30
0.0
  0
VERTEX
  5
300
100
AcDbEntity
  8
FAN70-1306
370
              15
390
0
  6
Continuous
 62
               7
100
AcDbVertex
100
AcDb2dVertex
 10
-407.36680780075659
 20
-188.85703730756097
 30
0.0
  0
VERTEX
  5
301
100
AcDbEntity
  8
FAN70-1306
370
              15
390
0
  6
Continuous
 62
               7
100
AcDbVertex
100
AcDb2dVertex
 10
-404.56676040305666
 20
-189.57665163456124
 30
0.0
  0
VERTEX
  5
302
100
AcDbEntity
  8
FAN70-1306
370
              15
390
0
  6
Continuous
 62
               7
100
AcDbVertex
100
AcDb2dVertex
 10
-401.69867430345647
 20
-189.93931982096103
 30
0.0
  0
VERTEX
  5
303
100
AcDbEntity
  8
FAN70-1306
370
              15
390
0
  6
Continuous
 62
               7
100
AcDbVertex
100
AcDb2dVertex
 10
-398.80780432835655
 20
-189.93931982096103
 30
0.0
  0
VERTEX
  5
304
100
AcDbEntity
  8
FAN70-1306
370
              15
390
0
  6
Continuous
 62
               7
100
AcDbVertex
100
AcDb2dVertex
 10
-395.93973312995655
 20
-189.57665163456124
 30
0.0
  0
VERTEX
  5
305
100
AcDbEntity
  8
FAN70-1306
370
              15
390
0
  6
Continuous
 62
               7
100
AcDbVertex
100
AcDb2dVertex
 10
-393.13968573235655
 20
-188.85703730756097
 30
0.0
  0
VERTEX
  5
306
100
AcDbEntity
  8
FAN70-1306
370
              15
390
0
  6
Continuous
 62
               7
100
AcDbVertex
100
AcDb2dVertex
 10
-390.45182917735661
 20
-187.79182221176109
 30
0.0
  0
VERTEX
  5
307
100
AcDbEntity
  8
FAN70-1306
370
              15
390
0
  6
Continuous
 62
               7
100
AcDbVertex
100
AcDb2dVertex
 10
-387.91852746625665
 20
-186.39780740616118
 30
0.0
  0
VERTEX
  5
308
100
AcDbEntity
  8
FAN70-1306
370
              15
390
0
  6
Continuous
 62
               7
100
AcDbVertex
100
AcDb2dVertex
 10
-385.57977531565649
 20
-184.69697769166112
 30
0.0
  0
VERTEX
  5
309
100
AcDbEntity
  8
FAN70-1306
370
              15
390
0
  6
Continuous
 62
               7
100
AcDbVertex
100
AcDb2dVertex
 10
-383.47242329735656
 20
-182.71615702086103
 30
0.0
  0
VERTEX
  5
30A
100
AcDbEntity
  8
FAN70-1306
370
              15
390
0
  6
Continuous
 62
               7
100
AcDbVertex
100
AcDb2dVertex
 10
-381.62970100065655
 20
-180.48658009046119
 30
0.0
  0
VERTEX
  5
30B
100
AcDbEntity
  8
FAN70-1306
370
              15
390
0
  6
Continuous
 62
               7
100
AcDbVertex
100
AcDb2dVertex
 10
-380.08069549225644
 20
-178.04341270946099
 30
0.0
  0
VERTEX
  5
30C
100
AcDbEntity
  8
FAN70-1306
370
              15
390
0
  6
Continuous
 62
               7
100
AcDbVertex
100
AcDb2dVertex
 10
-378.84982977525664
 20
-175.42518276156113
 30
0.0
  0
VERTEX
  5
30D
100
AcDbEntity
  8
FAN70-1306
370
              15
390
0
  6
Continuous
 62
               7
100
AcDbVertex
100
AcDb2dVertex
 10
-377.95650516165659
 20
-172.673182761161
 30
0.0
  0
VERTEX
  5
30E
100
AcDbEntity
  8
FAN70-1306
370
              15
390
0
  6
Continuous
 62
               7
100
AcDbVertex
100
AcDb2dVertex
 10
-377.41480324885646
 20
-169.83081234046097
 30
0.0
  0
VERTEX
  5
30F
100
AcDbEntity
  8
FAN70-1306
370
              15
390
0
  6
Continuous
 62
               7
100
AcDbVertex
100
AcDb2dVertex
 10
-377.23329220435647
 20
-166.94289791756103
 30
0.0
  0
VERTEX
  5
310
100
AcDbEntity
  8
FAN70-1306
370
              15
390
0
  6
Continuous
 62
               7
100
AcDbVertex
100
AcDb2dVertex
 10
-377.41480324885646
 20
-164.0549834946612
 30
0.0
  0
VERTEX
  5
311
100
AcDbEntity
  8
FAN70-1306
370
              15
390
0
  6
Continuous
 62
               7
100
AcDbVertex
100
AcDb2dVertex
 10
-377.95650516165659
 20
-161.21261307396105
 30
0.0
  0
VERTEX
  5
312
100
AcDbEntity
  8
FAN70-1306
370
              15
390
0
  6
Continuous
 62
               7
100
AcDbVertex
100
AcDb2dVertex
 10
-378.84982977525664
 20
-158.46061307366097
 30
0.0
  0
VERTEX
  5
313
100
AcDbEntity
  8
FAN70-1306
370
              15
390
0
  6
Continuous
 62
               7
100
AcDbVertex
100
AcDb2dVertex
 10
-380.08069549225644
 20
-155.84238312566106
 30
0.0
  0
VERTEX
  5
314
100
AcDbEntity
  8
FAN70-1306
370
              15
390
0
  6
Continuous
 62
               7
100
AcDbVertex
100
AcDb2dVertex
 10
-381.62970100065655
 20
-153.39921574466109
 30
0.0
  0
VERTEX
  5
315
100
AcDbEntity
  8
FAN70-1306
370
              15
390
0
  6
Continuous
 62
               7
100
AcDbVertex
100
AcDb2dVertex
 10
-383.47242329735656
 20
-151.16963881426102
 30
0.0
  0
VERTEX
  5
316
100
AcDbEntity
  8
FAN70-1306
370
              15
390
0
  6
Continuous
 62
               7
100
AcDbVertex
100
AcDb2dVertex
 10
-385.57977531565649
 20
-149.18881814356098
 30
0.0
  0
VERTEX
  5
317
100
AcDbEntity
  8
FAN70-1306
370
              15
390
0
  6
Continuous
 62
               7
100
AcDbVertex
100
AcDb2dVertex
 10
-387.91852746625665
 20
-147.48798842906103
 30
0.0
  0
VERTEX
  5
318
100
AcDbEntity
  8
FAN70-1306
370
              15
390
0
  6
Continuous
 62
               7
100
AcDbVertex
100
AcDb2dVertex
 10
-390.45182917735661
 20
-146.09397362346112
 30
0.0
  0
VERTEX
  5
319
100
AcDbEntity
  8
FAN70-1306
370
              15
390
0
  6
Continuous
 62
               7
100
AcDbVertex
100
AcDb2dVertex
 10
-393.13968573235655
 20
-145.02875852766101
 30
0.0
  0
VERTEX
  5
31A
100
AcDbEntity
  8
FAN70-1306
370
              15
390
0
  6
Continuous
 62
               7
100
AcDbVertex
100
AcDb2dVertex
 10
-395.93973312995655
 20
-144.30914420066097
 30
0.0
  0
VERTEX
  5
31B
100
AcDbEntity
  8
FAN70-1306
370
              15
390
0
  6
Continuous
 62
               7
100
AcDbVertex
100
AcDb2dVertex
 10
-398.80780432835655
 20
-143.94647601426107
 30
0.0
  0
VERTEX
  5
31C
100
AcDbEntity
  8
FAN70-1306
370
              15
390
0
  6
Continuous
 62
               7
100
AcDbVertex
100
AcDb2dVertex
 10
-401.69867430345647
 20
-143.94647601426107
 30
0.0
  0
VERTEX
  5
31D
100
AcDbEntity
  8
FAN70-1306
370
              15
390
0
  6
Continuous
 62
               7
100
AcDbVertex
100
AcDb2dVertex
 10
-404.56676040305666
 20
-144.30914420066097
 30
0.0
  0
VERTEX
  5
31E
100
AcDbEntity
  8
FAN70-1306
370
              15
390
0
  6
Continuous
 62
               7
100
AcDbVertex
100
AcDb2dVertex
 10
-407.36680780075659
 20
-145.02875852766101
 30
0.0
  0
VERTEX
  5
31F
100
AcDbEntity
  8
FAN70-1306
370
              15
390
0
  6
Continuous
 62
               7
100
AcDbVertex
100
AcDb2dVertex
 10
-410.0546643556566
 20
-146.09397362346112
 30
0.0
  0
VERTEX
  5
320
100
AcDbEntity
  8
FAN70-1306
370
              15
390
0
  6
Continuous
 62
               7
100
AcDbVertex
100
AcDb2dVertex
 10
-412.58795116565653
 20
-147.48798842906103
 30
0.0
  0
VERTEX
  5
321
100
AcDbEntity
  8
FAN70-1306
370
              15
390
0
  6
Continuous
 62
               7
100
AcDbVertex
100
AcDb2dVertex
 10
-414.92671821735661
 20
-149.18881814356098
 30
0.0
  0
VERTEX
  5
322
100
AcDbEntity
  8
FAN70-1306
370
              15
390
0
  6
Continuous
 62
               7
100
AcDbVertex
100
AcDb2dVertex
 10
-417.03407023565666
 20
-151.16963881426102
 30
0.0
  0
VERTEX
  5
323
100
AcDbEntity
  8
FAN70-1306
370
              15
390
0
  6
Continuous
 62
               7
100
AcDbVertex
100
AcDb2dVertex
 10
-418.87677763125657
 20
-153.39921574466109
 30
0.0
  0
VERTEX
  5
324
100
AcDbEntity
  8
FAN70-1306
370
              15
390
0
  6
Continuous
 62
               7
100
AcDbVertex
100
AcDb2dVertex
 10
-420.42578313965646
 20
-155.84238312566106
 30
0.0
  0
VERTEX
  5
325
100
AcDbEntity
  8
FAN70-1306
370
              15
390
0
  6
Continuous
 62
               7
100
AcDbVertex
100
AcDb2dVertex
 10
-421.65666375775663
 20
-158.46061307366097
 30
0.0
  0
VERTEX
  5
326
100
AcDbEntity
  8
FAN70-1306
370
              15
390
0
  6
Continuous
 62
               7
100
AcDbVertex
100
AcDb2dVertex
 10
-422.54998837135645
 20
-161.21261307396105
 30
0.0
  0
VERTEX
  5
327
100
AcDbEntity
  8
FAN70-1306
370
              15
390
0
  6
Continuous
 62
               7
100
AcDbVertex
100
AcDb2dVertex
 10
-423.09169028415636
 20
-164.0549834946612
 30
0.0
  0
VERTEX
  5
328
100
AcDbEntity
  8
FAN70-1306
370
              15
390
0
  6
Continuous
 62
               7
100
AcDbVertex
100
AcDb2dVertex
 10
-423.27320132865634
 20
-166.94289791756103
 30
0.0
  0
SEQEND
  5
329
100
AcDbEntity
  8
FAN70-1306
370
              15
390
0
  6
Continuous
 62
               7
  0
LINE
  5
32A
100
AcDbEntity
  8
FAN70-1306
370
              15
390
0
  6
STYLE_05
 62
               7
100
AcDbLine
 10
670.34080889242477
 20
1059.6086115069684
 30
0.0
 11
680.63167002217483
 21
1050.1787783610164
 31
0.0
  0
LINE
  5
32B
100
AcDbEntity
  8
FAN70-1306
370
              15
390
0
  6
STYLE_05
 62
               7
100
AcDbLine
 10
680.63167002217483
 20
1000.1182955260545
 30
0.0
 11
670.34080889242477
 21
992.0
 31
0.0
  0
LINE
  5
32C
100
AcDbEntity
  8
FAN70-1306
370
              15
390
0
  6
Continuous
 62
               7
100
AcDbLine
 10
662.36315932297498
 20
799.23738373619835
 30
0.0
 11
662.36315932297498
 21
1194.2373837361986
 31
0.0
  0
ARC
  5
32D
100
AcDbEntity
  8
FAN70-1306
370
              15
390
0
  6
Continuous
 62
               7
100
AcDbCircle
 10
540.86315932297498
 20
1195.7373837361988
 30
0.0
 40
3.5
100
AcDbArc
 50
90.0
 51
180.0
  0
LINE
  5
32E
100
AcDbEntity
  8
FAN70-1306
370
              15
390
0
  6
Continuous
 62
               7
100
AcDbLine
 10
537.36315932297498
 20
1195.7373837361988
 30
0.0
 11
537.36315932297498
 21
1194.2373837361986
 31
0.0
  0
LINE
  5
32F
100
AcDbEntity
  8
FAN70-1306
370
              15
390
0
  6
Continuous
 62
               7
100
AcDbLine
 10
662.36315932297498
 20
1194.2373837361986
 30
0.0
 11
662.36315932297498
 21
1195.7373837361988
 31
0.0
  0
ARC
  5
330
100
AcDbEntity
  8
FAN70-1306
370
              15
390
0
  6
Continuous
 62
               7
100
AcDbCircle
 10
658.86315932297498
 20
1195.7373837361988
 30
0.0
 40
3.5
100
AcDbArc
 50
0.0
 51
90.0
  0
LINE
  5
331
100
AcDbEntity
  8
FAN70-1306
370
              15
390
0
  6
Continuous
 62
               7
100
AcDbLine
 10
537.36315932297498
 20
1194.2373837361986
 30
0.0
 11
537.36315932297498
 21
799.23738373619835
 31
0.0
  0
LINE
  5
332
100
AcDbEntity
  8
FAN70-1306
370
              15
390
0
  6
Continuous
 62
               7
100
AcDbLine
 10
658.86315932297498
 20
1199.2373837361988
 30
0.0
 11
540.86315932297498
 21
1199.2373837361988
 31
0.0
  0
LINE
  5
333
100
AcDbEntity
  8
FAN70-1306
370
              15
390
0
  6
Continuous
 62
               7
100
AcDbLine
 10
540.86315932297498
 20
794.23738373619835
 30
0.0
 11
658.86315932297498
 21
794.23738373619835
 31
0.0
  0
LINE
  5
334
100
AcDbEntity
  8
FAN70-1306
370
              15
390
0
  6
Continuous
 62
               7
100
AcDbLine
 10
537.36315932297498
 20
799.23738373619835
 30
0.0
 11
537.36315932297498
 21
797.73738373619835
 31
0.0
  0
ARC
  5
335
100
AcDbEntity
  8
FAN70-1306
370
              15
390
0
  6
Continuous
 62
               7
100
AcDbCircle
 10
540.86315932297498
 20
797.73738373619835
 30
0.0
 40
3.5
100
AcDbArc
 50
180.0
 51
270.0
  0
LINE
  5
336
100
AcDbEntity
  8
FAN70-1306
370
              15
390
0
  6
Continuous
 62
               7
100
AcDbLine
 10
662.36315932297498
 20
797.73738373619835
 30
0.0
 11
662.36315932297498
 21
799.23738373619835
 31
0.0
  0
ARC
  5
337
100
AcDbEntity
  8
FAN70-1306
370
              15
390
0
  6
Continuous
 62
               7
100
AcDbCircle
 10
658.86315932297498
 20
797.73738373619835
 30
0.0
 40
3.5
100
AcDbArc
 50
270.0
 51
0.0
  0
ARC
  5
338
100
AcDbEntity
  8
FAN70-1306
370
              15
390
0
  6
Continuous
 62
               7
100
AcDbCircle
 10
648.82130794317368
 20
1073.9378168283547
 30
0.0
 40
21.499999999999776
100
AcDbArc
 50
8.2812705020689243
 51
52.074690011694067
  0
ARC
  5
339
100
AcDbEntity
  8
FAN70-1306
370
              15
390
0
  6
Continuous
 62
               7
100
AcDbCircle
 10
641.98539346687517
 20
861.9838692036983
 30
0.0
 40
21.499999999999822
100
AcDbArc
 50
341.40622585680001
 51
357.50000000000006
  0
LINE
  5
33A
100
AcDbEntity
  8
FAN70-1306
370
              15
390
0
  6
Continuous
 62
               7
100
AcDbLine
 10
670.14308920783151
 20
1077.0
 30
0.0
 11
670.14308920783151
 21
1062.0283476242982
 31
0.0
  0
POLYLINE
  5
33B
100
AcDbEntity
  8
FAN70-1306
370
              15
390
0
  6
Continuous
 62
               7
100
AcDb2dPolyline
 66
               1
 10
0.0
 20
0.0
 30
0.0
 75
               5
  0
VERTEX
  5
33C
100
AcDbEntity
  8
FAN70-1306
370
              15
390
0
  6
Continuous
 62
               7
100
AcDbVertex
100
AcDb2dVertex
 10
670.34080889242477
 20
991.0
 30
0.0
  0
VERTEX
  5
33D
100
AcDbEntity
  8
FAN70-1306
370
              15
390
0
  6
Continuous
 62
               7
100
AcDbVertex
100
AcDb2dVertex
 10
667.80384272350511
 20
943.05145843598461
 30
0.0
  0
VERTEX
  5
33E
100
AcDbEntity
  8
FAN70-1306
370
              15
390
0
  6
Continuous
 62
               7
100
AcDbVertex
100
AcDb2dVertex
 10
663.4649362804746
 20
861.04605330329946
 30
0.0
  0
SEQEND
  5
33F
100
AcDbEntity
  8
FAN70-1306
370
              15
390
0
  6
Continuous
 62
               7
  0
LINE
  5
340
100
AcDbEntity
  8
FAN70-1306
370
              15
390
0
  6
Continuous
 62
               7
100
AcDbLine
 10
537.36315932297498
 20
1131.2373837361981
 30
0.0
 11
552.36315932297498
 21
1131.2373837361981
 31
0.0
  0
LINE
  5
341
100
AcDbEntity
  8
FAN70-1306
370
              15
390
0
  6
Continuous
 62
               7
100
AcDbLine
 10
537.36315932297498
 20
1167.2373837361981
 30
0.0
 11
552.36315932297498
 21
1167.2373837361981
 31
0.0
  0
CIRCLE
  5
342
100
AcDbEntity
  8
FAN70-1306
370
              15
390
0
  6
STYLE_12
 62
               7
100
AcDbCircle
 10
599.86315932297498
 20
-306.94289791756103
 30
0.0
 40
10.0
  0
LINE
  5
343
100
AcDbEntity
  8
FAN70-1306
370
              15
390
0
  6
STYLE_12
 62
               7
100
AcDbLine
 10
619.86315932297498
 20
-306.94289791756103
 30
0.0
 11
579.86315932297498
 21
-306.94289791756103
 31
0.0
  0
LINE
  5
344
100
AcDbEntity
  8
FAN70-1306
370
              15
390
0
  6
STYLE_12
 62
               7
100
AcDbLine
 10
599.86315932297498
 20
-286.94289791756103
 30
0.0
 11
599.86315932297498
 21
-326.94289791756103
 31
0.0
  0
CIRCLE
  5
345
100
AcDbEntity
  8
FAN70-1306
370
              15
390
0
  6
STYLE_12
 62
               7
100
AcDbCircle
 10
599.86315932297498
 20
-26.94289791756114
 30
0.0
 40
10.0
  0
LINE
  5
346
100
AcDbEntity
  8
FAN70-1306
370
              15
390
0
  6
STYLE_12
 62
               7
100
AcDbLine
 10
619.86315932297498
 20
-26.942897917561027
 30
0.0
 11
579.86315932297498
 21
-26.942897917561027
 31
0.0
  0
LINE
  5
347
100
AcDbEntity
  8
FAN70-1306
370
              15
390
0
  6
STYLE_12
 62
               7
100
AcDbLine
 10
599.86315932297498
 20
-6.9428979175610266
 30
0.0
 11
599.86315932297498
 21
-46.942897917561027
 31
0.0
  0
CIRCLE
  5
348
100
AcDbEntity
  8
FAN70-1306
370
              15
390
0
  6
STYLE_12
 62
               7
100
AcDbCircle
 10
637.33654271378487
 20
290.55710208243886
 30
0.0
 40
10.0
  0
LINE
  5
349
100
AcDbEntity
  8
FAN70-1306
370
              15
390
0
  6
STYLE_12
 62
               7
100
AcDbLine
 10
657.33654271378487
 20
290.55710208243886
 30
0.0
 11
617.33654271378487
 21
290.55710208243886
 31
0.0
  0
CIRCLE
  5
34A
100
AcDbEntity
  8
FAN70-1306
370
              15
390
0
  6
STYLE_12
 62
               7
100
AcDbCircle
 10
562.33654271378487
 20
290.55710208243886
 30
0.0
 40
10.0
  0
LINE
  5
34B
100
AcDbEntity
  8
FAN70-1306
370
              15
390
0
  6
STYLE_12
 62
               7
100
AcDbLine
 10
582.33654271378487
 20
290.55710208243886
 30
0.0
 11
542.33654271378487
 21
290.55710208243886
 31
0.0
  0
CIRCLE
  5
34C
100
AcDbEntity
  8
FAN70-1306
370
              15
390
0
  6
STYLE_12
 62
               7
100
AcDbCircle
 10
637.33654271378487
 20
-624.44289791756114
 30
0.0
 40
10.0
  0
LINE
  5
34D
100
AcDbEntity
  8
FAN70-1306
370
              15
390
0
  6
STYLE_12
 62
               7
100
AcDbLine
 10
657.33654271378487
 20
-624.44289791756114
 30
0.0
 11
617.33654271378487
 21
-624.44289791756114
 31
0.0
  0
LINE
  5
34E
100
AcDbEntity
  8
FAN70-1306
370
              15
390
0
  6
STYLE_12
 62
               7
100
AcDbLine
 10
637.33654271378487
 20
-604.44289791756114
 30
0.0
 11
637.33654271378487
 21
-644.44289791756114
 31
0.0
  0
CIRCLE
  5
34F
100
AcDbEntity
  8
FAN70-1306
370
              15
390
0
  6
STYLE_12
 62
               7
100
AcDbCircle
 10
562.33654271378487
 20
-624.44289791756114
 30
0.0
 40
10.0
  0
LINE
  5
350
100
AcDbEntity
  8
FAN70-1306
370
              15
390
0
  6
STYLE_12
 62
               7
100
AcDbLine
 10
582.33654271378487
 20
-624.44289791756114
 30
0.0
 11
542.33654271378487
 21
-624.44289791756114
 31
0.0
  0
LINE
  5
351
100
AcDbEntity
  8
FAN70-1306
370
              15
390
0
  6
STYLE_12
 62
               7
100
AcDbLine
 10
562.33654271378487
 20
-604.44289791756114
 30
0.0
 11
562.33654271378487
 21
-644.44289791756114
 31
0.0
  0
LINE
  5
352
100
AcDbEntity
  8
FAN70-1306
370
              15
390
0
  6
STYLE_12
 62
               7
100
AcDbLine
 10
680.63167002217483
 20
999.97307194569817
 30
0.0
 11
680.63167002217483
 21
1050.1787783610164
 31
0.0
  0
ARC
  5
353
100
AcDbEntity
  8
FAN70-1306
370
              15
390
0
  6
STYLE_12
 62
               7
100
AcDbCircle
 10
641.61631247692208
 20
860.41812503853362
 30
0.0
 40
18.840287171468312
100
AcDbArc
 50
277.23953869758282
 51
0.6193909568088998
  0
LINE
  5
354
100
AcDbEntity
  8
FAN70-1306
370
              15
390
0
  6
STYLE_12
 62
               7
100
AcDbLine
 10
644.42199011464459
 20
841.92813379862105
 30
0.0
 11
539.68378618229031
 21
839.04317082176567
 31
0.0
  0
LINE
  5
355
100
AcDbEntity
  8
FAN70-1306
370
              15
390
0
  6
STYLE_12
 62
               7
100
AcDbLine
 10
660.11552606473401
 20
860.60416819868919
 30
0.0
 11
668.0
 21
992.04165075235119
 31
0.0
  0
LINE
  5
356
100
AcDbEntity
  8
FAN70-1306
370
              15
390
0
  6
STYLE_12
 62
               7
100
AcDbLine
 10
540.04040436249011
 20
1099.5321828144395
 30
0.0
 11
652.23268106507908
 21
1094.5608294665774
 31
0.0
  0
ARC
  5
357
100
AcDbEntity
  8
FAN70-1306
370
              15
390
0
  6
STYLE_12
 62
               7
100
AcDbCircle
 10
648.39766418722866
 20
1075.1116574729588
 30
0.0
 40
19.622284483704739
100
AcDbArc
 50
356.50628937604819
 51
85.405471216213414
  0
LINE
  5
358
100
AcDbEntity
  8
FAN70-1306
370
              15
390
0
  6
STYLE_12
 62
               7
100
AcDbLine
 10
668.0
 20
1074.0
 30
0.0
 11
668.0
 21
1057.0416507523507
 31
0.0
  0
LINE
  5
359
100
AcDbEntity
  8
FAN70-1306
370
              15
390
0
  6
STYLE_12
 62
               7
100
AcDbLine
 10
537.36315932297498
 20
841.19923148623161
 30
0.0
 11
537.36315932297498
 21
823.19923148623161
 31
0.0
  0
ARC
  5
35A
100
AcDbEntity
  8
FAN70-1306
370
              15
390
0
  6
STYLE_12
 62
               7
100
AcDbCircle
 10
541.36315932297498
 20
835.08791122673506
 30
0.0
 40
3.9999999999999631
100
AcDbArc
 50
91.577785488153779
 51
180.0
  0
ARC
  5
35B
100
AcDbEntity
  8
FAN70-1306
370
              15
390
0
  6
STYLE_12
 62
               7
100
AcDbCircle
 10
371.21828341495711
 20
-166.96490921046848
 30
0.0
 40
299.32959627593516
100
AcDbArc
 50
303.71461515937085
 51
56.285384840629263
  0
LINE
  5
35C
100
AcDbEntity
  8
FAN70-1306
370
              15
390
0
  6
STYLE_12
 62
               7
100
AcDbLine
 10
562.33654271378487
 20
310.55710208243886
 30
0.0
 11
562.33654271378487
 21
270.55710208243886
 31
0.0
  0
LINE
  5
35D
100
AcDbEntity
  8
FAN70-1306
370
              15
390
0
  6
STYLE_12
 62
               7
100
AcDbLine
 10
637.33654271378487
 20
310.55710208243886
 30
0.0
 11
637.33654271378487
 21
270.55710208243886
 31
0.0
  0
LINE
  5
35E
100
AcDbEntity
  8
FAN70-1306
370
               5
390
0
  6
STYLE_12
 62
               7
100
AcDbLine
 10
668.0
 20
993.54612989932366
 30
0.0
 11
680.4598968002158
 21
1003.1228696558794
 31
0.0
  0
LINE
  5
35F
100
AcDbEntity
  8
FAN70-1306
370
               5
390
0
  6
STYLE_12
 62
               7
100
AcDbLine
 10
669.36146277692046
 20
1057.3773235421118
 30
0.0
 11
680.4598968002158
 21
1047.1228696558794
 31
0.0
  0
LINE
  5
360
100
AcDbEntity
  8
FAN70-1306
370
              15
390
0
  6
STYLE_12
 62
               7
100
AcDbLine
 10
680.63929942475602
 20
-191.93772013501786
 30
0.0
 11
680.63929942475602
 21
-141.95967997631777
 31
0.0
  0
LINE
  5
361
100
AcDbEntity
  8
FAN70-1306
370
               5
390
0
  6
STYLE_12
 62
               7
100
AcDbLine
 10
680.63929942475602
 20
-143.94870005566787
 30
0.0
 11
668.78591887792049
 21
-134.47071134852519
 31
0.0
  0
LINE
  5
362
100
AcDbEntity
  8
FAN70-1306
370
               5
390
0
  6
STYLE_12
 62
               7
100
AcDbLine
 10
680.63929942475602
 20
-189.94870005566787
 30
0.0
 11
668.78591887792049
 21
-199.47071134852632
 31
0.0
  0
ENDSEC
  0
SECTION
  2
OBJECTS
  0
DICTIONARY
  5
19
100
AcDbDictionary
280
               0
281
               1
  3
ACAD_GROUP
350
1A
  3
ACAD_MLINESTYLE
350
1B
  3
ACAD_LAYOUT
350
1E
  3
ACAD_PLOTSETTINGS
350
22
  3
ACAD_PLOTSTYLENAME
350
1F
  0
DICTIONARY
  5
1A
102
{ACAD_REACTORS
330
19
102
}
100
AcDbDictionary
280
               0
281
               1
  0
DICTIONARY
  5
1B
102
{ACAD_REACTORS
330
19
102
}
100
AcDbDictionary
280
               0
281
               1
  3
Standard
350
1C
  0
MLINESTYLE
  5
1C
102
{ACAD_REACTORS
330
1B
102
}
100
AcDbMlineStyle
  2
Standard
 70
               0
  3

 62
               0
 51
90.0
 52
90.0
 71
               2
 49
0.5
 62
             256
  6
ByLayer
 49
-0.5
 62
             256
  6
ByLayer
  0
ACDBDICTIONARYWDFLT
  5
1F
102
{ACAD_REACTORS
330
19
102
}
100
AcDbDictionary
281
               1
  3
Normal
350
1D
100
AcDbDictionaryWithDefault
340
1D
  0
ACDBPLACEHOLDER
  5
1D
102
{ACAD_REACTORS
330
1F
102
}
  0
LAYOUT
  5
20
102
{ACAD_REACTORS
330
1E
102
}
100
AcDbPlotSettings
  1

  2

  4

  6

 40
0.0
 41
0.0
 42
0.0
 43
0.0
 44
0.0
 45
0.0
 46
0.0
 47
0.0
 48
0.0
 49
0.0
140
0.0
141
0.0
142
1.0
143
1.0
 70
            1024
 72
               0
 73
               0
 74
               0
  7

 75
               0
147
1.0
148
0.0
149
0.0
100
AcDbLayout
  1
Model
 70
               0
 71
               0
 10
0.0
 20
0.0
 11
0.0
 21
0.0
 12
0.0
 22
0.0
 32
0.0
 14
0.0
 24
0.0
 34
0.0
 15
0.0
 25
0.0
 35
0.0
146
0.0
 13
0.0
 23
0.0
 33
0.0
 16
0.0
 26
0.0
 36
0.0
 17
0.0
 27
0.0
 37
0.0
 76
               0
330
A
331
0
345
0
346
0
  0
LAYOUT
  5
21
102
{ACAD_REACTORS
330
1E
102
}
100
AcDbPlotSettings
  1

  2

  4

  6

 40
0.0
 41
0.0
 42
0.0
 43
0.0
 44
0.0
 45
0.0
 46
0.0
 47
0.0
 48
0.0
 49
0.0
140
0.0
141
0.0
142
1.0
143
1.0
 70
               0
 72
               0
 73
               0
 74
               0
  7

 75
               0
147
1.0
148
0.0
149
0.0
100
AcDbLayout
  1
Layout1
 70
               0
 71
               0
 10
0.0
 20
0.0
 11
0.0
 21
0.0
 12
0.0
 22
0.0
 32
0.0
 14
0.0
 24
0.0
 34
0.0
 15
0.0
 25
0.0
 35
0.0
146
0.0
 13
0.0
 23
0.0
 33
0.0
 16
0.0
 26
0.0
 36
0.0
 17
0.0
 27
0.0
 37
0.0
 76
               0
330
B
331
0
345
0
346
0
  0
DICTIONARY
  5
1E
102
{ACAD_REACTORS
330
19
102
}
100
AcDbDictionary
280
               0
281
               1
  3
Layout1
350
21
  3
Model
350
20
  0
DICTIONARY
  5
22
102
{ACAD_REACTORS
330
19
102
}
100
AcDbDictionary
280
               0
281
               1
  0
ENDSEC
  0
EOF
