  0
SECTION
  2
HEADER
  9
$ACADVER
  1
AC1021
  9
$ACADMAINTVER
 70
    25
  9
$DWGCODEPAGE
  3
ANSI_932
  9
$LASTSAVEDBY
  1
howeNelson
  9
$INSBASE
 10
0.0
 20
0.0
 30
0.0
  9
$EXTMIN
 10
17.29509565294796
 20
14.51641317797979
 30
0.0
  9
$EXTMAX
 10
407.2950956530444
 20
581.1873182143509
 30
0.0
  9
$LIMMIN
 10
0.0
 20
0.0
  9
$LIMMAX
 10
420.0000000000001
 20
594.0000000000001
  9
$ORTHOMODE
 70
     0
  9
$REGENMODE
 70
     1
  9
$FILLMODE
 70
     1
  9
$QTEXTMODE
 70
     0
  9
$MIRRTEXT
 70
     1
  9
$LTSCALE
 40
25.4
  9
$ATTMODE
 70
     1
  9
$TEXTSIZE
 40
0.2
  9
$TRACEWID
 40
0.05
  9
$TEXTSTYLE
  7
Standard
  9
$CLAYER
  8
0
  9
$CELTYPE
  6
CONTINUOUS
  9
$CECOLOR
 62
   256
  9
$CELTSCALE
 40
1.0
  9
$DISPSILH
 70
     0
  9
$DIMSCALE
 40
1.0
  9
$DIMASZ
 40
0.18
  9
$DIMEXO
 40
0.0625
  9
$DIMDLI
 40
0.38
  9
$DIMRND
 40
0.0
  9
$DIMDLE
 40
0.0
  9
$DIMEXE
 40
0.18
  9
$DIMTP
 40
0.0
  9
$DIMTM
 40
0.0
  9
$DIMTXT
 40
0.18
  9
$DIMCEN
 40
0.09
  9
$DIMTSZ
 40
0.0
  9
$DIMTOL
 70
     0
  9
$DIMLIM
 70
     0
  9
$DIMTIH
 70
     1
  9
$DIMTOH
 70
     1
  9
$DIMSE1
 70
     0
  9
$DIMSE2
 70
     0
  9
$DIMTAD
 70
     0
  9
$DIMZIN
 70
     0
  9
$DIMBLK
  1

  9
$DIMASO
 70
     1
  9
$DIMSHO
 70
     1
  9
$DIMPOST
  1

  9
$DIMAPOST
  1

  9
$DIMALT
 70
     0
  9
$DIMALTD
 70
     2
  9
$DIMALTF
 40
25.4
  9
$DIMLFAC
 40
1.0
  9
$DIMTOFL
 70
     0
  9
$DIMTVP
 40
0.0
  9
$DIMTIX
 70
     0
  9
$DIMSOXD
 70
     0
  9
$DIMSAH
 70
     0
  9
$DIMBLK1
  1

  9
$DIMBLK2
  1

  9
$DIMSTYLE
  2
Standard
  9
$DIMCLRD
 70
     0
  9
$DIMCLRE
 70
     0
  9
$DIMCLRT
 70
     0
  9
$DIMTFAC
 40
1.0
  9
$DIMGAP
 40
0.09
  9
$DIMJUST
 70
     0
  9
$DIMSD1
 70
     0
  9
$DIMSD2
 70
     0
  9
$DIMTOLJ
 70
     1
  9
$DIMTZIN
 70
     0
  9
$DIMALTZ
 70
     0
  9
$DIMALTTZ
 70
     0
  9
$DIMUPT
 70
     0
  9
$DIMDEC
 70
     4
  9
$DIMTDEC
 70
     4
  9
$DIMALTU
 70
     2
  9
$DIMALTTD
 70
     2
  9
$DIMTXSTY
  7
Standard
  9
$DIMAUNIT
 70
     0
  9
$DIMADEC
 70
     0
  9
$DIMALTRND
 40
0.0
  9
$DIMAZIN
 70
     0
  9
$DIMDSEP
 70
     0
  9
$DIMATFIT
 70
     3
  9
$DIMFRAC
 70
     0
  9
$DIMLDRBLK
  1

  9
$DIMLUNIT
 70
     2
  9
$DIMLWD
 70
     0
  9
$DIMLWE
 70
     0
  9
$DIMTMOVE
 70
     0
  9
$DIMFXL
 40
1.0
  9
$DIMFXLON
 70
     0
  9
$DIMJOGANG
 40
0.7853981633974483
  9
$DIMTFILL
 70
     0
  9
$DIMTFILLCLR
 70
     0
  9
$DIMARCSYM
 70
     0
  9
$DIMLTYPE
  6

  9
$DIMLTEX1
  6

  9
$DIMLTEX2
  6

  9
$LUNITS
 70
     2
  9
$LUPREC
 70
     4
  9
$SKETCHINC
 40
0.1
  9
$FILLETRAD
 40
0.0
  9
$AUNITS
 70
     0
  9
$AUPREC
 70
     0
  9
$MENU
  1
acad
  9
$ELEVATION
 40
0.0
  9
$PELEVATION
 40
0.0
  9
$THICKNESS
 40
0.0
  9
$LIMCHECK
 70
     0
  9
$CHAMFERA
 40
0.0
  9
$CHAMFERB
 40
0.0
  9
$CHAMFERC
 40
0.0
  9
$CHAMFERD
 40
0.0
  9
$SKPOLY
 70
     0
  9
$TDCREATE
 40
2447893.375
  9
$TDUCREATE
 40
0.0
  9
$TDUPDATE
 40
2457347.559578461
  9
$TDUUPDATE
 40
2457347.184578461
  9
$TDINDWG
 40
0.0071612616
  9
$TDUSRTIMER
 40
2457347.184344954
  9
$USRTIMER
 70
     1
  9
$ANGBASE
 50
0.0
  9
$ANGDIR
 70
     0
  9
$PDMODE
 70
     0
  9
$PDSIZE
 40
0.0
  9
$PLINEWID
 40
0.0
  9
$SPLFRAME
 70
     0
  9
$SPLINETYPE
 70
     6
  9
$SPLINESEGS
 70
     8
  9
$HANDSEED
  5
521
  9
$SURFTAB1
 70
     6
  9
$SURFTAB2
 70
     6
  9
$SURFTYPE
 70
     6
  9
$SURFU
 70
     6
  9
$SURFV
 70
     6
  9
$UCSBASE
  2

  9
$UCSNAME
  2

  9
$UCSORG
 10
0.0
 20
0.0
 30
0.0
  9
$UCSXDIR
 10
1.0
 20
0.0
 30
0.0
  9
$UCSYDIR
 10
0.0
 20
1.0
 30
0.0
  9
$UCSORTHOREF
  2

  9
$UCSORTHOVIEW
 70
     0
  9
$UCSORGTOP
 10
0.0
 20
0.0
 30
0.0
  9
$UCSORGBOTTOM
 10
0.0
 20
0.0
 30
0.0
  9
$UCSORGLEFT
 10
0.0
 20
0.0
 30
0.0
  9
$UCSORGRIGHT
 10
0.0
 20
0.0
 30
0.0
  9
$UCSORGFRONT
 10
0.0
 20
0.0
 30
0.0
  9
$UCSORGBACK
 10
0.0
 20
0.0
 30
0.0
  9
$PUCSBASE
  2

  9
$PUCSNAME
  2

  9
$PUCSORG
 10
0.0
 20
0.0
 30
0.0
  9
$PUCSXDIR
 10
1.0
 20
0.0
 30
0.0
  9
$PUCSYDIR
 10
0.0
 20
1.0
 30
0.0
  9
$PUCSORTHOREF
  2

  9
$PUCSORTHOVIEW
 70
     0
  9
$PUCSORGTOP
 10
0.0
 20
0.0
 30
0.0
  9
$PUCSORGBOTTOM
 10
0.0
 20
0.0
 30
0.0
  9
$PUCSORGLEFT
 10
0.0
 20
0.0
 30
0.0
  9
$PUCSORGRIGHT
 10
0.0
 20
0.0
 30
0.0
  9
$PUCSORGFRONT
 10
0.0
 20
0.0
 30
0.0
  9
$PUCSORGBACK
 10
0.0
 20
0.0
 30
0.0
  9
$USERI1
 70
     0
  9
$USERI2
 70
     0
  9
$USERI3
 70
     0
  9
$USERI4
 70
     0
  9
$USERI5
 70
     0
  9
$USERR1
 40
0.0
  9
$USERR2
 40
0.0
  9
$USERR3
 40
0.0
  9
$USERR4
 40
0.0
  9
$USERR5
 40
0.0
  9
$WORLDVIEW
 70
     1
  9
$SHADEDGE
 70
     3
  9
$SHADEDIF
 70
    70
  9
$TILEMODE
 70
     1
  9
$MAXACTVP
 70
    16
  9
$PINSBASE
 10
0.0
 20
0.0
 30
0.0
  9
$PLIMCHECK
 70
     0
  9
$PEXTMIN
 10
1.000000000000000E+20
 20
1.000000000000000E+20
 30
1.000000000000000E+20
  9
$PEXTMAX
 10
-1.000000000000000E+20
 20
-1.000000000000000E+20
 30
-1.000000000000000E+20
  9
$PLIMMIN
 10
-95.87226993865028
 20
-25.69999999999999
  9
$PLIMMAX
 10
201.1277300613497
 20
184.3
  9
$UNITMODE
 70
     0
  9
$VISRETAIN
 70
     0
  9
$PLINEGEN
 70
     1
  9
$PSLTSCALE
 70
     0
  9
$TREEDEPTH
 70
  3020
  9
$CMLSTYLE
  2
Standard
  9
$CMLJUST
 70
     0
  9
$CMLSCALE
 40
1.0
  9
$PROXYGRAPHICS
 70
     0
  9
$MEASUREMENT
 70
     0
  9
$CELWEIGHT
370
     0
  9
$ENDCAPS
280
     0
  9
$JOINSTYLE
280
     0
  9
$LWDISPLAY
290
     0
  9
$INSUNITS
 70
     0
  9
$HYPERLINKBASE
  1

  9
$STYLESHEET
  1

  9
$XEDIT
290
     1
  9
$CEPSNTYPE
380
     0
  9
$PSTYLEMODE
290
     1
  9
$FINGERPRINTGUID
  2

  9
$VERSIONGUID
  2

  9
$EXTNAMES
290
     1
  9
$PSVPSCALE
 40
0.0
  9
$OLESTARTUP
290
     0
  9
$SORTENTS
280
   127
  9
$INDEXCTL
280
     0
  9
$HIDETEXT
280
     1
  9
$XCLIPFRAME
290
     0
  9
$HALOGAP
280
     0
  9
$OBSCOLOR
 70
   257
  9
$OBSLTYPE
280
     0
  9
$INTERSECTIONDISPLAY
280
     0
  9
$INTERSECTIONCOLOR
 70
   257
  9
$DIMASSOC
280
     2
  9
$PROJECTNAME
  1

  9
$CAMERADISPLAY
290
     0
  9
$LENSLENGTH
 40
50.0
  9
$CAMERAHEIGHT
 40
0.0
  9
$STEPSPERSEC
 40
2.0
  9
$STEPSIZE
 40
6.0
  9
$3DDWFPREC
 40
2.0
  9
$PSOLWIDTH
 40
0.25
  9
$PSOLHEIGHT
 40
4.0
  9
$LOFTANG1
 40
1.570796326794897
  9
$LOFTANG2
 40
1.570796326794897
  9
$LOFTMAG1
 40
0.0
  9
$LOFTMAG2
 40
0.0
  9
$LOFTPARAM
 70
     7
  9
$LOFTNORMALS
280
     1
  9
$LATITUDE
 40
37.795
  9
$LONGITUDE
 40
-122.394
  9
$NORTHDIRECTION
 40
0.0
  9
$TIMEZONE
 70
 -8000
  9
$LIGHTGLYPHDISPLAY
280
     1
  9
$TILEMODELIGHTSYNCH
280
     1
  9
$SOLIDHIST
280
     1
  9
$SHOWHIST
280
     1
  9
$DWFFRAME
280
     2
  9
$DGNFRAME
280
     2
  9
$REALWORLDSCALE
290
     1
  9
$INTERFERECOLOR
 62
   256
  9
$CSHADOW
280
     0
  9
$SHADOWPLANELOCATION
 40
0.0
  0
ENDSEC
  0
SECTION
  2
CLASSES
  0
CLASS
  1
LWPOLYLINE
  2
AcDbPolyline
  3
ObjectDBX Classes
 90
        0
 91
        1
280
     0
281
     1
  0
CLASS
  1
IMAGE
  2
AcDbRasterImage
  3
ISM
 90
      127
 91
        5
280
     0
281
     1
  0
CLASS
  1
OLE2FRAME
  2
AcDbOle2Frame
  3
ObjectDBX Classes
 90
        0
 91
        1
280
     0
281
     1
  0
CLASS
  1
HATCH
  2
AcDbHatch
  3
ObjectDBX Classes
 90
        0
 91
        1
280
     0
281
     1
  0
CLASS
  1
DICTIONARYVAR
  2
AcDbDictionaryVar
  3
ObjectDBX Classes
 90
        0
 91
        4
280
     0
281
     0
  0
CLASS
  1
RASTERVARIABLES
  2
AcDbRasterVariables
  3
ISM
 90
        0
 91
        5
280
     0
281
     0
  0
CLASS
  1
IMAGEDEF
  2
AcDbRasterImageDef
  3
ISM
 90
        0
 91
        4
280
     0
281
     0
  0
CLASS
  1
IMAGEDEF_REACTOR
  2
AcDbRasterImageDefReactor
  3
ISM
 90
        1
 91
        4
280
     0
281
     0
  0
CLASS
  1
IDBUFFER
  2
AcDbIdBuffer
  3
ObjectDBX Classes
 90
        0
 91
        4
280
     0
281
     0
  0
CLASS
  1
SPATIAL_FILTER
  2
AcDbSpatialFilter
  3
ObjectDBX Classes
 90
        0
 91
        4
280
     0
281
     0
  0
CLASS
  1
XRECORD
  2
AcDbXrecord
  3
ObjectDBX Classes
 90
        0
 91
        1
280
     0
281
     0
  0
CLASS
  1
SORTENTSTABLE
  2
AcDbSortentsTable
  3
ObjectDBX Classes
 90
        0
 91
        4
280
     0
281
     0
  0
CLASS
  1
LAYER_INDEX
  2
AcDbLayerIndex
  3
ObjectDBX Classes
 90
        0
 91
        4
280
     0
281
     0
  0
CLASS
  1
SPATIAL_INDEX
  2
AcDbSpatialIndex
  3
AutoCAD 2000
 90
        0
 91
        4
280
     0
281
     0
  0
CLASS
  1
OBJECT_PTR
  2
CAseDLPNTableRecord
  3
ASE-LPNTableRecord
 90
        1
 91
        4
280
     0
281
     0
  0
CLASS
  1
LAYOUT
  2
AcDbLayout
  3
ObjectDBX Classes
 90
        0
 91
        1
280
     0
281
     0
  0
CLASS
  1
PLOTSETTINGS
  2
AcDbPlotSettings
  3
ObjectDBX Classes
 90
        0
 91
        4
280
     0
281
     0
  0
CLASS
  1
ACDBDICTIONARYWDFLT
  2
AcDbDictionaryWithDefault
  3
ObjectDBX Classes
 90
        0
 91
        5
280
     0
281
     0
  0
CLASS
  1
ACDBPLACEHOLDER
  2
AcDbPlaceHolder
  3
ObjectDBX Classes
 90
        0
 91
        1
280
     0
281
     0
  0
CLASS
  1
VBA_PROJECT
  2
AcDbVbaProject
  3
ObjectDBX Classes
 90
        0
 91
        1
280
     0
281
     0
  0
CLASS
  1
WIPEOUT
  2
AcDbWipeout
  3
WipeOut|AutoCAD Express Tool|expresstools@autodesk.com
 90
      127
 91
        4
280
     0
281
     1
  0
CLASS
  1
WIPEOUTVARIABLES
  2
AcDbWipeoutVariables
  3
WipeOut|AutoCAD Express Tool|expresstools@autodesk.com
 90
        0
 91
        4
280
     0
281
     0
  0
CLASS
  1
RTEXT
  2
RText
  3
RText|AutoCAD Express Tool|expresstools@autodesk.com
 90
        0
 91
        4
280
     0
281
     1
  0
CLASS
  1
ARCALIGNEDTEXT
  2
AcDbArcAlignedText
  3
ATEXT|AutoCAD Express Tool|expresstools@autodesk.com
 90
        0
 91
        4
280
     0
281
     1
  0
CLASS
  1
SCALE
  2
AcDbScale
  3
ObjectDBX Classes
 90
     1153
 91
        5
280
     0
281
     0
  0
CLASS
  1
VISUALSTYLE
  2
AcDbVisualStyle
  3
ObjectDBX Classes
 90
     4095
 91
        5
280
     0
281
     0
  0
CLASS
  1
MATERIAL
  2
AcDbMaterial
  3
ObjectDBX Classes
 90
     1153
 91
        5
280
     0
281
     0
  0
CLASS
  1
TABLESTYLE
  2
AcDbTableStyle
  3
ObjectDBX Classes
 90
     4095
 91
        5
280
     0
281
     0
  0
CLASS
  1
SUN
  2
AcDbSun
  3
SCENEOE
 90
     1153
 91
        5
280
     0
281
     0
  0
CLASS
  1
DIMASSOC
  2
AcDbDimAssoc
  3
"AcDbDimAssoc|Product Desc:     AcDim ARX App For Dimension|Company:          Autodesk, Inc.|WEB Address:      www.autodesk.com"
 90
        0
 91
        4
280
     0
281
     0
  0
CLASS
  1
CELLSTYLEMAP
  2
AcDbCellStyleMap
  3
ObjectDBX Classes
 90
     1152
 91
        4
280
     0
281
     0
  0
ENDSEC
  0
SECTION
  2
TABLES
  0
TABLE
  2
VPORT
  5
7
330
0
100
AcDbSymbolTable
 70
     1
  0
VPORT
  5
15
330
7
100
AcDbSymbolTableRecord
100
AcDbViewportTableRecord
  2
*ACTIVE
 70
     0
 10
0.0
 20
0.0
 11
1.0
 21
1.0
 12
212.2950956529962
 22
297.8518656961654
 13
0.0
 23
0.0
 14
1.0
 24
1.0
 15
0.0
 25
0.0
 16
0.0
 26
0.0
 36
1.0
 17
0.0
 27
0.0
 37
0.0
 40
578.0043231370985
 41
1.934969325153374
 42
50.0
 43
0.0
 44
0.0
 50
0.0
 51
0.0
 71
    16
 72
   100
 73
     1
 74
     1
 75
     0
 76
     0
 77
     0
 78
     0
281
     0
 65
     0
110
0.0
120
0.0
130
0.0
111
1.0
121
0.0
131
0.0
112
0.0
122
1.0
132
0.0
 79
     0
146
0.0
348
285
 60
     3
 61
     5
292
     1
282
     1
141
0.0
142
0.0
 63
   250
361
2A0
  0
ENDTAB
  0
TABLE
  2
LTYPE
  5
4
330
0
100
AcDbSymbolTable
 70
     5
  0
LTYPE
  5
11
330
4
100
AcDbSymbolTableRecord
100
AcDbLinetypeTableRecord
  2
ByBlock
 70
     0
  3

 72
    65
 73
     0
 40
0.0
  0
LTYPE
  5
12
330
4
100
AcDbSymbolTableRecord
100
AcDbLinetypeTableRecord
  2
ByLayer
 70
     0
  3

 72
    65
 73
     0
 40
0.0
  0
LTYPE
  5
13
330
4
100
AcDbSymbolTableRecord
100
AcDbLinetypeTableRecord
  2
CONTINUOUS
 70
     0
  3
Solid line
 72
    65
 73
     0
 40
0.0
  0
LTYPE
  5
28
330
4
100
AcDbSymbolTableRecord
100
AcDbLinetypeTableRecord
  2
HIDDEN2
 70
     0
  3
_ _ _ _ _ _ _ _ _ _ _ _ _ _ _ _ _ _ _ _ _ _ _ _
 72
    65
 73
     2
 40
0.1875
 49
0.125
 74
     0
 49
-0.0625
 74
     0
  0
LTYPE
  5
29
330
4
100
AcDbSymbolTableRecord
100
AcDbLinetypeTableRecord
  2
CENTER2
 70
     0
  3
___ _ ___ _ ___ _ ___ _ ___ _ ___ _ ___ _ ___ _
 72
    65
 73
     4
 40
1.125
 49
0.75
 74
     0
 49
-0.125
 74
     0
 49
0.125
 74
     0
 49
-0.125
 74
     0
  0
LTYPE
  5
2A
330
4
100
AcDbSymbolTableRecord
100
AcDbLinetypeTableRecord
  2
PHANTOM2
 70
     0
  3
___ _ _ ___ _ _ ___ _ _ ___ _ _ ___ _ _ ___ _ _
 72
    65
 73
     6
 40
1.25
 49
0.625
 74
     0
 49
-0.125
 74
     0
 49
0.125
 74
     0
 49
-0.125
 74
     0
 49
0.125
 74
     0
 49
-0.125
 74
     0
  0
LTYPE
  5
2B
330
4
100
AcDbSymbolTableRecord
100
AcDbLinetypeTableRecord
  2
DOT2
 70
     0
  3
...............................................
 72
    65
 73
     2
 40
0.125
 49
0.0
 74
     0
 49
-0.125
 74
     0
  0
ENDTAB
  0
TABLE
  2
LAYER
  5
2
102
{ACAD_XDICTIONARY
360
2A2
102
}
330
0
100
AcDbSymbolTable
 70
    21
  0
LAYER
  5
14
330
2
100
AcDbSymbolTableRecord
100
AcDbLayerTableRecord
  2
0
 70
     0
 62
     7
  6
CONTINUOUS
370
    -3
390
1D
347
29C
  0
LAYER
  5
2D
330
2
100
AcDbSymbolTableRecord
100
AcDbLayerTableRecord
  2
__ﾏ_ｷ
 70
     0
 62
     1
  6
CONTINUOUS
370
    -3
390
1D
347
29C
  0
LAYER
  5
2F
330
2
100
AcDbSymbolTableRecord
100
AcDbLayerTableRecord
  2
DEFAULT
 70
     0
 62
     7
  6
CONTINUOUS
370
    -3
390
1D
347
29C
  0
LAYER
  5
31
330
2
100
AcDbSymbolTableRecord
100
AcDbLayerTableRecord
  2
MDS_LAYER_11
 70
     0
 62
     7
  6
CONTINUOUS
370
    -3
390
1D
347
29C
  0
LAYER
  5
33
330
2
100
AcDbSymbolTableRecord
100
AcDbLayerTableRecord
  2
MDS_LAYER_12
 70
     0
 62
     7
  6
CONTINUOUS
370
    -3
390
1D
347
29C
  0
LAYER
  5
35
330
2
100
AcDbSymbolTableRecord
100
AcDbLayerTableRecord
  2
MDS_LAYER_4
 70
     0
 62
     7
  6
CONTINUOUS
370
    -3
390
1D
347
29C
  0
LAYER
  5
37
330
2
100
AcDbSymbolTableRecord
100
AcDbLayerTableRecord
  2
MDS_LAYER_6
 70
     0
 62
     7
  6
CONTINUOUS
370
    -3
390
1D
347
29C
  0
LAYER
  5
39
330
2
100
AcDbSymbolTableRecord
100
AcDbLayerTableRecord
  2
MDS_LAYER_90
 70
     0
 62
     7
  6
CONTINUOUS
370
    -3
390
1D
347
29C
  0
LAYER
  5
3B
330
2
100
AcDbSymbolTableRecord
100
AcDbLayerTableRecord
  2
MDS_LAYER_92
 70
     0
 62
     7
  6
CONTINUOUS
370
    -3
390
1D
347
29C
  0
LAYER
  5
3D
330
2
100
AcDbSymbolTableRecord
100
AcDbLayerTableRecord
  2
MDS_LAYER_94
 70
     0
 62
     7
  6
CONTINUOUS
370
    -3
390
1D
347
29C
  0
LAYER
  5
3F
330
2
100
AcDbSymbolTableRecord
100
AcDbLayerTableRecord
  2
STANDARD
 70
     0
 62
     7
  6
CONTINUOUS
370
    -3
390
1D
347
29C
  0
LAYER
  5
41
330
2
100
AcDbSymbolTableRecord
100
AcDbLayerTableRecord
  2
ﾃ_ﾌｫﾙﾄ
 70
     0
 62
     7
  6
CONTINUOUS
370
    -3
390
1D
347
29C
  0
LAYER
  5
43
330
2
100
AcDbSymbolTableRecord
100
AcDbLayerTableRecord
  2
_F_T_H___G
 70
     0
 62
     7
  6
CONTINUOUS
370
    -3
390
1D
347
29C
  0
LAYER
  5
45
330
2
100
AcDbSymbolTableRecord
100
AcDbLayerTableRecord
  2
MDS_LAYER_0
 70
     0
 62
     7
  6
CONTINUOUS
370
    -3
390
1D
347
29C
  0
LAYER
  5
47
330
2
100
AcDbSymbolTableRecord
100
AcDbLayerTableRecord
  2
AUTO_-_HIDE
 70
     0
 62
     7
  6
CONTINUOUS
370
    -3
390
1D
347
29C
  0
LAYER
  5
12B
330
2
100
AcDbSymbolTableRecord
100
AcDbLayerTableRecord
  2
DV1__F_T_H___G
 70
     0
 62
     7
  6
CONTINUOUS
370
    -3
390
1D
347
29C
  0
LAYER
  5
38F
330
2
100
AcDbSymbolTableRecord
100
AcDbLayerTableRecord
  2
TEMPLATE
 70
     0
 62
     7
  6
CONTINUOUS
370
    20
390
1D
347
29C
  0
LAYER
  5
391
330
2
100
AcDbSymbolTableRecord
100
AcDbLayerTableRecord
  2
MODEL
 70
     0
 62
     7
  6
CONTINUOUS
370
    20
390
1D
347
29C
  0
LAYER
  5
392
330
2
100
AcDbSymbolTableRecord
100
AcDbLayerTableRecord
  2
LOGO
 70
     0
 62
     7
  6
CONTINUOUS
370
    -3
390
1D
347
29C
  0
LAYER
  5
40A
330
2
100
AcDbSymbolTableRecord
100
AcDbLayerTableRecord
  2
Defpoints
 70
     0
 62
     7
  6
CONTINUOUS
290
     0
370
    -3
390
1D
347
29C
  0
LAYER
  5
41C
330
2
100
AcDbSymbolTableRecord
100
AcDbLayerTableRecord
  2
DIM
 70
     0
 62
     7
  6
CONTINUOUS
370
    13
390
1D
347
29C
  0
ENDTAB
  0
TABLE
  2
STYLE
  5
3
330
0
100
AcDbSymbolTable
 70
     5
  0
STYLE
  5
17
330
3
100
AcDbSymbolTableRecord
100
AcDbTextStyleTableRecord
  2
Standard
 70
     0
 40
0.0
 41
1.0
 50
0.0
 71
     0
 42
0.2
  3
txt
  4

  0
STYLE
  5
11A
330
3
100
AcDbSymbolTableRecord
100
AcDbTextStyleTableRecord
  2
seiso_ttf
 70
     0
 40
0.0
 41
1.0
 50
0.0
 71
     0
 42
0.2
  3
seiso.ttf
  4

1001
ACAD
1000
Solid Edge ISO
1071
        2
  0
STYLE
  5
122
330
3
100
AcDbSymbolTableRecord
100
AcDbTextStyleTableRecord
  2
arial_ttf
 70
     0
 40
0.0
 41
1.0
 50
0.0
 71
     0
 42
0.2
  3
arial.ttf
  4

1001
ACAD
1000
Arial
1071
    32770
  0
STYLE
  5
13C
330
3
100
AcDbSymbolTableRecord
100
AcDbTextStyleTableRecord
  2
semeca1_ttf
 70
     0
 40
0.0
 41
1.0
 50
0.0
 71
     0
 42
0.2
  3
semeca1.ttf
  4

1001
ACAD
1000
Solid Edge ANSI1 Symbols
1071
        2
  0
STYLE
  5
394
330
3
100
AcDbSymbolTableRecord
100
AcDbTextStyleTableRecord
  2
ＭＳ ゴシック
 70
     0
 40
0.0
 41
1.0
 50
0.0
 71
     0
 42
0.2
  3
msgothic.ttc
  4
ＭＳ ゴシック
1001
ACAD
1000
ＭＳ ゴシック
1071
        0
  0
ENDTAB
  0
TABLE
  2
VIEW
  5
5
330
0
100
AcDbSymbolTable
 70
     0
  0
ENDTAB
  0
TABLE
  2
UCS
  5
6
330
0
100
AcDbSymbolTable
 70
     0
  0
ENDTAB
  0
TABLE
  2
APPID
  5
8
330
0
100
AcDbSymbolTable
 70
     1
  0
APPID
  5
16
330
8
100
AcDbSymbolTableRecord
100
AcDbRegAppTableRecord
  2
ACAD
 70
     0
  0
ENDTAB
  0
TABLE
  2
DIMSTYLE
  5
9
330
0
100
AcDbSymbolTable
 70
     2
100
AcDbDimStyleTable
  0
DIMSTYLE
105
18
330
9
100
AcDbSymbolTableRecord
100
AcDbDimStyleTableRecord
  2
Standard
 70
     0
178
     0
289
     0
340
17
  0
DIMSTYLE
105
393
102
{ACAD_REACTORS
330
40B
102
}
330
9
100
AcDbSymbolTableRecord
100
AcDbDimStyleTableRecord
  2
tfrom線あり
 70
     0
  3
<>
  4
[]
 41
2.0
 42
5.0
 43
0.0
 44
0.0
 73
     0
 74
     0
 77
     1
 78
    11
140
6.0
141
0.0
143
1.0
147
5.0
171
     1
174
     1
178
     0
179
     2
271
     0
272
     1
276
     2
284
    11
285
    11
286
    11
289
     0
340
394
341
395
342
395
  0
ENDTAB
  0
TABLE
  2
BLOCK_RECORD
  5
1
330
0
100
AcDbSymbolTable
 70
    15
  0
BLOCK_RECORD
  5
A
330
1
100
AcDbSymbolTableRecord
100
AcDbBlockTableRecord
  2
*MODEL_SPACE
340
20
 70
     0
280
     1
281
     0
  0
BLOCK_RECORD
  5
B
330
1
100
AcDbSymbolTableRecord
100
AcDbBlockTableRecord
  2
*PAPER_SPACE
340
21
 70
     0
280
     1
281
     0
  0
BLOCK_RECORD
  5
124
330
1
100
AcDbSymbolTableRecord
100
AcDbBlockTableRecord
  2
SE0
340
0
102
{BLKREFS
331
126
102
}
 70
     0
280
     1
281
     0
  0
BLOCK_RECORD
  5
129
330
1
100
AcDbSymbolTableRecord
100
AcDbBlockTableRecord
  2
SE1
340
0
102
{BLKREFS
331
130
102
}
 70
     0
280
     1
281
     0
  0
BLOCK_RECORD
  5
12A
330
1
100
AcDbSymbolTableRecord
100
AcDbBlockTableRecord
  2
SE2
340
0
102
{BLKREFS
331
12C
102
}
 70
     0
280
     1
281
     0
  0
BLOCK_RECORD
  5
131
330
1
100
AcDbSymbolTableRecord
100
AcDbBlockTableRecord
  2
SE3
340
0
102
{BLKREFS
331
134
102
}
 70
     0
280
     1
281
     0
  0
BLOCK_RECORD
  5
135
330
1
100
AcDbSymbolTableRecord
100
AcDbBlockTableRecord
  2
SE4
340
0
102
{BLKREFS
331
138
102
}
 70
     0
280
     1
281
     0
  0
BLOCK_RECORD
  5
139
330
1
100
AcDbSymbolTableRecord
100
AcDbBlockTableRecord
  2
SE5
340
0
 70
     0
280
     1
281
     0
  0
BLOCK_RECORD
  5
395
330
1
100
AcDbSymbolTableRecord
100
AcDbBlockTableRecord
  2
_DOT
340
0
102
{BLKREFS
331
415
331
416
331
44C
331
44D
331
45D
331
45E
102
}
 70
     0
280
     1
281
     0
  0
BLOCK_RECORD
  5
3CE
330
1
100
AcDbSymbolTableRecord
100
AcDbBlockTableRecord
  2
名称未設定-1
340
0
102
{BLKREFS
331
408
102
}
 70
     1
280
     1
281
     0
  0
BLOCK_RECORD
  5
3D1
330
1
100
AcDbSymbolTableRecord
100
AcDbBlockTableRecord
  2
block 3
340
0
102
{BLKREFS
331
3D0
102
}
 70
     0
280
     1
281
     0
  0
BLOCK_RECORD
  5
3D4
330
1
100
AcDbSymbolTableRecord
100
AcDbBlockTableRecord
  2
block 4
340
0
102
{BLKREFS
331
3D3
102
}
 70
     0
280
     1
281
     0
  0
BLOCK_RECORD
  5
3E4
330
1
100
AcDbSymbolTableRecord
100
AcDbBlockTableRecord
  2
block 5
340
0
102
{BLKREFS
331
3E3
102
}
 70
     0
280
     1
281
     0
  0
BLOCK_RECORD
  5
40E
330
1
100
AcDbSymbolTableRecord
100
AcDbBlockTableRecord
  2
*D11
340
0
 70
     0
280
     1
281
     0
  0
BLOCK_RECORD
  5
447
330
1
100
AcDbSymbolTableRecord
100
AcDbBlockTableRecord
  2
*D12
340
0
 70
     0
280
     1
281
     0
  0
BLOCK_RECORD
  5
457
330
1
100
AcDbSymbolTableRecord
100
AcDbBlockTableRecord
  2
*D13
340
0
 70
     0
280
     1
281
     0
  0
ENDTAB
  0
ENDSEC
  0
SECTION
  2
BLOCKS
  0
BLOCK
  5
D
330
A
100
AcDbEntity
  8
0
390
1D
100
AcDbBlockBegin
  2
*MODEL_SPACE
 70
     0
 10
0.0
 20
0.0
 30
0.0
  3
*MODEL_SPACE
  1
*MODEL_SPACE
  0
ENDBLK
  5
E
330
A
100
AcDbEntity
  8
0
390
1D
100
AcDbBlockEnd
  0
BLOCK
  5
F
330
B
100
AcDbEntity
 67
     1
  8
0
390
1D
100
AcDbBlockBegin
  2
*PAPER_SPACE
 70
     0
 10
0.0
 20
0.0
 30
0.0
  3
*PAPER_SPACE
  1
*PAPER_SPACE
  0
ENDBLK
  5
10
330
B
100
AcDbEntity
 67
     1
  8
0
390
1D
100
AcDbBlockEnd
  0
BLOCK
  5
17D
330
124
100
AcDbEntity
  8
DEFAULT
 62
     1
 48
0.0
370
     0
390
1D
100
AcDbBlockBegin
  2
SE0
 70
     0
 10
0.0
 20
0.0
 30
0.0
  3
SE0
  1
SE0
  0
LWPOLYLINE
  5
17E
330
124
100
AcDbEntity
  8
DEFAULT
  6
Continuous
370
     0
390
1D
100
AcDbPolyline
 90
        2
 70
     0
 43
0.0
 10
172.7581404707
 20
161.8989255155
 10
156.4067678458
 20
177.8814791591
  0
HATCH
  5
17F
330
124
100
AcDbEntity
  8
DEFAULT
  6
Continuous
390
1D
100
AcDbHatch
 10
0.0
 20
0.0
 30
0.0
210
0.0
220
0.0
230
1.0
  2
SOLID
 70
     1
 71
     0
 91
        1
 92
        1
 93
        3
 72
     1
 10
167.768389264135
 20
165.3777735345998
 11
172.7581404706789
 21
161.8989255154954
 72
     1
 10
172.7581404706789
 20
161.8989255154954
 11
169.1663805787928
 21
166.8080253843382
 72
     1
 10
169.1663805787929
 20
166.8080253843382
 11
167.768389264135
 21
165.3777735345999
 97
        0
 75
     0
 76
     1
 98
        1
 10
0.0
 20
0.0
  0
LINE
  5
180
330
124
100
AcDbEntity
  8
DEFAULT
  6
Continuous
370
     0
390
1D
100
AcDbLine
 10
156.4067678458
 20
177.8814791591
 30
0.0
 11
103.5138343003066
 21
177.8814791591
 31
0.0
  0
TEXT
  5
181
330
124
100
AcDbEntity
  8
0
  6
Continuous
370
     0
390
1D
100
AcDbText
 10
104.3947380311677
 20
181.6074995508551
 30
0.0
 40
10.0
  1
1750mm
  7
arial_ttf
 11
104.3947380311677
 21
191.6074995508551
 31
0.0
100
AcDbText
 73
     3
  0
ENDBLK
  5
182
330
124
100
AcDbEntity
  8
0
  6
Continuous
 62
   136
370
     0
390
1D
100
AcDbBlockEnd
  0
BLOCK
  5
23E
330
129
100
AcDbEntity
  8
DEFAULT
 62
     1
 48
0.0
370
     0
390
1D
100
AcDbBlockBegin
  2
SE1
 70
     0
 10
0.0
 20
0.0
 30
0.0
  3
SE1
  1
SE1
  0
ENDBLK
  5
23F
330
129
100
AcDbEntity
  8
DEFAULT
 62
     1
 48
0.0
370
     0
390
1D
100
AcDbBlockEnd
  0
BLOCK
  5
183
330
12A
100
AcDbEntity
  8
DEFAULT
 62
     1
 48
0.0
370
     0
390
1D
100
AcDbBlockBegin
  2
SE2
 70
     0
 10
0.0
 20
0.0
 30
0.0
  3
SE2
  1
SE2
  0
LINE
  5
184
330
12A
100
AcDbEntity
  8
DV1__F_T_H___G
  6
Continuous
 62
     7
370
     0
390
1D
100
AcDbLine
 10
187.9553303151
 20
130.2732025211
 30
0.0
 11
187.9553303151
 21
132.9941999206
 31
0.0
  0
LINE
  5
185
330
12A
100
AcDbEntity
  8
DV1__F_T_H___G
  6
Continuous
 62
     7
370
     0
390
1D
100
AcDbLine
 10
22.7579803436
 20
128.1240149138
 30
0.0
 11
22.7579803436
 21
127.1232684861
 31
0.0
  0
LINE
  5
186
330
12A
100
AcDbEntity
  8
DV1__F_T_H___G
  6
Continuous
 62
     7
370
     0
390
1D
100
AcDbLine
 10
173.5589757877
 20
148.4212669608
 30
0.0
 11
173.5589757877
 21
145.8536403177
 31
0.0
  0
LINE
  5
187
330
12A
100
AcDbEntity
  8
DV1__F_T_H___G
  6
Continuous
 62
     7
370
     0
390
1D
100
AcDbLine
 10
38.753758249
 20
140.1216105956
 30
0.0
 11
38.753758249
 21
143.1216105956
 31
0.0
  0
LINE
  5
188
330
12A
100
AcDbEntity
  8
DV1__F_T_H___G
  6
Continuous
 62
     7
370
     0
390
1D
100
AcDbLine
 10
187.9535639532
 20
154.2718135504
 30
0.0
 11
187.9535639532
 21
156.9929551125
 31
0.0
  0
LINE
  5
189
330
12A
100
AcDbEntity
  8
DV1__F_T_H___G
  6
Continuous
 62
     7
370
     0
390
1D
100
AcDbLine
 10
173.5580856893
 20
160.4218743399
 30
0.0
 11
173.5580856893
 21
157.8511558248
 31
0.0
  0
LINE
  5
18A
330
12A
100
AcDbEntity
  8
DV1__F_T_H___G
  6
Continuous
 62
     7
370
     0
390
1D
100
AcDbLine
 10
38.7529806573
 20
128.1221140862
 30
0.0
 11
38.7529806573
 21
131.1221140862
 31
0.0
  0
LINE
  5
18B
330
12A
100
AcDbEntity
  8
DV1__F_T_H___G
  6
Continuous
 62
     7
370
     0
390
1D
100
AcDbLine
 10
187.9543319811
 20
142.2674627897
 30
0.0
 11
187.9543319811
 21
144.9934491213
 31
0.0
  0
LINE
  5
18C
330
12A
100
AcDbEntity
  8
DV1__F_T_H___G
  6
Continuous
 62
     7
370
     0
390
1D
100
AcDbLine
 10
187.956368464
 20
118.2704512911
 30
0.0
 11
187.956368464
 21
120.9937081743
 31
0.0
  0
LINE
  5
18D
330
12A
100
AcDbEntity
  8
DV1__F_T_H___G
  6
Continuous
 62
     7
370
     0
390
1D
100
AcDbLine
 10
22.7588926666
 20
140.1251248445
 30
0.0
 11
22.7588926666
 21
137.1251248445
 31
0.0
  0
LINE
  5
18E
330
12A
100
AcDbEntity
  8
DV1__F_T_H___G
  6
Continuous
 62
     7
370
     0
390
1D
100
AcDbLine
 10
187.9572162112
 20
106.2726096674
 30
0.0
 11
187.9572162112
 21
108.9955323944
 31
0.0
  0
LINE
  5
18F
330
12A
100
AcDbEntity
  8
DV1__F_T_H___G
  6
Continuous
 62
     7
370
     0
390
1D
100
AcDbLine
 10
22.7600403704
 20
152.1258164295
 30
0.0
 11
22.7600403704
 21
149.1258164295
 31
0.0
  0
LINE
  5
190
330
12A
100
AcDbEntity
  8
DV1__F_T_H___G
  6
Continuous
 62
     7
370
     0
390
1D
100
AcDbLine
 10
172.7625688286
 20
103.4228415972
 30
0.0
 11
172.7625688286
 21
100.4228415972
 31
0.0
  0
LINE
  5
191
330
12A
100
AcDbEntity
  8
DV1__F_T_H___G
  6
Continuous
 62
     7
370
     0
390
1D
100
AcDbLine
 10
37.9546013656
 20
149.1210583116
 30
0.0
 11
37.9546013656
 21
151.6947951643
 31
0.0
  0
LINE
  5
192
330
12A
100
AcDbEntity
  8
DV1__F_T_H___G
  6
Continuous
 62
     7
370
     0
390
1D
100
AcDbLine
 10
172.7621786872
 20
115.4219024084
 30
0.0
 11
172.7621786872
 21
112.4219024084
 31
0.0
  0
LINE
  5
193
330
12A
100
AcDbEntity
  8
DV1__F_T_H___G
  6
Continuous
 62
     7
370
     0
390
1D
100
AcDbLine
 10
37.9537514144
 20
137.1216318161
 30
0.0
 11
37.9537514144
 21
139.6931349891
 31
0.0
  0
LINE
  5
194
330
12A
100
AcDbEntity
  8
DV1__F_T_H___G
  6
Continuous
 62
     7
370
     0
390
1D
100
AcDbLine
 10
172.7613745077
 20
127.4212484146
 30
0.0
 11
172.7613745077
 21
124.4212484146
 31
0.0
  0
LINE
  5
195
330
12A
100
AcDbEntity
  8
DV1__F_T_H___G
  6
Continuous
 62
     7
370
     0
390
1D
100
AcDbLine
 10
172.7602920078
 20
139.4212438436
 30
0.0
 11
172.7602920078
 21
136.4212438436
 31
0.0
  0
LINE
  5
196
330
12A
100
AcDbEntity
  8
DV1__F_T_H___G
  6
Continuous
 62
     7
370
     0
390
1D
100
AcDbLine
 10
23.5592707105
 20
149.2764593167
 30
0.0
 11
23.5592707105
 21
146.5525633367
 31
0.0
  0
LINE
  5
197
330
12A
100
AcDbEntity
  8
DV1__F_T_H___G
  6
Continuous
 62
     7
370
     0
390
1D
100
AcDbLine
 10
188.7539693859
 20
145.4254508061
 30
0.0
 11
188.7539693859
 21
148.4254508061
 31
0.0
  0
LINE
  5
198
330
12A
100
AcDbEntity
  8
DV1__F_T_H___G
  6
Continuous
 62
     7
370
     0
390
1D
100
AcDbLine
 10
172.759129981
 20
151.4215405414
 30
0.0
 11
172.759129981
 21
148.4215405414
 31
0.0
  0
LINE
  5
199
330
12A
100
AcDbEntity
  8
DV1__F_T_H___G
  6
Continuous
 62
     7
370
     0
390
1D
100
AcDbLine
 10
23.5583083623
 20
137.2775148504
 30
0.0
 11
23.5583083623
 21
134.5506743262
 31
0.0
  0
LINE
  5
19A
330
12A
100
AcDbEntity
  8
DV1__F_T_H___G
  6
Continuous
 62
     7
370
     0
390
1D
100
AcDbLine
 10
188.7531153827
 20
157.4247854807
 30
0.0
 11
188.7531153827
 21
160.4247854807
 31
0.0
  0
LINE
  5
19B
330
12A
100
AcDbEntity
  8
DV1__F_T_H___G
  6
Continuous
 62
     7
370
     0
390
1D
100
AcDbLine
 10
172.7581404707
 20
163.4220874539
 30
0.0
 11
172.7581404707
 21
160.4220874539
 31
0.0
  0
LINE
  5
19C
330
12A
100
AcDbEntity
  8
DV1__F_T_H___G
  6
Continuous
 62
     7
370
     0
390
1D
100
AcDbLine
 10
173.5619481503
 20
106.4223811075
 30
0.0
 11
173.5619481503
 21
103.8549389737
 31
0.0
  0
LINE
  5
19D
330
12A
100
AcDbEntity
  8
DV1__F_T_H___G
  6
Continuous
 62
     7
370
     0
390
1D
100
AcDbLine
 10
188.7550771738
 20
133.4253935188
 30
0.0
 11
188.7550771738
 21
136.4253935188
 31
0.0
  0
SPLINE
  5
19E
330
12A
100
AcDbEntity
  8
DV1__F_T_H___G
  6
Continuous
 62
     7
370
     0
390
1D
100
AcDbSpline
210
0.0
220
0.0
230
1.0
 70
     8
 71
     3
 72
    20
 73
    16
 74
     0
 42
0.000000001
 43
0.0
 40
0.0
 40
0.0
 40
0.0
 40
0.0
 40
0.0147122720287422
 40
0.0147122720287422
 40
0.2098963628116255
 40
0.2098963628116255
 40
0.4050804535945069
 40
0.4050804535945069
 40
0.6002645443773896
 40
0.6002645443773896
 40
0.7954486351602716
 40
0.7954486351602716
 40
0.9906327259431538
 40
0.9906327259431538
 40
1.0
 40
1.0
 40
1.0
 40
1.0
 10
22.75798028897974
 20
128.1240225863701
 30
0.0
 10
22.75786117599959
 20
128.1408443903428
 30
0.0
 10
22.76155079233375
 20
128.1576661943155
 30
0.0
 10
22.86933921998896
 20
128.3976587299954
 30
0.0
 10
23.64915574631305
 20
128.6208294617028
 30
0.0
 10
26.2109442587869
 20
129.0671709251174
 30
0.0
 10
27.98283858253142
 20
129.2903416568247
 30
0.0
 10
31.69742877067258
 20
129.7366831202393
 30
0.0
 10
33.62551203699264
 20
129.9598538519467
 30
0.0
 10
36.74055078528256
 20
130.4061953153613
 30
0.0
 10
37.91525220774213
 20
130.6293660470686
 30
0.0
 10
38.96122401674467
 20
131.0757075104833
 30
0.0
 10
38.82837971906398
 20
131.2988782421905
 30
0.0
 10
38.03372355595372
 20
131.5327593827072
 30
0.0
 10
37.99590613252847
 20
131.5434697915166
 30
0.0
 10
37.95669681978193
 20
131.554180200326
 30
0.0
  0
SPLINE
  5
19F
330
12A
100
AcDbEntity
  8
DV1__F_T_H___G
  6
Continuous
 62
     7
370
     0
390
1D
100
AcDbSpline
210
0.0
220
0.0
230
1.0
 70
     8
 71
     3
 72
    20
 73
    16
 74
     0
 42
0.000000001
 43
0.0
 40
0.0
 40
0.0
 40
0.0
 40
0.0
 40
0.0218736732587529
 40
0.0218736732587529
 40
0.217147432195722
 40
0.217147432195722
 40
0.4124211911326937
 40
0.4124211911326937
 40
0.6076949500696641
 40
0.6076949500696641
 40
0.8029687090066345
 40
0.8029687090066345
 40
0.9982424679436055
 40
0.9982424679436055
 40
1.0
 40
1.0
 40
1.0
 40
1.0
 10
22.75838714244488
 20
134.1251020607576
 30
0.0
 10
22.75834066111065
 20
134.1501006253003
 30
0.0
 10
22.76664801101558
 20
134.175099189843
 30
0.0
 10
22.93373911607202
 20
134.423268486093
 30
0.0
 10
23.76216187804847
 20
134.6464392178003
 30
0.0
 10
26.39606972137759
 20
135.0927806812149
 30
0.0
 10
28.1911934345212
 20
135.3159514129223
 30
0.0
 10
31.91594710229914
 20
135.7622928763369
 30
0.0
 10
33.83092447736892
 20
135.9854636080442
 30
0.0
 10
36.8893762457074
 20
136.4318050714589
 30
0.0
 10
38.02081918350896
 20
136.6549758031662
 30
0.0
 10
38.97014838755475
 20
137.1013172665808
 30
0.0
 10
38.78430014598023
 20
137.3244879982881
 30
0.0
 10
37.97324640127642
 20
137.5496673445536
 30
0.0
 10
37.96596220137853
 20
137.5516759591117
 30
0.0
 10
37.95862869048537
 20
137.5536845736699
 30
0.0
  0
SPLINE
  5
1A0
330
12A
100
AcDbEntity
  8
DV1__F_T_H___G
  6
Continuous
 62
     7
370
     0
390
1D
100
AcDbSpline
210
0.0
220
0.0
230
1.0
 70
     8
 71
     3
 72
    18
 73
    14
 74
     0
 42
0.000000001
 43
0.0
 40
0.0
 40
0.0
 40
0.0
 40
0.0
 40
0.0293517748406857
 40
0.0293517748406857
 40
0.2246893754768011
 40
0.2246893754768011
 40
0.4200269761129165
 40
0.4200269761129165
 40
0.6153645767490306
 40
0.6153645767490306
 40
0.8107021773851446
 40
0.8107021773851446
 40
0.9999999999999999
 40
0.9999999999999999
 40
0.9999999999999999
 40
0.9999999999999999
 10
22.75889275695086
 20
140.1251054188208
 30
0.0
 10
22.75873392114264
 20
140.158639449375
 30
0.0
 10
22.77350858820187
 20
140.1921734799291
 30
0.0
 10
23.0037658353659
 20
140.4488782421905
 30
0.0
 10
23.88019904175415
 20
140.6720489738979
 30
0.0
 10
26.58433194251497
 20
141.1183904373125
 30
0.0
 10
28.40139401464038
 20
141.3415611690198
 30
0.0
 10
32.13363236602193
 20
141.7879026324345
 30
0.0
 10
34.03412662217659
 20
142.0110733641418
 30
0.0
 10
37.0337918104839
 20
142.4574148275564
 30
0.0
 10
38.12116254408411
 20
142.6805855592637
 30
0.0
 10
38.95999455010291
 20
143.1200266528778
 30
0.0
 10
38.74857458648462
 20
143.3362970147845
 30
0.0
 10
37.96263530712354
 20
143.5525673766911
 30
0.0
  0
SPLINE
  5
1A1
330
12A
100
AcDbEntity
  8
DV1__F_T_H___G
  6
Continuous
 62
     7
370
     0
390
1D
100
AcDbSpline
210
0.0
220
0.0
230
1.0
 70
     8
 71
     3
 72
    18
 73
    14
 74
     0
 42
0.000000001
 43
0.0
 40
0.0
 40
0.0
 40
0.0
 40
0.0
 40
0.0367208966517774
 40
0.0367208966517774
 40
0.2320627953392488
 40
0.2320627953392488
 40
0.4274046940267227
 40
0.4274046940267227
 40
0.6227465927141954
 40
0.6227465927141954
 40
0.8180884914016642
 40
0.8180884914016642
 40
1.0
 40
1.0
 40
1.0
 40
1.0
 10
22.75945469237195
 20
146.1254605594977
 30
0.0
 10
22.75932495000716
 20
146.167412795192
 30
0.0
 10
22.78242966823382
 20
146.2093650308864
 30
0.0
 10
23.07936901553403
 20
146.4744879982881
 30
0.0
 10
24.00318234658511
 20
146.6976587299955
 30
0.0
 10
26.77559552637512
 20
147.1440001934101
 30
0.0
 10
28.61328914927308
 20
147.3671709251174
 30
0.0
 10
32.35032800533469
 20
147.813512388532
 30
0.0
 10
34.23497233098653
 20
148.0366831202393
 30
0.0
 10
37.17369361775258
 20
148.483024583654
 30
0.0
 10
38.21621012378355
 20
148.7061953153613
 30
0.0
 10
38.94435364117842
 20
149.1371930660166
 30
0.0
 10
38.71577072852887
 20
149.3450200849647
 30
0.0
 10
37.96136696437709
 20
149.5528471039128
 30
0.0
  0
SPLINE
  5
1A2
330
12A
100
AcDbEntity
  8
DV1__F_T_H___G
  6
Continuous
 62
     7
370
     0
390
1D
100
AcDbSpline
210
0.0
220
0.0
230
1.0
 70
     8
 71
     3
 72
    18
 73
    14
 74
     0
 42
0.000000001
 43
0.0
 40
0.0
 40
0.0
 40
0.0
 40
0.0
 40
0.0440859524534965
 40
0.0440859524534965
 40
0.2393666612383502
 40
0.2393666612383502
 40
0.4346473700232
 40
0.4346473700232
 40
0.6299280788080562
 40
0.6299280788080562
 40
0.8252087875929087
 40
0.8252087875929087
 40
1.0
 40
1.0
 40
1.0
 40
1.0
 10
22.76004038305984
 20
152.1257800763934
 30
0.0
 10
22.76001478110429
 20
152.1761623918217
 30
0.0
 10
22.79332215689483
 20
152.22654470725
 30
0.0
 10
23.16049428371925
 20
152.5000977543857
 30
0.0
 10
24.13102334449402
 20
152.723268486093
 30
0.0
 10
26.96972291859201
 20
153.1696099495076
 30
0.0
 10
28.82672644610103
 20
153.3927806812149
 30
0.0
 10
32.56587817545648
 20
153.8391221446296
 30
0.0
 10
34.43331715808868
 20
154.0622928763369
 30
0.0
 10
37.30898105189161
 20
154.5086343397516
 30
0.0
 10
38.30589356558237
 20
154.7318050714588
 30
0.0
 10
38.92708581385396
 20
155.1547307252557
 30
0.0
 10
38.68234562913718
 20
155.3544856473452
 30
0.0
 10
37.9559177753013
 20
155.5542405694347
 30
0.0
  0
SPLINE
  5
1A3
330
12A
100
AcDbEntity
  8
DV1__F_T_H___G
  6
Continuous
 62
     7
370
     0
390
1D
100
AcDbSpline
210
0.0
220
0.0
230
1.0
 70
     8
 71
     3
 72
    18
 73
    14
 74
     0
 42
0.000000001
 43
0.0
 40
0.0
 40
0.0
 40
0.0
 40
0.0
 40
0.0517210735297886
 40
0.0517210735297886
 40
0.2470853427832308
 40
0.2470853427832308
 40
0.4424496120366731
 40
0.4424496120366731
 40
0.637813881290118
 40
0.637813881290118
 40
0.8331781505435576
 40
0.8331781505435576
 40
1.0
 40
1.0
 40
1.0
 40
1.0
 10
22.76061929761303
 20
158.1252889657274
 30
0.0
 10
22.76039060962631
 20
158.1843715700769
 30
0.0
 10
22.80578132873184
 20
158.2434541744264
 30
0.0
 10
23.24708329564806
 20
158.5257075104832
 30
0.0
 10
24.26363009384158
 20
158.7488782421906
 30
0.0
 10
27.16657450518456
 20
159.1952197056052
 30
0.0
 10
29.04155240370253
 20
159.4183904373125
 30
0.0
 10
32.78012785541369
 20
159.8647319007272
 30
0.0
 10
34.6290184563759
 20
160.0879026324344
 30
0.0
 10
37.43955681587838
 20
160.5342440958491
 30
0.0
 10
38.39014837027609
 20
160.7574148275564
 30
0.0
 10
38.90612015766396
 20
161.1711513897005
 30
0.0
 10
38.65199086867963
 20
161.3617172201373
 30
0.0
 10
37.962537111005
 20
161.5522830505741
 30
0.0
  0
SPLINE
  5
1A4
330
12A
100
AcDbEntity
  8
DV1__F_T_H___G
  6
Continuous
 62
     7
370
     0
390
1D
100
AcDbSpline
210
0.0
220
0.0
230
1.0
 70
     8
 71
     3
 72
    18
 73
    14
 74
     0
 42
0.000000001
 43
0.0
 40
0.0
 40
0.0
 40
0.0
 40
0.0
 40
0.1122950957324229
 40
0.1122950957324229
 40
0.3075919012935903
 40
0.3075919012935903
 40
0.5028887068547576
 40
0.5028887068547576
 40
0.6981855124159302
 40
0.6981855124159302
 40
0.8934823179770977
 40
0.8934823179770977
 40
1.0
 40
1.0
 40
1.0
 40
1.0
 10
188.7528316499325
 20
163.424089711453
 30
0.0
 10
188.7526390802331
 20
163.2957671891785
 30
0.0
 10
188.5398668667342
 20
163.1674446669041
 30
0.0
 10
187.3869880564993
 20
162.8159514129223
 30
0.0
 10
186.0312822938139
 20
162.592780681215
 30
0.0
 10
182.6930965476903
 20
162.1464392178004
 30
0.0
 10
180.7237484480244
 20
161.9232684860931
 30
0.0
 10
177.0861375559387
 20
161.4769270226784
 30
0.0
 10
175.4321845374731
 20
161.2537562909711
 30
0.0
 10
173.2111867316216
 20
160.8074148275565
 30
0.0
 10
172.6528789910219
 20
160.5842440958492
 30
0.0
 10
172.8409312860662
 20
160.2393528425567
 30
0.0
 10
173.1092965253166
 20
160.1176323209715
 30
0.0
 10
173.5499202780728
 20
159.9959117993864
 30
0.0
  0
SPLINE
  5
1A5
330
12A
100
AcDbEntity
  8
DV1__F_T_H___G
  6
Continuous
 62
     7
370
     0
390
1D
100
AcDbSpline
210
0.0
220
0.0
230
1.0
 70
     8
 71
     3
 72
    18
 73
    14
 74
     0
 42
0.000000001
 43
0.0
 40
0.0
 40
0.0
 40
0.0
 40
0.0
 40
0.1199083731756827
 40
0.1199083731756827
 40
0.3151074657045947
 40
0.3151074657045947
 40
0.5103065582335015
 40
0.5103065582335015
 40
0.7055056507624031
 40
0.7055056507624031
 40
0.9007047432913152
 40
0.9007047432913152
 40
1.0
 40
1.0
 40
1.0
 40
1.0
 10
188.7531153827695
 20
157.4247853975317
 30
0.0
 10
188.75317827104
 20
157.2876943945318
 30
0.0
 10
188.5101682772079
 20
157.150603391532
 30
0.0
 10
187.2544831495806
 20
156.7903416568248
 30
0.0
 10
185.8604629615791
 20
156.5671709251175
 30
0.0
 10
182.4782989275101
 20
156.1208294617028
 30
0.0
 10
180.5034599686994
 20
155.8976587299955
 30
0.0
 10
176.8903777219237
 20
155.4513172665809
 30
0.0
 10
175.2663477161823
 20
155.2281465348736
 30
0.0
 10
173.1268141322047
 20
154.7818050714589
 30
0.0
 10
172.6197271336583
 20
154.5586343397516
 30
0.0
 10
172.8787213924237
 20
154.2219395398345
 30
0.0
 10
173.1413340560059
 20
154.1084154716247
 30
0.0
 10
173.5536504462893
 20
153.9948914034149
 30
0.0
  0
SPLINE
  5
1A6
330
12A
100
AcDbEntity
  8
DV1__F_T_H___G
  6
Continuous
 62
     7
370
     0
390
1D
100
AcDbSpline
210
0.0
220
0.0
230
1.0
 70
     8
 71
     3
 72
    18
 73
    14
 74
     0
 42
0.000000001
 43
0.0
 40
0.0
 40
0.0
 40
0.0
 40
0.0
 40
0.1273788493222841
 40
0.1273788493222841
 40
0.322536945534096
 40
0.322536945534096
 40
0.5176950417459183
 40
0.5176950417459183
 40
0.7128531379577354
 40
0.7128531379577354
 40
0.9080112341695525
 40
0.9080112341695525
 40
1.0
 40
1.0
 40
1.0
 40
1.0
 10
188.7534996538435
 20
151.4248903602166
 30
0.0
 10
188.7531834237323
 20
151.2792277842892
 30
0.0
 10
188.4777503114339
 20
151.1335652083619
 30
0.0
 10
187.117305766716
 20
150.7647319007272
 30
0.0
 10
185.6859737152007
 20
150.5415611690199
 30
0.0
 10
182.26226380306
 20
150.0952197056053
 30
0.0
 10
180.2833542644682
 20
149.872048973898
 30
0.0
 10
176.6973991463526
 20
149.4257075104833
 30
0.0
 10
175.1044601353082
 20
149.202536778776
 30
0.0
 10
173.0479294988731
 20
148.7561953153614
 30
0.0
 10
172.5924279329775
 20
148.5330245836541
 30
0.0
 10
172.9183768716588
 20
148.204661187242
 30
0.0
 10
173.1728286856206
 20
148.0994685225372
 30
0.0
 10
173.5558146178548
 20
147.9942758578324
 30
0.0
  0
SPLINE
  5
1A7
330
12A
100
AcDbEntity
  8
DV1__F_T_H___G
  6
Continuous
 62
     7
370
     0
390
1D
100
AcDbSpline
210
0.0
220
0.0
230
1.0
 70
     8
 71
     3
 72
    18
 73
    14
 74
     0
 42
0.000000001
 43
0.0
 40
0.0
 40
0.0
 40
0.0
 40
0.0
 40
0.1350293165093159
 40
0.1350293165093159
 40
0.3302150844454346
 40
0.3302150844454346
 40
0.5254008523815533
 40
0.5254008523815533
 40
0.7205866203176772
 40
0.7205866203176772
 40
0.9157723882537959
 40
0.9157723882537959
 40
1.0
 40
1.0
 40
1.0
 40
1.0
 10
188.753969387362
 20
145.4254607346183
 30
0.0
 10
188.7539530131718
 20
145.2710714485245
 30
0.0
 10
188.4438412169082
 20
145.1166821624307
 30
0.0
 10
186.9755545641557
 20
144.7391221446297
 30
0.0
 10
185.5079400451521
 20
144.5159514129223
 30
0.0
 10
182.0451465440866
 20
144.0696099495077
 30
0.0
 10
180.0635896325871
 20
143.8464392178004
 30
0.0
 10
176.5073406169922
 20
143.4000977543857
 30
0.0
 10
174.946638222365
 20
143.1769270226784
 30
0.0
 10
172.9745895644639
 20
142.7305855592638
 30
0.0
 10
172.5710010222215
 20
142.5074148275565
 30
0.0
 10
172.9592758706302
 20
142.1879402621111
 30
0.0
 10
173.2015828434348
 20
142.091636428373
 30
0.0
 10
173.5517909817862
 20
141.9953325946349
 30
0.0
  0
SPLINE
  5
1A8
330
12A
100
AcDbEntity
  8
DV1__F_T_H___G
  6
Continuous
 62
     7
370
     0
390
1D
100
AcDbSpline
210
0.0
220
0.0
230
1.0
 70
     8
 71
     3
 72
    18
 73
    14
 74
     0
 42
0.000000001
 43
0.0
 40
0.0
 40
0.0
 40
0.0
 40
0.0
 40
0.1425013633099289
 40
0.1425013633099289
 40
0.3376639472966945
 40
0.3376639472966945
 40
0.5328265312834548
 40
0.5328265312834548
 40
0.7279891152702151
 40
0.7279891152702151
 40
0.9231516992569755
 40
0.9231516992569755
 40
0.9999999999999999
 40
0.9999999999999999
 40
0.9999999999999999
 40
0.9999999999999999
 10
188.7545033837418
 20
139.4255391222894
 30
0.0
 10
188.7542631569287
 20
139.2625871216061
 30
0.0
 10
188.4072069345787
 20
139.0996351209227
 30
0.0
 10
186.8293314875833
 20
138.7135123885321
 30
0.0
 10
185.3264899910116
 20
138.4903416568248
 30
0.0
 10
181.8271032985944
 20
138.0440001934101
 30
0.0
 10
179.844324125018
 20
137.8208294617028
 30
0.0
 10
176.3203388215486
 20
137.3744879982882
 30
0.0
 10
174.7929954808891
 20
137.1513172665809
 30
0.0
 10
172.9068470741364
 20
136.7049758031663
 30
0.0
 10
172.5554618113553
 20
136.4818050714589
 30
0.0
 10
173.002495774608
 20
136.1707573955293
 30
0.0
 10
173.2326138216941
 20
136.082880451307
 30
0.0
 10
173.5527135950829
 20
135.9950035070847
 30
0.0
  0
SPLINE
  5
1A9
330
12A
100
AcDbEntity
  8
DV1__F_T_H___G
  6
Continuous
 62
     7
370
     0
390
1D
100
AcDbSpline
210
0.0
220
0.0
230
1.0
 70
     8
 71
     3
 72
    18
 73
    14
 74
     0
 42
0.000000001
 43
0.0
 40
0.0
 40
0.0
 40
0.0
 40
0.0
 40
0.1498526509955813
 40
0.1498526509955813
 40
0.3449099114676648
 40
0.3449099114676648
 40
0.5399671719397586
 40
0.5399671719397586
 40
0.7350244324118524
 40
0.7350244324118524
 40
0.9300816928839359
 40
0.9300816928839359
 40
0.9999999999999999
 40
0.9999999999999999
 40
0.9999999999999999
 40
0.9999999999999999
 10
188.7550772927301
 20
133.4254258013189
 30
0.0
 10
188.7544698475377
 20
133.2539749889266
 30
0.0
 10
188.3681560219692
 20
133.0825241765342
 30
0.0
 10
186.6787416987982
 20
132.6879026324345
 30
0.0
 10
185.1417540493783
 20
132.4647319007272
 30
0.0
 10
181.6082908805457
 20
132.0183904373126
 30
0.0
 10
179.6257154347587
 20
131.7952197056053
 30
0.0
 10
176.136528249363
 20
131.3488782421906
 30
0.0
 10
174.6436424088095
 20
131.1257075104833
 30
0.0
 10
172.8447507474384
 20
130.6793660470687
 30
0.0
 10
172.545821475984
 20
130.4561953153614
 30
0.0
 10
173.0484675147367
 20
130.1530289981472
 30
0.0
 10
173.2666754080417
 20
130.0730334126403
 30
0.0
 10
173.5595369175567
 20
129.9930378271335
 30
0.0
  0
SPLINE
  5
1AA
330
12A
100
AcDbEntity
  8
DV1__F_T_H___G
  6
Continuous
 62
     7
370
     0
390
1D
100
AcDbSpline
210
0.0
220
0.0
230
1.0
 70
     8
 71
     3
 72
    18
 73
    14
 74
     0
 42
0.000000001
 43
0.0
 40
0.0
 40
0.0
 40
0.0
 40
0.0
 40
0.1574383172795464
 40
0.1574383172795464
 40
0.3525422842221461
 40
0.3525422842221461
 40
0.547646251164751
 40
0.547646251164751
 40
0.7427502181073559
 40
0.7427502181073559
 40
0.9378541850499504
 40
0.9378541850499504
 40
1.0
 40
1.0
 40
1.0
 40
1.0
 10
188.7556648904913
 20
127.4257236296623
 30
0.0
 10
188.7555055096728
 20
127.2456369557896
 30
0.0
 10
188.3275269073651
 20
127.065550281917
 30
0.0
 10
186.523893500084
 20
126.6622928763371
 30
0.0
 10
184.9538650800198
 20
126.4391221446298
 30
0.0
 10
181.3888666570819
 20
125.9927806812151
 30
0.0
 10
179.4079207824322
 20
125.7696099495078
 30
0.0
 10
175.9560410946893
 20
125.3232684860932
 30
0.0
 10
174.498686418979
 20
125.1000977543859
 30
0.0
 10
172.7883452432676
 20
124.6537562909712
 30
0.0
 10
172.5420869493159
 20
124.4305855592639
 30
0.0
 10
173.0945816424101
 20
124.136328999768
 30
0.0
 10
173.2952166238493
 20
124.0652431719794
 30
0.0
 10
173.5550191912228
 20
123.9941573441909
 30
0.0
  0
SPLINE
  5
1AB
330
12A
100
AcDbEntity
  8
DV1__F_T_H___G
  6
Continuous
 62
     7
370
     0
390
1D
100
AcDbSpline
210
0.0
220
0.0
230
1.0
 70
     8
 71
     3
 72
    18
 73
    14
 74
     0
 42
0.000000001
 43
0.0
 40
0.0
 40
0.0
 40
0.0
 40
0.0
 40
0.1647562916291937
 40
0.1647562916291937
 40
0.3599202352805572
 40
0.3599202352805572
 40
0.5550841789319207
 40
0.5550841789319207
 40
0.7502481225832894
 40
0.7502481225832894
 40
0.9454120662346529
 40
0.9454120662346529
 40
1.0
 40
1.0
 40
1.0
 40
1.0
 10
188.7562313022413
 20
121.4250522405686
 30
0.0
 10
188.7551946048204
 20
121.2366527776946
 30
0.0
 10
188.2832285522068
 20
121.0482533148207
 30
0.0
 10
186.3648982563194
 20
120.6366831202395
 30
0.0
 10
184.7629582103218
 20
120.4135123885322
 30
0.0
 10
181.1689884353473
 20
119.9671709251176
 30
0.0
 10
179.1910968032158
 20
119.7440001934102
 30
0.0
 10
175.7790071616214
 20
119.2976587299956
 30
0.0
 10
174.3582317619241
 20
119.0744879982883
 30
0.0
 10
172.737671127754
 20
118.6281465348737
 30
0.0
 10
172.5442609171754
 20
118.4049758031663
 30
0.0
 10
173.1428200680268
 20
118.119383556025
 30
0.0
 10
173.3250821453334
 20
118.0569620405909
 30
0.0
 10
173.5531439260167
 20
117.9945405251569
 30
0.0
  0
SPLINE
  5
1AC
330
12A
100
AcDbEntity
  8
DV1__F_T_H___G
  6
Continuous
 62
     7
370
     0
390
1D
100
AcDbSpline
210
0.0
220
0.0
230
1.0
 70
     8
 71
     3
 72
    18
 73
    14
 74
     0
 42
0.000000001
 43
0.0
 40
0.0
 40
0.0
 40
0.0
 40
0.0
 40
0.1722576463417223
 40
0.1722576463417223
 40
0.36733831527719
 40
0.36733831527719
 40
0.5624189842126474
 40
0.5624189842126474
 40
0.7574996531481047
 40
0.7574996531481047
 40
0.9525803220835725
 40
0.9525803220835725
 40
1.0
 40
1.0
 40
1.0
 40
1.0
 10
188.7567480536361
 20
115.4254282226934
 30
0.0
 10
188.7568538575452
 20
115.2283668470787
 30
0.0
 10
188.2383131677742
 20
115.031305471464
 30
0.0
 10
186.2018703148861
 20
114.6110733641419
 30
0.0
 10
184.5691707381064
 20
114.3879026324346
 30
0.0
 10
180.9488143489959
 20
113.94156116902
 30
0.0
 10
178.9753994341904
 20
113.7183904373127
 30
0.0
 10
175.6055537707391
 20
113.2720489738981
 30
0.0
 10
174.222379450869
 20
113.0488782421907
 30
0.0
 10
172.6927648450847
 20
112.6025367787761
 30
0.0
 10
172.5523418160722
 20
112.3793660470688
 30
0.0
 10
173.1939003158787
 20
112.101947581459
 30
0.0
 10
173.3579057997318
 20
112.0476998475565
 30
0.0
 10
173.5566214304301
 20
111.993452113654
 30
0.0
  0
SPLINE
  5
1AD
330
12A
100
AcDbEntity
  8
DV1__F_T_H___G
  6
Continuous
 62
     7
370
     0
390
1D
100
AcDbSpline
210
0.0
220
0.0
230
1.0
 70
     8
 71
     3
 72
    18
 73
    14
 74
     0
 42
0.000000001
 43
0.0
 40
0.0
 40
0.0
 40
0.0
 40
0.0
 40
0.1793658458594535
 40
0.1793658458594535
 40
0.3744777784644738
 40
0.3744777784644738
 40
0.5695897110695044
 40
0.5695897110695044
 40
0.76470164367453
 40
0.76470164367453
 40
0.9598135762795605
 40
0.9598135762795605
 40
1.0
 40
1.0
 40
1.0
 40
1.0
 10
188.7571707319196
 20
109.4241150004572
 30
0.0
 10
188.7557385809086
 20
109.218954780222
 30
0.0
 10
188.1883614946115
 20
109.0137945599869
 30
0.0
 10
186.0349269234306
 20
108.5854636080444
 30
0.0
 10
184.3726420328884
 20
108.3622928763371
 30
0.0
 10
180.7285027444643
 20
107.9159514129224
 30
0.0
 10
178.7609838021937
 20
107.6927806812151
 30
0.0
 10
175.4358056675415
 20
107.2464392178005
 30
0.0
 10
174.0912271890887
 20
107.0232684860932
 30
0.0
 10
172.6536586912939
 20
106.5769270226785
 30
0.0
 10
172.5663238343255
 20
106.3537562909712
 30
0.0
 10
173.2466166204939
 20
106.0846199770125
 30
0.0
 10
173.3902504435421
 20
106.0386543947611
 30
0.0
 10
173.5589091057018
 20
105.9926888125096
 30
0.0
  0
SPLINE
  5
1AE
330
12A
100
AcDbEntity
  8
DV1__F_T_H___G
  6
Continuous
 62
     7
370
     0
390
1D
100
AcDbSpline
210
0.0
220
0.0
230
1.0
 70
     8
 71
     3
 72
    16
 73
    12
 74
     0
 42
0.000000001
 43
0.0
 40
0.0
 40
0.0
 40
0.0
 40
0.0
 40
0.2136167933030404
 40
0.2136167933030404
 40
0.4366932740290813
 40
0.4366932740290813
 40
0.6597697547551163
 40
0.6597697547551163
 40
0.8828462354811573
 40
0.8828462354811573
 40
1.0
 40
1.0
 40
1.0
 40
1.0
 10
188.7574704322437
 20
103.4241457262047
 30
0.0
 10
188.757285198474
 20
103.2104386786878
 30
0.0
 10
188.1383083364704
 20
102.996731631171
 30
0.0
 10
185.8641881455427
 20
102.5598538519468
 30
0.0
 10
184.173513435643
 20
102.3366831202395
 30
0.0
 10
180.5082120670896
 20
101.8903416568249
 30
0.0
 10
178.548004112254
 20
101.6671709251176
 30
0.0
 10
175.2698849327316
 20
101.2208294617029
 30
0.0
 10
173.964869299642
 20
100.9976587299956
 30
0.0
 10
172.9395804535852
 20
100.6572847356904
 30
0.0
 10
172.7625172365034
 20
100.5400814730926
 30
0.0
 10
172.7625688067498
 20
100.4228782104948
 30
0.0
  0
SPLINE
  5
1AF
330
12A
100
AcDbEntity
  8
DV1__F_T_H___G
  6
Continuous
 62
     7
370
     0
390
1D
100
AcDbSpline
210
0.0
220
0.0
230
1.0
 70
     8
 71
     3
 72
    12
 73
     8
 74
     0
 42
0.000000001
 43
0.0
 40
0.0
 40
0.0
 40
0.0
 40
0.0
 40
0.3734566606267352
 40
0.3734566606267352
 40
0.8201933968849585
 40
0.8201933968849585
 40
1.0
 40
1.0
 40
1.0
 40
1.0
 10
30.75785140348217
 20
129.6233352446187
 30
0.0
 10
32.16376090827664
 20
129.8098983576305
 30
0.0
 10
33.56865865501786
 20
129.9964614706422
 30
0.0
 10
36.14225581473323
 20
130.4061953153613
 30
0.0
 10
37.19948709494683
 20
130.6293660470686
 30
0.0
 10
37.85962085519299
 20
130.9423605338561
 30
0.0
 10
37.95344881577294
 20
131.0321842889363
 30
0.0
 10
37.95344275030388
 20
131.1220080440166
 30
0.0
  0
SPLINE
  5
1B0
330
12A
100
AcDbEntity
  8
DV1__F_T_H___G
  6
Continuous
 62
     7
370
     0
390
1D
100
AcDbSpline
210
0.0
220
0.0
230
1.0
 70
     8
 71
     3
 72
    12
 73
     8
 74
     0
 42
0.000000001
 43
0.0
 40
0.0
 40
0.0
 40
0.0
 40
0.0
 40
0.3906589241213732
 40
0.3906589241213732
 40
0.8374679992932923
 40
0.8374679992932923
 40
1.0
 40
1.0
 40
1.0
 40
1.0
 10
30.75735061025607
 20
135.6232592245934
 30
0.0
 10
32.22780633655685
 20
135.8183842629794
 30
0.0
 10
33.69655110877356
 20
136.0135093013655
 30
0.0
 10
36.27619872911558
 20
136.4318050714589
 30
0.0
 10
37.29449737313698
 20
136.6549758031662
 30
0.0
 10
37.87709381044112
 20
136.9593274856176
 30
0.0
 10
37.95383144918617
 20
137.0405084363618
 30
0.0
 10
37.95375137048833
 20
137.121689387106
 30
0.0
  0
SPLINE
  5
1B1
330
12A
100
AcDbEntity
  8
DV1__F_T_H___G
  6
Continuous
 62
     7
370
     0
390
1D
100
AcDbSpline
210
0.0
220
0.0
230
1.0
 70
     8
 71
     3
 72
    12
 73
     8
 74
     0
 42
0.000000001
 43
0.0
 40
0.0
 40
0.0
 40
0.0
 40
0.0
 40
0.4077717273781807
 40
0.4077717273781807
 40
0.8546171524391749
 40
0.8546171524391749
 40
1.0
 40
1.0
 40
1.0
 40
1.0
 10
30.75755550773211
 20
141.6232763450472
 30
0.0
 10
32.29240633018403
 20
141.8269322619812
 30
0.0
 10
33.8245095268792
 20
142.0305881789151
 30
0.0
 10
36.40617273741444
 20
142.4574148275564
 30
0.0
 10
37.38480639765462
 20
142.6805855592637
 30
0.0
 10
37.89294933466324
 20
142.9763657318385
 30
0.0
 10
37.95436290380442
 20
143.0489751727059
 30
0.0
 10
37.95414261357504
 20
143.1215846135733
 30
0.0
  0
SPLINE
  5
1B2
330
12A
100
AcDbEntity
  8
DV1__F_T_H___G
  6
Continuous
 62
     7
370
     0
390
1D
100
AcDbSpline
210
0.0
220
0.0
230
1.0
 70
     8
 71
     3
 72
    12
 73
     8
 74
     0
 42
0.000000001
 43
0.0
 40
0.0
 40
0.0
 40
0.0
 40
0.0
 40
0.4249796051996793
 40
0.4249796051996793
 40
0.8719628334600084
 40
0.8719628334600084
 40
1.0
 40
1.0
 40
1.0
 40
1.0
 10
30.75779712060157
 20
147.6232997032223
 30
0.0
 10
32.35714513512337
 20
147.8354844194638
 30
0.0
 10
33.95233414051073
 20
148.0476691357052
 30
0.0
 10
36.53208436395623
 20
148.483024583654
 30
0.0
 10
37.47034921938412
 20
148.7061953153613
 30
0.0
 10
37.90687887341983
 20
148.9932927144151
 30
0.0
 10
37.95471599038948
 20
149.0572193817616
 30
0.0
 10
37.95460123822924
 20
149.1211460491081
 30
0.0
  0
SPLINE
  5
1B3
330
12A
100
AcDbEntity
  8
DV1__F_T_H___G
  6
Continuous
 62
     7
370
     0
390
1D
100
AcDbSpline
210
0.0
220
0.0
230
1.0
 70
     8
 71
     3
 72
    12
 73
     8
 74
     0
 42
0.000000001
 43
0.0
 40
0.0
 40
0.0
 40
0.0
 40
0.0
 40
0.44220904295616
 40
0.44220904295616
 40
0.8892805601490689
 40
0.8892805601490689
 40
0.9999999999999999
 40
0.9999999999999999
 40
0.9999999999999999
 40
0.9999999999999999
 10
30.75733288414595
 20
153.6232332138753
 30
0.0
 10
32.42156414308734
 20
153.8439766785983
 30
0.0
 10
34.07981998460928
 20
154.0647201433212
 30
0.0
 10
36.65384305468137
 20
154.5086343397516
 30
0.0
 10
37.55106431700305
 20
154.7318050714588
 30
0.0
 10
37.91913922504484
 20
155.0102451224037
 30
0.0
 10
37.95512319722641
 20
155.0655144416413
 30
0.0
 10
37.95510580897471
 20
155.1207837608789
 30
0.0
  0
SPLINE
  5
1B4
330
12A
100
AcDbEntity
  8
DV1__F_T_H___G
  6
Continuous
 62
     7
370
     0
390
1D
100
AcDbSpline
210
0.0
220
0.0
230
1.0
 70
     8
 71
     3
 72
    14
 73
    10
 74
     0
 42
0.000000001
 43
0.0
 40
0.0
 40
0.0
 40
0.0
 40
0.0
 40
0.0122304068723726
 40
0.0122304068723726
 40
0.4592445091253071
 40
0.4592445091253071
 40
0.9062586113782297
 40
0.9062586113782297
 40
1.0
 40
1.0
 40
1.0
 40
1.0
 10
30.757423471604
 20
159.6232431640372
 30
0.0
 10
30.80345294855558
 20
159.6293491656981
 30
0.0
 10
30.84948650337067
 20
159.6354551673589
 30
0.0
 10
32.57787517785124
 20
159.8647319007272
 30
0.0
 10
34.24187671871722
 20
160.0879026324344
 30
0.0
 10
36.77136124226947
 20
160.5342440958491
 30
0.0
 10
37.6268936412274
 20
160.7574148275564
 30
0.0
 10
37.92990681807566
 20
161.0273857254878
 30
0.0
 10
37.95574044057372
 20
161.074185891712
 30
0.0
 10
37.95563219732971
 20
161.1209860579362
 30
0.0
  0
SPLINE
  5
1B5
330
12A
100
AcDbEntity
  8
DV1__F_T_H___G
  6
Continuous
 62
     7
370
     0
390
1D
100
AcDbSpline
210
0.0
220
0.0
230
1.0
 70
     8
 71
     3
 72
    12
 73
     8
 74
     0
 42
0.000000001
 43
0.0
 40
0.0
 40
0.0
 40
0.0
 40
0.0
 40
0.1486616388060012
 40
0.1486616388060012
 40
0.5945728227666365
 40
0.5945728227666365
 40
1.0
 40
1.0
 40
1.0
 40
1.0
 10
180.7575480621436
 20
161.9233053878956
 30
0.0
 10
180.196731767919
 20
161.8489028433923
 30
0.0
 10
179.6359406666957
 20
161.7745002988891
 30
0.0
 10
177.4532839083238
 20
161.4769270226784
 30
0.0
 10
175.9647261917047
 20
161.2537562909711
 30
0.0
 10
174.0565675378791
 20
160.8276763633258
 30
0.0
 10
173.5586867583237
 20
160.6247671673878
 30
0.0
 10
173.5580856397339
 20
160.4218579714499
 30
0.0
  0
SPLINE
  5
1B6
330
12A
100
AcDbEntity
  8
DV1__F_T_H___G
  6
Continuous
 62
     7
370
     0
390
1D
100
AcDbSpline
210
0.0
220
0.0
230
1.0
 70
     8
 71
     3
 72
    12
 73
     8
 74
     0
 42
0.000000001
 43
0.0
 40
0.0
 40
0.0
 40
0.0
 40
0.0
 40
0.1656071423350799
 40
0.1656071423350799
 40
0.6112754478466768
 40
0.6112754478466768
 40
1.0
 40
1.0
 40
1.0
 40
1.0
 10
180.7573601338998
 20
155.9232739227558
 30
0.0
 10
180.1322378409011
 20
155.8403452812666
 30
0.0
 10
179.5071550078513
 20
155.7574166397774
 30
0.0
 10
177.2771000577102
 20
155.4513172665809
 30
0.0
 10
175.815473052543
 20
155.2281465348736
 30
0.0
 10
174.0129100620694
 20
154.8103199533699
 30
0.0
 10
173.5584063686983
 20
154.6156641035736
 30
0.0
 10
173.5584944893271
 20
154.4210082537772
 30
0.0
  0
SPLINE
  5
1B7
330
12A
100
AcDbEntity
  8
DV1__F_T_H___G
  6
Continuous
 62
     7
370
     0
390
1D
100
AcDbSpline
210
0.0
220
0.0
230
1.0
 70
     8
 71
     3
 72
    12
 73
     8
 74
     0
 42
0.000000001
 43
0.0
 40
0.0
 40
0.0
 40
0.0
 40
0.0
 40
0.1827096573602395
 40
0.1827096573602395
 40
0.6284219789598869
 40
0.6284219789598869
 40
1.0
 40
1.0
 40
1.0
 40
1.0
 10
180.7578491657924
 20
149.9233295818579
 30
0.0
 10
180.0682016930779
 20
149.8318458019688
 30
0.0
 10
179.3785905794432
 20
149.7403620220798
 30
0.0
 10
177.1034193396963
 20
149.4257075104833
 30
0.0
 10
175.6697742297563
 20
149.202536778776
 30
0.0
 10
173.9728227519263
 20
148.7933147874933
 30
0.0
 10
173.559578695819
 20
148.607263527918
 30
0.0
 10
173.5589755985536
 20
148.4212122683426
 30
0.0
  0
SPLINE
  5
1B8
330
12A
100
AcDbEntity
  8
DV1__F_T_H___G
  6
Continuous
 62
     7
370
     0
390
1D
100
AcDbSpline
210
0.0
220
0.0
230
1.0
 70
     8
 71
     3
 72
    12
 73
     8
 74
     0
 42
0.000000001
 43
0.0
 40
0.0
 40
0.0
 40
0.0
 40
0.0
 40
0.1997498254054115
 40
0.1997498254054115
 40
0.6454912840435576
 40
0.6454912840435576
 40
1.0
 40
1.0
 40
1.0
 40
1.0
 10
180.7576846612043
 20
143.9232965438174
 30
0.0
 10
180.0037402385564
 20
143.8232871912426
 30
0.0
 10
179.2498255052446
 20
143.7232778386678
 30
0.0
 10
176.9323666632719
 20
143.4000977543857
 30
0.0
 10
175.5277345081074
 20
143.1769270226784
 30
0.0
 10
173.9345250062872
 20
142.7762633340037
 30
0.0
 10
173.5603097721133
 20
142.5987703770364
 30
0.0
 10
173.5594954177902
 20
142.4212774200691
 30
0.0
  0
SPLINE
  5
1B9
330
12A
100
AcDbEntity
  8
DV1__F_T_H___G
  6
Continuous
 62
     7
370
     0
390
1D
100
AcDbSpline
210
0.0
220
0.0
230
1.0
 70
     8
 71
     3
 72
    12
 73
     8
 74
     0
 42
0.000000001
 43
0.0
 40
0.0
 40
0.0
 40
0.0
 40
0.0
 40
0.2167047460285153
 40
0.2167047460285153
 40
0.6623104426823272
 40
0.6623104426823272
 40
1.0
 40
1.0
 40
1.0
 40
1.0
 10
180.7574467361438
 20
137.9232525706856
 30
0.0
 10
179.9392436076282
 20
137.8147212904556
 30
0.0
 10
179.1210535862154
 20
137.7061900102256
 30
0.0
 10
176.7640650473727
 20
137.3744879982882
 30
0.0
 10
175.3894560407791
 20
137.1513172665809
 30
0.0
 10
173.8974755794086
 20
136.7590229662962
 30
0.0
 10
173.5600846264831
 20
136.5898993977188
 30
0.0
 10
173.5600218802892
 20
136.4207758291414
 30
0.0
  0
SPLINE
  5
1BA
330
12A
100
AcDbEntity
  8
DV1__F_T_H___G
  6
Continuous
 62
     7
370
     0
390
1D
100
AcDbSpline
210
0.0
220
0.0
230
1.0
 70
     8
 71
     3
 72
    12
 73
     8
 74
     0
 42
0.000000001
 43
0.0
 40
0.0
 40
0.0
 40
0.0
 40
0.0
 40
0.2337412528464254
 40
0.2337412528464254
 40
0.679363858366689
 40
0.679363858366689
 40
1.0
 40
1.0
 40
1.0
 40
1.0
 10
180.757345770546
 20
131.9232264441276
 30
0.0
 10
179.8748546526955
 20
131.8061672873844
 30
0.0
 10
178.9923481442915
 20
131.6891081306412
 30
0.0
 10
176.5986355324056
 20
131.3488782421906
 30
0.0
 10
175.2550382759075
 20
131.1257075104833
 30
0.0
 10
173.8630814852638
 20
130.74196009022
 30
0.0
 10
173.5604325829223
 20
130.5813834016641
 30
0.0
 10
173.5605309919536
 20
130.4208067131082
 30
0.0
  0
SPLINE
  5
1BB
330
12A
100
AcDbEntity
  8
DV1__F_T_H___G
  6
Continuous
 62
     7
370
     0
390
1D
100
AcDbSpline
210
0.0
220
0.0
230
1.0
 70
     8
 71
     3
 72
    12
 73
     8
 74
     0
 42
0.000000001
 43
0.0
 40
0.0
 40
0.0
 40
0.0
 40
0.0
 40
0.2509155458783809
 40
0.2509155458783809
 40
0.6967096787310225
 40
0.6967096787310225
 40
1.0
 40
1.0
 40
1.0
 40
1.0
 10
180.7578007270516
 20
125.9232746347143
 30
0.0
 10
179.8108541362428
 20
125.7976628290764
 30
0.0
 10
178.8638447784532
 20
125.6720510234384
 30
0.0
 10
176.4361970931993
 20
125.3232684860932
 30
0.0
 10
175.12457788506
 20
125.1000977543859
 30
0.0
 10
173.8313004477887
 20
124.7250956773797
 30
0.0
 10
173.5613328420538
 20
124.5732643320809
 30
0.0
 10
173.5609974397999
 20
124.421432986782
 30
0.0
  0
SPLINE
  5
1BC
330
12A
100
AcDbEntity
  8
DV1__F_T_H___G
  6
Continuous
 62
     7
370
     0
390
1D
100
AcDbSpline
210
0.0
220
0.0
230
1.0
 70
     8
 71
     3
 72
    12
 73
     8
 74
     0
 42
0.000000001
 43
0.0
 40
0.0
 40
0.0
 40
0.0
 40
0.0
 40
0.2680050211007032
 40
0.2680050211007032
 40
0.7139060228756892
 40
0.7139060228756892
 40
1.0
 40
1.0
 40
1.0
 40
1.0
 10
180.7575759512651
 20
119.9232340969618
 30
0.0
 10
179.7464181385604
 20
119.7890992185422
 30
0.0
 10
178.7351703051975
 20
119.6549643401226
 30
0.0
 10
176.2768665534382
 20
119.2976587299956
 30
0.0
 10
174.9981686937106
 20
119.0744879982883
 30
0.0
 10
173.8010217729333
 20
118.7081289760014
 30
0.0
 10
173.5616747919017
 20
118.5649406854218
 30
0.0
 10
173.5613997377565
 20
118.4217523948422
 30
0.0
  0
SPLINE
  5
1BD
330
12A
100
AcDbEntity
  8
DV1__F_T_H___G
  6
Continuous
 62
     7
370
     0
390
1D
100
AcDbSpline
210
0.0
220
0.0
230
1.0
 70
     8
 71
     3
 72
    12
 73
     8
 74
     0
 42
0.000000001
 43
0.0
 40
0.0
 40
0.0
 40
0.0
 40
0.0
 40
0.2850589543040522
 40
0.2850589543040522
 40
0.7309928648989102
 40
0.7309928648989102
 40
1.0
 40
1.0
 40
1.0
 40
1.0
 10
180.7573749709829
 20
113.9231989233793
 30
0.0
 10
179.6820136858589
 20
113.7805391841213
 30
0.0
 10
178.6065526625509
 20
113.6378794448633
 30
0.0
 10
176.1207585016441
 20
113.2720489738981
 30
0.0
 10
174.875901613761
 20
113.0488782421907
 30
0.0
 10
173.7723458896839
 20
112.6910810159544
 30
0.0
 10
173.5616109717503
 20
112.5564545214254
 30
0.0
 10
173.5617209658054
 20
112.4218280268964
 30
0.0
  0
SPLINE
  5
1BE
330
12A
100
AcDbEntity
  8
DV1__F_T_H___G
  6
Continuous
 62
     7
370
     0
390
1D
100
AcDbSpline
210
0.0
220
0.0
230
1.0
 70
     8
 71
     3
 72
    12
 73
     8
 74
     0
 42
0.000000001
 43
0.0
 40
0.0
 40
0.0
 40
0.0
 40
0.0
 40
0.3022442599257169
 40
0.3022442599257169
 40
0.748308587123348
 40
0.748308587123348
 40
1.0
 40
1.0
 40
1.0
 40
1.0
 10
180.7578630955548
 20
107.9232580123268
 30
0.0
 10
179.6180800950532
 20
107.7720419913871
 30
0.0
 10
178.4781987364391
 20
107.6208259704475
 30
0.0
 10
175.9679852087662
 20
107.2464392178005
 30
0.0
 10
174.7578645781587
 20
107.0232684860932
 30
0.0
 10
173.7459426994812
 20
106.6741738610115
 30
0.0
 10
173.5618617636531
 20
106.5482499676372
 30
0.0
 10
173.5619481763658
 20
106.4223260742629
 30
0.0
  0
SPLINE
  5
1BF
330
12A
100
AcDbEntity
  8
DV1__F_T_H___G
  6
Continuous
 62
     7
370
     0
390
1D
100
AcDbSpline
210
0.0
220
0.0
230
1.0
 70
     8
 71
     3
 72
    12
 73
     8
 74
     0
 42
0.000000001
 43
0.0
 40
0.0
 40
0.0
 40
0.0
 40
0.0
 40
0.3194495800612885
 40
0.3194495800612885
 40
0.765734891958528
 40
0.765734891958528
 40
1.0
 40
1.0
 40
1.0
 40
1.0
 10
180.7577065439902
 20
101.9232348531135
 30
0.0
 10
179.5537212196568
 20
101.7634899665457
 30
0.0
 10
178.3497203668793
 20
101.603745079978
 30
0.0
 10
175.8186565474373
 20
101.2208294617029
 30
0.0
 10
174.6441424776567
 20
100.9976587299956
 30
0.0
 10
173.7215342545445
 20
100.657340706676
 30
0.0
 10
173.5621778602666
 20
100.5401934150637
 30
0.0
 10
173.5620720766189
 20
100.4230461234514
 30
0.0
  0
LINE
  5
1C0
330
12A
100
AcDbEntity
  8
DV1__F_T_H___G
  6
Continuous
 62
     7
370
     0
390
1D
100
AcDbLine
 10
187.9533086064
 20
160.2689701308
 30
0.0
 11
187.9533086064
 21
162.992116931
 31
0.0
  0
LINE
  5
1C1
330
12A
100
AcDbEntity
  8
DV1__F_T_H___G
  6
Continuous
 62
     7
370
     0
390
1D
100
AcDbLine
 10
173.5584944766
 20
154.4210700493
 30
0.0
 11
173.5584944766
 21
151.8521159406
 31
0.0
  0
LINE
  5
1C2
330
12A
100
AcDbEntity
  8
DV1__F_T_H___G
  6
Continuous
 62
     7
370
     0
390
1D
100
AcDbLine
 10
38.7533236927
 20
134.1215834385
 30
0.0
 11
38.7533236927
 21
137.1215834385
 31
0.0
  0
LINE
  5
1C3
330
12A
100
AcDbEntity
  8
DV1__F_T_H___G
  6
Continuous
 62
     7
370
     0
390
1D
100
AcDbLine
 10
187.9539100163
 20
148.2707140923
 30
0.0
 11
187.9539100163
 21
150.993915234
 31
0.0
  0
LINE
  5
1C4
330
12A
100
AcDbEntity
  8
DV1__F_T_H___G
  6
Continuous
 62
     7
370
     0
390
1D
100
AcDbLine
 10
187.9548130127
 20
136.2718468738
 30
0.0
 11
187.9548130127
 21
138.9923913648
 31
0.0
  0
LINE
  5
1C5
330
12A
100
AcDbEntity
  8
DV1__F_T_H___G
  6
Continuous
 62
     7
370
     0
390
1D
100
AcDbLine
 10
187.9558577857
 20
124.269580695
 30
0.0
 11
187.9558577857
 21
126.9947208791
 31
0.0
  0
LINE
  5
1C6
330
12A
100
AcDbEntity
  8
DV1__F_T_H___G
  6
Continuous
 62
     7
370
     0
390
1D
100
AcDbLine
 10
22.7583870586
 20
134.1251534719
 30
0.0
 11
22.7583870586
 21
131.1251534719
 31
0.0
  0
LINE
  5
1C7
330
12A
100
AcDbEntity
  8
DV1__F_T_H___G
  6
Continuous
 62
     7
370
     0
390
1D
100
AcDbLine
 10
187.9568333396
 20
112.2734572288
 30
0.0
 11
187.9568333396
 21
114.9942768683
 31
0.0
  0
LINE
  5
1C8
330
12A
100
AcDbEntity
  8
DV1__F_T_H___G
  6
Continuous
 62
     7
370
     0
390
1D
100
AcDbLine
 10
22.7594546715
 20
146.1254673851
 30
0.0
 11
22.7594546715
 21
143.1254673851
 31
0.0
  0
LINE
  5
1C9
330
12A
100
AcDbEntity
  8
DV1__F_T_H___G
  6
Continuous
 62
     7
370
     0
390
1D
100
AcDbLine
 10
187.9574822191
 20
100.4232684861
 30
0.0
 11
187.9574822191
 21
102.995363619
 31
0.0
  0
LINE
  5
1CA
330
12A
100
AcDbEntity
  8
DV1__F_T_H___G
  6
Continuous
 62
     7
370
     0
390
1D
100
AcDbLine
 10
37.9551058146
 20
155.1207302044
 30
0.0
 11
37.9551058146
 21
157.6935293469
 31
0.0
  0
LINE
  5
1CB
330
12A
100
AcDbEntity
  8
DV1__F_T_H___G
  6
Continuous
 62
     7
370
     0
390
1D
100
AcDbLine
 10
22.7606193154
 20
158.1252843833
 30
0.0
 11
22.7606193154
 21
155.1252843833
 31
0.0
  0
LINE
  5
1CC
330
12A
100
AcDbEntity
  8
DV1__F_T_H___G
  6
Continuous
 62
     7
370
     0
390
1D
100
AcDbLine
 10
172.7624312601
 20
109.4225722941
 30
0.0
 11
172.7624312601
 21
106.4225722941
 31
0.0
  0
LINE
  5
1CD
330
12A
100
AcDbEntity
  8
DV1__F_T_H___G
  6
Continuous
 62
     7
370
     0
390
1D
100
AcDbLine
 10
37.9541426709
 20
143.1215652408
 30
0.0
 11
37.9541426709
 21
145.6947568127
 31
0.0
  0
LINE
  5
1CE
330
12A
100
AcDbEntity
  8
DV1__F_T_H___G
  6
Continuous
 62
     7
370
     0
390
1D
100
AcDbLine
 10
172.7618217537
 20
121.4217239618
 30
0.0
 11
172.7618217537
 21
118.4217239618
 31
0.0
  0
LINE
  5
1CF
330
12A
100
AcDbEntity
  8
DV1__F_T_H___G
  6
Continuous
 62
     7
370
     0
390
1D
100
AcDbLine
 10
37.9534427391
 20
131.1219448888
 30
0.0
 11
37.9534427391
 21
133.6935271453
 31
0.0
  0
LINE
  5
1D0
330
12A
100
AcDbEntity
  8
DV1__F_T_H___G
  6
Continuous
 62
     7
370
     0
390
1D
100
AcDbLine
 10
173.5613997717
 20
118.4217694968
 30
0.0
 11
173.5613997717
 21
115.8526444093
 31
0.0
  0
LINE
  5
1D1
330
12A
100
AcDbEntity
  8
DV1__F_T_H___G
  6
Continuous
 62
     7
370
     0
390
1D
100
AcDbLine
 10
188.7562311886
 20
121.4250319286
 30
0.0
 11
188.7562311886
 21
124.4250319286
 31
0.0
  0
SPLINE
  5
1D2
330
12A
100
AcDbEntity
  8
DV1__F_T_H___G
  6
Continuous
 62
     7
370
     0
390
1D
100
AcDbSpline
210
0.0
220
0.0
230
1.0
 70
     8
 71
     3
 72
    10
 73
     6
 74
     0
 42
0.000000001
 43
0.0
 40
0.0
 40
0.0
 40
0.0
 40
0.0
 40
0.0257977871991841
 40
0.0257977871991841
 40
1.0
 40
1.0
 40
1.0
 40
1.0
 10
188.0575984940276
 20
100.4230254963593
 30
0.0
 10
188.0576025807507
 20
100.4243260051324
 30
0.0
 10
188.0575855935318
 20
100.4256265139054
 30
0.0
 10
188.0561091485565
 20
100.4760381543684
 30
0.0
 10
188.0245811689086
 20
100.5251492860585
 30
0.0
 10
187.9644952295836
 20
100.5742604177485
 30
0.0
  0
SPLINE
  5
1D3
330
12A
100
AcDbEntity
  8
DV1__F_T_H___G
  6
Continuous
 62
     7
370
     0
390
1D
100
AcDbSpline
210
0.0
220
0.0
230
1.0
 70
     8
 71
     3
 72
    14
 73
    10
 74
     0
 42
0.000000001
 43
0.0
 40
0.0
 40
0.0
 40
0.0
 40
0.0
 40
0.1152690225118262
 40
0.1152690225118262
 40
0.5208562840171362
 40
0.5208562840171362
 40
0.9264435455224462
 40
0.9264435455224462
 40
1.0
 40
1.0
 40
1.0
 40
1.0
 10
180.7577104246377
 20
104.9232351692599
 30
0.0
 10
181.2423848821553
 20
104.9866609090173
 30
0.0
 10
181.7270568420925
 20
105.0500866487747
 30
0.0
 10
183.8746211045058
 20
105.3366831202394
 30
0.0
 10
185.4173617772892
 20
105.5598538519467
 30
0.0
 10
187.5374481980711
 20
106.0061953153614
 30
0.0
 10
188.1064538683798
 20
106.2293660470687
 30
0.0
 10
188.0446908922852
 20
106.4930105542753
 30
0.0
 10
188.014788229441
 20
106.5334843297747
 30
0.0
 10
187.9653836856295
 20
106.573958105274
 30
0.0
  0
SPLINE
  5
1D4
330
12A
100
AcDbEntity
  8
DV1__F_T_H___G
  6
Continuous
 62
     7
370
     0
390
1D
100
AcDbSpline
210
0.0
220
0.0
230
1.0
 70
     8
 71
     3
 72
    14
 73
    10
 74
     0
 42
0.000000001
 43
0.0
 40
0.0
 40
0.0
 40
0.0
 40
0.0
 40
0.1303521911717121
 40
0.1303521911717121
 40
0.5346447635264848
 40
0.5346447635264848
 40
0.9389373358812763
 40
0.9389373358812763
 40
1.0
 40
1.0
 40
1.0
 40
1.0
 10
180.7578645358792
 20
110.9232577246082
 30
0.0
 10
181.3077529175419
 20
110.995212531282
 30
0.0
 10
181.857618737532
 20
111.0671673379558
 30
0.0
 10
184.0563259494922
 20
111.362292876337
 30
0.0
 10
185.573160912112
 20
111.5854636080443
 30
0.0
 10
187.6207948954315
 20
112.0318050714589
 30
0.0
 10
188.143538854633
 20
112.2549758031662
 30
0.0
 10
188.0307501102866
 20
112.5118533115081
 30
0.0
 10
188.0018078132856
 20
112.5455600881427
 30
0.0
 10
187.9592892868636
 20
112.5792668647772
 30
0.0
  0
SPLINE
  5
1D5
330
12A
100
AcDbEntity
  8
DV1__F_T_H___G
  6
Continuous
 62
     7
370
     0
390
1D
100
AcDbSpline
210
0.0
220
0.0
230
1.0
 70
     8
 71
     3
 72
    14
 73
    10
 74
     0
 42
0.000000001
 43
0.0
 40
0.0
 40
0.0
 40
0.0
 40
0.0
 40
0.1459730250930718
 40
0.1459730250930718
 40
0.5506000014007658
 40
0.5506000014007658
 40
0.9552269777084358
 40
0.9552269777084358
 40
1.0
 40
1.0
 40
1.0
 40
1.0
 10
180.7573725453892
 20
116.923199016908
 30
0.0
 10
181.372688741859
 20
117.003709978181
 30
0.0
 10
181.9879727231878
 20
117.0842209394541
 30
0.0
 10
184.2356583930037
 20
117.3879026324345
 30
0.0
 10
185.7254967568151
 20
117.6110733641418
 30
0.0
 10
187.6992056700417
 20
118.0574148275565
 30
0.0
 10
188.1753119672491
 20
118.2805855592638
 30
0.0
 10
188.0157933758313
 20
118.5284507101043
 30
0.0
 10
187.9923266232525
 20
118.5531451292376
 30
0.0
 10
187.9615220970821
 20
118.5778395483708
 30
0.0
  0
SPLINE
  5
1D6
330
12A
100
AcDbEntity
  8
DV1__F_T_H___G
  6
Continuous
 62
     7
370
     0
390
1D
100
AcDbSpline
210
0.0
220
0.0
230
1.0
 70
     8
 71
     3
 72
    14
 73
    10
 74
     0
 42
0.000000001
 43
0.0
 40
0.0
 40
0.0
 40
0.0
 40
0.0
 40
0.1616238454223545
 40
0.1616238454223545
 40
0.5667414719871743
 40
0.5667414719871743
 40
0.971859098552002
 40
0.971859098552002
 40
1.0
 40
1.0
 40
1.0
 40
1.0
 10
180.7575915472226
 20
122.9232361831619
 30
0.0
 10
181.4380930965154
 20
123.0122713410495
 30
0.0
 10
182.1185542273809
 20
123.1013064989372
 30
0.0
 10
184.4124894614002
 20
123.4135123885321
 30
0.0
 10
185.874259753373
 20
123.6366831202394
 30
0.0
 10
187.7726241298577
 20
124.083024583654
 30
0.0
 10
188.2017503554049
 20
124.3061953153614
 30
0.0
 10
187.9994508446424
 20
124.5448682744595
 30
0.0
 10
187.9833349747641
 20
124.5603705018504
 30
0.0
 10
187.9643047792297
 20
124.5758727292413
 30
0.0
  0
SPLINE
  5
1D7
330
12A
100
AcDbEntity
  8
DV1__F_T_H___G
  6
Continuous
 62
     7
370
     0
390
1D
100
AcDbSpline
210
0.0
220
0.0
230
1.0
 70
     8
 71
     3
 72
    14
 73
    10
 74
     0
 42
0.000000001
 43
0.0
 40
0.0
 40
0.0
 40
0.0
 40
0.0
 40
0.176853518259793
 40
0.176853518259793
 40
0.581414709179842
 40
0.581414709179842
 40
0.9859759000998803
 40
0.9859759000998803
 40
0.9999999999999999
 40
0.9999999999999999
 40
0.9999999999999999
 40
0.9999999999999999
 10
180.7578049872141
 20
128.9232748292988
 30
0.0
 10
181.5034843299714
 20
129.0208336905067
 30
0.0
 10
182.2491252618673
 20
129.1183925517145
 30
0.0
 10
184.5866919799996
 20
129.4391221446297
 30
0.0
 10
186.0193429133082
 20
129.662292876337
 30
0.0
 10
187.8409974732458
 20
130.1086343397516
 30
0.0
 10
188.2228350049436
 20
130.3318050714589
 30
0.0
 10
187.9801465135927
 20
130.5627120089776
 30
0.0
 10
187.9712771040432
 20
130.5704482147889
 30
0.0
 10
187.9616773112642
 20
130.5781844206003
 30
0.0
  0
SPLINE
  5
1D8
330
12A
100
AcDbEntity
  8
DV1__F_T_H___G
  6
Continuous
 62
     7
370
     0
390
1D
100
AcDbSpline
210
0.0
220
0.0
230
1.0
 70
     8
 71
     3
 72
    14
 73
    10
 74
     0
 42
0.000000001
 43
0.0
 40
0.0
 40
0.0
 40
0.0
 40
0.0
 40
0.1919366667579699
 40
0.1919366667579699
 40
0.5956130103789279
 40
0.5956130103789279
 40
0.9992893539998859
 40
0.9992893539998859
 40
1.0
 40
1.0
 40
1.0
 40
1.0
 10
180.7573471231563
 20
134.9232270850039
 30
0.0
 10
181.5684150010602
 20
135.0293384463425
 30
0.0
 10
182.3794699672941
 20
135.1354498076812
 30
0.0
 10
184.7581406645392
 20
135.4647319007272
 30
0.0
 10
186.1606418946349
 20
135.6879026324345
 30
0.0
 10
187.9042765269567
 20
136.1342440958491
 30
0.0
 10
188.2385507520505
 20
136.3574148275565
 30
0.0
 10
187.9582715764039
 20
136.5809784368508
 30
0.0
 10
187.9577771339704
 20
136.5813713144379
 30
0.0
 10
187.957280796417
 20
136.5817641920249
 30
0.0
  0
SPLINE
  5
1D9
330
12A
100
AcDbEntity
  8
DV1__F_T_H___G
  6
Continuous
 62
     7
370
     0
390
1D
100
AcDbSpline
210
0.0
220
0.0
230
1.0
 70
     8
 71
     3
 72
    12
 73
     8
 74
     0
 42
0.000000001
 43
0.0
 40
0.0
 40
0.0
 40
0.0
 40
0.0
 40
0.2078331676917712
 40
0.2078331676917712
 40
0.6124254257394534
 40
0.6124254257394534
 40
1.0
 40
1.0
 40
1.0
 40
1.0
 10
180.7574420096212
 20
140.9232522327729
 30
0.0
 10
181.6336982009776
 20
141.0378917968878
 30
0.0
 10
182.5099692745936
 20
141.1525313610026
 30
0.0
 10
184.9267122112797
 20
141.4903416568248
 30
0.0
 10
186.2980550769013
 20
141.7135123885321
 30
0.0
 10
187.9274131787276
 20
142.1504669967432
 30
0.0
 10
188.2238221942463
 20
142.3642508732471
 30
0.0
 10
187.9618186982078
 20
142.5780347497509
 30
0.0
  0
SPLINE
  5
1DA
330
12A
100
AcDbEntity
  8
DV1__F_T_H___G
  6
Continuous
 62
     7
370
     0
390
1D
100
AcDbSpline
210
0.0
220
0.0
230
1.0
 70
     8
 71
     3
 72
    12
 73
     8
 74
     0
 42
0.000000001
 43
0.0
 40
0.0
 40
0.0
 40
0.0
 40
0.0
 40
0.2233514080322488
 40
0.2233514080322488
 40
0.6280671303555212
 40
0.6280671303555212
 40
1.0
 40
1.0
 40
1.0
 40
1.0
 10
180.7576772870894
 20
146.9232954271783
 30
0.0
 10
181.6990572202545
 20
147.0464571785239
 30
0.0
 10
182.6404830158266
 20
147.1696189298694
 30
0.0
 10
185.0922853856828
 20
147.5159514129223
 30
0.0
 10
186.4314836342736
 20
147.7391221446296
 30
0.0
 10
187.9512241669928
 20
148.1673862939786
 30
0.0
 10
188.2115709125232
 20
148.3724797116201
 30
0.0
 10
187.9621025394027
 20
148.5775731292617
 30
0.0
  0
SPLINE
  5
1DB
330
12A
100
AcDbEntity
  8
DV1__F_T_H___G
  6
Continuous
 62
     7
370
     0
390
1D
100
AcDbSpline
210
0.0
220
0.0
230
1.0
 70
     8
 71
     3
 72
    12
 73
     8
 74
     0
 42
0.000000001
 43
0.0
 40
0.0
 40
0.0
 40
0.0
 40
0.0
 40
0.2381140413090881
 40
0.2381140413090881
 40
0.6416471559875001
 40
0.6416471559875001
 40
0.9999999999999999
 40
0.9999999999999999
 40
0.9999999999999999
 40
0.9999999999999999
 10
180.7578503954344
 20
152.9233292919261
 30
0.0
 10
181.7643566457868
 20
153.0550163403883
 30
0.0
 10
182.77093934225
 20
153.1867033888504
 30
0.0
 10
185.2547411096022
 20
153.5415611690199
 30
0.0
 10
186.5608316066099
 20
153.7647319007272
 30
0.0
 10
187.9790124376325
 20
154.1860867801504
 30
0.0
 10
188.203752221537
 20
154.3842709278662
 30
0.0
 10
187.955687562169
 20
154.5824550755821
 30
0.0
  0
SPLINE
  5
1DC
330
12A
100
AcDbEntity
  8
DV1__F_T_H___G
  6
Continuous
 62
     7
370
     0
390
1D
100
AcDbSpline
210
0.0
220
0.0
230
1.0
 70
     8
 71
     3
 72
    12
 73
     8
 74
     0
 42
0.000000001
 43
0.0
 40
0.0
 40
0.0
 40
0.0
 40
0.0
 40
0.2539724447529545
 40
0.2539724447529545
 40
0.6581252507440226
 40
0.6581252507440226
 40
0.9999999999999999
 40
0.9999999999999999
 40
0.9999999999999999
 40
0.9999999999999999
 10
180.7573578058034
 20
158.9232740560026
 30
0.0
 10
181.8291955295328
 20
159.0635161018051
 30
0.0
 10
182.9011476388177
 20
159.2037581476076
 30
0.0
 10
185.4139625469225
 20
159.5671709251175
 30
0.0
 10
186.6860059684738
 20
159.7903416568248
 30
0.0
 10
187.9962192439974
 20
160.2022935544988
 30
0.0
 10
188.1903221341364
 20
160.3910747204655
 30
0.0
 10
187.9584397593924
 20
160.5798558864322
 30
0.0
  0
SPLINE
  5
1DD
330
12A
100
AcDbEntity
  8
DV1__F_T_H___G
  6
Continuous
 62
     7
370
     0
390
1D
100
AcDbSpline
210
0.0
220
0.0
230
1.0
 70
     8
 71
     3
 72
    12
 73
     8
 74
     0
 42
0.000000001
 43
0.0
 40
0.0
 40
0.0
 40
0.0
 40
0.0
 40
0.3945723764507078
 40
0.3945723764507078
 40
0.8002439253062616
 40
0.8002439253062616
 40
1.0
 40
1.0
 40
1.0
 40
1.0
 10
30.75742217619022
 20
156.6232433172953
 30
0.0
 10
29.09837456018684
 20
156.4061785361629
 30
0.0
 10
27.44455187920167
 20
156.1891137550304
 30
0.0
 10
24.831852555112
 20
155.7488782421906
 30
0.0
 10
23.90425360176041
 20
155.5257075104833
 30
0.0
 10
23.429077519972
 20
155.1926456378317
 30
0.0
 10
23.42061544513818
 20
155.0827544968874
 30
0.0
 10
23.55245572729553
 20
154.972863355943
 30
0.0
  0
SPLINE
  5
1DE
330
12A
100
AcDbEntity
  8
DV1__F_T_H___G
  6
Continuous
 62
     7
370
     0
390
1D
100
AcDbSpline
210
0.0
220
0.0
230
1.0
 70
     8
 71
     3
 72
    14
 73
    10
 74
     0
 42
0.000000001
 43
0.0
 40
0.0
 40
0.0
 40
0.0
 40
0.0
 40
0.0043978426866684
 40
0.0043978426866684
 40
0.4087103469810853
 40
0.4087103469810853
 40
0.8130228512755235
 40
0.8130228512755235
 40
1.0
 40
1.0
 40
1.0
 40
1.0
 10
30.75733456880725
 20
150.6232339215751
 30
0.0
 10
30.73877892893491
 20
150.6208064186908
 30
0.0
 10
30.7202225563539
 20
150.6183789158066
 30
0.0
 10
28.99567797654874
 20
150.392780681215
 30
0.0
 10
27.3011622576968
 20
150.1696099495077
 30
0.0
 10
24.71084889633235
 20
149.723268486093
 30
0.0
 10
23.82524112837536
 20
149.5000977543857
 30
0.0
 10
23.42549767034119
 20
149.1737201550941
 30
0.0
 10
23.43049524965019
 20
149.0705132875098
 30
0.0
 10
23.5591748695923
 20
148.9673064199255
 30
0.0
  0
SPLINE
  5
1DF
330
12A
100
AcDbEntity
  8
DV1__F_T_H___G
  6
Continuous
 62
     7
370
     0
390
1D
100
AcDbSpline
210
0.0
220
0.0
230
1.0
 70
     8
 71
     3
 72
    14
 73
    10
 74
     0
 42
0.000000001
 43
0.0
 40
0.0
 40
0.0
 40
0.0
 40
0.0
 40
0.0199616479392845
 40
0.0199616479392845
 40
0.4254646194432735
 40
0.4254646194432735
 40
0.8309675909472624
 40
0.8309675909472624
 40
1.0
 40
1.0
 40
1.0
 40
1.0
 10
30.75779948495111
 20
144.6232996563198
 30
0.0
 10
30.67384211427796
 20
144.6123136564881
 30
0.0
 10
30.58987343969587
 20
144.6013276566565
 30
0.0
 10
28.80091644319324
 20
144.3671709251174
 30
0.0
 10
27.12402101229885
 20
144.1440001934101
 30
0.0
 10
24.59419398574047
 20
143.6976587299955
 30
0.0
 10
23.75121432115634
 20
143.4744879982882
 30
0.0
 10
23.42805756112265
 20
143.1582893751436
 30
0.0
 10
23.44013951937634
 20
143.0652614837064
 30
0.0
 10
23.55293525635194
 20
142.9722335922691
 30
0.0
  0
SPLINE
  5
1E0
330
12A
100
AcDbEntity
  8
DV1__F_T_H___G
  6
Continuous
 62
     7
370
     0
390
1D
100
AcDbSpline
210
0.0
220
0.0
230
1.0
 70
     8
 71
     3
 72
    14
 73
    10
 74
     0
 42
0.000000001
 43
0.0
 40
0.0
 40
0.0
 40
0.0
 40
0.0
 40
0.0355039592010494
 40
0.0355039592010494
 40
0.4415316177679535
 40
0.4415316177679535
 40
0.8475592763348468
 40
0.8475592763348468
 40
1.0
 40
1.0
 40
1.0
 40
1.0
 10
30.75754866461601
 20
138.6232755323215
 30
0.0
 10
30.60843484016254
 20
138.6037609884567
 30
0.0
 10
30.45929544115196
 20
138.5842464445919
 30
0.0
 10
28.60756213284091
 20
138.3415611690199
 30
0.0
 10
26.94949299202645
 20
138.1183904373125
 30
0.0
 10
24.48197172008221
 20
137.6720489738979
 30
0.0
 10
23.68222641925294
 20
137.4488782421906
 30
0.0
 10
23.43098429026968
 20
137.1419193568328
 30
0.0
 10
23.44959023648707
 20
137.0581312031823
 30
0.0
 10
23.55010164494831
 20
136.9743430495319
 30
0.0
  0
SPLINE
  5
1E1
330
12A
100
AcDbEntity
  8
DV1__F_T_H___G
  6
Continuous
 62
     7
370
     0
390
1D
100
AcDbSpline
210
0.0
220
0.0
230
1.0
 70
     8
 71
     3
 72
    14
 73
    10
 74
     0
 42
0.000000001
 43
0.0
 40
0.0
 40
0.0
 40
0.0
 40
0.0
 40
0.0509503024229068
 40
0.0509503024229068
 40
0.4563879768027366
 40
0.4563879768027366
 40
0.8618256511825556
 40
0.8618256511825556
 40
0.9999999999999999
 40
0.9999999999999999
 40
0.9999999999999999
 40
0.9999999999999999
 10
30.75733783673198
 20
132.6232580080998
 30
0.0
 10
30.54305409626339
 20
132.5952127202764
 30
0.0
 10
30.32873453102568
 20
132.567167432453
 30
0.0
 10
28.41575410348215
 20
132.3159514129223
 30
0.0
 10
26.77770371523863
 20
132.092780681215
 30
0.0
 10
24.37426280820076
 20
131.6464392178004
 30
0.0
 10
23.61832703789729
 20
131.423268486093
 30
0.0
 10
23.43448689705529
 20
131.1240405143279
 30
0.0
 10
23.45975833068503
 20
131.0479832742702
 30
0.0
 10
23.55265486484437
 20
130.9719260342124
 30
0.0
  0
LINE
  5
1E2
330
12A
100
AcDbEntity
  8
DV1__F_T_H___G
  6
Continuous
 62
     7
370
     0
390
1D
100
AcDbLine
 10
173.5605309704
 20
130.4208599492
 30
0.0
 11
173.5605309704
 21
127.8538024136
 31
0.0
  0
LINE
  5
1E3
330
12A
100
AcDbEntity
  8
DV1__F_T_H___G
  6
Continuous
 62
     7
370
     0
390
1D
100
AcDbLine
 10
188.7571704641
 20
109.4240775422
 30
0.0
 11
188.7571704641
 21
112.4240775422
 31
0.0
  0
LINE
  5
1E4
330
12A
100
AcDbEntity
  8
DV1__F_T_H___G
  6
Continuous
 62
     7
370
     0
390
1D
100
AcDbLine
 10
38.7554138089
 20
158.1206967295
 30
0.0
 11
38.7554138089
 21
161.1206967295
 31
0.0
  0
SPLINE
  5
1E5
330
12A
100
AcDbEntity
  8
DV1__F_T_H___G
  6
Continuous
 62
     7
370
     0
390
1D
100
AcDbSpline
210
0.0
220
0.0
230
1.0
 70
     8
 71
     3
 72
     8
 73
     4
 74
     0
 42
0.000000001
 43
0.0
 40
0.0
 40
0.0
 40
0.0
 40
0.0
 40
1.0
 40
1.0
 40
1.0
 40
1.0
 10
38.55343062227364
 20
142.6215218656378
 30
0.0
 10
38.55347743360435
 20
142.7585444923499
 30
0.0
 10
38.31643765926034
 20
142.895567119062
 30
0.0
 10
37.85191166109976
 20
143.0325897457741
 30
0.0
  0
SPLINE
  5
1E6
330
12A
100
AcDbEntity
  8
DV1__F_T_H___G
  6
Continuous
 62
     7
370
     0
390
1D
100
AcDbSpline
210
0.0
220
0.0
230
1.0
 70
     8
 71
     3
 72
     8
 73
     4
 74
     0
 42
0.000000001
 43
0.0
 40
0.0
 40
0.0
 40
0.0
 40
0.0
 40
1.0
 40
1.0
 40
1.0
 40
1.0
 10
38.55435074450579
 20
154.6213316605145
 30
0.0
 10
38.55386983758819
 20
154.7580468402381
 30
0.0
 10
38.31580086346045
 20
154.8947620199617
 30
0.0
 10
37.85509645137976
 20
155.0314771996853
 30
0.0
  0
SPLINE
  5
1E7
330
12A
100
AcDbEntity
  8
DV1__F_T_H___G
  6
Continuous
 62
     7
370
     0
390
1D
100
AcDbSpline
210
0.0
220
0.0
230
1.0
 70
     8
 71
     3
 72
     8
 73
     4
 74
     0
 42
0.000000001
 43
0.0
 40
0.0
 40
0.0
 40
0.0
 40
0.0
 40
1.0
 40
1.0
 40
1.0
 40
1.0
 10
38.55489787035826
 20
160.6207055344252
 30
0.0
 10
38.55494239080659
 20
160.7576806263017
 30
0.0
 10
38.31543363569892
 20
160.8946557181783
 30
0.0
 10
37.85411828086382
 20
161.0316308100549
 30
0.0
  0
SPLINE
  5
1E8
330
12A
100
AcDbEntity
  8
DV1__F_T_H___G
  6
Continuous
 62
     7
370
     0
390
1D
100
AcDbSpline
210
0.0
220
0.0
230
1.0
 70
     8
 71
     3
 72
    10
 73
     6
 74
     0
 42
0.000000001
 43
0.0
 40
0.0
 40
0.0
 40
0.0
 40
0.0
 40
0.2126275763127472
 40
0.2126275763127472
 40
1.0
 40
1.0
 40
1.0
 40
1.0
 10
172.9585703483924
 20
148.9216378121023
 30
0.0
 10
172.95842775561
 20
148.8929130774163
 30
0.0
 10
172.9690074996656
 20
148.8641883427303
 30
0.0
 10
173.0703274063104
 20
148.7290942256636
 30
0.0
 10
173.3001455518034
 20
148.622724843283
 30
0.0
 10
173.6594867504348
 20
148.5163554609023
 30
0.0
  0
SPLINE
  5
1E9
330
12A
100
AcDbEntity
  8
DV1__F_T_H___G
  6
Continuous
 62
     7
370
     0
390
1D
100
AcDbSpline
210
0.0
220
0.0
230
1.0
 70
     8
 71
     3
 72
    10
 73
     6
 74
     0
 42
0.000000001
 43
0.0
 40
0.0
 40
0.0
 40
0.0
 40
0.0
 40
0.2740010445413998
 40
0.2740010445413998
 40
1.0
 40
1.0
 40
1.0
 40
1.0
 10
172.9590894283543
 20
142.9208295987567
 30
0.0
 10
172.9590814028577
 20
142.8838376831534
 30
0.0
 10
172.9767468579082
 20
142.8468457675501
 30
0.0
 10
173.1074102868466
 20
142.7118392909681
 30
0.0
 10
173.329270894987
 20
142.6138247299895
 30
0.0
 10
173.6611744007686
 20
142.5158101690108
 30
0.0
  0
SPLINE
  5
1EA
330
12A
100
AcDbEntity
  8
DV1__F_T_H___G
  6
Continuous
 62
     7
370
     0
390
1D
100
AcDbSpline
210
0.0
220
0.0
230
1.0
 70
     8
 71
     3
 72
    10
 73
     6
 74
     0
 42
0.000000001
 43
0.0
 40
0.0
 40
0.0
 40
0.0
 40
0.0
 40
0.4632147162670749
 40
0.4632147162670749
 40
1.0
 40
1.0
 40
1.0
 40
1.0
 10
172.960775129602
 20
124.9209168236843
 30
0.0
 10
172.9607582324186
 20
124.8582860770075
 30
0.0
 10
173.0106349607076
 20
124.7956553303308
 30
0.0
 10
173.2292052730413
 20
124.6604464423631
 30
0.0
 10
173.4152116963228
 20
124.5878683010722
 30
0.0
 10
173.661945882561
 20
124.5152901597812
 30
0.0
  0
SPLINE
  5
1EB
330
12A
100
AcDbEntity
  8
DV1__F_T_H___G
  6
Continuous
 62
     7
370
     0
390
1D
100
AcDbSpline
210
0.0
220
0.0
230
1.0
 70
     8
 71
     3
 72
    10
 73
     6
 74
     0
 42
0.000000001
 43
0.0
 40
0.0
 40
0.0
 40
0.0
 40
0.0
 40
0.5265007118237166
 40
0.5265007118237166
 40
1.0
 40
1.0
 40
1.0
 40
1.0
 10
172.9612805850089
 20
118.9214776130981
 30
0.0
 10
172.9610829262618
 20
118.8501233512509
 30
0.0
 10
173.0253984254669
 20
118.7787690894038
 30
0.0
 10
173.2734988622172
 20
118.6432436091059
 30
0.0
 10
173.4443395979584
 20
118.579072390655
 30
0.0
 10
173.6628097717385
 20
118.5149011722042
 30
0.0
  0
SPLINE
  5
1EC
330
12A
100
AcDbEntity
  8
DV1__F_T_H___G
  6
Continuous
 62
     7
370
     0
390
1D
100
AcDbSpline
210
0.0
220
0.0
230
1.0
 70
     8
 71
     3
 72
    10
 73
     6
 74
     0
 42
0.000000001
 43
0.0
 40
0.0
 40
0.0
 40
0.0
 40
0.0
 40
0.5903998753148811
 40
0.5903998753148811
 40
1.0
 40
1.0
 40
1.0
 40
1.0
 10
172.9617161725193
 20
112.9216856962253
 30
0.0
 10
172.9615946885258
 20
112.8417254879699
 30
0.0
 10
173.0422388151771
 20
112.7617652797145
 30
0.0
 10
173.3189921968467
 20
112.6263312940404
 30
0.0
 10
173.47195787854
 20
112.5708575166217
 30
0.0
 10
173.6606740752334
 20
112.515383739203
 30
0.0
  0
SPLINE
  5
1ED
330
12A
100
AcDbEntity
  8
DV1__F_T_H___G
  6
Continuous
 62
     7
370
     0
390
1D
100
AcDbSpline
210
0.0
220
0.0
230
1.0
 70
     8
 71
     3
 72
    10
 73
     6
 74
     0
 42
0.000000001
 43
0.0
 40
0.0
 40
0.0
 40
0.0
 40
0.0
 40
0.7150466706820802
 40
0.7150466706820802
 40
1.0
 40
1.0
 40
1.0
 40
1.0
 10
172.9623105779046
 20
100.9226198051097
 30
0.0
 10
172.9621431029006
 20
100.8252750564945
 30
0.0
 10
173.0812034429818
 20
100.7279303078793
 30
0.0
 10
173.4167141006988
 20
100.5917926925228
 30
0.0
 10
173.5313797313528
 20
100.5529998257816
 30
0.0
 10
173.6636864316795
 20
100.5142069590403
 30
0.0
  0
LINE
  5
1EE
330
12A
100
AcDbEntity
  8
DV1__F_T_H___G
  6
Continuous
 62
     7
370
     0
390
1D
100
AcDbLine
 10
173.5594955088
 20
142.4212969215
 30
0.0
 11
173.5594955088
 21
139.8521798451
 31
0.0
  0
LINE
  5
1EF
330
12A
100
AcDbEntity
  8
DV1__F_T_H___G
  6
Continuous
 62
     7
370
     0
390
1D
100
AcDbLine
 10
188.757598741
 20
100.4232983948
 30
0.0
 11
188.757598741
 21
100.4235891121
 31
0.0
  0
LINE
  5
1F0
330
12A
100
AcDbEntity
  8
DV1__F_T_H___G
  6
Continuous
 62
     7
370
     0
390
1D
100
AcDbLine
 10
38.7542681513
 20
146.120919042
 30
0.0
 11
38.7542681513
 21
149.120919042
 31
0.0
  0
SPLINE
  5
1F1
330
12A
100
AcDbEntity
  8
DV1__F_T_H___G
  6
Continuous
 62
     7
370
     0
390
1D
100
AcDbSpline
210
0.0
220
0.0
230
1.0
 70
     8
 71
     3
 72
    12
 73
     8
 74
     0
 42
0.000000001
 43
0.0
 40
0.0
 40
0.0
 40
0.0
 40
0.0
 40
0.0598288023107923
 40
0.0598288023107923
 40
0.7300800248051434
 40
0.7300800248051434
 40
1.0
 40
1.0
 40
1.0
 40
1.0
 10
34.75739971783469
 20
127.1232617493282
 30
0.0
 10
34.90202030284675
 20
127.1431826941035
 30
0.0
 10
35.04400217015516
 20
127.1631036388788
 30
0.0
 10
36.74055078528256
 20
127.4061953153613
 30
0.0
 10
37.91525220774213
 20
127.6293660470686
 30
0.0
 10
38.64885218892482
 20
127.9424108981285
 30
0.0
 10
38.75310432955772
 20
128.0322850174811
 30
0.0
 10
38.75298060402479
 20
128.1221591368336
 30
0.0
  0
SPLINE
  5
1F2
330
12A
100
AcDbEntity
  8
DV1__F_T_H___G
  6
Continuous
 62
     7
370
     0
390
1D
100
AcDbSpline
210
0.0
220
0.0
230
1.0
 70
     8
 71
     3
 72
    18
 73
    14
 74
     0
 42
0.000000001
 43
0.0
 40
0.0
 40
0.0
 40
0.0
 40
0.0
 40
0.1475163710173632
 40
0.1475163710173632
 40
0.3428761847242035
 40
0.3428761847242035
 40
0.538235998431047
 40
0.538235998431047
 40
0.7335958121378892
 40
0.7335958121378892
 40
0.9289556258447313
 40
0.9289556258447313
 40
1.0
 40
1.0
 40
1.0
 40
1.0
 10
23.55299407259703
 20
130.694548493756
 30
0.0
 10
22.94390423528186
 20
130.8630649139659
 30
0.0
 10
22.67001818024628
 20
131.0315813341758
 30
0.0
 10
22.93373911607202
 20
131.423268486093
 30
0.0
 10
23.76216187804847
 20
131.6464392178004
 30
0.0
 10
26.39606972137759
 20
132.092780681215
 30
0.0
 10
28.1911934345212
 20
132.3159514129223
 30
0.0
 10
31.91594710229914
 20
132.7622928763369
 30
0.0
 10
33.83092447736892
 20
132.9854636080443
 30
0.0
 10
36.8893762457074
 20
133.4318050714589
 30
0.0
 10
38.02081918350896
 20
133.6549758031662
 30
0.0
 10
38.66809988781264
 20
133.959304602457
 30
0.0
 10
38.75336452620416
 20
134.0404626700405
 30
0.0
 10
38.75332367990665
 20
134.121620737624
 30
0.0
  0
SPLINE
  5
1F3
330
12A
100
AcDbEntity
  8
DV1__F_T_H___G
  6
Continuous
 62
     7
370
     0
390
1D
100
AcDbSpline
210
0.0
220
0.0
230
1.0
 70
     8
 71
     3
 72
    18
 73
    14
 74
     0
 42
0.000000001
 43
0.0
 40
0.0
 40
0.0
 40
0.0
 40
0.0
 40
0.1548197377310696
 40
0.1548197377310696
 40
0.3502180914357188
 40
0.3502180914357188
 40
0.5456164451403666
 40
0.5456164451403666
 40
0.7410147988450138
 40
0.7410147988450138
 40
0.9364131525496622
 40
0.9364131525496622
 40
1.0
 40
1.0
 40
1.0
 40
1.0
 10
23.54997535151876
 20
136.6952337347768
 30
0.0
 10
22.91190536912263
 20
136.872058326679
 30
0.0
 10
22.64498081992084
 20
137.0488829185811
 30
0.0
 10
23.0037658353659
 20
137.4488782421906
 30
0.0
 10
23.88019904175415
 20
137.6720489738979
 30
0.0
 10
26.58433194251497
 20
138.1183904373125
 30
0.0
 10
28.40139401464038
 20
138.3415611690199
 30
0.0
 10
32.13363236602193
 20
138.7879026324345
 30
0.0
 10
34.03412662217659
 20
139.0110733641418
 30
0.0
 10
37.0337918104839
 20
139.4574148275565
 30
0.0
 10
38.12116254408411
 20
139.6805855592638
 30
0.0
 10
38.68579470497044
 20
139.9763808704693
 30
0.0
 10
38.75403155754532
 20
140.0490054499676
 30
0.0
 10
38.75375817752329
 20
140.1216300294659
 30
0.0
  0
SPLINE
  5
1F4
330
12A
100
AcDbEntity
  8
DV1__F_T_H___G
  6
Continuous
 62
     7
370
     0
390
1D
100
AcDbSpline
210
0.0
220
0.0
230
1.0
 70
     8
 71
     3
 72
    18
 73
    14
 74
     0
 42
0.000000001
 43
0.0
 40
0.0
 40
0.0
 40
0.0
 40
0.0
 40
0.1625228552784887
 40
0.1625228552784887
 40
0.3579114330761165
 40
0.3579114330761165
 40
0.553300010873748
 40
0.553300010873748
 40
0.7486885886713758
 40
0.7486885886713758
 40
0.9440771664690022
 40
0.9440771664690022
 40
1.0
 40
1.0
 40
1.0
 40
1.0
 10
23.55236026122598
 20
142.6944216956039
 30
0.0
 10
22.88118993076507
 20
142.8800535525962
 30
0.0
 10
22.62150761237924
 20
143.0656854095885
 30
0.0
 10
23.07936901553403
 20
143.4744879982882
 30
0.0
 10
24.00318234658511
 20
143.6976587299955
 30
0.0
 10
26.77559552637512
 20
144.1440001934101
 30
0.0
 10
28.61328914927308
 20
144.3671709251174
 30
0.0
 10
32.35032800533469
 20
144.8135123885321
 30
0.0
 10
34.23497233098653
 20
145.0366831202394
 30
0.0
 10
37.17369361775258
 20
145.483024583654
 30
0.0
 10
38.21621012378355
 20
145.7061953153613
 30
0.0
 10
38.70115486980156
 20
145.9932405059492
 30
0.0
 10
38.75430857000291
 20
146.0571149648297
 30
0.0
 10
38.75426812827949
 20
146.1209894237102
 30
0.0
  0
SPLINE
  5
1F5
330
12A
100
AcDbEntity
  8
DV1__F_T_H___G
  6
Continuous
 62
     7
370
     0
390
1D
100
AcDbSpline
210
0.0
220
0.0
230
1.0
 70
     8
 71
     3
 72
    18
 73
    14
 74
     0
 42
0.000000001
 43
0.0
 40
0.0
 40
0.0
 40
0.0
 40
0.0
 40
0.1704631713719853
 40
0.1704631713719853
 40
0.3657205261984892
 40
0.3657205261984892
 40
0.5609778810249892
 40
0.5609778810249892
 40
0.7562352358514944
 40
0.7562352358514944
 40
0.9514925906779983
 40
0.9514925906779983
 40
1.0
 40
1.0
 40
1.0
 40
1.0
 10
23.55906001921293
 20
148.6924308732037
 30
0.0
 10
22.85111859128569
 20
148.8872629230286
 30
0.0
 10
22.59943685109039
 20
149.0820949728535
 30
0.0
 10
23.16049428371925
 20
149.5000977543857
 30
0.0
 10
24.13102334449402
 20
149.723268486093
 30
0.0
 10
26.96972291859201
 20
150.1696099495077
 30
0.0
 10
28.82672644610103
 20
150.392780681215
 30
0.0
 10
32.56587817545648
 20
150.8391221446296
 30
0.0
 10
34.43331715808868
 20
151.0622928763369
 30
0.0
 10
37.30898105189161
 20
151.5086343397516
 30
0.0
 10
38.30589356558235
 20
151.7318050714589
 30
0.0
 10
38.71511913644181
 20
152.0104176790496
 30
0.0
 10
38.75509713260882
 20
152.0658595549331
 30
0.0
 10
38.75482720598919
 20
152.1213014308165
 30
0.0
  0
SPLINE
  5
1F6
330
12A
100
AcDbEntity
  8
DV1__F_T_H___G
  6
Continuous
 62
     7
370
     0
390
1D
100
AcDbSpline
210
0.0
220
0.0
230
1.0
 70
     8
 71
     3
 72
    18
 73
    14
 74
     0
 42
0.000000001
 43
0.0
 40
0.0
 40
0.0
 40
0.0
 40
0.0
 40
0.1775637018167084
 40
0.1775637018167084
 40
0.3729498175599331
 40
0.3729498175599331
 40
0.5683359333031539
 40
0.5683359333031539
 40
0.7637220490463785
 40
0.7637220490463785
 40
0.9591081647895994
 40
0.9591081647895994
 40
1.0
 40
1.0
 40
1.0
 40
1.0
 10
23.55257486094487
 20
154.6940950615891
 30
0.0
 10
22.81760586970899
 20
154.896908967318
 30
0.0
 10
22.58105801140175
 20
155.099722873047
 30
0.0
 10
23.24708329564806
 20
155.5257075104833
 30
0.0
 10
24.26363009384158
 20
155.7488782421906
 30
0.0
 10
27.16657450518456
 20
156.1952197056052
 30
0.0
 10
29.04155240370253
 20
156.4183904373125
 30
0.0
 10
32.78012785541369
 20
156.8647319007272
 30
0.0
 10
34.6290184563759
 20
157.0879026324345
 30
0.0
 10
37.43955681587838
 20
157.5342440958491
 30
0.0
 10
38.39014837027609
 20
157.7574148275565
 30
0.0
 10
38.72671324419516
 20
158.027292362099
 30
0.0
 10
38.75541905939069
 20
158.0739991649342
 30
0.0
 10
38.75541380825769
 20
158.1207059677695
 30
0.0
  0
SPLINE
  5
1F7
330
12A
100
AcDbEntity
  8
DV1__F_T_H___G
  6
Continuous
 62
     7
370
     0
390
1D
100
AcDbSpline
210
0.0
220
0.0
230
1.0
 70
     8
 71
     3
 72
    18
 73
    14
 74
     0
 42
0.000000001
 43
0.0
 40
0.0
 40
0.0
 40
0.0
 40
0.0
 40
0.0419194089870521
 40
0.0419194089870521
 40
0.237091855774275
 40
0.237091855774275
 40
0.4322643025614928
 40
0.4322643025614928
 40
0.6274367493487105
 40
0.6274367493487105
 40
0.8226091961359334
 40
0.8226091961359334
 40
1.0
 40
1.0
 40
1.0
 40
1.0
 10
187.9613321885546
 20
166.8524330981887
 30
0.0
 10
188.1366774232997
 20
166.8045001787097
 30
0.0
 10
188.2848209877538
 20
166.7565672592306
 30
0.0
 10
188.9534748357898
 20
166.4854636080443
 30
0.0
 10
188.8509638496925
 20
166.2622928763369
 30
0.0
 10
187.3869880564993
 20
165.8159514129223
 30
0.0
 10
186.0312822938139
 20
165.592780681215
 30
0.0
 10
182.6930965476902
 20
165.1464392178004
 30
0.0
 10
180.7237484480243
 20
164.9232684860931
 30
0.0
 10
177.0861375559386
 20
164.4769270226784
 30
0.0
 10
175.432184537473
 20
164.2537562909711
 30
0.0
 10
173.3123613353293
 20
163.8277473198085
 30
0.0
 10
172.7591943490727
 20
163.6249090803533
 30
0.0
 10
172.7581403831219
 20
163.422070840898
 30
0.0
  0
SPLINE
  5
1F8
330
12A
100
AcDbEntity
  8
DV1__F_T_H___G
  6
Continuous
 62
     7
370
     0
390
1D
100
AcDbSpline
210
0.0
220
0.0
230
1.0
 70
     8
 71
     3
 72
    18
 73
    14
 74
     0
 42
0.000000001
 43
0.0
 40
0.0
 40
0.0
 40
0.0
 40
0.0
 40
0.049600570263772
 40
0.049600570263772
 40
0.2446667712900479
 40
0.2446667712900479
 40
0.439732972316329
 40
0.439732972316329
 40
0.6347991733426048
 40
0.6347991733426048
 40
0.8298653743688807
 40
0.8298653743688807
 40
1.0
 40
1.0
 40
1.0
 40
1.0
 10
187.9577743935694
 20
160.853265181471
 30
0.0
 10
188.1657136480142
 20
160.796518315532
 30
0.0
 10
188.3357229374995
 20
160.739771449593
 30
0.0
 10
188.9657716605436
 20
160.4598538519467
 30
0.0
 10
188.8101974635327
 20
160.2366831202394
 30
0.0
 10
187.2544831495806
 20
159.7903416568248
 30
0.0
 10
185.8604629615791
 20
159.5671709251175
 30
0.0
 10
182.4782989275101
 20
159.1208294617028
 30
0.0
 10
180.5034599686994
 20
158.8976587299955
 30
0.0
 10
176.8903777219237
 20
158.4513172665808
 30
0.0
 10
175.2663477161823
 20
158.2281465348736
 30
0.0
 10
173.2635419266118
 20
157.8103287105839
 30
0.0
 10
172.7585412845495
 20
157.6156816180016
 30
0.0
 10
172.7585937469058
 20
157.4210345254192
 30
0.0
  0
SPLINE
  5
1F9
330
12A
100
AcDbEntity
  8
DV1__F_T_H___G
  6
Continuous
 62
     7
370
     0
390
1D
100
AcDbSpline
210
0.0
220
0.0
230
1.0
 70
     8
 71
     3
 72
    18
 73
    14
 74
     0
 42
0.000000001
 43
0.0
 40
0.0
 40
0.0
 40
0.0
 40
0.0
 40
0.0570850247727125
 40
0.0570850247727125
 40
0.2521749524425652
 40
0.2521749524425652
 40
0.4472648801124178
 40
0.4472648801124178
 40
0.6423548077822756
 40
0.6423548077822756
 40
0.8374447354521283
 40
0.8374447354521283
 40
1.0
 40
1.0
 40
1.0
 40
1.0
 10
187.9570765641772
 20
154.8533199708955
 30
0.0
 10
188.1963092695189
 20
154.7880182564492
 30
0.0
 10
188.3855161559736
 20
154.7227165420028
 30
0.0
 10
188.9721652721583
 20
154.4342440958492
 30
0.0
 10
188.7636397512414
 20
154.2110733641418
 30
0.0
 10
187.117305766716
 20
153.7647319007272
 30
0.0
 10
185.6859737152007
 20
153.5415611690199
 30
0.0
 10
182.26226380306
 20
153.0952197056052
 30
0.0
 10
180.2833542644682
 20
152.8720489738979
 30
0.0
 10
176.6973991463526
 20
152.4257075104833
 30
0.0
 10
175.1044601353082
 20
152.202536778776
 30
0.0
 10
173.2194107543526
 20
151.7934129444902
 30
0.0
 10
172.7602830294278
 20
151.6074598419117
 30
0.0
 10
172.7591297663093
 20
151.4215067393332
 30
0.0
  0
SPLINE
  5
1FA
330
12A
100
AcDbEntity
  8
DV1__F_T_H___G
  6
Continuous
 62
     7
370
     0
390
1D
100
AcDbSpline
210
0.0
220
0.0
230
1.0
 70
     8
 71
     3
 72
    18
 73
    14
 74
     0
 42
0.000000001
 43
0.0
 40
0.0
 40
0.0
 40
0.0
 40
0.0
 40
0.0641370348781318
 40
0.0641370348781318
 40
0.2592656511764935
 40
0.2592656511764935
 40
0.45439426747485
 40
0.45439426747485
 40
0.6495228837732064
 40
0.6495228837732064
 40
0.8446515000715681
 40
0.8446515000715681
 40
0.9999999999999999
 40
0.9999999999999999
 40
0.9999999999999999
 40
0.9999999999999999
 10
187.9619252121024
 20
148.8518677553669
 30
0.0
 10
188.2296776595677
 20
148.7785135273976
 30
0.0
 10
188.4344638786016
 20
148.7051592994282
 30
0.0
 10
188.9726510724288
 20
148.4086343397516
 30
0.0
 10
188.7113241965403
 20
148.1854636080443
 30
0.0
 10
186.9755545641557
 20
147.7391221446296
 30
0.0
 10
185.5079400451521
 20
147.5159514129223
 30
0.0
 10
182.0451465440866
 20
147.0696099495077
 30
0.0
 10
180.0635896325871
 20
146.8464392178004
 30
0.0
 10
176.5073406169922
 20
146.4000977543857
 30
0.0
 10
174.946638222365
 20
146.1769270226784
 30
0.0
 10
173.1756065310848
 20
145.7760825132528
 30
0.0
 10
172.7597639395068
 20
145.5984087355346
 30
0.0
 10
172.7597044262104
 20
145.4207349578164
 30
0.0
  0
SPLINE
  5
1FB
330
12A
100
AcDbEntity
  8
DV1__F_T_H___G
  6
Continuous
 62
     7
370
     0
390
1D
100
AcDbSpline
210
0.0
220
0.0
230
1.0
 70
     8
 71
     3
 72
    18
 73
    14
 74
     0
 42
0.000000001
 43
0.0
 40
0.0
 40
0.0
 40
0.0
 40
0.0
 40
0.071632524311332
 40
0.071632524311332
 40
0.2667813841525654
 40
0.2667813841525654
 40
0.461930243993804
 40
0.461930243993804
 40
0.6570791038350374
 40
0.6570791038350374
 40
0.8522279636762708
 40
0.8522279636762708
 40
1.0
 40
1.0
 40
1.0
 40
1.0
 10
187.9612157607844
 20
142.8519505231183
 30
0.0
 10
188.2600616903244
 20
142.7700321205326
 30
0.0
 10
188.4806064092567
 20
142.688113717947
 30
0.0
 10
188.9672287119737
 20
142.383024583654
 30
0.0
 10
188.6532884241189
 20
142.1598538519467
 30
0.0
 10
186.8293314875833
 20
141.7135123885321
 30
0.0
 10
185.3264899910116
 20
141.4903416568248
 30
0.0
 10
181.8271032985944
 20
141.0440001934101
 30
0.0
 10
179.844324125018
 20
140.8208294617028
 30
0.0
 10
176.3203388215486
 20
140.3744879982882
 30
0.0
 10
174.7929954808891
 20
140.1513172665809
 30
0.0
 10
173.1357997830256
 20
139.7591555733118
 30
0.0
 10
172.760948657714
 20
139.5901646117501
 30
0.0
 10
172.7602917133833
 20
139.4211736501884
 30
0.0
  0
SPLINE
  5
1FC
330
12A
100
AcDbEntity
  8
DV1__F_T_H___G
  6
Continuous
 62
     7
370
     0
390
1D
100
AcDbSpline
210
0.0
220
0.0
230
1.0
 70
     8
 71
     3
 72
    18
 73
    14
 74
     0
 42
0.000000001
 43
0.0
 40
0.0
 40
0.0
 40
0.0
 40
0.0
 40
0.0794622904429612
 40
0.0794622904429612
 40
0.2745199363657875
 40
0.2745199363657875
 40
0.4695775822886137
 40
0.4695775822886137
 40
0.6646352282114452
 40
0.6646352282114452
 40
0.8596928741342766
 40
0.8596928741342766
 40
1.0
 40
1.0
 40
1.0
 40
1.0
 10
187.9558446401361
 20
136.853330430413
 30
0.0
 10
188.2881900145458
 20
136.7624154733632
 30
0.0
 10
188.5243780512855
 20
136.6715005163135
 30
0.0
 10
188.9559020904865
 20
136.3574148275565
 30
0.0
 10
188.5895741725755
 20
136.1342440958491
 30
0.0
 10
186.6787416987982
 20
135.6879026324345
 30
0.0
 10
185.1417540493783
 20
135.4647319007272
 30
0.0
 10
181.6082908805457
 20
135.0183904373126
 30
0.0
 10
179.6257154347587
 20
134.7952197056053
 30
0.0
 10
176.136528249363
 20
134.3488782421906
 30
0.0
 10
174.6436424088095
 20
134.1257075104833
 30
0.0
 10
173.0972152266453
 20
133.7420075988248
 30
0.0
 10
172.760946204776
 20
133.5814784188736
 30
0.0
 10
172.7608565290334
 20
133.4209492389224
 30
0.0
  0
SPLINE
  5
1FD
330
12A
100
AcDbEntity
  8
DV1__F_T_H___G
  6
Continuous
 62
     7
370
     0
390
1D
100
AcDbSpline
210
0.0
220
0.0
230
1.0
 70
     8
 71
     3
 72
    18
 73
    14
 74
     0
 42
0.000000001
 43
0.0
 40
0.0
 40
0.0
 40
0.0
 40
0.0
 40
0.0864814625848137
 40
0.0864814625848137
 40
0.2816516036645335
 40
0.2816516036645335
 40
0.4768217447442585
 40
0.4768217447442585
 40
0.6719918858239887
 40
0.6719918858239887
 40
0.8671620269037241
 40
0.8671620269037241
 40
1.0
 40
1.0
 40
1.0
 40
1.0
 10
187.9617575718648
 20
130.8516420530967
 30
0.0
 10
188.3215945795854
 20
130.7527533031198
 30
0.0
 10
188.567729318317
 20
130.6538645531431
 30
0.0
 10
188.938679353931
 20
130.3318050714589
 30
0.0
 10
188.5202272643992
 20
130.1086343397516
 30
0.0
 10
186.523893500084
 20
129.662292876337
 30
0.0
 10
184.9538650800198
 20
129.4391221446297
 30
0.0
 10
181.3888666570819
 20
128.992780681215
 30
0.0
 10
179.4079207824322
 20
128.7696099495077
 30
0.0
 10
175.9560410946893
 20
128.323268486093
 30
0.0
 10
174.498686418979
 20
128.1000977543858
 30
0.0
 10
173.0614640535622
 20
127.7250311051451
 30
0.0
 10
172.7614923903652
 20
127.5731351876118
 30
0.0
 10
172.7613745002214
 20
127.4212392700784
 30
0.0
  0
SPLINE
  5
1FE
330
12A
100
AcDbEntity
  8
DV1__F_T_H___G
  6
Continuous
 62
     7
370
     0
390
1D
100
AcDbSpline
210
0.0
220
0.0
230
1.0
 70
     8
 71
     3
 72
    18
 73
    14
 74
     0
 42
0.000000001
 43
0.0
 40
0.0
 40
0.0
 40
0.0
 40
0.0
 40
0.0937909501562097
 40
0.0937909501562097
 40
0.28902407361601
 40
0.28902407361601
 40
0.4842571970758052
 40
0.4842571970758052
 40
0.6794903205356004
 40
0.6794903205356004
 40
0.8747234439954059
 40
0.8747234439954059
 40
1.0
 40
1.0
 40
1.0
 40
1.0
 10
187.963928886614
 20
124.8510029896574
 30
0.0
 10
188.3531000545139
 20
124.7437906754612
 30
0.0
 10
188.6086872999722
 20
124.6365783612649
 30
0.0
 10
188.9155728886831
 20
124.3061953153614
 30
0.0
 10
188.4452975730149
 20
124.083024583654
 30
0.0
 10
186.3648982563194
 20
123.6366831202394
 30
0.0
 10
184.7629582103218
 20
123.4135123885321
 30
0.0
 10
181.1689884353473
 20
122.9671709251175
 30
0.0
 10
179.1910968032158
 20
122.7440001934101
 30
0.0
 10
175.7790071616214
 20
122.2976587299955
 30
0.0
 10
174.3582317619241
 20
122.0744879982882
 30
0.0
 10
173.0280134050032
 20
121.7081137969346
 30
0.0
 10
172.7620710458082
 20
121.5649103272884
 30
0.0
 10
172.7618217226265
 20
121.4217068576421
 30
0.0
  0
SPLINE
  5
1FF
330
12A
100
AcDbEntity
  8
DV1__F_T_H___G
  6
Continuous
 62
     7
370
     0
390
1D
100
AcDbSpline
210
0.0
220
0.0
230
1.0
 70
     8
 71
     3
 72
    18
 73
    14
 74
     0
 42
0.000000001
 43
0.0
 40
0.0
 40
0.0
 40
0.0
 40
0.0
 40
0.1014736037290423
 40
0.1014736037290423
 40
0.2966692877618116
 40
0.2966692877618116
 40
0.4918649717945913
 40
0.4918649717945913
 40
0.6870606558273658
 40
0.6870606558273658
 40
0.8822563398601351
 40
0.8822563398601351
 40
1.0
 40
1.0
 40
1.0
 40
1.0
 10
187.9609670077987
 20
118.8518060724825
 30
0.0
 10
188.3823440753657
 20
118.7357894786453
 30
0.0
 10
188.6473765078064
 20
118.6197728848082
 30
0.0
 10
188.886599312622
 20
118.2805855592638
 30
0.0
 10
188.3648389869152
 20
118.0574148275565
 30
0.0
 10
186.2018703148861
 20
117.6110733641418
 30
0.0
 10
184.5691707381064
 20
117.3879026324345
 30
0.0
 10
180.9488143489959
 20
116.9415611690199
 30
0.0
 10
178.9753994341904
 20
116.7183904373126
 30
0.0
 10
175.6055537707391
 20
116.272048973898
 30
0.0
 10
174.222379450869
 20
116.0488782421906
 30
0.0
 10
172.9962340216221
 20
115.691089068905
 30
0.0
 10
172.7620845283966
 20
115.5564706273266
 30
0.0
 10
172.7621787115013
 20
115.4218521857483
 30
0.0
  0
SPLINE
  5
200
330
12A
100
AcDbEntity
  8
DV1__F_T_H___G
  6
Continuous
 62
     7
370
     0
390
1D
100
AcDbSpline
210
0.0
220
0.0
230
1.0
 70
     8
 71
     3
 72
    18
 73
    14
 74
     0
 42
0.000000001
 43
0.0
 40
0.0
 40
0.0
 40
0.0
 40
0.0
 40
0.1090322609105839
 40
0.1090322609105839
 40
0.3042515139741326
 40
0.3042515139741326
 40
0.499470767037671
 40
0.499470767037671
 40
0.6946900201012196
 40
0.6946900201012196
 40
0.8899092731647683
 40
0.8899092731647683
 40
0.9999999999999999
 40
0.9999999999999999
 40
0.9999999999999999
 40
0.9999999999999999
 10
187.9600477943098
 20
112.8520770114828
 30
0.0
 10
188.4125104866384
 20
112.7274335192797
 30
0.0
 10
188.6844185074797
 20
112.6027900270767
 30
0.0
 10
188.8517794631797
 20
112.2549758031662
 30
0.0
 10
188.2789093709041
 20
112.0318050714589
 30
0.0
 10
186.0349269234306
 20
111.5854636080443
 30
0.0
 10
184.3726420328884
 20
111.362292876337
 30
0.0
 10
180.7285027444643
 20
110.9159514129223
 30
0.0
 10
178.7609838021937
 20
110.692780681215
 30
0.0
 10
175.4358056675415
 20
110.2464392178004
 30
0.0
 10
174.0912271890887
 20
110.0232684860931
 30
0.0
 10
172.9670962381778
 20
109.6742442451829
 30
0.0
 10
172.7625638815429
 20
109.54839073598
 30
0.0
 10
172.7624312178865
 20
109.4225372267772
 30
0.0
  0
SPLINE
  5
201
330
12A
100
AcDbEntity
  8
DV1__F_T_H___G
  6
Continuous
 62
     7
370
     0
390
1D
100
AcDbSpline
210
0.0
220
0.0
230
1.0
 70
     8
 71
     3
 72
    18
 73
    14
 74
     0
 42
0.000000001
 43
0.0
 40
0.0
 40
0.0
 40
0.0
 40
0.0
 40
0.1161594614443988
 40
0.1161594614443988
 40
0.311472394971685
 40
0.311472394971685
 40
0.5067853284989713
 40
0.5067853284989713
 40
0.7020982620262523
 40
0.7020982620262523
 40
0.8974111955535437
 40
0.8974111955535437
 40
1.0
 40
1.0
 40
1.0
 40
1.0
 10
187.9651367217256
 20
106.8507191961476
 30
0.0
 10
188.4450251820439
 20
106.7179917236904
 30
0.0
 10
188.7197686378581
 20
106.5852642512332
 30
0.0
 10
188.8111383823542
 20
106.2293660470687
 30
0.0
 10
188.1875705244817
 20
106.0061953153614
 30
0.0
 10
185.8641881455427
 20
105.5598538519467
 30
0.0
 10
184.173513435643
 20
105.3366831202394
 30
0.0
 10
180.5082120670896
 20
104.8903416568248
 30
0.0
 10
178.548004112254
 20
104.6671709251175
 30
0.0
 10
175.2698849327316
 20
104.2208294617028
 30
0.0
 10
173.964869299642
 20
103.9976587299955
 30
0.0
 10
172.9395263892516
 20
103.6572667874865
 30
0.0
 10
172.7624630106261
 20
103.5400455766848
 30
0.0
 10
172.7625688429024
 20
103.4228243658832
 30
0.0
  0
SPLINE
  5
202
330
12A
100
AcDbEntity
  8
DV1__F_T_H___G
  6
Continuous
 62
     7
370
     0
390
1D
100
AcDbSpline
210
0.0
220
0.0
230
1.0
 70
     8
 71
     3
 72
    10
 73
     6
 74
     0
 42
0.000000001
 43
0.0
 40
0.0
 40
0.0
 40
0.0
 40
0.0
 40
0.9921210107789912
 40
0.9921210107789912
 40
1.0
 40
1.0
 40
1.0
 40
1.0
 10
187.9645608409528
 20
100.8509532344527
 30
0.0
 10
188.4753408581588
 20
100.7096111638613
 30
0.0
 10
188.7530058243692
 20
100.5682690932698
 30
0.0
 10
188.7575783943937
 20
100.4258045460465
 30
0.0
 10
188.7575971944291
 20
100.4246820694145
 30
0.0
 10
188.7575987868955
 20
100.4235595927826
 30
0.0
  0
LINE
  5
203
330
12A
100
AcDbEntity
  8
DV1__F_T_H___G
  6
Continuous
 62
     7
370
     0
390
1D
100
AcDbLine
 10
172.7597044345
 20
145.4207546629
 30
0.0
 11
172.7597044345
 21
142.4207546629
 31
0.0
  0
LINE
  5
204
330
12A
100
AcDbEntity
  8
DV1__F_T_H___G
  6
Continuous
 62
     7
370
     0
390
1D
100
AcDbLine
 10
23.5579405583
 20
131.2743808274
 30
0.0
 11
23.5579405583
 21
129.4739368346
 31
0.0
  0
LINE
  5
205
330
12A
100
AcDbEntity
  8
DV1__F_T_H___G
  6
Continuous
 62
     7
370
     0
390
1D
100
AcDbLine
 10
23.5579405583
 20
128.772611922
 30
0.0
 11
23.5579405583
 21
128.551303965
 31
0.0
  0
LINE
  5
206
330
12A
100
AcDbEntity
  8
DV1__F_T_H___G
  6
Continuous
 62
     7
370
     0
390
1D
100
AcDbLine
 10
188.7528316191
 20
163.4240702678
 30
0.0
 11
188.7528316191
 21
166.4240702678
 31
0.0
  0
LINE
  5
207
330
12A
100
AcDbEntity
  8
DV1__F_T_H___G
  6
Continuous
 62
     7
370
     0
390
1D
100
AcDbLine
 10
172.7585937436
 20
157.4210784213
 30
0.0
 11
172.7585937436
 21
154.4210784213
 31
0.0
  0
LINE
  5
208
330
12A
100
AcDbEntity
  8
DV1__F_T_H___G
  6
Continuous
 62
     7
370
     0
390
1D
100
AcDbLine
 10
172.7608565535
 20
133.4209837414
 30
0.0
 11
172.7608565535
 21
130.4209837414
 31
0.0
  0
LINE
  5
209
330
12A
100
AcDbEntity
  8
DV1__F_T_H___G
  6
Continuous
 62
     7
370
     0
390
1D
100
AcDbLine
 10
23.5597967259
 20
155.2768851752
 30
0.0
 11
23.5597967259
 21
152.5513996989
 31
0.0
  0
LINE
  5
20A
330
12A
100
AcDbEntity
  8
DV1__F_T_H___G
  6
Continuous
 62
     7
370
     0
390
1D
100
AcDbLine
 10
188.7545033608
 20
139.4255242235
 30
0.0
 11
188.7545033608
 21
142.4255242235
 31
0.0
  0
LINE
  5
20B
330
12A
100
AcDbEntity
  8
DV1__F_T_H___G
  6
Continuous
 62
     7
370
     0
390
1D
100
AcDbLine
 10
23.5587626011
 20
143.2796380282
 30
0.0
 11
23.5587626011
 21
140.5515492591
 31
0.0
  0
LINE
  5
20C
330
12A
100
AcDbEntity
  8
DV1__F_T_H___G
  6
Continuous
 62
     7
370
     0
390
1D
100
AcDbLine
 10
188.7534995549
 20
151.4248483238
 30
0.0
 11
188.7534995549
 21
154.4248483238
 31
0.0
  0
LINE
  5
20D
330
12A
100
AcDbEntity
  8
DV1__F_T_H___G
  6
Continuous
 62
     7
370
     0
390
1D
100
AcDbLine
 10
173.5617209282
 20
112.4218960268
 30
0.0
 11
173.5617209282
 21
109.8532290115
 31
0.0
  0
LINE
  5
20E
330
12A
100
AcDbEntity
  8
DV1__F_T_H___G
  6
Continuous
 62
     7
370
     0
390
1D
100
AcDbLine
 10
188.7556648256
 20
127.4256664996
 30
0.0
 11
188.7556648256
 21
130.4256664996
 31
0.0
  0
LINE
  5
20F
330
12A
100
AcDbEntity
  8
DV1__F_T_H___G
  6
Continuous
 62
     7
370
     0
390
1D
100
AcDbLine
 10
173.5600219423
 20
136.4208628555
 30
0.0
 11
173.5600219423
 21
133.8523174387
 31
0.0
  0
LINE
  5
210
330
12A
100
AcDbEntity
  8
DV1__F_T_H___G
  6
Continuous
 62
     7
370
     0
390
1D
100
AcDbLine
 10
188.7574704239
 20
103.4241365189
 30
0.0
 11
188.7574704239
 21
106.4241365189
 31
0.0
  0
LINE
  5
211
330
12A
100
AcDbEntity
  8
DV1__F_T_H___G
  6
Continuous
 62
     7
370
     0
390
1D
100
AcDbLine
 10
38.754827369
 20
152.1212668718
 30
0.0
 11
38.754827369
 21
155.1212668718
 31
0.0
  0
LINE
  5
212
330
12A
100
AcDbEntity
  8
DV1__F_T_H___G
  6
Continuous
 62
     7
370
     0
390
1D
100
AcDbLine
 10
173.5609974599
 20
124.4214419252
 30
0.0
 11
173.5609974599
 21
121.8535457046
 31
0.0
  0
LINE
  5
213
330
12A
100
AcDbEntity
  8
DV1__F_T_H___G
  6
Continuous
 62
     7
370
     0
390
1D
100
AcDbLine
 10
188.756748068
 20
115.425388183
 30
0.0
 11
188.756748068
 21
118.425388183
 31
0.0
  0
SPLINE
  5
214
330
12A
100
AcDbEntity
  8
DV1__F_T_H___G
  6
Continuous
 62
     7
370
     0
390
1D
100
AcDbSpline
210
0.0
220
0.0
230
1.0
 70
    12
 71
     2
 72
    10
 73
     7
 74
     0
 42
0.000000001
 43
0.0
 40
0.0
 40
0.0
 40
0.0
 40
0.2549250643780597
 40
0.2549250643780597
 40
0.6274625321890299
 40
0.6274625321890299
 40
1.0
 40
1.0
 40
1.0
 10
37.57674081694405
 20
130.5703467454754
 30
0.0
 41
0.9421133791115934
 10
36.7063460830403
 20
130.3240782086163
 30
0.0
 41
0.9083220198871208
 10
34.35760107978921
 20
130.1066018194264
 30
0.0
 41
1.0
 10
30.7576010797892
 20
129.7732684860931
 30
0.0
 41
0.8660254037844387
 10
27.15760107978921
 20
129.4399351527597
 30
0.0
 41
1.0
 10
23.55760107978922
 20
129.1066018194264
 30
0.0
 41
0.8660254037844387
 10
23.55760107978922
 20
128.7732684860931
 30
0.0
 41
1.0
  0
LINE
  5
215
330
12A
100
AcDbEntity
  8
DV1__F_T_H___G
  6
Continuous
 62
     7
370
     0
390
1D
100
AcDbLine
 10
23.5576010798
 20
129.4732684861
 30
0.0
 11
23.5576010798
 21
128.7732684861
 31
0.0
  0
LINE
  5
216
330
12A
100
AcDbEntity
  8
DV1__F_T_H___G
  6
Continuous
 62
     7
370
     0
390
1D
100
AcDbLine
 10
37.9576010798
 20
127.1232684861
 30
0.0
 11
37.9576010798
 21
127.4732684861
 31
0.0
  0
SPLINE
  5
217
330
12A
100
AcDbEntity
  8
DV1__F_T_H___G
  6
Continuous
 62
     7
370
     0
390
1D
100
AcDbSpline
210
0.0
220
0.0
230
1.0
 70
    12
 71
     2
 72
     6
 73
     3
 74
     0
 42
0.000000001
 43
0.0
 40
0.0
 40
0.0
 40
0.0
 40
0.9999999999999999
 40
0.9999999999999999
 40
0.9999999999999999
 10
23.93832668229795
 20
129.6761521230065
 30
0.0
 41
0.9421188028123799
 10
23.55760107978922
 20
129.5684127577428
 30
0.0
 41
0.9577107402138824
 10
23.55760107978922
 20
129.473268486093
 30
0.0
 41
1.0
  0
SPLINE
  5
218
330
12A
100
AcDbEntity
  8
DV1__F_T_H___G
  6
Continuous
 62
     7
370
     0
390
1D
100
AcDbSpline
210
0.0
220
0.0
230
1.0
 70
    12
 71
     2
 72
     6
 73
     3
 74
     0
 42
0.000000001
 43
0.0
 40
0.0
 40
0.0
 40
0.0
 40
1.0
 40
1.0
 40
1.0
 10
37.9576010797892
 20
127.4732684860931
 30
0.0
 41
1.0
 10
37.9576010797892
 20
127.3108000080647
 30
0.0
 41
0.9298849255803483
 10
36.90096641158973
 20
127.1232562898013
 30
0.0
 41
0.9331587442753793
  0
SPLINE
  5
219
330
12A
100
AcDbEntity
  8
DV1__F_T_H___G
  6
Continuous
 62
     7
370
     0
390
1D
100
AcDbSpline
210
0.0
220
0.0
230
1.0
 70
    12
 71
     2
 72
     8
 73
     5
 74
     0
 42
0.000000001
 43
0.0
 40
0.0
 40
0.0
 40
0.0
 40
0.5592122053412143
 40
0.5592122053412143
 40
1.0
 40
1.0
 40
1.0
 10
187.8670855125924
 20
102.9678905043768
 30
0.0
 41
0.9389145339470458
 10
187.6571272748668
 20
102.8464471822066
 30
0.0
 41
0.9528960563184402
 10
186.9929839870371
 20
102.7399351527597
 30
0.0
 41
1.0
 10
186.4749097319471
 20
102.6568489553607
 30
0.0
 41
0.9628712620060618
 10
185.7248299625595
 20
102.563607854841
 30
0.0
 41
0.9463216968398509
  0
LINE
  5
21A
330
12A
100
AcDbEntity
  8
DV1__F_T_H___G
  6
HIDDEN2
 62
     7
370
     0
390
1D
100
AcDbLine
 10
41.2351010798
 20
83.3232684861
 30
0.0
 11
20.2801010798
 21
83.3232684861
 31
0.0
  0
LINE
  5
21B
330
12A
100
AcDbEntity
  8
DV1__F_T_H___G
  6
Continuous
 62
     7
370
     0
390
1D
100
AcDbLine
 10
39.2576010798
 20
127.1232684861
 30
0.0
 11
22.2576010798
 21
127.1232684861
 31
0.0
  0
LINE
  5
21C
330
12A
100
AcDbEntity
  8
DV1__F_T_H___G
  6
Continuous
 62
     7
370
     0
390
1D
100
AcDbLine
 10
189.2576010798
 20
91.4232684861
 30
0.0
 11
189.2576010798
 21
100.4232684861
 31
0.0
  0
LINE
  5
21D
330
12A
100
AcDbEntity
  8
DV1__F_T_H___G
  6
Continuous
 62
     7
370
     0
390
1D
100
AcDbLine
 10
189.2576010798
 20
100.4232684861
 30
0.0
 11
172.2576010798
 21
100.4232684861
 31
0.0
  0
LINE
  5
21E
330
12A
100
AcDbEntity
  8
DV1__F_T_H___G
  6
Continuous
 62
     7
370
     0
390
1D
100
AcDbLine
 10
172.2576010798
 20
100.4232684861
 30
0.0
 11
172.2576010798
 21
91.4232684861
 31
0.0
  0
ARC
  5
21F
330
12A
100
AcDbEntity
  8
DV1__F_T_H___G
  6
Continuous
 62
     7
370
     0
390
1D
100
AcDbCircle
 10
178.7576010798
 20
84.4232684861
 30
0.0
 40
15.0
100
AcDbArc
 50
332.1818607153
 51
27.8181392847
  0
ARC
  5
220
330
12A
100
AcDbEntity
  8
DV1__F_T_H___G
  6
Continuous
 62
     7
370
     0
390
1D
100
AcDbCircle
 10
182.7576010798
 20
84.4232684861
 30
0.0
 40
15.0
100
AcDbArc
 50
152.1818607153
 51
207.8181392847
  0
SPLINE
  5
221
330
12A
100
AcDbEntity
  8
DV1__F_T_H___G
  6
Continuous
 62
     7
370
     0
390
1D
100
AcDbSpline
210
0.0
220
0.0
230
1.0
 70
    11
 71
     3
 72
    28
 73
    24
 74
     0
 42
0.000000001
 43
0.0
 40
0.0
 40
0.0
 40
0.0
 40
0.0
 40
0.1249999999999998
 40
0.1249999999999998
 40
0.1874999999999997
 40
0.1874999999999997
 40
0.2499999999999997
 40
0.2499999999999997
 40
0.3124999999999997
 40
0.3124999999999997
 40
0.3749999999999998
 40
0.3749999999999998
 40
0.4999999999999998
 40
0.4999999999999998
 40
0.6249999999999998
 40
0.6249999999999998
 40
0.7499999999999998
 40
0.7499999999999998
 40
0.8124999999999999
 40
0.8124999999999999
 40
0.875
 40
0.875
 40
1.0
 40
1.0
 40
1.0
 40
1.0
 10
187.6858043100647
 20
84.42326848609261
 30
0.0
 10
187.6858043100646
 20
86.08548565393961
 30
0.0
 10
187.9878718708944
 20
87.72635027879025
 30
0.0
 10
188.8092682647035
 20
89.56599342879576
 30
0.0
 10
189.1451340882022
 20
90.07499920112511
 30
0.0
 10
189.8878574097008
 20
90.77061622192164
 30
0.0
 10
190.3012670415852
 20
90.96001382103255
 30
0.0
 10
191.1217078695351
 20
90.96319899513325
 30
0.0
 10
191.5345761670708
 20
90.77857797529596
 30
0.0
 10
192.2846809554049
 20
90.0813357497334
 30
0.0
 10
192.6204960811801
 20
89.57381638996176
 30
0.0
 10
193.4478796823998
 20
87.72430640099974
 30
0.0
 10
193.7473770461949
 20
86.06923548981446
 30
0.0
 10
193.7485853303647
 20
82.78760334195361
 30
0.0
 10
193.4464581750817
 20
81.12585483225452
 30
0.0
 10
192.357855275638
 20
78.67889167579054
 30
0.0
 10
191.5527460028927
 20
77.89049262589675
 30
0.0
 10
190.3129697342499
 20
77.88218073328271
 30
0.0
 10
189.9005250961386
 20
78.06707857167791
 30
0.0
 10
189.1497708262606
 20
78.76424194460077
 30
0.0
 10
188.8135029671321
 20
79.27315179210387
 30
0.0
 10
187.9901701892459
 20
81.1108950475233
 30
0.0
 10
187.6858043100647
 20
82.76105131824558
 30
0.0
 10
187.6858043100647
 20
84.42326848609261
 30
0.0
  0
SPLINE
  5
222
330
12A
100
AcDbEntity
  8
DV1__F_T_H___G
  6
Continuous
 62
     7
370
     0
390
1D
100
AcDbSpline
210
0.0
220
0.0
230
1.0
 70
    11
 71
     3
 72
    28
 73
    24
 74
     0
 42
0.000000001
 43
0.0
 40
0.0
 40
0.0
 40
0.0
 40
0.0
 40
0.1249999999999999
 40
0.1249999999999999
 40
0.1874999999999998
 40
0.1874999999999998
 40
0.2499999999999998
 40
0.2499999999999998
 40
0.3124999999999998
 40
0.3124999999999998
 40
0.3749999999999998
 40
0.3749999999999998
 40
0.4999999999999998
 40
0.4999999999999998
 40
0.6249999999999998
 40
0.6249999999999998
 40
0.7499999999999998
 40
0.7499999999999998
 40
0.8124999999999999
 40
0.8124999999999999
 40
0.8749999999999999
 40
0.8749999999999999
 40
1.0
 40
1.0
 40
1.0
 40
1.0
 10
173.8293978495136
 20
84.42326848609261
 30
0.0
 10
173.8293978495135
 20
82.76105131824562
 30
0.0
 10
173.5273302886837
 20
81.1201866933951
 30
0.0
 10
172.7059338948744
 20
79.28054354338987
 30
0.0
 10
172.3700680713756
 20
78.77153777106066
 30
0.0
 10
171.627344749877
 20
78.07592075026434
 30
0.0
 10
171.2139351179927
 20
77.88652315115357
 30
0.0
 10
170.3934942900428
 20
77.88333797705313
 30
0.0
 10
169.9806259925071
 20
78.06795899689057
 30
0.0
 10
169.230521204173
 20
78.76520122245334
 30
0.0
 10
168.894706078398
 20
79.27272058222506
 30
0.0
 10
168.0673224771783
 20
81.12223057118726
 30
0.0
 10
167.7678251133834
 20
82.77730148237258
 30
0.0
 10
167.7666168292138
 20
86.05893363023334
 30
0.0
 10
168.0687439844969
 20
87.72068213993231
 30
0.0
 10
169.1573468839407
 20
90.1676452963959
 30
0.0
 10
169.9624561566861
 20
90.95604434628943
 30
0.0
 10
171.2022324253289
 20
90.9643562389031
 30
0.0
 10
171.6146770634401
 20
90.77945840050775
 30
0.0
 10
172.365431333318
 20
90.08229502758466
 30
0.0
 10
172.7016991924465
 20
89.57338518008152
 30
0.0
 10
173.5250319703325
 20
87.73564192466188
 30
0.0
 10
173.8293978495136
 20
86.08548565393956
 30
0.0
 10
173.8293978495136
 20
84.42326848609261
 30
0.0
  0
LINE
  5
223
330
12A
100
AcDbEntity
  8
DV1__F_T_H___G
  6
Continuous
 62
     7
370
     0
390
1D
100
AcDbLine
 10
192.0241002412
 20
91.4232684861
 30
0.0
 11
169.4911019184
 21
91.4232684861
 31
0.0
  0
SPLINE
  5
224
330
12A
100
AcDbEntity
  8
DV1__F_T_H___G
  6
Continuous
 62
     7
370
     0
390
1D
100
AcDbSpline
210
0.0
220
0.0
230
1.0
 70
    11
 71
     3
 72
    28
 73
    24
 74
     0
 42
0.000000001
 43
0.0
 40
0.0
 40
0.0
 40
0.0
 40
0.0
 40
0.125
 40
0.125
 40
0.1875
 40
0.1875
 40
0.25
 40
0.25
 40
0.3125
 40
0.3125
 40
0.375
 40
0.375
 40
0.5
 40
0.5
 40
0.625
 40
0.625
 40
0.75
 40
0.75
 40
0.8125
 40
0.8125
 40
0.875
 40
0.875
 40
1.0
 40
1.0
 40
1.0
 40
1.0
 10
186.8197789062803
 20
84.42326848609302
 30
0.0
 10
186.8197789062803
 20
82.76105131824605
 30
0.0
 10
186.2156437846207
 20
81.12018669339547
 30
0.0
 10
184.5728509970024
 20
79.28054354339007
 30
0.0
 10
183.9011193500048
 20
78.7715377710608
 30
0.0
 10
182.4156727070075
 20
78.07592075026437
 30
0.0
 10
181.5888534432388
 20
77.88652315115355
 30
0.0
 10
179.9479717873391
 20
77.88333797705296
 30
0.0
 10
179.1222351922677
 20
78.06795899689034
 30
0.0
 10
177.6220256155995
 20
78.765201222453
 30
0.0
 10
176.9503953640493
 20
79.27272058222468
 30
0.0
 10
175.2956281616099
 20
81.1222305711868
 30
0.0
 10
174.6966334340199
 20
82.77730148237211
 30
0.0
 10
174.6942168656805
 20
86.05893363023293
 30
0.0
 10
175.2984711762466
 20
87.72068213993195
 30
0.0
 10
177.4756769751341
 20
90.16764529639576
 30
0.0
 10
179.0858955206248
 20
90.9560443462894
 30
0.0
 10
181.5654480579105
 20
90.96435623890325
 30
0.0
 10
182.390337334133
 20
90.77945840050796
 30
0.0
 10
183.8918458738888
 20
90.08229502758499
 30
0.0
 10
184.5643815921457
 20
89.57338518008184
 30
0.0
 10
186.211047147918
 20
87.73564192466232
 30
0.0
 10
186.8197789062803
 20
86.08548565394003
 30
0.0
 10
186.8197789062803
 20
84.42326848609302
 30
0.0
  0
LINE
  5
225
330
12A
100
AcDbEntity
  8
DV1__F_T_H___G
  6
Continuous
 62
     7
370
     0
390
1D
100
AcDbLine
 10
192.0241002412
 20
77.4232684861
 30
0.0
 11
169.4911019184
 21
77.4232684861
 31
0.0
  0
LINE
  5
226
330
12A
100
AcDbEntity
  8
DV1__F_T_H___G
  6
HIDDEN2
 62
     7
370
     0
390
1D
100
AcDbLine
 10
170.2801010801
 20
77.4232684861
 30
0.0
 11
170.2801010801
 21
82.4232684861
 31
0.0
  0
LINE
  5
227
330
12A
100
AcDbEntity
  8
DV1__F_T_H___G
  6
HIDDEN2
 62
     7
370
     0
390
1D
100
AcDbLine
 10
191.2351010747
 20
77.4232684861
 30
0.0
 11
191.2351010747
 21
82.4232684861
 31
0.0
  0
LINE
  5
228
330
12A
100
AcDbEntity
  8
DV1__F_T_H___G
  6
HIDDEN2
 62
     7
370
     0
390
1D
100
AcDbLine
 10
20.2801010798
 20
74.6232684861
 30
0.0
 11
20.2801010798
 21
83.3232684861
 31
0.0
  0
LINE
  5
229
330
12A
100
AcDbEntity
  8
DV1__F_T_H___G
  6
HIDDEN2
 62
     7
370
     0
390
1D
100
AcDbLine
 10
41.2351010798
 20
74.6232684861
 30
0.0
 11
41.2351010798
 21
83.3232684861
 31
0.0
  0
LINE
  5
22A
330
12A
100
AcDbEntity
  8
DV1__F_T_H___G
  6
HIDDEN2
 62
     7
370
     0
390
1D
100
AcDbLine
 10
191.2351010747
 20
82.4232684861
 30
0.0
 11
170.2801010801
 21
82.4232684861
 31
0.0
  0
CIRCLE
  5
22B
330
12A
100
AcDbEntity
  8
DV1__F_T_H___G
  6
CENTER2
 62
     7
370
     0
390
1D
100
AcDbCircle
 10
105.7576010798
 20
202.4232684861
 30
0.0
 40
75.0
  0
LINE
  5
22C
330
12A
100
AcDbEntity
  8
DV1__F_T_H___G
  6
CENTER2
 62
     7
370
     0
390
1D
100
AcDbLine
 10
180.7576010798
 20
202.4232684861
 30
0.0
 11
180.7576010798
 21
164.9233124217
 31
0.0
  0
LINE
  5
22D
330
12A
100
AcDbEntity
  8
DV1__F_T_H___G
  6
CENTER2
 62
     7
370
     0
390
1D
100
AcDbLine
 10
30.7576010798
 20
202.4232684861
 30
0.0
 11
30.7576010798
 21
159.6232503116
 31
0.0
  0
LINE
  5
22E
330
12A
100
AcDbEntity
  8
DV1__F_T_H___G
  6
Continuous
 62
     7
370
     0
390
1D
100
AcDbLine
 10
39.2576010798
 20
126.1232684861
 30
0.0
 11
39.2576010798
 21
127.1232684861
 31
0.0
  0
LINE
  5
22F
330
12A
100
AcDbEntity
  8
DV1__F_T_H___G
  6
Continuous
 62
     7
370
     0
390
1D
100
AcDbLine
 10
22.2576010798
 20
127.1232684861
 30
0.0
 11
22.2576010798
 21
126.1232684861
 31
0.0
  0
LINE
  5
230
330
12A
100
AcDbEntity
  8
DV1__F_T_H___G
  6
Continuous
 62
     7
370
     0
390
1D
100
AcDbLine
 10
18.0076010798
 20
87.1232684861
 30
0.0
 11
18.0076010798
 21
74.6232684861
 31
0.0
  0
LINE
  5
231
330
12A
100
AcDbEntity
  8
DV1__F_T_H___G
  6
Continuous
 62
     7
370
     0
390
1D
100
AcDbLine
 10
43.5076010798
 20
74.6232684861
 30
0.0
 11
43.5076010798
 21
87.1232684861
 31
0.0
  0
LINE
  5
232
330
12A
100
AcDbEntity
  8
DV1__F_T_H___G
  6
Continuous
 62
     7
370
     0
390
1D
100
AcDbLine
 10
18.0076010798
 20
74.6232684861
 30
0.0
 11
43.5076010798
 21
74.6232684861
 31
0.0
  0
LINE
  5
233
330
12A
100
AcDbEntity
  8
DV1__F_T_H___G
  6
Continuous
 62
     7
370
     0
390
1D
100
AcDbLine
 10
18.0076010798
 20
87.1232684861
 30
0.0
 11
43.5076010798
 21
87.1232684861
 31
0.0
  0
ARC
  5
234
330
12A
100
AcDbEntity
  8
DV1__F_T_H___G
  6
Continuous
 62
     7
370
     0
390
1D
100
AcDbCircle
 10
18.3209851682
 20
87.4232684861
 30
0.0
 40
0.3
100
AcDbArc
 50
177.5
 51
270.0
  0
ARC
  5
235
330
12A
100
AcDbEntity
  8
DV1__F_T_H___G
  6
Continuous
 62
     7
370
     0
390
1D
100
AcDbCircle
 10
43.1942169914
 20
87.4232684861
 30
0.0
 40
0.3
100
AcDbArc
 50
270.0
 51
2.5
  0
LINE
  5
236
330
12A
100
AcDbEntity
  8
DV1__F_T_H___G
  6
Continuous
 62
     7
370
     0
390
1D
100
AcDbLine
 10
18.0212707017
 20
87.4363543023
 30
0.0
 11
43.4939314578
 21
87.4363543023
 31
0.0
  0
LINE
  5
237
330
12A
100
AcDbEntity
  8
DV1__F_T_H___G
  6
Continuous
 62
     7
370
     0
390
1D
100
AcDbLine
 10
20.2103778532
 20
126.1232684861
 30
0.0
 11
41.3048243064
 21
126.1232684861
 31
0.0
  0
LINE
  5
238
330
12A
100
AcDbEntity
  8
DV1__F_T_H___G
  6
Continuous
 62
     7
370
     0
390
1D
100
AcDbLine
 10
19.6885681595
 20
125.6237443753
 30
0.0
 11
41.826634
 21
125.6237443753
 31
0.0
  0
LINE
  5
239
330
12A
100
AcDbEntity
  8
DV1__F_T_H___G
  6
Continuous
 62
     7
370
     0
390
1D
100
AcDbLine
 10
41.826634
 20
125.6237443753
 30
0.0
 11
41.3048243064
 21
126.1232684861
 31
0.0
  0
LINE
  5
23A
330
12A
100
AcDbEntity
  8
DV1__F_T_H___G
  6
Continuous
 62
     7
370
     0
390
1D
100
AcDbLine
 10
20.2103778532
 20
126.1232684861
 30
0.0
 11
19.6885681595
 21
125.6237443753
 31
0.0
  0
LINE
  5
23B
330
12A
100
AcDbEntity
  8
DV1__F_T_H___G
  6
Continuous
 62
     7
370
     0
390
1D
100
AcDbLine
 10
43.4939314578
 20
87.4363543023
 30
0.0
 11
41.826634
 21
125.6237443753
 31
0.0
  0
LINE
  5
23C
330
12A
100
AcDbEntity
  8
DV1__F_T_H___G
  6
Continuous
 62
     7
370
     0
390
1D
100
AcDbLine
 10
19.6885681595
 20
125.6237443753
 30
0.0
 11
18.0212707017
 21
87.4363543023
 31
0.0
  0
ENDBLK
  5
23D
330
12A
100
AcDbEntity
  8
DV1__F_T_H___G
  6
Continuous
 62
     7
370
     0
390
1D
100
AcDbBlockEnd
  0
BLOCK
  5
240
330
131
100
AcDbEntity
  8
DEFAULT
 62
     1
 48
0.0
370
     0
390
1D
100
AcDbBlockBegin
  2
SE3
 70
     0
 10
0.0
 20
0.0
 30
0.0
  3
SE3
  1
SE3
  0
HATCH
  5
241
330
131
100
AcDbEntity
  8
DEFAULT
  6
Continuous
390
1D
100
AcDbHatch
 10
0.0
 20
0.0
 30
0.0
210
0.0
220
0.0
230
1.0
  2
SOLID
 70
     1
 71
     0
 91
        1
 92
        1
 93
        3
 72
     1
 10
14.28010102763517
 20
54.33064381011383
 11
20.28010107978923
 21
55.33064381880617
 72
     1
 10
20.28010107978923
 20
55.33064381880618
 11
14.28010102763517
 21
56.33064382749853
 72
     1
 10
14.28010102763517
 20
56.33064382749853
 11
14.28010102763517
 21
54.33064381011384
 97
        0
 75
     0
 76
     1
 98
        1
 10
0.0
 20
0.0
  0
HATCH
  5
242
330
131
100
AcDbEntity
  8
DEFAULT
  6
Continuous
390
1D
100
AcDbHatch
 10
0.0
 20
0.0
 30
0.0
210
0.0
220
0.0
230
1.0
  2
SOLID
 70
     1
 71
     0
 91
        1
 92
        1
 93
        3
 72
     1
 10
47.23510113194328
 20
54.33064381011383
 11
41.23510107978922
 21
55.33064381880617
 72
     1
 10
41.23510107978922
 20
55.33064381880618
 11
47.23510113194328
 21
56.33064382749853
 72
     1
 10
47.23510113194328
 20
56.33064382749853
 11
47.23510113194328
 21
54.33064381011384
 97
        0
 75
     0
 76
     1
 98
        1
 10
0.0
 20
0.0
  0
LINE
  5
243
330
131
100
AcDbEntity
  8
DEFAULT
  6
Continuous
370
     0
390
1D
100
AcDbLine
 10
20.28010107979998
 20
74.62326848610002
 30
0.0
 11
20.28010107979998
 21
52.33064379270002
 31
0.0
  0
LINE
  5
244
330
131
100
AcDbEntity
  8
DEFAULT
  6
Continuous
370
     0
390
1D
100
AcDbLine
 10
41.23510107980002
 20
74.62326848610002
 30
0.0
 11
41.23510107980002
 21
52.33064379270002
 31
0.0
  0
LINE
  5
245
330
131
100
AcDbEntity
  8
DEFAULT
  6
Continuous
370
     0
390
1D
100
AcDbLine
 10
8.280100975499977
 20
55.33064381880001
 30
0.0
 11
20.28010107979998
 21
55.33064381880001
 31
0.0
  0
LINE
  5
246
330
131
100
AcDbEntity
  8
DEFAULT
  6
Continuous
370
     0
390
1D
100
AcDbLine
 10
41.23510107980002
 20
55.33064381880001
 30
0.0
 11
53.23510118410002
 21
55.33064381880001
 31
0.0
  0
TEXT
  5
247
330
131
100
AcDbEntity
  8
DEFAULT
  6
Continuous
370
     0
390
1D
100
AcDbText
 10
50.08337694931345
 20
56.9300660409213
 30
0.0
 40
10.0
  1
G 1/2
  7
arial_ttf
 11
50.08337694931345
 21
66.9300660409213
 31
0.0
100
AcDbText
 73
     3
  0
ENDBLK
  5
248
330
131
100
AcDbEntity
  8
DEFAULT
  6
Continuous
 62
   136
370
     0
390
1D
100
AcDbBlockEnd
  0
BLOCK
  5
249
330
135
100
AcDbEntity
  8
DEFAULT
 62
     1
 48
0.0
370
     0
390
1D
100
AcDbBlockBegin
  2
SE4
 70
     0
 10
0.0
 20
0.0
 30
0.0
  3
SE4
  1
SE4
  0
HATCH
  5
24A
330
135
100
AcDbEntity
  8
DEFAULT
  6
Continuous
390
1D
100
AcDbHatch
 10
0.0
 20
0.0
 30
0.0
210
0.0
220
0.0
230
1.0
  2
SOLID
 70
     1
 71
     0
 91
        1
 92
        1
 93
        3
 72
     1
 10
164.2801010279181
 20
56.31487147041216
 11
170.2801010800722
 21
57.3148714791045
 72
     1
 10
170.2801010800722
 20
57.31487147910451
 11
164.2801010279181
 21
58.31487148779686
 72
     1
 10
164.2801010279181
 20
58.31487148779684
 11
164.2801010279181
 21
56.31487147041214
 97
        0
 75
     0
 76
     1
 98
        1
 10
0.0
 20
0.0
  0
HATCH
  5
24B
330
135
100
AcDbEntity
  8
DEFAULT
  6
Continuous
390
1D
100
AcDbHatch
 10
0.0
 20
0.0
 30
0.0
210
0.0
220
0.0
230
1.0
  2
SOLID
 70
     1
 71
     0
 91
        1
 92
        1
 93
        3
 72
     1
 10
197.2351011268249
 20
56.31487147041216
 11
191.2351010746709
 21
57.3148714791045
 72
     1
 10
191.2351010746709
 20
57.31487147910451
 11
197.2351011268249
 21
58.31487148779686
 72
     1
 10
197.2351011268249
 20
58.31487148779684
 11
197.2351011268249
 21
56.31487147041214
 97
        0
 75
     0
 76
     1
 98
        1
 10
0.0
 20
0.0
  0
LINE
  5
24C
330
135
100
AcDbEntity
  8
DEFAULT
  6
Continuous
370
     0
390
1D
100
AcDbLine
 10
170.2801010801001
 20
77.4232685979
 30
0.0
 11
170.2801010801001
 21
54.31487145299999
 31
0.0
  0
LINE
  5
24D
330
135
100
AcDbEntity
  8
DEFAULT
  6
Continuous
370
     0
390
1D
100
AcDbLine
 10
191.2351010747
 20
77.4232684861
 30
0.0
 11
191.2351010747
 21
54.31487145299999
 31
0.0
  0
LINE
  5
24E
330
135
100
AcDbEntity
  8
DEFAULT
  6
Continuous
370
     0
390
1D
100
AcDbLine
 10
158.2801009758
 20
57.31487147909999
 30
0.0
 11
170.2801010801001
 21
57.31487147909999
 31
0.0
  0
LINE
  5
24F
330
135
100
AcDbEntity
  8
DEFAULT
  6
Continuous
370
     0
390
1D
100
AcDbLine
 10
191.2351010747
 20
57.31487147909999
 30
0.0
 11
203.235101179
 21
57.31487147909999
 31
0.0
  0
TEXT
  5
250
330
135
100
AcDbEntity
  8
DEFAULT
  6
Continuous
370
     0
390
1D
100
AcDbText
 10
199.9219454854721
 20
57.6854837392525
 30
0.0
 40
10.0
  1
G 1/2
  7
arial_ttf
 11
199.9219454854721
 21
67.6854837392525
 31
0.0
100
AcDbText
 73
     3
  0
ENDBLK
  5
251
330
135
100
AcDbEntity
  8
DEFAULT
  6
Continuous
 62
   136
370
     0
390
1D
100
AcDbBlockEnd
  0
BLOCK
  5
252
330
139
100
AcDbEntity
  8
DEFAULT
 62
     1
 48
0.0
370
     0
390
1D
100
AcDbBlockBegin
  2
SE5
 70
     0
 10
0.0
 20
0.0
 30
0.0
  3
SE5
  1
SE5
  0
HATCH
  5
253
330
139
100
AcDbEntity
  8
DEFAULT
  6
Continuous
 62
   136
390
1D
100
AcDbHatch
 10
0.0
 20
0.0
 30
0.0
210
0.0
220
0.0
230
1.0
  2
SOLID
 70
     1
 71
     1
 91
        1
 92
        1
 93
        3
 72
     1
 10
16.76061926328726
 20
179.7045330587888
 11
22.76061931544132
 21
178.7045330500964
 72
     1
 10
22.76061931544132
 20
178.7045330500964
 11
16.76061926328726
 21
177.7045330414041
 72
     1
 10
16.76061926328726
 20
177.7045330414041
 11
16.76061926328726
 21
179.7045330587888
 97
        0
 75
     0
 76
     1
 98
        1
 10
0.0
 20
0.0
  0
HATCH
  5
254
330
139
100
AcDbEntity
  8
DEFAULT
  6
Continuous
 62
   136
390
1D
100
AcDbHatch
 10
0.0
 20
0.0
 30
0.0
210
0.0
220
0.0
230
1.0
  2
SOLID
 70
     1
 71
     1
 91
        1
 92
        1
 93
        3
 72
     1
 10
44.75541386107598
 20
179.7045330587888
 11
38.75541380892192
 21
178.7045330500964
 72
     1
 10
38.75541380892192
 20
178.7045330500964
 11
44.75541386107598
 21
177.7045330414041
 72
     1
 10
44.75541386107598
 20
177.7045330414041
 11
44.75541386107598
 21
179.7045330587888
 97
        0
 75
     0
 76
     1
 98
        1
 10
0.0
 20
0.0
  0
LINE
  5
255
330
139
100
AcDbEntity
  8
DEFAULT
  6
Continuous
 62
   136
370
     0
390
1D
100
AcDbLine
 10
22.7606193154
 20
158.1252843833
 30
0.0
 11
22.7606193154
 21
181.7045330762
 31
0.0
  0
LINE
  5
256
330
139
100
AcDbEntity
  8
DEFAULT
  6
Continuous
 62
   136
370
     0
390
1D
100
AcDbLine
 10
38.7554138089
 20
161.1206967295
 30
0.0
 11
38.7554138089
 21
181.7045330762
 31
0.0
  0
LINE
  5
257
330
139
100
AcDbEntity
  8
DEFAULT
  6
Continuous
 62
   136
370
     0
390
1D
100
AcDbLine
 10
10.7606192111
 20
178.7045330501
 30
0.0
 11
22.7606193154
 21
178.7045330501
 31
0.0
  0
LINE
  5
258
330
139
100
AcDbEntity
  8
DEFAULT
  6
Continuous
 62
   136
370
     0
390
1D
100
AcDbLine
 10
38.7554138089
 20
178.7045330501
 30
0.0
 11
72.4009691859
 21
178.7045330501
 31
0.0
  0
TEXT
  5
259
330
139
100
AcDbEntity
  8
DEFAULT
  6
Continuous
 62
   136
370
     0
390
1D
100
AcDbText
 10
60.909665167
 20
180.2045330501
 30
0.0
 40
6.0
  1
16
  7
arial_ttf
 11
60.909665167
 21
186.2045330501
 31
0.0
100
AcDbText
 73
     3
  0
TEXT
  5
25A
330
139
100
AcDbEntity
  8
DEFAULT
  6
Continuous
 62
   136
370
     0
390
1D
100
AcDbText
 10
49.8675599038
 20
180.2045330501
 30
0.0
 40
6.0
  1
O
  7
semeca1_ttf
 11
49.8675599038
 21
186.2045330501
 31
0.0
100
AcDbText
 73
     3
  0
ENDBLK
  5
25B
330
139
100
AcDbEntity
  8
DEFAULT
  6
Continuous
 62
   136
370
     0
390
1D
100
AcDbBlockEnd
  0
BLOCK
  5
396
330
395
100
AcDbEntity
  8
0
390
1D
100
AcDbBlockBegin
  2
_DOT
 70
     0
 10
0.0
 20
0.0
 30
0.0
  3
_DOT
  1
_DOT
  0
POLYLINE
  5
397
330
395
100
AcDbEntity
  8
0
  6
ByBlock
 62
     0
370
    -2
390
1D
100
AcDb2dPolyline
 66
     1
 10
0.0
 20
0.0
 30
0.0
 70
     1
 40
0.5
 41
0.5
  0
VERTEX
  5
398
330
397
100
AcDbEntity
  8
0
  6
ByBlock
 62
     0
370
    -2
390
1D
100
AcDbVertex
100
AcDb2dVertex
 10
-0.25
 20
0.0
 30
0.0
 42
1.0
  0
VERTEX
  5
399
330
397
100
AcDbEntity
  8
0
  6
ByBlock
 62
     0
370
    -2
390
1D
100
AcDbVertex
100
AcDb2dVertex
 10
0.25
 20
0.0
 30
0.0
 42
1.0
  0
SEQEND
  5
39A
330
397
100
AcDbEntity
  8
0
390
1D
  0
LINE
  5
39B
330
395
100
AcDbEntity
  8
0
  6
ByBlock
 62
     0
370
    -2
390
1D
100
AcDbLine
 10
-0.5
 20
0.0
 30
0.0
 11
-1.0
 21
0.0
 31
0.0
  0
ENDBLK
  5
39C
330
395
100
AcDbEntity
  8
0
390
1D
100
AcDbBlockEnd
  0
BLOCK
  5
3CF
330
3CE
100
AcDbEntity
  8
0
100
AcDbBlockBegin
  2
名称未設定-1
 70
     0
 10
0.0
 20
0.0
 30
0.0
  3
名称未設定-1
  1
名称未設定-1
  0
INSERT
  5
3D0
330
3CE
100
AcDbEntity
  8
LOGO
100
AcDbBlockReference
  2
block 3
 10
0.0
 20
0.0
 30
0.0
  0
ENDBLK
  5
3F1
330
3CE
100
AcDbEntity
  8
0
100
AcDbBlockEnd
  0
BLOCK
  5
3D2
330
3D1
100
AcDbEntity
  8
0
100
AcDbBlockBegin
  2
block 3
 70
     0
 10
0.0
 20
0.0
 30
0.0
  3
block 3
  1
block 3
  0
INSERT
  5
3D3
330
3D1
100
AcDbEntity
  8
LOGO
100
AcDbBlockReference
  2
block 4
 10
0.0
 20
0.0
 30
0.0
  0
INSERT
  5
3E3
330
3D1
100
AcDbEntity
  8
LOGO
100
AcDbBlockReference
  2
block 5
 10
0.0
 20
0.0
 30
0.0
  0
ENDBLK
  5
3F0
330
3D1
100
AcDbEntity
  8
0
100
AcDbBlockEnd
  0
BLOCK
  5
3D5
330
3D4
100
AcDbEntity
  8
0
100
AcDbBlockBegin
  2
block 4
 70
     0
 10
0.0
 20
0.0
 30
0.0
  3
block 4
  1
block 4
  0
POLYLINE
  5
3D6
330
3D4
100
AcDbEntity
  8
LOGO
370
     0
100
AcDb2dPolyline
 66
     1
 10
0.0
 20
0.0
 30
0.0
  0
VERTEX
  5
3D7
330
3D6
100
AcDbEntity
  8
LOGO
370
     0
100
AcDbVertex
100
AcDb2dVertex
 10
83.79545727667795
 20
167.6444858234922
 30
0.0
  0
VERTEX
  5
3D8
330
3D6
100
AcDbEntity
  8
LOGO
370
     0
100
AcDbVertex
100
AcDb2dVertex
 10
83.79545727667795
 20
159.7968976406313
 30
0.0
  0
VERTEX
  5
3D9
330
3D6
100
AcDbEntity
  8
LOGO
370
     0
100
AcDbVertex
100
AcDb2dVertex
 10
71.3631329975216
 20
159.7968976406313
 30
0.0
  0
VERTEX
  5
3DA
330
3D6
100
AcDbEntity
  8
LOGO
370
     0
100
AcDbVertex
100
AcDb2dVertex
 10
71.3631329975216
 20
127.8027915271048
 30
0.0
  0
VERTEX
  5
3DB
330
3D6
100
AcDbEntity
  8
LOGO
370
     0
100
AcDbVertex
100
AcDb2dVertex
 10
60.43011526263018
 20
127.8027915271048
 30
0.0
  0
VERTEX
  5
3DC
330
3D6
100
AcDbEntity
  8
LOGO
370
     0
100
AcDbVertex
100
AcDb2dVertex
 10
60.43011526263018
 20
159.7968976406313
 30
0.0
  0
VERTEX
  5
3DD
330
3D6
100
AcDbEntity
  8
LOGO
370
     0
100
AcDbVertex
100
AcDb2dVertex
 10
48.21793273020759
 20
159.7968976406313
 30
0.0
  0
VERTEX
  5
3DE
330
3D6
100
AcDbEntity
  8
LOGO
370
     0
100
AcDbVertex
100
AcDb2dVertex
 10
48.21793273020759
 20
167.6444858234922
 30
0.0
  0
VERTEX
  5
3DF
330
3D6
100
AcDbEntity
  8
LOGO
370
     0
100
AcDbVertex
100
AcDb2dVertex
 10
83.79545727667795
 20
167.6444858234922
 30
0.0
  0
SEQEND
  5
3E0
330
3D6
100
AcDbEntity
  8
LOGO
370
     0
  0
HATCH
  5
3E1
330
3D4
100
AcDbEntity
  8
LOGO
 62
   250
420
  2234388
100
AcDbHatch
 10
0.0
 20
0.0
 30
0.0
210
0.0
220
0.0
230
1.0
  2
SOLID
 70
     1
 71
     0
 91
        1
 92
        1
 93
        8
 72
     1
 10
83.79545727667795
 20
167.6444858234922
 11
83.79545727667795
 21
159.7968976406313
 72
     1
 10
83.79545727667795
 20
159.7968976406313
 11
71.3631329975216
 21
159.7968976406313
 72
     1
 10
71.3631329975216
 20
159.7968976406313
 11
71.3631329975216
 21
127.8027915271048
 72
     1
 10
71.3631329975216
 20
127.8027915271048
 11
60.43011526263018
 21
127.8027915271048
 72
     1
 10
60.43011526263018
 20
127.8027915271048
 11
60.43011526263018
 21
159.7968976406313
 72
     1
 10
60.43011526263018
 20
159.7968976406313
 11
48.21793273020759
 21
159.7968976406313
 72
     1
 10
48.21793273020759
 20
159.7968976406313
 11
48.21793273020759
 21
167.6444858234922
 72
     1
 10
48.21793273020759
 20
167.6444858234922
 11
83.79545727667795
 21
167.6444858234922
 97
        0
 75
     2
 76
     1
 98
        0
  0
ENDBLK
  5
3E2
330
3D4
100
AcDbEntity
  8
0
100
AcDbBlockEnd
  0
BLOCK
  5
3E5
330
3E4
100
AcDbEntity
  8
0
100
AcDbBlockBegin
  2
block 5
 70
     0
 10
0.0
 20
0.0
 30
0.0
  3
block 5
  1
block 5
  0
SPLINE
  5
3E6
330
3E4
100
AcDbEntity
  8
LOGO
370
     0
100
AcDbSpline
210
0.0
220
0.0
230
1.0
 70
    11
 71
     3
 72
    56
 73
    52
 74
     0
 42
0.000000001
 43
0.0000000001
 40
0.0
 40
0.0
 40
0.0
 40
0.0
 40
1.0
 40
1.0
 40
1.0
 40
2.0
 40
2.0
 40
2.0
 40
3.0
 40
3.0
 40
3.0
 40
4.0
 40
4.0
 40
4.0
 40
5.0
 40
5.0
 40
5.0
 40
6.0
 40
6.0
 40
6.0
 40
7.0
 40
7.0
 40
7.0
 40
8.0
 40
8.0
 40
8.0
 40
9.0
 40
9.0
 40
9.0
 40
10.0
 40
10.0
 40
10.0
 40
11.0
 40
11.0
 40
11.0
 40
12.0
 40
12.0
 40
12.0
 40
13.0
 40
13.0
 40
13.0
 40
14.0
 40
14.0
 40
14.0
 40
15.0
 40
15.0
 40
15.0
 40
16.0
 40
16.0
 40
16.0
 40
17.0
 40
17.0
 40
17.0
 40
17.0
 10
100.4504378777679
 20
166.69157178364
 30
0.0
 10
101.9848844191641
 20
167.1313385124438
 30
0.0
 10
103.9637485713373
 20
166.7649523658846
 30
0.0
 10
103.9637485713373
 20
166.7649523658846
 30
0.0
 10
103.9637485713373
 20
166.7649523658846
 30
0.0
 10
103.0132460999156
 20
163.911205638077
 30
0.0
 10
103.0132460999156
 20
163.911205638077
 30
0.0
 10
103.0132460999156
 20
163.911205638077
 30
0.0
 10
101.0674548862189
 20
164.3601018759394
 30
0.0
 10
99.57090442016032
 20
163.1805004036133
 30
0.0
 10
98.40508333886608
 20
162.258247733807
 30
0.0
 10
97.65301849830304
 20
159.804132345923
 30
0.0
 10
97.3598406791005
 20
158.8699940888517
 30
0.0
 10
97.3598406791005
 20
158.8699940888517
 30
0.0
 10
96.07137411762282
 20
154.9119212747295
 30
0.0
 10
96.07137411762282
 20
154.9119212747295
 30
0.0
 10
96.07137411762282
 20
154.9119212747295
 30
0.0
 10
100.3012651448482
 20
154.9119212747295
 30
0.0
 10
100.3012651448482
 20
154.9119212747295
 30
0.0
 10
100.3012651448482
 20
154.9119212747295
 30
0.0
 10
99.64152892419852
 20
152.4199098115079
 30
0.0
 10
99.64152892419852
 20
152.4199098115079
 30
0.0
 10
99.64152892419852
 20
152.4199098115079
 30
0.0
 10
95.38097652692731
 20
152.4199098115079
 30
0.0
 10
95.38097652692731
 20
152.4199098115079
 30
0.0
 10
95.38097652692731
 20
152.4199098115079
 30
0.0
 10
87.75353009080013
 20
127.8027915271048
 30
0.0
 10
87.75353009080013
 20
127.8027915271048
 30
0.0
 10
87.75353009080013
 20
127.8027915271048
 30
0.0
 10
85.36538832498108
 20
127.8027915271048
 30
0.0
 10
85.36538832498108
 20
127.8027915271048
 30
0.0
 10
85.36538832498108
 20
127.8027915271048
 30
0.0
 10
93.00006946639998
 20
152.4199098115079
 30
0.0
 10
93.00006946639998
 20
152.4199098115079
 30
0.0
 10
93.00006946639998
 20
152.4199098115079
 30
0.0
 10
89.85297266450198
 20
152.4199098115079
 30
0.0
 10
89.85297266450198
 20
152.4199098115079
 30
0.0
 10
89.85297266450198
 20
152.4199098115079
 30
0.0
 10
90.51270888515164
 20
154.9119212747295
 30
0.0
 10
90.51270888515164
 20
154.9119212747295
 30
0.0
 10
90.51270888515164
 20
154.9119212747295
 30
0.0
 10
93.6904670570955
 20
154.9119212747295
 30
0.0
 10
93.6904670570955
 20
154.9119212747295
 30
0.0
 10
93.6904670570955
 20
154.9119212747295
 30
0.0
 10
94.81598049462158
 20
158.3616699146644
 30
0.0
 10
94.81598049462158
 20
158.3616699146644
 30
0.0
 10
95.7237637538445
 20
161.2605474231013
 30
0.0
 10
96.4968436907311
 20
162.8139420021662
 30
0.0
 10
97.15657991138076
 20
163.9844139654337
 30
0.0
 10
97.81183750494507
 20
165.1523021053827
 30
0.0
 10
99.1047826935081
 20
166.3084769129547
 30
0.0
 10
100.4504378777679
 20
166.69157178364
 30
0.0
  0
HATCH
  5
3E7
330
3E4
100
AcDbEntity
  8
LOGO
 62
   250
420
  2234388
100
AcDbHatch
 10
0.0
 20
0.0
 30
0.0
210
0.0
220
0.0
230
1.0
  2
SOLID
 70
     1
 71
     0
 91
        1
 92
        1
 93
        1
 72
     4
 94
        3
 73
     0
 74
     1
 95
       56
 96
       52
 40
0.0
 40
0.0
 40
0.0
 40
0.0
 40
1.0
 40
1.0
 40
1.0
 40
2.0
 40
2.0
 40
2.0
 40
3.0
 40
3.0
 40
3.0
 40
4.0
 40
4.0
 40
4.0
 40
5.0
 40
5.0
 40
5.0
 40
6.0
 40
6.0
 40
6.0
 40
7.0
 40
7.0
 40
7.0
 40
8.0
 40
8.0
 40
8.0
 40
9.0
 40
9.0
 40
9.0
 40
10.0
 40
10.0
 40
10.0
 40
11.0
 40
11.0
 40
11.0
 40
12.0
 40
12.0
 40
12.0
 40
13.0
 40
13.0
 40
13.0
 40
14.0
 40
14.0
 40
14.0
 40
15.0
 40
15.0
 40
15.0
 40
16.0
 40
16.0
 40
16.0
 40
17.0
 40
17.0
 40
17.0
 40
17.0
 10
100.4504378777679
 20
166.69157178364
 10
101.9848844191641
 20
167.1313385124438
 10
103.9637485713373
 20
166.7649523658846
 10
103.9637485713373
 20
166.7649523658846
 10
103.9637485713373
 20
166.7649523658846
 10
103.0132460999156
 20
163.911205638077
 10
103.0132460999156
 20
163.911205638077
 10
103.0132460999156
 20
163.911205638077
 10
101.0674548862189
 20
164.3601018759394
 10
99.57090442016032
 20
163.1805004036133
 10
98.40508333886608
 20
162.258247733807
 10
97.65301849830304
 20
159.804132345923
 10
97.3598406791005
 20
158.8699940888517
 10
97.3598406791005
 20
158.8699940888517
 10
96.07137411762282
 20
154.9119212747295
 10
96.07137411762282
 20
154.9119212747295
 10
96.07137411762282
 20
154.9119212747295
 10
100.3012651448482
 20
154.9119212747295
 10
100.3012651448482
 20
154.9119212747295
 10
100.3012651448482
 20
154.9119212747295
 10
99.64152892419852
 20
152.4199098115079
 10
99.64152892419852
 20
152.4199098115079
 10
99.64152892419852
 20
152.4199098115079
 10
95.38097652692731
 20
152.4199098115079
 10
95.38097652692731
 20
152.4199098115079
 10
95.38097652692731
 20
152.4199098115079
 10
87.75353009080013
 20
127.8027915271048
 10
87.75353009080013
 20
127.8027915271048
 10
87.75353009080013
 20
127.8027915271048
 10
85.36538832498108
 20
127.8027915271048
 10
85.36538832498108
 20
127.8027915271048
 10
85.36538832498108
 20
127.8027915271048
 10
93.00006946639998
 20
152.4199098115079
 10
93.00006946639998
 20
152.4199098115079
 10
93.00006946639998
 20
152.4199098115079
 10
89.85297266450198
 20
152.4199098115079
 10
89.85297266450198
 20
152.4199098115079
 10
89.85297266450198
 20
152.4199098115079
 10
90.51270888515164
 20
154.9119212747295
 10
90.51270888515164
 20
154.9119212747295
 10
90.51270888515164
 20
154.9119212747295
 10
93.6904670570955
 20
154.9119212747295
 10
93.6904670570955
 20
154.9119212747295
 10
93.6904670570955
 20
154.9119212747295
 10
94.81598049462158
 20
158.3616699146644
 10
94.81598049462158
 20
158.3616699146644
 10
95.7237637538445
 20
161.2605474231013
 10
96.4968436907311
 20
162.8139420021662
 10
97.15657991138076
 20
163.9844139654337
 10
97.81183750494507
 20
165.1523021053827
 10
99.1047826935081
 20
166.3084769129547
 10
100.4504378777679
 20
166.69157178364
 97
        0
 75
     2
 76
     1
 98
        0
  0
SPLINE
  5
3E8
330
3E4
100
AcDbEntity
  8
LOGO
370
     0
100
AcDbSpline
210
0.0
220
0.0
230
1.0
 70
    11
 71
     3
 72
    38
 73
    34
 74
     0
 42
0.000000001
 43
0.0000000001
 40
0.0
 40
0.0
 40
0.0
 40
0.0
 40
1.0
 40
1.0
 40
1.0
 40
2.0
 40
2.0
 40
2.0
 40
3.0
 40
3.0
 40
3.0
 40
4.0
 40
4.0
 40
4.0
 40
5.0
 40
5.0
 40
5.0
 40
6.0
 40
6.0
 40
6.0
 40
7.0
 40
7.0
 40
7.0
 40
8.0
 40
8.0
 40
8.0
 40
9.0
 40
9.0
 40
9.0
 40
10.0
 40
10.0
 40
10.0
 40
11.0
 40
11.0
 40
11.0
 40
11.0
 10
126.377554584636
 20
154.8151140277308
 30
0.0
 10
126.377554584636
 20
154.8151140277308
 30
0.0
 10
128.8311532078563
 20
154.8151140277308
 30
0.0
 10
128.8311532078563
 20
154.8151140277308
 30
0.0
 10
128.8311532078563
 20
154.8151140277308
 30
0.0
 10
127.7345785914971
 20
151.3062819612468
 30
0.0
 10
127.7345785914971
 20
151.3062819612468
 30
0.0
 10
128.571392836906
 20
152.2922689395754
 30
0.0
 10
129.8860421413442
 20
153.604506675583
 30
0.0
 10
131.0163787157314
 20
154.2664822097754
 30
0.0
 10
132.7044766171327
 20
155.2500576196734
 30
0.0
 10
133.6642808525008
 20
155.3847609420097
 30
0.0
 10
134.7284715499351
 20
155.3565111403944
 30
0.0
 10
134.7284715499351
 20
155.3565111403944
 30
0.0
 10
133.6877075172549
 20
152.0345756272799
 30
0.0
 10
133.6877075172549
 20
152.0345756272799
 30
0.0
 10
133.011434827367
 20
152.3184516825359
 30
0.0
 10
130.930940291334
 20
151.7768823149844
 30
0.0
 10
129.739280976855
 20
150.9162968950455
 30
0.0
 10
128.66613302525
 20
150.1454562717016
 30
0.0
 10
127.9192358313239
 20
149.4857200510519
 30
0.0
 10
127.0393578639405
 20
147.8282835196966
 30
0.0
 10
126.164647543194
 20
146.1699857139017
 30
0.0
 10
125.4742499524985
 20
143.5262176944419
 30
0.0
 10
124.2822461282437
 20
139.6959580071401
 30
0.0
 10
124.2822461282437
 20
139.6959580071401
 30
0.0
 10
120.5753209406769
 20
127.8027915271048
 30
0.0
 10
120.5753209406769
 20
127.8027915271048
 30
0.0
 10
120.5753209406769
 20
127.8027915271048
 30
0.0
 10
118.1964809388044
 20
127.8027915271048
 30
0.0
 10
118.1964809388044
 20
127.8027915271048
 30
0.0
 10
118.1964809388044
 20
127.8027915271048
 30
0.0
 10
126.377554584636
 20
154.8151140277308
 30
0.0
 10
126.377554584636
 20
154.8151140277308
 30
0.0
  0
HATCH
  5
3E9
330
3E4
100
AcDbEntity
  8
LOGO
 62
   250
420
  2234388
100
AcDbHatch
 10
0.0
 20
0.0
 30
0.0
210
0.0
220
0.0
230
1.0
  2
SOLID
 70
     1
 71
     0
 91
        1
 92
        1
 93
        1
 72
     4
 94
        3
 73
     0
 74
     1
 95
       38
 96
       34
 40
0.0
 40
0.0
 40
0.0
 40
0.0
 40
1.0
 40
1.0
 40
1.0
 40
2.0
 40
2.0
 40
2.0
 40
3.0
 40
3.0
 40
3.0
 40
4.0
 40
4.0
 40
4.0
 40
5.0
 40
5.0
 40
5.0
 40
6.0
 40
6.0
 40
6.0
 40
7.0
 40
7.0
 40
7.0
 40
8.0
 40
8.0
 40
8.0
 40
9.0
 40
9.0
 40
9.0
 40
10.0
 40
10.0
 40
10.0
 40
11.0
 40
11.0
 40
11.0
 40
11.0
 10
126.377554584636
 20
154.8151140277308
 10
126.377554584636
 20
154.8151140277308
 10
128.8311532078563
 20
154.8151140277308
 10
128.8311532078563
 20
154.8151140277308
 10
128.8311532078563
 20
154.8151140277308
 10
127.7345785914971
 20
151.3062819612468
 10
127.7345785914971
 20
151.3062819612468
 10
128.571392836906
 20
152.2922689395754
 10
129.8860421413442
 20
153.604506675583
 10
131.0163787157314
 20
154.2664822097754
 10
132.7044766171327
 20
155.2500576196734
 10
133.6642808525008
 20
155.3847609420097
 10
134.7284715499351
 20
155.3565111403944
 10
134.7284715499351
 20
155.3565111403944
 10
133.6877075172549
 20
152.0345756272799
 10
133.6877075172549
 20
152.0345756272799
 10
133.011434827367
 20
152.3184516825359
 10
130.930940291334
 20
151.7768823149844
 10
129.739280976855
 20
150.9162968950455
 10
128.66613302525
 20
150.1454562717016
 10
127.9192358313239
 20
149.4857200510519
 10
127.0393578639405
 20
147.8282835196966
 10
126.164647543194
 20
146.1699857139017
 10
125.4742499524985
 20
143.5262176944419
 10
124.2822461282437
 20
139.6959580071401
 10
124.2822461282437
 20
139.6959580071401
 10
120.5753209406769
 20
127.8027915271048
 10
120.5753209406769
 20
127.8027915271048
 10
120.5753209406769
 20
127.8027915271048
 10
118.1964809388044
 20
127.8027915271048
 10
118.1964809388044
 20
127.8027915271048
 10
118.1964809388044
 20
127.8027915271048
 10
126.377554584636
 20
154.8151140277308
 10
126.377554584636
 20
154.8151140277308
 97
        0
 75
     2
 76
     1
 98
        0
  0
SPLINE
  5
3EA
330
3E4
100
AcDbEntity
  8
LOGO
370
     0
100
AcDbSpline
210
0.0
220
0.0
230
1.0
 70
    11
 71
     3
 72
   104
 73
   100
 74
     0
 42
0.000000001
 43
0.0000000001
 40
0.0
 40
0.0
 40
0.0
 40
0.0
 40
1.0
 40
1.0
 40
1.0
 40
2.0
 40
2.0
 40
2.0
 40
3.0
 40
3.0
 40
3.0
 40
4.0
 40
4.0
 40
4.0
 40
5.0
 40
5.0
 40
5.0
 40
6.0
 40
6.0
 40
6.0
 40
7.0
 40
7.0
 40
7.0
 40
8.0
 40
8.0
 40
8.0
 40
9.0
 40
9.0
 40
9.0
 40
10.0
 40
10.0
 40
10.0
 40
11.0
 40
11.0
 40
11.0
 40
12.0
 40
12.0
 40
12.0
 40
13.0
 40
13.0
 40
13.0
 40
14.0
 40
14.0
 40
14.0
 40
15.0
 40
15.0
 40
15.0
 40
16.0
 40
16.0
 40
16.0
 40
17.0
 40
17.0
 40
17.0
 40
18.0
 40
18.0
 40
18.0
 40
19.0
 40
19.0
 40
19.0
 40
20.0
 40
20.0
 40
20.0
 40
21.0
 40
21.0
 40
21.0
 40
22.0
 40
22.0
 40
22.0
 40
23.0
 40
23.0
 40
23.0
 40
24.0
 40
24.0
 40
24.0
 40
25.0
 40
25.0
 40
25.0
 40
26.0
 40
26.0
 40
26.0
 40
27.0
 40
27.0
 40
27.0
 40
28.0
 40
28.0
 40
28.0
 40
29.0
 40
29.0
 40
29.0
 40
30.0
 40
30.0
 40
30.0
 40
31.0
 40
31.0
 40
31.0
 40
32.0
 40
32.0
 40
32.0
 40
33.0
 40
33.0
 40
33.0
 40
33.0
 10
139.8926730891197
 20
154.8294111834263
 30
0.0
 10
139.8926730891197
 20
154.8294111834263
 30
0.0
 10
142.0344903652445
 20
154.8294111834263
 30
0.0
 10
142.0344903652445
 20
154.8294111834263
 30
0.0
 10
142.0344903652445
 20
154.8294111834263
 30
0.0
 10
140.9516961399171
 20
151.3157559800812
 30
0.0
 10
140.9516961399171
 20
151.3157559800812
 30
0.0
 10
141.8928968473923
 20
152.7887075264977
 30
0.0
 10
142.7341897198865
 20
153.4484437471474
 30
0.0
 10
143.8552245303272
 20
154.2926649527359
 30
0.0
 10
144.9803934580775
 20
155.1296514530327
 30
0.0
 10
146.3139908001845
 20
155.3044901642492
 30
0.0
 10
147.241066606852
 20
155.3044901642492
 30
0.0
 10
148.3855280820469
 20
155.3044901642492
 30
0.0
 10
149.4969166187653
 20
155.0752189084569
 30
0.0
 10
150.0784491203092
 20
153.8172414621372
 30
0.0
 10
150.5228667310863
 20
152.833838307127
 30
0.0
 10
150.5414702589793
 20
152.7201500811143
 30
0.0
 10
150.4140016419347
 20
150.7765981809602
 30
0.0
 10
151.5818897818837
 20
152.7699317437168
 30
0.0
 10
152.4424752018226
 20
153.6256940267945
 30
0.0
 10
153.9038856707499
 20
154.4507949398263
 30
0.0
 10
155.4455669174378
 20
155.3044901642492
 30
0.0
 10
156.339225275853
 20
155.3659851592288
 30
0.0
 10
157.3748216618963
 20
155.2147453676543
 30
0.0
 10
158.911679771723
 20
154.9877134254046
 30
0.0
 10
159.8859534176746
 20
154.4390816074493
 30
0.0
 10
160.3965169054045
 20
152.7816450760939
 30
0.0
 10
160.9070803931344
 20
151.1219692311958
 30
0.0
 10
160.6328506116007
 20
150.2303779314354
 30
0.0
 10
159.9992971339115
 20
147.597634224801
 30
0.0
 10
159.7105979417943
 20
146.4014962832367
 30
0.0
 10
159.2947746424084
 20
144.9400858143094
 30
0.0
 10
158.7463150793409
 20
143.2092687007094
 30
0.0
 10
158.7463150793409
 20
143.2092687007094
 30
0.0
 10
153.9038856707499
 20
127.8027915271048
 30
0.0
 10
153.9038856707499
 20
127.8027915271048
 30
0.0
 10
153.9038856707499
 20
127.8027915271048
 30
0.0
 10
151.3882752878863
 20
127.8027915271048
 30
0.0
 10
151.3882752878863
 20
127.8027915271048
 30
0.0
 10
151.3882752878863
 20
127.8027915271048
 30
0.0
 10
155.6250565106276
 20
141.2751908193897
 30
0.0
 10
155.6250565106276
 20
141.2751908193897
 30
0.0
 10
156.5094131050963
 20
144.0936252951782
 30
0.0
 10
157.109893644309
 20
146.1506931664571
 30
0.0
 10
157.4220195011804
 20
147.4415712963654
 30
0.0
 10
157.8095929989511
 20
149.0530157726519
 30
0.0
 10
157.9656559273867
 20
149.5826995529385
 30
0.0
 10
157.7816877071116
 20
150.7529992613181
 30
0.0
 10
157.6111553680925
 20
151.8430281919372
 30
0.0
 10
157.0582171779396
 20
152.5547853887321
 30
0.0
 10
156.1170164704645
 20
152.5547853887321
 30
0.0
 10
155.1096698860365
 20
152.5547853887321
 30
0.0
 10
154.2962823053817
 20
152.4412694176073
 30
0.0
 10
153.156643967048
 20
151.2945686288697
 30
0.0
 10
152.0170056287143
 20
150.1476955852443
 30
0.0
 10
151.076149431015
 20
148.7930831468137
 30
0.0
 10
150.3337308641742
 20
147.2290087646991
 30
0.0
 10
149.5957909244188
 20
145.6683794803425
 30
0.0
 10
148.8530278478023
 20
143.6822806228776
 30
0.0
 10
148.0964843801539
 20
141.2751908193897
 30
0.0
 10
148.0964843801539
 20
141.2751908193897
 30
0.0
 10
143.8552245303272
 20
127.8027915271048
 30
0.0
 10
143.8552245303272
 20
127.8027915271048
 30
0.0
 10
143.8552245303272
 20
127.8027915271048
 30
0.0
 10
141.486030802177
 20
127.8027915271048
 30
0.0
 10
141.486030802177
 20
127.8027915271048
 30
0.0
 10
141.486030802177
 20
127.8027915271048
 30
0.0
 10
146.3329388378533
 20
143.2092687007094
 30
0.0
 10
146.3329388378533
 20
143.2092687007094
 30
0.0
 10
146.8483254624444
 20
144.8408669988801
 30
0.0
 10
147.2314203331297
 20
146.1837661049335
 30
0.0
 10
147.4867020769946
 20
147.224185627838
 30
0.0
 10
147.9169947869641
 20
149.0197705792876
 30
0.0
 10
148.0306830129768
 20
150.2400242051577
 30
0.0
 10
147.709255392159
 20
151.3157559800812
 30
0.0
 10
147.3874832615654
 20
152.3916600098926
 30
0.0
 10
146.8245542879144
 20
152.6683013598569
 30
0.0
 10
145.8840425999909
 20
152.6683013598569
 30
0.0
 10
145.0989048209514
 20
152.6683013598569
 30
0.0
 10
144.3282364524954
 20
152.3275811915945
 30
0.0
 10
143.4531816219731
 20
151.6538923250251
 30
0.0
 10
142.34627171234
 20
150.8074318058939
 30
0.0
 10
141.901854101563
 20
150.1097995099067
 30
0.0
 10
141.3578731655808
 20
149.289521733736
 30
0.0
 10
140.6299240093235
 20
148.192602607601
 30
0.0
 10
140.2850697237515
 20
147.455696197173
 30
0.0
 10
139.6652966370942
 20
145.8385673095858
 30
0.0
 10
139.0506911970739
 20
144.2214384219986
 30
0.0
 10
138.463991048893
 20
142.3252566160164
 30
0.0
 10
138.0571250036777
 20
141.0154304484394
 30
0.0
 10
138.0571250036777
 20
141.0154304484394
 30
0.0
 10
133.9009590684727
 20
127.8027915271048
 30
0.0
 10
133.9009590684727
 20
127.8027915271048
 30
0.0
 10
133.9009590684727
 20
127.8027915271048
 30
0.0
 10
131.4180771143097
 20
127.8027915271048
 30
0.0
 10
131.4180771143097
 20
127.8027915271048
 30
0.0
 10
131.4180771143097
 20
127.8027915271048
 30
0.0
 10
139.8926730891197
 20
154.8294111834263
 30
0.0
 10
139.8926730891197
 20
154.8294111834263
 30
0.0
  0
HATCH
  5
3EB
330
3E4
100
AcDbEntity
  8
LOGO
 62
   250
420
  2234388
100
AcDbHatch
 10
0.0
 20
0.0
 30
0.0
210
0.0
220
0.0
230
1.0
  2
SOLID
 70
     1
 71
     0
 91
        1
 92
        1
 93
        1
 72
     4
 94
        3
 73
     0
 74
     1
 95
      104
 96
      100
 40
0.0
 40
0.0
 40
0.0
 40
0.0
 40
1.0
 40
1.0
 40
1.0
 40
2.0
 40
2.0
 40
2.0
 40
3.0
 40
3.0
 40
3.0
 40
4.0
 40
4.0
 40
4.0
 40
5.0
 40
5.0
 40
5.0
 40
6.0
 40
6.0
 40
6.0
 40
7.0
 40
7.0
 40
7.0
 40
8.0
 40
8.0
 40
8.0
 40
9.0
 40
9.0
 40
9.0
 40
10.0
 40
10.0
 40
10.0
 40
11.0
 40
11.0
 40
11.0
 40
12.0
 40
12.0
 40
12.0
 40
13.0
 40
13.0
 40
13.0
 40
14.0
 40
14.0
 40
14.0
 40
15.0
 40
15.0
 40
15.0
 40
16.0
 40
16.0
 40
16.0
 40
17.0
 40
17.0
 40
17.0
 40
18.0
 40
18.0
 40
18.0
 40
19.0
 40
19.0
 40
19.0
 40
20.0
 40
20.0
 40
20.0
 40
21.0
 40
21.0
 40
21.0
 40
22.0
 40
22.0
 40
22.0
 40
23.0
 40
23.0
 40
23.0
 40
24.0
 40
24.0
 40
24.0
 40
25.0
 40
25.0
 40
25.0
 40
26.0
 40
26.0
 40
26.0
 40
27.0
 40
27.0
 40
27.0
 40
28.0
 40
28.0
 40
28.0
 40
29.0
 40
29.0
 40
29.0
 40
30.0
 40
30.0
 40
30.0
 40
31.0
 40
31.0
 40
31.0
 40
32.0
 40
32.0
 40
32.0
 40
33.0
 40
33.0
 40
33.0
 40
33.0
 10
139.8926730891197
 20
154.8294111834263
 10
139.8926730891197
 20
154.8294111834263
 10
142.0344903652445
 20
154.8294111834263
 10
142.0344903652445
 20
154.8294111834263
 10
142.0344903652445
 20
154.8294111834263
 10
140.9516961399171
 20
151.3157559800812
 10
140.9516961399171
 20
151.3157559800812
 10
141.8928968473923
 20
152.7887075264977
 10
142.7341897198865
 20
153.4484437471474
 10
143.8552245303272
 20
154.2926649527359
 10
144.9803934580775
 20
155.1296514530327
 10
146.3139908001845
 20
155.3044901642492
 10
147.241066606852
 20
155.3044901642492
 10
148.3855280820469
 20
155.3044901642492
 10
149.4969166187653
 20
155.0752189084569
 10
150.0784491203092
 20
153.8172414621372
 10
150.5228667310863
 20
152.833838307127
 10
150.5414702589793
 20
152.7201500811143
 10
150.4140016419347
 20
150.7765981809602
 10
151.5818897818837
 20
152.7699317437168
 10
152.4424752018226
 20
153.6256940267945
 10
153.9038856707499
 20
154.4507949398263
 10
155.4455669174378
 20
155.3044901642492
 10
156.339225275853
 20
155.3659851592288
 10
157.3748216618963
 20
155.2147453676543
 10
158.911679771723
 20
154.9877134254046
 10
159.8859534176746
 20
154.4390816074493
 10
160.3965169054045
 20
152.7816450760939
 10
160.9070803931344
 20
151.1219692311958
 10
160.6328506116007
 20
150.2303779314354
 10
159.9992971339115
 20
147.597634224801
 10
159.7105979417943
 20
146.4014962832367
 10
159.2947746424084
 20
144.9400858143094
 10
158.7463150793409
 20
143.2092687007094
 10
158.7463150793409
 20
143.2092687007094
 10
153.9038856707499
 20
127.8027915271048
 10
153.9038856707499
 20
127.8027915271048
 10
153.9038856707499
 20
127.8027915271048
 10
151.3882752878863
 20
127.8027915271048
 10
151.3882752878863
 20
127.8027915271048
 10
151.3882752878863
 20
127.8027915271048
 10
155.6250565106276
 20
141.2751908193897
 10
155.6250565106276
 20
141.2751908193897
 10
156.5094131050963
 20
144.0936252951782
 10
157.109893644309
 20
146.1506931664571
 10
157.4220195011804
 20
147.4415712963654
 10
157.8095929989511
 20
149.0530157726519
 10
157.9656559273867
 20
149.5826995529385
 10
157.7816877071116
 20
150.7529992613181
 10
157.6111553680925
 20
151.8430281919372
 10
157.0582171779396
 20
152.5547853887321
 10
156.1170164704645
 20
152.5547853887321
 10
155.1096698860365
 20
152.5547853887321
 10
154.2962823053817
 20
152.4412694176073
 10
153.156643967048
 20
151.2945686288697
 10
152.0170056287143
 20
150.1476955852443
 10
151.076149431015
 20
148.7930831468137
 10
150.3337308641742
 20
147.2290087646991
 10
149.5957909244188
 20
145.6683794803425
 10
148.8530278478023
 20
143.6822806228776
 10
148.0964843801539
 20
141.2751908193897
 10
148.0964843801539
 20
141.2751908193897
 10
143.8552245303272
 20
127.8027915271048
 10
143.8552245303272
 20
127.8027915271048
 10
143.8552245303272
 20
127.8027915271048
 10
141.486030802177
 20
127.8027915271048
 10
141.486030802177
 20
127.8027915271048
 10
141.486030802177
 20
127.8027915271048
 10
146.3329388378533
 20
143.2092687007094
 10
146.3329388378533
 20
143.2092687007094
 10
146.8483254624444
 20
144.8408669988801
 10
147.2314203331297
 20
146.1837661049335
 10
147.4867020769946
 20
147.224185627838
 10
147.9169947869641
 20
149.0197705792876
 10
148.0306830129768
 20
150.2400242051577
 10
147.709255392159
 20
151.3157559800812
 10
147.3874832615654
 20
152.3916600098926
 10
146.8245542879144
 20
152.6683013598569
 10
145.8840425999909
 20
152.6683013598569
 10
145.0989048209514
 20
152.6683013598569
 10
144.3282364524954
 20
152.3275811915945
 10
143.4531816219731
 20
151.6538923250251
 10
142.34627171234
 20
150.8074318058939
 10
141.901854101563
 20
150.1097995099067
 10
141.3578731655808
 20
149.289521733736
 10
140.6299240093235
 20
148.192602607601
 10
140.2850697237515
 20
147.455696197173
 10
139.6652966370942
 20
145.8385673095858
 10
139.0506911970739
 20
144.2214384219986
 10
138.463991048893
 20
142.3252566160164
 10
138.0571250036777
 20
141.0154304484394
 10
138.0571250036777
 20
141.0154304484394
 10
133.9009590684727
 20
127.8027915271048
 10
133.9009590684727
 20
127.8027915271048
 10
133.9009590684727
 20
127.8027915271048
 10
131.4180771143097
 20
127.8027915271048
 10
131.4180771143097
 20
127.8027915271048
 10
131.4180771143097
 20
127.8027915271048
 10
139.8926730891197
 20
154.8294111834263
 10
139.8926730891197
 20
154.8294111834263
 97
        0
 75
     2
 76
     1
 98
        0
  0
SPLINE
  5
3EC
330
3E4
100
AcDbEntity
  8
LOGO
370
     0
100
AcDbSpline
210
0.0
220
0.0
230
1.0
 70
    11
 71
     3
 72
    29
 73
    25
 74
     0
 42
0.000000001
 43
0.0000000001
 40
0.0
 40
0.0
 40
0.0
 40
0.0
 40
1.0
 40
1.0
 40
1.0
 40
2.0
 40
2.0
 40
2.0
 40
3.0
 40
3.0
 40
3.0
 40
4.0
 40
4.0
 40
4.0
 40
5.0
 40
5.0
 40
5.0
 40
6.0
 40
6.0
 40
6.0
 40
7.0
 40
7.0
 40
7.0
 40
8.0
 40
8.0
 40
8.0
 40
8.0
 10
101.6420971922469
 20
132.8388354296931
 30
0.0
 10
101.630039350094
 20
134.7164137077823
 30
0.0
 10
102.2236296937908
 20
138.0598810818841
 30
0.0
 10
103.7487744712405
 20
142.5378191476827
 30
0.0
 10
105.819967243327
 20
148.5896501242061
 30
0.0
 10
107.0602024361932
 20
150.8074318058939
 30
0.0
 10
108.1522984254671
 20
151.8833358357054
 30
0.0
 10
109.741177511439
 20
153.4532668840085
 30
0.0
 10
111.8740375333931
 20
153.5290590346837
 30
0.0
 10
112.5075910110823
 20
153.4532668840085
 30
0.0
 10
113.4012493694975
 20
153.3490526768302
 30
0.0
 10
114.6683563248758
 20
152.7580461564518
 30
0.0
 10
114.7493161221879
 20
150.7838328862519
 30
0.0
 10
114.8106388622796
 20
149.0909118479895
 30
0.0
 10
114.3186789024427
 20
145.9191825971221
 30
0.0
 10
112.6164561002338
 20
140.9489400617108
 30
0.0
 10
110.6444821435766
 20
135.1746117095912
 30
0.0
 10
109.4669477299053
 20
132.8960240524753
 30
0.0
 10
108.5212683953448
 20
131.9072809959403
 30
0.0
 10
106.7346406980658
 20
130.0538184021569
 30
0.0
 10
104.8222669326213
 20
130.2336525051225
 30
0.0
 10
104.5408024457958
 20
130.2336525051225
 30
0.0
 10
104.1721769856939
 20
130.2336525051225
 30
0.0
 10
101.6465758193322
 20
130.6305277668397
 30
0.0
 10
101.6420971922469
 20
132.8388354296931
 30
0.0
  0
SPLINE
  5
3ED
330
3E4
100
AcDbEntity
  8
LOGO
370
     0
100
AcDbSpline
210
0.0
220
0.0
230
1.0
 70
    11
 71
     3
 72
    32
 73
    28
 74
     0
 42
0.000000001
 43
0.0000000001
 40
0.0
 40
0.0
 40
0.0
 40
0.0
 40
1.0
 40
1.0
 40
1.0
 40
2.0
 40
2.0
 40
2.0
 40
3.0
 40
3.0
 40
3.0
 40
4.0
 40
4.0
 40
4.0
 40
5.0
 40
5.0
 40
5.0
 40
6.0
 40
6.0
 40
6.0
 40
7.0
 40
7.0
 40
7.0
 40
8.0
 40
8.0
 40
8.0
 40
9.0
 40
9.0
 40
9.0
 40
9.0
 10
106.2595617172429
 20
153.4105476718098
 30
0.0
 10
104.8222669326213
 20
151.5474388043041
 30
0.0
 10
103.7177685914188
 20
149.8758773721411
 30
0.0
 10
101.9232171692965
 20
144.6141795664062
 30
0.0
 10
100.2754269116635
 20
139.7999999594306
 30
0.0
 10
99.22777268346732
 20
136.3052927937542
 30
0.0
 10
99.06964269637689
 20
132.039572749846
 30
0.0
 10
98.94665270641765
 20
128.8673267343149
 30
0.0
 10
100.8807305877373
 20
127.8027915271048
 30
0.0
 10
103.7129454545577
 20
127.8027915271048
 30
0.0
 10
104.9352661390825
 20
127.8027915271048
 30
0.0
 10
108.0151835347002
 20
127.8827177950895
 30
0.0
 10
110.2045431598849
 20
130.5926316915021
 30
0.0
 10
111.7417457794874
 20
132.4984597712065
 30
0.0
 10
113.155269389579
 20
134.475256864725
 30
0.0
 10
115.0562743324223
 20
140.9489400617108
 30
0.0
 10
116.6361961642235
 20
146.3680788349845
 30
0.0
 10
117.7282921534974
 20
149.8639917848761
 30
0.0
 10
117.6480213757369
 20
151.8595646611754
 30
0.0
 10
117.6480213757369
 20
151.8595646611754
 30
0.0
 10
117.6480213757369
 20
151.8595646611754
 30
0.0
 10
117.6480213757369
 20
151.8595646611754
 30
0.0
 10
117.13229024137
 20
155.18150017429
 30
0.0
 10
114.7162431837115
 20
155.886194920681
 30
0.0
 10
113.3351034925446
 20
155.886194920681
 30
0.0
 10
111.9829026225447
 20
155.886194920681
 30
0.0
 10
108.3414342923792
 20
156.1251124501957
 30
0.0
 10
106.2595617172429
 20
153.4105476718098
 30
0.0
  0
HATCH
  5
3EE
330
3E4
100
AcDbEntity
  8
LOGO
 62
   250
420
  2234388
100
AcDbHatch
 10
0.0
 20
0.0
 30
0.0
210
0.0
220
0.0
230
1.0
  2
SOLID
 70
     1
 71
     0
 91
        2
 92
        1
 93
        1
 72
     4
 94
        3
 73
     0
 74
     1
 95
       29
 96
       25
 40
0.0
 40
0.0
 40
0.0
 40
0.0
 40
1.0
 40
1.0
 40
1.0
 40
2.0
 40
2.0
 40
2.0
 40
3.0
 40
3.0
 40
3.0
 40
4.0
 40
4.0
 40
4.0
 40
5.0
 40
5.0
 40
5.0
 40
6.0
 40
6.0
 40
6.0
 40
7.0
 40
7.0
 40
7.0
 40
8.0
 40
8.0
 40
8.0
 40
8.0
 10
101.6420971922469
 20
132.8388354296931
 10
101.630039350094
 20
134.7164137077823
 10
102.2236296937908
 20
138.0598810818841
 10
103.7487744712405
 20
142.5378191476827
 10
105.819967243327
 20
148.5896501242061
 10
107.0602024361932
 20
150.8074318058939
 10
108.1522984254671
 20
151.8833358357054
 10
109.741177511439
 20
153.4532668840085
 10
111.8740375333931
 20
153.5290590346837
 10
112.5075910110823
 20
153.4532668840085
 10
113.4012493694975
 20
153.3490526768302
 10
114.6683563248758
 20
152.7580461564518
 10
114.7493161221879
 20
150.7838328862519
 10
114.8106388622796
 20
149.0909118479895
 10
114.3186789024427
 20
145.9191825971221
 10
112.6164561002338
 20
140.9489400617108
 10
110.6444821435766
 20
135.1746117095912
 10
109.4669477299053
 20
132.8960240524753
 10
108.5212683953448
 20
131.9072809959403
 10
106.7346406980658
 20
130.0538184021569
 10
104.8222669326213
 20
130.2336525051225
 10
104.5408024457958
 20
130.2336525051225
 10
104.1721769856939
 20
130.2336525051225
 10
101.6465758193322
 20
130.6305277668397
 10
101.6420971922469
 20
132.8388354296931
 97
        0
 92
        1
 93
        1
 72
     4
 94
        3
 73
     0
 74
     1
 95
       32
 96
       28
 40
0.0
 40
0.0
 40
0.0
 40
0.0
 40
1.0
 40
1.0
 40
1.0
 40
2.0
 40
2.0
 40
2.0
 40
3.0
 40
3.0
 40
3.0
 40
4.0
 40
4.0
 40
4.0
 40
5.0
 40
5.0
 40
5.0
 40
6.0
 40
6.0
 40
6.0
 40
7.0
 40
7.0
 40
7.0
 40
8.0
 40
8.0
 40
8.0
 40
9.0
 40
9.0
 40
9.0
 40
9.0
 10
106.2595617172429
 20
153.4105476718098
 10
104.8222669326213
 20
151.5474388043041
 10
103.7177685914188
 20
149.8758773721411
 10
101.9232171692965
 20
144.6141795664062
 10
100.2754269116635
 20
139.7999999594306
 10
99.22777268346732
 20
136.3052927937542
 10
99.06964269637689
 20
132.039572749846
 10
98.94665270641765
 20
128.8673267343149
 10
100.8807305877373
 20
127.8027915271048
 10
103.7129454545577
 20
127.8027915271048
 10
104.9352661390825
 20
127.8027915271048
 10
108.0151835347002
 20
127.8827177950895
 10
110.2045431598849
 20
130.5926316915021
 10
111.7417457794874
 20
132.4984597712065
 10
113.155269389579
 20
134.475256864725
 10
115.0562743324223
 20
140.9489400617108
 10
116.6361961642235
 20
146.3680788349845
 10
117.7282921534974
 20
149.8639917848761
 10
117.6480213757369
 20
151.8595646611754
 10
117.6480213757369
 20
151.8595646611754
 10
117.6480213757369
 20
151.8595646611754
 10
117.6480213757369
 20
151.8595646611754
 10
117.13229024137
 20
155.18150017429
 10
114.7162431837115
 20
155.886194920681
 10
113.3351034925446
 20
155.886194920681
 10
111.9829026225447
 20
155.886194920681
 10
108.3414342923792
 20
156.1251124501957
 10
106.2595617172429
 20
153.4105476718098
 97
        0
 75
     2
 76
     1
 98
        0
  0
ENDBLK
  5
3EF
330
3E4
100
AcDbEntity
  8
0
100
AcDbBlockEnd
  0
BLOCK
  5
40F
330
40E
100
AcDbEntity
  8
0
100
AcDbBlockBegin
  2
*D11
 70
     1
 10
0.0
 20
0.0
 30
0.0
  3
*D11
  1
*D13
  0
LINE
  5
411
330
40E
100
AcDbEntity
  8
0
  6
Continuous
 62
     0
370
     0
100
AcDbLine
 10
142.3337215561804
 20
304.0416478889593
 30
0.0
 11
142.3337215561804
 21
329.6103211765082
 31
0.0
  0
LINE
  5
412
330
40E
100
AcDbEntity
  8
0
  6
Continuous
 62
     0
370
     0
100
AcDbLine
 10
158.3264832597407
 20
307.0577009256096
 30
0.0
 11
158.3264832597407
 21
329.6103211765082
 31
0.0
  0
LINE
  5
413
330
40E
100
AcDbEntity
  8
0
  6
Continuous
 62
     0
370
     0
100
AcDbLine
 10
142.3337215561804
 20
329.6103211765082
 30
0.0
 11
104.7587215561803
 21
329.6103211765082
 31
0.0
  0
LINE
  5
414
330
40E
100
AcDbEntity
  8
0
  6
Continuous
 62
     0
370
     0
100
AcDbLine
 10
144.3337215561804
 20
329.6103211765082
 30
0.0
 11
156.3264832597407
 21
329.6103211765082
 31
0.0
  0
INSERT
  5
415
330
40E
100
AcDbEntity
  8
0
 62
     0
370
     0
100
AcDbBlockReference
  2
_DOT
 10
142.3337215561804
 20
329.6103211765082
 30
0.0
 41
2.0
 42
2.0
 43
2.0
 50
180.0
  0
INSERT
  5
416
330
40E
100
AcDbEntity
  8
0
 62
     0
370
     0
100
AcDbBlockReference
  2
_DOT
 10
158.3264832597407
 20
329.6103211765082
 30
0.0
 41
2.0
 42
2.0
 43
2.0
  0
MTEXT
  5
417
330
40E
100
AcDbEntity
  8
0
  6
Continuous
 62
     0
370
     0
100
AcDbMText
 10
121.3837215561803
 20
339.6103211765082
 30
0.0
 40
10.0
 41
0.0
 46
0.0
 71
     5
 72
     1
  1
\A1;Φ16
  7
ＭＳ ゴシック
 73
     1
 44
1.0
  0
POINT
  5
418
330
40E
100
AcDbEntity
  8
Defpoints
 62
     0
100
AcDbPoint
 10
142.3337215561804
 20
299.0416478889593
 30
0.0
  0
POINT
  5
419
330
40E
100
AcDbEntity
  8
Defpoints
 62
     0
100
AcDbPoint
 10
158.3264832597407
 20
302.0577009256096
 30
0.0
  0
POINT
  5
41A
330
40E
100
AcDbEntity
  8
Defpoints
 62
     0
100
AcDbPoint
 10
158.3264832597407
 20
329.6103211765082
 30
0.0
  0
ENDBLK
  5
410
330
40E
100
AcDbEntity
  8
0
100
AcDbBlockEnd
  0
BLOCK
  5
448
330
447
100
AcDbEntity
  8
0
100
AcDbBlockBegin
  2
*D12
 70
     1
 10
0.0
 20
0.0
 30
0.0
  3
*D12
  1
*D24
  0
LINE
  5
449
330
447
100
AcDbEntity
  8
DIM
  6
Continuous
 62
     0
370
    -2
100
AcDbLine
 10
5.0
 20
1.0
 30
0.0
 11
160.6985559838995
 21
1.0
 31
0.0
  0
LINE
  5
44A
330
447
100
AcDbEntity
  8
DIM
  6
Continuous
 62
     0
370
    -2
100
AcDbLine
 10
80.51601007880004
 20
175.6619264926
 30
0.0
 11
160.6985559838995
 21
175.6619264926
 31
0.0
  0
LINE
  5
44B
330
447
100
AcDbEntity
  8
DIM
  6
Continuous
 62
     0
370
    -2
100
AcDbLine
 10
160.6985559838995
 20
3.0
 30
0.0
 11
160.6985559838995
 21
173.6619264926
 31
0.0
  0
INSERT
  5
44C
330
447
100
AcDbEntity
  8
DIM
 62
     0
370
    -2
100
AcDbBlockReference
  2
_DOT
 10
160.6985559838995
 20
1.0
 30
0.0
 41
2.0
 42
2.0
 43
2.0
 50
270.0
  0
INSERT
  5
44D
330
447
100
AcDbEntity
  8
DIM
 62
     0
370
    -2
100
AcDbBlockReference
  2
_DOT
 10
160.6985559838995
 20
175.6619264926
 30
0.0
 41
2.0
 42
2.0
 43
2.0
 50
90.0
  0
MTEXT
  5
44E
330
447
100
AcDbEntity
  8
DIM
  6
Continuous
 62
     0
100
AcDbMText
 10
152.6985559838995
 20
89.5057019156016
 30
0.0
 40
6.0
 41
0.0
 46
0.0
 71
     5
 72
     1
  1
\A1;\A1;175
  7
ＭＳ ゴシック
 11
0.0
 21
1.0
 31
0.0
 73
     1
 44
1.0
  0
POINT
  5
44F
330
447
100
AcDbEntity
  8
Defpoints
 62
     0
100
AcDbPoint
 10
0.0
 20
1.0
 30
0.0
  0
POINT
  5
450
330
447
100
AcDbEntity
  8
Defpoints
 62
     0
100
AcDbPoint
 10
75.51601007880004
 20
175.6619264926
 30
0.0
  0
POINT
  5
451
330
447
100
AcDbEntity
  8
Defpoints
 62
     0
100
AcDbPoint
 10
160.6985559838995
 20
175.6619264926
 30
0.0
  0
ENDBLK
  5
452
330
447
100
AcDbEntity
  8
0
100
AcDbBlockEnd
  0
BLOCK
  5
458
330
457
100
AcDbEntity
  8
0
100
AcDbBlockBegin
  2
*D13
 70
     1
 10
0.0
 20
0.0
 30
0.0
  3
*D13
  1
*D16
  0
LINE
  5
45A
330
457
100
AcDbEntity
  8
DIM
  6
Continuous
 62
     0
370
    -2
100
AcDbLine
 10
741.2584846339405
 20
298.2526823385764
 30
0.0
 11
896.95704061784
 21
298.2526823385764
 31
0.0
  0
LINE
  5
45B
330
457
100
AcDbEntity
  8
DIM
  6
Continuous
 62
     0
370
    -2
100
AcDbLine
 10
816.7744947127405
 20
472.9146088311763
 30
0.0
 11
896.95704061784
 21
472.9146088311763
 31
0.0
  0
LINE
  5
45C
330
457
100
AcDbEntity
  8
DIM
  6
Continuous
 62
     0
370
    -2
100
AcDbLine
 10
896.95704061784
 20
300.2526823385764
 30
0.0
 11
896.95704061784
 21
470.9146088311763
 31
0.0
  0
INSERT
  5
45D
330
457
100
AcDbEntity
  8
DIM
 62
     0
370
    -2
100
AcDbBlockReference
  2
_DOT
 10
896.95704061784
 20
298.2526823385764
 30
0.0
 41
2.0
 42
2.0
 43
2.0
 50
270.0
  0
INSERT
  5
45E
330
457
100
AcDbEntity
  8
DIM
 62
     0
370
    -2
100
AcDbBlockReference
  2
_DOT
 10
896.95704061784
 20
472.9146088311763
 30
0.0
 41
2.0
 42
2.0
 43
2.0
 50
90.0
  0
MTEXT
  5
45F
330
457
100
AcDbEntity
  8
DIM
  6
Continuous
 62
     0
100
AcDbMText
 10
888.95704061784
 20
386.758384254178
 30
0.0
 40
6.0
 41
0.0
 46
0.0
 71
     5
 72
     1
  1
\A1;\A1;175
  7
ＭＳ ゴシック
 11
0.0
 21
1.0
 31
0.0
 73
     1
 44
1.0
  0
POINT
  5
460
330
457
100
AcDbEntity
  8
Defpoints
 62
     0
100
AcDbPoint
 10
736.2584846339405
 20
298.2526823385764
 30
0.0
  0
POINT
  5
461
330
457
100
AcDbEntity
  8
Defpoints
 62
     0
100
AcDbPoint
 10
811.7744947127405
 20
472.9146088311763
 30
0.0
  0
POINT
  5
462
330
457
100
AcDbEntity
  8
Defpoints
 62
     0
100
AcDbPoint
 10
896.95704061784
 20
472.9146088311763
 30
0.0
  0
ENDBLK
  5
459
330
457
100
AcDbEntity
  8
0
100
AcDbBlockEnd
  0
ENDSEC
  0
SECTION
  2
ENTITIES
  0
INSERT
  5
126
330
A
100
AcDbEntity
  8
DIM
 48
0.0
390
1D
100
AcDbBlockReference
  2
SE0
 10
119.5731022407803
 20
140.9154658609379
 30
0.0
  0
INSERT
  5
12C
102
{ACAD_XDICTIONARY
360
12D
102
}
330
A
100
AcDbEntity
  8
DEFAULT
 62
     0
 48
0.0
370
     0
390
1D
100
AcDbBlockReference
  2
SE2
 10
119.5731022407803
 20
140.9154658609379
 30
0.0
  0
INSERT
  5
130
330
A
100
AcDbEntity
  8
DEFAULT
 62
     0
 48
0.0
370
     0
390
1D
100
AcDbBlockReference
  2
SE1
 10
0.0
 20
0.0
 30
0.0
  0
INSERT
  5
134
330
A
100
AcDbEntity
  8
DEFAULT
 62
     0
 48
0.0
370
     0
390
1D
100
AcDbBlockReference
  2
SE3
 10
119.5731022407803
 20
140.9154658609379
 30
0.0
  0
INSERT
  5
138
330
A
100
AcDbEntity
  8
DEFAULT
 62
     0
 48
0.0
370
     0
390
1D
100
AcDbBlockReference
  2
SE4
 10
119.5731022407803
 20
140.9154658609379
 30
0.0
  0
MTEXT
  5
3F6
330
A
100
AcDbEntity
  8
TEMPLATE
390
1D
100
AcDbMText
 10
18.69509565304446
 20
70.50433383935123
 30
0.0
 40
3.257682291666666
 41
0.0
 46
0.0
 71
     1
 72
     1
  1
品名
  7
ＭＳ ゴシック
 73
     1
 44
0.7828267384257843
  0
MTEXT
  5
3F7
330
A
100
AcDbEntity
  8
TEMPLATE
390
1D
100
AcDbMText
 10
18.69509565304446
 20
53.50433383935119
 30
0.0
 40
3.257682291666666
 41
0.0
 46
0.0
 71
     1
 72
     1
  1
仕様
  7
ＭＳ ゴシック
 73
     1
 44
0.7828267384257843
  0
LINE
  5
3F8
330
A
100
AcDbEntity
  8
TEMPLATE
390
1D
100
AcDbLine
 10
407.295095652948
 20
55.18731821435127
 30
0.0
 11
17.29509565294796
 21
55.18731821435127
 31
0.0
  0
LWPOLYLINE
  5
3F9
330
A
100
AcDbEntity
  8
TEMPLATE
390
1D
100
AcDbPolyline
 90
        5
 70
   128
 43
0.0
 10
407.295095652948
 20
581.1873182143509
 10
17.29509565294796
 20
581.1873182143509
 10
17.29509565294796
 20
21.18731821435122
 10
407.295095652948
 20
21.18731821435122
 10
407.295095652948
 20
581.1873182143509
  0
LINE
  5
3FA
330
A
100
AcDbEntity
  8
TEMPLATE
390
1D
100
AcDbLine
 10
407.295095652948
 20
72.1873182143512
 30
0.0
 11
17.29509565294796
 21
72.1873182143512
 31
0.0
  0
LINE
  5
3FB
330
A
100
AcDbEntity
  8
TEMPLATE
390
1D
100
AcDbLine
 10
407.2950956530444
 20
38.18731821435121
 30
0.0
 11
256.6950956530442
 21
38.18731821435121
 31
0.0
  0
MTEXT
  5
3FC
330
A
100
AcDbEntity
  8
TEMPLATE
390
1D
100
AcDbMText
 10
17.29509565308513
 20
18.81655380297979
 30
0.0
 40
4.343576388888888
 41
0.0
 46
4.343576388888888
 71
     1
 72
     1
  1
{150716SO}
  7
ＭＳ ゴシック
 73
     1
 44
0.7828267384257843
1001
ACAD
1000
ACAD_MTEXT_DEFINED_HEIGHT_BEGIN
1070
    46
1040
4.343576388888888
1000
ACAD_MTEXT_DEFINED_HEIGHT_END
  0
MTEXT
  5
3FD
330
A
100
AcDbEntity
  8
TEMPLATE
390
1D
100
AcDbMText
 10
262.6693769034964
 20
32.20523931968959
 30
0.0
 40
4.8865234375
 41
0.0
 46
0.0
 71
     1
 72
     1
  1
大洋金物株式会社 ティーフォルム事業部
  7
ＭＳ ゴシック
 73
     1
 44
0.7828267384257843
  0
MTEXT
  5
3FE
330
A
100
AcDbEntity
  8
TEMPLATE
390
1D
100
AcDbMText
 10
369.0950956530962
 20
47.78784165185118
 30
0.0
 40
4.8865234375
 41
0.0
 46
4.8865234375
 71
     1
 72
     1
  1
{1:2}
  7
ＭＳ ゴシック
 73
     1
 44
0.7828267384257843
1001
ACAD
1000
ACAD_MTEXT_DEFINED_HEIGHT_BEGIN
1070
    46
1040
4.8865234375
1000
ACAD_MTEXT_DEFINED_HEIGHT_END
  0
MTEXT
  5
3FF
330
A
100
AcDbEntity
  8
TEMPLATE
390
1D
100
AcDbMText
 10
358.4950956530962
 20
53.50433383935119
 30
0.0
 40
3.257682291666666
 41
0.0
 46
0.0
 71
     1
 72
     1
  1
縮尺
  7
ＭＳ ゴシック
 73
     1
 44
0.7828267384257843
  0
LINE
  5
400
330
A
100
AcDbEntity
  8
TEMPLATE
390
1D
100
AcDbLine
 10
357.0950956530962
 20
38.18731821435121
 30
0.0
 11
357.0950956530962
 21
55.18731821435127
 31
0.0
  0
MTEXT
  5
401
330
A
100
AcDbEntity
  8
TEMPLATE
390
1D
100
AcDbMText
 10
308.2950956530962
 20
53.50433383935119
 30
0.0
 40
3.257682291666666
 41
0.0
 46
0.0
 71
     1
 72
     1
  1
容量
  7
ＭＳ ゴシック
 73
     1
 44
0.7828267384257843
  0
LINE
  5
402
330
A
100
AcDbEntity
  8
TEMPLATE
390
1D
100
AcDbLine
 10
306.8950956530963
 20
38.18731821435121
 30
0.0
 11
306.8950956530963
 21
55.18731821435127
 31
0.0
  0
MTEXT
  5
403
330
A
100
AcDbEntity
  8
TEMPLATE
390
1D
100
AcDbMText
 10
258.0950956530962
 20
70.50433383935123
 30
0.0
 40
3.257682291666666
 41
0.0
 46
0.0
 71
     1
 72
     1
  1
品番
  7
ＭＳ ゴシック
 73
     1
 44
0.7828267384257843
  0
MTEXT
  5
404
330
A
100
AcDbEntity
  8
TEMPLATE
390
1D
100
AcDbMText
 10
258.0950956530962
 20
53.50433383935119
 30
0.0
 40
3.257682291666666
 41
0.0
 46
0.0
 71
     1
 72
     1
  1
重量
  7
ＭＳ ゴシック
 73
     1
 44
0.7828267384257843
  0
MTEXT
  5
405
330
A
100
AcDbEntity
  8
TEMPLATE
390
1D
100
AcDbMText
 10
268.6950956530962
 20
64.78784165185121
 30
0.0
 40
4.8865234375
 41
0.0
 46
4.8865234375
 71
     1
 72
     1
  1
{FHT73-3006}
  7
ＭＳ ゴシック
 73
     1
 44
0.7828267384257843
1001
ACAD
1000
ACAD_MTEXT_DEFINED_HEIGHT_BEGIN
1070
    46
1040
4.8865234375
1000
ACAD_MTEXT_DEFINED_HEIGHT_END
  0
LINE
  5
406
330
A
100
AcDbEntity
  8
TEMPLATE
390
1D
100
AcDbLine
 10
256.6950956530962
 20
21.18731821435122
 30
0.0
 11
256.6950956530962
 21
72.1873182143512
 31
0.0
  0
MTEXT
  5
407
330
A
100
AcDbEntity
  8
TEMPLATE
390
1D
100
AcDbMText
 10
29.29509565304431
 20
64.78784165185121
 30
0.0
 40
4.8865234375
 41
0.0
 46
4.8865234375
 71
     1
 72
     1
  1
{シャワーホース　-GROHE-}
  7
ＭＳ ゴシック
 73
     1
 44
0.7828267384257843
1001
ACAD
1000
ACAD_MTEXT_DEFINED_HEIGHT_BEGIN
1070
    46
1040
4.8865234375
1000
ACAD_MTEXT_DEFINED_HEIGHT_END
  0
INSERT
  5
408
330
A
100
AcDbEntity
  8
TEMPLATE
100
AcDbBlockReference
  2
名称未設定-1
 10
377.0048163611882
 20
6.94733666439633
 30
0.0
 41
0.1524
 42
0.1524
 43
0.1524
  0
MTEXT
  5
409
330
A
100
AcDbEntity
  8
TEMPLATE
390
1D
100
AcDbMText
 10
27.90553579870556
 20
47.12037871894461
 30
0.0
 40
4.8865234375
 41
0.0
 46
4.8865234375
 71
     1
 72
     1
  1
{クローム}
  7
ＭＳ ゴシック
 73
     1
 44
0.7828267384257843
1001
ACAD
1000
ACAD_MTEXT_DEFINED_HEIGHT_BEGIN
1070
    46
1040
4.8865234375
1000
ACAD_MTEXT_DEFINED_HEIGHT_END
  0
DIMENSION
  5
40B
330
A
100
AcDbEntity
  8
0
  6
Continuous
370
     0
100
AcDbDimension
  2
*D11
 10
158.3264832597407
 20
329.6103211765082
 30
0.0
 11
121.3837215561803
 21
329.6103211765082
 31
0.0
 70
   160
 71
     5
 42
15.99276170356035
 73
     0
 74
     0
 75
     0
  3
tfrom線あり
100
AcDbAlignedDimension
 13
142.3337215561804
 23
299.0416478889593
 33
0.0
 14
158.3264832597407
 24
302.0577009256096
 34
0.0
100
AcDbRotatedDimension
1001
ACAD
1000
DSTYLE
1002
{
1070
     3
1000
Φ<>
1070
   140
1040
10.0
1070
   146
1040
12.0
1070
   289
1070
     3
1070
   278
1070
     0
1070
   371
1070
     0
1070
   372
1070
     0
1002
}
  0
MTEXT
  5
510
330
A
100
AcDbEntity
  8
TEMPLATE
390
1D
100
AcDbMText
 10
46.65903188222023
 20
133.5900812314663
 30
0.0
 40
4.8865234375
 41
0.0
 46
4.8865234375
 71
     1
 72
     1
  1
{GROHEのシャワーホースは、他社製のシャワーホースに比べ径が太いため、}
  7
ＭＳ ゴシック
 73
     1
 44
0.7828267384257843
1001
ACAD
1000
ACAD_MTEXT_DEFINED_HEIGHT_BEGIN
1070
    46
1040
4.8865234375
1000
ACAD_MTEXT_DEFINED_HEIGHT_END
  0
MTEXT
  5
511
330
A
100
AcDbEntity
  8
TEMPLATE
390
1D
100
AcDbMText
 10
46.65903188222023
 20
126.0214685164025
 30
0.0
 40
4.8865234375
 41
0.0
 46
4.8865234375
 71
     1
 72
     1
  1
{他社製シャワーフックと組み合わせると、ホースをフックに掛ける際に若干の引っかかりがあるケースもありますが、}
  7
ＭＳ ゴシック
 73
     1
 44
0.7828267384257843
1001
ACAD
1000
ACAD_MTEXT_DEFINED_HEIGHT_BEGIN
1070
    46
1040
4.8865234375
1000
ACAD_MTEXT_DEFINED_HEIGHT_END
  0
MTEXT
  5
512
330
A
100
AcDbEntity
  8
TEMPLATE
390
1D
100
AcDbMText
 10
46.65903188222023
 20
118.1237856832924
 30
0.0
 40
4.8865234375
 41
0.0
 46
4.8865234375
 71
     1
 72
     1
  1
{当社では使用上問題のない範囲と考え販売いたしておりますのでご了承ください。}
  7
ＭＳ ゴシック
 73
     1
 44
0.7828267384257843
1001
ACAD
1000
ACAD_MTEXT_DEFINED_HEIGHT_BEGIN
1070
    46
1040
4.8865234375
1000
ACAD_MTEXT_DEFINED_HEIGHT_END
  0
LWPOLYLINE
  5
513
330
A
100
AcDbEntity
  8
0
  6
Continuous
370
     0
100
AcDbPolyline
 90
        4
 70
     1
 43
0.0
 10
37.25996663552394
 20
141.0193209133951
 10
37.25996663552394
 20
104.5131046926386
 10
387.3302246703721
 20
104.5131046926386
 10
387.3302246703721
 20
141.0193209133951
  0
ENDSEC
  0
SECTION
  2
OBJECTS
  0
DICTIONARY
  5
19
330
0
100
AcDbDictionary
281
     1
  3
ACAD_COLOR
350
39E
  3
ACAD_DETAILVIEWSTYLE
350
493
  3
ACAD_GROUP
350
1A
  3
ACAD_IMAGE_VARS
350
2A1
  3
ACAD_LAYOUT
350
1E
  3
ACAD_MATERIAL
350
299
  3
ACAD_MLEADERSTYLE
350
2B1
  3
ACAD_MLINESTYLE
350
1B
  3
ACAD_PLOTSETTINGS
350
22
  3
ACAD_PLOTSTYLENAME
350
1F
  3
ACAD_SCALELIST
350
25E
  3
ACAD_SECTIONVIEWSTYLE
350
494
  3
ACAD_TABLESTYLE
350
29D
  3
ACAD_VISUALSTYLE
350
280
  3
ACAD_WIPEOUT_VARS
350
23
  3
ACDB_RECOMPOSE_DATA
350
520
  3
AcDbVariableDictionary
350
25C
  3
APPDATA
350
29F
  0
SUN
  5
2A0
330
15
100
AcDbSun
 90
        1
290
     0
 63
     7
421
 16777215
 40
1.0
291
     1
 91
  2455826
 92
 54000000
292
     0
 70
     2
 71
   256
280
     1
  0
DICTIONARY
  5
2A2
330
2
100
AcDbDictionary
280
     1
281
     1
  3
ACAD_LAYERSTATES
360
2A3
  3
ACLYDICTIONARY
360
465
  0
DICTIONARY
  5
12D
330
12C
100
AcDbDictionary
281
     1
  3
ACAD_FILTER
360
12E
  0
DICTIONARY
  5
39E
102
{ACAD_REACTORS
330
19
102
}
330
19
100
AcDbDictionary
281
     1
  0
DICTIONARY
  5
493
102
{ACAD_REACTORS
330
19
102
}
330
19
100
AcDbDictionary
281
     1
  0
DICTIONARY
  5
1A
102
{ACAD_REACTORS
330
19
102
}
330
19
100
AcDbDictionary
281
     1
  0
RASTERVARIABLES
  5
2A1
102
{ACAD_REACTORS
330
19
102
}
330
19
100
AcDbRasterVariables
 90
        0
 70
     1
 71
     1
 72
     0
  0
DICTIONARY
  5
1E
102
{ACAD_REACTORS
330
19
102
}
330
19
100
AcDbDictionary
281
     1
  3
Layout1
350
21
  3
Model
350
20
  0
DICTIONARY
  5
299
102
{ACAD_REACTORS
330
19
102
}
330
19
100
AcDbDictionary
281
     1
  3
ByBlock
350
29B
  3
ByLayer
350
29A
  3
Global
350
29C
  0
DICTIONARY
  5
2B1
102
{ACAD_REACTORS
330
19
102
}
330
19
100
AcDbDictionary
281
     1
  0
DICTIONARY
  5
1B
102
{ACAD_REACTORS
330
19
102
}
330
19
100
AcDbDictionary
281
     1
  3
Standard
350
1C
  0
DICTIONARY
  5
22
102
{ACAD_REACTORS
330
19
102
}
330
19
100
AcDbDictionary
281
     1
  0
ACDBDICTIONARYWDFLT
  5
1F
102
{ACAD_REACTORS
330
19
102
}
330
19
100
AcDbDictionary
281
     1
  3
Normal
350
1D
100
AcDbDictionaryWithDefault
340
1D
  0
DICTIONARY
  5
25E
102
{ACAD_REACTORS
330
19
102
}
330
19
100
AcDbDictionary
281
     1
  3
A0
350
25F
  3
A1
350
260
  3
A2
350
261
  3
A3
350
262
  3
A4
350
263
  3
A5
350
264
  3
A6
350
265
  3
A7
350
266
  3
A8
350
267
  3
A9
350
268
  3
B0
350
269
  3
B1
350
26A
  3
B2
350
26B
  3
B3
350
26C
  3
B4
350
26D
  3
B5
350
26E
  3
B6
350
26F
  3
B7
350
270
  3
B8
350
271
  3
B9
350
272
  3
C0
350
273
  3
C1
350
274
  3
C2
350
275
  3
C3
350
276
  3
C4
350
277
  3
C5
350
278
  3
C6
350
279
  3
C7
350
27A
  3
C8
350
27B
  3
C9
350
27C
  3
D0
350
27D
  3
D1
350
27E
  3
D2
350
27F
  0
DICTIONARY
  5
494
102
{ACAD_REACTORS
330
19
102
}
330
19
100
AcDbDictionary
281
     1
  0
DICTIONARY
  5
29D
102
{ACAD_REACTORS
330
19
102
}
330
19
100
AcDbDictionary
281
     1
  3
Standard
350
29E
  0
DICTIONARY
  5
280
102
{ACAD_REACTORS
330
19
102
}
330
19
100
AcDbDictionary
281
     1
  3
2dWireframe
350
285
  3
Basic
350
288
  3
Brighten
350
28C
  3
ColorChange
350
290
  3
Conceptual
350
28A
  3
Dim
350
28B
  3
EdgeColorOff
350
293
  3
Facepattern
350
28F
  3
Flat
350
281
  3
FlatWithEdges
350
282
  3
Gouraud
350
283
  3
GouraudWithEdges
350
284
  3
Hidden
350
287
  3
JitterOff
350
291
  3
Linepattern
350
28E
  3
OverhangOff
350
292
  3
Realistic
350
289
  3
Shaded
350
298
  3
Shaded with edges
350
297
  3
Shades of Gray
350
294
  3
Sketchy
350
295
  3
Thicken
350
28D
  3
Wireframe
350
286
  3
X-Ray
350
296
  0
WIPEOUTVARIABLES
  5
23
330
19
100
AcDbWipeoutVariables
 70
     1
  0
XRECORD
  5
520
102
{ACAD_REACTORS
330
19
102
}
330
19
100
AcDbXrecord
280
     1
 90
        1
330
29E
  0
DICTIONARY
  5
25C
330
19
100
AcDbDictionary
281
     1
  3
CANNOSCALE
350
48C
  3
CTABLESTYLE
350
491
  3
DIMASSOC
350
25D
  3
LIGHTINGUNITS
350
48D
  3
MSLTSCALE
350
492
  3
XCLIPFRAME
350
4C8
  0
DICTIONARY
  5
29F
102
{ACAD_REACTORS
330
19
102
}
330
19
100
AcDbDictionary
281
     1
  0
DICTIONARY
  5
2A3
102
{ACAD_REACTORS
330
2A2
102
}
330
2A2
100
AcDbDictionary
281
     1
  3
ARGON_LAYERP_1
350
2A4
  3
ARGON_LAYERP_2
350
464
  0
DICTIONARY
  5
465
102
{ACAD_REACTORS
330
2A2
102
}
330
2A2
100
AcDbDictionary
281
     1
1001
ACAD
1000
<All
  0
DICTIONARY
  5
12E
330
12D
100
AcDbDictionary
281
     1
  3
SPATIAL
360
12F
  0
LAYOUT
  5
21
102
{ACAD_REACTORS
330
1E
102
}
330
1E
100
AcDbPlotSettings
  1

  2

  4

  6

 40
0.0
 41
0.0
 42
0.0
 43
0.0
 44
0.0
 45
0.0
 46
0.0
 47
0.0
 48
0.0
 49
0.0
140
0.0
141
0.0
142
1.0
143
1.0
 70
     0
 72
     0
 73
     0
 74
     0
  7

 75
     0
 76
     0
 77
     2
 78
   300
147
1.0
148
0.0
149
0.0
100
AcDbLayout
  1
Layout1
 70
     0
 71
     0
 10
0.0
 20
0.0
 11
0.0
 21
0.0
 12
0.0
 22
0.0
 32
0.0
 14
0.0
 24
0.0
 34
0.0
 15
0.0
 25
0.0
 35
0.0
146
0.0
 13
0.0
 23
0.0
 33
0.0
 16
0.0
 26
0.0
 36
0.0
 17
0.0
 27
0.0
 37
0.0
 76
     0
330
B
  0
LAYOUT
  5
20
102
{ACAD_REACTORS
330
1E
102
}
330
1E
100
AcDbPlotSettings
  1

  2

  4

  6

 40
0.0
 41
0.0
 42
0.0
 43
0.0
 44
0.0
 45
0.0
 46
0.0
 47
0.0
 48
0.0
 49
0.0
140
0.0
141
0.0
142
1.0
143
1.0
 70
  1024
 72
     0
 73
     0
 74
     0
  7

 75
     0
 76
     0
 77
     2
 78
   300
147
1.0
148
0.0
149
0.0
100
AcDbLayout
  1
Model
 70
     0
 71
     1
 10
0.0
 20
0.0
 11
420.0000000000001
 21
594.0000000000001
 12
0.0
 22
0.0
 32
0.0
 14
17.29509565294796
 24
14.51641317797979
 34
0.0
 15
407.2950956530444
 25
581.1873182143509
 35
0.0
146
0.0
 13
0.0
 23
0.0
 33
0.0
 16
0.0
 26
0.0
 36
0.0
 17
0.0
 27
0.0
 37
0.0
 76
     0
330
A
331
15
  0
MATERIAL
  5
29B
102
{ACAD_REACTORS
330
299
102
}
330
299
100
AcDbMaterial
  1
ByBlock
 72
     1
 94
      127
  0
MATERIAL
  5
29A
102
{ACAD_REACTORS
330
299
102
}
330
299
100
AcDbMaterial
  1
ByLayer
 72
     1
 94
      127
  0
MATERIAL
  5
29C
102
{ACAD_REACTORS
330
299
102
}
330
299
100
AcDbMaterial
  1
Global
 72
     1
 94
      127
  0
MLINESTYLE
  5
1C
102
{ACAD_REACTORS
330
1B
102
}
330
1B
100
AcDbMlineStyle
  2
Standard
 70
     0
  3

 62
     0
 51
90.0
 52
90.0
 71
     2
 49
0.5
 62
   256
  6
BYLAYER
 49
-0.5
 62
   256
  6
BYLAYER
  0
ACDBPLACEHOLDER
  5
1D
102
{ACAD_REACTORS
330
1F
102
}
330
1F
  0
SCALE
  5
25F
102
{ACAD_REACTORS
330
25E
102
}
330
25E
100
AcDbScale
 70
     0
300
1:1
140
1.0
141
1.0
290
     1
  0
SCALE
  5
260
102
{ACAD_REACTORS
330
25E
102
}
330
25E
100
AcDbScale
 70
     0
300
1:2
140
1.0
141
2.0
290
     0
  0
SCALE
  5
261
102
{ACAD_REACTORS
330
25E
102
}
330
25E
100
AcDbScale
 70
     0
300
1:4
140
1.0
141
4.0
290
     0
  0
SCALE
  5
262
102
{ACAD_REACTORS
330
25E
102
}
330
25E
100
AcDbScale
 70
     0
300
1:5
140
1.0
141
5.0
290
     0
  0
SCALE
  5
263
102
{ACAD_REACTORS
330
25E
102
}
330
25E
100
AcDbScale
 70
     0
300
1:8
140
1.0
141
8.0
290
     0
  0
SCALE
  5
264
102
{ACAD_REACTORS
330
25E
102
}
330
25E
100
AcDbScale
 70
     0
300
1:10
140
1.0
141
10.0
290
     0
  0
SCALE
  5
265
102
{ACAD_REACTORS
330
25E
102
}
330
25E
100
AcDbScale
 70
     0
300
1:16
140
1.0
141
16.0
290
     0
  0
SCALE
  5
266
102
{ACAD_REACTORS
330
25E
102
}
330
25E
100
AcDbScale
 70
     0
300
1:20
140
1.0
141
20.0
290
     0
  0
SCALE
  5
267
102
{ACAD_REACTORS
330
25E
102
}
330
25E
100
AcDbScale
 70
     0
300
1:30
140
1.0
141
30.0
290
     0
  0
SCALE
  5
268
102
{ACAD_REACTORS
330
25E
102
}
330
25E
100
AcDbScale
 70
     0
300
1:40
140
1.0
141
40.0
290
     0
  0
SCALE
  5
269
102
{ACAD_REACTORS
330
25E
102
}
330
25E
100
AcDbScale
 70
     0
300
1:50
140
1.0
141
50.0
290
     0
  0
SCALE
  5
26A
102
{ACAD_REACTORS
330
25E
102
}
330
25E
100
AcDbScale
 70
     0
300
1:100
140
1.0
141
100.0
290
     0
  0
SCALE
  5
26B
102
{ACAD_REACTORS
330
25E
102
}
330
25E
100
AcDbScale
 70
     0
300
2:1
140
2.0
141
1.0
290
     0
  0
SCALE
  5
26C
102
{ACAD_REACTORS
330
25E
102
}
330
25E
100
AcDbScale
 70
     0
300
4:1
140
4.0
141
1.0
290
     0
  0
SCALE
  5
26D
102
{ACAD_REACTORS
330
25E
102
}
330
25E
100
AcDbScale
 70
     0
300
8:1
140
8.0
141
1.0
290
     0
  0
SCALE
  5
26E
102
{ACAD_REACTORS
330
25E
102
}
330
25E
100
AcDbScale
 70
     0
300
10:1
140
10.0
141
1.0
290
     0
  0
SCALE
  5
26F
102
{ACAD_REACTORS
330
25E
102
}
330
25E
100
AcDbScale
 70
     0
300
100:1
140
100.0
141
1.0
290
     0
  0
SCALE
  5
270
102
{ACAD_REACTORS
330
25E
102
}
330
25E
100
AcDbScale
 70
     0
300
1/128" = 1'-0"
140
0.0078125
141
12.0
290
     0
  0
SCALE
  5
271
102
{ACAD_REACTORS
330
25E
102
}
330
25E
100
AcDbScale
 70
     0
300
1/64" = 1'-0"
140
0.015625
141
12.0
290
     0
  0
SCALE
  5
272
102
{ACAD_REACTORS
330
25E
102
}
330
25E
100
AcDbScale
 70
     0
300
1/32" = 1'-0"
140
0.03125
141
12.0
290
     0
  0
SCALE
  5
273
102
{ACAD_REACTORS
330
25E
102
}
330
25E
100
AcDbScale
 70
     0
300
1/16" = 1'-0"
140
0.0625
141
12.0
290
     0
  0
SCALE
  5
274
102
{ACAD_REACTORS
330
25E
102
}
330
25E
100
AcDbScale
 70
     0
300
3/32" = 1'-0"
140
0.09375
141
12.0
290
     0
  0
SCALE
  5
275
102
{ACAD_REACTORS
330
25E
102
}
330
25E
100
AcDbScale
 70
     0
300
1/8" = 1'-0"
140
0.125
141
12.0
290
     0
  0
SCALE
  5
276
102
{ACAD_REACTORS
330
25E
102
}
330
25E
100
AcDbScale
 70
     0
300
3/16" = 1'-0"
140
0.1875
141
12.0
290
     0
  0
SCALE
  5
277
102
{ACAD_REACTORS
330
25E
102
}
330
25E
100
AcDbScale
 70
     0
300
1/4" = 1'-0"
140
0.25
141
12.0
290
     0
  0
SCALE
  5
278
102
{ACAD_REACTORS
330
25E
102
}
330
25E
100
AcDbScale
 70
     0
300
3/8" = 1'-0"
140
0.375
141
12.0
290
     0
  0
SCALE
  5
279
102
{ACAD_REACTORS
330
25E
102
}
330
25E
100
AcDbScale
 70
     0
300
1/2" = 1'-0"
140
0.5
141
12.0
290
     0
  0
SCALE
  5
27A
102
{ACAD_REACTORS
330
25E
102
}
330
25E
100
AcDbScale
 70
     0
300
3/4" = 1'-0"
140
0.75
141
12.0
290
     0
  0
SCALE
  5
27B
102
{ACAD_REACTORS
330
25E
102
}
330
25E
100
AcDbScale
 70
     0
300
1" = 1'-0"
140
1.0
141
12.0
290
     0
  0
SCALE
  5
27C
102
{ACAD_REACTORS
330
25E
102
}
330
25E
100
AcDbScale
 70
     0
300
1-1/2" = 1'-0"
140
1.5
141
12.0
290
     0
  0
SCALE
  5
27D
102
{ACAD_REACTORS
330
25E
102
}
330
25E
100
AcDbScale
 70
     0
300
3" = 1'-0"
140
3.0
141
12.0
290
     0
  0
SCALE
  5
27E
102
{ACAD_REACTORS
330
25E
102
}
330
25E
100
AcDbScale
 70
     0
300
6" = 1'-0"
140
6.0
141
12.0
290
     0
  0
SCALE
  5
27F
102
{ACAD_REACTORS
330
25E
102
}
330
25E
100
AcDbScale
 70
     0
300
1'-0" = 1'-0"
140
12.0
141
12.0
290
     0
  0
TABLESTYLE
  5
29E
102
{ACAD_REACTORS
330
29D
102
}
102
{ACAD_XDICTIONARY
360
51E
102
}
330
29D
100
AcDbTableStyle
  3
Standard
 70
     0
 71
     0
 40
0.06
 41
0.06
280
     0
281
     0
  7
Standard
140
0.18
170
     2
 62
     0
 63
   257
283
     0
 90
        4
 91
        0
  1

274
    -2
284
     1
 64
     0
275
    -2
285
     1
 65
     0
276
    -2
286
     1
 66
     0
277
    -2
287
     1
 67
     0
278
    -2
288
     1
 68
     0
279
    -2
289
     1
 69
     0
  7
Standard
140
0.25
170
     5
 62
     0
 63
   257
283
     0
 90
        4
 91
        0
  1

274
    -2
284
     1
 64
     0
275
    -2
285
     1
 65
     0
276
    -2
286
     1
 66
     0
277
    -2
287
     1
 67
     0
278
    -2
288
     1
 68
     0
279
    -2
289
     1
 69
     0
  7
Standard
140
0.18
170
     5
 62
     0
 63
   257
283
     0
 90
        4
 91
        0
  1

274
    -2
284
     1
 64
     0
275
    -2
285
     1
 65
     0
276
    -2
286
     1
 66
     0
277
    -2
287
     1
 67
     0
278
    -2
288
     1
 68
     0
279
    -2
289
     1
 69
     0
  0
VISUALSTYLE
  5
285
102
{ACAD_REACTORS
330
280
102
}
330
280
100
AcDbVisualStyle
  2
2dWireframe
 70
     4
 71
     0
 72
     2
 73
     0
 90
        0
 40
0.6
 41
30.0
 62
     5
 63
     7
421
 16777215
 74
     1
 91
        4
 64
     7
 65
   257
 75
     1
175
     1
 42
1.0
 92
        0
 66
   257
 43
1.0
 76
     1
 77
     6
 78
     2
 67
     7
 79
     5
170
     0
171
     0
290
     0
174
     0
 93
        1
 44
0.0
173
     0
291
     0
 45
0.0
  0
VISUALSTYLE
  5
288
102
{ACAD_REACTORS
330
280
102
}
330
280
100
AcDbVisualStyle
  2
Basic
 70
     7
 71
     1
 72
     0
 73
     1
 90
        0
 40
0.6
 41
30.0
 62
     5
 63
     7
421
 16777215
 74
     0
 91
        4
 64
     7
 65
   257
 75
     1
175
     1
 42
1.0
 92
        8
 66
     7
 43
1.0
 76
     1
 77
     6
 78
     2
 67
     7
 79
     5
170
     0
171
     0
290
     0
174
     0
 93
        1
 44
0.0
173
     0
291
     1
 45
0.0
  0
VISUALSTYLE
  5
28C
102
{ACAD_REACTORS
330
280
102
}
330
280
100
AcDbVisualStyle
  2
Brighten
 70
    12
 71
     2
 72
     2
 73
     0
 90
        0
 40
0.6
 41
30.0
 62
     5
 63
     7
421
 16777215
 74
     1
 91
        4
 64
     7
 65
   257
 75
     1
175
     1
 42
1.0
 92
        8
 66
     7
 43
1.0
 76
     1
 77
     6
 78
     2
 67
     7
 79
     5
170
     0
171
     0
290
     0
174
     0
 93
        1
 44
50.0
173
     0
291
     1
 45
0.0
  0
VISUALSTYLE
  5
290
102
{ACAD_REACTORS
330
280
102
}
330
280
100
AcDbVisualStyle
  2
ColorChange
 70
    16
 71
     2
 72
     2
 73
     3
 90
        0
 40
0.6
 41
30.0
 62
     5
 63
     8
421
  8421504
 74
     1
 91
        4
 64
     7
 65
   257
 75
     1
175
     1
 42
1.0
 92
        8
 66
     8
424
  8421504
 43
1.0
 76
     1
 77
     6
 78
     2
 67
     7
 79
     5
170
     0
171
     0
290
     0
174
     0
 93
        1
 44
0.0
173
     0
291
     1
 45
0.0
  0
VISUALSTYLE
  5
28A
102
{ACAD_REACTORS
330
280
102
}
330
280
100
AcDbVisualStyle
  2
Conceptual
 70
     9
 71
     3
 72
     2
 73
     0
 90
        0
 40
0.6
 41
30.0
 62
     5
 63
     7
421
 16777215
 74
     2
 91
        2
 64
     7
 65
   257
 75
     1
175
     1
 42
179.0
 92
        8
 66
     7
 43
1.0
 76
     1
 77
     6
 78
     2
 67
     7
 79
     3
170
     0
171
     0
290
     0
174
     0
 93
        1
 44
0.0
173
     0
291
     0
 45
0.0
  0
VISUALSTYLE
  5
28B
102
{ACAD_REACTORS
330
280
102
}
330
280
100
AcDbVisualStyle
  2
Dim
 70
    11
 71
     2
 72
     2
 73
     0
 90
        0
 40
0.6
 41
30.0
 62
     5
 63
     7
421
 16777215
 74
     1
 91
        4
 64
     7
 65
   257
 75
     1
175
     1
 42
1.0
 92
        8
 66
     7
 43
1.0
 76
     1
 77
     6
 78
     2
 67
     7
 79
     5
170
     0
171
     0
290
     0
174
     0
 93
        1
 44
-50.0
173
     0
291
     1
 45
0.0
  0
VISUALSTYLE
  5
293
102
{ACAD_REACTORS
330
280
102
}
330
280
100
AcDbVisualStyle
  2
EdgeColorOff
 70
    22
 71
     2
 72
     2
 73
     0
 90
        0
 40
0.6
 41
30.0
 62
     5
 63
     7
421
 16777215
 74
     1
 91
        4
 64
     7
 65
   257
 75
     1
175
     1
 42
1.0
 92
        8
 66
     7
 43
1.0
 76
     1
 77
     6
 78
     2
 67
     7
 79
     5
170
     0
171
     0
290
     0
174
     0
 93
        1
 44
0.0
173
     0
291
     1
 45
0.0
  0
VISUALSTYLE
  5
28F
102
{ACAD_REACTORS
330
280
102
}
330
280
100
AcDbVisualStyle
  2
Facepattern
 70
    15
 71
     2
 72
     2
 73
     0
 90
        0
 40
0.6
 41
30.0
 62
     5
 63
     7
421
 16777215
 74
     1
 91
        4
 64
     7
 65
   257
 75
     1
175
     1
 42
1.0
 92
        8
 66
     7
 43
1.0
 76
     1
 77
     6
 78
     2
 67
     7
 79
     5
170
     0
171
     0
290
     0
174
     0
 93
        1
 44
0.0
173
     0
291
     1
 45
0.0
  0
VISUALSTYLE
  5
281
102
{ACAD_REACTORS
330
280
102
}
330
280
100
AcDbVisualStyle
  2
Flat
 70
     0
 71
     2
 72
     1
 73
     1
 90
        2
 40
0.6
 41
30.0
 62
     5
 63
     7
421
 16777215
 74
     0
 91
        0
 64
     7
 65
   257
 75
     1
175
     1
 42
1.0
 92
        8
 66
     7
 43
1.0
 76
     1
 77
     6
 78
     2
 67
     7
 79
     5
170
     0
171
     0
290
     0
174
     0
 93
       13
 44
0.0
173
     0
291
     1
 45
0.0
  0
VISUALSTYLE
  5
282
102
{ACAD_REACTORS
330
280
102
}
330
280
100
AcDbVisualStyle
  2
FlatWithEdges
 70
     1
 71
     2
 72
     1
 73
     1
 90
        2
 40
0.6
 41
30.0
 62
     5
 63
     7
421
 16777215
 74
     1
 91
        0
 64
     7
 65
   257
 75
     1
175
     1
 42
1.0
 92
        0
 66
   257
 43
1.0
 76
     1
 77
     6
 78
     2
 67
     7
 79
     5
170
     0
171
     0
290
     0
174
     0
 93
       13
 44
0.0
173
     0
291
     1
 45
0.0
  0
VISUALSTYLE
  5
283
102
{ACAD_REACTORS
330
280
102
}
330
280
100
AcDbVisualStyle
  2
Gouraud
 70
     2
 71
     2
 72
     2
 73
     1
 90
        2
 40
0.6
 41
30.0
 62
     5
 63
     7
421
 16777215
 74
     0
 91
        0
 64
     7
 65
   257
 75
     1
175
     1
 42
1.0
 92
        0
 66
     7
 43
1.0
 76
     1
 77
     6
 78
     2
 67
     7
 79
     5
170
     0
171
     0
290
     0
174
     0
 93
       13
 44
0.0
173
     0
291
     1
 45
0.0
  0
VISUALSTYLE
  5
284
102
{ACAD_REACTORS
330
280
102
}
330
280
100
AcDbVisualStyle
  2
GouraudWithEdges
 70
     3
 71
     2
 72
     2
 73
     1
 90
        2
 40
0.6
 41
30.0
 62
     5
 63
     7
421
 16777215
 74
     1
 91
        0
 64
     7
 65
   257
 75
     1
175
     1
 42
1.0
 92
        0
 66
   257
 43
1.0
 76
     1
 77
     6
 78
     2
 67
     7
 79
     5
170
     0
171
     0
290
     0
174
     0
 93
       13
 44
0.0
173
     0
291
     1
 45
0.0
  0
VISUALSTYLE
  5
287
102
{ACAD_REACTORS
330
280
102
}
330
280
100
AcDbVisualStyle
  2
Hidden
 70
     6
 71
     1
 72
     2
 73
     2
 90
        0
 40
0.6
 41
30.0
 62
     5
 63
     7
421
 16777215
 74
     2
 91
        2
 64
     7
 65
   257
 75
     2
175
     1
 42
40.0
 92
        0
 66
   257
 43
1.0
 76
     1
 77
     6
 78
     2
 67
     7
 79
     3
170
     0
171
     0
290
     0
174
     0
 93
        1
 44
0.0
173
     0
291
     0
 45
0.0
  0
VISUALSTYLE
  5
291
102
{ACAD_REACTORS
330
280
102
}
330
280
100
AcDbVisualStyle
  2
JitterOff
 70
    20
 71
     2
 72
     2
 73
     0
 90
        0
 40
0.6
 41
30.0
 62
     5
 63
     7
421
 16777215
 74
     1
 91
        4
 64
     7
 65
   257
 75
     1
175
     1
 42
1.0
 92
       10
 66
     7
 43
1.0
 76
     1
 77
     6
 78
     2
 67
     7
 79
     5
170
     0
171
     0
290
     0
174
     0
 93
        1
 44
0.0
173
     0
291
     1
 45
0.0
  0
VISUALSTYLE
  5
28E
102
{ACAD_REACTORS
330
280
102
}
330
280
100
AcDbVisualStyle
  2
Linepattern
 70
    14
 71
     2
 72
     2
 73
     0
 90
        0
 40
0.6
 41
30.0
 62
     5
 63
     7
421
 16777215
 74
     1
 91
        4
 64
     7
 65
   257
 75
     7
175
     7
 42
1.0
 92
        8
 66
     7
 43
1.0
 76
     1
 77
     6
 78
     2
 67
     7
 79
     5
170
     0
171
     0
290
     0
174
     0
 93
        1
 44
0.0
173
     0
291
     1
 45
0.0
  0
VISUALSTYLE
  5
292
102
{ACAD_REACTORS
330
280
102
}
330
280
100
AcDbVisualStyle
  2
OverhangOff
 70
    21
 71
     2
 72
     2
 73
     0
 90
        0
 40
0.6
 41
30.0
 62
     5
 63
     7
421
 16777215
 74
     1
 91
        4
 64
     7
 65
   257
 75
     1
175
     1
 42
1.0
 92
        9
 66
     7
 43
1.0
 76
     1
 77
     6
 78
     2
 67
     7
 79
     5
170
     0
171
     0
290
     0
174
     0
 93
        1
 44
0.0
173
     0
291
     1
 45
0.0
  0
VISUALSTYLE
  5
289
102
{ACAD_REACTORS
330
280
102
}
330
280
100
AcDbVisualStyle
  2
Realistic
 70
     8
 71
     2
 72
     3
 73
     0
 90
        2
 40
0.6
 41
30.0
 62
     5
 63
     7
421
 16777215
 74
     0
 91
        0
 64
     7
 65
   257
 75
     1
175
     1
 42
1.0
 92
        8
 66
   257
 43
1.0
 76
     1
 77
     6
 78
     2
 67
     7
 79
     3
170
     0
171
     0
290
     0
174
     0
 93
       13
 44
0.0
173
     0
291
     0
 45
0.0
  0
VISUALSTYLE
  5
298
102
{ACAD_REACTORS
330
280
102
}
330
280
100
AcDbVisualStyle
  2
Shaded
 70
    27
 71
     2
 72
     2
 73
     1
 90
        2
 40
0.6
 41
30.0
 62
     5
 63
     7
421
 16777215
 74
     0
 91
        4
 64
     7
 65
   257
 75
     1
175
     1
 42
1.0
 92
        8
 66
   257
 43
1.0
 76
     1
 77
     6
 78
     2
 67
     8
425
  7895160
 79
     3
170
     0
171
     0
290
     0
174
     0
 93
        5
 44
0.0
173
     0
291
     0
 45
0.0
  0
VISUALSTYLE
  5
297
102
{ACAD_REACTORS
330
280
102
}
330
280
100
AcDbVisualStyle
  2
Shaded with edges
 70
    26
 71
     2
 72
     2
 73
     1
 90
        2
 40
0.6
 41
30.0
 62
     5
 63
     7
421
 16777215
 74
     1
 91
       10
 64
     7
 65
   257
 75
     2
175
     1
 42
1.0
 92
        8
 66
   257
 43
1.0
 76
     1
 77
     6
 78
     2
 67
     7
 79
     3
170
     0
171
     0
290
     0
174
     0
 93
        5
 44
0.0
173
     0
291
     0
 45
0.0
  0
VISUALSTYLE
  5
294
102
{ACAD_REACTORS
330
280
102
}
330
280
100
AcDbVisualStyle
  2
Shades of Gray
 70
    23
 71
     2
 72
     2
 73
     3
 90
        0
 40
0.6
 41
30.0
 62
     5
 63
     7
421
 16777215
 74
     2
 91
        2
 64
     7
 65
     7
 75
     1
175
     1
 42
40.0
 92
        8
 66
     7
 43
1.0
 76
     1
 77
     6
 78
     2
 67
     7
 79
     3
170
     0
171
     0
290
     0
174
     0
 93
        1
 44
0.0
173
     0
291
     0
 45
0.0
  0
VISUALSTYLE
  5
295
102
{ACAD_REACTORS
330
280
102
}
330
280
100
AcDbVisualStyle
  2
Sketchy
 70
    24
 71
     1
 72
     2
 73
     2
 90
        0
 40
0.6
 41
30.0
 62
     5
 63
     7
421
 16777215
 74
     2
 91
        2
 64
     7
 65
     7
 75
     1
175
     1
 42
40.0
 92
       11
 66
     7
 43
1.0
 76
     1
 77
     6
 78
     2
 67
     7
 79
     6
170
     0
171
     0
290
     0
174
     0
 93
        1
 44
0.0
173
     0
291
     0
 45
0.0
  0
VISUALSTYLE
  5
28D
102
{ACAD_REACTORS
330
280
102
}
330
280
100
AcDbVisualStyle
  2
Thicken
 70
    13
 71
     2
 72
     2
 73
     0
 90
        0
 40
0.6
 41
30.0
 62
     5
 63
     7
421
 16777215
 74
     1
 91
        4
 64
     7
 65
   257
 75
     1
175
     1
 42
1.0
 92
       12
 66
     7
 43
1.0
 76
     1
 77
     6
 78
     2
 67
     7
 79
     5
170
     0
171
     0
290
     0
174
     0
 93
        1
 44
0.0
173
     0
291
     1
 45
0.0
  0
VISUALSTYLE
  5
286
102
{ACAD_REACTORS
330
280
102
}
330
280
100
AcDbVisualStyle
  2
Wireframe
 70
     5
 71
     0
 72
     2
 73
     0
 90
        0
 40
0.6
 41
30.0
 62
     5
 63
     7
421
 16777215
 74
     1
 91
        4
 64
     7
 65
   257
 75
     1
175
     1
 42
1.0
 92
        0
 66
   257
 43
1.0
 76
     1
 77
     6
 78
     2
 67
     7
 79
     3
170
     0
171
     0
290
     0
174
     0
 93
        1
 44
0.0
173
     0
291
     0
 45
0.0
  0
VISUALSTYLE
  5
296
102
{ACAD_REACTORS
330
280
102
}
330
280
100
AcDbVisualStyle
  2
X-Ray
 70
    25
 71
     2
 72
     2
 73
     1
 90
        1
 40
0.5
 41
30.0
 62
     5
 63
     7
421
 16777215
 74
     1
 91
        0
 64
     7
 65
   257
 75
     1
175
     1
 42
1.0
 92
        8
 66
     7
 43
1.0
 76
     1
 77
     6
 78
     2
 67
     7
 79
     3
170
     0
171
     0
290
     0
174
     0
 93
       13
 44
0.0
173
     0
291
     0
 45
0.0
  0
DICTIONARYVAR
  5
48C
102
{ACAD_REACTORS
330
25C
102
}
330
25C
100
DictionaryVariables
280
     0
  1
1:1
  0
DICTIONARYVAR
  5
491
102
{ACAD_REACTORS
330
25C
102
}
330
25C
100
DictionaryVariables
280
     0
  1
Standard
  0
DICTIONARYVAR
  5
25D
330
25C
100
DictionaryVariables
280
     0
  1
2
  0
DICTIONARYVAR
  5
48D
102
{ACAD_REACTORS
330
25C
102
}
330
25C
100
DictionaryVariables
280
     0
  1
0
  0
DICTIONARYVAR
  5
492
102
{ACAD_REACTORS
330
25C
102
}
330
25C
100
DictionaryVariables
280
     0
  1
0
  0
DICTIONARYVAR
  5
4C8
102
{ACAD_REACTORS
330
25C
102
}
330
25C
100
DictionaryVariables
280
     0
  1
0
  0
XRECORD
  5
2A4
102
{ACAD_REACTORS
330
2A3
102
}
330
2A3
100
AcDbXrecord
280
     1
 91
     1023
301

290
     0
302
0
330
14
 90
        8
 62
     7
370
    -3
331
13
  1
Color_7
330
2D
 90
        9
 62
     1
370
    -3
331
13
  1
Color_1
330
2F
 90
        8
 62
     7
370
    -3
331
13
  1
Color_7
330
31
 90
        8
 62
     7
370
    -3
331
13
  1
Color_7
330
33
 90
        8
 62
     7
370
    -3
331
13
  1
Color_7
330
35
 90
        8
 62
     7
370
    -3
331
13
  1
Color_7
330
37
 90
        8
 62
     7
370
    -3
331
13
  1
Color_7
330
39
 90
        8
 62
     7
370
    -3
331
13
  1
Color_7
330
3B
 90
        8
 62
     7
370
    -3
331
13
  1
Color_7
330
3D
 90
        8
 62
     7
370
    -3
331
13
  1
Color_7
330
3F
 90
        8
 62
     7
370
    -3
331
13
  1
Color_7
330
41
 90
        8
 62
     7
370
    -3
331
13
  1
Color_7
330
43
 90
        8
 62
     7
370
    -3
331
13
  1
Color_7
330
45
 90
        8
 62
     7
370
    -3
331
13
  1
Color_7
330
47
 90
        8
 62
     7
370
    -3
331
13
  1
Color_7
330
12B
 90
        8
 62
     7
370
    -3
331
13
  1
Color_7
  0
XRECORD
  5
464
102
{ACAD_REACTORS
330
2A3
102
}
330
2A3
100
AcDbXrecord
280
     1
 91
     1023
301

290
     0
302
0
330
14
 90
        8
 62
     7
370
    -3
331
13
  1
Color_7
330
2D
 90
        8
 62
     1
370
    -3
331
13
  1
Color_1
330
2F
 90
        8
 62
     7
370
    -3
331
13
  1
Color_7
330
31
 90
        8
 62
     7
370
    -3
331
13
  1
Color_7
330
33
 90
        8
 62
     7
370
    -3
331
13
  1
Color_7
330
35
 90
        8
 62
     7
370
    -3
331
13
  1
Color_7
330
37
 90
        8
 62
     7
370
    -3
331
13
  1
Color_7
330
39
 90
        8
 62
     7
370
    -3
331
13
  1
Color_7
330
3B
 90
        8
 62
     7
370
    -3
331
13
  1
Color_7
330
3D
 90
        8
 62
     7
370
    -3
331
13
  1
Color_7
330
3F
 90
        8
 62
     7
370
    -3
331
13
  1
Color_7
330
41
 90
        8
 62
     7
370
    -3
331
13
  1
Color_7
330
43
 90
        8
 62
     7
370
    -3
331
13
  1
Color_7
330
45
 90
        8
 62
     7
370
    -3
331
13
  1
Color_7
330
47
 90
        8
 62
     7
370
    -3
331
13
  1
Color_7
330
12B
 90
        8
 62
     7
370
    -3
331
13
  1
Color_7
330
38F
 90
        8
 62
     7
370
    20
331
13
  1
Color_7
330
391
 90
        8
 62
     7
370
    20
331
13
  1
Color_7
330
392
 90
        8
 62
     7
370
    -3
331
13
  1
Color_7
330
40A
 90
        0
 62
     7
370
    -3
331
13
  1
Color_7
330
41C
 90
        8
 62
     7
370
    13
331
13
  1
Color_7
  0
SPATIAL_FILTER
  5
12F
330
12E
100
AcDbFilter
100
AcDbSpatialFilter
 70
     2
 10
11.6576010798
 20
68.2732684861
 10
200.1076010798
 20
283.7732684861
210
0.0
220
0.0
230
1.0
 11
0.0
 21
0.0
 31
0.0
 71
     1
 72
     0
 73
     0
 40
1.0
 40
0.0
 40
0.0
 40
0.0
 40
0.0
 40
1.0
 40
0.0
 40
0.0
 40
0.0
 40
0.0
 40
1.0
 40
0.0
 40
1.0
 40
0.0
 40
0.0
 40
0.0
 40
0.0
 40
1.0
 40
0.0
 40
0.0
 40
0.0
 40
0.0
 40
1.0
 40
0.0
  0
DICTIONARY
  5
51E
330
29E
100
AcDbDictionary
280
     1
281
     1
  3
ACAD_ROUNDTRIP_2008_TABLESTYLE_CELLSTYLEMAP
360
51F
  0
CELLSTYLEMAP
  5
51F
102
{ACAD_REACTORS
330
51E
102
}
330
51E
100
AcDbCellStyleMap
 90
        3
300
CELLSTYLE
  1
TABLEFORMAT_BEGIN
 90
        5
170
     1
 91
        0
 92
        0
 62
   257
 93
        1
300
CONTENTFORMAT
  1
CONTENTFORMAT_BEGIN
 90
        0
 91
        0
 92
        4
 93
        0
300

 40
0.0
140
1.0
 94
        5
 62
     0
340
17
144
0.25
309
CONTENTFORMAT_END
171
     1
301
MARGIN
  1
CELLMARGIN_BEGIN
 40
0.06
 40
0.06
 40
0.06
 40
0.06
 40
0.06
 40
0.06
309
CELLMARGIN_END
 94
        6
 95
        1
302
GRIDFORMAT
  1
GRIDFORMAT_BEGIN
 90
        0
 91
        1
 62
     0
 92
       -2
340
11
 93
        0
 40
0.045
309
GRIDFORMAT_END
 95
        2
302
GRIDFORMAT
  1
GRIDFORMAT_BEGIN
 90
        0
 91
        1
 62
     0
 92
       -2
340
11
 93
        0
 40
0.045
309
GRIDFORMAT_END
 95
        4
302
GRIDFORMAT
  1
GRIDFORMAT_BEGIN
 90
        0
 91
        1
 62
     0
 92
       -2
340
11
 93
        0
 40
0.045
309
GRIDFORMAT_END
 95
        8
302
GRIDFORMAT
  1
GRIDFORMAT_BEGIN
 90
        0
 91
        1
 62
     0
 92
       -2
340
11
 93
        0
 40
0.045
309
GRIDFORMAT_END
 95
       16
302
GRIDFORMAT
  1
GRIDFORMAT_BEGIN
 90
        0
 91
        1
 62
     0
 92
       -2
340
11
 93
        0
 40
0.045
309
GRIDFORMAT_END
 95
       32
302
GRIDFORMAT
  1
GRIDFORMAT_BEGIN
 90
        0
 91
        1
 62
     0
 92
       -2
340
11
 93
        0
 40
0.045
309
GRIDFORMAT_END
309
TABLEFORMAT_END
  1
CELLSTYLE_BEGIN
 90
        1
 91
        1
300
_TITLE
309
CELLSTYLE_END
300
CELLSTYLE
  1
TABLEFORMAT_BEGIN
 90
        5
170
     1
 91
        0
 92
        0
 62
   257
 93
        1
300
CONTENTFORMAT
  1
CONTENTFORMAT_BEGIN
 90
        0
 91
        0
 92
        4
 93
        0
300

 40
0.0
140
1.0
 94
        5
 62
     0
340
17
144
0.18
309
CONTENTFORMAT_END
171
     1
301
MARGIN
  1
CELLMARGIN_BEGIN
 40
0.06
 40
0.06
 40
0.06
 40
0.06
 40
0.06
 40
0.06
309
CELLMARGIN_END
 94
        6
 95
        1
302
GRIDFORMAT
  1
GRIDFORMAT_BEGIN
 90
        0
 91
        1
 62
     0
 92
       -2
340
11
 93
        0
 40
0.045
309
GRIDFORMAT_END
 95
        2
302
GRIDFORMAT
  1
GRIDFORMAT_BEGIN
 90
        0
 91
        1
 62
     0
 92
       -2
340
11
 93
        0
 40
0.045
309
GRIDFORMAT_END
 95
        4
302
GRIDFORMAT
  1
GRIDFORMAT_BEGIN
 90
        0
 91
        1
 62
     0
 92
       -2
340
11
 93
        0
 40
0.045
309
GRIDFORMAT_END
 95
        8
302
GRIDFORMAT
  1
GRIDFORMAT_BEGIN
 90
        0
 91
        1
 62
     0
 92
       -2
340
11
 93
        0
 40
0.045
309
GRIDFORMAT_END
 95
       16
302
GRIDFORMAT
  1
GRIDFORMAT_BEGIN
 90
        0
 91
        1
 62
     0
 92
       -2
340
11
 93
        0
 40
0.045
309
GRIDFORMAT_END
 95
       32
302
GRIDFORMAT
  1
GRIDFORMAT_BEGIN
 90
        0
 91
        1
 62
     0
 92
       -2
340
11
 93
        0
 40
0.045
309
GRIDFORMAT_END
309
TABLEFORMAT_END
  1
CELLSTYLE_BEGIN
 90
        2
 91
        1
300
_HEADER
309
CELLSTYLE_END
300
CELLSTYLE
  1
TABLEFORMAT_BEGIN
 90
        5
170
     1
 91
        0
 92
        0
 62
   257
 93
        1
300
CONTENTFORMAT
  1
CONTENTFORMAT_BEGIN
 90
        0
 91
        0
 92
        4
 93
        0
300

 40
0.0
140
1.0
 94
        2
 62
     0
340
17
144
0.18
309
CONTENTFORMAT_END
171
     1
301
MARGIN
  1
CELLMARGIN_BEGIN
 40
0.06
 40
0.06
 40
0.06
 40
0.06
 40
0.06
 40
0.06
309
CELLMARGIN_END
 94
        6
 95
        1
302
GRIDFORMAT
  1
GRIDFORMAT_BEGIN
 90
        0
 91
        1
 62
     0
 92
       -2
340
11
 93
        0
 40
0.045
309
GRIDFORMAT_END
 95
        2
302
GRIDFORMAT
  1
GRIDFORMAT_BEGIN
 90
        0
 91
        1
 62
     0
 92
       -2
340
11
 93
        0
 40
0.045
309
GRIDFORMAT_END
 95
        4
302
GRIDFORMAT
  1
GRIDFORMAT_BEGIN
 90
        0
 91
        1
 62
     0
 92
       -2
340
11
 93
        0
 40
0.045
309
GRIDFORMAT_END
 95
        8
302
GRIDFORMAT
  1
GRIDFORMAT_BEGIN
 90
        0
 91
        1
 62
     0
 92
       -2
340
11
 93
        0
 40
0.045
309
GRIDFORMAT_END
 95
       16
302
GRIDFORMAT
  1
GRIDFORMAT_BEGIN
 90
        0
 91
        1
 62
     0
 92
       -2
340
11
 93
        0
 40
0.045
309
GRIDFORMAT_END
 95
       32
302
GRIDFORMAT
  1
GRIDFORMAT_BEGIN
 90
        0
 91
        1
 62
     0
 92
       -2
340
11
 93
        0
 40
0.045
309
GRIDFORMAT_END
309
TABLEFORMAT_END
  1
CELLSTYLE_BEGIN
 90
        3
 91
        2
300
_DATA
309
CELLSTYLE_END
  0
ENDSEC
  0
EOF
