  0
SECTION
  2
HEADER
  9
$ACADVER
  1
AC1021
  9
$ACADMAINTVER
 70
    25
  9
$DWGCODEPAGE
  3
ANSI_932
  9
$LASTSAVEDBY
  1
oku
  9
$INSBASE
 10
0.0
 20
0.0
 30
0.0
  9
$EXTMIN
 10
36.10107227362437
 20
31.89607416228557
 30
0.0
  9
$EXTMAX
 10
1011.101072273866
 20
1448.573336753213
 30
0.0
  9
$LIMMIN
 10
0.0
 20
0.0
  9
$LIMMAX
 10
1050.0
 20
1485.0
  9
$ORTHOMODE
 70
     1
  9
$REGENMODE
 70
     1
  9
$FILLMODE
 70
     1
  9
$QTEXTMODE
 70
     0
  9
$MIRRTEXT
 70
     1
  9
$LTSCALE
 40
50.8
  9
$ATTMODE
 70
     1
  9
$TEXTSIZE
 40
2.5
  9
$TRACEWID
 40
1.0
  9
$TEXTSTYLE
  7
ＭＳ ゴシック
  9
$CLAYER
  8
DIM
  9
$CELTYPE
  6
Continuous
  9
$CECOLOR
 62
   256
  9
$CELTSCALE
 40
1.0
  9
$DISPSILH
 70
     0
  9
$DIMSCALE
 40
1.0
  9
$DIMASZ
 40
6.0
  9
$DIMEXO
 40
5.0
  9
$DIMDLI
 40
0.9999999999999999
  9
$DIMRND
 40
0.0
  9
$DIMDLE
 40
0.0
  9
$DIMEXE
 40
0.0
  9
$DIMTP
 40
0.0
  9
$DIMTM
 40
0.0
  9
$DIMTXT
 40
12.0
  9
$DIMCEN
 40
0.0
  9
$DIMTSZ
 40
0.0
  9
$DIMTOL
 70
     0
  9
$DIMLIM
 70
     0
  9
$DIMTIH
 70
     0
  9
$DIMTOH
 70
     0
  9
$DIMSE1
 70
     0
  9
$DIMSE2
 70
     0
  9
$DIMTAD
 70
     1
  9
$DIMZIN
 70
    11
  9
$DIMBLK
  1
DOT
  9
$DIMASO
 70
     1
  9
$DIMSHO
 70
     1
  9
$DIMPOST
  1
<>
  9
$DIMAPOST
  1
[]
  9
$DIMALT
 70
     0
  9
$DIMALTD
 70
     1
  9
$DIMALTF
 40
1.0
  9
$DIMLFAC
 40
1.0
  9
$DIMTOFL
 70
     0
  9
$DIMTVP
 40
0.0
  9
$DIMTIX
 70
     1
  9
$DIMSOXD
 70
     0
  9
$DIMSAH
 70
     0
  9
$DIMBLK1
  1

  9
$DIMBLK2
  1

  9
$DIMSTYLE
  2
tfrom線あり
  9
$DIMCLRD
 70
     0
  9
$DIMCLRE
 70
     0
  9
$DIMCLRT
 70
     0
  9
$DIMTFAC
 40
1.0
  9
$DIMGAP
 40
5.0
  9
$DIMJUST
 70
     0
  9
$DIMSD1
 70
     0
  9
$DIMSD2
 70
     0
  9
$DIMTOLJ
 70
     1
  9
$DIMTZIN
 70
    11
  9
$DIMALTZ
 70
    11
  9
$DIMALTTZ
 70
    11
  9
$DIMUPT
 70
     0
  9
$DIMDEC
 70
     0
  9
$DIMTDEC
 70
     1
  9
$DIMALTU
 70
     2
  9
$DIMALTTD
 70
     2
  9
$DIMTXSTY
  7
ＭＳ ゴシック
  9
$DIMAUNIT
 70
     0
  9
$DIMADEC
 70
     2
  9
$DIMALTRND
 40
0.0
  9
$DIMAZIN
 70
     0
  9
$DIMDSEP
 70
    46
  9
$DIMATFIT
 70
     0
  9
$DIMFRAC
 70
     2
  9
$DIMLDRBLK
  1
DOT
  9
$DIMLUNIT
 70
     2
  9
$DIMLWD
 70
    -2
  9
$DIMLWE
 70
    -2
  9
$DIMTMOVE
 70
     0
  9
$DIMFXL
 40
1.0
  9
$DIMFXLON
 70
     0
  9
$DIMJOGANG
 40
0.7853981633974483
  9
$DIMTFILL
 70
     0
  9
$DIMTFILLCLR
 70
     0
  9
$DIMARCSYM
 70
     0
  9
$DIMLTYPE
  6

  9
$DIMLTEX1
  6

  9
$DIMLTEX2
  6

  9
$LUNITS
 70
     2
  9
$LUPREC
 70
     0
  9
$SKETCHINC
 40
0.1
  9
$FILLETRAD
 40
0.0
  9
$AUNITS
 70
     0
  9
$AUPREC
 70
     0
  9
$MENU
  1
acad
  9
$ELEVATION
 40
0.0
  9
$PELEVATION
 40
0.0
  9
$THICKNESS
 40
0.0
  9
$LIMCHECK
 70
     0
  9
$CHAMFERA
 40
0.0
  9
$CHAMFERB
 40
0.0
  9
$CHAMFERC
 40
0.0
  9
$CHAMFERD
 40
0.0
  9
$SKPOLY
 70
     0
  9
$TDCREATE
 40
2447893.375
  9
$TDUCREATE
 40
0.0
  9
$TDUPDATE
 40
2457220.703843264
  9
$TDUUPDATE
 40
2457220.328843264
  9
$TDINDWG
 40
0.1105072454
  9
$TDUSRTIMER
 40
2457220.328358692
  9
$USRTIMER
 70
     1
  9
$ANGBASE
 50
0.0
  9
$ANGDIR
 70
     0
  9
$PDMODE
 70
     1
  9
$PDSIZE
 40
-2.0
  9
$PLINEWID
 40
0.0
  9
$SPLFRAME
 70
     0
  9
$SPLINETYPE
 70
     6
  9
$SPLINESEGS
 70
     8
  9
$HANDSEED
  5
120C
  9
$SURFTAB1
 70
     6
  9
$SURFTAB2
 70
     6
  9
$SURFTYPE
 70
     6
  9
$SURFU
 70
     6
  9
$SURFV
 70
     6
  9
$UCSBASE
  2

  9
$UCSNAME
  2

  9
$UCSORG
 10
0.0
 20
0.0
 30
0.0
  9
$UCSXDIR
 10
1.0
 20
0.0
 30
0.0
  9
$UCSYDIR
 10
0.0
 20
1.0
 30
0.0
  9
$UCSORTHOREF
  2

  9
$UCSORTHOVIEW
 70
     0
  9
$UCSORGTOP
 10
0.0
 20
0.0
 30
0.0
  9
$UCSORGBOTTOM
 10
0.0
 20
0.0
 30
0.0
  9
$UCSORGLEFT
 10
0.0
 20
0.0
 30
0.0
  9
$UCSORGRIGHT
 10
0.0
 20
0.0
 30
0.0
  9
$UCSORGFRONT
 10
0.0
 20
0.0
 30
0.0
  9
$UCSORGBACK
 10
0.0
 20
0.0
 30
0.0
  9
$PUCSBASE
  2

  9
$PUCSNAME
  2

  9
$PUCSORG
 10
0.0
 20
0.0
 30
0.0
  9
$PUCSXDIR
 10
1.0
 20
0.0
 30
0.0
  9
$PUCSYDIR
 10
0.0
 20
1.0
 30
0.0
  9
$PUCSORTHOREF
  2

  9
$PUCSORTHOVIEW
 70
     0
  9
$PUCSORGTOP
 10
0.0
 20
0.0
 30
0.0
  9
$PUCSORGBOTTOM
 10
0.0
 20
0.0
 30
0.0
  9
$PUCSORGLEFT
 10
0.0
 20
0.0
 30
0.0
  9
$PUCSORGRIGHT
 10
0.0
 20
0.0
 30
0.0
  9
$PUCSORGFRONT
 10
0.0
 20
0.0
 30
0.0
  9
$PUCSORGBACK
 10
0.0
 20
0.0
 30
0.0
  9
$USERI1
 70
     0
  9
$USERI2
 70
     0
  9
$USERI3
 70
     0
  9
$USERI4
 70
     0
  9
$USERI5
 70
     0
  9
$USERR1
 40
0.0
  9
$USERR2
 40
0.0
  9
$USERR3
 40
0.0
  9
$USERR4
 40
0.0
  9
$USERR5
 40
0.0
  9
$WORLDVIEW
 70
     1
  9
$SHADEDGE
 70
     3
  9
$SHADEDIF
 70
    70
  9
$TILEMODE
 70
     1
  9
$MAXACTVP
 70
    64
  9
$PINSBASE
 10
0.0
 20
0.0
 30
0.0
  9
$PLIMCHECK
 70
     0
  9
$PEXTMIN
 10
0.0
 20
0.0
 30
0.0
  9
$PEXTMAX
 10
0.0
 20
0.0
 30
0.0
  9
$PLIMMIN
 10
-7.5
 20
-20.0
  9
$PLIMMAX
 10
412.5
 20
277.0
  9
$UNITMODE
 70
     0
  9
$VISRETAIN
 70
     0
  9
$PLINEGEN
 70
     1
  9
$PSLTSCALE
 70
     0
  9
$TREEDEPTH
 70
  3020
  9
$CMLSTYLE
  2
Standard
  9
$CMLJUST
 70
     0
  9
$CMLSCALE
 40
1.0
  9
$PROXYGRAPHICS
 70
     0
  9
$MEASUREMENT
 70
     1
  9
$CELWEIGHT
370
    -1
  9
$ENDCAPS
280
     0
  9
$JOINSTYLE
280
     0
  9
$LWDISPLAY
290
     1
  9
$INSUNITS
 70
     4
  9
$HYPERLINKBASE
  1

  9
$STYLESHEET
  1

  9
$XEDIT
290
     1
  9
$CEPSNTYPE
380
     0
  9
$PSTYLEMODE
290
     1
  9
$FINGERPRINTGUID
  2

  9
$VERSIONGUID
  2

  9
$EXTNAMES
290
     1
  9
$PSVPSCALE
 40
0.0
  9
$OLESTARTUP
290
     0
  9
$SORTENTS
280
   127
  9
$INDEXCTL
280
     0
  9
$HIDETEXT
280
     1
  9
$XCLIPFRAME
290
     0
  9
$HALOGAP
280
     0
  9
$OBSCOLOR
 70
   257
  9
$OBSLTYPE
280
     0
  9
$INTERSECTIONDISPLAY
280
     0
  9
$INTERSECTIONCOLOR
 70
   257
  9
$DIMASSOC
280
     2
  9
$PROJECTNAME
  1

  9
$CAMERADISPLAY
290
     0
  9
$LENSLENGTH
 40
50.0
  9
$CAMERAHEIGHT
 40
0.0
  9
$STEPSPERSEC
 40
2.0
  9
$STEPSIZE
 40
6.0
  9
$3DDWFPREC
 40
2.0
  9
$PSOLWIDTH
 40
0.25
  9
$PSOLHEIGHT
 40
4.0
  9
$LOFTANG1
 40
1.570796326794897
  9
$LOFTANG2
 40
1.570796326794897
  9
$LOFTMAG1
 40
0.0
  9
$LOFTMAG2
 40
0.0
  9
$LOFTPARAM
 70
     7
  9
$LOFTNORMALS
280
     1
  9
$LATITUDE
 40
37.795
  9
$LONGITUDE
 40
-122.394
  9
$NORTHDIRECTION
 40
0.0
  9
$TIMEZONE
 70
 -8000
  9
$LIGHTGLYPHDISPLAY
280
     1
  9
$TILEMODELIGHTSYNCH
280
     1
  9
$SOLIDHIST
280
     1
  9
$SHOWHIST
280
     1
  9
$DWFFRAME
280
     2
  9
$DGNFRAME
280
     2
  9
$REALWORLDSCALE
290
     1
  9
$INTERFERECOLOR
 62
   256
  9
$CSHADOW
280
     0
  9
$SHADOWPLANELOCATION
 40
0.0
  0
ENDSEC
  0
SECTION
  2
CLASSES
  0
CLASS
  1
LWPOLYLINE
  2
AcDbPolyline
  3
ObjectDBX Classes
 90
        0
 91
        1
280
     0
281
     1
  0
CLASS
  1
IMAGE
  2
AcDbRasterImage
  3
ISM
 90
      127
 91
        5
280
     0
281
     1
  0
CLASS
  1
OLE2FRAME
  2
AcDbOle2Frame
  3
ObjectDBX Classes
 90
        0
 91
        1
280
     0
281
     1
  0
CLASS
  1
HATCH
  2
AcDbHatch
  3
ObjectDBX Classes
 90
        0
 91
        1
280
     0
281
     1
  0
CLASS
  1
DICTIONARYVAR
  2
AcDbDictionaryVar
  3
ObjectDBX Classes
 90
        0
 91
        4
280
     0
281
     0
  0
CLASS
  1
RASTERVARIABLES
  2
AcDbRasterVariables
  3
ISM
 90
        0
 91
        5
280
     0
281
     0
  0
CLASS
  1
IMAGEDEF
  2
AcDbRasterImageDef
  3
ISM
 90
        0
 91
        4
280
     0
281
     0
  0
CLASS
  1
IMAGEDEF_REACTOR
  2
AcDbRasterImageDefReactor
  3
ISM
 90
        1
 91
        4
280
     0
281
     0
  0
CLASS
  1
IDBUFFER
  2
AcDbIdBuffer
  3
ObjectDBX Classes
 90
        0
 91
        4
280
     0
281
     0
  0
CLASS
  1
SPATIAL_FILTER
  2
AcDbSpatialFilter
  3
ObjectDBX Classes
 90
        0
 91
        4
280
     0
281
     0
  0
CLASS
  1
XRECORD
  2
AcDbXrecord
  3
ObjectDBX Classes
 90
        0
 91
        1
280
     0
281
     0
  0
CLASS
  1
SORTENTSTABLE
  2
AcDbSortentsTable
  3
ObjectDBX Classes
 90
        0
 91
        4
280
     0
281
     0
  0
CLASS
  1
LAYER_INDEX
  2
AcDbLayerIndex
  3
ObjectDBX Classes
 90
        0
 91
        4
280
     0
281
     0
  0
CLASS
  1
SPATIAL_INDEX
  2
AcDbSpatialIndex
  3
AutoCAD 2000
 90
        0
 91
        4
280
     0
281
     0
  0
CLASS
  1
OBJECT_PTR
  2
CAseDLPNTableRecord
  3
ASE-LPNTableRecord
 90
        1
 91
        4
280
     0
281
     0
  0
CLASS
  1
LAYOUT
  2
AcDbLayout
  3
ObjectDBX Classes
 90
        0
 91
        1
280
     0
281
     0
  0
CLASS
  1
PLOTSETTINGS
  2
AcDbPlotSettings
  3
ObjectDBX Classes
 90
        0
 91
        4
280
     0
281
     0
  0
CLASS
  1
ACDBDICTIONARYWDFLT
  2
AcDbDictionaryWithDefault
  3
ObjectDBX Classes
 90
        0
 91
        5
280
     0
281
     0
  0
CLASS
  1
ACDBPLACEHOLDER
  2
AcDbPlaceHolder
  3
ObjectDBX Classes
 90
        0
 91
        1
280
     0
281
     0
  0
CLASS
  1
SCALE
  2
AcDbScale
  3
ObjectDBX Classes
 90
     1153
 91
        5
280
     0
281
     0
  0
CLASS
  1
MATERIAL
  2
AcDbMaterial
  3
ObjectDBX Classes
 90
     1153
 91
        5
280
     0
281
     0
  0
CLASS
  1
VISUALSTYLE
  2
AcDbVisualStyle
  3
ObjectDBX Classes
 90
     4095
 91
        5
280
     0
281
     0
  0
CLASS
  1
TABLESTYLE
  2
AcDbTableStyle
  3
ObjectDBX Classes
 90
     4095
 91
        5
280
     0
281
     0
  0
CLASS
  1
DIMASSOC
  2
AcDbDimAssoc
  3
"AcDbDimAssoc|Product Desc:     AcDim ARX App For Dimension|Company:          Autodesk, Inc.|WEB Address:      www.autodesk.com"
 90
        0
 91
        4
280
     0
281
     0
  0
CLASS
  1
CELLSTYLEMAP
  2
AcDbCellStyleMap
  3
ObjectDBX Classes
 90
     1152
 91
        4
280
     0
281
     0
  0
CLASS
  1
SUN
  2
AcDbSun
  3
SCENEOE
 90
     1153
 91
        5
280
     0
281
     0
  0
ENDSEC
  0
SECTION
  2
TABLES
  0
TABLE
  2
VPORT
  5
7
330
0
100
AcDbSymbolTable
 70
     1
  0
VPORT
  5
15
330
7
100
AcDbSymbolTableRecord
100
AcDbViewportTableRecord
  2
*ACTIVE
 70
     0
 10
0.0
 20
0.0
 11
1.0
 21
1.0
 12
201.2531128051515
 22
289.6606722862909
 13
0.0
 23
0.0
 14
1.0
 24
1.0
 15
0.0
 25
0.0
 16
0.0
 26
0.0
 36
1.0
 17
-91.02013567090034
 27
73.59871453016603
 37
-46.86809886248109
 40
2406.579196775138
 41
1.811428571428571
 42
50.0
 43
0.0
 44
0.0
 50
0.0
 51
0.0
 71
    16
 72
  2000
 73
     1
 74
     1
 75
     0
 76
     0
 77
     0
 78
     0
281
     0
 65
     1
110
0.0
120
0.0
130
0.0
111
1.0
121
0.0
131
0.0
112
0.0
122
1.0
132
0.0
 79
     0
146
0.0
348
26C
 60
     3
 61
     5
292
     1
282
     1
141
0.0
142
0.0
 63
   256
361
904
  0
ENDTAB
  0
TABLE
  2
LTYPE
  5
4
330
0
100
AcDbSymbolTable
 70
    19
  0
LTYPE
  5
11
330
4
100
AcDbSymbolTableRecord
100
AcDbLinetypeTableRecord
  2
ByBlock
 70
     0
  3

 72
    65
 73
     0
 40
0.0
  0
LTYPE
  5
12
330
4
100
AcDbSymbolTableRecord
100
AcDbLinetypeTableRecord
  2
ByLayer
 70
     0
  3

 72
    65
 73
     0
 40
0.0
  0
LTYPE
  5
13
330
4
100
AcDbSymbolTableRecord
100
AcDbLinetypeTableRecord
  2
Continuous
 70
     0
  3
Solid line
 72
    65
 73
     0
 40
0.0
  0
LTYPE
  5
3A
330
4
100
AcDbSymbolTableRecord
100
AcDbLinetypeTableRecord
  2
STYLE_01
 70
     0
  3

 72
    65
 73
     2
 40
0.2460629921259842
 49
0.1230314960629921
 74
     0
 49
-0.1230314960629921
 74
     0
  0
LTYPE
  5
3B
330
4
100
AcDbSymbolTableRecord
100
AcDbLinetypeTableRecord
  2
STYLE_02
 70
     0
  3

 72
    65
 73
     2
 40
0.6944250000000001
 49
0.48607
 74
     0
 49
-0.2083550000000001
 74
     0
  0
LTYPE
  5
3C
330
4
100
AcDbSymbolTableRecord
100
AcDbLinetypeTableRecord
  2
STYLE_03
 70
     0
  3

 72
    65
 73
     2
 40
1.25
 49
1.04164
 74
     0
 49
-0.2083599999999999
 74
     0
  0
LTYPE
  5
3D
330
4
100
AcDbSymbolTableRecord
100
AcDbLinetypeTableRecord
  2
STYLE_04
 70
     0
  3

 72
    65
 73
     2
 40
1.52771
 49
1.319425
 74
     0
 49
-0.208285
 74
     0
  0
LTYPE
  5
3E
330
4
100
AcDbSymbolTableRecord
100
AcDbLinetypeTableRecord
  2
STYLE_05
 70
     0
  3

 72
    65
 73
     2
 40
0.20828
 49
0.069425
 74
     0
 49
-0.138855
 74
     0
  0
LTYPE
  5
3F
330
4
100
AcDbSymbolTableRecord
100
AcDbLinetypeTableRecord
  2
STYLE_06
 70
     0
  3

 72
    65
 73
     4
 40
1.04164
 49
0.625
 74
     0
 49
-0.20828
 74
     0
 49
0.06943
 74
     0
 49
-0.13893
 74
     0
  0
LTYPE
  5
40
330
4
100
AcDbSymbolTableRecord
100
AcDbLinetypeTableRecord
  2
STYLE_07
 70
     0
  3

 72
    65
 73
     6
 40
1.875
 49
0.625
 74
     0
 49
-0.20828
 74
     0
 49
0.6250000000000001
 74
     0
 49
-0.2083599999999999
 74
     0
 49
0.06943
 74
     0
 49
-0.1389299999999999
 74
     0
  0
LTYPE
  5
41
330
4
100
AcDbSymbolTableRecord
100
AcDbLinetypeTableRecord
  2
STYLE_08
 70
     0
  3

 72
    65
 73
     6
 40
1.25
 49
0.625
 74
     0
 49
-0.20828
 74
     0
 49
0.06943
 74
     0
 49
-0.13893
 74
     0
 49
0.0694299999999999
 74
     0
 49
-0.13893
 74
     0
  0
LTYPE
  5
42
330
4
100
AcDbSymbolTableRecord
100
AcDbLinetypeTableRecord
  2
STYLE_09
 70
     0
  3

 72
    65
 73
     4
 40
5.0
 49
3.75
 74
     0
 49
-0.2777849999999998
 74
     0
 49
0.6944300000000003
 74
     0
 49
-0.2777849999999998
 74
     0
  0
LTYPE
  5
43
330
4
100
AcDbSymbolTableRecord
100
AcDbLinetypeTableRecord
  2
STYLE_10
 70
     0
  3

 72
    65
 73
     6
 40
5.9375
 49
3.75
 74
     0
 49
-0.2777849999999998
 74
     0
 49
0.6944300000000003
 74
     0
 49
-0.2777849999999998
 74
     0
 49
0.625
 74
     0
 49
-0.3125
 74
     0
  0
LTYPE
  5
44
330
4
100
AcDbSymbolTableRecord
100
AcDbLinetypeTableRecord
  2
STYLE_11
 70
     0
  3

 72
    65
 73
     2
 40
0.0694444881889764
 49
0.0347222440944882
 74
     0
 49
-0.0347222440944882
 74
     0
  0
LTYPE
  5
45
330
4
100
AcDbSymbolTableRecord
100
AcDbLinetypeTableRecord
  2
STYLE_12
 70
     0
  3

 72
    65
 73
     2
 40
0.3937007874015748
 49
0.1968503937007874
 74
     0
 49
-0.1968503937007874
 74
     0
  0
LTYPE
  5
46
330
4
100
AcDbSymbolTableRecord
100
AcDbLinetypeTableRecord
  2
STYLE_13
 70
     0
  3

 72
    65
 73
     2
 40
0.5905511811023622
 49
0.2952755905511811
 74
     0
 49
-0.2952755905511811
 74
     0
  0
LTYPE
  5
47
330
4
100
AcDbSymbolTableRecord
100
AcDbLinetypeTableRecord
  2
STYLE_14
 70
     0
  3

 72
    65
 73
     2
 40
1.968503937007874
 49
0.9842519685039369
 74
     0
 49
-0.9842519685039369
 74
     0
  0
LTYPE
  5
48
330
4
100
AcDbSymbolTableRecord
100
AcDbLinetypeTableRecord
  2
STYLE_15
 70
     0
  3

 72
    65
 73
     2
 40
0.1875
 49
0.125
 74
     0
 49
-0.0625
 74
     0
  0
LTYPE
  5
49
330
4
100
AcDbSymbolTableRecord
100
AcDbLinetypeTableRecord
  2
STYLE_16
 70
     0
  3

 72
    65
 73
     2
 40
0.3690944881889764
 49
0.2460629921259843
 74
     0
 49
-0.1230314960629922
 74
     0
  0
LTYPE
  5
908
330
4
100
AcDbSymbolTableRecord
100
AcDbLinetypeTableRecord
  2
AI-LINETYPE-1
 70
     0
  3
Adobe Illustrator Linetype No. 1
 72
    65
 73
     4
 40
2.116668062491661
 49
1.058334031245831
 74
     0
 49
-0.3527780104152769
 74
     0
 49
0.3527780104152769
 74
     0
 49
-0.3527780104152769
 74
     0
  0
LTYPE
  5
909
330
4
100
AcDbSymbolTableRecord
100
AcDbLinetypeTableRecord
  2
AI-LINETYPE-2
 70
     0
  3
Adobe Illustrator Linetype No. 2
 72
    65
 73
     4
 40
2.116668062491661
 49
1.058334031245831
 74
     0
 49
-0.3527780104152769
 74
     0
 49
0.3527780104152769
 74
     0
 49
-0.3527780104152769
 74
     0
  0
ENDTAB
  0
TABLE
  2
LAYER
  5
2
102
{ACAD_XDICTIONARY
360
2E1
102
}
330
0
100
AcDbSymbolTable
 70
    12
  0
LAYER
  5
14
330
2
100
AcDbSymbolTableRecord
100
AcDbLayerTableRecord
  2
0
 70
     0
 62
     7
  6
Continuous
370
    -3
390
1D
347
266
  0
LAYER
  5
4B
330
2
100
AcDbSymbolTableRecord
100
AcDbLayerTableRecord
  2
TEMPLATE
 70
     0
 62
     7
  6
Continuous
370
    20
390
1D
347
266
  0
LAYER
  5
4C
330
2
100
AcDbSymbolTableRecord
100
AcDbLayerTableRecord
  2
DIM
 70
     0
 62
     7
  6
Continuous
370
    13
390
1D
347
266
  0
LAYER
  5
4D
330
2
100
AcDbSymbolTableRecord
100
AcDbLayerTableRecord
  2
MODEL
 70
     0
 62
     7
  6
Continuous
370
    20
390
1D
347
266
  0
LAYER
  5
667
330
2
100
AcDbSymbolTableRecord
100
AcDbLayerTableRecord
  2
LOGO
 70
     0
 62
     7
  6
Continuous
370
    -3
390
1D
347
266
  0
LAYER
  5
88C
330
2
100
AcDbSymbolTableRecord
100
AcDbLayerTableRecord
  2
HIDDEN
 70
     0
 62
     7
  6
STYLE_12
370
    20
390
1D
347
266
1001
AcAecLayerStandard
1000

1000

  0
LAYER
  5
D5A
330
2
100
AcDbSymbolTableRecord
100
AcDbLayerTableRecord
  2
Layer1
 70
     0
 62
     7
  6
Continuous
370
    -3
390
1D
347
266
  0
LAYER
  5
D5C
330
2
100
AcDbSymbolTableRecord
100
AcDbLayerTableRecord
  2
Standard
 70
     0
 62
     7
  6
Continuous
370
    -3
390
1D
347
266
  0
LAYER
  5
D5D
330
2
100
AcDbSymbolTableRecord
100
AcDbLayerTableRecord
  2
430
 70
     0
 62
     7
  6
Continuous
370
    -3
390
1D
347
266
  0
LAYER
  5
D5E
330
2
100
AcDbSymbolTableRecord
100
AcDbLayerTableRecord
  2
Layer50
 70
     0
 62
     7
  6
Continuous
370
    -3
390
1D
347
266
  0
LAYER
  5
D5F
330
2
100
AcDbSymbolTableRecord
100
AcDbLayerTableRecord
  2
Layer3
 70
     0
 62
     7
  6
Continuous
370
    -3
390
1D
347
266
  0
LAYER
  5
F6E
330
2
100
AcDbSymbolTableRecord
100
AcDbLayerTableRecord
  2
Defpoints
 70
     0
 62
     7
  6
Continuous
290
     0
370
    -3
390
1D
347
266
  0
ENDTAB
  0
TABLE
  2
STYLE
  5
3
330
0
100
AcDbSymbolTable
 70
     6
  0
STYLE
  5
17
330
3
100
AcDbSymbolTableRecord
100
AcDbTextStyleTableRecord
  2
Standard
 70
     0
 40
0.0
 41
1.0
 50
0.0
 71
     0
 42
2.5
  3
txt
  4
BIGFONT.SHX
  0
STYLE
  5
39
330
3
100
AcDbSymbolTableRecord
100
AcDbTextStyleTableRecord
  2
ＭＳ ゴシック
 70
     0
 40
0.0
 41
1.0
 50
0.0
 71
     0
 42
2.5
  3
msgothic.ttc
  4
ＭＳ ゴシック
1001
ACAD
1000
ＭＳ ゴシック
1071
        0
  0
STYLE
  5
384
330
3
100
AcDbSymbolTableRecord
100
AcDbTextStyleTableRecord
  2
ARIAL
 70
     0
 40
0.0
 41
1.0
 50
0.0
 71
     0
 42
12.0
  3
ARIAL.TTF
  4

1001
ACAD
1000
Arial
1071
       34
  0
STYLE
  5
385
330
3
100
AcDbSymbolTableRecord
100
AcDbTextStyleTableRecord
  2
ROMANS
 70
     0
 40
0.0
 41
1.0
 50
0.0
 71
     0
 42
5.0
  3
romans.shx
  4

  0
STYLE
  5
D63
330
3
100
AcDbSymbolTableRecord
100
AcDbTextStyleTableRecord
  2
SEACAD_arial_ttf
 70
     0
 40
0.0
 41
1.0
 50
0.0
 71
     0
 42
2.5
  3
arial.ttf
  4

  0
STYLE
  5
D69
330
3
100
AcDbSymbolTableRecord
100
AcDbTextStyleTableRecord
  2
SEACAD_semeca1_ttf
 70
     0
 40
0.0
 41
1.0
 50
0.0
 71
     0
 42
2.5
  3
semeca1.ttf
  4

  0
ENDTAB
  0
TABLE
  2
VIEW
  5
5
330
0
100
AcDbSymbolTable
 70
     0
  0
ENDTAB
  0
TABLE
  2
UCS
  5
6
330
0
100
AcDbSymbolTable
 70
     0
  0
ENDTAB
  0
TABLE
  2
APPID
  5
8
330
0
100
AcDbSymbolTable
 70
     2
  0
APPID
  5
16
330
8
100
AcDbSymbolTableRecord
100
AcDbRegAppTableRecord
  2
ACAD
 70
     0
  0
APPID
  5
7AC
330
8
100
AcDbSymbolTableRecord
100
AcDbRegAppTableRecord
  2
AcAecLayerStandard
 70
     0
  0
ENDTAB
  0
TABLE
  2
DIMSTYLE
  5
9
330
0
100
AcDbSymbolTable
 70
     7
100
AcDbDimStyleTable
  0
DIMSTYLE
105
18
330
9
100
AcDbSymbolTableRecord
100
AcDbDimStyleTableRecord
  2
Standard
 70
     0
178
     0
340
17
  0
DIMSTYLE
105
56
102
{ACAD_REACTORS
330
1133
330
1134
330
1136
102
}
330
9
100
AcDbSymbolTableRecord
100
AcDbDimStyleTableRecord
  2
tform線あり
 70
     0
  3
<>
  4
[]
 41
9.999389648437498
 42
25.0
 43
0.9999999999999999
 44
0.0
 73
     0
 74
     0
 77
     1
 78
    11
140
24.4326171875
141
0.0
143
1.0
146
0.8
147
0.4999999999999999
171
     1
172
     1
174
     1
178
     0
179
     2
271
     1
272
     1
276
     2
284
    11
285
    11
286
    11
289
     0
340
39
341
4E
342
4E
  0
DIMSTYLE
105
57
102
{ACAD_REACTORS
330
11F0
102
}
330
9
100
AcDbSymbolTableRecord
100
AcDbDimStyleTableRecord
  2
tfrom線あり
 70
     0
  3
<>
  4
[]
 41
6.0
 42
5.0
 43
0.9999999999999999
 44
0.0
 73
     0
 74
     0
 77
     1
 78
    11
140
12.0
141
0.0
143
1.0
147
5.0
171
     1
174
     1
178
     0
179
     2
271
     0
272
     1
276
     2
284
    11
285
    11
286
    11
289
     0
340
39
341
4E
342
4E
  0
DIMSTYLE
105
5C
330
9
100
AcDbSymbolTableRecord
100
AcDbDimStyleTableRecord
  2
JIS
 70
     0
  3
<>
  4
[]
 41
9.0
 42
0.0
 43
6.99999999999994
 44
19.9999999999962
 73
     0
 74
     0
 77
     1
 78
    11
140
24.4326171875
141
0.0
143
1.0
147
10.0
171
     1
174
     1
178
     0
179
     2
271
     1
272
     1
276
     2
284
    11
285
    11
286
    11
289
     0
340
39
341
4E
342
4E
  0
DIMSTYLE
105
383
330
9
100
AcDbSymbolTableRecord
100
AcDbDimStyleTableRecord
  2
ARIAL
 70
     0
 41
10.0
 42
3.0
 43
0.5
 44
3.0
 73
     0
 74
     0
 77
     1
 78
     8
140
12.0
141
0.0
146
0.5
147
4.0
171
     1
172
     1
178
     0
271
     1
289
     0
340
384
  0
DIMSTYLE
105
D60
330
9
100
AcDbSymbolTableRecord
100
AcDbDimStyleTableRecord
  2
ISO-25
 70
     0
 41
2.5
 42
0.625
 43
3.75
 44
1.25
 73
     0
 74
     0
 77
     1
 78
     8
140
2.5
141
2.5
143
0.0393700787
147
0.625
171
     3
172
     1
178
     0
271
     2
272
     2
274
     3
278
    44
283
     0
284
     8
340
17
  0
DIMSTYLE
105
D62
102
{ACAD_REACTORS
102
}
330
9
100
AcDbSymbolTableRecord
100
AcDbDimStyleTableRecord
  2
$DDT_AUDIT_GENERATED_(202)
 70
     0
 41
6.0
 42
0.0
 44
3.0
 78
     8
140
6.0
141
3.0
144
3.000003
147
3.0
173
     1
176
   136
177
   136
271
     0
178
   136
271
     0
272
     0
278
    44
284
     8
340
D63
343
D64
344
D64
  0
ENDTAB
  0
TABLE
  2
BLOCK_RECORD
  5
1
330
0
100
AcDbSymbolTable
 70
    17
  0
BLOCK_RECORD
  5
A
330
1
100
AcDbSymbolTableRecord
100
AcDbBlockTableRecord
  2
*MODEL_SPACE
340
20
 70
     0
280
     1
281
     0
  0
BLOCK_RECORD
  5
B
330
1
100
AcDbSymbolTableRecord
100
AcDbBlockTableRecord
  2
*PAPER_SPACE
340
21
 70
     0
280
     1
281
     0
  0
BLOCK_RECORD
  5
4E
330
1
100
AcDbSymbolTableRecord
100
AcDbBlockTableRecord
  2
_DOT
340
0
102
{BLKREFS
331
113E
331
113F
331
114B
331
114C
331
1159
331
115A
331
1166
331
1167
331
11D2
331
11D3
331
11FA
331
11FB
102
}
 70
     0
280
     1
281
     0
  0
BLOCK_RECORD
  5
68A
330
1
100
AcDbSymbolTableRecord
100
AcDbBlockTableRecord
  2
名称未設定-1
340
0
102
{BLKREFS
331
6B5
102
}
 70
     1
280
     1
281
     0
  0
BLOCK_RECORD
  5
68D
330
1
100
AcDbSymbolTableRecord
100
AcDbBlockTableRecord
  2
block 2
340
0
102
{BLKREFS
331
68C
102
}
 70
     0
280
     1
281
     0
  0
BLOCK_RECORD
  5
690
330
1
100
AcDbSymbolTableRecord
100
AcDbBlockTableRecord
  2
block 3
340
0
102
{BLKREFS
331
68F
102
}
 70
     0
280
     1
281
     0
  0
BLOCK_RECORD
  5
693
330
1
100
AcDbSymbolTableRecord
100
AcDbBlockTableRecord
  2
block 4
340
0
102
{BLKREFS
331
692
102
}
 70
     0
280
     1
281
     0
  0
BLOCK_RECORD
  5
6A2
330
1
100
AcDbSymbolTableRecord
100
AcDbBlockTableRecord
  2
block 5
340
0
102
{BLKREFS
331
6A1
102
}
 70
     0
280
     1
281
     0
  0
BLOCK_RECORD
  5
D64
330
1
100
AcDbSymbolTableRecord
100
AcDbBlockTableRecord
  2
_SE_FILLED
340
0
102
{BLKREFS
331
F45
331
F46
331
F52
331
F53
331
F5E
331
F73
331
F67
331
F68
102
}
 70
     0
280
     1
281
     0
1001
ACAD
1000
DesignCenter Data
1002
{
1070
     1
1070
     0
1002
}
  0
BLOCK_RECORD
  5
F3F
330
1
100
AcDbSymbolTableRecord
100
AcDbBlockTableRecord
  2
DMBLK1
340
0
 70
     0
280
     1
281
     0
1001
ACAD
1000
DesignCenter Data
1002
{
1070
     1
1070
     0
1002
}
  0
BLOCK_RECORD
  5
F4C
330
1
100
AcDbSymbolTableRecord
100
AcDbBlockTableRecord
  2
DMBLK2
340
0
 70
     0
280
     1
281
     0
1001
ACAD
1000
DesignCenter Data
1002
{
1070
     1
1070
     0
1002
}
  0
BLOCK_RECORD
  5
F57
330
1
100
AcDbSymbolTableRecord
100
AcDbBlockTableRecord
  2
DMBLK3
340
0
 70
     0
280
     1
281
     0
1001
ACAD
1000
DesignCenter Data
1002
{
1070
     1
1070
     0
1002
}
  0
BLOCK_RECORD
  5
F61
330
1
100
AcDbSymbolTableRecord
100
AcDbBlockTableRecord
  2
DMBLK4
340
0
 70
     0
280
     1
281
     0
1001
ACAD
1000
DesignCenter Data
1002
{
1070
     1
1070
     0
1002
}
  0
BLOCK_RECORD
  5
1138
330
1
100
AcDbSymbolTableRecord
100
AcDbBlockTableRecord
  2
*D11
340
0
 70
     0
280
     1
281
     0
  0
BLOCK_RECORD
  5
1145
330
1
100
AcDbSymbolTableRecord
100
AcDbBlockTableRecord
  2
*D12
340
0
 70
     0
280
     1
281
     0
  0
BLOCK_RECORD
  5
1152
330
1
100
AcDbSymbolTableRecord
100
AcDbBlockTableRecord
  2
*D13
340
0
 70
     0
280
     1
281
     0
  0
BLOCK_RECORD
  5
1160
330
1
100
AcDbSymbolTableRecord
100
AcDbBlockTableRecord
  2
*D14
340
0
 70
     0
280
     1
281
     0
  0
BLOCK_RECORD
  5
11CC
330
1
100
AcDbSymbolTableRecord
100
AcDbBlockTableRecord
  2
*D15
340
0
 70
     0
280
     1
281
     0
  0
BLOCK_RECORD
  5
11F3
330
1
100
AcDbSymbolTableRecord
100
AcDbBlockTableRecord
  2
*D16
340
0
 70
     0
280
     1
281
     0
  0
ENDTAB
  0
ENDSEC
  0
SECTION
  2
BLOCKS
  0
BLOCK
  5
D
330
A
100
AcDbEntity
  8
0
390
1D
100
AcDbBlockBegin
  2
*MODEL_SPACE
 70
     0
 10
0.0
 20
0.0
 30
0.0
  3
*MODEL_SPACE
  1
*MODEL_SPACE
  0
ENDBLK
  5
E
330
A
100
AcDbEntity
  8
0
390
1D
100
AcDbBlockEnd
  0
BLOCK
  5
F
330
B
100
AcDbEntity
 67
     1
  8
0
390
1D
100
AcDbBlockBegin
  2
*PAPER_SPACE
 70
     0
 10
0.0
 20
0.0
 30
0.0
  3
*PAPER_SPACE
  1
*PAPER_SPACE
  0
ENDBLK
  5
10
330
B
100
AcDbEntity
 67
     1
  8
0
390
1D
100
AcDbBlockEnd
  0
BLOCK
  5
11E8
330
4E
100
AcDbEntity
  8
0
390
1D
100
AcDbBlockBegin
  2
_DOT
 70
     0
 10
0.0
 20
0.0
 30
0.0
  3
_DOT
  1
_DOT
  0
POLYLINE
  5
11EA
330
4E
100
AcDbEntity
  8
0
  6
ByBlock
 62
     0
370
    -2
390
1D
100
AcDb2dPolyline
 66
     1
 10
0.0
 20
0.0
 30
0.0
 70
     1
 40
0.5
 41
0.5
  0
VERTEX
  5
11EB
330
11EA
100
AcDbEntity
  8
0
  6
ByBlock
 62
     0
370
    -2
390
1D
100
AcDbVertex
100
AcDb2dVertex
 10
-0.25
 20
0.0
 30
0.0
 42
1.0
  0
VERTEX
  5
11EC
330
11EA
100
AcDbEntity
  8
0
  6
ByBlock
 62
     0
370
    -2
390
1D
100
AcDbVertex
100
AcDb2dVertex
 10
0.25
 20
0.0
 30
0.0
 42
1.0
  0
SEQEND
  5
11ED
330
11EA
100
AcDbEntity
  8
0
390
1D
  0
LINE
  5
11EE
330
4E
100
AcDbEntity
  8
0
  6
ByBlock
 62
     0
370
    -2
390
1D
100
AcDbLine
 10
-0.5
 20
0.0
 30
0.0
 11
-1.0
 21
0.0
 31
0.0
  0
ENDBLK
  5
11EF
330
4E
100
AcDbEntity
  8
0
390
1D
100
AcDbBlockEnd
  0
BLOCK
  5
68B
330
68A
100
AcDbEntity
  8
0
100
AcDbBlockBegin
  2
名称未設定-1
 70
     0
 10
0.0
 20
0.0
 30
0.0
  3
名称未設定-1
  1
名称未設定-1
  0
INSERT
  5
68F
330
68A
100
AcDbEntity
  8
LOGO
100
AcDbBlockReference
  2
block 3
 10
0.0
 20
0.0
 30
0.0
  0
ENDBLK
  5
6B1
330
68A
100
AcDbEntity
  8
0
100
AcDbBlockEnd
  0
BLOCK
  5
68E
330
68D
100
AcDbEntity
  8
0
100
AcDbBlockBegin
  2
block 2
 70
     0
 10
0.0
 20
0.0
 30
0.0
  3
block 2
  1
block 2
  0
ENDBLK
  5
6B0
330
68D
100
AcDbEntity
  8
0
100
AcDbBlockEnd
  0
BLOCK
  5
691
330
690
100
AcDbEntity
  8
0
100
AcDbBlockBegin
  2
block 3
 70
     0
 10
0.0
 20
0.0
 30
0.0
  3
block 3
  1
block 3
  0
INSERT
  5
692
330
690
100
AcDbEntity
  8
LOGO
100
AcDbBlockReference
  2
block 4
 10
0.0
 20
0.0
 30
0.0
  0
INSERT
  5
6A1
330
690
100
AcDbEntity
  8
LOGO
100
AcDbBlockReference
  2
block 5
 10
0.0
 20
0.0
 30
0.0
  0
ENDBLK
  5
6AF
330
690
100
AcDbEntity
  8
0
100
AcDbBlockEnd
  0
BLOCK
  5
694
330
693
100
AcDbEntity
  8
0
100
AcDbBlockBegin
  2
block 4
 70
     0
 10
0.0
 20
0.0
 30
0.0
  3
block 4
  1
block 4
  0
POLYLINE
  5
695
330
693
100
AcDbEntity
  8
LOGO
370
     0
100
AcDb2dPolyline
 66
     1
 10
0.0
 20
0.0
 30
0.0
  0
VERTEX
  5
696
330
695
100
AcDbEntity
  8
LOGO
370
     0
100
AcDbVertex
100
AcDb2dVertex
 10
83.79545727667795
 20
167.6444858234922
 30
0.0
  0
VERTEX
  5
697
330
695
100
AcDbEntity
  8
LOGO
370
     0
100
AcDbVertex
100
AcDb2dVertex
 10
83.79545727667795
 20
159.7968976406313
 30
0.0
  0
VERTEX
  5
698
330
695
100
AcDbEntity
  8
LOGO
370
     0
100
AcDbVertex
100
AcDb2dVertex
 10
71.3631329975216
 20
159.7968976406313
 30
0.0
  0
VERTEX
  5
699
330
695
100
AcDbEntity
  8
LOGO
370
     0
100
AcDbVertex
100
AcDb2dVertex
 10
71.3631329975216
 20
127.8027915271048
 30
0.0
  0
VERTEX
  5
69A
330
695
100
AcDbEntity
  8
LOGO
370
     0
100
AcDbVertex
100
AcDb2dVertex
 10
60.43011526263018
 20
127.8027915271048
 30
0.0
  0
VERTEX
  5
69B
330
695
100
AcDbEntity
  8
LOGO
370
     0
100
AcDbVertex
100
AcDb2dVertex
 10
60.43011526263018
 20
159.7968976406313
 30
0.0
  0
VERTEX
  5
69C
330
695
100
AcDbEntity
  8
LOGO
370
     0
100
AcDbVertex
100
AcDb2dVertex
 10
48.21793273020759
 20
159.7968976406313
 30
0.0
  0
VERTEX
  5
69D
330
695
100
AcDbEntity
  8
LOGO
370
     0
100
AcDbVertex
100
AcDb2dVertex
 10
48.21793273020759
 20
167.6444858234922
 30
0.0
  0
VERTEX
  5
69E
330
695
100
AcDbEntity
  8
LOGO
370
     0
100
AcDbVertex
100
AcDb2dVertex
 10
83.79545727667795
 20
167.6444858234922
 30
0.0
  0
SEQEND
  5
69F
330
695
100
AcDbEntity
  8
LOGO
370
     0
  0
HATCH
  5
6A0
330
693
100
AcDbEntity
  8
LOGO
 62
   250
420
  2234388
100
AcDbHatch
 10
0.0
 20
0.0
 30
0.0
210
0.0
220
0.0
230
1.0
  2
SOLID
 70
     1
 71
     0
 91
        1
 92
        1
 93
        8
 72
     1
 10
83.79545727667795
 20
167.6444858234922
 11
83.79545727667795
 21
159.7968976406313
 72
     1
 10
83.79545727667795
 20
159.7968976406313
 11
71.3631329975216
 21
159.7968976406313
 72
     1
 10
71.3631329975216
 20
159.7968976406313
 11
71.3631329975216
 21
127.8027915271048
 72
     1
 10
71.3631329975216
 20
127.8027915271048
 11
60.43011526263018
 21
127.8027915271048
 72
     1
 10
60.43011526263018
 20
127.8027915271048
 11
60.43011526263018
 21
159.7968976406313
 72
     1
 10
60.43011526263018
 20
159.7968976406313
 11
48.21793273020759
 21
159.7968976406313
 72
     1
 10
48.21793273020759
 20
159.7968976406313
 11
48.21793273020759
 21
167.6444858234922
 72
     1
 10
48.21793273020759
 20
167.6444858234922
 11
83.79545727667795
 21
167.6444858234922
 97
        0
 75
     2
 76
     1
 98
        0
  0
ENDBLK
  5
6AE
330
693
100
AcDbEntity
  8
0
100
AcDbBlockEnd
  0
BLOCK
  5
6A3
330
6A2
100
AcDbEntity
  8
0
100
AcDbBlockBegin
  2
block 5
 70
     0
 10
0.0
 20
0.0
 30
0.0
  3
block 5
  1
block 5
  0
SPLINE
  5
6A4
330
6A2
100
AcDbEntity
  8
LOGO
370
     0
100
AcDbSpline
210
0.0
220
0.0
230
1.0
 70
    11
 71
     3
 72
    56
 73
    52
 74
     0
 42
0.000000001
 43
0.0000000001
 40
0.0
 40
0.0
 40
0.0
 40
0.0
 40
1.0
 40
1.0
 40
1.0
 40
2.0
 40
2.0
 40
2.0
 40
3.0
 40
3.0
 40
3.0
 40
4.0
 40
4.0
 40
4.0
 40
5.0
 40
5.0
 40
5.0
 40
6.0
 40
6.0
 40
6.0
 40
7.0
 40
7.0
 40
7.0
 40
8.0
 40
8.0
 40
8.0
 40
9.0
 40
9.0
 40
9.0
 40
10.0
 40
10.0
 40
10.0
 40
11.0
 40
11.0
 40
11.0
 40
12.0
 40
12.0
 40
12.0
 40
13.0
 40
13.0
 40
13.0
 40
14.0
 40
14.0
 40
14.0
 40
15.0
 40
15.0
 40
15.0
 40
16.0
 40
16.0
 40
16.0
 40
17.0
 40
17.0
 40
17.0
 40
17.0
 10
100.4504378777679
 20
166.69157178364
 30
0.0
 10
101.9848844191641
 20
167.1313385124438
 30
0.0
 10
103.9637485713373
 20
166.7649523658846
 30
0.0
 10
103.9637485713373
 20
166.7649523658846
 30
0.0
 10
103.9637485713373
 20
166.7649523658846
 30
0.0
 10
103.0132460999156
 20
163.911205638077
 30
0.0
 10
103.0132460999156
 20
163.911205638077
 30
0.0
 10
103.0132460999156
 20
163.911205638077
 30
0.0
 10
101.0674548862189
 20
164.3601018759394
 30
0.0
 10
99.57090442016032
 20
163.1805004036133
 30
0.0
 10
98.40508333886608
 20
162.258247733807
 30
0.0
 10
97.65301849830304
 20
159.804132345923
 30
0.0
 10
97.3598406791005
 20
158.8699940888517
 30
0.0
 10
97.3598406791005
 20
158.8699940888517
 30
0.0
 10
96.07137411762282
 20
154.9119212747295
 30
0.0
 10
96.07137411762282
 20
154.9119212747295
 30
0.0
 10
96.07137411762282
 20
154.9119212747295
 30
0.0
 10
100.3012651448482
 20
154.9119212747295
 30
0.0
 10
100.3012651448482
 20
154.9119212747295
 30
0.0
 10
100.3012651448482
 20
154.9119212747295
 30
0.0
 10
99.64152892419852
 20
152.4199098115079
 30
0.0
 10
99.64152892419852
 20
152.4199098115079
 30
0.0
 10
99.64152892419852
 20
152.4199098115079
 30
0.0
 10
95.38097652692731
 20
152.4199098115079
 30
0.0
 10
95.38097652692731
 20
152.4199098115079
 30
0.0
 10
95.38097652692731
 20
152.4199098115079
 30
0.0
 10
87.75353009080013
 20
127.8027915271048
 30
0.0
 10
87.75353009080013
 20
127.8027915271048
 30
0.0
 10
87.75353009080013
 20
127.8027915271048
 30
0.0
 10
85.36538832498108
 20
127.8027915271048
 30
0.0
 10
85.36538832498108
 20
127.8027915271048
 30
0.0
 10
85.36538832498108
 20
127.8027915271048
 30
0.0
 10
93.00006946639998
 20
152.4199098115079
 30
0.0
 10
93.00006946639998
 20
152.4199098115079
 30
0.0
 10
93.00006946639998
 20
152.4199098115079
 30
0.0
 10
89.85297266450198
 20
152.4199098115079
 30
0.0
 10
89.85297266450198
 20
152.4199098115079
 30
0.0
 10
89.85297266450198
 20
152.4199098115079
 30
0.0
 10
90.51270888515164
 20
154.9119212747295
 30
0.0
 10
90.51270888515164
 20
154.9119212747295
 30
0.0
 10
90.51270888515164
 20
154.9119212747295
 30
0.0
 10
93.6904670570955
 20
154.9119212747295
 30
0.0
 10
93.6904670570955
 20
154.9119212747295
 30
0.0
 10
93.6904670570955
 20
154.9119212747295
 30
0.0
 10
94.81598049462158
 20
158.3616699146644
 30
0.0
 10
94.81598049462158
 20
158.3616699146644
 30
0.0
 10
95.7237637538445
 20
161.2605474231013
 30
0.0
 10
96.4968436907311
 20
162.8139420021662
 30
0.0
 10
97.15657991138076
 20
163.9844139654337
 30
0.0
 10
97.81183750494507
 20
165.1523021053827
 30
0.0
 10
99.1047826935081
 20
166.3084769129547
 30
0.0
 10
100.4504378777679
 20
166.69157178364
 30
0.0
  0
HATCH
  5
6A5
330
6A2
100
AcDbEntity
  8
LOGO
 62
   250
420
  2234388
100
AcDbHatch
 10
0.0
 20
0.0
 30
0.0
210
0.0
220
0.0
230
1.0
  2
SOLID
 70
     1
 71
     0
 91
        1
 92
        1
 93
        1
 72
     4
 94
        3
 73
     0
 74
     1
 95
       56
 96
       52
 40
0.0
 40
0.0
 40
0.0
 40
0.0
 40
1.0
 40
1.0
 40
1.0
 40
2.0
 40
2.0
 40
2.0
 40
3.0
 40
3.0
 40
3.0
 40
4.0
 40
4.0
 40
4.0
 40
5.0
 40
5.0
 40
5.0
 40
6.0
 40
6.0
 40
6.0
 40
7.0
 40
7.0
 40
7.0
 40
8.0
 40
8.0
 40
8.0
 40
9.0
 40
9.0
 40
9.0
 40
10.0
 40
10.0
 40
10.0
 40
11.0
 40
11.0
 40
11.0
 40
12.0
 40
12.0
 40
12.0
 40
13.0
 40
13.0
 40
13.0
 40
14.0
 40
14.0
 40
14.0
 40
15.0
 40
15.0
 40
15.0
 40
16.0
 40
16.0
 40
16.0
 40
17.0
 40
17.0
 40
17.0
 40
17.0
 10
100.4504378777679
 20
166.69157178364
 10
101.9848844191641
 20
167.1313385124438
 10
103.9637485713373
 20
166.7649523658846
 10
103.9637485713373
 20
166.7649523658846
 10
103.9637485713373
 20
166.7649523658846
 10
103.0132460999156
 20
163.911205638077
 10
103.0132460999156
 20
163.911205638077
 10
103.0132460999156
 20
163.911205638077
 10
101.0674548862189
 20
164.3601018759394
 10
99.57090442016032
 20
163.1805004036133
 10
98.40508333886608
 20
162.258247733807
 10
97.65301849830304
 20
159.804132345923
 10
97.3598406791005
 20
158.8699940888517
 10
97.3598406791005
 20
158.8699940888517
 10
96.07137411762282
 20
154.9119212747295
 10
96.07137411762282
 20
154.9119212747295
 10
96.07137411762282
 20
154.9119212747295
 10
100.3012651448482
 20
154.9119212747295
 10
100.3012651448482
 20
154.9119212747295
 10
100.3012651448482
 20
154.9119212747295
 10
99.64152892419852
 20
152.4199098115079
 10
99.64152892419852
 20
152.4199098115079
 10
99.64152892419852
 20
152.4199098115079
 10
95.38097652692731
 20
152.4199098115079
 10
95.38097652692731
 20
152.4199098115079
 10
95.38097652692731
 20
152.4199098115079
 10
87.75353009080013
 20
127.8027915271048
 10
87.75353009080013
 20
127.8027915271048
 10
87.75353009080013
 20
127.8027915271048
 10
85.36538832498108
 20
127.8027915271048
 10
85.36538832498108
 20
127.8027915271048
 10
85.36538832498108
 20
127.8027915271048
 10
93.00006946639998
 20
152.4199098115079
 10
93.00006946639998
 20
152.4199098115079
 10
93.00006946639998
 20
152.4199098115079
 10
89.85297266450198
 20
152.4199098115079
 10
89.85297266450198
 20
152.4199098115079
 10
89.85297266450198
 20
152.4199098115079
 10
90.51270888515164
 20
154.9119212747295
 10
90.51270888515164
 20
154.9119212747295
 10
90.51270888515164
 20
154.9119212747295
 10
93.6904670570955
 20
154.9119212747295
 10
93.6904670570955
 20
154.9119212747295
 10
93.6904670570955
 20
154.9119212747295
 10
94.81598049462158
 20
158.3616699146644
 10
94.81598049462158
 20
158.3616699146644
 10
95.7237637538445
 20
161.2605474231013
 10
96.4968436907311
 20
162.8139420021662
 10
97.15657991138076
 20
163.9844139654337
 10
97.81183750494507
 20
165.1523021053827
 10
99.1047826935081
 20
166.3084769129547
 10
100.4504378777679
 20
166.69157178364
 97
        0
 75
     2
 76
     1
 98
        0
  0
SPLINE
  5
6A6
330
6A2
100
AcDbEntity
  8
LOGO
370
     0
100
AcDbSpline
210
0.0
220
0.0
230
1.0
 70
    11
 71
     3
 72
    38
 73
    34
 74
     0
 42
0.000000001
 43
0.0000000001
 40
0.0
 40
0.0
 40
0.0
 40
0.0
 40
1.0
 40
1.0
 40
1.0
 40
2.0
 40
2.0
 40
2.0
 40
3.0
 40
3.0
 40
3.0
 40
4.0
 40
4.0
 40
4.0
 40
5.0
 40
5.0
 40
5.0
 40
6.0
 40
6.0
 40
6.0
 40
7.0
 40
7.0
 40
7.0
 40
8.0
 40
8.0
 40
8.0
 40
9.0
 40
9.0
 40
9.0
 40
10.0
 40
10.0
 40
10.0
 40
11.0
 40
11.0
 40
11.0
 40
11.0
 10
126.377554584636
 20
154.8151140277308
 30
0.0
 10
126.377554584636
 20
154.8151140277308
 30
0.0
 10
128.8311532078563
 20
154.8151140277308
 30
0.0
 10
128.8311532078563
 20
154.8151140277308
 30
0.0
 10
128.8311532078563
 20
154.8151140277308
 30
0.0
 10
127.7345785914971
 20
151.3062819612468
 30
0.0
 10
127.7345785914971
 20
151.3062819612468
 30
0.0
 10
128.571392836906
 20
152.2922689395754
 30
0.0
 10
129.8860421413442
 20
153.604506675583
 30
0.0
 10
131.0163787157314
 20
154.2664822097754
 30
0.0
 10
132.7044766171327
 20
155.2500576196734
 30
0.0
 10
133.6642808525008
 20
155.3847609420097
 30
0.0
 10
134.7284715499351
 20
155.3565111403944
 30
0.0
 10
134.7284715499351
 20
155.3565111403944
 30
0.0
 10
133.6877075172549
 20
152.0345756272799
 30
0.0
 10
133.6877075172549
 20
152.0345756272799
 30
0.0
 10
133.011434827367
 20
152.3184516825359
 30
0.0
 10
130.930940291334
 20
151.7768823149844
 30
0.0
 10
129.739280976855
 20
150.9162968950455
 30
0.0
 10
128.66613302525
 20
150.1454562717016
 30
0.0
 10
127.9192358313239
 20
149.4857200510519
 30
0.0
 10
127.0393578639405
 20
147.8282835196966
 30
0.0
 10
126.164647543194
 20
146.1699857139017
 30
0.0
 10
125.4742499524985
 20
143.5262176944419
 30
0.0
 10
124.2822461282437
 20
139.6959580071401
 30
0.0
 10
124.2822461282437
 20
139.6959580071401
 30
0.0
 10
120.5753209406769
 20
127.8027915271048
 30
0.0
 10
120.5753209406769
 20
127.8027915271048
 30
0.0
 10
120.5753209406769
 20
127.8027915271048
 30
0.0
 10
118.1964809388044
 20
127.8027915271048
 30
0.0
 10
118.1964809388044
 20
127.8027915271048
 30
0.0
 10
118.1964809388044
 20
127.8027915271048
 30
0.0
 10
126.377554584636
 20
154.8151140277308
 30
0.0
 10
126.377554584636
 20
154.8151140277308
 30
0.0
  0
HATCH
  5
6A7
330
6A2
100
AcDbEntity
  8
LOGO
 62
   250
420
  2234388
100
AcDbHatch
 10
0.0
 20
0.0
 30
0.0
210
0.0
220
0.0
230
1.0
  2
SOLID
 70
     1
 71
     0
 91
        1
 92
        1
 93
        1
 72
     4
 94
        3
 73
     0
 74
     1
 95
       38
 96
       34
 40
0.0
 40
0.0
 40
0.0
 40
0.0
 40
1.0
 40
1.0
 40
1.0
 40
2.0
 40
2.0
 40
2.0
 40
3.0
 40
3.0
 40
3.0
 40
4.0
 40
4.0
 40
4.0
 40
5.0
 40
5.0
 40
5.0
 40
6.0
 40
6.0
 40
6.0
 40
7.0
 40
7.0
 40
7.0
 40
8.0
 40
8.0
 40
8.0
 40
9.0
 40
9.0
 40
9.0
 40
10.0
 40
10.0
 40
10.0
 40
11.0
 40
11.0
 40
11.0
 40
11.0
 10
126.377554584636
 20
154.8151140277308
 10
126.377554584636
 20
154.8151140277308
 10
128.8311532078563
 20
154.8151140277308
 10
128.8311532078563
 20
154.8151140277308
 10
128.8311532078563
 20
154.8151140277308
 10
127.7345785914971
 20
151.3062819612468
 10
127.7345785914971
 20
151.3062819612468
 10
128.571392836906
 20
152.2922689395754
 10
129.8860421413442
 20
153.604506675583
 10
131.0163787157314
 20
154.2664822097754
 10
132.7044766171327
 20
155.2500576196734
 10
133.6642808525008
 20
155.3847609420097
 10
134.7284715499351
 20
155.3565111403944
 10
134.7284715499351
 20
155.3565111403944
 10
133.6877075172549
 20
152.0345756272799
 10
133.6877075172549
 20
152.0345756272799
 10
133.011434827367
 20
152.3184516825359
 10
130.930940291334
 20
151.7768823149844
 10
129.739280976855
 20
150.9162968950455
 10
128.66613302525
 20
150.1454562717016
 10
127.9192358313239
 20
149.4857200510519
 10
127.0393578639405
 20
147.8282835196966
 10
126.164647543194
 20
146.1699857139017
 10
125.4742499524985
 20
143.5262176944419
 10
124.2822461282437
 20
139.6959580071401
 10
124.2822461282437
 20
139.6959580071401
 10
120.5753209406769
 20
127.8027915271048
 10
120.5753209406769
 20
127.8027915271048
 10
120.5753209406769
 20
127.8027915271048
 10
118.1964809388044
 20
127.8027915271048
 10
118.1964809388044
 20
127.8027915271048
 10
118.1964809388044
 20
127.8027915271048
 10
126.377554584636
 20
154.8151140277308
 10
126.377554584636
 20
154.8151140277308
 97
        0
 75
     2
 76
     1
 98
        0
  0
SPLINE
  5
6A8
330
6A2
100
AcDbEntity
  8
LOGO
370
     0
100
AcDbSpline
210
0.0
220
0.0
230
1.0
 70
    11
 71
     3
 72
   104
 73
   100
 74
     0
 42
0.000000001
 43
0.0000000001
 40
0.0
 40
0.0
 40
0.0
 40
0.0
 40
1.0
 40
1.0
 40
1.0
 40
2.0
 40
2.0
 40
2.0
 40
3.0
 40
3.0
 40
3.0
 40
4.0
 40
4.0
 40
4.0
 40
5.0
 40
5.0
 40
5.0
 40
6.0
 40
6.0
 40
6.0
 40
7.0
 40
7.0
 40
7.0
 40
8.0
 40
8.0
 40
8.0
 40
9.0
 40
9.0
 40
9.0
 40
10.0
 40
10.0
 40
10.0
 40
11.0
 40
11.0
 40
11.0
 40
12.0
 40
12.0
 40
12.0
 40
13.0
 40
13.0
 40
13.0
 40
14.0
 40
14.0
 40
14.0
 40
15.0
 40
15.0
 40
15.0
 40
16.0
 40
16.0
 40
16.0
 40
17.0
 40
17.0
 40
17.0
 40
18.0
 40
18.0
 40
18.0
 40
19.0
 40
19.0
 40
19.0
 40
20.0
 40
20.0
 40
20.0
 40
21.0
 40
21.0
 40
21.0
 40
22.0
 40
22.0
 40
22.0
 40
23.0
 40
23.0
 40
23.0
 40
24.0
 40
24.0
 40
24.0
 40
25.0
 40
25.0
 40
25.0
 40
26.0
 40
26.0
 40
26.0
 40
27.0
 40
27.0
 40
27.0
 40
28.0
 40
28.0
 40
28.0
 40
29.0
 40
29.0
 40
29.0
 40
30.0
 40
30.0
 40
30.0
 40
31.0
 40
31.0
 40
31.0
 40
32.0
 40
32.0
 40
32.0
 40
33.0
 40
33.0
 40
33.0
 40
33.0
 10
139.8926730891197
 20
154.8294111834263
 30
0.0
 10
139.8926730891197
 20
154.8294111834263
 30
0.0
 10
142.0344903652445
 20
154.8294111834263
 30
0.0
 10
142.0344903652445
 20
154.8294111834263
 30
0.0
 10
142.0344903652445
 20
154.8294111834263
 30
0.0
 10
140.9516961399171
 20
151.3157559800812
 30
0.0
 10
140.9516961399171
 20
151.3157559800812
 30
0.0
 10
141.8928968473923
 20
152.7887075264977
 30
0.0
 10
142.7341897198865
 20
153.4484437471474
 30
0.0
 10
143.8552245303272
 20
154.2926649527359
 30
0.0
 10
144.9803934580775
 20
155.1296514530327
 30
0.0
 10
146.3139908001845
 20
155.3044901642492
 30
0.0
 10
147.241066606852
 20
155.3044901642492
 30
0.0
 10
148.3855280820469
 20
155.3044901642492
 30
0.0
 10
149.4969166187653
 20
155.0752189084569
 30
0.0
 10
150.0784491203092
 20
153.8172414621372
 30
0.0
 10
150.5228667310863
 20
152.833838307127
 30
0.0
 10
150.5414702589793
 20
152.7201500811143
 30
0.0
 10
150.4140016419347
 20
150.7765981809602
 30
0.0
 10
151.5818897818837
 20
152.7699317437168
 30
0.0
 10
152.4424752018226
 20
153.6256940267945
 30
0.0
 10
153.9038856707499
 20
154.4507949398263
 30
0.0
 10
155.4455669174378
 20
155.3044901642492
 30
0.0
 10
156.339225275853
 20
155.3659851592288
 30
0.0
 10
157.3748216618963
 20
155.2147453676543
 30
0.0
 10
158.911679771723
 20
154.9877134254046
 30
0.0
 10
159.8859534176746
 20
154.4390816074493
 30
0.0
 10
160.3965169054045
 20
152.7816450760939
 30
0.0
 10
160.9070803931344
 20
151.1219692311958
 30
0.0
 10
160.6328506116007
 20
150.2303779314354
 30
0.0
 10
159.9992971339115
 20
147.597634224801
 30
0.0
 10
159.7105979417943
 20
146.4014962832367
 30
0.0
 10
159.2947746424084
 20
144.9400858143094
 30
0.0
 10
158.7463150793409
 20
143.2092687007094
 30
0.0
 10
158.7463150793409
 20
143.2092687007094
 30
0.0
 10
153.9038856707499
 20
127.8027915271048
 30
0.0
 10
153.9038856707499
 20
127.8027915271048
 30
0.0
 10
153.9038856707499
 20
127.8027915271048
 30
0.0
 10
151.3882752878863
 20
127.8027915271048
 30
0.0
 10
151.3882752878863
 20
127.8027915271048
 30
0.0
 10
151.3882752878863
 20
127.8027915271048
 30
0.0
 10
155.6250565106276
 20
141.2751908193897
 30
0.0
 10
155.6250565106276
 20
141.2751908193897
 30
0.0
 10
156.5094131050963
 20
144.0936252951782
 30
0.0
 10
157.109893644309
 20
146.1506931664571
 30
0.0
 10
157.4220195011804
 20
147.4415712963654
 30
0.0
 10
157.8095929989511
 20
149.0530157726519
 30
0.0
 10
157.9656559273867
 20
149.5826995529385
 30
0.0
 10
157.7816877071116
 20
150.7529992613181
 30
0.0
 10
157.6111553680925
 20
151.8430281919372
 30
0.0
 10
157.0582171779396
 20
152.5547853887321
 30
0.0
 10
156.1170164704645
 20
152.5547853887321
 30
0.0
 10
155.1096698860365
 20
152.5547853887321
 30
0.0
 10
154.2962823053817
 20
152.4412694176073
 30
0.0
 10
153.156643967048
 20
151.2945686288697
 30
0.0
 10
152.0170056287143
 20
150.1476955852443
 30
0.0
 10
151.076149431015
 20
148.7930831468137
 30
0.0
 10
150.3337308641742
 20
147.2290087646991
 30
0.0
 10
149.5957909244188
 20
145.6683794803425
 30
0.0
 10
148.8530278478023
 20
143.6822806228776
 30
0.0
 10
148.0964843801539
 20
141.2751908193897
 30
0.0
 10
148.0964843801539
 20
141.2751908193897
 30
0.0
 10
143.8552245303272
 20
127.8027915271048
 30
0.0
 10
143.8552245303272
 20
127.8027915271048
 30
0.0
 10
143.8552245303272
 20
127.8027915271048
 30
0.0
 10
141.486030802177
 20
127.8027915271048
 30
0.0
 10
141.486030802177
 20
127.8027915271048
 30
0.0
 10
141.486030802177
 20
127.8027915271048
 30
0.0
 10
146.3329388378533
 20
143.2092687007094
 30
0.0
 10
146.3329388378533
 20
143.2092687007094
 30
0.0
 10
146.8483254624444
 20
144.8408669988801
 30
0.0
 10
147.2314203331297
 20
146.1837661049335
 30
0.0
 10
147.4867020769946
 20
147.224185627838
 30
0.0
 10
147.9169947869641
 20
149.0197705792876
 30
0.0
 10
148.0306830129768
 20
150.2400242051577
 30
0.0
 10
147.709255392159
 20
151.3157559800812
 30
0.0
 10
147.3874832615654
 20
152.3916600098926
 30
0.0
 10
146.8245542879144
 20
152.6683013598569
 30
0.0
 10
145.8840425999909
 20
152.6683013598569
 30
0.0
 10
145.0989048209514
 20
152.6683013598569
 30
0.0
 10
144.3282364524954
 20
152.3275811915945
 30
0.0
 10
143.4531816219731
 20
151.6538923250251
 30
0.0
 10
142.34627171234
 20
150.8074318058939
 30
0.0
 10
141.901854101563
 20
150.1097995099067
 30
0.0
 10
141.3578731655808
 20
149.289521733736
 30
0.0
 10
140.6299240093235
 20
148.192602607601
 30
0.0
 10
140.2850697237515
 20
147.455696197173
 30
0.0
 10
139.6652966370942
 20
145.8385673095858
 30
0.0
 10
139.0506911970739
 20
144.2214384219986
 30
0.0
 10
138.463991048893
 20
142.3252566160164
 30
0.0
 10
138.0571250036777
 20
141.0154304484394
 30
0.0
 10
138.0571250036777
 20
141.0154304484394
 30
0.0
 10
133.9009590684727
 20
127.8027915271048
 30
0.0
 10
133.9009590684727
 20
127.8027915271048
 30
0.0
 10
133.9009590684727
 20
127.8027915271048
 30
0.0
 10
131.4180771143097
 20
127.8027915271048
 30
0.0
 10
131.4180771143097
 20
127.8027915271048
 30
0.0
 10
131.4180771143097
 20
127.8027915271048
 30
0.0
 10
139.8926730891197
 20
154.8294111834263
 30
0.0
 10
139.8926730891197
 20
154.8294111834263
 30
0.0
  0
HATCH
  5
6A9
330
6A2
100
AcDbEntity
  8
LOGO
 62
   250
420
  2234388
100
AcDbHatch
 10
0.0
 20
0.0
 30
0.0
210
0.0
220
0.0
230
1.0
  2
SOLID
 70
     1
 71
     0
 91
        1
 92
        1
 93
        1
 72
     4
 94
        3
 73
     0
 74
     1
 95
      104
 96
      100
 40
0.0
 40
0.0
 40
0.0
 40
0.0
 40
1.0
 40
1.0
 40
1.0
 40
2.0
 40
2.0
 40
2.0
 40
3.0
 40
3.0
 40
3.0
 40
4.0
 40
4.0
 40
4.0
 40
5.0
 40
5.0
 40
5.0
 40
6.0
 40
6.0
 40
6.0
 40
7.0
 40
7.0
 40
7.0
 40
8.0
 40
8.0
 40
8.0
 40
9.0
 40
9.0
 40
9.0
 40
10.0
 40
10.0
 40
10.0
 40
11.0
 40
11.0
 40
11.0
 40
12.0
 40
12.0
 40
12.0
 40
13.0
 40
13.0
 40
13.0
 40
14.0
 40
14.0
 40
14.0
 40
15.0
 40
15.0
 40
15.0
 40
16.0
 40
16.0
 40
16.0
 40
17.0
 40
17.0
 40
17.0
 40
18.0
 40
18.0
 40
18.0
 40
19.0
 40
19.0
 40
19.0
 40
20.0
 40
20.0
 40
20.0
 40
21.0
 40
21.0
 40
21.0
 40
22.0
 40
22.0
 40
22.0
 40
23.0
 40
23.0
 40
23.0
 40
24.0
 40
24.0
 40
24.0
 40
25.0
 40
25.0
 40
25.0
 40
26.0
 40
26.0
 40
26.0
 40
27.0
 40
27.0
 40
27.0
 40
28.0
 40
28.0
 40
28.0
 40
29.0
 40
29.0
 40
29.0
 40
30.0
 40
30.0
 40
30.0
 40
31.0
 40
31.0
 40
31.0
 40
32.0
 40
32.0
 40
32.0
 40
33.0
 40
33.0
 40
33.0
 40
33.0
 10
139.8926730891197
 20
154.8294111834263
 10
139.8926730891197
 20
154.8294111834263
 10
142.0344903652445
 20
154.8294111834263
 10
142.0344903652445
 20
154.8294111834263
 10
142.0344903652445
 20
154.8294111834263
 10
140.9516961399171
 20
151.3157559800812
 10
140.9516961399171
 20
151.3157559800812
 10
141.8928968473923
 20
152.7887075264977
 10
142.7341897198865
 20
153.4484437471474
 10
143.8552245303272
 20
154.2926649527359
 10
144.9803934580775
 20
155.1296514530327
 10
146.3139908001845
 20
155.3044901642492
 10
147.241066606852
 20
155.3044901642492
 10
148.3855280820469
 20
155.3044901642492
 10
149.4969166187653
 20
155.0752189084569
 10
150.0784491203092
 20
153.8172414621372
 10
150.5228667310863
 20
152.833838307127
 10
150.5414702589793
 20
152.7201500811143
 10
150.4140016419347
 20
150.7765981809602
 10
151.5818897818837
 20
152.7699317437168
 10
152.4424752018226
 20
153.6256940267945
 10
153.9038856707499
 20
154.4507949398263
 10
155.4455669174378
 20
155.3044901642492
 10
156.339225275853
 20
155.3659851592288
 10
157.3748216618963
 20
155.2147453676543
 10
158.911679771723
 20
154.9877134254046
 10
159.8859534176746
 20
154.4390816074493
 10
160.3965169054045
 20
152.7816450760939
 10
160.9070803931344
 20
151.1219692311958
 10
160.6328506116007
 20
150.2303779314354
 10
159.9992971339115
 20
147.597634224801
 10
159.7105979417943
 20
146.4014962832367
 10
159.2947746424084
 20
144.9400858143094
 10
158.7463150793409
 20
143.2092687007094
 10
158.7463150793409
 20
143.2092687007094
 10
153.9038856707499
 20
127.8027915271048
 10
153.9038856707499
 20
127.8027915271048
 10
153.9038856707499
 20
127.8027915271048
 10
151.3882752878863
 20
127.8027915271048
 10
151.3882752878863
 20
127.8027915271048
 10
151.3882752878863
 20
127.8027915271048
 10
155.6250565106276
 20
141.2751908193897
 10
155.6250565106276
 20
141.2751908193897
 10
156.5094131050963
 20
144.0936252951782
 10
157.109893644309
 20
146.1506931664571
 10
157.4220195011804
 20
147.4415712963654
 10
157.8095929989511
 20
149.0530157726519
 10
157.9656559273867
 20
149.5826995529385
 10
157.7816877071116
 20
150.7529992613181
 10
157.6111553680925
 20
151.8430281919372
 10
157.0582171779396
 20
152.5547853887321
 10
156.1170164704645
 20
152.5547853887321
 10
155.1096698860365
 20
152.5547853887321
 10
154.2962823053817
 20
152.4412694176073
 10
153.156643967048
 20
151.2945686288697
 10
152.0170056287143
 20
150.1476955852443
 10
151.076149431015
 20
148.7930831468137
 10
150.3337308641742
 20
147.2290087646991
 10
149.5957909244188
 20
145.6683794803425
 10
148.8530278478023
 20
143.6822806228776
 10
148.0964843801539
 20
141.2751908193897
 10
148.0964843801539
 20
141.2751908193897
 10
143.8552245303272
 20
127.8027915271048
 10
143.8552245303272
 20
127.8027915271048
 10
143.8552245303272
 20
127.8027915271048
 10
141.486030802177
 20
127.8027915271048
 10
141.486030802177
 20
127.8027915271048
 10
141.486030802177
 20
127.8027915271048
 10
146.3329388378533
 20
143.2092687007094
 10
146.3329388378533
 20
143.2092687007094
 10
146.8483254624444
 20
144.8408669988801
 10
147.2314203331297
 20
146.1837661049335
 10
147.4867020769946
 20
147.224185627838
 10
147.9169947869641
 20
149.0197705792876
 10
148.0306830129768
 20
150.2400242051577
 10
147.709255392159
 20
151.3157559800812
 10
147.3874832615654
 20
152.3916600098926
 10
146.8245542879144
 20
152.6683013598569
 10
145.8840425999909
 20
152.6683013598569
 10
145.0989048209514
 20
152.6683013598569
 10
144.3282364524954
 20
152.3275811915945
 10
143.4531816219731
 20
151.6538923250251
 10
142.34627171234
 20
150.8074318058939
 10
141.901854101563
 20
150.1097995099067
 10
141.3578731655808
 20
149.289521733736
 10
140.6299240093235
 20
148.192602607601
 10
140.2850697237515
 20
147.455696197173
 10
139.6652966370942
 20
145.8385673095858
 10
139.0506911970739
 20
144.2214384219986
 10
138.463991048893
 20
142.3252566160164
 10
138.0571250036777
 20
141.0154304484394
 10
138.0571250036777
 20
141.0154304484394
 10
133.9009590684727
 20
127.8027915271048
 10
133.9009590684727
 20
127.8027915271048
 10
133.9009590684727
 20
127.8027915271048
 10
131.4180771143097
 20
127.8027915271048
 10
131.4180771143097
 20
127.8027915271048
 10
131.4180771143097
 20
127.8027915271048
 10
139.8926730891197
 20
154.8294111834263
 10
139.8926730891197
 20
154.8294111834263
 97
        0
 75
     2
 76
     1
 98
        0
  0
SPLINE
  5
6AA
330
6A2
100
AcDbEntity
  8
LOGO
370
     0
100
AcDbSpline
210
0.0
220
0.0
230
1.0
 70
    11
 71
     3
 72
    29
 73
    25
 74
     0
 42
0.000000001
 43
0.0000000001
 40
0.0
 40
0.0
 40
0.0
 40
0.0
 40
1.0
 40
1.0
 40
1.0
 40
2.0
 40
2.0
 40
2.0
 40
3.0
 40
3.0
 40
3.0
 40
4.0
 40
4.0
 40
4.0
 40
5.0
 40
5.0
 40
5.0
 40
6.0
 40
6.0
 40
6.0
 40
7.0
 40
7.0
 40
7.0
 40
8.0
 40
8.0
 40
8.0
 40
8.0
 10
101.6420971922469
 20
132.8388354296931
 30
0.0
 10
101.630039350094
 20
134.7164137077823
 30
0.0
 10
102.2236296937908
 20
138.0598810818841
 30
0.0
 10
103.7487744712405
 20
142.5378191476827
 30
0.0
 10
105.819967243327
 20
148.5896501242061
 30
0.0
 10
107.0602024361932
 20
150.8074318058939
 30
0.0
 10
108.1522984254671
 20
151.8833358357054
 30
0.0
 10
109.741177511439
 20
153.4532668840085
 30
0.0
 10
111.8740375333931
 20
153.5290590346837
 30
0.0
 10
112.5075910110823
 20
153.4532668840085
 30
0.0
 10
113.4012493694975
 20
153.3490526768302
 30
0.0
 10
114.6683563248758
 20
152.7580461564518
 30
0.0
 10
114.7493161221879
 20
150.7838328862519
 30
0.0
 10
114.8106388622796
 20
149.0909118479895
 30
0.0
 10
114.3186789024427
 20
145.9191825971221
 30
0.0
 10
112.6164561002338
 20
140.9489400617108
 30
0.0
 10
110.6444821435766
 20
135.1746117095912
 30
0.0
 10
109.4669477299053
 20
132.8960240524753
 30
0.0
 10
108.5212683953448
 20
131.9072809959403
 30
0.0
 10
106.7346406980658
 20
130.0538184021569
 30
0.0
 10
104.8222669326213
 20
130.2336525051225
 30
0.0
 10
104.5408024457958
 20
130.2336525051225
 30
0.0
 10
104.1721769856939
 20
130.2336525051225
 30
0.0
 10
101.6465758193322
 20
130.6305277668397
 30
0.0
 10
101.6420971922469
 20
132.8388354296931
 30
0.0
  0
SPLINE
  5
6AB
330
6A2
100
AcDbEntity
  8
LOGO
370
     0
100
AcDbSpline
210
0.0
220
0.0
230
1.0
 70
    11
 71
     3
 72
    32
 73
    28
 74
     0
 42
0.000000001
 43
0.0000000001
 40
0.0
 40
0.0
 40
0.0
 40
0.0
 40
1.0
 40
1.0
 40
1.0
 40
2.0
 40
2.0
 40
2.0
 40
3.0
 40
3.0
 40
3.0
 40
4.0
 40
4.0
 40
4.0
 40
5.0
 40
5.0
 40
5.0
 40
6.0
 40
6.0
 40
6.0
 40
7.0
 40
7.0
 40
7.0
 40
8.0
 40
8.0
 40
8.0
 40
9.0
 40
9.0
 40
9.0
 40
9.0
 10
106.2595617172429
 20
153.4105476718098
 30
0.0
 10
104.8222669326213
 20
151.5474388043041
 30
0.0
 10
103.7177685914188
 20
149.8758773721411
 30
0.0
 10
101.9232171692965
 20
144.6141795664062
 30
0.0
 10
100.2754269116635
 20
139.7999999594306
 30
0.0
 10
99.22777268346732
 20
136.3052927937542
 30
0.0
 10
99.06964269637689
 20
132.039572749846
 30
0.0
 10
98.94665270641765
 20
128.8673267343149
 30
0.0
 10
100.8807305877373
 20
127.8027915271048
 30
0.0
 10
103.7129454545577
 20
127.8027915271048
 30
0.0
 10
104.9352661390825
 20
127.8027915271048
 30
0.0
 10
108.0151835347002
 20
127.8827177950895
 30
0.0
 10
110.2045431598849
 20
130.5926316915021
 30
0.0
 10
111.7417457794874
 20
132.4984597712065
 30
0.0
 10
113.155269389579
 20
134.475256864725
 30
0.0
 10
115.0562743324223
 20
140.9489400617108
 30
0.0
 10
116.6361961642235
 20
146.3680788349845
 30
0.0
 10
117.7282921534974
 20
149.8639917848761
 30
0.0
 10
117.6480213757369
 20
151.8595646611754
 30
0.0
 10
117.6480213757369
 20
151.8595646611754
 30
0.0
 10
117.6480213757369
 20
151.8595646611754
 30
0.0
 10
117.6480213757369
 20
151.8595646611754
 30
0.0
 10
117.13229024137
 20
155.18150017429
 30
0.0
 10
114.7162431837115
 20
155.886194920681
 30
0.0
 10
113.3351034925446
 20
155.886194920681
 30
0.0
 10
111.9829026225447
 20
155.886194920681
 30
0.0
 10
108.3414342923792
 20
156.1251124501957
 30
0.0
 10
106.2595617172429
 20
153.4105476718098
 30
0.0
  0
HATCH
  5
6AC
330
6A2
100
AcDbEntity
  8
LOGO
 62
   250
420
  2234388
100
AcDbHatch
 10
0.0
 20
0.0
 30
0.0
210
0.0
220
0.0
230
1.0
  2
SOLID
 70
     1
 71
     0
 91
        2
 92
        1
 93
        1
 72
     4
 94
        3
 73
     0
 74
     1
 95
       29
 96
       25
 40
0.0
 40
0.0
 40
0.0
 40
0.0
 40
1.0
 40
1.0
 40
1.0
 40
2.0
 40
2.0
 40
2.0
 40
3.0
 40
3.0
 40
3.0
 40
4.0
 40
4.0
 40
4.0
 40
5.0
 40
5.0
 40
5.0
 40
6.0
 40
6.0
 40
6.0
 40
7.0
 40
7.0
 40
7.0
 40
8.0
 40
8.0
 40
8.0
 40
8.0
 10
101.6420971922469
 20
132.8388354296931
 10
101.630039350094
 20
134.7164137077823
 10
102.2236296937908
 20
138.0598810818841
 10
103.7487744712405
 20
142.5378191476827
 10
105.819967243327
 20
148.5896501242061
 10
107.0602024361932
 20
150.8074318058939
 10
108.1522984254671
 20
151.8833358357054
 10
109.741177511439
 20
153.4532668840085
 10
111.8740375333931
 20
153.5290590346837
 10
112.5075910110823
 20
153.4532668840085
 10
113.4012493694975
 20
153.3490526768302
 10
114.6683563248758
 20
152.7580461564518
 10
114.7493161221879
 20
150.7838328862519
 10
114.8106388622796
 20
149.0909118479895
 10
114.3186789024427
 20
145.9191825971221
 10
112.6164561002338
 20
140.9489400617108
 10
110.6444821435766
 20
135.1746117095912
 10
109.4669477299053
 20
132.8960240524753
 10
108.5212683953448
 20
131.9072809959403
 10
106.7346406980658
 20
130.0538184021569
 10
104.8222669326213
 20
130.2336525051225
 10
104.5408024457958
 20
130.2336525051225
 10
104.1721769856939
 20
130.2336525051225
 10
101.6465758193322
 20
130.6305277668397
 10
101.6420971922469
 20
132.8388354296931
 97
        0
 92
        1
 93
        1
 72
     4
 94
        3
 73
     0
 74
     1
 95
       32
 96
       28
 40
0.0
 40
0.0
 40
0.0
 40
0.0
 40
1.0
 40
1.0
 40
1.0
 40
2.0
 40
2.0
 40
2.0
 40
3.0
 40
3.0
 40
3.0
 40
4.0
 40
4.0
 40
4.0
 40
5.0
 40
5.0
 40
5.0
 40
6.0
 40
6.0
 40
6.0
 40
7.0
 40
7.0
 40
7.0
 40
8.0
 40
8.0
 40
8.0
 40
9.0
 40
9.0
 40
9.0
 40
9.0
 10
106.2595617172429
 20
153.4105476718098
 10
104.8222669326213
 20
151.5474388043041
 10
103.7177685914188
 20
149.8758773721411
 10
101.9232171692965
 20
144.6141795664062
 10
100.2754269116635
 20
139.7999999594306
 10
99.22777268346732
 20
136.3052927937542
 10
99.06964269637689
 20
132.039572749846
 10
98.94665270641765
 20
128.8673267343149
 10
100.8807305877373
 20
127.8027915271048
 10
103.7129454545577
 20
127.8027915271048
 10
104.9352661390825
 20
127.8027915271048
 10
108.0151835347002
 20
127.8827177950895
 10
110.2045431598849
 20
130.5926316915021
 10
111.7417457794874
 20
132.4984597712065
 10
113.155269389579
 20
134.475256864725
 10
115.0562743324223
 20
140.9489400617108
 10
116.6361961642235
 20
146.3680788349845
 10
117.7282921534974
 20
149.8639917848761
 10
117.6480213757369
 20
151.8595646611754
 10
117.6480213757369
 20
151.8595646611754
 10
117.6480213757369
 20
151.8595646611754
 10
117.6480213757369
 20
151.8595646611754
 10
117.13229024137
 20
155.18150017429
 10
114.7162431837115
 20
155.886194920681
 10
113.3351034925446
 20
155.886194920681
 10
111.9829026225447
 20
155.886194920681
 10
108.3414342923792
 20
156.1251124501957
 10
106.2595617172429
 20
153.4105476718098
 97
        0
 75
     2
 76
     1
 98
        0
  0
ENDBLK
  5
6AD
330
6A2
100
AcDbEntity
  8
0
100
AcDbBlockEnd
  0
BLOCK
  5
D65
330
D64
100
AcDbEntity
  8
0
100
AcDbBlockBegin
  2
_SE_FILLED
 70
     0
 10
0.0
 20
0.0
 30
0.0
  3
_SE_FILLED
  1
_SE_FILLED
  0
SOLID
  5
D66
330
D64
100
AcDbEntity
  8
0
 62
     0
100
AcDbTrace
 10
0.0
 20
0.0
 30
0.0
 11
-1.0
 21
-0.1665
 31
0.0
 12
-1.0
 22
0.1665
 32
0.0
 13
0.0
 23
0.0
 33
0.0
  0
LINE
  5
D67
330
D64
100
AcDbEntity
  8
0
 62
     0
100
AcDbLine
 10
0.0
 20
0.0
 30
0.0
 11
-1.0
 21
0.0
 31
0.0
  0
ENDBLK
  5
D68
330
D64
100
AcDbEntity
  8
0
100
AcDbBlockEnd
  0
BLOCK
  5
F40
330
F3F
100
AcDbEntity
  8
0
100
AcDbBlockBegin
  2
DMBLK1
 70
     0
 10
0.0
 20
0.0
 30
0.0
  3
DMBLK1
  1
DMBLK1
  0
LINE
  5
F41
330
F3F
100
AcDbEntity
  8
Layer3
  6
Continuous
 62
   136
370
    -2
100
AcDbLine
 10
68.0560927787
 20
179.1669527017
 30
0.0
 11
38.1262933114
 21
179.1669527017
 31
0.0
  0
LINE
  5
F42
330
F3F
100
AcDbEntity
  8
Layer3
  6
Continuous
 62
   136
370
    -2
100
AcDbLine
 10
68.0560927787
 20
32.4913296226
 30
0.0
 11
38.1262933114
 21
32.49132962260001
 31
0.0
  0
LINE
  5
F43
330
F3F
100
AcDbEntity
  8
Layer3
  6
Continuous
 62
   136
370
    -2
100
AcDbLine
 10
41.1262933114
 20
173.1669527017
 30
0.0
 11
41.1262933114
 21
111.8921444503
 31
0.0
  0
LINE
  5
F44
330
F3F
100
AcDbEntity
  8
Layer3
  6
Continuous
 62
   136
370
    -2
100
AcDbLine
 10
41.1262933114
 20
38.49132962260001
 30
0.0
 11
41.1262933114
 21
99.7661444503
 31
0.0
  0
INSERT
  5
F45
330
F3F
100
AcDbEntity
  8
Layer3
 62
   136
370
    -2
100
AcDbBlockReference
  2
_SE_FILLED
 10
41.1262933114
 20
179.1669527017
 30
0.0
 41
6.0
 42
6.0
 43
6.0
 50
90.0
  0
INSERT
  5
F46
330
F3F
100
AcDbEntity
  8
Layer3
 62
   136
370
    -2
100
AcDbBlockReference
  2
_SE_FILLED
 10
41.1262933114
 20
32.49132962260001
 30
0.0
 41
6.0
 42
6.0
 43
6.0
 50
270.0
  0
MTEXT
  5
F47
330
F3F
100
AcDbEntity
  8
Layer3
  6
Continuous
 62
   136
370
    20
100
AcDbMText
 10
41.1262933114
 20
105.8291444503
 30
0.0
 40
6.0
 41
0.0
 46
0.0
 71
     5
 72
     1
  1
\A1;\A1;620 {} %%P5
  7
SEACAD_arial_ttf
 73
     1
 44
1.0
  0
POINT
  5
F48
330
F3F
100
AcDbEntity
  8
Defpoints
 62
     0
100
AcDbPoint
 10
68.0560927787
 20
179.1669527017
 30
0.0
  0
POINT
  5
F49
330
F3F
100
AcDbEntity
  8
Defpoints
 62
     0
100
AcDbPoint
 10
68.0560927787
 20
32.4913296226
 30
0.0
  0
POINT
  5
F6F
330
F3F
100
AcDbEntity
  8
Defpoints
 62
     0
100
AcDbPoint
 10
41.12629331139999
 20
32.4913296226
 30
0.0
  0
ENDBLK
  5
F4A
330
F3F
100
AcDbEntity
  8
0
100
AcDbBlockEnd
  0
BLOCK
  5
F4D
330
F4C
100
AcDbEntity
  8
0
100
AcDbBlockBegin
  2
DMBLK2
 70
     0
 10
0.0
 20
0.0
 30
0.0
  3
DMBLK2
  1
DMBLK2
  0
LINE
  5
F4E
330
F4C
100
AcDbEntity
  8
Layer3
  6
Continuous
 62
   136
370
    -2
100
AcDbLine
 10
68.0560927787
 20
14.75729992439999
 30
0.0
 11
68.0560927787
 21
0.1019999999999968
 31
0.0
  0
LINE
  5
F4F
330
F4C
100
AcDbEntity
  8
Layer3
  6
Continuous
 62
   136
370
    -2
100
AcDbLine
 10
84.71839831230001
 20
42.1875841181
 30
0.0
 11
84.71839831230001
 21
0.1019999999999968
 31
0.0
  0
LINE
  5
F50
330
F4C
100
AcDbEntity
  8
Layer3
  6
Continuous
 62
   136
370
    -2
100
AcDbLine
 10
62.05609277870001
 20
3.101999999999997
 30
0.0
 11
56.05609277870001
 21
3.101999999999997
 31
0.0
  0
LINE
  5
F51
330
F4C
100
AcDbEntity
  8
Layer3
  6
Continuous
 62
   136
370
    -2
100
AcDbLine
 10
90.71839831230001
 20
3.101999999999997
 30
0.0
 11
96.71839831230001
 21
3.101999999999997
 31
0.0
  0
INSERT
  5
F52
330
F4C
100
AcDbEntity
  8
Layer3
 62
   136
370
    -2
100
AcDbBlockReference
  2
_SE_FILLED
 10
68.0560927787
 20
3.101999999999997
 30
0.0
 41
6.0
 42
6.0
 43
6.0
  0
INSERT
  5
F53
330
F4C
100
AcDbEntity
  8
Layer3
 62
   136
370
    -2
100
AcDbBlockReference
  2
_SE_FILLED
 10
84.71839831230001
 20
3.101999999999997
 30
0.0
 41
6.0
 42
6.0
 43
6.0
 50
180.0
  0
MTEXT
  5
F54
330
F4C
100
AcDbEntity
  8
Layer3
  6
Continuous
 62
   136
370
    20
100
AcDbMText
 10
76.3872453892
 20
3.101999999999997
 30
0.0
 40
6.0
 41
0.0
 46
0.0
 71
     5
 72
     1
  1
\A1;\A1;50
  7
SEACAD_arial_ttf
 73
     1
 44
1.0
  0
POINT
  5
F70
330
F4C
100
AcDbEntity
  8
Defpoints
 62
     0
100
AcDbPoint
 10
68.0560927787
 20
14.75729992439999
 30
0.0
  0
POINT
  5
F71
330
F4C
100
AcDbEntity
  8
Defpoints
 62
     0
100
AcDbPoint
 10
84.71839831230001
 20
42.1875841181
 30
0.0
  0
POINT
  5
F72
330
F4C
100
AcDbEntity
  8
Defpoints
 62
     0
100
AcDbPoint
 10
84.71839831230001
 20
3.101999999999997
 30
0.0
  0
ENDBLK
  5
F55
330
F4C
100
AcDbEntity
  8
0
100
AcDbBlockEnd
  0
BLOCK
  5
F58
330
F57
100
AcDbEntity
  8
0
100
AcDbBlockBegin
  2
DMBLK3
 70
     0
 10
0.0
 20
0.0
 30
0.0
  3
DMBLK3
  1
DMBLK3
  0
LINE
  5
F59
330
F57
100
AcDbEntity
  8
Layer3
  6
Continuous
 62
   136
370
    -2
100
AcDbLine
 10
81.08942611200001
 20
63.03268157420001
 30
0.0
 11
81.08942611200001
 21
76.05411015179999
 31
0.0
  0
LINE
  5
F5A
330
F57
100
AcDbEntity
  8
Layer3
  6
Continuous
 62
   136
370
    -2
100
AcDbLine
 10
88.3560927787
 20
63.105460796
 30
0.0
 11
88.3560927787
 21
76.05411015179999
 31
0.0
  0
LINE
  5
F5B
330
F57
100
AcDbEntity
  8
Layer3
  6
Continuous
 62
   136
370
    -2
100
AcDbLine
 10
88.3560927787
 20
73.05411015179999
 30
0.0
 11
100.3560927787
 21
73.05411015179999
 31
0.0
  0
LINE
  5
F5C
330
F57
100
AcDbEntity
  8
Layer3
  6
Continuous
 62
   136
370
    -2
100
AcDbLine
 10
75.08942611200001
 20
73.05411015179999
 30
0.0
 11
69.08942611200001
 21
73.05411015179999
 31
0.0
  0
LINE
  5
F5D
330
F57
100
AcDbEntity
  8
Layer3
  6
Continuous
 62
   136
370
    -2
100
AcDbLine
 10
94.3560927787
 20
73.05411015179999
 30
0.0
 11
100.3560927787
 21
73.05411015179999
 31
0.0
  0
INSERT
  5
F5E
330
F57
100
AcDbEntity
  8
Layer3
 62
   136
370
    -2
100
AcDbBlockReference
  2
_SE_FILLED
 10
81.08942611200001
 20
73.05411015179999
 30
0.0
 41
6.0
 42
6.0
 43
6.0
  0
INSERT
  5
F73
330
F57
100
AcDbEntity
  8
Layer3
 62
   136
370
    -2
100
AcDbBlockReference
  2
_SE_FILLED
 10
88.3560927787
 20
73.05411015179999
 30
0.0
 41
6.0
 42
6.0
 43
6.0
 50
180.0
  0
MTEXT
  5
F74
330
F57
100
AcDbEntity
  8
Layer3
  6
Continuous
 62
   136
370
    20
100
AcDbMText
 10
111.2490927787
 20
73.05411015179999
 30
0.0
 40
6.0
 41
0.0
 46
0.0
 71
     5
 72
     1
  1
\A1;\A1;%%C 22
  7
SEACAD_arial_ttf
 73
     1
 44
1.0
  0
POINT
  5
F75
330
F57
100
AcDbEntity
  8
Defpoints
 62
     0
100
AcDbPoint
 10
81.08942611200001
 20
63.03268157420001
 30
0.0
  0
POINT
  5
F76
330
F57
100
AcDbEntity
  8
Defpoints
 62
     0
100
AcDbPoint
 10
88.3560927787
 20
63.105460796
 30
0.0
  0
POINT
  5
F77
330
F57
100
AcDbEntity
  8
Defpoints
 62
     0
100
AcDbPoint
 10
88.3560927787
 20
73.05411015179999
 30
0.0
  0
ENDBLK
  5
F5F
330
F57
100
AcDbEntity
  8
0
100
AcDbBlockEnd
  0
BLOCK
  5
F62
330
F61
100
AcDbEntity
  8
0
100
AcDbBlockBegin
  2
DMBLK4
 70
     0
 10
0.0
 20
0.0
 30
0.0
  3
DMBLK4
  1
DMBLK4
  0
LINE
  5
F63
330
F61
100
AcDbEntity
  8
Layer3
  6
Continuous
 62
   136
370
    -2
100
AcDbLine
 10
68.0560927787
 20
220.3809741664
 30
0.0
 11
68.0560927787
 21
232.1824120808
 31
0.0
  0
LINE
  5
F64
330
F61
100
AcDbEntity
  8
Layer3
  6
Continuous
 62
   136
370
    -2
100
AcDbLine
 10
49.5560927787
 20
214.2461471892
 30
0.0
 11
49.5560927787
 21
232.1824120808
 31
0.0
  0
LINE
  5
F65
330
F61
100
AcDbEntity
  8
Layer3
  6
Continuous
 62
   136
370
    -2
100
AcDbLine
 10
74.0560927787
 20
229.1824120808
 30
0.0
 11
80.0560927787
 21
229.1824120808
 31
0.0
  0
LINE
  5
F66
330
F61
100
AcDbEntity
  8
Layer3
  6
Continuous
 62
   136
370
    -2
100
AcDbLine
 10
43.5560927787
 20
229.1824120808
 30
0.0
 11
37.5560927787
 21
229.1824120808
 31
0.0
  0
INSERT
  5
F67
330
F61
100
AcDbEntity
  8
Layer3
 62
   136
370
    -2
100
AcDbBlockReference
  2
_SE_FILLED
 10
68.0560927787
 20
229.1824120808
 30
0.0
 41
6.0
 42
6.0
 43
6.0
 50
180.0
  0
INSERT
  5
F68
330
F61
100
AcDbEntity
  8
Layer3
 62
   136
370
    -2
100
AcDbBlockReference
  2
_SE_FILLED
 10
49.5560927787
 20
229.1824120808
 30
0.0
 41
6.0
 42
6.0
 43
6.0
  0
MTEXT
  5
F69
330
F61
100
AcDbEntity
  8
Layer3
  6
Continuous
 62
   136
370
    20
100
AcDbMText
 10
58.8060926595
 20
229.1824120808
 30
0.0
 40
6.0
 41
0.0
 46
0.0
 71
     5
 72
     1
  1
\A1;\A1;56
  7
SEACAD_arial_ttf
 73
     1
 44
1.0
  0
POINT
  5
F78
330
F61
100
AcDbEntity
  8
Defpoints
 62
     0
100
AcDbPoint
 10
68.0560927787
 20
220.3809741664
 30
0.0
  0
POINT
  5
F79
330
F61
100
AcDbEntity
  8
Defpoints
 62
     0
100
AcDbPoint
 10
49.5560927787
 20
214.2461471892
 30
0.0
  0
POINT
  5
F7A
330
F61
100
AcDbEntity
  8
Defpoints
 62
     0
100
AcDbPoint
 10
49.5560927787
 20
229.1824120808
 30
0.0
  0
ENDBLK
  5
F6A
330
F61
100
AcDbEntity
  8
0
100
AcDbBlockEnd
  0
BLOCK
  5
1139
330
1138
100
AcDbEntity
  8
0
100
AcDbBlockBegin
  2
*D11
 70
     1
 10
0.0
 20
0.0
 30
0.0
  3
*D11
  1
*D12
  0
LINE
  5
113B
330
1138
100
AcDbEntity
  8
DIM
370
    -2
100
AcDbLine
 10
399.8296449769757
 20
998.5697584521986
 30
0.0
 11
344.0402465750765
 21
998.5697584521986
 31
0.0
  0
LINE
  5
113C
330
1138
100
AcDbEntity
  8
DIM
370
    -2
100
AcDbLine
 10
399.8296449769757
 20
378.8816950425489
 30
0.0
 11
344.0402465750765
 21
378.8816950425489
 31
0.0
  0
LINE
  5
113D
330
1138
100
AcDbEntity
  8
DIM
370
    -2
100
AcDbLine
 10
344.0402465750765
 20
992.5697584521986
 30
0.0
 11
344.0402465750765
 21
384.8816950425489
 31
0.0
  0
INSERT
  5
113E
330
1138
100
AcDbEntity
  8
DIM
370
    -2
100
AcDbBlockReference
  2
_DOT
 10
344.0402465750765
 20
998.5697584521986
 30
0.0
 41
6.0
 42
6.0
 43
6.0
 50
90.0
  0
INSERT
  5
113F
330
1138
100
AcDbEntity
  8
DIM
370
    -2
100
AcDbBlockReference
  2
_DOT
 10
344.0402465750765
 20
378.8816950425489
 30
0.0
 41
6.0
 42
6.0
 43
6.0
 50
270.0
  0
MTEXT
  5
1140
330
1138
100
AcDbEntity
  8
DIM
  6
Continuous
100
AcDbMText
 10
333.0402465750765
 20
778.5563336979985
 30
0.0
 40
12.0
 41
0.0
 46
0.0
 71
     5
 72
     1
  1
\A1;\A1;620 {} %%P5
  7
ＭＳ ゴシック
 11
0.0
 21
1.0
 31
0.0
 73
     1
 44
1.0
  0
POINT
  5
1141
330
1138
100
AcDbEntity
  8
Defpoints
 62
     0
100
AcDbPoint
 10
424.8296449769757
 20
998.5697584521986
 30
0.0
  0
POINT
  5
1142
330
1138
100
AcDbEntity
  8
Defpoints
 62
     0
100
AcDbPoint
 10
424.8296449769757
 20
378.8816950425489
 30
0.0
  0
POINT
  5
1143
330
1138
100
AcDbEntity
  8
Defpoints
 62
     0
100
AcDbPoint
 10
344.0402465750765
 20
378.8816950425489
 30
0.0
  0
ENDBLK
  5
113A
330
1138
100
AcDbEntity
  8
0
100
AcDbBlockEnd
  0
BLOCK
  5
1146
330
1145
100
AcDbEntity
  8
0
100
AcDbBlockBegin
  2
*D12
 70
     1
 10
0.0
 20
0.0
 30
0.0
  3
*D12
  1
*D13
  0
LINE
  5
1148
330
1145
100
AcDbEntity
  8
DIM
370
    -2
100
AcDbLine
 10
424.8296449769757
 20
300.6796059477983
 30
0.0
 11
424.8296449769757
 21
290.7137061745984
 31
0.0
  0
LINE
  5
1149
330
1145
100
AcDbEntity
  8
DIM
370
    -2
100
AcDbLine
 10
474.8165615777759
 20
382.9704585288982
 30
0.0
 11
474.8165615777759
 21
290.7137061745984
 31
0.0
  0
LINE
  5
114A
330
1145
100
AcDbEntity
  8
DIM
370
    -2
100
AcDbLine
 10
430.8296449769757
 20
290.7137061745984
 30
0.0
 11
468.8165615777759
 21
290.7137061745984
 31
0.0
  0
INSERT
  5
114B
330
1145
100
AcDbEntity
  8
DIM
370
    -2
100
AcDbBlockReference
  2
_DOT
 10
424.8296449769757
 20
290.7137061745984
 30
0.0
 41
6.0
 42
6.0
 43
6.0
 50
180.0
  0
INSERT
  5
114C
330
1145
100
AcDbEntity
  8
DIM
370
    -2
100
AcDbBlockReference
  2
_DOT
 10
474.8165615777759
 20
290.7137061745984
 30
0.0
 41
6.0
 42
6.0
 43
6.0
  0
MTEXT
  5
114D
330
1145
100
AcDbEntity
  8
DIM
  6
Continuous
100
AcDbMText
 10
449.8231028084754
 20
301.7137061745984
 30
0.0
 40
12.0
 41
0.0
 46
0.0
 71
     5
 72
     1
  1
\A1;\A1;50
  7
ＭＳ ゴシック
 73
     1
 44
1.0
  0
POINT
  5
114E
330
1145
100
AcDbEntity
  8
Defpoints
 62
     0
100
AcDbPoint
 10
424.8296449769757
 20
325.6796059477983
 30
0.0
  0
POINT
  5
114F
330
1145
100
AcDbEntity
  8
Defpoints
 62
     0
100
AcDbPoint
 10
474.8165615777759
 20
407.9704585288982
 30
0.0
  0
POINT
  5
1150
330
1145
100
AcDbEntity
  8
Defpoints
 62
     0
100
AcDbPoint
 10
474.8165615777759
 20
290.7137061745984
 30
0.0
  0
ENDBLK
  5
1147
330
1145
100
AcDbEntity
  8
0
100
AcDbBlockEnd
  0
BLOCK
  5
1153
330
1152
100
AcDbEntity
  8
0
100
AcDbBlockBegin
  2
*D13
 70
     1
 10
0.0
 20
0.0
 30
0.0
  3
*D13
  1
*D14
  0
LINE
  5
1155
330
1152
100
AcDbEntity
  8
DIM
370
    -2
100
AcDbLine
 10
463.929644976876
 20
675.1669450696986
 30
0.0
 11
463.929644976876
 21
680.2312308024984
 31
0.0
  0
LINE
  5
1156
330
1152
100
AcDbEntity
  8
DIM
370
    -2
100
AcDbLine
 10
485.7296449769754
 20
675.3852827350988
 30
0.0
 11
485.7296449769754
 21
680.2312308024984
 31
0.0
  0
LINE
  5
1157
330
1152
100
AcDbEntity
  8
DIM
370
    -2
100
AcDbLine
 10
485.7296449769754
 20
680.2312308024984
 30
0.0
 11
545.5184242738503
 21
680.2312308024984
 31
0.0
  0
LINE
  5
1158
330
1152
100
AcDbEntity
  8
DIM
370
    -2
100
AcDbLine
 10
469.929644976876
 20
680.2312308024984
 30
0.0
 11
479.7296449769754
 21
680.2312308024984
 31
0.0
  0
INSERT
  5
1159
330
1152
100
AcDbEntity
  8
DIM
370
    -2
100
AcDbBlockReference
  2
_DOT
 10
463.929644976876
 20
680.2312308024984
 30
0.0
 41
6.0
 42
6.0
 43
6.0
 50
180.0
  0
INSERT
  5
115A
330
1152
100
AcDbEntity
  8
DIM
370
    -2
100
AcDbBlockReference
  2
_DOT
 10
485.7296449769754
 20
680.2312308024984
 30
0.0
 41
6.0
 42
6.0
 43
6.0
  0
MTEXT
  5
115B
330
1152
100
AcDbEntity
  8
DIM
  6
Continuous
100
AcDbMText
 10
533.5164242738504
 20
691.2312308024984
 30
0.0
 40
12.0
 41
0.0
 46
0.0
 71
     5
 72
     1
  1
\A1;22
  7
ＭＳ ゴシック
 73
     1
 44
1.0
  0
POINT
  5
115C
330
1152
100
AcDbEntity
  8
Defpoints
 62
     0
100
AcDbPoint
 10
463.929644976876
 20
650.1669450696986
 30
0.0
  0
POINT
  5
115D
330
1152
100
AcDbEntity
  8
Defpoints
 62
     0
100
AcDbPoint
 10
485.7296449769754
 20
650.3852827350988
 30
0.0
  0
POINT
  5
115E
330
1152
100
AcDbEntity
  8
Defpoints
 62
     0
100
AcDbPoint
 10
485.7296449769754
 20
680.2312308024984
 30
0.0
  0
ENDBLK
  5
1154
330
1152
100
AcDbEntity
  8
0
100
AcDbBlockEnd
  0
BLOCK
  5
1161
330
1160
100
AcDbEntity
  8
0
100
AcDbBlockBegin
  2
*D14
 70
     1
 10
0.0
 20
0.0
 30
0.0
  3
*D14
  1
*D15
  0
LINE
  5
1163
330
1160
100
AcDbEntity
  8
DIM
370
    -2
100
AcDbLine
 10
424.8296449769757
 20
1147.211822846298
 30
0.0
 11
424.8296449769757
 21
1190.875074406915
 31
0.0
  0
LINE
  5
1164
330
1160
100
AcDbEntity
  8
DIM
370
    -2
100
AcDbLine
 10
369.3296449769757
 20
1128.807341914699
 30
0.0
 11
369.3296449769757
 21
1190.875074406915
 31
0.0
  0
LINE
  5
1165
330
1160
100
AcDbEntity
  8
DIM
370
    -2
100
AcDbLine
 10
418.8296449769757
 20
1190.875074406915
 30
0.0
 11
375.3296449769757
 21
1190.875074406915
 31
0.0
  0
INSERT
  5
1166
330
1160
100
AcDbEntity
  8
DIM
370
    -2
100
AcDbBlockReference
  2
_DOT
 10
424.8296449769757
 20
1190.875074406915
 30
0.0
 41
6.0
 42
6.0
 43
6.0
  0
INSERT
  5
1167
330
1160
100
AcDbEntity
  8
DIM
370
    -2
100
AcDbBlockReference
  2
_DOT
 10
369.3296449769757
 20
1190.875074406915
 30
0.0
 41
6.0
 42
6.0
 43
6.0
 50
180.0
  0
MTEXT
  5
1168
330
1160
100
AcDbEntity
  8
DIM
  6
Continuous
100
AcDbMText
 10
397.079644619376
 20
1201.875074406915
 30
0.0
 40
12.0
 41
0.0
 46
0.0
 71
     5
 72
     1
  1
\A1;\A1;56
  7
ＭＳ ゴシック
 73
     1
 44
1.0
  0
POINT
  5
1169
330
1160
100
AcDbEntity
  8
Defpoints
 62
     0
100
AcDbPoint
 10
424.8296449769757
 20
1122.211822846298
 30
0.0
  0
POINT
  5
116A
330
1160
100
AcDbEntity
  8
Defpoints
 62
     0
100
AcDbPoint
 10
369.3296449769757
 20
1103.807341914699
 30
0.0
  0
POINT
  5
116B
330
1160
100
AcDbEntity
  8
Defpoints
 62
     0
100
AcDbPoint
 10
369.3296449769757
 20
1190.875074406915
 30
0.0
  0
ENDBLK
  5
1162
330
1160
100
AcDbEntity
  8
0
100
AcDbBlockEnd
  0
BLOCK
  5
11CD
330
11CC
100
AcDbEntity
  8
0
100
AcDbBlockBegin
  2
*D15
 70
     1
 10
0.0
 20
0.0
 30
0.0
  3
*D15
  1
*D16
  0
LINE
  5
11CF
330
11CC
100
AcDbEntity
  8
MODEL
  6
Continuous
 62
     0
370
    -2
100
AcDbLine
 10
377.9349457760261
 20
998.5697584521986
 30
0.0
 11
154.9632357922025
 21
998.5697584521986
 31
0.0
  0
LINE
  5
11D0
330
11CC
100
AcDbEntity
  8
MODEL
  6
Continuous
 62
     0
370
    -2
100
AcDbLine
 10
377.9349457760261
 20
378.8816950425489
 30
0.0
 11
154.9632357922025
 21
378.8816950425489
 31
0.0
  0
LINE
  5
11D1
330
11CC
100
AcDbEntity
  8
MODEL
  6
Continuous
 62
     0
370
    -2
100
AcDbLine
 10
154.9632357922025
 20
992.5697584521986
 30
0.0
 11
154.9632357922025
 21
384.8816950425489
 31
0.0
  0
INSERT
  5
11D2
330
11CC
100
AcDbEntity
  8
MODEL
 62
     0
370
    -2
100
AcDbBlockReference
  2
_DOT
 10
154.9632357922025
 20
998.5697584521986
 30
0.0
 41
6.0
 42
6.0
 43
6.0
 50
90.0
  0
INSERT
  5
11D3
330
11CC
100
AcDbEntity
  8
MODEL
 62
     0
370
    -2
100
AcDbBlockReference
  2
_DOT
 10
154.9632357922025
 20
378.8816950425489
 30
0.0
 41
6.0
 42
6.0
 43
6.0
 50
270.0
  0
MTEXT
  5
11D4
330
11CC
100
AcDbEntity
  8
MODEL
  6
Continuous
 62
     0
100
AcDbMText
 10
138.9632357922025
 20
688.7257267473738
 30
0.0
 40
12.0
 41
0.0
 46
0.0
 71
     5
 72
     1
  1
\A1;620
  7
ＭＳ ゴシック
 11
4.586454235381264E-17
 21
1.0
 31
0.0
 73
     1
 44
1.0
  0
POINT
  5
11D5
330
11CC
100
AcDbEntity
  8
Defpoints
 62
     0
100
AcDbPoint
 10
382.9349457760261
 20
998.5697584521986
 30
0.0
  0
POINT
  5
11D6
330
11CC
100
AcDbEntity
  8
Defpoints
 62
     0
100
AcDbPoint
 10
382.9349457760261
 20
378.8816950425489
 30
0.0
  0
POINT
  5
11D7
330
11CC
100
AcDbEntity
  8
Defpoints
 62
     0
100
AcDbPoint
 10
154.9632357922025
 20
378.8816950425489
 30
0.0
  0
ENDBLK
  5
11CE
330
11CC
100
AcDbEntity
  8
0
100
AcDbBlockEnd
  0
BLOCK
  5
11F4
330
11F3
100
AcDbEntity
  8
0
100
AcDbBlockBegin
  2
*D16
 70
     1
 10
0.0
 20
0.0
 30
0.0
  3
*D16
  1
*D17
  0
LINE
  5
11F6
330
11F3
100
AcDbEntity
  8
DIM
  6
Continuous
 62
     0
370
    -2
100
AcDbLine
 10
463.929644989143
 20
597.7207505334477
 30
0.0
 11
463.929644989143
 21
619.6093807588859
 31
0.0
  0
LINE
  5
11F7
330
11F3
100
AcDbEntity
  8
DIM
  6
Continuous
 62
     0
370
    -2
100
AcDbLine
 10
485.7296449769754
 20
597.4376147196145
 30
0.0
 11
485.7296449769754
 21
619.6093807588859
 31
0.0
  0
LINE
  5
11F8
330
11F3
100
AcDbEntity
  8
DIM
  6
Continuous
 62
     0
370
    -2
100
AcDbLine
 10
485.7296449769754
 20
619.6093807588859
 30
0.0
 11
535.6296449769754
 21
619.6093807588859
 31
0.0
  0
LINE
  5
11F9
330
11F3
100
AcDbEntity
  8
DIM
  6
Continuous
 62
     0
370
    -2
100
AcDbLine
 10
469.929644989143
 20
619.6093807588859
 30
0.0
 11
479.7296449769754
 21
619.6093807588859
 31
0.0
  0
INSERT
  5
11FA
330
11F3
100
AcDbEntity
  8
DIM
 62
     0
370
    -2
100
AcDbBlockReference
  2
_DOT
 10
463.929644989143
 20
619.6093807588859
 30
0.0
 41
6.0
 42
6.0
 43
6.0
 50
180.0
  0
INSERT
  5
11FB
330
11F3
100
AcDbEntity
  8
DIM
 62
     0
370
    -2
100
AcDbBlockReference
  2
_DOT
 10
485.7296449769754
 20
619.6093807588859
 30
0.0
 41
6.0
 42
6.0
 43
6.0
  0
MTEXT
  5
11FC
330
11F3
100
AcDbEntity
  8
DIM
  6
Continuous
 62
     0
100
AcDbMText
 10
516.6796449769754
 20
630.6093807588859
 30
0.0
 40
12.0
 41
0.0
 46
0.0
 71
     5
 72
     1
  1
\A1;Φ22
  7
ＭＳ ゴシック
 73
     1
 44
1.0
  0
POINT
  5
11FD
330
11F3
100
AcDbEntity
  8
Defpoints
 62
     0
100
AcDbPoint
 10
463.929644989143
 20
592.7207505334477
 30
0.0
  0
POINT
  5
11FE
330
11F3
100
AcDbEntity
  8
Defpoints
 62
     0
100
AcDbPoint
 10
485.7296449769754
 20
592.4376147196145
 30
0.0
  0
POINT
  5
11FF
330
11F3
100
AcDbEntity
  8
Defpoints
 62
     0
100
AcDbPoint
 10
485.7296449769754
 20
619.6093807588859
 30
0.0
  0
ENDBLK
  5
11F5
330
11F3
100
AcDbEntity
  8
0
100
AcDbBlockEnd
  0
ENDSEC
  0
SECTION
  2
ENTITIES
  0
MTEXT
  5
177
330
A
100
AcDbEntity
  8
TEMPLATE
390
1D
100
AcDbMText
 10
39.60107227386538
 20
171.8658758157141
 30
0.0
 40
8.144205729166663
 41
0.0
 46
0.0
 71
     1
 72
     1
  1
品名
  7
ＭＳ ゴシック
 73
     1
 44
0.7828267384257843
  0
MTEXT
  5
178
330
A
100
AcDbEntity
  8
TEMPLATE
390
1D
100
AcDbMText
 10
39.60107227386538
 20
129.365875815714
 30
0.0
 40
8.144205729166663
 41
0.0
 46
0.0
 71
     1
 72
     1
  1
仕様
  7
ＭＳ ゴシック
 73
     1
 44
0.7828267384257843
  0
LINE
  5
179
330
A
100
AcDbEntity
  8
TEMPLATE
390
1D
100
AcDbLine
 10
1011.101072273624
 20
133.5733367532142
 30
0.0
 11
36.10107227362437
 21
133.5733367532142
 31
0.0
  0
LWPOLYLINE
  5
17A
330
A
100
AcDbEntity
  8
TEMPLATE
390
1D
100
AcDbPolyline
 90
        5
 70
   128
 43
0.0
 10
1011.101072273624
 20
1448.573336753213
 10
36.10107227362437
 20
1448.573336753213
 10
36.10107227362437
 20
48.57333675321413
 10
1011.101072273624
 20
48.57333675321413
 10
1011.101072273624
 20
1448.573336753213
  0
LINE
  5
17B
330
A
100
AcDbEntity
  8
TEMPLATE
390
1D
100
AcDbLine
 10
1011.101072273624
 20
176.0733367532141
 30
0.0
 11
36.10107227362437
 21
176.0733367532141
 31
0.0
  0
LINE
  5
17C
330
A
100
AcDbEntity
  8
TEMPLATE
390
1D
100
AcDbLine
 10
1011.101072273866
 20
91.07333675321412
 30
0.0
 11
634.601072273865
 21
91.07333675321412
 31
0.0
  0
MTEXT
  5
17D
330
A
100
AcDbEntity
  8
TEMPLATE
390
1D
100
AcDbMText
 10
36.10107227396725
 20
42.64642572478557
 30
0.0
 40
10.85894097222222
 41
0.0
 46
10.85894097222222
 71
     1
 72
     1
  1
{150526SO}
  7
ＭＳ ゴシック
 73
     1
 44
0.7828267384257843
1001
ACAD
1000
ACAD_MTEXT_DEFINED_HEIGHT_BEGIN
1070
    46
1040
10.85894097222222
1000
ACAD_MTEXT_DEFINED_HEIGHT_END
  0
MTEXT
  5
17E
330
A
100
AcDbEntity
  8
TEMPLATE
390
1D
100
AcDbMText
 10
649.5367753999956
 20
76.11813951656006
 30
0.0
 40
12.21630859375
 41
0.0
 46
0.0
 71
     1
 72
     1
  1
大洋金物株式会社 ティーフォルム事業部
  7
ＭＳ ゴシック
 73
     1
 44
0.7828267384257843
  0
MTEXT
  5
180
330
A
100
AcDbEntity
  8
TEMPLATE
390
1D
100
AcDbMText
 10
915.601072273995
 20
115.0746453469641
 30
0.0
 40
12.21630859375
 41
0.0
 46
12.21630859375
 71
     1
 72
     1
  1
{1:5}
  7
ＭＳ ゴシック
 73
     1
 44
0.7828267384257843
1001
ACAD
1000
ACAD_MTEXT_DEFINED_HEIGHT_BEGIN
1070
    46
1040
12.21630859375
1000
ACAD_MTEXT_DEFINED_HEIGHT_END
  0
MTEXT
  5
181
330
A
100
AcDbEntity
  8
TEMPLATE
390
1D
100
AcDbMText
 10
889.101072273995
 20
129.365875815714
 30
0.0
 40
8.144205729166663
 41
0.0
 46
0.0
 71
     1
 72
     1
  1
縮尺
  7
ＭＳ ゴシック
 73
     1
 44
0.7828267384257843
  0
LINE
  5
182
330
A
100
AcDbEntity
  8
TEMPLATE
390
1D
100
AcDbLine
 10
885.601072273995
 20
91.07333675321412
 30
0.0
 11
885.601072273995
 21
133.5733367532142
 31
0.0
  0
MTEXT
  5
183
330
A
100
AcDbEntity
  8
TEMPLATE
390
1D
100
AcDbMText
 10
763.601072273995
 20
129.365875815714
 30
0.0
 40
8.144205729166663
 41
0.0
 46
0.0
 71
     1
 72
     1
  1
容量
  7
ＭＳ ゴシック
 73
     1
 44
0.7828267384257843
  0
LINE
  5
184
330
A
100
AcDbEntity
  8
TEMPLATE
390
1D
100
AcDbLine
 10
760.101072273995
 20
91.07333675321412
 30
0.0
 11
760.101072273995
 21
133.5733367532142
 31
0.0
  0
MTEXT
  5
185
330
A
100
AcDbEntity
  8
TEMPLATE
390
1D
100
AcDbMText
 10
638.101072273995
 20
171.8658758157141
 30
0.0
 40
8.144205729166663
 41
0.0
 46
0.0
 71
     1
 72
     1
  1
品番
  7
ＭＳ ゴシック
 73
     1
 44
0.7828267384257843
  0
MTEXT
  5
186
330
A
100
AcDbEntity
  8
TEMPLATE
390
1D
100
AcDbMText
 10
638.101072273995
 20
129.365875815714
 30
0.0
 40
8.144205729166663
 41
0.0
 46
0.0
 71
     1
 72
     1
  1
重量
  7
ＭＳ ゴシック
 73
     1
 44
0.7828267384257843
  0
MTEXT
  5
187
330
A
100
AcDbEntity
  8
TEMPLATE
390
1D
100
AcDbMText
 10
664.601072273995
 20
157.5746453469641
 30
0.0
 40
12.21630859375
 41
0.0
 46
12.21630859375
 71
     1
 72
     1
  1
{FHT73-3311}
  7
ＭＳ ゴシック
 73
     1
 44
0.7828267384257843
1001
ACAD
1000
ACAD_MTEXT_DEFINED_HEIGHT_BEGIN
1070
    46
1040
12.21630859375
1000
ACAD_MTEXT_DEFINED_HEIGHT_END
  0
LINE
  5
188
330
A
100
AcDbEntity
  8
TEMPLATE
390
1D
100
AcDbLine
 10
634.601072273995
 20
48.57333675321413
 30
0.0
 11
634.601072273995
 21
176.0733367532141
 31
0.0
  0
MTEXT
  5
189
330
A
100
AcDbEntity
  8
TEMPLATE
390
1D
100
AcDbMText
 10
66.10107227386537
 20
157.5746453469641
 30
0.0
 40
12.21630859375
 41
0.0
 46
12.21630859375
 71
     1
 72
     1
  1
{スライドシャワーバー　-GROHE-}
  7
ＭＳ ゴシック
 73
     1
 44
0.7828267384257843
1001
ACAD
1000
ACAD_MTEXT_DEFINED_HEIGHT_BEGIN
1070
    46
1040
12.21630859375
1000
ACAD_MTEXT_DEFINED_HEIGHT_END
  0
INSERT
  5
6B5
330
A
100
AcDbEntity
  8
TEMPLATE
100
AcDbBlockReference
  2
名称未設定-1
 10
935.3753740442249
 20
12.97338287832691
 30
0.0
 41
0.3809999999999999
 42
0.3809999999999999
 43
0.3809999999999999
  0
INSERT
  5
68C
330
A
100
AcDbEntity
  8
TEMPLATE
100
AcDbBlockReference
  2
block 2
 10
919.2743017702577
 20
8.373076514336368
 30
0.0
 41
0.3809999999999999
 42
0.3809999999999999
 43
0.3809999999999999
  0
LINE
  5
F7C
330
A
100
AcDbEntity
  8
MODEL
  6
Continuous
100
AcDbLine
 10
463.929644976876
 20
719.3638109484987
 30
0.0
 11
463.9296450014098
 21
396.5889802795969
 31
0.0
  0
ARC
  5
F7D
330
A
100
AcDbEntity
  8
MODEL
  6
Continuous
100
AcDbCircle
 10
463.4738145110757
 20
396.4697495707987
 30
0.0
 40
0.2066646288914805
100
AcDbArc
 50
55.12838791484725
 51
88.92674988621437
  0
LINE
  5
F7E
330
A
100
AcDbEntity
  8
MODEL
  6
Continuous
100
AcDbLine
 10
424.8296449769757
 20
359.9445528883989
 30
0.0
 11
424.8296449769757
 21
364.1349047188987
 31
0.0
  0
LINE
  5
F7F
330
A
100
AcDbEntity
  8
MODEL
  6
Continuous
100
AcDbLine
 10
424.8296449769757
 20
364.289854465399
 30
0.0
 11
424.8296449769757
 21
364.7025038152988
 31
0.0
  0
LINE
  5
F80
330
A
100
AcDbEntity
  8
MODEL
  6
Continuous
100
AcDbLine
 10
424.8296449769757
 20
364.1349047188987
 30
0.0
 11
424.8296449769757
 21
364.289854465399
 31
0.0
  0
LINE
  5
F81
330
A
100
AcDbEntity
  8
MODEL
  6
Continuous
100
AcDbLine
 10
424.8296449769757
 20
392.8126208527988
 30
0.0
 11
424.8296449769757
 21
392.4000942862986
 31
0.0
  0
LINE
  5
F82
330
A
100
AcDbEntity
  8
MODEL
  6
Continuous
100
AcDbLine
 10
424.8296449769757
 20
392.8126208527988
 30
0.0
 11
424.8296449769757
 21
392.9675692654987
 31
0.0
  0
LINE
  5
F83
330
A
100
AcDbEntity
  8
MODEL
  6
Continuous
100
AcDbLine
 10
472.3296449768757
 20
392.4698998498989
 30
0.0
 11
472.3296449768757
 21
392.3732879344989
 31
0.0
  0
LINE
  5
F84
330
A
100
AcDbEntity
  8
MODEL
  6
Continuous
100
AcDbLine
 10
472.3296449768757
 20
392.5751065486984
 30
0.0
 11
472.3296449768757
 21
392.4698998498989
 31
0.0
  0
SPLINE
  5
F85
330
A
100
AcDbEntity
  8
MODEL
  6
Continuous
100
AcDbSpline
210
0.0
220
0.0
230
1.0
 70
    12
 71
     2
 72
     6
 73
     3
 74
     0
 42
0.000000001
 43
0.0000000001
 40
0.0
 40
0.0
 40
0.0
 40
1.0
 40
1.0
 40
1.0
 10
472.1717803280642
 20
392.7704825892833
 30
0.0
 41
1.0
 10
472.1709606335844
 20
392.7707944820268
 30
0.0
 41
0.9998254991032877
 10
472.1701121032099
 20
392.7709697961109
 30
0.0
 41
1.0
  0
LINE
  5
F86
330
A
100
AcDbEntity
  8
MODEL
  6
Continuous
100
AcDbLine
 10
424.8296449769757
 20
397.1580452131989
 30
0.0
 11
424.8296449769757
 21
392.9675692654987
 31
0.0
  0
LINE
  5
F87
330
A
100
AcDbEntity
  8
MODEL
  6
Continuous
100
AcDbLine
 10
424.8296449769757
 20
359.9445528883989
 30
0.0
 11
485.9600080370762
 21
360.6914383252988
 31
0.0
  0
LINE
  5
F88
330
A
100
AcDbEntity
  8
MODEL
  6
Continuous
100
AcDbLine
 10
463.7541344867757
 20
396.6824691997986
 30
0.0
 11
424.8296449769757
 21
397.1580452131989
 31
0.0
  0
LINE
  5
F89
330
A
100
AcDbEntity
  8
MODEL
  6
Continuous
100
AcDbLine
 10
464.6766274163754
 20
395.9588405401983
 30
0.0
 11
464.6761383089749
 21
396.0148867033986
 31
0.0
  0
ARC
  5
F8A
330
A
100
AcDbEntity
  8
MODEL
  6
Continuous
100
AcDbCircle
 10
463.7604237491757
 20
396.4823774302986
 30
0.0
 40
0.1999999992154176
100
AcDbArc
 50
32.20934260502272
 51
91.62786517867598
  0
ARC
  5
F8B
330
A
100
AcDbEntity
  8
MODEL
  6
Continuous
100
AcDbCircle
 10
467.9171140670758
 20
403.2025175524986
 30
0.0
 40
7.862160272562686
100
AcDbArc
 50
236.6168865595002
 51
237.8466217303026
  0
ARC
  5
F8C
330
A
100
AcDbEntity
  8
MODEL
  6
Continuous
100
AcDbCircle
 10
477.6808039187761
 20
418.3846165306986
 30
0.0
 40
25.91251257705114
100
AcDbArc
 50
237.4343001502
 51
238.288531931898
  0
SPLINE
  5
F8D
330
A
100
AcDbEntity
  8
MODEL
  6
Continuous
100
AcDbSpline
210
0.0
220
0.0
230
1.0
 70
     8
 71
     3
 72
    13
 73
     9
 74
     0
 42
0.000000001
 43
0.0000000001
 40
0.0
 40
0.0
 40
0.0
 40
0.0
 40
0.1280167594981792
 40
0.2464128690960906
 40
0.3832569684030688
 40
0.6055427940078864
 40
0.874648310464628
 40
1.0
 40
1.0
 40
1.0
 40
1.0
 10
464.6740620070548
 20
396.0186971083863
 30
0.0
 10
464.668543253131
 20
396.0589340959459
 30
0.0
 10
464.6587517119567
 20
396.1247212520011
 30
0.0
 10
464.5905539894072
 20
396.2059523537969
 30
0.0
 10
464.5013784919381
 20
396.2648326008402
 30
0.0
 10
464.3679406835279
 20
396.3123622283561
 30
0.0
 10
464.1970688176959
 20
396.3462645073587
 30
0.0
 10
464.0730955505448
 20
396.356518376916
 30
0.0
 10
464.0294740904262
 20
396.3596420228669
 30
0.0
  0
ARC
  5
F8E
330
A
100
AcDbEntity
  8
MODEL
  6
Continuous
100
AcDbCircle
 10
475.7834833544755
 20
414.1475697580986
 30
0.0
 40
21.3126636076329
100
AcDbArc
 50
236.5818102161005
 51
239.786746291201
  0
ARC
  5
F8F
330
A
100
AcDbEntity
  8
MODEL
  6
Continuous
100
AcDbCircle
 10
477.3251810264762
 20
416.1951968347985
 30
0.0
 40
23.85986027398625
100
AcDbArc
 50
239.0618460473991
 51
241.1957256490987
  0
SPLINE
  5
F90
330
A
100
AcDbEntity
  8
MODEL
  6
Continuous
100
AcDbSpline
210
0.0
220
0.0
230
1.0
 70
     8
 71
     3
 72
    13
 73
     9
 74
     0
 42
0.000000001
 43
0.0000000001
 40
0.0
 40
0.0
 40
0.0
 40
0.0
 40
0.1400210524746767
 40
0.3251757912915229
 40
0.5267313307790511
 40
0.7572552183473543
 40
0.9766576252594031
 40
0.9999999999999999
 40
0.9999999999999999
 40
0.9999999999999999
 40
0.9999999999999999
 10
466.7262056527877
 20
394.8019992044497
 30
0.0
 10
466.7201297700747
 20
394.8499074421343
 30
0.0
 10
466.7009103340904
 20
394.948901947565
 30
0.0
 10
466.5806647463594
 20
395.0843805633826
 30
0.0
 10
466.3976566286099
 20
395.193804526275
 30
0.0
 10
466.1483185540017
 20
395.2684473161598
 30
0.0
 10
465.9273656450703
 20
395.2989151187494
 30
0.0
 10
465.8220225054736
 20
395.2973007949772
 30
0.0
 10
465.8117323857048
 20
395.297028665058
 30
0.0
  0
ARC
  5
F91
330
A
100
AcDbEntity
  8
MODEL
  6
Continuous
100
AcDbCircle
 10
475.3947211877755
 20
411.1423657123987
 30
0.0
 40
18.49731707002935
100
AcDbArc
 50
238.9378529302004
 51
245.226441245499
  0
ARC
  5
F92
330
A
100
AcDbEntity
  8
MODEL
  6
Continuous
100
AcDbCircle
 10
474.338500781975
 20
407.9322726598984
 30
0.0
 40
15.14497729265916
100
AcDbArc
 50
243.7655397995021
 51
248.0481984036029
  0
ARC
  5
F93
330
A
100
AcDbEntity
  8
MODEL
  6
Continuous
100
AcDbCircle
 10
468.8773144499762
 20
393.1296834460986
 30
0.0
 40
0.7762437398098389
100
AcDbArc
 50
81.31078884032956
 51
105.2683938868968
  0
SPLINE
  5
F94
330
A
100
AcDbEntity
  8
MODEL
  6
Continuous
100
AcDbSpline
210
0.0
220
0.0
230
1.0
 70
     8
 71
     3
 72
    12
 73
     8
 74
     0
 42
0.000000001
 43
0.0000000001
 40
0.0
 40
0.0
 40
0.0
 40
0.0
 40
0.0965658928594637
 40
0.3733126183935701
 40
0.6527470167425484
 40
0.8951876276043657
 40
1.0
 40
1.0
 40
1.0
 40
1.0
 10
469.8261615124354
 20
393.4368968471181
 30
0.0
 10
469.8169682274918
 20
393.4629479468163
 30
0.0
 10
469.7780610379875
 20
393.5564866778773
 30
0.0
 10
469.6290701547848
 20
393.7035583422557
 30
0.0
 10
469.3972933635484
 20
393.8281749319358
 30
0.0
 10
469.1652514497998
 20
393.8945489258681
 30
0.0
 10
469.0389424765733
 20
393.8965888000548
 30
0.0
 10
468.9945852272283
 20
393.897017733248
 30
0.0
  0
ARC
  5
F95
330
A
100
AcDbEntity
  8
MODEL
  6
Continuous
100
AcDbCircle
 10
475.254416145576
 20
408.2467565185989
 30
0.0
 40
15.7733272409221
100
AcDbArc
 50
245.5313531733989
 51
258.7347205521008
  0
ARC
  5
F96
330
A
100
AcDbEntity
  8
MODEL
  6
Continuous
100
AcDbCircle
 10
472.129644977075
 20
392.5751065486984
 30
0.0
 40
0.1999999999999917
100
AcDbArc
 50
0.0
 51
78.32642627496445
  0
LINE
  5
F97
330
A
100
AcDbEntity
  8
MODEL
  6
Continuous
100
AcDbLine
 10
485.7296449769754
 20
396.0027973678304
 30
0.0
 11
485.7296449769754
 21
719.1248073609986
 31
0.0
  0
LINE
  5
F98
330
A
100
AcDbEntity
  8
MODEL
  6
Continuous
100
AcDbLine
 10
485.7296449769754
 20
817.5014111469986
 30
0.0
 11
485.7296449769754
 21
981.0998007333988
 31
0.0
  0
LINE
  5
F99
330
A
100
AcDbEntity
  8
MODEL
  6
Continuous
100
AcDbLine
 10
463.929644976876
 20
980.5136178582984
 30
0.0
 11
463.929644976876
 21
817.5213224310987
 31
0.0
  0
LINE
  5
F9A
330
A
100
AcDbEntity
  8
MODEL
  6
Continuous
100
AcDbLine
 10
472.3296449768757
 20
984.7301412654988
 30
0.0
 11
472.3296449768757
 21
984.6316784487985
 31
0.0
  0
ARC
  5
F9B
330
A
100
AcDbEntity
  8
MODEL
  6
Continuous
100
AcDbCircle
 10
463.4738170289754
 20
980.6328316545987
 30
0.0
 40
0.2066618867813223
100
AcDbArc
 50
271.072531347158
 51
305.977102086941
  0
LINE
  5
F9C
330
A
100
AcDbEntity
  8
MODEL
  6
Continuous
100
AcDbLine
 10
424.8296449769757
 20
1017.158045212899
 30
0.0
 11
424.8296449769757
 21
1012.968533427998
 31
0.0
  0
LINE
  5
F9D
330
A
100
AcDbEntity
  8
MODEL
  6
Continuous
100
AcDbLine
 10
424.8296449769757
 20
1012.813574652399
 30
0.0
 11
424.8296449769757
 21
1012.968533427998
 31
0.0
  0
LINE
  5
F9E
330
A
100
AcDbEntity
  8
MODEL
  6
Continuous
100
AcDbLine
 10
424.8296449769757
 20
979.9445528883984
 30
0.0
 11
424.8296449769757
 21
984.1339779924988
 31
0.0
  0
LINE
  5
F9F
330
A
100
AcDbEntity
  8
MODEL
  6
Continuous
100
AcDbLine
 10
424.8296449769757
 20
984.1339779924988
 30
0.0
 11
424.8296449769757
 21
984.2889376995986
 31
0.0
  0
LINE
  5
FA0
330
A
100
AcDbEntity
  8
MODEL
  6
Continuous
100
AcDbLine
 10
472.3296449768757
 20
984.6316784487985
 30
0.0
 11
472.3296449768757
 21
984.5271532953989
 31
0.0
  0
SPLINE
  5
FA1
330
A
100
AcDbEntity
  8
MODEL
  6
Continuous
100
AcDbSpline
210
0.0
220
0.0
230
1.0
 70
    12
 71
     2
 72
     6
 73
     3
 74
     0
 42
0.000000001
 43
0.0000000001
 40
0.0
 40
0.0
 40
0.0
 40
1.0
 40
1.0
 40
1.0
 10
472.1701097687771
 20
984.3312895658141
 30
0.0
 41
1.0
 10
472.170938573825
 20
984.3314607941668
 30
0.0
 41
0.9998335099574776
 10
472.1717398825783
 20
984.3317623288822
 30
0.0
 41
1.0
  0
LINE
  5
FA2
330
A
100
AcDbEntity
  8
MODEL
  6
Continuous
100
AcDbLine
 10
485.9600080370762
 20
1016.411159775999
 30
0.0
 11
424.8296449769757
 21
1017.158045212899
 31
0.0
  0
LINE
  5
FA3
330
A
100
AcDbEntity
  8
MODEL
  6
Continuous
100
AcDbLine
 10
424.8296449769757
 20
979.9445528883984
 30
0.0
 11
463.7541344867757
 21
980.4201289014986
 31
0.0
  0
LINE
  5
FA4
330
A
100
AcDbEntity
  8
MODEL
  6
Continuous
100
AcDbLine
 10
464.6761391951757
 20
981.0878129352986
 30
0.0
 11
464.6766330455755
 21
981.1444025997985
 31
0.0
  0
ARC
  5
FA5
330
A
100
AcDbEntity
  8
MODEL
  6
Continuous
100
AcDbCircle
 10
475.1976940529755
 20
969.0038512650985
 30
0.0
 40
15.61561451122211
100
AcDbArc
 50
101.1663561592
 51
114.502114589801
  0
SPLINE
  5
FA6
330
A
100
AcDbEntity
  8
MODEL
  6
Continuous
100
AcDbSpline
210
0.0
220
0.0
230
1.0
 70
     8
 71
     3
 72
    12
 73
     8
 74
     0
 42
0.000000001
 43
0.0000000001
 40
0.0
 40
0.0
 40
0.0
 40
0.0
 40
0.0429190816684355
 40
0.3019537245768006
 40
0.5682881927086383
 40
0.8509521022905452
 40
1.0
 40
1.0
 40
1.0
 40
1.0
 10
469.0367126186609
 20
983.2050390298887
 30
0.0
 10
469.0542346808877
 20
983.2051250130908
 30
0.0
 10
469.1604236207884
 20
983.2058849827422
 30
0.0
 10
469.3670741631547
 20
983.2645907069077
 30
0.0
 10
469.6001526561874
 20
983.3787005093104
 30
0.0
 10
469.7614095367942
 20
983.5246288173994
 30
0.0
 10
469.8096972623887
 20
983.6271790718747
 30
0.0
 10
469.825286332012
 20
983.6662073691909
 30
0.0
  0
ARC
  5
FA7
330
A
100
AcDbEntity
  8
MODEL
  6
Continuous
100
AcDbCircle
 10
468.9022041953756
 20
984.0998956800986
 30
0.0
 40
0.9049093546826081
100
AcDbArc
 50
255.3370619129359
 51
278.5482934623545
  0
ARC
  5
FA8
330
A
100
AcDbEntity
  8
MODEL
  6
Continuous
100
AcDbCircle
 10
473.4488516714753
 20
971.2212230259984
 30
0.0
 40
12.90940938005692
100
AcDbArc
 50
111.6919275113973
 51
116.1137334344977
  0
ARC
  5
FA9
330
A
100
AcDbEntity
  8
MODEL
  6
Continuous
100
AcDbCircle
 10
475.3060878890763
 20
966.1686541041986
 30
0.0
 40
18.27216237553723
100
AcDbArc
 50
114.3692160011015
 51
121.1375407440001
  0
SPLINE
  5
FAA
330
A
100
AcDbEntity
  8
MODEL
  6
Continuous
100
AcDbSpline
210
0.0
220
0.0
230
1.0
 70
     8
 71
     3
 72
    13
 73
     9
 74
     0
 42
0.000000001
 43
0.0000000001
 40
0.0
 40
0.0
 40
0.0
 40
0.0
 40
0.0876452784375431
 40
0.2967789392146981
 40
0.5128715377510404
 40
0.7482305745704153
 40
0.9332783451884706
 40
1.0
 40
1.0
 40
1.0
 40
1.0
 10
465.8013298702515
 20
981.8089015738874
 30
0.0
 10
465.8456716178805
 20
981.8082117326662
 30
0.0
 10
465.9748386248764
 20
981.8068347822536
 30
0.0
 10
466.2083942627376
 20
981.8481555004469
 30
0.0
 10
466.4514091140998
 20
981.9320546623867
 30
0.0
 10
466.63223131667
 20
982.0594339853174
 30
0.0
 10
466.7133683282325
 20
982.1975243808179
 30
0.0
 10
466.7333343765783
 20
982.2837163940658
 30
0.0
 10
466.7363488756625
 20
982.3065441239482
 30
0.0
  0
ARC
  5
FAB
330
A
100
AcDbEntity
  8
MODEL
  6
Continuous
100
AcDbCircle
 10
475.4283794609753
 20
964.1577530925983
 30
0.0
 40
20.09748055654489
100
AcDbArc
 50
118.5290587292995
 51
120.9691276472002
  0
ARC
  5
FAC
330
A
100
AcDbEntity
  8
MODEL
  6
Continuous
100
AcDbCircle
 10
479.555721674076
 20
956.7952110162987
 30
0.0
 40
28.53537682190489
100
AcDbArc
 50
120.4679111897996
 51
122.9397586792999
  0
SPLINE
  5
FAD
330
A
100
AcDbEntity
  8
MODEL
  6
Continuous
100
AcDbSpline
210
0.0
220
0.0
230
1.0
 70
     8
 71
     3
 72
    12
 73
     8
 74
     0
 42
0.000000001
 43
0.0000000001
 40
0.0
 40
0.0
 40
0.0
 40
0.0
 40
0.1931028917534231
 40
0.4604159086243646
 40
0.7068919948411341
 40
0.8836652086498029
 40
1.0
 40
1.0
 40
1.0
 40
1.0
 10
463.99098842934
 20
980.739431425161
 30
0.0
 10
464.0640762173186
 20
980.7451678710418
 30
0.0
 10
464.2128709567849
 20
980.7576781929256
 30
0.0
 10
464.4092190151748
 20
980.8014574157187
 30
0.0
 10
464.5482706820164
 20
980.8571336477103
 30
0.0
 10
464.6576876314127
 20
980.9645188579798
 30
0.0
 10
464.6690391951568
 20
981.0473291521307
 30
0.0
 10
464.6739806346075
 20
981.085652780992
 30
0.0
  0
ARC
  5
FAE
330
A
100
AcDbEntity
  8
MODEL
  6
Continuous
100
AcDbCircle
 10
478.6933705640756
 20
957.0597039369982
 30
0.0
 40
27.8552754864446
100
AcDbArc
 50
121.6821807295
 51
122.5333027735992
  0
ARC
  5
FAF
330
A
100
AcDbEntity
  8
MODEL
  6
Continuous
100
AcDbCircle
 10
468.4103908316754
 20
973.1469119811986
 30
0.0
 40
8.76242540237153
100
AcDbArc
 50
122.4167225652978
 51
123.3433927081001
  0
ARC
  5
FB0
330
A
100
AcDbEntity
  8
MODEL
  6
Continuous
100
AcDbCircle
 10
463.7604237491757
 20
980.620220672799
 30
0.0
 40
0.1999999598542257
100
AcDbArc
 50
268.3721348214713
 51
0.0429420198694844
  0
ARC
  5
FB1
330
A
100
AcDbEntity
  8
MODEL
  6
Continuous
100
AcDbCircle
 10
472.129644977075
 20
984.5271532953989
 30
0.0
 40
0.1999999999999833
100
AcDbArc
 50
281.6728908355981
 51
0.0
  0
LINE
  5
FB2
330
A
100
AcDbEntity
  8
MODEL
  6
Continuous
100
AcDbLine
 10
492.3296449769757
 20
1016.451299050599
 30
0.0
 11
492.3296449769757
 21
980.6512990506985
 31
0.0
  0
LINE
  5
FB3
330
A
100
AcDbEntity
  8
MODEL
  6
Continuous
100
AcDbLine
 10
424.8296449769757
 20
984.7025038149986
 30
0.0
 11
424.8296449769757
 21
1012.400094286299
 31
0.0
  0
ARC
  5
FB4
330
A
100
AcDbEntity
  8
MODEL
  6
Continuous
100
AcDbCircle
 10
473.8697823152759
 20
964.043228732799
 30
0.0
 40
20.77457558575867
100
AcDbArc
 50
52.79422911930053
 51
68.04629729530136
  0
ARC
  5
FB5
330
A
100
AcDbEntity
  8
MODEL
  6
Continuous
100
AcDbCircle
 10
473.8697823152759
 20
1033.059369368499
 30
0.0
 40
20.77457558575755
100
AcDbArc
 50
289.3388640021993
 51
307.2057708806986
  0
LINE
  5
FB6
330
A
100
AcDbEntity
  8
MODEL
  6
Continuous
100
AcDbLine
 10
492.3296449769757
 20
980.6512990506985
 30
0.0
 11
494.3906499272759
 21
980.6512990506985
 31
0.0
  0
LINE
  5
FB7
330
A
100
AcDbEntity
  8
MODEL
  6
Continuous
100
AcDbLine
 10
494.3906499272759
 20
1016.451299050599
 30
0.0
 11
492.3296449769757
 21
1016.451299050599
 31
0.0
  0
ARC
  5
FB8
330
A
100
AcDbEntity
  8
MODEL
  6
Continuous
100
AcDbCircle
 10
485.5878094766756
 20
998.551299050499
 30
0.0
 40
20.0
100
AcDbArc
 50
296.8353216467004
 51
63.16467835329878
  0
ARC
  5
FB9
330
A
100
AcDbEntity
  8
MODEL
  6
Continuous
100
AcDbCircle
 10
494.3906499272759
 20
981.1512990504984
 30
0.0
 40
0.500000000000056
100
AcDbArc
 50
270.0
 51
296.8353216466164
  0
ARC
  5
FBA
330
A
100
AcDbEntity
  8
MODEL
  6
Continuous
100
AcDbCircle
 10
494.3906499272759
 20
1015.951299050499
 30
0.0
 40
0.5000000000000253
100
AcDbArc
 50
63.16467835335446
 51
90.0
  0
LINE
  5
FBB
330
A
100
AcDbEntity
  8
MODEL
  6
Continuous
100
AcDbLine
 10
486.4113622217753
 20
980.5893206730984
 30
0.0
 11
492.3296449769757
 21
980.6512990506985
 31
0.0
  0
LINE
  5
FBC
330
A
100
AcDbEntity
  8
MODEL
  6
Continuous
100
AcDbLine
 10
492.3296449769757
 20
1016.451299050599
 30
0.0
 11
486.4113622217753
 21
1016.513277428199
 31
0.0
  0
SPLINE
  5
FBD
330
A
100
AcDbEntity
  8
MODEL
  6
Continuous
100
AcDbSpline
210
0.0
220
0.0
230
1.0
 70
     8
 71
     3
 72
     8
 73
     4
 74
     0
 42
0.000000001
 43
0.0000000001
 40
0.0
 40
0.0
 40
0.0
 40
0.0
 40
1.0
 40
1.0
 40
1.0
 40
1.0
 10
474.9520834453604
 20
1012.36063046391
 30
0.0
 10
460.6647732336348
 20
1012.430500122845
 30
0.0
 10
444.0242745093935
 20
1012.509767427718
 30
0.0
 10
425.0305872726356
 20
1012.598432378526
 30
0.0
  0
LINE
  5
FBE
330
A
100
AcDbEntity
  8
MODEL
  6
Continuous
100
AcDbLine
 10
425.0305857224755
 20
984.5044912857988
 30
0.0
 11
474.9520800173757
 21
984.742652136099
 31
0.0
  0
ARC
  5
FBF
330
A
100
AcDbEntity
  8
MODEL
  6
Continuous
100
AcDbCircle
 10
475.0003384385752
 20
1027.971010843299
 30
0.0
 40
15.6018052688567
100
AcDbArc
 50
269.8230338977007
 51
291.5889006279021
  0
ARC
  5
FC0
330
A
100
AcDbEntity
  8
MODEL
  6
Continuous
100
AcDbCircle
 10
474.7230694925754
 20
968.3758369809984
 30
0.0
 40
16.35842210275645
100
AcDbArc
 50
65.41520194099675
 51
89.19798632679792
  0
LINE
  5
FC1
330
A
100
AcDbEntity
  8
MODEL
  6
Continuous
100
AcDbLine
 10
492.3296449769757
 20
396.4512990505987
 30
0.0
 11
492.3296449769757
 21
360.6512990506985
 31
0.0
  0
LINE
  5
FC2
330
A
100
AcDbEntity
  8
MODEL
  6
Continuous
100
AcDbLine
 10
424.8296449769757
 20
364.7025038152988
 30
0.0
 11
424.8296449769757
 21
392.4000942862986
 31
0.0
  0
ARC
  5
FC3
330
A
100
AcDbEntity
  8
MODEL
  6
Continuous
100
AcDbCircle
 10
473.8697823152759
 20
413.0593693684987
 30
0.0
 40
20.77457558575755
100
AcDbArc
 50
289.3388640021009
 51
307.2057708806986
  0
ARC
  5
FC4
330
A
100
AcDbEntity
  8
MODEL
  6
Continuous
100
AcDbCircle
 10
473.8697823152759
 20
344.0432287327985
 30
0.0
 40
20.77457558575806
100
AcDbArc
 50
52.79422911930007
 51
68.04629729530123
  0
SPLINE
  5
FC5
330
A
100
AcDbEntity
  8
MODEL
  6
Continuous
100
AcDbSpline
210
0.0
220
0.0
230
1.0
 70
    12
 71
     2
 72
     6
 73
     3
 74
     0
 42
0.000000001
 43
0.0000000001
 40
0.0
 40
0.0
 40
0.0
 40
1.0
 40
1.0
 40
1.0
 10
474.9520837152884
 20
392.3608550609461
 30
0.0
 41
1.0
 10
474.952031170193
 20
392.3608533434905
 30
0.0
 41
0.9996855240518947
 10
474.9519774761791
 20
392.3606000879349
 30
0.0
 41
1.0
  0
LINE
  5
FC6
330
A
100
AcDbEntity
  8
MODEL
  6
Continuous
100
AcDbLine
 10
492.3296449769757
 20
360.6512990506985
 30
0.0
 11
494.3906499272759
 21
360.6512990506985
 31
0.0
  0
LINE
  5
FC7
330
A
100
AcDbEntity
  8
MODEL
  6
Continuous
100
AcDbLine
 10
494.3906499272759
 20
396.4512990505987
 30
0.0
 11
492.3296449769757
 21
396.4512990505987
 31
0.0
  0
ARC
  5
FC8
330
A
100
AcDbEntity
  8
MODEL
  6
Continuous
100
AcDbCircle
 10
485.5878094766756
 20
378.5512990507987
 30
0.0
 40
20.0
100
AcDbArc
 50
296.8353216467012
 51
63.16467835329878
  0
ARC
  5
FC9
330
A
100
AcDbEntity
  8
MODEL
  6
Continuous
100
AcDbCircle
 10
494.3906499272759
 20
361.1512990507986
 30
0.0
 40
0.5000000000000004
100
AcDbArc
 50
270.0
 51
296.8353216466455
  0
ARC
  5
FCA
330
A
100
AcDbEntity
  8
MODEL
  6
Continuous
100
AcDbCircle
 10
494.3906499272759
 20
395.9512990507988
 30
0.0
 40
0.5000000000000007
100
AcDbArc
 50
63.16467835335446
 51
90.0
  0
LINE
  5
FCB
330
A
100
AcDbEntity
  8
MODEL
  6
Continuous
100
AcDbLine
 10
486.4113622217753
 20
360.5893206730989
 30
0.0
 11
492.3296449769757
 21
360.6512990506985
 31
0.0
  0
LINE
  5
FCC
330
A
100
AcDbEntity
  8
MODEL
  6
Continuous
100
AcDbLine
 10
492.3296449769757
 20
396.4512990505987
 30
0.0
 11
486.4113622217753
 21
396.5132774284984
 31
0.0
  0
ARC
  5
FCD
330
A
100
AcDbEntity
  8
MODEL
  6
Continuous
100
AcDbCircle
 10
474.9422176055757
 20
348.3742236922985
 30
0.0
 40
16.35843586374313
100
AcDbArc
 50
65.73796858150212
 51
89.96553225020112
  0
ARC
  5
FCE
330
A
100
AcDbEntity
  8
MODEL
  6
Continuous
100
AcDbCircle
 10
474.8165615777759
 20
407.9704585288982
 30
0.0
 40
15.60176680709242
100
AcDbArc
 50
270.4977919269982
 51
291.9819574711988
  0
LINE
  5
FCF
330
A
100
AcDbEntity
  8
MODEL
  6
Continuous
100
AcDbLine
 10
425.0305856945758
 20
364.5044912857988
 30
0.0
 11
474.9520801268761
 21
364.7426521366988
 31
0.0
  0
SPLINE
  5
FD0
330
A
100
AcDbEntity
  8
MODEL
  6
Continuous
100
AcDbSpline
210
0.0
220
0.0
230
1.0
 70
     8
 71
     3
 72
     8
 73
     4
 74
     0
 42
0.000000001
 43
0.0000000001
 40
0.0
 40
0.0
 40
0.0
 40
0.0
 40
1.0
 40
1.0
 40
1.0
 40
1.0
 10
474.9520834318862
 20
392.3606304640716
 30
0.0
 10
460.6647732291437
 20
392.4305001229641
 30
0.0
 10
444.0242744929626
 20
392.5097674278918
 30
0.0
 10
425.0305872233428
 20
392.5984323788548
 30
0.0
  0
ARC
  5
FD1
330
A
100
AcDbEntity
  8
MODEL
  6
Continuous
100
AcDbCircle
 10
425.0296449770765
 20
364.7025038152988
 30
0.0
 40
0.200000000000001
100
AcDbArc
 50
180.0
 51
270.2722028098088
  0
ARC
  5
FD2
330
A
100
AcDbEntity
  8
MODEL
  6
Continuous
100
AcDbCircle
 10
425.0296449770765
 20
392.4000942862986
 30
0.0
 40
0.1999999999999944
100
AcDbArc
 50
89.72779719019125
 51
180.0
  0
LINE
  5
FD3
330
A
100
AcDbEntity
  8
MODEL
  6
Continuous
100
AcDbLine
 10
463.929644976876
 20
719.6584744104985
 30
0.0
 11
463.9296450014098
 21
396.5889802795969
 31
0.0
  0
LINE
  5
FD4
330
A
100
AcDbEntity
  8
MODEL
  6
Continuous
100
AcDbLine
 10
424.8296449769757
 20
360.2586831124986
 30
0.0
 11
424.8296449769757
 21
364.4490349429989
 31
0.0
  0
LINE
  5
FD5
330
A
100
AcDbEntity
  8
MODEL
  6
Continuous
100
AcDbLine
 10
424.8296449769757
 20
397.4721754372986
 30
0.0
 11
424.8296449769757
 21
393.2816994895989
 31
0.0
  0
LINE
  5
FD6
330
A
100
AcDbEntity
  8
MODEL
  6
Continuous
100
AcDbLine
 10
485.7296449769754
 20
396.0027973678304
 30
0.0
 11
485.7296449769754
 21
719.3808502251982
 31
0.0
  0
LINE
  5
FD7
330
A
100
AcDbEntity
  8
MODEL
  6
Continuous
100
AcDbLine
 10
424.8296449769757
 20
984.9585466788985
 30
0.0
 11
424.8296449769757
 21
1012.656137150198
 31
0.0
  0
LINE
  5
FD8
330
A
100
AcDbEntity
  8
MODEL
  6
Continuous
100
AcDbLine
 10
424.8296449769757
 20
365.0166340393985
 30
0.0
 11
424.8296449769757
 21
392.7142245103987
 31
0.0
  0
LINE
  5
FD9
330
A
100
AcDbEntity
  8
MODEL
  6
Continuous
100
AcDbLine
 10
424.8296449769757
 20
1012.656137150198
 30
0.0
 11
424.8296449769757
 21
1013.069617516599
 31
0.0
  0
LINE
  5
FDA
330
A
100
AcDbEntity
  8
MODEL
  6
Continuous
100
AcDbLine
 10
424.8296449769757
 20
1017.414088077099
 30
0.0
 11
424.8296449769757
 21
1013.224576291899
 31
0.0
  0
LINE
  5
FDB
330
A
100
AcDbEntity
  8
MODEL
  6
Continuous
100
AcDbLine
 10
424.8296449769757
 20
1013.069617516599
 30
0.0
 11
424.8296449769757
 21
1013.224576291899
 31
0.0
  0
LINE
  5
FDC
330
A
100
AcDbEntity
  8
MODEL
  6
Continuous
100
AcDbLine
 10
424.8296449769757
 20
980.2005957522988
 30
0.0
 11
424.8296449769757
 21
984.3900208563987
 31
0.0
  0
LINE
  5
FDD
330
A
100
AcDbEntity
  8
MODEL
  6
Continuous
100
AcDbLine
 10
424.8296449769757
 20
360.2234900998983
 30
0.0
 11
424.8296449769757
 21
364.4138419303986
 31
0.0
  0
LINE
  5
FDE
330
A
100
AcDbEntity
  8
MODEL
  6
Continuous
100
AcDbLine
 10
424.8296449769757
 20
397.4369824246987
 30
0.0
 11
424.8296449769757
 21
393.2465064769985
 31
0.0
  0
LINE
  5
FDF
330
A
100
AcDbEntity
  8
MODEL
  6
Continuous
100
AcDbLine
 10
424.8296449769757
 20
1012.656137150198
 30
0.0
 11
424.8296449769757
 21
1013.069617516599
 31
0.0
  0
LINE
  5
FE0
330
A
100
AcDbEntity
  8
MODEL
  6
Continuous
100
AcDbLine
 10
424.8296449769757
 20
1017.414088077099
 30
0.0
 11
424.8296449769757
 21
1013.224576291899
 31
0.0
  0
LINE
  5
FE1
330
A
100
AcDbEntity
  8
MODEL
  6
Continuous
100
AcDbLine
 10
424.8296449769757
 20
1013.069617516599
 30
0.0
 11
424.8296449769757
 21
1013.224576291899
 31
0.0
  0
LINE
  5
FE2
330
A
100
AcDbEntity
  8
MODEL
  6
Continuous
100
AcDbLine
 10
424.8296449769757
 20
980.2005957522988
 30
0.0
 11
424.8296449769757
 21
984.3900208563987
 31
0.0
  0
LINE
  5
FE3
330
A
100
AcDbEntity
  8
MODEL
  6
Continuous
100
AcDbLine
 10
424.8296449769757
 20
984.9585466788985
 30
0.0
 11
424.8296449769757
 21
1012.656137150198
 31
0.0
  0
LINE
  5
FE4
330
A
100
AcDbEntity
  8
MODEL
  6
Continuous
100
AcDbLine
 10
424.8296449769757
 20
364.9814410267986
 30
0.0
 11
424.8296449769757
 21
392.6790314977989
 31
0.0
  0
LINE
  5
FE5
330
A
100
AcDbEntity
  8
MODEL
  6
Continuous
100
AcDbLine
 10
424.8296449769757
 20
360.2749488802983
 30
0.0
 11
424.8296449769757
 21
364.4653007104985
 31
0.0
  0
LINE
  5
FE6
330
A
100
AcDbEntity
  8
MODEL
  6
Continuous
100
AcDbLine
 10
424.8296449769757
 20
397.4884412047986
 30
0.0
 11
424.8296449769757
 21
393.2979652570984
 31
0.0
  0
LINE
  5
FE7
330
A
100
AcDbEntity
  8
MODEL
  6
Continuous
100
AcDbLine
 10
424.8296449769757
 20
1012.986153734199
 30
0.0
 11
424.8296449769757
 21
1017.176504614299
 31
0.0
  0
LINE
  5
FE8
330
A
100
AcDbEntity
  8
MODEL
  6
Continuous
100
AcDbLine
 10
424.8296449769757
 20
984.1533631701982
 30
0.0
 11
424.8296449769757
 21
979.9630122897988
 31
0.0
  0
LINE
  5
FE9
330
A
100
AcDbEntity
  8
MODEL
  6
Continuous
100
AcDbLine
 10
424.8296449769757
 20
984.7209632163986
 30
0.0
 11
424.8296449769757
 21
1012.418553687698
 31
0.0
  0
LINE
  5
FEA
330
A
100
AcDbEntity
  8
MODEL
  6
Continuous
100
AcDbLine
 10
424.8296449769757
 20
365.032899806899
 30
0.0
 11
424.8296449769757
 21
392.7304902781989
 31
0.0
  0
LINE
  5
FF4
102
{ACAD_REACTORS
330
11F2
102
}
330
A
100
AcDbEntity
  8
MODEL
  6
Continuous
100
AcDbLine
 10
463.929644976876
 20
788.8525207872985
 30
0.0
 11
463.9296450014098
 21
396.5889802795969
 31
0.0
  0
LINE
  5
FF5
102
{ACAD_REACTORS
330
11F2
102
}
330
A
100
AcDbEntity
  8
MODEL
  6
Continuous
100
AcDbLine
 10
485.7296449769754
 20
396.0027973678304
 30
0.0
 11
485.7296449769754
 21
788.8724320713986
 31
0.0
  0
LINE
  5
FF6
330
A
100
AcDbEntity
  8
MODEL
  6
Continuous
100
AcDbLine
 10
492.3296449769757
 20
1121.707044097899
 30
0.0
 11
492.3296449769757
 21
1085.907044097999
 31
0.0
  0
LINE
  5
FF7
330
A
100
AcDbEntity
  8
MODEL
  6
Continuous
100
AcDbLine
 10
494.6163637850757
 20
1085.960890251698
 30
0.0
 11
494.6163637850757
 21
1121.653197944198
 31
0.0
  0
LINE
  5
FF8
330
A
100
AcDbEntity
  8
MODEL
  6
Continuous
100
AcDbLine
 10
424.8296449769757
 20
1122.211822846298
 30
0.0
 11
424.8296449769757
 21
1115.929203612699
 31
0.0
  0
LINE
  5
FF9
330
A
100
AcDbEntity
  8
MODEL
  6
Continuous
100
AcDbLine
 10
424.8296449769757
 20
1085.402265349599
 30
0.0
 11
424.8296449769757
 21
1091.684884583199
 31
0.0
  0
LINE
  5
FFA
330
A
100
AcDbEntity
  8
MODEL
  6
Continuous
100
AcDbLine
 10
474.9490233158756
 20
1115.206419028599
 30
0.0
 11
425.0275506200758
 21
1115.729214578799
 31
0.0
  0
ARC
  5
FFB
330
A
100
AcDbEntity
  8
MODEL
  6
Continuous
100
AcDbCircle
 10
474.8296449770758
 20
1103.807044098099
 30
0.0
 40
11.4
100
AcDbArc
 50
270.5999999999962
 51
89.40000000000386
  0
LINE
  5
FFC
330
A
100
AcDbEntity
  8
MODEL
  6
Continuous
100
AcDbLine
 10
425.0275506200758
 20
1091.884873617099
 30
0.0
 11
474.9490233158756
 21
1092.407669167299
 31
0.0
  0
ARC
  5
FFD
330
A
100
AcDbEntity
  8
MODEL
  6
Continuous
100
AcDbCircle
 10
425.0296449770765
 20
1091.684884583199
 30
0.0
 40
0.200000000000001
100
AcDbArc
 50
90.6000000002937
 51
180.0
  0
ARC
  5
FFE
330
A
100
AcDbEntity
  8
MODEL
  6
Continuous
100
AcDbCircle
 10
425.0296449770765
 20
1115.929203612699
 30
0.0
 40
0.1999999999999992
100
AcDbArc
 50
180.0
 51
269.3999999997063
  0
LINE
  5
FFF
330
A
100
AcDbEntity
  8
MODEL
  6
Continuous
100
AcDbLine
 10
492.3296449769757
 20
1085.907044097999
 30
0.0
 11
494.3906499272759
 21
1085.907044097999
 31
0.0
  0
LINE
  5
1000
330
A
100
AcDbEntity
  8
MODEL
  6
Continuous
100
AcDbLine
 10
494.3906499272759
 20
1121.707044097899
 30
0.0
 11
492.3296449769757
 21
1121.707044097899
 31
0.0
  0
ARC
  5
1001
330
A
100
AcDbEntity
  8
MODEL
  6
Continuous
100
AcDbCircle
 10
485.5878094766756
 20
1103.807044098099
 30
0.0
 40
20.0
100
AcDbArc
 50
296.8353216467011
 51
63.16467835329892
  0
ARC
  5
1002
330
A
100
AcDbEntity
  8
MODEL
  6
Continuous
100
AcDbCircle
 10
494.3906499272759
 20
1086.407044098099
 30
0.0
 40
0.5000000000000004
100
AcDbArc
 50
270.0
 51
296.8353216466455
  0
ARC
  5
1003
330
A
100
AcDbEntity
  8
MODEL
  6
Continuous
100
AcDbCircle
 10
494.3906499272759
 20
1121.207044098099
 30
0.0
 40
0.5000000000000007
100
AcDbArc
 50
63.16467835335446
 51
90.0
  0
LINE
  5
1004
330
A
100
AcDbEntity
  8
MODEL
  6
Continuous
100
AcDbLine
 10
425.0317393337762
 20
1085.202276315698
 30
0.0
 11
492.3296449769757
 21
1085.907044097999
 31
0.0
  0
LINE
  5
1005
330
A
100
AcDbEntity
  8
MODEL
  6
Continuous
100
AcDbLine
 10
492.3296449769757
 20
1121.707044097899
 30
0.0
 11
425.0317393337762
 21
1122.411811880198
 31
0.0
  0
ARC
  5
1006
330
A
100
AcDbEntity
  8
MODEL
  6
Continuous
100
AcDbCircle
 10
425.0296449770765
 20
1085.402265349599
 30
0.0
 40
0.2000000000000028
100
AcDbArc
 50
180.0
 51
270.5999999997726
  0
ARC
  5
1007
330
A
100
AcDbEntity
  8
MODEL
  6
Continuous
100
AcDbCircle
 10
425.0296449770765
 20
1122.211822846298
 30
0.0
 40
0.200000000000001
100
AcDbArc
 50
89.40000000022738
 51
180.0
  0
LINE
  5
1008
330
A
100
AcDbEntity
  8
MODEL
  6
Continuous
100
AcDbLine
 10
483.8296449770758
 20
1169.994851408799
 30
0.0
 11
483.8296449770758
 21
1163.877055750899
 31
0.0
  0
LINE
  5
1009
330
A
100
AcDbEntity
  8
MODEL
  6
Continuous
100
AcDbLine
 10
483.8296449770758
 20
1163.084598769598
 30
0.0
 11
483.8296449770758
 21
1163.877055750899
 31
0.0
  0
LINE
  5
100A
330
A
100
AcDbEntity
  8
MODEL
  6
Continuous
100
AcDbLine
 10
483.8296449770758
 20
1162.945072572099
 30
0.0
 11
483.8296449770758
 21
1163.084598769598
 31
0.0
  0
ARC
  5
100B
330
A
100
AcDbEntity
  8
MODEL
  6
Continuous
100
AcDbCircle
 10
484.358514180876
 20
1162.948522494999
 30
0.0
 40
0.5288804559945075
100
AcDbArc
 50
180.3737469023333
 51
224.5652866142611
  0
LINE
  5
100C
330
A
100
AcDbEntity
  8
MODEL
  6
Continuous
100
AcDbLine
 10
483.9844299221757
 20
1162.723847050599
 30
0.0
 11
483.9817125998759
 21
1162.577395690299
 31
0.0
  0
SPLINE
  5
100D
330
A
100
AcDbEntity
  8
MODEL
  6
Continuous
100
AcDbSpline
210
0.0
220
0.0
230
1.0
 70
     8
 71
     3
 72
    18
 73
    14
 74
     0
 42
0.000000001
 43
0.0000000001
 40
0.0
 40
0.0
 40
0.0
 40
0.0
 40
0.1250000000000013
 40
0.1250000000000013
 40
0.2500000000000027
 40
0.2500000000000027
 40
0.500000000000006
 40
0.500000000000006
 40
0.6250000000000043
 40
0.6250000000000043
 40
0.7500000000000027
 40
0.7500000000000027
 40
1.0
 40
1.0
 40
1.0
 40
1.0
 10
483.8296449769575
 20
1163.877055750913
 30
0.0
 10
483.8296449769575
 20
1163.969858849372
 30
0.0
 10
483.8408737007737
 20
1164.062124066362
 30
0.0
 10
483.8824378369452
 20
1164.245760470143
 30
0.0
 10
483.9132983868446
 20
1164.337798654071
 30
0.0
 10
484.0295050888969
 20
1164.601034790048
 30
0.0
 10
484.1406292628833
 20
1164.765308517249
 30
0.0
 10
484.3414198966864
 20
1164.972147755481
 30
0.0
 10
484.4155121618749
 20
1165.035840330067
 30
0.0
 10
484.5707055240562
 20
1165.14489766106
 30
0.0
 10
484.6520298535449
 20
1165.190856588858
 30
0.0
 10
484.9086017919806
 20
1165.299789268737
 30
0.0
 10
485.0928901499508
 20
1165.330670915556
 30
0.0
 10
485.2644275856526
 20
1165.300633737654
 30
0.0
  0
LINE
  5
100E
330
A
100
AcDbEntity
  8
MODEL
  6
Continuous
100
AcDbLine
 10
485.2644275855753
 20
1165.300633737699
 30
0.0
 11
492.7019854025755
 21
1165.300633737699
 31
0.0
  0
LINE
  5
100F
330
A
100
AcDbEntity
  8
MODEL
  6
Continuous
100
AcDbLine
 10
465.8296449770758
 20
1163.877055750899
 30
0.0
 11
465.8296449770758
 21
1169.994851408799
 31
0.0
  0
LINE
  5
1010
330
A
100
AcDbEntity
  8
MODEL
  6
Continuous
100
AcDbLine
 10
465.8296449770758
 20
1163.084598769598
 30
0.0
 11
465.8296449770758
 21
1162.945072572099
 31
0.0
  0
LINE
  5
1011
330
A
100
AcDbEntity
  8
MODEL
  6
Continuous
100
AcDbLine
 10
465.8296449770758
 20
1163.877055750899
 30
0.0
 11
465.8296449770758
 21
1163.084598769598
 31
0.0
  0
SPLINE
  5
1012
330
A
100
AcDbEntity
  8
MODEL
  6
Continuous
100
AcDbSpline
210
0.0
220
0.0
230
1.0
 70
     8
 71
     3
 72
    40
 73
    36
 74
     0
 42
0.000000001
 43
0.0000000001
 40
0.0
 40
0.0
 40
0.0
 40
0.0
 40
0.0624999999999995
 40
0.0624999999999995
 40
0.1249999999999991
 40
0.1249999999999991
 40
0.156249999999999
 40
0.156249999999999
 40
0.1874999999999989
 40
0.1874999999999989
 40
0.2499999999999989
 40
0.2499999999999989
 40
0.3124999999999991
 40
0.3124999999999991
 40
0.3749999999999991
 40
0.3749999999999991
 40
0.4374999999999992
 40
0.4374999999999992
 40
0.4999999999999993
 40
0.4999999999999993
 40
0.5624999999999994
 40
0.5624999999999994
 40
0.6249999999999996
 40
0.6249999999999996
 40
0.6874999999999997
 40
0.6874999999999997
 40
0.7499999999999998
 40
0.7499999999999998
 40
0.8125
 40
0.8125
 40
0.875
 40
0.875
 40
0.9375
 40
0.9375
 40
1.0
 40
1.0
 40
1.0
 40
1.0
 10
465.6775773541019
 20
1162.577395690206
 30
0.0
 10
464.8206972625455
 20
1161.700401819334
 30
0.0
 10
464.0894419047934
 20
1160.70311041721
 30
0.0
 10
462.9209292865332
 20
1158.527650517486
 30
0.0
 10
462.4776492274875
 20
1157.356589669971
 30
0.0
 10
462.0557514958116
 20
1155.378140790228
 30
0.0
 10
461.9625597126476
 20
1154.705230004662
 30
0.0
 10
461.876284496381
 20
1153.327485551853
 30
0.0
 10
461.8853121220534
 20
1152.622040214188
 30
0.0
 10
462.0629302088316
 20
1150.58032451875
 30
0.0
 10
462.3812959456534
 20
1149.280330454022
 30
0.0
 10
463.3069581698026
 20
1146.932990865441
 30
0.0
 10
463.9217438576377
 20
1145.85572881227
 30
0.0
 10
465.4041068586509
 20
1143.926961392155
 30
0.0
 10
466.2947356745315
 20
1143.048726724357
 30
0.0
 10
468.3319156553314
 20
1141.566294700795
 30
0.0
 10
469.4996811230228
 20
1140.949048272629
 30
0.0
 10
472.0337515805047
 20
1140.096658767626
 30
0.0
 10
473.4214860198415
 20
1139.861207890841
 30
0.0
 10
476.1706569382711
 20
1139.853958971955
 30
0.0
 10
477.5604362188176
 20
1140.081861333804
 30
0.0
 10
480.1058934649452
 20
1140.924203020376
 30
0.0
 10
481.2768487785595
 20
1141.535579815746
 30
0.0
 10
483.3362756658541
 20
1143.022324294527
 30
0.0
 10
484.2199922974194
 20
1143.88869378803
 30
0.0
 10
485.7138656550731
 20
1145.817687787675
 30
0.0
 10
486.3333237808636
 20
1146.896241416275
 30
0.0
 10
487.2644947831811
 20
1149.235040985476
 30
0.0
 10
487.5878093979998
 20
1150.532465539874
 30
0.0
 10
487.8340506329066
 20
1153.263724867223
 30
0.0
 10
487.7470979043544
 20
1154.686416775131
 30
0.0
 10
487.194873905172
 20
1157.312519207888
 30
0.0
 10
486.7443957032708
 20
1158.515423707333
 30
0.0
 10
485.568546612102
 20
1160.706520543689
 30
0.0
 10
484.8510210415432
 20
1161.687681735118
 30
0.0
 10
483.9817125998113
 20
1162.577395690206
 30
0.0
  0
ARC
  5
1013
330
A
100
AcDbEntity
  8
MODEL
  6
Continuous
100
AcDbCircle
 10
465.2961713237753
 20
1162.950426850899
 30
0.0
 40
0.5335005218666599
100
AcDbArc
 50
315.6360038555309
 51
359.4249626279159
  0
SPLINE
  5
1014
330
A
100
AcDbEntity
  8
MODEL
  6
Continuous
100
AcDbSpline
210
0.0
220
0.0
230
1.0
 70
     8
 71
     3
 72
    14
 73
    10
 74
     0
 42
0.000000001
 43
0.0000000001
 40
0.0
 40
0.0
 40
0.0
 40
0.0
 40
0.25
 40
0.25
 40
0.5
 40
0.5
 40
0.75
 40
0.75
 40
1.0
 40
1.0
 40
1.0
 40
1.0
 10
464.3948623682616
 20
1165.300633737654
 30
0.0
 10
464.5662298878522
 20
1165.330641162281
 30
0.0
 10
464.7486230937627
 20
1165.300269850288
 30
0.0
 10
465.0905043260389
 20
1165.155904790256
 30
0.0
 10
465.2503587722656
 20
1165.041697100904
 30
0.0
 10
465.5192769831763
 20
1164.764669304634
 30
0.0
 10
465.6300308838388
 20
1164.600409770044
 30
0.0
 10
465.784299120324
 20
1164.251090478631
 30
0.0
 10
465.8296449769575
 20
1164.062472990587
 30
0.0
 10
465.8296449769575
 20
1163.877055750913
 30
0.0
  0
LINE
  5
1015
330
A
100
AcDbEntity
  8
MODEL
  6
Continuous
100
AcDbLine
 10
464.3948623682761
 20
1165.300633737699
 30
0.0
 11
456.9573045512759
 21
1165.300633737699
 31
0.0
  0
ARC
  5
1016
330
A
100
AcDbEntity
  8
MODEL
  6
Continuous
100
AcDbCircle
 10
474.8296449770758
 20
1149.282536231498
 30
0.0
 40
23.99999999999999
100
AcDbArc
 50
41.86830622630054
 51
64.22853825940041
  0
LINE
  5
1017
330
A
100
AcDbEntity
  8
MODEL
  6
Continuous
100
AcDbLine
 10
492.8296449770758
 20
1121.707044097899
 30
0.0
 11
492.8296449770758
 21
1164.966923372799
 31
0.0
  0
LINE
  5
1018
330
A
100
AcDbEntity
  8
MODEL
  6
Continuous
100
AcDbLine
 10
456.8296449770758
 20
1164.966923372799
 30
0.0
 11
456.8296449770758
 21
1122.078812818299
 31
0.0
  0
ARC
  5
1019
330
A
100
AcDbEntity
  8
MODEL
  6
Continuous
100
AcDbCircle
 10
474.8296449770758
 20
1149.282536231498
 30
0.0
 40
23.99999999999999
100
AcDbArc
 50
115.7714617405996
 51
138.1316937736995
  0
ARC
  5
101A
330
A
100
AcDbEntity
  8
MODEL
  6
Continuous
100
AcDbCircle
 10
464.8296449768757
 20
1169.994851408799
 30
0.0
 40
1.000000000000001
100
AcDbArc
 50
0.0
 51
115.7714617405714
  0
ARC
  5
101B
330
A
100
AcDbEntity
  8
MODEL
  6
Continuous
100
AcDbCircle
 10
484.8296449769757
 20
1169.994851408799
 30
0.0
 40
0.9999999999999881
100
AcDbArc
 50
64.22853825942859
 51
180.0
  0
ARC
  5
101C
330
A
100
AcDbEntity
  8
MODEL
  6
Continuous
100
AcDbCircle
 10
492.3296449769757
 20
1164.966923372799
 30
0.0
 40
0.5000000000000004
100
AcDbArc
 50
0.0
 51
41.868306226337
  0
ARC
  5
101D
330
A
100
AcDbEntity
  8
MODEL
  6
Continuous
100
AcDbCircle
 10
457.3296449768757
 20
1164.966923372799
 30
0.0
 40
0.500000000000001
100
AcDbArc
 50
138.131693773663
 51
180.0
  0
LINE
  5
101E
330
A
100
AcDbEntity
  8
MODEL
  6
Continuous
100
AcDbLine
 10
465.8296449770758
 20
1162.943293960899
 30
0.0
 11
465.8296449770758
 21
1162.066156993599
 31
0.0
  0
LINE
  5
101F
330
A
100
AcDbEntity
  8
MODEL
  6
Continuous
100
AcDbLine
 10
483.8296449770758
 20
1162.943308528898
 30
0.0
 11
483.8296449770758
 21
1162.066156993599
 31
0.0
  0
SPLINE
  5
1020
330
A
100
AcDbEntity
  8
MODEL
  6
Continuous
100
AcDbSpline
210
0.0
220
0.0
230
1.0
 70
     8
 71
     3
 72
    30
 73
    26
 74
     0
 42
0.000000001
 43
0.0000000001
 40
0.0
 40
0.0
 40
0.0
 40
0.0
 40
0.0625000000000002
 40
0.0625000000000002
 40
0.1250000000000004
 40
0.1250000000000004
 40
0.1875000000000004
 40
0.1875000000000004
 40
0.2500000000000004
 40
0.2500000000000004
 40
0.3750000000000003
 40
0.3750000000000003
 40
0.5000000000000002
 40
0.5000000000000002
 40
0.6250000000000002
 40
0.6250000000000002
 40
0.7500000000000001
 40
0.7500000000000001
 40
0.8125000000000001
 40
0.8125000000000001
 40
0.8750000000000001
 40
0.8750000000000001
 40
0.9375000000000001
 40
0.9375000000000001
 40
1.0
 40
1.0
 40
1.0
 40
1.0
 10
484.2672736213724
 20
1157.353912035542
 30
0.0
 10
484.6201761592245
 20
1156.600562957507
 30
0.0
 10
484.8901015663203
 20
1155.776539562475
 30
0.0
 10
485.2026909630174
 20
1154.055649034932
 30
0.0
 10
485.2438557505745
 20
1153.143288067035
 30
0.0
 10
485.0823052036064
 20
1151.389099308925
 30
0.0
 10
484.8805420003434
 20
1150.530129686364
 30
0.0
 10
484.2995844042614
 20
1148.9597711121
 30
0.0
 10
483.9139916384463
 20
1148.223382171152
 30
0.0
 10
482.5464167916641
 20
1146.22122305835
 30
0.0
 10
481.3242096788697
 20
1145.107570594828
 30
0.0
 10
478.405181838192
 20
1143.515366448034
 30
0.0
 10
476.6393712055303
 20
1143.033853550005
 30
0.0
 10
473.0756401817259
 20
1143.024431354437
 30
0.0
 10
471.3268343967154
 20
1143.484291534704
 30
0.0
 10
468.3431238971323
 20
1145.094818813808
 30
0.0
 10
467.1258940024397
 20
1146.207380622268
 30
0.0
 10
465.7544279262081
 20
1148.207450501809
 30
0.0
 10
465.3666824815753
 20
1148.944371215301
 30
0.0
 10
464.7816011972861
 20
1150.519015851675
 30
0.0
 10
464.5789381427128
 20
1151.377527470406
 30
0.0
 10
464.4152810325484
 20
1153.135418299637
 30
0.0
 10
464.4558799117046
 20
1154.049087474294
 30
0.0
 10
464.7680484312211
 20
1155.772851189586
 30
0.0
 10
465.0383038253256
 20
1156.598833897473
 30
0.0
 10
465.3920163325427
 20
1157.353912035542
 30
0.0
  0
ARC
  5
1021
330
A
100
AcDbEntity
  8
MODEL
  6
Continuous
100
AcDbCircle
 10
488.0281245932754
 20
1159.220433413499
 30
0.0
 40
4.198559525382723
100
AcDbArc
 50
179.646502761698
 51
206.3953397540036
  0
LINE
  5
1022
330
A
100
AcDbEntity
  8
MODEL
  6
Continuous
100
AcDbLine
 10
483.8296449770758
 20
1159.246337062899
 30
0.0
 11
483.8296449770758
 21
1162.066156993599
 31
0.0
  0
LINE
  5
1023
330
A
100
AcDbEntity
  8
MODEL
  6
Continuous
100
AcDbLine
 10
483.8296449770758
 20
1162.066156993599
 30
0.0
 11
483.8640625649757
 21
1161.475940458899
 31
0.0
  0
ARC
  5
1024
330
A
100
AcDbEntity
  8
MODEL
  6
Continuous
100
AcDbCircle
 10
489.8456303012761
 20
1162.196917516899
 30
0.0
 40
6.024861865838091
100
AcDbArc
 50
186.8728837682007
 51
209.3268063338998
  0
LINE
  5
1025
330
A
100
AcDbEntity
  8
MODEL
  6
Continuous
100
AcDbLine
 10
465.8296449770758
 20
1162.066156993599
 30
0.0
 11
465.8296449770758
 21
1159.246337062899
 31
0.0
  0
ARC
  5
1026
330
A
100
AcDbEntity
  8
MODEL
  6
Continuous
100
AcDbCircle
 10
461.631165360576
 20
1159.220433413499
 30
0.0
 40
4.198559525382429
100
AcDbArc
 50
333.6046602460016
 51
0.3534972383020226
  0
SPLINE
  5
1027
330
A
100
AcDbEntity
  8
MODEL
  6
Continuous
100
AcDbSpline
210
0.0
220
0.0
230
1.0
 70
     8
 71
     3
 72
    34
 73
    30
 74
     0
 42
0.000000001
 43
0.0000000001
 40
0.0
 40
0.0
 40
0.0
 40
0.0
 40
0.0625000000000003
 40
0.0625000000000003
 40
0.1250000000000007
 40
0.1250000000000007
 40
0.1875000000000006
 40
0.1875000000000006
 40
0.2500000000000006
 40
0.2500000000000006
 40
0.3750000000000005
 40
0.3750000000000005
 40
0.4375000000000004
 40
0.4375000000000004
 40
0.5000000000000003
 40
0.5000000000000003
 40
0.5625000000000003
 40
0.5625000000000003
 40
0.6250000000000003
 40
0.6250000000000003
 40
0.7500000000000001
 40
0.7500000000000001
 40
0.8125000000000001
 40
0.8125000000000001
 40
0.8750000000000001
 40
0.8750000000000001
 40
0.9375000000000001
 40
0.9375000000000001
 40
1.0
 40
1.0
 40
1.0
 40
1.0
 10
465.0663765177758
 20
1159.245997992868
 30
0.0
 10
464.5716224589503
 20
1158.406686978886
 30
0.0
 10
464.1700840315177
 20
1157.486614380679
 30
0.0
 10
463.6011078488598
 20
1155.501667059656
 30
0.0
 10
463.4358070243413
 20
1154.421215014177
 30
0.0
 10
463.401164871894
 20
1152.2681073697
 30
0.0
 10
463.5323407254816
 20
1151.179787400137
 30
0.0
 10
464.0352662796292
 20
1149.182817790399
 30
0.0
 10
464.409065734131
 20
1148.243906954865
 30
0.0
 10
465.8036871955499
 20
1145.688810372039
 30
0.0
 10
467.1263006779052
 20
1144.246198710829
 30
0.0
 10
469.6574258508715
 20
1142.645915631532
 30
0.0
 10
470.6094277595955
 20
1142.204135152332
 30
0.0
 10
472.6281874798958
 20
1141.601991418841
 30
0.0
 10
473.7167216733312
 20
1141.437649160405
 30
0.0
 10
475.8724084613311
 20
1141.430912154605
 30
0.0
 10
476.9643508246033
 20
1141.588563921813
 30
0.0
 10
478.9935109480891
 20
1142.181226262717
 30
0.0
 10
479.9465456310188
 20
1142.616729311831
 30
0.0
 10
482.5074448338462
 20
1144.218922180125
 30
0.0
 10
483.8375599424669
 20
1145.664727345492
 30
0.0
 10
485.2407212955275
 20
1148.222098337101
 30
0.0
 10
485.607574350405
 20
1149.13323293743
 30
0.0
 10
486.1219482103131
 20
1151.144846298795
 30
0.0
 10
486.2566842978538
 20
1152.227699316836
 30
0.0
 10
486.2256232010393
 20
1154.415432755331
 30
0.0
 10
486.060375535312
 20
1155.490928907338
 30
0.0
 10
485.4924240212902
 20
1157.478444486589
 30
0.0
 10
485.0930697511728
 20
1158.397522479768
 30
0.0
 10
484.5929134361384
 20
1159.245997992869
 30
0.0
  0
ARC
  5
1028
330
A
100
AcDbEntity
  8
MODEL
  6
Continuous
100
AcDbCircle
 10
459.8136596525753
 20
1162.196917516899
 30
0.0
 40
6.024861865856094
100
AcDbArc
 50
330.6731936661092
 51
353.1271162317981
  0
LINE
  5
1029
330
A
100
AcDbEntity
  8
MODEL
  6
Continuous
100
AcDbLine
 10
465.7952273888757
 20
1161.475940458899
 30
0.0
 11
465.8296449770758
 21
1162.066156993599
 31
0.0
  0
LINE
  5
102A
330
A
100
AcDbEntity
  8
MODEL
  6
Continuous
100
AcDbLine
 10
456.9860814953761
 20
1061.307854943698
 30
0.0
 11
492.6732084587754
 21
1061.307854943698
 31
0.0
  0
CIRCLE
  5
102B
330
A
100
AcDbEntity
  8
MODEL
  6
Continuous
100
AcDbCircle
 10
474.8291613827757
 20
1073.957100882699
 30
0.0
 40
6.966501638006202
  0
CIRCLE
  5
102C
330
A
100
AcDbEntity
  8
MODEL
  6
Continuous
100
AcDbCircle
 10
474.8293523837754
 20
1073.956819415499
 30
0.0
 40
7.002671262047871
  0
LINE
  5
102D
330
A
100
AcDbEntity
  8
MODEL
  6
Continuous
100
AcDbLine
 10
456.8296449770758
 20
1085.535275377598
 30
0.0
 11
456.8296449770758
 21
1061.671123623998
 31
0.0
  0
LINE
  5
102E
330
A
100
AcDbEntity
  8
MODEL
  6
Continuous
100
AcDbLine
 10
492.8296449770758
 20
1061.671123623998
 30
0.0
 11
492.8296449770758
 21
1085.907044097999
 31
0.0
  0
ARC
  5
102F
330
A
100
AcDbEntity
  8
MODEL
  6
Continuous
100
AcDbCircle
 10
474.8296449770758
 20
1080.174841985199
 30
0.0
 40
25.96836455654523
100
AcDbArc
 50
226.5968887930997
 51
313.4031112069002
  0
ARC
  5
1030
330
A
100
AcDbEntity
  8
MODEL
  6
Continuous
100
AcDbCircle
 10
457.3296449768757
 20
1061.671123623998
 30
0.0
 40
0.5000000000000004
100
AcDbArc
 50
180.0
 51
226.5968887930722
  0
ARC
  5
1031
330
A
100
AcDbEntity
  8
MODEL
  6
Continuous
100
AcDbCircle
 10
492.3296449769757
 20
1061.671123623998
 30
0.0
 40
0.5000000000000049
100
AcDbArc
 50
313.4031112069278
 51
0.0
  0
LINE
  5
1032
330
A
100
AcDbEntity
  8
MODEL
  6
Continuous
100
AcDbLine
 10
424.8296449769757
 20
1115.643821580999
 30
0.0
 11
424.8296449769757
 21
1115.929203612699
 31
0.0
  0
LINE
  5
1033
330
A
100
AcDbEntity
  8
MODEL
  6
Continuous
100
AcDbLine
 10
424.8296449769757
 20
1092.044414295398
 30
0.0
 11
424.8296449769757
 21
1115.570269533699
 31
0.0
  0
LINE
  5
1034
330
A
100
AcDbEntity
  8
MODEL
  6
Continuous
100
AcDbLine
 10
424.8296449769757
 20
1091.970851182299
 30
0.0
 11
424.8296449769757
 21
1092.044414295398
 31
0.0
  0
LINE
  5
1035
330
A
100
AcDbEntity
  8
MODEL
  6
Continuous
100
AcDbLine
 10
424.8296449769757
 20
1115.570269533699
 30
0.0
 11
424.8296449769757
 21
1115.643821580999
 31
0.0
  0
LINE
  5
1036
330
A
100
AcDbEntity
  8
MODEL
  6
Continuous
100
AcDbLine
 10
424.8296449769757
 20
1115.643821580999
 30
0.0
 11
475.8894390257763
 21
1115.109105121899
 31
0.0
  0
ARC
  5
1037
330
A
100
AcDbEntity
  8
MODEL
  6
Continuous
100
AcDbCircle
 10
474.8274576590754
 20
1103.808897354999
 30
0.0
 40
11.35
100
AcDbArc
 50
275.1753533805003
 51
84.63117313169923
  0
LINE
  5
1038
330
A
100
AcDbEntity
  8
MODEL
  6
Continuous
100
AcDbLine
 10
475.8512750741754
 20
1092.505167974798
 30
0.0
 11
424.8296449769757
 21
1091.970851182299
 31
0.0
  0
LINE
  5
1039
330
A
100
AcDbEntity
  8
MODEL
  6
Continuous
100
AcDbLine
 10
424.8296449769757
 20
1091.684884583199
 30
0.0
 11
424.8296449769757
 21
1091.970851182299
 31
0.0
  0
LINE
  5
103A
330
A
100
AcDbEntity
  8
MODEL
  6
Continuous
100
AcDbLine
 10
374.3296449770758
 20
1105.147087876899
 30
0.0
 11
369.3296449769757
 21
1103.807341914699
 31
0.0
  0
LINE
  5
103B
330
A
100
AcDbEntity
  8
MODEL
  6
Continuous
100
AcDbLine
 10
369.3296449769757
 20
1103.807341914699
 30
0.0
 11
374.3296449770758
 21
1102.467595952498
 31
0.0
  0
LINE
  5
103C
330
A
100
AcDbEntity
  8
MODEL
  6
Continuous
100
AcDbLine
 10
374.3296449770758
 20
1102.858064385699
 30
0.0
 11
374.3296449770758
 21
1104.756619443398
 31
0.0
  0
LINE
  5
103D
330
A
100
AcDbEntity
  8
MODEL
  6
Continuous
100
AcDbLine
 10
424.3296449768757
 20
1101.807341914599
 30
0.0
 11
424.3296449768757
 21
1105.807341914498
 31
0.0
  0
LINE
  5
103E
330
A
100
AcDbEntity
  8
MODEL
  6
Continuous
100
AcDbLine
 10
376.3296449768757
 20
1101.794740897898
 30
0.0
 11
376.3296449768757
 21
1105.819942931199
 31
0.0
  0
LINE
  5
103F
330
A
100
AcDbEntity
  8
MODEL
  6
Continuous
100
AcDbLine
 10
420.8296449770758
 20
1101.807341914599
 30
0.0
 11
424.3296449768757
 21
1101.807341914599
 31
0.0
  0
LINE
  5
1040
330
A
100
AcDbEntity
  8
MODEL
  6
Continuous
100
AcDbLine
 10
424.3296449768757
 20
1100.807341914699
 30
0.0
 11
424.3296449768757
 21
1101.807341914599
 31
0.0
  0
LINE
  5
1041
330
A
100
AcDbEntity
  8
MODEL
  6
Continuous
100
AcDbLine
 10
420.8296449770758
 20
1100.807341914699
 30
0.0
 11
424.3296449768757
 21
1100.807341914699
 31
0.0
  0
LINE
  5
1042
330
A
100
AcDbEntity
  8
MODEL
  6
Continuous
100
AcDbLine
 10
420.8296449770758
 20
1100.807341914699
 30
0.0
 11
420.8296449770758
 21
1101.807341914599
 31
0.0
  0
LINE
  5
1043
330
A
100
AcDbEntity
  8
MODEL
  6
Continuous
100
AcDbLine
 10
420.8296449770758
 20
1106.807341914699
 30
0.0
 11
424.3296449768757
 21
1106.807341914699
 31
0.0
  0
LINE
  5
1044
330
A
100
AcDbEntity
  8
MODEL
  6
Continuous
100
AcDbLine
 10
424.3296449768757
 20
1105.807341914498
 30
0.0
 11
424.3296449768757
 21
1106.807341914699
 31
0.0
  0
LINE
  5
1045
330
A
100
AcDbEntity
  8
MODEL
  6
Continuous
100
AcDbLine
 10
420.8296449770758
 20
1105.807341914498
 30
0.0
 11
424.3296449768757
 21
1105.807341914498
 31
0.0
  0
LINE
  5
1046
330
A
100
AcDbEntity
  8
MODEL
  6
Continuous
100
AcDbLine
 10
420.8296449770758
 20
1105.807341914498
 30
0.0
 11
420.8296449770758
 21
1106.807341914699
 31
0.0
  0
SPLINE
  5
1047
330
A
100
AcDbEntity
  8
MODEL
  6
Continuous
100
AcDbSpline
210
0.0
220
0.0
230
1.0
 70
    12
 71
     2
 72
     6
 73
     3
 74
     0
 42
0.000000001
 43
0.0000000001
 40
0.0
 40
0.0
 40
0.0
 40
1.0
 40
1.0
 40
1.0
 10
420.8296449771503
 20
1105.807341914627
 30
0.0
 41
1.0
 10
418.8623878044184
 20
1105.869599513739
 30
0.0
 41
0.9996126244626101
 10
416.8772729979326
 20
1105.928662258189
 30
0.0
 41
1.0
  0
LINE
  5
1048
330
A
100
AcDbEntity
  8
MODEL
  6
Continuous
100
AcDbLine
 10
420.8296449770758
 20
1106.807341914699
 30
0.0
 11
416.8772729978762
 21
1105.928662258299
 31
0.0
  0
SPLINE
  5
1049
330
A
100
AcDbEntity
  8
MODEL
  6
Continuous
100
AcDbSpline
210
0.0
220
0.0
230
1.0
 70
    12
 71
     2
 72
     6
 73
     3
 74
     0
 42
0.000000001
 43
0.0000000001
 40
0.0
 40
0.0
 40
0.0
 40
1.0
 40
1.0
 40
1.0
 10
416.8772729979407
 20
1101.686021571006
 30
0.0
 41
1.0
 10
418.8623878045531
 20
1101.74508431546
 30
0.0
 41
0.9996126242253521
 10
420.8296449771603
 20
1101.807341914568
 30
0.0
 41
1.0
  0
LINE
  5
104A
330
A
100
AcDbEntity
  8
MODEL
  6
Continuous
100
AcDbLine
 10
420.8296449770758
 20
1100.807341914699
 30
0.0
 11
416.8772729978762
 21
1101.686021571099
 31
0.0
  0
LINE
  5
104B
330
A
100
AcDbEntity
  8
MODEL
  6
Continuous
100
AcDbLine
 10
374.3296449770758
 20
1104.968751477698
 30
0.0
 11
374.3296449770758
 21
1105.307341914699
 31
0.0
  0
LINE
  5
104C
330
A
100
AcDbEntity
  8
MODEL
  6
Continuous
100
AcDbLine
 10
374.3296449770758
 20
1102.645932351399
 30
0.0
 11
374.3296449770758
 21
1102.307341914699
 31
0.0
  0
LINE
  5
104D
330
A
100
AcDbEntity
  8
MODEL
  6
Continuous
100
AcDbLine
 10
376.3296449768757
 20
1106.032074965498
 30
0.0
 11
376.3296449768757
 21
1106.807341914699
 31
0.0
  0
LINE
  5
104E
330
A
100
AcDbEntity
  8
MODEL
  6
Continuous
100
AcDbLine
 10
376.3296449768757
 20
1101.582608863599
 30
0.0
 11
376.3296449768757
 21
1100.807341914699
 31
0.0
  0
LINE
  5
104F
330
A
100
AcDbEntity
  8
MODEL
  6
Continuous
100
AcDbLine
 10
382.3296449768757
 20
1101.794740897898
 30
0.0
 11
382.3296449768757
 21
1101.582608863599
 31
0.0
  0
LINE
  5
1050
330
A
100
AcDbEntity
  8
MODEL
  6
Continuous
100
AcDbLine
 10
382.3296449768757
 20
1106.032074965498
 30
0.0
 11
382.3296449768757
 21
1105.819942931199
 31
0.0
  0
LINE
  5
1051
330
A
100
AcDbEntity
  8
MODEL
  6
Continuous
100
AcDbLine
 10
374.3296449770758
 20
1102.645932351399
 30
0.0
 11
374.3296449770758
 21
1102.759888824099
 31
0.0
  0
LINE
  5
1052
330
A
100
AcDbEntity
  8
MODEL
  6
Continuous
100
AcDbLine
 10
374.3296449770758
 20
1104.968751477698
 30
0.0
 11
376.3296449768757
 21
1106.032074965498
 31
0.0
  0
LINE
  5
1053
330
A
100
AcDbEntity
  8
MODEL
  6
Continuous
100
AcDbLine
 10
376.3296449768757
 20
1106.032074965498
 30
0.0
 11
382.3296449768757
 21
1106.032074965498
 31
0.0
  0
LINE
  5
1054
330
A
100
AcDbEntity
  8
MODEL
  6
Continuous
100
AcDbLine
 10
382.3296449768757
 20
1105.819942931199
 30
0.0
 11
376.3296449768757
 21
1105.819942931199
 31
0.0
  0
LINE
  5
1055
330
A
100
AcDbEntity
  8
MODEL
  6
Continuous
100
AcDbLine
 10
376.3296449768757
 20
1105.819942931199
 30
0.0
 11
374.3296449770758
 21
1104.756619443398
 31
0.0
  0
LINE
  5
1056
330
A
100
AcDbEntity
  8
MODEL
  6
Continuous
100
AcDbLine
 10
374.3296449770758
 20
1102.858064385699
 30
0.0
 11
376.3296449768757
 21
1101.794740897898
 31
0.0
  0
LINE
  5
1057
330
A
100
AcDbEntity
  8
MODEL
  6
Continuous
100
AcDbLine
 10
376.3296449768757
 20
1101.794740897898
 30
0.0
 11
382.3296449768757
 21
1101.794740897898
 31
0.0
  0
LINE
  5
1058
330
A
100
AcDbEntity
  8
MODEL
  6
Continuous
100
AcDbLine
 10
382.3296449768757
 20
1101.582608863599
 30
0.0
 11
376.3296449768757
 21
1101.582608863599
 31
0.0
  0
LINE
  5
1059
330
A
100
AcDbEntity
  8
MODEL
  6
Continuous
100
AcDbLine
 10
376.3296449768757
 20
1101.582608863599
 30
0.0
 11
374.3296449770758
 21
1102.645932351399
 31
0.0
  0
LINE
  5
105A
330
A
100
AcDbEntity
  8
MODEL
  6
Continuous
100
AcDbLine
 10
398.0891373896764
 20
1104.059065155099
 30
0.0
 11
394.1666168111758
 21
1104.059065155099
 31
0.0
  0
SPLINE
  5
105B
330
A
100
AcDbEntity
  8
MODEL
  6
Continuous
100
AcDbSpline
210
0.0
220
0.0
230
1.0
 70
     8
 71
     3
 72
     8
 73
     4
 74
     0
 42
0.000000001
 43
0.0000000001
 40
0.0
 40
0.0
 40
0.0
 40
0.0
 40
1.0
 40
1.0
 40
1.0
 40
1.0
 10
398.5174737155319
 20
1104.208091382376
 30
0.0
 10
398.3958537434835
 20
1104.111808904504
 30
0.0
 10
398.2447853874362
 20
1104.059065154981
 30
0.0
 10
398.0891373895454
 20
1104.059065154981
 30
0.0
  0
LINE
  5
105C
330
A
100
AcDbEntity
  8
MODEL
  6
Continuous
100
AcDbLine
 10
399.4460018309762
 20
1104.943176140499
 30
0.0
 11
398.5174737155764
 21
1104.208091382399
 31
0.0
  0
SPLINE
  5
105D
330
A
100
AcDbEntity
  8
MODEL
  6
Continuous
100
AcDbSpline
210
0.0
220
0.0
230
1.0
 70
     8
 71
     3
 72
     8
 73
     4
 74
     0
 42
0.000000001
 43
0.0000000001
 40
0.0
 40
0.0
 40
0.0
 40
0.0
 40
1.0
 40
1.0
 40
1.0
 40
1.0
 10
399.9103148126185
 20
1105.104719319941
 30
0.0
 10
399.7396034670317
 20
1105.104719319941
 30
0.0
 10
399.575565120437
 20
1105.045747077926
 30
0.0
 10
399.4460018310444
 20
1104.94317614049
 30
0.0
  0
LINE
  5
105E
330
A
100
AcDbEntity
  8
MODEL
  6
Continuous
100
AcDbLine
 10
404.514347379876
 20
1105.104719319998
 30
0.0
 11
399.9103148126758
 21
1105.104719319998
 31
0.0
  0
SPLINE
  5
105F
330
A
100
AcDbEntity
  8
MODEL
  6
Continuous
100
AcDbSpline
210
0.0
220
0.0
230
1.0
 70
     8
 71
     3
 72
    35
 73
    31
 74
     0
 42
0.000000001
 43
0.0000000001
 40
0.0
 40
0.0
 40
0.0
 40
0.0
 40
0.0967623178306354
 40
0.0967623178306354
 40
0.0967623178306354
 40
0.1934821164195833
 40
0.1934821164195833
 40
0.1934821164195833
 40
0.2909053964280618
 40
0.2909053964280618
 40
0.2909053964280618
 40
0.3910032725347112
 40
0.3910032725347112
 40
0.3910032725347112
 40
0.495524958698393
 40
0.495524958698393
 40
0.495524958698393
 40
0.6055431097806552
 40
0.6055431097806552
 40
0.6055431097806552
 40
0.7198972159201141
 40
0.7198972159201141
 40
0.7198972159201141
 40
0.8336063174331692
 40
0.8336063174331692
 40
0.8336063174331692
 40
0.9395307754512453
 40
0.9395307754512453
 40
0.9395307754512453
 40
1.0
 40
1.0
 40
1.0
 40
1.0
 10
404.4838793888291
 20
1104.604719319942
 30
0.0
 10
404.510831589643
 20
1104.601422360023
 30
0.0
 10
404.5387490544697
 20
1104.602583221882
 30
0.0
 10
404.5653091814954
 20
1104.608092210367
 30
0.0
 10
404.5918632024011
 20
1104.613599932346
 30
0.0
 10
404.617783287177
 20
1104.623598592393
 30
0.0
 10
404.6409887216057
 20
1104.637164657457
 30
0.0
 10
404.6643701059518
 20
1104.650833584117
 30
0.0
 10
404.6856202068818
 20
1104.668476104686
 30
0.0
 10
404.7031800466036
 20
1104.688542012359
 30
0.0
 10
404.7212229409822
 20
1104.70915991426
 30
0.0
 10
404.7358480276387
 20
1104.732859084001
 30
0.0
 10
404.7461401545813
 20
1104.757681081096
 30
0.0
 10
404.7568846342181
 20
1104.783594038038
 30
0.0
 10
404.7631993759958
 20
1104.811388957453
 30
0.0
 10
404.764834210813
 20
1104.838912897461
 30
0.0
 10
404.7665538582094
 20
1104.867864734847
 30
0.0
 10
404.7631533937317
 20
1104.897277468519
 30
0.0
 10
404.7549851705414
 20
1104.924913906292
 30
0.0
 10
404.7465051815896
 20
1104.953605175071
 30
0.0
 10
404.7326401455182
 20
1104.981189913327
 30
0.0
 10
404.7143505910979
 20
1105.005328893072
 30
0.0
 10
404.6961880903407
 20
1105.029300184434
 30
0.0
 10
404.6730627623062
 20
1105.050592760398
 30
0.0
 10
404.6467948178222
 20
1105.066917010478
 30
0.0
 10
404.6223228672559
 20
1105.082125137679
 30
0.0
 10
404.5943133040726
 20
1105.093461426289
 30
0.0
 10
404.5654108248007
 20
1105.09946872819
 30
0.0
 10
404.5487164684853
 20
1105.102938604857
 30
0.0
 10
404.5314787502591
 20
1105.104719319941
 30
0.0
 10
404.514347380006
 20
1105.104719319941
 30
0.0
  0
LINE
  5
1060
330
A
100
AcDbEntity
  8
MODEL
  6
Continuous
100
AcDbLine
 10
400.0513037765757
 20
1104.604719319899
 30
0.0
 11
404.4838793888755
 21
1104.604719319899
 31
0.0
  0
SPLINE
  5
1061
330
A
100
AcDbEntity
  8
MODEL
  6
Continuous
100
AcDbSpline
210
0.0
220
0.0
230
1.0
 70
     8
 71
     3
 72
     8
 73
     4
 74
     0
 42
0.000000001
 43
0.0000000001
 40
0.0
 40
0.0
 40
0.0
 40
0.0
 40
1.0
 40
1.0
 40
1.0
 40
1.0
 10
399.6458114946752
 20
1104.463640963155
 30
0.0
 10
399.7605963812027
 20
1104.554512331656
 30
0.0
 10
399.9034148050112
 20
1104.604719319942
 30
0.0
 10
400.0513037766602
 20
1104.604719319942
 30
0.0
  0
LINE
  5
1062
330
A
100
AcDbEntity
  8
MODEL
  6
Continuous
100
AcDbLine
 10
398.5844569895751
 20
1103.623401979899
 30
0.0
 11
399.645811494576
 21
1104.463640963198
 31
0.0
  0
SPLINE
  5
1063
330
A
100
AcDbEntity
  8
MODEL
  6
Continuous
100
AcDbSpline
210
0.0
220
0.0
230
1.0
 70
     8
 71
     3
 72
     8
 73
     4
 74
     0
 42
0.000000001
 43
0.0000000001
 40
0.0
 40
0.0
 40
0.0
 40
0.0
 40
1.0
 40
1.0
 40
1.0
 40
1.0
 10
398.3946042175473
 20
1103.557348646006
 30
0.0
 10
398.463549945335
 20
1103.557348646006
 30
0.0
 10
398.530442253769
 20
1103.580640314105
 30
0.0
 10
398.584456989546
 20
1103.623401979928
 30
0.0
  0
LINE
  5
1064
330
A
100
AcDbEntity
  8
MODEL
  6
Continuous
100
AcDbLine
 10
394.1960778938753
 20
1103.557348645899
 30
0.0
 11
398.3946042176756
 21
1103.557348645899
 31
0.0
  0
SPLINE
  5
1065
330
A
100
AcDbEntity
  8
MODEL
  6
Continuous
100
AcDbSpline
210
0.0
220
0.0
230
1.0
 70
     8
 71
     3
 72
    35
 73
    31
 74
     0
 42
0.000000001
 43
0.0000000001
 40
0.0
 40
0.0
 40
0.0
 40
0.0
 40
0.1033136090091514
 40
0.1033136090091514
 40
0.1033136090091514
 40
0.2066116987284123
 40
0.2066116987284123
 40
0.2066116987284123
 40
0.3101424222945665
 40
0.3101424222945665
 40
0.3101424222945665
 40
0.4138328933192867
 40
0.4138328933192867
 40
0.4138328933192867
 40
0.517273209260237
 40
0.517273209260237
 40
0.517273209260237
 40
0.6204452387933982
 40
0.6204452387933982
 40
0.6204452387933982
 40
0.7237465565885676
 40
0.7237465565885676
 40
0.7237465565885676
 40
0.8273742263125191
 40
0.8273742263125191
 40
0.8273742263125191
 40
0.9310182353677731
 40
0.9310182353677731
 40
0.9310182353677731
 40
1.0
 40
1.0
 40
1.0
 40
1.0
 10
394.1666168110867
 20
1104.059065154981
 30
0.0
 10
394.1384982549996
 20
1104.059065154981
 30
0.0
 10
394.1099921618895
 20
1104.054219106394
 30
0.0
 10
394.0834613094282
 20
1104.044933480721
 30
0.0
 10
394.0569327230476
 20
1104.035648648162
 30
0.0
 10
394.0316479142245
 20
1104.021671517879
 30
0.0
 10
394.0096830917998
 20
1104.00415755803
 30
0.0
 10
393.9876696063545
 20
1103.986604796039
 30
0.0
 10
393.9683835404346
 20
1103.965015789624
 30
0.0
 10
393.9534136377149
 20
1103.941166413898
 30
0.0
 10
393.9384220187301
 20
1103.917282440798
 30
0.0
 10
393.9273460677302
 20
1103.890469353166
 30
0.0
 10
393.9211129703424
 20
1103.862951751216
 30
0.0
 10
393.9148947850697
 20
1103.835499982612
 30
0.0
 10
393.9133255281947
 20
1103.806587908228
 30
0.0
 10
393.9165374028032
 20
1103.778621202533
 30
0.0
 10
393.9197412689516
 20
1103.75072422878
 30
0.0
 10
393.9277889612092
 20
1103.722999921372
 30
0.0
 10
393.9400099404154
 20
1103.697733904337
 30
0.0
 10
393.9522465366588
 20
1103.672435600174
 30
0.0
 10
393.9690018754161
 20
1103.64890540713
 30
0.0
 10
393.9888971165153
 20
1103.629071614463
 30
0.0
 10
394.0088534387176
 20
1103.609176929348
 30
0.0
 10
394.0325205419656
 20
1103.592452680271
 30
0.0
 10
394.057947196239
 20
1103.58028354202
 30
0.0
 10
394.0833761939591
 20
1103.568113282202
 30
0.0
 10
394.1112700764968
 20
1103.560164112964
 30
0.0
 10
394.1393088783987
 20
1103.557104294403
 30
0.0
 10
394.1581196037739
 20
1103.555051517439
 30
0.0
 10
394.1772856621153
 20
1103.555134028366
 30
0.0
 10
394.1960778940145
 20
1103.557348646006
 30
0.0
  0
LINE
  5
1066
330
A
100
AcDbEntity
  8
MODEL
  6
Continuous
100
AcDbLine
 10
409.5348330551758
 20
1104.059065155099
 30
0.0
 11
405.6123124769754
 21
1104.059065155099
 31
0.0
  0
SPLINE
  5
1067
330
A
100
AcDbEntity
  8
MODEL
  6
Continuous
100
AcDbSpline
210
0.0
220
0.0
230
1.0
 70
     8
 71
     3
 72
     8
 73
     4
 74
     0
 42
0.000000001
 43
0.0000000001
 40
0.0
 40
0.0
 40
0.0
 40
0.0
 40
1.0
 40
1.0
 40
1.0
 40
1.0
 10
409.9631693812905
 20
1104.208091382376
 30
0.0
 10
409.841549409243
 20
1104.111808904504
 30
0.0
 10
409.6904810531958
 20
1104.059065154981
 30
0.0
 10
409.5348330553049
 20
1104.059065154981
 30
0.0
  0
LINE
  5
1068
330
A
100
AcDbEntity
  8
MODEL
  6
Continuous
100
AcDbLine
 10
410.8916974967758
 20
1104.943176140499
 30
0.0
 11
409.963169381376
 21
1104.208091382399
 31
0.0
  0
SPLINE
  5
1069
330
A
100
AcDbEntity
  8
MODEL
  6
Continuous
100
AcDbSpline
210
0.0
220
0.0
230
1.0
 70
     8
 71
     3
 72
     8
 73
     4
 74
     0
 42
0.000000001
 43
0.0000000001
 40
0.0
 40
0.0
 40
0.0
 40
0.0
 40
1.0
 40
1.0
 40
1.0
 40
1.0
 10
411.356010478378
 20
1105.104719319941
 30
0.0
 10
411.1852991327912
 20
1105.104719319941
 30
0.0
 10
411.0212607861965
 20
1105.045747077926
 30
0.0
 10
410.891697496804
 20
1104.94317614049
 30
0.0
  0
LINE
  5
106A
330
A
100
AcDbEntity
  8
MODEL
  6
Continuous
100
AcDbLine
 10
415.9600430456765
 20
1105.104719319998
 30
0.0
 11
411.3560104784763
 21
1105.104719319998
 31
0.0
  0
SPLINE
  5
106B
330
A
100
AcDbEntity
  8
MODEL
  6
Continuous
100
AcDbSpline
210
0.0
220
0.0
230
1.0
 70
     8
 71
     3
 72
    35
 73
    31
 74
     0
 42
0.000000001
 43
0.0000000001
 40
0.0
 40
0.0
 40
0.0
 40
0.0
 40
0.0967623178306291
 40
0.0967623178306291
 40
0.0967623178306291
 40
0.1934821164195761
 40
0.1934821164195761
 40
0.1934821164195761
 40
0.2909053964280522
 40
0.2909053964280522
 40
0.2909053964280522
 40
0.3910032725347002
 40
0.3910032725347002
 40
0.3910032725347002
 40
0.4955249586983873
 40
0.4955249586983873
 40
0.4955249586983873
 40
0.6055431097806461
 40
0.6055431097806461
 40
0.6055431097806461
 40
0.7198972159201062
 40
0.7198972159201062
 40
0.7198972159201062
 40
0.8336063174331635
 40
0.8336063174331635
 40
0.8336063174331635
 40
0.939530775451235
 40
0.939530775451235
 40
0.939530775451235
 40
1.0
 40
1.0
 40
1.0
 40
1.0
 10
415.9295750545878
 20
1104.604719319942
 30
0.0
 10
415.9565272554025
 20
1104.601422360023
 30
0.0
 10
415.9844447202283
 20
1104.602583221882
 30
0.0
 10
416.011004847255
 20
1104.608092210367
 30
0.0
 10
416.0375588681607
 20
1104.613599932346
 30
0.0
 10
416.0634789529356
 20
1104.623598592393
 30
0.0
 10
416.0866843873653
 20
1104.637164657457
 30
0.0
 10
416.1100657717113
 20
1104.650833584117
 30
0.0
 10
416.1313158726414
 20
1104.668476104686
 30
0.0
 10
416.1488757123632
 20
1104.688542012359
 30
0.0
 10
416.1669186067409
 20
1104.70915991426
 30
0.0
 10
416.1815436933982
 20
1104.732859084
 30
0.0
 10
416.1918358203409
 20
1104.757681081096
 30
0.0
 10
416.2025802999776
 20
1104.783594038038
 30
0.0
 10
416.2088950417553
 20
1104.811388957453
 30
0.0
 10
416.2105298765725
 20
1104.838912897461
 30
0.0
 10
416.2122495239689
 20
1104.867864734847
 30
0.0
 10
416.2088490594904
 20
1104.897277468519
 30
0.0
 10
416.200680836301
 20
1104.924913906292
 30
0.0
 10
416.1922008473482
 20
1104.953605175071
 30
0.0
 10
416.1783358112768
 20
1104.981189913327
 30
0.0
 10
416.1600462568574
 20
1105.005328893072
 30
0.0
 10
416.1418837560993
 20
1105.029300184434
 30
0.0
 10
416.1187584280649
 20
1105.050592760398
 30
0.0
 10
416.0924904835817
 20
1105.066917010478
 30
0.0
 10
416.0680185330154
 20
1105.082125137679
 30
0.0
 10
416.0400089698312
 20
1105.093461426289
 30
0.0
 10
416.0111064905602
 20
1105.09946872819
 30
0.0
 10
415.9944121342439
 20
1105.102938604857
 30
0.0
 10
415.9771744160178
 20
1105.104719319941
 30
0.0
 10
415.9600430457656
 20
1105.104719319941
 30
0.0
  0
LINE
  5
106C
330
A
100
AcDbEntity
  8
MODEL
  6
Continuous
100
AcDbLine
 10
411.4969994423761
 20
1104.604719319899
 30
0.0
 11
415.929575054676
 21
1104.604719319899
 31
0.0
  0
SPLINE
  5
106D
330
A
100
AcDbEntity
  8
MODEL
  6
Continuous
100
AcDbSpline
210
0.0
220
0.0
230
1.0
 70
     8
 71
     3
 72
     8
 73
     4
 74
     0
 42
0.000000001
 43
0.0000000001
 40
0.0
 40
0.0
 40
0.0
 40
0.0
 40
1.0
 40
1.0
 40
1.0
 40
1.0
 10
411.0915071604347
 20
1104.463640963155
 30
0.0
 10
411.2062920469623
 20
1104.554512331656
 30
0.0
 10
411.3491104707698
 20
1104.604719319942
 30
0.0
 10
411.4969994424198
 20
1104.604719319942
 30
0.0
  0
LINE
  5
106E
330
A
100
AcDbEntity
  8
MODEL
  6
Continuous
100
AcDbLine
 10
410.0301526553756
 20
1103.623401979899
 30
0.0
 11
411.0915071603756
 21
1104.463640963198
 31
0.0
  0
SPLINE
  5
106F
330
A
100
AcDbEntity
  8
MODEL
  6
Continuous
100
AcDbSpline
210
0.0
220
0.0
230
1.0
 70
     8
 71
     3
 72
     8
 73
     4
 74
     0
 42
0.000000001
 43
0.0000000001
 40
0.0
 40
0.0
 40
0.0
 40
0.0
 40
1.0
 40
1.0
 40
1.0
 40
1.0
 10
409.8402998833069
 20
1103.557348646006
 30
0.0
 10
409.9092456110945
 20
1103.557348646006
 30
0.0
 10
409.9761379195277
 20
1103.580640314105
 30
0.0
 10
410.0301526553055
 20
1103.623401979928
 30
0.0
  0
LINE
  5
1070
330
A
100
AcDbEntity
  8
MODEL
  6
Continuous
100
AcDbLine
 10
405.6417735596758
 20
1103.557348645899
 30
0.0
 11
409.8402998831759
 21
1103.557348645899
 31
0.0
  0
SPLINE
  5
1071
330
A
100
AcDbEntity
  8
MODEL
  6
Continuous
100
AcDbSpline
210
0.0
220
0.0
230
1.0
 70
     8
 71
     3
 72
    35
 73
    31
 74
     0
 42
0.000000001
 43
0.0000000001
 40
0.0
 40
0.0
 40
0.0
 40
0.0
 40
0.1033136090091514
 40
0.1033136090091514
 40
0.1033136090091514
 40
0.2066116987284123
 40
0.2066116987284123
 40
0.2066116987284123
 40
0.3101424222945665
 40
0.3101424222945665
 40
0.3101424222945665
 40
0.4138328933192867
 40
0.4138328933192867
 40
0.4138328933192867
 40
0.517273209260237
 40
0.517273209260237
 40
0.517273209260237
 40
0.6204452387933982
 40
0.6204452387933982
 40
0.6204452387933982
 40
0.7237465565885676
 40
0.7237465565885676
 40
0.7237465565885676
 40
0.8273742263125191
 40
0.8273742263125191
 40
0.8273742263125191
 40
0.9310182353677731
 40
0.9310182353677731
 40
0.9310182353677731
 40
1.0
 40
1.0
 40
1.0
 40
1.0
 10
405.6123124768453
 20
1104.059065154981
 30
0.0
 10
405.5841939207592
 20
1104.059065154981
 30
0.0
 10
405.5556878276482
 20
1104.054219106394
 30
0.0
 10
405.5291569751869
 20
1104.044933480721
 30
0.0
 10
405.5026283888062
 20
1104.035648648162
 30
0.0
 10
405.4773435799841
 20
1104.021671517879
 30
0.0
 10
405.4553787575585
 20
1104.00415755803
 30
0.0
 10
405.4333652721132
 20
1103.986604796039
 30
0.0
 10
405.4140792061942
 20
1103.965015789624
 30
0.0
 10
405.3991093034736
 20
1103.941166413898
 30
0.0
 10
405.3841176844896
 20
1103.917282440798
 30
0.0
 10
405.3730417334889
 20
1103.890469353166
 30
0.0
 10
405.366808636101
 20
1103.862951751216
 30
0.0
 10
405.3605904508292
 20
1103.835499982612
 30
0.0
 10
405.3590211939534
 20
1103.806587908228
 30
0.0
 10
405.3622330685628
 20
1103.778621202533
 30
0.0
 10
405.3654369347103
 20
1103.75072422878
 30
0.0
 10
405.3734846269688
 20
1103.722999921372
 30
0.0
 10
405.385705606174
 20
1103.697733904337
 30
0.0
 10
405.3979422024183
 20
1103.672435600174
 30
0.0
 10
405.4146975411747
 20
1103.64890540713
 30
0.0
 10
405.4345927822749
 20
1103.629071614463
 30
0.0
 10
405.4545491044762
 20
1103.609176929348
 30
0.0
 10
405.4782162077252
 20
1103.592452680271
 30
0.0
 10
405.5036428619985
 20
1103.58028354202
 30
0.0
 10
405.5290718597178
 20
1103.568113282202
 30
0.0
 10
405.5569657422564
 20
1103.560164112964
 30
0.0
 10
405.5850045441573
 20
1103.557104294403
 30
0.0
 10
405.6038152695335
 20
1103.555051517439
 30
0.0
 10
405.622981327874
 20
1103.555134028366
 30
0.0
 10
405.641773559774
 20
1103.557348646006
 30
0.0
  0
LINE
  5
1072
330
A
100
AcDbEntity
  8
MODEL
  6
Continuous
100
AcDbLine
 10
388.5038887955759
 20
1104.059058423698
 30
0.0
 11
384.5813682173755
 21
1104.059058423698
 31
0.0
  0
SPLINE
  5
1073
330
A
100
AcDbEntity
  8
MODEL
  6
Continuous
100
AcDbSpline
210
0.0
220
0.0
230
1.0
 70
     8
 71
     3
 72
     8
 73
     4
 74
     0
 42
0.000000001
 43
0.0000000001
 40
0.0
 40
0.0
 40
0.0
 40
0.0
 40
1.0
 40
1.0
 40
1.0
 40
1.0
 10
388.9322251216952
 20
1104.208084650968
 30
0.0
 10
388.8106051399689
 20
1104.111802165434
 30
0.0
 10
388.6595367873804
 20
1104.059058423573
 30
0.0
 10
388.5038887957087
 20
1104.059058423573
 30
0.0
  0
LINE
  5
1074
330
A
100
AcDbEntity
  8
MODEL
  6
Continuous
100
AcDbLine
 10
389.8607532371759
 20
1104.943169409099
 30
0.0
 11
388.9322251217752
 21
1104.208084650998
 31
0.0
  0
SPLINE
  5
1075
330
A
100
AcDbEntity
  8
MODEL
  6
Continuous
100
AcDbSpline
210
0.0
220
0.0
230
1.0
 70
     8
 71
     3
 72
     8
 73
     4
 74
     0
 42
0.000000001
 43
0.0000000001
 40
0.0
 40
0.0
 40
0.0
 40
0.0
 40
1.0
 40
1.0
 40
1.0
 40
1.0
 10
390.3250662187818
 20
1105.104712588533
 30
0.0
 10
390.1543549015867
 20
1105.104712588533
 30
0.0
 10
389.9903165609874
 20
1105.045740373741
 30
0.0
 10
389.8607532372087
 20
1104.943169409082
 30
0.0
  0
LINE
  5
1076
330
A
100
AcDbEntity
  8
MODEL
  6
Continuous
100
AcDbLine
 10
394.9290987860757
 20
1105.104712588598
 30
0.0
 11
390.3250662188755
 21
1105.104712588598
 31
0.0
  0
SPLINE
  5
1077
330
A
100
AcDbEntity
  8
MODEL
  6
Continuous
100
AcDbSpline
210
0.0
220
0.0
230
1.0
 70
     8
 71
     3
 72
    35
 73
    31
 74
     0
 42
0.000000001
 43
0.0000000001
 40
0.0
 40
0.0
 40
0.0
 40
0.0
 40
0.0967624178137022
 40
0.0967624178137022
 40
0.0967624178137022
 40
0.1934823171760386
 40
0.1934823171760386
 40
0.1934823171760386
 40
0.2909056853137116
 40
0.2909056853137116
 40
0.2909056853137116
 40
0.3910036037844372
 40
0.3910036037844372
 40
0.3910036037844372
 40
0.4955252661459685
 40
0.4955252661459685
 40
0.4955252661459685
 40
0.605543320034953
 40
0.605543320034953
 40
0.605543320034953
 40
0.7198972753699213
 40
0.7198972753699213
 40
0.7198972753699213
 40
0.8336062393008055
 40
0.8336062393008055
 40
0.8336062393008055
 40
0.9395306669703951
 40
0.9395306669703951
 40
0.9395306669703951
 40
1.0
 40
1.0
 40
1.0
 40
1.0
 10
394.8986307949915
 20
1104.604712588533
 30
0.0
 10
394.925583011425
 20
1104.601415626705
 30
0.0
 10
394.9535004919796
 20
1104.602576491776
 30
0.0
 10
394.9800606337747
 20
1104.608085488524
 30
0.0
 10
395.0066146695642
 20
1104.613593218789
 30
0.0
 10
395.0325347688238
 20
1104.623591892581
 30
0.0
 10
395.0557402149605
 20
1104.637157977021
 30
0.0
 10
395.079121607773
 20
1104.650826921258
 30
0.0
 10
395.1003717156598
 20
1104.66846946497
 30
0.0
 10
395.1179315571151
 20
1104.688535400192
 30
0.0
 10
395.1359744446115
 20
1104.7091533205
 30
0.0
 10
395.1505995227114
 20
1104.732852511926
 30
0.0
 10
395.1608916362218
 20
1104.757674531719
 30
0.0
 10
395.1716360948965
 20
1104.783587495625
 30
0.0
 10
395.1779508160569
 20
1104.811382422362
 30
0.0
 10
395.1795856289543
 20
1104.83890636771
 30
0.0
 10
395.1813052521818
 20
1104.867858191986
 30
0.0
 10
395.1779047680809
 20
1104.89727091083
 30
0.0
 10
395.1697365304797
 20
1104.924907331281
 30
0.0
 10
395.16125653014
 20
1104.953598569987
 30
0.0
 10
395.1473914924679
 20
1104.981183276005
 30
0.0
 10
395.1291019491143
 20
1105.00532222521
 30
0.0
 10
395.1109394570547
 20
1105.029293489269
 30
0.0
 10
395.0878141508099
 20
1105.05058603702
 30
0.0
 10
395.0615462412195
 20
1105.066910268361
 30
0.0
 10
395.0370743006213
 20
1105.082118392109
 30
0.0
 10
395.009064756038
 20
1105.093454677172
 30
0.0
 10
394.9801622976963
 20
1105.099461982913
 30
0.0
 10
394.9634679196795
 20
1105.102931868821
 30
0.0
 10
394.9462301788424
 20
1105.104712588533
 30
0.0
 10
394.9290987861693
 20
1105.104712588533
 30
0.0
  0
LINE
  5
1078
330
A
100
AcDbEntity
  8
MODEL
  6
Continuous
100
AcDbLine
 10
390.4660551827762
 20
1104.604712588498
 30
0.0
 11
394.8986307950761
 21
1104.604712588498
 31
0.0
  0
SPLINE
  5
1079
330
A
100
AcDbEntity
  8
MODEL
  6
Continuous
100
AcDbSpline
210
0.0
220
0.0
230
1.0
 70
     8
 71
     3
 72
     8
 73
     4
 74
     0
 42
0.000000001
 43
0.0000000001
 40
0.0
 40
0.0
 40
0.0
 40
0.0
 40
1.0
 40
1.0
 40
1.0
 40
1.0
 10
390.0605629008394
 20
1104.463634231748
 30
0.0
 10
390.1753478012604
 20
1104.554505611248
 30
0.0
 10
390.3181662249015
 20
1104.604712588533
 30
0.0
 10
390.4660551828235
 20
1104.604712588533
 30
0.0
  0
LINE
  5
107A
330
A
100
AcDbEntity
  8
MODEL
  6
Continuous
100
AcDbLine
 10
388.9992083957757
 20
1103.623395248499
 30
0.0
 11
390.0605629007757
 21
1104.463634231799
 31
0.0
  0
SPLINE
  5
107B
330
A
100
AcDbEntity
  8
MODEL
  6
Continuous
100
AcDbSpline
210
0.0
220
0.0
230
1.0
 70
     8
 71
     3
 72
     8
 73
     4
 74
     0
 42
0.000000001
 43
0.0000000001
 40
0.0
 40
0.0
 40
0.0
 40
0.0
 40
1.0
 40
1.0
 40
1.0
 40
1.0
 10
388.8093556237106
 20
1103.557341914599
 30
0.0
 10
388.8783013532027
 20
1103.557341914599
 30
0.0
 10
388.9451936616231
 20
1103.580633584036
 30
0.0
 10
388.9992083957093
 20
1103.62339524852
 30
0.0
  0
LINE
  5
107C
330
A
100
AcDbEntity
  8
MODEL
  6
Continuous
100
AcDbLine
 10
384.6108293000759
 20
1103.557341914498
 30
0.0
 11
388.8093556235751
 21
1103.557341914498
 31
0.0
  0
SPLINE
  5
107D
330
A
100
AcDbEntity
  8
MODEL
  6
Continuous
100
AcDbSpline
210
0.0
220
0.0
230
1.0
 70
     8
 71
     3
 72
    35
 73
    31
 74
     0
 42
0.000000001
 43
0.0000000001
 40
0.0
 40
0.0
 40
0.0
 40
0.0
 40
0.1033136215248783
 40
0.1033136215248783
 40
0.1033136215248783
 40
0.2066117244881308
 40
0.2066117244881308
 40
0.2066117244881308
 40
0.3101424499301156
 40
0.3101424499301156
 40
0.3101424499301156
 40
0.4138329056083586
 40
0.4138329056083586
 40
0.4138329056083586
 40
0.5172732034116514
 40
0.5172732034116514
 40
0.5172732034116514
 40
0.6204452289721397
 40
0.6204452289721397
 40
0.6204452289721397
 40
0.7237465604843636
 40
0.7237465604843636
 40
0.7237465604843636
 40
0.8273742488942394
 40
0.8273742488942394
 40
0.8273742488942394
 40
0.9310182640144822
 40
0.9310182640144822
 40
0.9310182640144822
 40
1.0
 40
1.0
 40
1.0
 40
1.0
 10
384.5813682172491
 20
1104.059058423573
 30
0.0
 10
384.5532496577541
 20
1104.059058423573
 30
0.0
 10
384.5247435611798
 20
1104.05421237386
 30
0.0
 10
384.4982127053815
 20
1104.04492674574
 30
0.0
 10
384.4716841155594
 20
1104.035641910697
 30
0.0
 10
384.4463993032912
 20
1104.021664776378
 30
0.0
 10
384.4244344785764
 20
1104.004150811164
 30
0.0
 10
384.4024209932602
 20
1103.986598045729
 30
0.0
 10
384.3831349278523
 20
1103.965009035086
 30
0.0
 10
384.3681650268579
 20
1103.941159655376
 30
0.0
 10
384.3531734120295
 20
1103.917275682149
 30
0.0
 10
384.3420974650896
 20
1103.890462595394
 30
0.0
 10
384.3358643710624
 20
1103.862944995778
 30
0.0
 10
384.3296461892903
 20
1103.835493230158
 30
0.0
 10
384.3280769350065
 20
1103.806581160501
 30
0.0
 10
384.3312888102089
 20
1103.778614460309
 30
0.0
 10
384.3344926773859
 20
1103.750717488246
 30
0.0
 10
384.3425403699018
 20
1103.722993183745
 30
0.0
 10
384.3547613482622
 20
1103.69772716945
 30
0.0
 10
384.3669979457043
 20
1103.672428863797
 30
0.0
 10
384.3837532859877
 20
1103.648898669895
 30
0.0
 10
384.4036485291169
 20
1103.629064876637
 30
0.0
 10
384.4236048542286
 20
1103.609170190059
 30
0.0
 10
384.4472719614203
 20
1103.592445940033
 30
0.0
 10
384.4726986203357
 20
1103.58027680203
 30
0.0
 10
384.498127619602
 20
1103.56810654394
 30
0.0
 10
384.5260215041951
 20
1103.560157376564
 30
0.0
 10
384.5540603078596
 20
1103.557097560453
 30
0.0
 10
384.5728710256697
 20
1103.555044786086
 30
0.0
 10
384.5920370760357
 20
1103.555127297873
 30
0.0
 10
384.6108293001778
 20
1103.557341914599
 30
0.0
  0
LINE
  5
107E
330
A
100
AcDbEntity
  8
MODEL
  6
Continuous
100
AcDbLine
 10
416.7412675823759
 20
1100.978914789899
 30
0.0
 11
417.9849326762758
 21
1100.978914789899
 31
0.0
  0
ARC
  5
107F
330
A
100
AcDbEntity
  8
MODEL
  6
Continuous
100
AcDbCircle
 10
414.1318850384757
 20
1093.642019598699
 30
0.0
 40
7.787098837750245
100
AcDbArc
 50
30.67108776689835
 51
70.42196103990165
  0
LINE
  5
1080
330
A
100
AcDbEntity
  8
MODEL
  6
Continuous
100
AcDbLine
 10
420.8296449770758
 20
1097.614288485999
 30
0.0
 11
421.259699871576
 21
1097.869342965998
 31
0.0
  0
ARC
  5
1081
330
A
100
AcDbEntity
  8
MODEL
  6
Continuous
100
AcDbCircle
 10
414.1318850384757
 20
1093.642019598699
 30
0.0
 40
8.287098837745823
100
AcDbArc
 50
30.671087766898
 51
62.29331811919722
  0
LINE
  5
1082
330
A
100
AcDbEntity
  8
MODEL
  6
Continuous
100
AcDbLine
 10
416.7412675823759
 20
1106.635769039199
 30
0.0
 11
417.9849326762758
 21
1106.635769039199
 31
0.0
  0
ARC
  5
1083
330
A
100
AcDbEntity
  8
MODEL
  6
Continuous
100
AcDbCircle
 10
414.1318850384757
 20
1113.972664230698
 30
0.0
 40
7.787098837750245
100
AcDbArc
 50
289.5780389600984
 51
329.3289122331016
  0
LINE
  5
1084
330
A
100
AcDbEntity
  8
MODEL
  6
Continuous
100
AcDbLine
 10
420.8296449770758
 20
1110.000395343098
 30
0.0
 11
421.259699871576
 21
1109.745340863399
 31
0.0
  0
ARC
  5
1085
330
A
100
AcDbEntity
  8
MODEL
  6
Continuous
100
AcDbCircle
 10
414.1318850384757
 20
1113.972664230698
 30
0.0
 40
8.28709883774583
100
AcDbArc
 50
297.7066818808028
 51
329.328912233102
  0
LINE
  5
1086
330
A
100
AcDbEntity
  8
MODEL
  6
Continuous
100
AcDbLine
 10
394.1451803963762
 20
1100.809009044399
 30
0.0
 11
386.420532523776
 21
1100.809009044399
 31
0.0
  0
LINE
  5
1087
330
A
100
AcDbEntity
  8
MODEL
  6
Continuous
100
AcDbLine
 10
386.420532523776
 20
1100.809009044399
 30
0.0
 11
386.422286141076
 21
1100.807341914699
 31
0.0
  0
LINE
  5
1088
330
A
100
AcDbEntity
  8
MODEL
  6
Continuous
100
AcDbLine
 10
394.1451803963762
 20
1100.300800826498
 30
0.0
 11
394.1451803963762
 21
1100.809009044399
 31
0.0
  0
LINE
  5
1089
330
A
100
AcDbEntity
  8
MODEL
  6
Continuous
100
AcDbLine
 10
386.422286141076
 20
1100.807341914699
 30
0.0
 11
389.4599578814757
 21
1100.300800826498
 31
0.0
  0
LINE
  5
108A
330
A
100
AcDbEntity
  8
MODEL
  6
Continuous
100
AcDbLine
 10
389.4599578814757
 20
1100.300800826498
 30
0.0
 11
394.1451803963762
 21
1100.300800826498
 31
0.0
  0
LINE
  5
108B
330
A
100
AcDbEntity
  8
MODEL
  6
Continuous
100
AcDbLine
 10
399.4997204132758
 20
1100.809009044399
 30
0.0
 11
395.327832458376
 21
1100.809009044399
 31
0.0
  0
LINE
  5
108C
330
A
100
AcDbEntity
  8
MODEL
  6
Continuous
100
AcDbLine
 10
395.327832458376
 20
1100.809009044399
 30
0.0
 11
395.3293575155756
 21
1100.807341914699
 31
0.0
  0
LINE
  5
108D
330
A
100
AcDbEntity
  8
MODEL
  6
Continuous
100
AcDbLine
 10
399.4997204132758
 20
1100.300800826498
 30
0.0
 11
399.4997204132758
 21
1100.809009044399
 31
0.0
  0
LINE
  5
108E
330
A
100
AcDbEntity
  8
MODEL
  6
Continuous
100
AcDbLine
 10
395.3293575155756
 20
1100.807341914699
 30
0.0
 11
396.7553194028758
 21
1100.300800826498
 31
0.0
  0
LINE
  5
108F
330
A
100
AcDbEntity
  8
MODEL
  6
Continuous
100
AcDbLine
 10
396.7553194028758
 20
1100.300800826498
 30
0.0
 11
399.4997204132758
 21
1100.300800826498
 31
0.0
  0
LINE
  5
1090
330
A
100
AcDbEntity
  8
MODEL
  6
Continuous
100
AcDbLine
 10
411.444463528175
 20
1100.809009044399
 30
0.0
 11
400.4764286285751
 21
1100.809009044399
 31
0.0
  0
LINE
  5
1091
330
A
100
AcDbEntity
  8
MODEL
  6
Continuous
100
AcDbLine
 10
400.4764286285751
 20
1100.809009044399
 30
0.0
 11
400.9413273410753
 21
1100.300800826498
 31
0.0
  0
LINE
  5
1092
330
A
100
AcDbEntity
  8
MODEL
  6
Continuous
100
AcDbLine
 10
411.444463528175
 20
1100.300800826498
 30
0.0
 11
411.444463528175
 21
1100.809009044399
 31
0.0
  0
LINE
  5
1093
330
A
100
AcDbEntity
  8
MODEL
  6
Continuous
100
AcDbLine
 10
400.9413273410753
 20
1100.300800826498
 30
0.0
 11
411.444463528175
 21
1100.300800826498
 31
0.0
  0
LINE
  5
1094
330
A
100
AcDbEntity
  8
MODEL
  6
Continuous
100
AcDbLine
 10
411.444463528175
 20
1107.313883002899
 30
0.0
 11
411.444463528175
 21
1106.805674784699
 31
0.0
  0
LINE
  5
1095
330
A
100
AcDbEntity
  8
MODEL
  6
Continuous
100
AcDbLine
 10
411.444463528175
 20
1106.805674784699
 30
0.0
 11
400.4764286285751
 21
1106.805674784699
 31
0.0
  0
LINE
  5
1096
330
A
100
AcDbEntity
  8
MODEL
  6
Continuous
100
AcDbLine
 10
400.4764286285751
 20
1106.805674784699
 30
0.0
 11
400.9413273410753
 21
1107.313883002899
 31
0.0
  0
LINE
  5
1097
330
A
100
AcDbEntity
  8
MODEL
  6
Continuous
100
AcDbLine
 10
400.9413273410753
 20
1107.313883002899
 30
0.0
 11
411.444463528175
 21
1107.313883002899
 31
0.0
  0
LINE
  5
1098
330
A
100
AcDbEntity
  8
MODEL
  6
Continuous
100
AcDbLine
 10
399.4997204132758
 20
1107.313883002899
 30
0.0
 11
399.4997204132758
 21
1106.805674784699
 31
0.0
  0
LINE
  5
1099
330
A
100
AcDbEntity
  8
MODEL
  6
Continuous
100
AcDbLine
 10
399.4997204132758
 20
1106.805674784699
 30
0.0
 11
395.327832458376
 21
1106.805674784699
 31
0.0
  0
LINE
  5
109A
330
A
100
AcDbEntity
  8
MODEL
  6
Continuous
100
AcDbLine
 10
395.327832458376
 20
1106.805674784699
 30
0.0
 11
395.3293575155756
 21
1106.807341914699
 31
0.0
  0
LINE
  5
109B
330
A
100
AcDbEntity
  8
MODEL
  6
Continuous
100
AcDbLine
 10
395.3293575155756
 20
1106.807341914699
 30
0.0
 11
396.7553194028758
 21
1107.313883002899
 31
0.0
  0
LINE
  5
109C
330
A
100
AcDbEntity
  8
MODEL
  6
Continuous
100
AcDbLine
 10
396.7553194028758
 20
1107.313883002899
 30
0.0
 11
399.4997204132758
 21
1107.313883002899
 31
0.0
  0
LINE
  5
109D
330
A
100
AcDbEntity
  8
MODEL
  6
Continuous
100
AcDbLine
 10
394.1451803963762
 20
1107.313883002899
 30
0.0
 11
394.1451803963762
 21
1106.805674784699
 31
0.0
  0
LINE
  5
109E
330
A
100
AcDbEntity
  8
MODEL
  6
Continuous
100
AcDbLine
 10
394.1451803963762
 20
1106.805674784699
 30
0.0
 11
386.420532523776
 21
1106.805674784699
 31
0.0
  0
LINE
  5
109F
330
A
100
AcDbEntity
  8
MODEL
  6
Continuous
100
AcDbLine
 10
386.420532523776
 20
1106.805674784699
 30
0.0
 11
386.422286141076
 21
1106.807341914699
 31
0.0
  0
LINE
  5
10A0
330
A
100
AcDbEntity
  8
MODEL
  6
Continuous
100
AcDbLine
 10
386.422286141076
 20
1106.807341914699
 30
0.0
 11
389.4599578814757
 21
1107.313883002899
 31
0.0
  0
LINE
  5
10A1
330
A
100
AcDbEntity
  8
MODEL
  6
Continuous
100
AcDbLine
 10
389.4599578814757
 20
1107.313883002899
 30
0.0
 11
394.1451803963762
 21
1107.313883002899
 31
0.0
  0
LINE
  5
10A2
330
A
100
AcDbEntity
  8
MODEL
  6
Continuous
100
AcDbLine
 10
374.3296449770758
 20
1104.854795004999
 30
0.0
 11
374.3296449770758
 21
1104.968751477698
 31
0.0
  0
LINE
  5
10A3
330
A
100
AcDbEntity
  8
MODEL
  6
Continuous
100
AcDbLine
 10
418.2953167064759
 20
1100.807341914699
 30
0.0
 11
420.8296449770758
 21
1100.807341914699
 31
0.0
  0
LINE
  5
10A4
330
A
100
AcDbEntity
  8
MODEL
  6
Continuous
100
AcDbLine
 10
411.444463528175
 20
1100.807341914699
 30
0.0
 11
417.1800033074758
 21
1100.807341914699
 31
0.0
  0
LINE
  5
10A5
330
A
100
AcDbEntity
  8
MODEL
  6
Continuous
100
AcDbLine
 10
399.4997204132758
 20
1100.807341914699
 30
0.0
 11
400.4779536854755
 21
1100.807341914699
 31
0.0
  0
LINE
  5
10A6
330
A
100
AcDbEntity
  8
MODEL
  6
Continuous
100
AcDbLine
 10
394.1451803963762
 20
1100.807341914699
 30
0.0
 11
395.3293575155756
 21
1100.807341914699
 31
0.0
  0
LINE
  5
10A7
330
A
100
AcDbEntity
  8
MODEL
  6
Continuous
100
AcDbLine
 10
376.3296449768757
 20
1100.807341914699
 30
0.0
 11
386.422286141076
 21
1100.807341914699
 31
0.0
  0
LINE
  5
10A8
330
A
100
AcDbEntity
  8
MODEL
  6
Continuous
100
AcDbLine
 10
386.422286141076
 20
1106.807341914699
 30
0.0
 11
376.3296449768757
 21
1106.807341914699
 31
0.0
  0
LINE
  5
10A9
330
A
100
AcDbEntity
  8
MODEL
  6
Continuous
100
AcDbLine
 10
395.3293575155756
 20
1106.807341914699
 30
0.0
 11
394.1451803963762
 21
1106.807341914699
 31
0.0
  0
LINE
  5
10AA
330
A
100
AcDbEntity
  8
MODEL
  6
Continuous
100
AcDbLine
 10
400.4779536854755
 20
1106.807341914699
 30
0.0
 11
399.4997204132758
 21
1106.807341914699
 31
0.0
  0
LINE
  5
10AB
330
A
100
AcDbEntity
  8
MODEL
  6
Continuous
100
AcDbLine
 10
417.1800033074758
 20
1106.807341914699
 30
0.0
 11
411.444463528175
 21
1106.807341914699
 31
0.0
  0
LINE
  5
10AC
330
A
100
AcDbEntity
  8
MODEL
  6
Continuous
100
AcDbLine
 10
420.8296449770758
 20
1106.807341914699
 30
0.0
 11
418.2953167064759
 21
1106.807341914699
 31
0.0
  0
LINE
  5
10AD
330
A
100
AcDbEntity
  8
MODEL
  6
Continuous
100
AcDbLine
 10
374.3296449770758
 20
1102.307341914699
 30
0.0
 11
376.3296449768757
 21
1100.807341914699
 31
0.0
  0
LINE
  5
10AE
330
A
100
AcDbEntity
  8
MODEL
  6
Continuous
100
AcDbLine
 10
376.3296449768757
 20
1106.807341914699
 30
0.0
 11
374.3296449770758
 21
1105.307341914699
 31
0.0
  0
LINE
  5
10AF
330
A
100
AcDbEntity
  8
MODEL
  6
Continuous
100
AcDbLine
 10
607.4796449768762
 20
785.3869216092985
 30
0.0
 11
607.4796449768762
 21
820.9869216090988
 31
0.0
  0
LINE
  5
10B0
330
A
100
AcDbEntity
  8
MODEL
  6
Continuous
100
AcDbLine
 10
587.505948497376
 20
821.1869216091986
 30
0.0
 11
582.6937245029756
 21
821.1869216091986
 31
0.0
  0
LINE
  5
10B1
330
A
100
AcDbEntity
  8
MODEL
  6
Continuous
100
AcDbLine
 10
607.2796449770765
 20
821.1869216091986
 30
0.0
 11
602.4494675246758
 21
821.1869216091986
 31
0.0
  0
LINE
  5
10B2
330
A
100
AcDbEntity
  8
MODEL
  6
Continuous
100
AcDbLine
 10
582.6937245029756
 20
785.1869216091986
 30
0.0
 11
607.2796449770765
 21
785.1869216091986
 31
0.0
  0
ARC
  5
10B3
330
A
100
AcDbEntity
  8
MODEL
  6
Continuous
100
AcDbCircle
 10
601.1974428641759
 20
803.1869216091986
 30
0.0
 40
25.96836455654524
100
AcDbArc
 50
136.5968887931005
 51
180.0
  0
ARC
  5
10B4
330
A
100
AcDbEntity
  8
MODEL
  6
Continuous
100
AcDbCircle
 10
601.1974428641759
 20
803.1869216091986
 30
0.0
 40
25.96836455654523
100
AcDbArc
 50
180.0
 51
223.4031112068995
  0
ARC
  5
10B5
330
A
100
AcDbEntity
  8
MODEL
  6
Continuous
100
AcDbCircle
 10
582.6937245029756
 20
820.6869216090986
 30
0.0
 40
0.5000000000000004
100
AcDbArc
 50
90.0
 51
136.596888793058
  0
ARC
  5
10B6
330
A
100
AcDbEntity
  8
MODEL
  6
Continuous
100
AcDbCircle
 10
582.6937245029756
 20
785.6869216092987
 30
0.0
 40
0.5000000000000049
100
AcDbArc
 50
223.403111206942
 51
270.0
  0
LINE
  5
10B7
330
A
100
AcDbEntity
  8
MODEL
  6
Continuous
100
AcDbLine
 10
601.975376504676
 20
821.6760401001989
 30
0.0
 11
601.9421199932756
 21
825.4868588304985
 31
0.0
  0
LINE
  5
10B8
330
A
100
AcDbEntity
  8
MODEL
  6
Continuous
100
AcDbLine
 10
588.0171799655752
 20
825.4880052804988
 30
0.0
 11
587.9838780293765
 21
821.6719813827985
 31
0.0
  0
LINE
  5
10B9
330
A
100
AcDbEntity
  8
MODEL
  6
Continuous
100
AcDbLine
 10
601.2204863789764
 20
826.1869216092987
 30
0.0
 11
588.7398131129755
 21
826.1869216092987
 31
0.0
  0
ARC
  5
10BA
330
A
100
AcDbEntity
  8
MODEL
  6
Continuous
100
AcDbCircle
 10
588.714038974176
 20
825.4928446968984
 30
0.0
 40
0.6923758793108035
100
AcDbArc
 50
87.86925575482374
 51
180.550047469289
  0
SPLINE
  5
10BB
330
A
100
AcDbEntity
  8
MODEL
  6
Continuous
100
AcDbSpline
210
0.0
220
0.0
230
1.0
 70
     8
 71
     3
 72
    15
 73
    11
 74
     0
 42
0.000000001
 43
0.0000000001
 40
0.0
 40
0.0
 40
0.0
 40
0.0
 40
0.0551762614683106
 40
0.261932970519388
 40
0.4592937526084362
 40
0.6228263658106652
 40
0.7635025605362857
 40
0.8836261532293064
 40
0.9827696099362482
 40
1.0
 40
1.0
 40
1.0
 40
1.0
 10
601.9344580932509
 20
825.4853602272133
 30
0.0
 10
601.9368525477255
 20
825.5078741036123
 30
0.0
 10
601.9460069426393
 20
825.5998228694052
 30
0.0
 10
601.8907266757876
 20
825.7743126185264
 30
0.0
 10
601.7770341630155
 20
825.9530532795688
 30
0.0
 10
601.6321454507067
 20
826.0758286812938
 30
0.0
 10
601.4888820934545
 20
826.147083653299
 30
0.0
 10
601.3592884024927
 20
826.1796553612562
 30
0.0
 10
601.2681025475038
 20
826.1888603750635
 30
0.0
 10
601.227248507558
 20
826.1859165227752
 30
0.0
 10
601.220202197226
 20
826.185391197439
 30
0.0
  0
ARC
  5
10BC
330
A
100
AcDbEntity
  8
MODEL
  6
Continuous
100
AcDbCircle
 10
602.4648624425761
 20
821.6758835718988
 30
0.0
 40
0.4851894740108304
100
AcDbArc
 50
179.6857279665726
 51
268.3580667945764
  0
SPLINE
  5
10BD
330
A
100
AcDbEntity
  8
MODEL
  6
Continuous
100
AcDbSpline
210
0.0
220
0.0
230
1.0
 70
     8
 71
     3
 72
    13
 73
     9
 74
     0
 42
0.000000001
 43
0.0000000001
 40
0.0
 40
0.0
 40
0.0
 40
0.0
 40
0.0811024011427324
 40
0.3235526942588176
 40
0.5583159344614106
 40
0.7456119481069523
 40
0.9031781037570608
 40
1.0
 40
1.0
 40
1.0
 40
1.0
 10
587.976971299661
 20
821.671149112783
 30
0.0
 10
587.9783963172529
 20
821.6490295181229
 30
0.0
 10
587.9825668855581
 20
821.5730698948942
 30
0.0
 10
587.9267587714219
 20
821.435433334726
 30
0.0
 10
587.8217594594978
 20
821.3065734974657
 30
0.0
 10
587.6986185585317
 20
821.2294293202162
 30
0.0
 10
587.5907195511234
 20
821.1939949127832
 30
0.0
 10
587.5316041156809
 20
821.1904867588887
 30
0.0
 10
587.505184465306
 20
821.1892384287048
 30
0.0
  0
ARC
  5
10BE
330
A
100
AcDbEntity
  8
MODEL
  6
Continuous
100
AcDbCircle
 10
607.2796449770765
 20
785.3869216092985
 30
0.0
 40
0.2000000000000334
100
AcDbArc
 50
270.0
 51
0.0
  0
ARC
  5
10BF
330
A
100
AcDbEntity
  8
MODEL
  6
Continuous
100
AcDbCircle
 10
607.2796449770765
 20
820.9869216090988
 30
0.0
 40
0.2000000000000022
100
AcDbArc
 50
0.0
 51
90.0
  0
LINE
  5
10C0
330
A
100
AcDbEntity
  8
MODEL
  6
Continuous
100
AcDbLine
 10
641.679644976876
 20
820.9869216090988
 30
0.0
 11
641.679644976876
 21
785.3869216092985
 31
0.0
  0
SPLINE
  5
10C1
330
A
100
AcDbEntity
  8
MODEL
  6
Continuous
100
AcDbSpline
210
0.0
220
0.0
230
1.0
 70
     8
 71
     3
 72
     8
 73
     4
 74
     0
 42
0.000000001
 43
0.0000000001
 40
0.0
 40
0.0
 40
0.0
 40
0.0
 40
1.0
 40
1.0
 40
1.0
 40
1.0
 10
662.1263331427106
 20
785.1869220734102
 30
0.0
 10
662.1263335833962
 20
785.1869230730772
 30
0.0
 10
662.1264667790772
 20
785.1870225332523
 30
0.0
 10
662.1267324409889
 20
785.187220083697
 30
0.0
  0
LINE
  5
10C2
330
A
100
AcDbEntity
  8
MODEL
  6
Continuous
100
AcDbLine
 10
641.8796449769759
 20
785.1869216091986
 30
0.0
 11
662.1361834904753
 21
785.1869216091986
 31
0.0
  0
LINE
  5
10C3
330
A
100
AcDbEntity
  8
MODEL
  6
Continuous
100
AcDbLine
 10
660.3194540426764
 20
821.1869216091986
 30
0.0
 11
641.8796449769759
 21
821.1869216091986
 31
0.0
  0
ARC
  5
10C4
330
A
100
AcDbEntity
  8
MODEL
  6
Continuous
100
AcDbCircle
 10
641.8796449769759
 20
785.3869216092985
 30
0.0
 40
0.2000000000000022
100
AcDbArc
 50
180.0
 51
270.0
  0
ARC
  5
10C5
330
A
100
AcDbEntity
  8
MODEL
  6
Continuous
100
AcDbCircle
 10
641.8796449769759
 20
820.9869216090988
 30
0.0
 40
0.2000000000000334
100
AcDbArc
 50
90.0
 51
180.0
  0
ARC
  5
10C6
330
A
100
AcDbEntity
  8
MODEL
  6
Continuous
100
AcDbCircle
 10
670.3051371104755
 20
803.1869216091986
 30
0.0
 40
21.71231517720799
100
AcDbArc
 50
317.3729008372006
 51
42.61260394869909
  0
SPLINE
  5
10C7
330
A
100
AcDbEntity
  8
MODEL
  6
Continuous
100
AcDbSpline
210
0.0
220
0.0
230
1.0
 70
     8
 71
     3
 72
     9
 73
     5
 74
     0
 42
0.000000001
 43
0.0000000001
 40
0.0
 40
0.0
 40
0.0
 40
0.0
 40
0.1975111713959799
 40
1.0
 40
1.0
 40
1.0
 40
1.0
 10
683.8355687170658
 20
818.3000382474306
 30
0.0
 10
683.807413071733
 20
818.2817334018455
 30
0.0
 10
683.6847572392396
 20
818.2020318834943
 30
0.0
 10
683.5502519041017
 20
818.1170472423814
 30
0.0
 10
683.4380096301982
 20
818.0471803109153
 30
0.0
  0
SPLINE
  5
10C8
330
A
100
AcDbEntity
  8
MODEL
  6
Continuous
100
AcDbSpline
210
0.0
220
0.0
230
1.0
 70
     8
 71
     3
 72
    49
 73
    45
 74
     0
 42
0.000000001
 43
0.0000000001
 40
0.0
 40
0.0
 40
0.0
 40
0.0
 40
0.0275038903375825
 40
0.0616344819005758
 40
0.0961948402215141
 40
0.1308915773328704
 40
0.1645022851972331
 40
0.1967734709212692
 40
0.223843530725474
 40
0.2524812901429061
 40
0.2800959938869943
 40
0.3068930928638116
 40
0.3328391652007467
 40
0.3579977472523599
 40
0.3825242445797172
 40
0.4079225534204994
 40
0.4343787659618109
 40
0.4618838478879378
 40
0.4906443767284774
 40
0.5208039538237018
 40
0.5524226399539331
 40
0.5854407944427767
 40
0.6196382518657818
 40
0.6546083560679413
 40
0.6860712372839898
 40
0.7194323383013143
 40
0.7524229727759169
 40
0.7850148160487204
 40
0.8169956933638691
 40
0.8482239586727072
 40
0.8786342037001376
 40
0.9082343499619495
 40
0.9370993064978086
 40
0.9653727013979385
 40
0.9793562085566413
 40
0.9864840550748811
 40
0.9892441526747253
 40
0.9906939326271197
 40
0.9915584829201103
 40
0.992190176413468
 40
0.9933068374692011
 40
0.9957730621005325
 40
0.9990310252716124
 40
1.0
 40
1.0
 40
1.0
 40
1.0
 10
683.8339733335677
 20
818.3004553109226
 30
0.0
 10
683.612014338011
 20
818.1590817384031
 30
0.0
 10
683.189572048668
 20
817.8911618953493
 30
0.0
 10
682.4050500039873
 20
817.4192646226438
 30
0.0
 10
681.5388558989096
 20
816.9280999370321
 30
0.0
 10
680.6194887020035
 20
816.4502086315242
 30
0.0
 10
679.673298978824
 20
816.0109651246371
 30
0.0
 10
678.7547753296901
 20
815.6408184737229
 30
0.0
 10
677.8502229934136
 20
815.3319599196157
 30
0.0
 10
676.961052344587
 20
815.0919330679676
 30
0.0
 10
676.0487953111876
 20
814.9109464831317
 30
0.0
 10
675.1477546383419
 20
814.79776299371
 30
0.0
 10
674.2641890220518
 20
814.7525679668211
 30
0.0
 10
673.4050142871026
 20
814.7760880489077
 30
0.0
 10
672.559982422769
 20
814.8660438505449
 30
0.0
 10
671.7145145084403
 20
815.013459261239
 30
0.0
 10
670.8575071876382
 20
815.2216679781786
 30
0.0
 10
669.9920580718924
 20
815.489021082361
 30
0.0
 10
669.1214072620539
 20
815.8133234878519
 30
0.0
 10
668.2478589031205
 20
816.1915511399038
 30
0.0
 10
667.3760763973594
 20
816.6184615269408
 30
0.0
 10
666.5135700903872
 20
817.0855099975843
 30
0.0
 10
665.6708859881808
 20
817.5798363498043
 30
0.0
 10
664.8902587431473
 20
818.0664203665788
 30
0.0
 10
664.162104891934
 20
818.5362872492692
 30
0.0
 10
663.5011359882653
 20
818.9762358067032
 30
0.0
 10
662.8892816483356
 20
819.3956993644524
 30
0.0
 10
662.3450838057768
 20
819.7786938682243
 30
0.0
 10
661.8720659274638
 20
820.1195767450577
 30
0.0
 10
661.4732385465293
 20
820.4131911847512
 30
0.0
 10
661.1497580288594
 20
820.6559638252184
 30
0.0
 10
660.9013765019797
 20
820.8456393644924
 30
0.0
 10
660.7267594383518
 20
820.9810862563163
 30
0.0
 10
660.6410793630755
 20
821.0484681624462
 30
0.0
 10
660.6113689729289
 20
821.0719408954642
 30
0.0
 10
660.6034202192793
 20
821.0781958013945
 30
0.0
 10
660.5981061371019
 20
821.0823379778644
 30
0.0
 10
660.5920178892063
 20
821.0869744886668
 30
0.0
 10
660.5823204704527
 20
821.0941254005179
 30
0.0
 10
660.5638481529866
 20
821.1068490590674
 30
0.0
 10
660.5233410819153
 20
821.1317940099921
 30
0.0
 10
660.4532165966637
 20
821.1624682874321
 30
0.0
 10
660.3764448550926
 20
821.185661932544
 30
0.0
 10
660.3312469969776
 20
821.182929172478
 30
0.0
 10
660.3191777018226
 20
821.1821558108531
 30
0.0
  0
SPLINE
  5
10C9
330
A
100
AcDbEntity
  8
MODEL
  6
Continuous
100
AcDbSpline
210
0.0
220
0.0
230
1.0
 70
     8
 71
     3
 72
    44
 73
    40
 74
     0
 42
0.000000001
 43
0.0000000001
 40
0.0
 40
0.0
 40
0.0
 40
0.0
 40
0.0029443101709897
 40
0.0059386659848642
 40
0.0080293723291097
 40
0.0095989335377131
 40
0.0114736965335106
 40
0.0147282909334425
 40
0.0221399463554275
 40
0.0375331419587616
 40
0.0700689276246451
 40
0.1046101908073312
 40
0.1383328368951613
 40
0.1725015874685073
 40
0.2074761942465533
 40
0.2433162585325474
 40
0.2799656863556712
 40
0.3172765408773275
 40
0.3550184445459664
 40
0.3929384144570601
 40
0.43144474013693
 40
0.470296693288382
 40
0.5082046030383425
 40
0.5446415100438186
 40
0.5793526858877317
 40
0.6123312655844462
 40
0.6437556534350548
 40
0.673927107796969
 40
0.7032235490301155
 40
0.7316665766623399
 40
0.7601640646202504
 40
0.7894756682201949
 40
0.8198966476145925
 40
0.851676441214124
 40
0.8849937854385274
 40
0.9199295188229506
 40
0.9564296719661616
 40
0.9942639037944029
 40
1.0
 40
1.0
 40
1.0
 40
1.0
 10
662.1345596256567
 20
785.1921285924254
 30
0.0
 10
662.1647865649145
 20
785.1929776590232
 30
0.0
 10
662.216246102869
 20
785.1947867679942
 30
0.0
 10
662.2890596728382
 20
785.2151458630856
 30
0.0
 10
662.3383043096926
 20
785.235630741317
 30
0.0
 10
662.3659420993497
 20
785.2496682165065
 30
0.0
 10
662.3861545809739
 20
785.2610875487499
 30
0.0
 10
662.405738564458
 20
785.2732509606076
 30
0.0
 10
662.4253486881778
 20
785.2863926782006
 30
0.0
 10
662.4648319571686
 20
785.313940102305
 30
0.0
 10
662.556194321033
 20
785.380184171619
 30
0.0
 10
662.7341636446406
 20
785.5091687113813
 30
0.0
 10
662.9829434552673
 20
785.6869695468449
 30
0.0
 10
663.2969480722247
 20
785.9070178762531
 30
0.0
 10
663.6800377113157
 20
786.1691786105862
 30
0.0
 10
664.1335242064222
 20
786.4710610965167
 30
0.0
 10
664.656920612282
 20
786.8086152761916
 30
0.0
 10
665.2479942455655
 20
787.1763721290831
 30
0.0
 10
665.9028537877509
 20
787.5672684219476
 30
0.0
 10
666.6200336833142
 20
787.9765820543998
 30
0.0
 10
667.3970518338062
 20
788.3918749265113
 30
0.0
 10
668.2269460659179
 20
788.7975176074656
 30
0.0
 10
669.0928075721529
 20
789.1747636911832
 30
0.0
 10
669.9738071622639
 20
789.5068309791809
 30
0.0
 10
670.8562482415989
 20
789.7837224646687
 30
0.0
 10
671.730687572245
 20
789.9998691441524
 30
0.0
 10
672.5917300662811
 20
790.1528520903198
 30
0.0
 10
673.4372301376259
 20
790.2421579165634
 30
0.0
 10
674.26367949669
 20
790.2674814184124
 30
0.0
 10
675.0733107514704
 20
790.2306977045978
 30
0.0
 10
675.873561358382
 20
790.1382033717477
 30
0.0
 10
676.6750689000025
 20
789.9916868008695
 30
0.0
 10
677.482122132629
 20
789.7920599989479
 30
0.0
 10
678.2940368394891
 20
789.5409071325298
 30
0.0
 10
679.1071487308561
 20
789.2413255867982
 30
0.0
 10
679.920227878333
 20
788.8965403155303
 30
0.0
 10
680.7102523888186
 20
788.5195461392909
 30
0.0
 10
681.2882025197366
 20
788.2219994160619
 30
0.0
 10
681.551567530141
 20
788.0743720345076
 30
0.0
 10
681.5919168647022
 20
788.0517228760077
 30
0.0
  0
ARC
  5
10CA
330
A
100
AcDbEntity
  8
MODEL
  6
Continuous
100
AcDbCircle
 10
684.1071996485759
 20
817.8838600659988
 30
0.0
 40
0.5000000000000004
100
AcDbArc
 50
90.0
 51
122.7788291915674
  0
LINE
  5
10CB
330
A
100
AcDbEntity
  8
MODEL
  6
Continuous
100
AcDbLine
 10
684.8996566298754
 20
818.3838600657987
 30
0.0
 11
684.1071996485759
 21
818.3838600657987
 31
0.0
  0
ARC
  5
10CC
330
A
100
AcDbEntity
  8
MODEL
  6
Continuous
100
AcDbCircle
 10
684.9791678693753
 20
816.4247075229987
 30
0.0
 40
1.958574084689094
100
AcDbArc
 50
48.33420233339358
 51
92.32603863847496
  0
SPLINE
  5
10CD
330
A
100
AcDbEntity
  8
MODEL
  6
Continuous
100
AcDbSpline
210
0.0
220
0.0
230
1.0
 70
     8
 71
     3
 72
    13
 73
     9
 74
     0
 42
0.000000001
 43
0.0000000001
 40
0.0
 40
0.0
 40
0.0
 40
0.0
 40
0.1413643105813067
 40
0.3441509776705075
 40
0.5779082512991046
 40
0.8065353417344174
 40
0.9788594273876257
 40
1.0
 40
1.0
 40
1.0
 40
1.0
 10
684.8996112598595
 20
787.9933310844285
 30
0.0
 10
684.982382025071
 20
787.9942098211354
 30
0.0
 10
685.1539032273583
 20
787.9970740541085
 30
0.0
 10
685.4590525662459
 20
788.0511319106076
 30
0.0
 10
685.7794878765251
 20
788.1479680475472
 30
0.0
 10
686.0478193412407
 20
788.2871793540849
 30
0.0
 10
686.2181152531973
 20
788.4062344712188
 30
0.0
 10
686.2717728708583
 20
788.4763148888924
 30
0.0
 10
686.2785722334763
 20
788.4852226008038
 30
0.0
  0
LINE
  5
10CE
330
A
100
AcDbEntity
  8
MODEL
  6
Continuous
100
AcDbLine
 10
681.8343968432762
 20
787.9899831525986
 30
0.0
 11
684.8996566298754
 21
787.9899831525986
 31
0.0
  0
ARC
  5
10CF
330
A
100
AcDbEntity
  8
MODEL
  6
Continuous
100
AcDbCircle
 10
681.8343968432762
 20
788.4899831523985
 30
0.0
 40
0.5000000000000319
100
AcDbArc
 50
241.43040450392
 51
270.0
  0
LINE
  5
10D0
330
A
100
AcDbEntity
  8
MODEL
  6
Continuous
100
AcDbLine
 10
640.8296449769757
 20
785.4869216091988
 30
0.0
 11
640.8296449769757
 21
820.8869216091985
 31
0.0
  0
LINE
  5
10D1
330
A
100
AcDbEntity
  8
MODEL
  6
Continuous
100
AcDbLine
 10
608.8296449768757
 20
820.8869216091985
 30
0.0
 11
608.8296449768757
 21
785.4869216091988
 31
0.0
  0
ARC
  5
10D2
330
A
100
AcDbEntity
  8
MODEL
  6
Continuous
100
AcDbCircle
 10
624.829644885576
 20
834.8761738878989
 30
0.0
 40
17.91083834044107
100
AcDbArc
 50
229.8447534458987
 51
310.1552502090972
  0
ARC
  5
10D3
330
A
100
AcDbEntity
  8
MODEL
  6
Continuous
100
AcDbCircle
 10
624.829644885576
 20
771.4976693304984
 30
0.0
 40
17.91083834044103
100
AcDbArc
 50
49.84474979090241
 51
49.84826152750181
  0
ARC
  5
10D4
330
A
100
AcDbEntity
  8
MODEL
  6
Continuous
100
AcDbCircle
 10
624.829644885576
 20
771.4976693304984
 30
0.0
 40
17.91083834044103
100
AcDbArc
 50
50.88488484460293
 51
130.1552465541016
  0
LINE
  5
10D5
330
A
100
AcDbEntity
  8
MODEL
  6
Continuous
100
AcDbLine
 10
636.379644977075
 20
785.1869216091986
 30
0.0
 11
640.5296449769755
 21
785.1869216091986
 31
0.0
  0
LINE
  5
10D6
330
A
100
AcDbEntity
  8
MODEL
  6
Continuous
100
AcDbLine
 10
609.1296449768759
 20
785.1869216091986
 30
0.0
 11
613.2895812305758
 21
785.1869216091986
 31
0.0
  0
LINE
  5
10D7
330
A
100
AcDbEntity
  8
MODEL
  6
Continuous
100
AcDbLine
 10
613.2895812305758
 20
821.1869216091986
 30
0.0
 11
609.1296449768759
 21
821.1869216091986
 31
0.0
  0
LINE
  5
10D8
330
A
100
AcDbEntity
  8
MODEL
  6
Continuous
100
AcDbLine
 10
640.5296449769755
 20
821.1869216091986
 30
0.0
 11
636.379644977075
 21
821.1869216091986
 31
0.0
  0
ARC
  5
10D9
330
A
100
AcDbEntity
  8
MODEL
  6
Continuous
100
AcDbCircle
 10
640.5296449769755
 20
785.4869216091988
 30
0.0
 40
0.3000000000000225
100
AcDbArc
 50
270.0
 51
0.0
  0
ARC
  5
10DA
330
A
100
AcDbEntity
  8
MODEL
  6
Continuous
100
AcDbCircle
 10
640.5296449769755
 20
820.8869216091985
 30
0.0
 40
0.3000000000000015
100
AcDbArc
 50
0.0
 51
90.0
  0
ARC
  5
10DB
330
A
100
AcDbEntity
  8
MODEL
  6
Continuous
100
AcDbCircle
 10
609.1296449768759
 20
785.4869216091988
 30
0.0
 40
0.3000000000000015
100
AcDbArc
 50
180.0
 51
270.0
  0
ARC
  5
10DC
330
A
100
AcDbEntity
  8
MODEL
  6
Continuous
100
AcDbCircle
 10
609.1296449768759
 20
820.8869216091985
 30
0.0
 40
0.3000000000000225
100
AcDbArc
 50
90.0
 51
180.0
  0
LINE
  5
10DD
330
A
100
AcDbEntity
  8
MODEL
  6
Continuous
100
AcDbLine
 10
641.0296449770765
 20
786.4869216090988
 30
0.0
 11
641.679644976876
 21
786.4869216090988
 31
0.0
  0
LINE
  5
10DE
330
A
100
AcDbEntity
  8
MODEL
  6
Continuous
100
AcDbLine
 10
641.679644976876
 20
819.8869216092985
 30
0.0
 11
641.0296449770765
 21
819.8869216092985
 31
0.0
  0
LINE
  5
10DF
330
A
100
AcDbEntity
  8
MODEL
  6
Continuous
100
AcDbLine
 10
607.4796449768762
 20
786.4869216090988
 30
0.0
 11
608.629644977075
 21
786.4869216090988
 31
0.0
  0
LINE
  5
10E0
330
A
100
AcDbEntity
  8
MODEL
  6
Continuous
100
AcDbLine
 10
608.629644977075
 20
819.8869216092985
 30
0.0
 11
607.4796449768762
 21
819.8869216092985
 31
0.0
  0
SPLINE
  5
10E1
330
A
100
AcDbEntity
  8
MODEL
  6
Continuous
100
AcDbSpline
210
0.0
220
0.0
230
1.0
 70
     8
 71
     3
 72
    12
 73
     8
 74
     0
 42
0.000000001
 43
0.0000000001
 40
0.0
 40
0.0
 40
0.0
 40
0.0
 40
0.3500625932331152
 40
0.902358758972265
 40
0.9693348028637627
 40
0.9981484721819365
 40
1.0
 40
1.0
 40
1.0
 40
1.0
 10
636.1858822570819
 20
785.2940293846759
 30
0.0
 10
636.2167910963087
 20
785.2747518818683
 30
0.0
 10
636.2881966827506
 20
785.232209124681
 30
0.0
 10
636.3001291100852
 20
785.2189715433115
 30
0.0
 10
636.335787344651
 20
785.2077868461784
 30
0.0
 10
636.3584663659537
 20
785.2006142928017
 30
0.0
 10
636.3705061494163
 20
785.2023787267403
 30
0.0
 10
636.3713485628566
 20
785.2025014138567
 30
0.0
  0
ARC
  5
10E2
330
A
100
AcDbEntity
  8
MODEL
  6
Continuous
100
AcDbCircle
 10
640.4272398755754
 20
792.1972630881987
 30
0.0
 40
8.102083066217538
100
AcDbArc
 50
237.3247422234013
 51
238.4333690081002
  0
ARC
  5
10E3
330
A
100
AcDbEntity
  8
MODEL
  6
Continuous
100
AcDbCircle
 10
641.0296449770765
 20
786.2869216092986
 30
0.0
 40
0.1999999999999986
100
AcDbArc
 50
90.0
 51
180.0
  0
ARC
  5
10E4
330
A
100
AcDbEntity
  8
MODEL
  6
Continuous
100
AcDbCircle
 10
641.0296449770765
 20
820.0869216090987
 30
0.0
 40
0.2000000000000334
100
AcDbArc
 50
180.0
 51
270.0
  0
ARC
  5
10E5
330
A
100
AcDbEntity
  8
MODEL
  6
Continuous
100
AcDbCircle
 10
608.629644977075
 20
786.2869216092986
 30
0.0
 40
0.2000000000000334
100
AcDbArc
 50
0.0
 51
90.0
  0
ARC
  5
10E6
330
A
100
AcDbEntity
  8
MODEL
  6
Continuous
100
AcDbCircle
 10
608.629644977075
 20
820.0869216090987
 30
0.0
 40
0.1999999999999986
100
AcDbArc
 50
270.0
 51
0.0
  0
LINE
  5
10E7
330
A
100
AcDbEntity
  8
MODEL
  6
Continuous
100
AcDbLine
 10
582.7149174182757
 20
785.1892401951986
 30
0.0
 11
582.7149174182757
 21
821.1892401951986
 31
0.0
  0
SPLINE
  5
10E8
330
A
100
AcDbEntity
  8
MODEL
  6
Continuous
100
AcDbSpline
210
0.0
220
0.0
230
1.0
 70
     8
 71
     3
 72
    22
 73
    18
 74
     0
 42
0.000000001
 43
0.0000000001
 40
0.0
 40
0.0
 40
0.0
 40
0.0
 40
0.096768282030278
 40
0.096768282030278
 40
0.2217611681997961
 40
0.2217611681997961
 40
0.3467540543693143
 40
0.3467540543693143
 40
0.4717469405388324
 40
0.4717469405388324
 40
0.5967398267083505
 40
0.5967398267083505
 40
0.8467255990473864
 40
0.8467255990473864
 40
0.9717184852169045
 40
0.9717184852169045
 40
1.0
 40
1.0
 40
1.0
 40
1.0
 10
601.9627822009777
 20
825.4950846877828
 30
0.0
 10
601.9620068280535
 20
825.4946574396276
 30
0.0
 10
601.8536408620328
 20
825.4670463812249
 30
0.0
 10
601.3692429664941
 20
825.3496486778731
 30
0.0
 10
600.9241691967652
 20
825.2445944119595
 30
0.0
 10
599.7554775447431
 20
825.013879755566
 30
0.0
 10
599.0423282441341
 20
824.8909188372568
 30
0.0
 10
597.4168993650962
 20
824.6937932013861
 30
0.0
 10
596.5304102251891
 20
824.624218661369
 30
0.0
 10
594.7055049447288
 20
824.5815381166499
 30
0.0
 10
593.7757751252636
 20
824.6099404067922
 30
0.0
 10
591.1723689980342
 20
824.8156947403572
 30
0.0
 10
589.6755394015943
 20
825.1142462383982
 30
0.0
 10
588.4115479370546
 20
825.4001943577291
 30
0.0
 10
588.1481210349436
 20
825.4676659381621
 30
0.0
 10
588.0476518137209
 20
825.4930065656176
 30
0.0
 10
588.0384299734985
 20
825.495267414899
 30
0.0
 10
588.0384465920058
 20
825.4951939483385
 30
0.0
  0
SPLINE
  5
10E9
330
A
100
AcDbEntity
  8
MODEL
  6
Continuous
100
AcDbSpline
210
0.0
220
0.0
230
1.0
 70
     8
 71
     3
 72
    24
 73
    20
 74
     0
 42
0.000000001
 43
0.0000000001
 40
0.0
 40
0.0
 40
0.0
 40
0.0
 40
0.1234621650850637
 40
0.1234621650850637
 40
0.2484802058344456
 40
0.2484802058344456
 40
0.3734982465838276
 40
0.3734982465838276
 40
0.4985162873332096
 40
0.4985162873332096
 40
0.6235343280825916
 40
0.6235343280825916
 40
0.7485523688319736
 40
0.7485523688319736
 40
0.8735704095813556
 40
0.8735704095813556
 40
0.9985884503307374
 40
0.9985884503307374
 40
1.0
 40
1.0
 40
1.0
 40
1.0
 10
602.4964920962591
 20
821.1892384926332
 30
0.0
 10
602.4964168473505
 20
821.1891487532926
 30
0.0
 10
602.2979376472874
 20
821.1082795841835
 30
0.0
 10
601.5325437799236
 20
820.8253650170627
 30
0.0
 10
600.9737127705182
 20
820.6278403978636
 30
0.0
 10
599.597990752525
 20
820.227071542141
 30
0.0
 10
598.775123343368
 20
820.0242206091789
 30
0.0
 10
596.9911450095094
 20
819.7314196990678
 30
0.0
 10
596.008229358861
 20
819.6415110889025
 30
0.0
 10
594.0609343711665
 20
819.6377149646746
 30
0.0
 10
593.0774701395737
 20
819.7234462918009
 30
0.0
 10
591.2766871107622
 20
820.0131685598831
 30
0.0
 10
590.4563220519901
 20
820.2132486042597
 30
0.0
 10
589.0589310926987
 20
820.6173956404391
 30
0.0
 10
588.500113022136
 20
820.8143785267839
 30
0.0
 10
587.718343914378
 20
821.1024447361633
 30
0.0
 10
587.5098085053858
 20
821.1874099915681
 30
0.0
 10
587.5052080027078
 20
821.1892300216364
 30
0.0
 10
587.5051830497257
 20
821.1892395847876
 30
0.0
 10
587.505184465306
 20
821.1892384287048
 30
0.0
  0
LINE
  5
10EA
330
A
100
AcDbEntity
  8
MODEL
  6
Continuous
100
AcDbLine
 10
686.0107171670759
 20
788.5757443431985
 30
0.0
 11
686.0107171670759
 21
817.8027360474985
 31
0.0
  0
LINE
  5
10EB
330
A
100
AcDbEntity
  8
MODEL
  6
Continuous
100
AcDbLine
 10
613.929644976876
 20
785.7099222147986
 30
0.0
 11
613.929644976876
 21
393.6309632633926
 31
0.0
  0
LINE
  5
10EC
330
A
100
AcDbEntity
  8
MODEL
  6
Continuous
100
AcDbLine
 10
635.7296449770463
 20
393.6312769231649
 30
0.0
 11
635.7296449769754
 21
785.7099220749988
 31
0.0
  0
LINE
  5
10ED
330
A
100
AcDbEntity
  8
MODEL
  6
Continuous
100
AcDbLine
 10
635.7296449769754
 20
820.6639211436986
 30
0.0
 11
635.7296449769754
 21
984.1450098393984
 31
0.0
  0
LINE
  5
10EE
330
A
100
AcDbEntity
  8
MODEL
  6
Continuous
100
AcDbLine
 10
613.929644976876
 20
984.1453277037986
 30
0.0
 11
613.929644976876
 21
820.6639210035987
 31
0.0
  0
CIRCLE
  5
10F3
330
A
100
AcDbEntity
  8
MODEL
  6
Continuous
100
AcDbCircle
 10
624.8296449770758
 20
378.5512990506486
 30
0.0
 40
17.9
  0
ARC
  5
10F4
330
A
100
AcDbEntity
  8
MODEL
  6
Continuous
100
AcDbCircle
 10
624.8296449770758
 20
378.5512990506486
 30
0.0
 40
18.60476778223549
100
AcDbArc
 50
311.1963828662008
 51
48.8036171337992
  0
ARC
  5
10F5
330
A
100
AcDbEntity
  8
MODEL
  6
Continuous
100
AcDbCircle
 10
624.8296449770758
 20
378.0770878803487
 30
0.0
 40
18.44544826570144
100
AcDbArc
 50
50.51718245580062
 51
129.4827642845009
  0
ARC
  5
10F6
330
A
100
AcDbEntity
  8
MODEL
  6
Continuous
100
AcDbCircle
 10
624.8296449770758
 20
379.0255102209485
 30
0.0
 40
18.44544826570145
100
AcDbArc
 50
230.5171824558007
 51
309.4827642845009
  0
ARC
  5
10F7
330
A
100
AcDbEntity
  8
MODEL
  6
Continuous
100
AcDbCircle
 10
624.8296449770758
 20
378.5512990506486
 30
0.0
 40
18.60476778223549
100
AcDbArc
 50
131.1963828662008
 51
228.8036171337992
  0
ARC
  5
10F8
330
A
100
AcDbEntity
  8
MODEL
  6
Continuous
100
AcDbCircle
 10
636.9518044916756
 20
364.7025038151487
 30
0.0
 40
0.1999999999999944
100
AcDbArc
 50
245.5981914332957
 51
270.0
  0
ARC
  5
10F9
330
A
100
AcDbEntity
  8
MODEL
  6
Continuous
100
AcDbCircle
 10
636.9518044916756
 20
364.7025038151487
 30
0.0
 40
0.2000000000000004
100
AcDbArc
 50
270.0
 51
311.1963828661912
  0
ARC
  5
10FA
330
A
100
AcDbEntity
  8
MODEL
  6
Continuous
100
AcDbCircle
 10
636.9518044916756
 20
392.4000942861485
 30
0.0
 40
0.2000000000000019
100
AcDbArc
 50
48.80361713380875
 51
114.4018085669953
  0
ARC
  5
10FB
330
A
100
AcDbEntity
  8
MODEL
  6
Continuous
100
AcDbCircle
 10
650.3858181053754
 20
394.9328609244485
 30
0.0
 40
33.27939311846913
100
AcDbArc
 50
245.2396535247011
 51
246.0363451680001
  0
LINE
  5
10FC
330
A
100
AcDbEntity
  8
MODEL
  6
Continuous
100
AcDbLine
 10
636.8691535130754
 20
392.5802275860487
 30
0.0
 11
636.4488010535758
 21
392.3887349217489
 31
0.0
  0
LINE
  5
10FD
330
A
100
AcDbEntity
  8
MODEL
  6
Continuous
100
AcDbLine
 10
612.790136440776
 20
364.5223705152489
 30
0.0
 11
613.2104889002755
 21
364.7138631795488
 31
0.0
  0
ARC
  5
10FE
330
A
100
AcDbEntity
  8
MODEL
  6
Continuous
100
AcDbCircle
 10
599.2734718481759
 20
362.1697371759487
 30
0.0
 40
33.27939311944251
100
AcDbArc
 50
65.2396535248002
 51
66.03634516800122
  0
ARC
  5
10FF
330
A
100
AcDbEntity
  8
MODEL
  6
Continuous
100
AcDbCircle
 10
612.7074854621758
 20
364.7025038151487
 30
0.0
 40
0.1999999999999911
100
AcDbArc
 50
228.8036171338088
 51
270.0
  0
ARC
  5
1100
330
A
100
AcDbEntity
  8
MODEL
  6
Continuous
100
AcDbCircle
 10
612.7074854621758
 20
364.7025038151487
 30
0.0
 40
0.2000000000000004
100
AcDbArc
 50
270.0
 51
294.4018085669953
  0
ARC
  5
1101
330
A
100
AcDbEntity
  8
MODEL
  6
Continuous
100
AcDbCircle
 10
612.7074854621758
 20
392.4000942861485
 30
0.0
 40
0.199999999999992
100
AcDbArc
 50
65.59819143329577
 51
131.1963828661912
  0
CIRCLE
  5
1102
330
A
100
AcDbEntity
  8
MODEL
  6
Continuous
100
AcDbCircle
 10
624.8298619463756
 20
998.551299050499
 30
0.0
 40
17.9
  0
ARC
  5
1103
330
A
100
AcDbEntity
  8
MODEL
  6
Continuous
100
AcDbCircle
 10
624.8298619463756
 20
998.551299050499
 30
0.0
 40
18.60476778223546
100
AcDbArc
 50
131.1963828661991
 51
228.8036171338027
  0
ARC
  5
1104
330
A
100
AcDbEntity
  8
MODEL
  6
Continuous
100
AcDbCircle
 10
624.8298619463756
 20
999.025510221099
 30
0.0
 40
18.44544826570141
100
AcDbArc
 50
230.5171824558005
 51
309.4827642844999
  0
ARC
  5
1105
330
A
100
AcDbEntity
  8
MODEL
  6
Continuous
100
AcDbCircle
 10
624.8298619463756
 20
998.0770878801986
 30
0.0
 40
18.44544826570153
100
AcDbArc
 50
50.51718245579807
 51
129.4827642844997
  0
ARC
  5
1106
330
A
100
AcDbEntity
  8
MODEL
  6
Continuous
100
AcDbCircle
 10
624.8298619463756
 20
998.551299050499
 30
0.0
 40
18.60476778223549
100
AcDbArc
 50
311.1963828661995
 51
48.80361713379844
  0
ARC
  5
1107
330
A
100
AcDbEntity
  8
MODEL
  6
Continuous
100
AcDbCircle
 10
612.7077024314756
 20
1012.400094286299
 30
0.0
 40
0.2000000000000403
100
AcDbArc
 50
65.59819143301813
 51
90.0
  0
ARC
  5
1108
330
A
100
AcDbEntity
  8
MODEL
  6
Continuous
100
AcDbCircle
 10
612.7077024314756
 20
1012.400094286299
 30
0.0
 40
0.1999999999999779
100
AcDbArc
 50
90.0
 51
131.1963828662127
  0
ARC
  5
1109
330
A
100
AcDbEntity
  8
MODEL
  6
Continuous
100
AcDbCircle
 10
612.7077024314756
 20
984.7025038149986
 30
0.0
 40
0.1999999999999746
100
AcDbArc
 50
228.8036171337873
 51
294.4018085672137
  0
ARC
  5
110A
330
A
100
AcDbEntity
  8
MODEL
  6
Continuous
100
AcDbCircle
 10
599.2736888195757
 20
982.169737180599
 30
0.0
 40
33.27939311457267
100
AcDbArc
 50
65.23965352459916
 51
66.03634516800004
  0
LINE
  5
110B
330
A
100
AcDbEntity
  8
MODEL
  6
Continuous
100
AcDbLine
 10
612.7903534100758
 20
984.5223705153985
 30
0.0
 11
613.2107058695753
 21
984.7138631796984
 31
0.0
  0
LINE
  5
110C
330
A
100
AcDbEntity
  8
MODEL
  6
Continuous
100
AcDbLine
 10
636.8693704823752
 20
1012.580227585898
 30
0.0
 11
636.4490180228756
 21
1012.388734921599
 31
0.0
  0
ARC
  5
110D
330
A
100
AcDbEntity
  8
MODEL
  6
Continuous
100
AcDbCircle
 10
650.3860350755756
 20
1014.932860926999
 30
0.0
 40
33.27939312128208
100
AcDbArc
 50
245.2396535249004
 51
246.0363451679015
  0
ARC
  5
110E
330
A
100
AcDbEntity
  8
MODEL
  6
Continuous
100
AcDbCircle
 10
636.9520214609754
 20
1012.400094286299
 30
0.0
 40
0.1999999999999779
100
AcDbArc
 50
48.80361713378731
 51
90.0
  0
ARC
  5
110F
330
A
100
AcDbEntity
  8
MODEL
  6
Continuous
100
AcDbCircle
 10
636.9520214609754
 20
1012.400094286299
 30
0.0
 40
0.1999999999999779
100
AcDbArc
 50
90.0
 51
114.4018085670681
  0
ARC
  5
1110
330
A
100
AcDbEntity
  8
MODEL
  6
Continuous
100
AcDbCircle
 10
636.9520214609754
 20
984.7025038149986
 30
0.0
 40
0.199999999999932
100
AcDbArc
 50
245.5981914332823
 51
311.1963828662126
  0
LINE
  5
1111
330
A
100
AcDbEntity
  8
MODEL
  6
Continuous
100
AcDbLine
 10
612.9936690305756
 20
1012.488993987698
 30
0.0
 11
612.9936690305756
 21
1012.813574652399
 31
0.0
  0
LINE
  5
1112
330
A
100
AcDbEntity
  8
MODEL
  6
Continuous
100
AcDbLine
 10
612.9937741343754
 20
984.6150393591984
 30
0.0
 11
612.9937741343754
 21
984.2889376995986
 31
0.0
  0
ARC
  5
1113
330
A
100
AcDbEntity
  8
MODEL
  6
Continuous
100
AcDbCircle
 10
624.8296449770758
 20
998.551299050499
 30
0.0
 40
18.60674616238095
100
AcDbArc
 50
50.78635498899981
 51
129.2095532524007
  0
LINE
  5
1114
330
A
100
AcDbEntity
  8
MODEL
  6
Continuous
100
AcDbLine
 10
636.6666394292758
 20
1012.812743635899
 30
0.0
 11
636.6666394292758
 21
1012.487872923698
 31
0.0
  0
SPLINE
  5
1115
330
A
100
AcDbEntity
  8
MODEL
  6
Continuous
100
AcDbSpline
210
0.0
220
0.0
230
1.0
 70
     8
 71
     3
 72
     8
 73
     4
 74
     0
 42
0.000000001
 43
0.0000000001
 40
0.0
 40
0.0
 40
0.0
 40
0.0
 40
1.0
 40
1.0
 40
1.0
 40
1.0
 10
612.9936690305638
 20
1012.813574652537
 30
0.0
 10
612.9936690305638
 20
1012.873152940278
 30
0.0
 10
613.0210685258678
 20
1012.930870481216
 30
0.0
 10
613.0672321438112
 20
1012.968533428069
 30
0.0
  0
SPLINE
  5
1116
330
A
100
AcDbEntity
  8
MODEL
  6
Continuous
100
AcDbSpline
210
0.0
220
0.0
230
1.0
 70
     8
 71
     3
 72
     8
 73
     4
 74
     0
 42
0.000000001
 43
0.0000000001
 40
0.0
 40
0.0
 40
0.0
 40
0.0
 40
1.0
 40
1.0
 40
1.0
 40
1.0
 10
636.5930873819905
 20
1012.967693382599
 30
0.0
 10
636.6392445603294
 20
1012.930030198833
 30
0.0
 10
636.6666394294123
 20
1012.872317105258
 30
0.0
 10
636.6666394294123
 20
1012.812743635979
 30
0.0
  0
LINE
  5
1117
330
A
100
AcDbEntity
  8
MODEL
  6
Continuous
100
AcDbLine
 10
636.6667899017764
 20
984.2899772484984
 30
0.0
 11
636.6667899017764
 21
984.6132730995987
 31
0.0
  0
SPLINE
  5
1118
330
A
100
AcDbEntity
  8
MODEL
  6
Continuous
100
AcDbSpline
210
0.0
220
0.0
230
1.0
 70
     8
 71
     3
 72
     8
 73
     4
 74
     0
 42
0.000000001
 43
0.0000000001
 40
0.0
 40
0.0
 40
0.0
 40
0.0
 40
1.0
 40
1.0
 40
1.0
 40
1.0
 10
636.6667899017764
 20
984.2899772485412
 30
0.0
 10
636.6667899017764
 20
984.2304044864736
 30
0.0
 10
636.6393957386952
 20
984.172692073053
 30
0.0
 10
636.5932394892013
 20
984.1350288359486
 30
0.0
  0
ARC
  5
1119
330
A
100
AcDbEntity
  8
MODEL
  6
Continuous
100
AcDbCircle
 10
624.8296449770758
 20
998.551299050499
 30
0.0
 40
18.60674616238091
100
AcDbArc
 50
230.790868978899
 51
234.1406592159994
  0
ARC
  5
111A
330
A
100
AcDbEntity
  8
MODEL
  6
Continuous
100
AcDbCircle
 10
624.8296449770758
 20
998.551299050499
 30
0.0
 40
18.60674616238091
100
AcDbArc
 50
305.8609895338978
 51
309.2142495406983
  0
SPLINE
  5
111B
330
A
100
AcDbEntity
  8
MODEL
  6
Continuous
100
AcDbSpline
210
0.0
220
0.0
230
1.0
 70
     8
 71
     3
 72
     8
 73
     4
 74
     0
 42
0.000000001
 43
0.0000000001
 40
0.0
 40
0.0
 40
0.0
 40
0.0
 40
1.0
 40
1.0
 40
1.0
 40
1.0
 10
613.0673383894234
 20
984.1339779925402
 30
0.0
 10
613.0211741286219
 20
984.1716408972329
 30
0.0
 10
612.9937741342499
 20
984.2293589192514
 30
0.0
 10
612.993774134249
 20
984.2889376997268
 30
0.0
  0
LINE
  5
111C
330
A
100
AcDbEntity
  8
MODEL
  6
Continuous
100
AcDbLine
 10
636.6658378925756
 20
364.6136041137488
 30
0.0
 11
636.6658378925756
 21
364.2890234487486
 31
0.0
  0
LINE
  5
111D
330
A
100
AcDbEntity
  8
MODEL
  6
Continuous
100
AcDbLine
 10
636.665732789076
 20
392.4875587422489
 30
0.0
 11
636.665732789076
 21
392.813660401549
 31
0.0
  0
ARC
  5
111E
330
A
100
AcDbEntity
  8
MODEL
  6
Continuous
100
AcDbCircle
 10
624.8298619463756
 20
378.5512990506486
 30
0.0
 40
18.60674616238094
100
AcDbArc
 50
230.7863549891011
 51
309.2095532524009
  0
LINE
  5
111F
330
A
100
AcDbEntity
  8
MODEL
  6
Continuous
100
AcDbLine
 10
612.9928674938753
 20
364.2898544652489
 30
0.0
 11
612.9928674938753
 21
364.6147251777488
 31
0.0
  0
SPLINE
  5
1120
330
A
100
AcDbEntity
  8
MODEL
  6
Continuous
100
AcDbSpline
210
0.0
220
0.0
230
1.0
 70
     8
 71
     3
 72
     8
 73
     4
 74
     0
 42
0.000000001
 43
0.0000000001
 40
0.0
 40
0.0
 40
0.0
 40
0.0
 40
1.0
 40
1.0
 40
1.0
 40
1.0
 10
636.6658378926702
 20
364.2890234487413
 30
0.0
 10
636.6658378926702
 20
364.2294451609996
 30
0.0
 10
636.6384383973661
 20
364.171727620062
 30
0.0
 10
636.5922747794227
 20
364.1340646732092
 30
0.0
  0
SPLINE
  5
1121
330
A
100
AcDbEntity
  8
MODEL
  6
Continuous
100
AcDbSpline
210
0.0
220
0.0
230
1.0
 70
     8
 71
     3
 72
     8
 73
     4
 74
     0
 42
0.000000001
 43
0.0000000001
 40
0.0
 40
0.0
 40
0.0
 40
0.0
 40
1.0
 40
1.0
 40
1.0
 40
1.0
 10
613.0664195412435
 20
364.1349047186786
 30
0.0
 10
613.0202623629045
 20
364.1725679024453
 30
0.0
 10
612.9928674938217
 20
364.2302809960202
 30
0.0
 10
612.9928674938217
 20
364.289854465299
 30
0.0
  0
LINE
  5
1122
330
A
100
AcDbEntity
  8
MODEL
  6
Continuous
100
AcDbLine
 10
612.9927170213757
 20
392.8126208526487
 30
0.0
 11
612.9927170213757
 21
392.4893250015484
 31
0.0
  0
SPLINE
  5
1123
330
A
100
AcDbEntity
  8
MODEL
  6
Continuous
100
AcDbSpline
210
0.0
220
0.0
230
1.0
 70
     8
 71
     3
 72
     8
 73
     4
 74
     0
 42
0.000000001
 43
0.0000000001
 40
0.0
 40
0.0
 40
0.0
 40
0.0
 40
1.0
 40
1.0
 40
1.0
 40
1.0
 10
612.9927170214576
 20
392.8126208527369
 30
0.0
 10
612.9927170214576
 20
392.872193614804
 30
0.0
 10
613.0201111845388
 20
392.9299060282251
 30
0.0
 10
613.0662674340326
 20
392.9675692653291
 30
0.0
  0
ARC
  5
1124
330
A
100
AcDbEntity
  8
MODEL
  6
Continuous
100
AcDbCircle
 10
624.8298619463756
 20
378.5512990506486
 30
0.0
 40
18.60674616238094
100
AcDbArc
 50
50.79086897889998
 51
54.14065921600239
  0
ARC
  5
1125
330
A
100
AcDbEntity
  8
MODEL
  6
Continuous
100
AcDbCircle
 10
624.8298619463756
 20
378.5512990506486
 30
0.0
 40
18.60674616238094
100
AcDbArc
 50
125.8609895338995
 51
129.2142495406991
  0
SPLINE
  5
1126
330
A
100
AcDbEntity
  8
MODEL
  6
Continuous
100
AcDbSpline
210
0.0
220
0.0
230
1.0
 70
     8
 71
     3
 72
     8
 73
     4
 74
     0
 42
0.000000001
 43
0.0000000001
 40
0.0
 40
0.0
 40
0.0
 40
0.0
 40
1.0
 40
1.0
 40
1.0
 40
1.0
 10
636.5921685338114
 20
392.9686201087379
 30
0.0
 10
636.6383327946121
 20
392.9309572040447
 30
0.0
 10
636.665732788985
 20
392.8732391820267
 30
0.0
 10
636.665732788985
 20
392.8136604015513
 30
0.0
  0
CIRCLE
  5
1127
330
A
100
AcDbEntity
  8
MODEL
  6
Continuous
100
AcDbCircle
 10
474.8165615777759
 20
803.1869216091986
 30
0.0
 40
18.0
  0
ARC
  5
1128
330
A
100
AcDbEntity
  8
MODEL
  6
Continuous
100
AcDbCircle
 10
474.816536132076
 20
803.1871240605983
 30
0.0
 40
23.00000000000027
100
AcDbArc
 50
73.67075216970066
 51
106.3301654851003
  0
LINE
  5
1129
330
A
100
AcDbEntity
  8
MODEL
  6
Continuous
100
AcDbLine
 10
481.8260769455762
 20
820.0965684645985
 30
0.0
 11
481.7868177038761
 21
824.5952319687985
 31
0.0
  0
LINE
  5
112A
330
A
100
AcDbEntity
  8
MODEL
  6
Continuous
100
AcDbLine
 10
467.8463345600755
 20
824.5985674530984
 30
0.0
 11
467.8069794335759
 21
820.0889166318989
 31
0.0
  0
SPLINE
  5
112B
330
A
100
AcDbEntity
  8
MODEL
  6
Continuous
100
AcDbSpline
210
0.0
220
0.0
230
1.0
 70
     8
 71
     3
 72
    12
 73
     8
 74
     0
 42
0.000000001
 43
0.0000000001
 40
0.0
 40
0.0
 40
0.0
 40
0.0
 40
0.1046766958315963
 40
0.3988770685390524
 40
0.6392105441973889
 40
0.922491227428098
 40
1.0
 40
1.0
 40
1.0
 40
1.0
 10
468.2421067880794
 20
825.2174272533985
 30
0.0
 10
468.2157748117795
 20
825.20388181816
 30
0.0
 10
468.1306948928675
 20
825.1588948415688
 30
0.0
 10
468.0007956693305
 20
825.0431078113993
 30
0.0
 10
467.8953130037833
 20
824.8640320273121
 30
0.0
 10
467.842589726805
 20
824.7066740431251
 30
0.0
 10
467.8519716890057
 20
824.619314238636
 30
0.0
 10
467.854435767819
 20
824.597510580897
 30
0.0
  0
SPLINE
  5
112C
330
A
100
AcDbEntity
  8
MODEL
  6
Continuous
100
AcDbSpline
210
0.0
220
0.0
230
1.0
 70
     8
 71
     3
 72
    13
 73
     9
 74
     0
 42
0.000000001
 43
0.0000000001
 40
0.0
 40
0.0
 40
0.0
 40
0.0
 40
0.1108875830508058
 40
0.3633378339627778
 40
0.5752681240902355
 40
0.7535901165824577
 40
0.8985081320058114
 40
1.0
 40
1.0
 40
1.0
 40
1.0
 10
481.7759048735513
 20
824.595418724839
 30
0.0
 10
481.7788919102202
 20
824.627396230971
 30
0.0
 10
481.7865087640273
 20
824.7175243110255
 30
0.0
 10
481.7342505027834
 20
824.8689963574911
 30
0.0
 10
481.6485054756238
 20
825.0144732162094
 30
0.0
 10
481.5505818643949
 20
825.1165125766952
 30
0.0
 10
481.4577611482343
 20
825.1840923054369
 30
0.0
 10
481.4035828281592
 20
825.2110403920947
 30
0.0
 10
481.377169626812
 20
825.2238664920196
 30
0.0
  0
ARC
  5
112D
330
A
100
AcDbEntity
  8
MODEL
  6
Continuous
100
AcDbCircle
 10
482.2925230757753
 20
820.0753569654985
 30
0.0
 40
0.4626438673512943
100
AcDbArc
 50
177.2389647788248
 51
233.6856588665234
  0
ARC
  5
112E
330
A
100
AcDbEntity
  8
MODEL
  6
Continuous
100
AcDbCircle
 10
467.3296134104755
 20
820.0787578818986
 30
0.0
 40
0.4731246909957597
100
AcDbArc
 50
305.7600192879533
 51
0.2455344661175576
  0
LINE
  5
1131
330
A
100
AcDbEntity
  8
MODEL
  6
Continuous
100
AcDbLine
 10
424.8296449769757
 20
998.8073419146986
 30
0.0
 11
424.8296449769757
 21
950.8073419146986
 31
0.0
  0
LINE
  5
1132
330
A
100
AcDbEntity
  8
MODEL
  6
Continuous
100
AcDbLine
 10
424.8296449769757
 20
306.6966560611984
 30
0.0
 11
424.8296449769757
 21
1050.247575395199
 31
0.0
  0
DIMENSION
  5
1133
330
A
100
AcDbEntity
  8
DIM
100
AcDbDimension
  2
*D11
 10
344.0402465750765
 20
378.8816950425489
 30
0.0
 11
344.0402465750765
 21
778.5563336979985
 31
0.0
 70
   161
  1
\A1;620 {} %%P5
 71
     5
 42
619.6880634096497
 73
     0
 74
     0
 75
     0
  3
tform線あり
100
AcDbAlignedDimension
 13
424.8296449769757
 23
998.5697584521986
 33
0.0
 14
424.8296449769757
 24
378.8816950425489
 34
0.0
1001
ACAD
1000
DSTYLE
1002
{
1070
    41
1040
6.0
1070
   147
1040
5.0
1070
   140
1040
12.0
1070
   178
1070
   256
1070
   177
1070
   256
1070
   176
1070
   256
1070
    45
1040
1.0
1002
}
  0
DIMENSION
  5
1134
330
A
100
AcDbEntity
  8
DIM
100
AcDbDimension
  2
*D12
 10
474.8165615777759
 20
290.7137061745984
 30
0.0
 11
449.8231028084754
 21
290.7137061745984
 31
0.0
 70
   160
  1
\A1;<>
 71
     5
 42
49.98691660080021
 73
     0
 74
     0
 75
     0
  3
tform線あり
100
AcDbAlignedDimension
 13
424.8296449769757
 23
325.6796059477983
 33
0.0
 14
474.8165615777759
 24
407.9704585288982
 34
0.0
100
AcDbRotatedDimension
1001
ACAD
1000
DSTYLE
1002
{
1070
    41
1040
6.0
1070
   147
1040
5.0
1070
   140
1040
12.0
1070
   178
1070
   256
1070
   177
1070
   256
1070
   176
1070
   256
1070
   144
1040
1.0
1002
}
  0
DIMENSION
  5
1136
330
A
100
AcDbEntity
  8
DIM
100
AcDbDimension
  2
*D14
 10
369.3296449769757
 20
1190.875074406915
 30
0.0
 11
397.079644619376
 21
1190.875074406915
 31
0.0
 70
   160
  1
\A1;<>
 71
     5
 42
55.5
 73
     0
 74
     0
 75
     0
  3
tform線あり
100
AcDbAlignedDimension
 13
424.8296449769757
 23
1122.211822846298
 33
0.0
 14
369.3296449769757
 24
1103.807341914699
 34
0.0
100
AcDbRotatedDimension
1001
ACAD
1000
DSTYLE
1002
{
1070
   271
1070
     0
1070
    41
1040
6.0
1070
   147
1040
5.0
1070
   140
1040
12.0
1070
   178
1070
   256
1070
   177
1070
   256
1070
   176
1070
   256
1070
   144
1040
1.0
1002
}
  0
LINE
  5
1172
330
A
100
AcDbEntity
  8
MODEL
  6
Continuous
100
AcDbLine
 10
388.8296449769566
 20
1048.466777566967
 30
0.0
 11
390.610442805061
 21
1050.247575395071
 31
0.0
  0
LINE
  5
1173
330
A
100
AcDbEntity
  8
MODEL
  6
Continuous
100
AcDbLine
 10
388.8296449769566
 20
1035.738855505609
 30
0.0
 11
403.3383648664192
 21
1050.247575395071
 31
0.0
  0
LINE
  5
1174
330
A
100
AcDbEntity
  8
MODEL
  6
Continuous
100
AcDbLine
 10
388.8296449769566
 20
1023.010933444252
 30
0.0
 11
416.0662869277764
 21
1050.247575395071
 31
0.0
  0
LINE
  5
1175
330
A
100
AcDbEntity
  8
MODEL
  6
Continuous
100
AcDbLine
 10
388.8296449769566
 20
1010.283011382894
 30
0.0
 11
424.8296449769566
 21
1046.283011382894
 31
0.0
  0
LINE
  5
1176
330
A
100
AcDbEntity
  8
MODEL
  6
Continuous
100
AcDbLine
 10
388.8296449769566
 20
997.5550893215354
 30
0.0
 11
424.8296449769566
 21
1033.555089321535
 31
0.0
  0
LINE
  5
1177
330
A
100
AcDbEntity
  8
MODEL
  6
Continuous
100
AcDbLine
 10
388.8296449769566
 20
984.8271672601782
 30
0.0
 11
424.8296449769566
 21
1020.827167260178
 31
0.0
  0
LINE
  5
1178
330
A
100
AcDbEntity
  8
MODEL
  6
Continuous
100
AcDbLine
 10
388.8296449769566
 20
972.09924519882
 30
0.0
 11
424.8296449769566
 21
1008.09924519882
 31
0.0
  0
LINE
  5
1179
330
A
100
AcDbEntity
  8
MODEL
  6
Continuous
100
AcDbLine
 10
388.8296449769566
 20
959.3713231374622
 30
0.0
 11
424.8296449769566
 21
995.3713231374622
 31
0.0
  0
LINE
  5
117A
330
A
100
AcDbEntity
  8
MODEL
  6
Continuous
100
AcDbLine
 10
388.8296449769566
 20
946.6434010761045
 30
0.0
 11
424.8296449769566
 21
982.6434010761045
 31
0.0
  0
LINE
  5
117B
330
A
100
AcDbEntity
  8
MODEL
  6
Continuous
100
AcDbLine
 10
388.8296449769566
 20
933.9154790147463
 30
0.0
 11
424.8296449769566
 21
969.9154790147463
 31
0.0
  0
LINE
  5
117C
330
A
100
AcDbEntity
  8
MODEL
  6
Continuous
100
AcDbLine
 10
388.8296449769566
 20
921.1875569533886
 30
0.0
 11
424.8296449769566
 21
957.1875569533886
 31
0.0
  0
LINE
  5
117D
330
A
100
AcDbEntity
  8
MODEL
  6
Continuous
100
AcDbLine
 10
388.8296449769566
 20
908.4596348920309
 30
0.0
 11
424.8296449769566
 21
944.4596348920309
 31
0.0
  0
LINE
  5
117E
330
A
100
AcDbEntity
  8
MODEL
  6
Continuous
100
AcDbLine
 10
388.8296449769566
 20
895.7317128306731
 30
0.0
 11
424.8296449769566
 21
931.7317128306731
 31
0.0
  0
LINE
  5
117F
330
A
100
AcDbEntity
  8
MODEL
  6
Continuous
100
AcDbLine
 10
388.8296449769566
 20
883.003790769315
 30
0.0
 11
424.8296449769566
 21
919.003790769315
 31
0.0
  0
LINE
  5
1180
330
A
100
AcDbEntity
  8
MODEL
  6
Continuous
100
AcDbLine
 10
388.8296449769566
 20
870.2758687079572
 30
0.0
 11
424.8296449769566
 21
906.2758687079572
 31
0.0
  0
LINE
  5
1181
330
A
100
AcDbEntity
  8
MODEL
  6
Continuous
100
AcDbLine
 10
388.8296449769566
 20
857.5479466465995
 30
0.0
 11
424.8296449769566
 21
893.5479466465995
 31
0.0
  0
LINE
  5
1182
330
A
100
AcDbEntity
  8
MODEL
  6
Continuous
100
AcDbLine
 10
388.8296449769566
 20
844.8200245852418
 30
0.0
 11
424.8296449769566
 21
880.8200245852418
 31
0.0
  0
LINE
  5
1183
330
A
100
AcDbEntity
  8
MODEL
  6
Continuous
100
AcDbLine
 10
388.8296449769566
 20
832.0921025238836
 30
0.0
 11
424.8296449769566
 21
868.0921025238836
 31
0.0
  0
LINE
  5
1184
330
A
100
AcDbEntity
  8
MODEL
  6
Continuous
100
AcDbLine
 10
388.8296449769566
 20
819.3641804625254
 30
0.0
 11
424.8296449769566
 21
855.3641804625258
 31
0.0
  0
LINE
  5
1185
330
A
100
AcDbEntity
  8
MODEL
  6
Continuous
100
AcDbLine
 10
388.8296449769566
 20
806.6362584011681
 30
0.0
 11
424.8296449769566
 21
842.6362584011681
 31
0.0
  0
LINE
  5
1186
330
A
100
AcDbEntity
  8
MODEL
  6
Continuous
100
AcDbLine
 10
388.8296449769566
 20
793.9083363398099
 30
0.0
 11
424.8296449769566
 21
829.9083363398099
 31
0.0
  0
LINE
  5
1187
330
A
100
AcDbEntity
  8
MODEL
  6
Continuous
100
AcDbLine
 10
388.8296449769566
 20
781.1804142784522
 30
0.0
 11
424.8296449769566
 21
817.1804142784522
 31
0.0
  0
LINE
  5
1188
330
A
100
AcDbEntity
  8
MODEL
  6
Continuous
100
AcDbLine
 10
388.8296449769566
 20
768.4524922170945
 30
0.0
 11
424.8296449769566
 21
804.4524922170945
 31
0.0
  0
LINE
  5
1189
330
A
100
AcDbEntity
  8
MODEL
  6
Continuous
100
AcDbLine
 10
388.8296449769566
 20
755.7245701557363
 30
0.0
 11
424.8296449769566
 21
791.7245701557363
 31
0.0
  0
LINE
  5
118A
330
A
100
AcDbEntity
  8
MODEL
  6
Continuous
100
AcDbLine
 10
388.8296449769566
 20
742.9966480943785
 30
0.0
 11
424.8296449769566
 21
778.9966480943785
 31
0.0
  0
LINE
  5
118B
330
A
100
AcDbEntity
  8
MODEL
  6
Continuous
100
AcDbLine
 10
388.8296449769566
 20
730.2687260330208
 30
0.0
 11
424.8296449769566
 21
766.2687260330208
 31
0.0
  0
LINE
  5
118C
330
A
100
AcDbEntity
  8
MODEL
  6
Continuous
100
AcDbLine
 10
388.8296449769566
 20
717.5408039716631
 30
0.0
 11
424.8296449769566
 21
753.5408039716631
 31
0.0
  0
LINE
  5
118D
330
A
100
AcDbEntity
  8
MODEL
  6
Continuous
100
AcDbLine
 10
388.8296449769566
 20
704.8128819103049
 30
0.0
 11
424.8296449769566
 21
740.8128819103049
 31
0.0
  0
LINE
  5
118E
330
A
100
AcDbEntity
  8
MODEL
  6
Continuous
100
AcDbLine
 10
388.8296449769566
 20
692.0849598489472
 30
0.0
 11
424.8296449769566
 21
728.0849598489472
 31
0.0
  0
LINE
  5
118F
330
A
100
AcDbEntity
  8
MODEL
  6
Continuous
100
AcDbLine
 10
388.8296449769566
 20
679.3570377875894
 30
0.0
 11
424.8296449769566
 21
715.3570377875894
 31
0.0
  0
LINE
  5
1190
330
A
100
AcDbEntity
  8
MODEL
  6
Continuous
100
AcDbLine
 10
388.8296449769566
 20
666.6291157262317
 30
0.0
 11
424.8296449769566
 21
702.6291157262317
 31
0.0
  0
LINE
  5
1191
330
A
100
AcDbEntity
  8
MODEL
  6
Continuous
100
AcDbLine
 10
388.8296449769566
 20
653.9011936648735
 30
0.0
 11
424.8296449769566
 21
689.901193664874
 31
0.0
  0
LINE
  5
1192
330
A
100
AcDbEntity
  8
MODEL
  6
Continuous
100
AcDbLine
 10
388.8296449769566
 20
641.1732716035158
 30
0.0
 11
424.8296449769566
 21
677.1732716035158
 31
0.0
  0
LINE
  5
1193
330
A
100
AcDbEntity
  8
MODEL
  6
Continuous
100
AcDbLine
 10
388.8296449769566
 20
628.445349542158
 30
0.0
 11
424.8296449769566
 21
664.445349542158
 31
0.0
  0
LINE
  5
1194
330
A
100
AcDbEntity
  8
MODEL
  6
Continuous
100
AcDbLine
 10
388.8296449769566
 20
615.7174274807999
 30
0.0
 11
424.8296449769566
 21
651.7174274808003
 31
0.0
  0
LINE
  5
1195
330
A
100
AcDbEntity
  8
MODEL
  6
Continuous
100
AcDbLine
 10
388.8296449769566
 20
602.9895054194426
 30
0.0
 11
424.8296449769566
 21
638.9895054194426
 31
0.0
  0
LINE
  5
1196
330
A
100
AcDbEntity
  8
MODEL
  6
Continuous
100
AcDbLine
 10
388.8296449769566
 20
590.2615833580844
 30
0.0
 11
424.8296449769566
 21
626.2615833580844
 31
0.0
  0
LINE
  5
1197
330
A
100
AcDbEntity
  8
MODEL
  6
Continuous
100
AcDbLine
 10
388.8296449769566
 20
577.5336612967262
 30
0.0
 11
424.8296449769566
 21
613.5336612967262
 31
0.0
  0
LINE
  5
1198
330
A
100
AcDbEntity
  8
MODEL
  6
Continuous
100
AcDbLine
 10
388.8296449769566
 20
564.8057392353685
 30
0.0
 11
424.8296449769566
 21
600.805739235369
 31
0.0
  0
LINE
  5
1199
330
A
100
AcDbEntity
  8
MODEL
  6
Continuous
100
AcDbLine
 10
388.8296449769566
 20
552.0778171740108
 30
0.0
 11
424.8296449769566
 21
588.0778171740108
 31
0.0
  0
LINE
  5
119A
330
A
100
AcDbEntity
  8
MODEL
  6
Continuous
100
AcDbLine
 10
388.8296449769566
 20
539.349895112653
 30
0.0
 11
424.8296449769566
 21
575.349895112653
 31
0.0
  0
LINE
  5
119B
330
A
100
AcDbEntity
  8
MODEL
  6
Continuous
100
AcDbLine
 10
388.8296449769566
 20
526.6219730512953
 30
0.0
 11
424.8296449769566
 21
562.6219730512953
 31
0.0
  0
LINE
  5
119C
330
A
100
AcDbEntity
  8
MODEL
  6
Continuous
100
AcDbLine
 10
388.8296449769566
 20
513.8940509899371
 30
0.0
 11
424.8296449769566
 21
549.8940509899371
 31
0.0
  0
LINE
  5
11B4
330
A
100
AcDbEntity
  8
MODEL
  6
Continuous
100
AcDbLine
 10
388.8296449769757
 20
501.1661289285985
 30
0.0
 11
424.8296449769757
 21
537.1661289285985
 31
0.0
  0
LINE
  5
11B5
330
A
100
AcDbEntity
  8
MODEL
  6
Continuous
100
AcDbLine
 10
388.8296449769757
 20
488.4382068672403
 30
0.0
 11
424.8296449769757
 21
524.4382068672403
 31
0.0
  0
LINE
  5
11B6
330
A
100
AcDbEntity
  8
MODEL
  6
Continuous
100
AcDbLine
 10
388.8296449769757
 20
475.7102848058826
 30
0.0
 11
424.8296449769757
 21
511.7102848058826
 31
0.0
  0
LINE
  5
11B7
330
A
100
AcDbEntity
  8
MODEL
  6
Continuous
100
AcDbLine
 10
388.8296449769757
 20
462.9823627445248
 30
0.0
 11
424.8296449769757
 21
498.9823627445248
 31
0.0
  0
LINE
  5
11B8
330
A
100
AcDbEntity
  8
MODEL
  6
Continuous
100
AcDbLine
 10
388.8296449769757
 20
450.2544406831671
 30
0.0
 11
424.8296449769757
 21
486.2544406831671
 31
0.0
  0
LINE
  5
11B9
330
A
100
AcDbEntity
  8
MODEL
  6
Continuous
100
AcDbLine
 10
388.8296449769757
 20
437.5265186218089
 30
0.0
 11
424.8296449769757
 21
473.5265186218094
 31
0.0
  0
LINE
  5
11BA
330
A
100
AcDbEntity
  8
MODEL
  6
Continuous
100
AcDbLine
 10
388.8296449769757
 20
424.7985965604512
 30
0.0
 11
424.8296449769757
 21
460.7985965604512
 31
0.0
  0
LINE
  5
11BB
330
A
100
AcDbEntity
  8
MODEL
  6
Continuous
100
AcDbLine
 10
388.8296449769757
 20
412.0706744990935
 30
0.0
 11
424.8296449769757
 21
448.0706744990935
 31
0.0
  0
LINE
  5
11BC
330
A
100
AcDbEntity
  8
MODEL
  6
Continuous
100
AcDbLine
 10
388.8296449769757
 20
399.3427524377353
 30
0.0
 11
424.8296449769757
 21
435.3427524377357
 31
0.0
  0
LINE
  5
11BD
330
A
100
AcDbEntity
  8
MODEL
  6
Continuous
100
AcDbLine
 10
388.8296449769757
 20
386.614830376378
 30
0.0
 11
424.8296449769757
 21
422.614830376378
 31
0.0
  0
LINE
  5
11BE
330
A
100
AcDbEntity
  8
MODEL
  6
Continuous
100
AcDbLine
 10
388.8296449769757
 20
373.8869083150198
 30
0.0
 11
424.8296449769757
 21
409.8869083150198
 31
0.0
  0
LINE
  5
11BF
330
A
100
AcDbEntity
  8
MODEL
  6
Continuous
100
AcDbLine
 10
388.8296449769757
 20
361.1589862536616
 30
0.0
 11
424.8296449769757
 21
397.1589862536616
 31
0.0
  0
LINE
  5
11C0
330
A
100
AcDbEntity
  8
MODEL
  6
Continuous
100
AcDbLine
 10
388.8296449769757
 20
348.4310641923039
 30
0.0
 11
424.8296449769757
 21
384.4310641923043
 31
0.0
  0
LINE
  5
11C1
330
A
100
AcDbEntity
  8
MODEL
  6
Continuous
100
AcDbLine
 10
388.8296449769757
 20
335.7031421309462
 30
0.0
 11
424.8296449769757
 21
371.7031421309462
 31
0.0
  0
LINE
  5
11C2
330
A
100
AcDbEntity
  8
MODEL
  6
Continuous
100
AcDbLine
 10
388.8296449769757
 20
322.9752200695884
 30
0.0
 11
424.8296449769757
 21
358.9752200695884
 31
0.0
  0
LINE
  5
11C3
330
A
100
AcDbEntity
  8
MODEL
  6
Continuous
100
AcDbLine
 10
388.8296449769757
 20
310.2472980082307
 30
0.0
 11
424.8296449769757
 21
346.2472980082307
 31
0.0
  0
LINE
  5
11C4
330
A
100
AcDbEntity
  8
MODEL
  6
Continuous
100
AcDbLine
 10
398.0069250913016
 20
306.6966560611984
 30
0.0
 11
424.8296449769757
 21
333.5193759468725
 31
0.0
  0
LINE
  5
11C5
330
A
100
AcDbEntity
  8
MODEL
  6
Continuous
100
AcDbLine
 10
410.7348471526593
 20
306.6966560611984
 30
0.0
 11
424.8296449769757
 21
320.7914538855148
 31
0.0
  0
LINE
  5
11C6
330
A
100
AcDbEntity
  8
MODEL
  6
Continuous
100
AcDbLine
 10
423.4627692140171
 20
306.6966560611984
 30
0.0
 11
424.8296449769757
 21
308.0635318241571
 31
0.0
  0
DIMENSION
  5
11F0
102
{ACAD_REACTORS
330
11F2
102
}
102
{ACAD_XDICTIONARY
360
11F1
102
}
330
A
100
AcDbEntity
  8
DIM
  6
Continuous
100
AcDbDimension
  2
*D16
 10
485.7296449769754
 20
619.6093807588859
 30
0.0
 11
516.6796449769754
 21
619.6093807588859
 31
0.0
 70
   160
 71
     5
 42
21.79999998783239
 73
     0
 74
     1
 75
     1
  3
tfrom線あり
100
AcDbAlignedDimension
 13
463.929644989143
 23
592.7207505334477
 33
0.0
 14
485.7296449769754
 24
592.4376147196145
 34
0.0
100
AcDbRotatedDimension
1001
ACAD
1000
DSTYLE
1002
{
1070
     3
1000
Φ<>
1070
   172
1070
     1
1002
}
  0
MTEXT
  5
1208
330
A
100
AcDbEntity
  8
TEMPLATE
390
1D
100
AcDbMText
 10
66.10107227386537
 20
115.0746453469642
 30
0.0
 40
12.21630859375
 41
0.0
 46
12.21630859375
 71
     1
 72
     1
  1
{クローム}
  7
ＭＳ ゴシック
 73
     1
 44
0.7828267384257843
1001
ACAD
1000
ACAD_MTEXT_DEFINED_HEIGHT_BEGIN
1070
    46
1040
12.21630859375
1000
ACAD_MTEXT_DEFINED_HEIGHT_END
  0
VIEWPORT
  5
349
330
B
100
AcDbEntity
 67
     1
  8
0
100
AcDbViewport
 10
202.5
 20
128.5
 30
0.0
 40
486.0
 41
308.4
 68
     1
 69
     1
 12
202.5
 22
128.5
 13
0.0
 23
0.0
 14
0.5
 24
0.5
 15
0.0
 25
0.0
 16
0.0
 26
0.0
 36
1.0
 17
0.0
 27
0.0
 37
0.0
 42
50.0
 43
0.0
 44
0.0
 45
308.4
 50
0.0
 51
0.0
 72
   100
 90
   557152
  1

281
     0
 71
     1
 74
     0
110
0.0
120
0.0
130
0.0
111
1.0
121
0.0
131
0.0
112
0.0
122
1.0
132
0.0
 79
     0
146
0.0
170
     0
 61
     5
348
26C
292
     1
282
     1
141
0.0
142
0.0
 63
   256
  0
VIEWPORT
  5
34A
330
B
100
AcDbEntity
 67
     1
  8
0
100
AcDbViewport
 10
202.5
 20
128.5
 30
0.0
 40
324.0
 41
205.6
 68
     2
 69
     2
 12
986.6781359294573
 22
1427.077061889956
 13
0.0
 23
0.0
 14
0.5
 24
0.5
 15
0.0
 25
0.0
 16
0.0
 26
0.0
 36
1.0
 17
0.0
 27
0.0
 37
0.0
 42
50.0
 43
0.0
 44
0.0
 45
2890.021615685494
 50
0.0
 51
0.0
 72
   100
 90
   557152
  1

281
     0
 71
     1
 74
     0
110
0.0
120
0.0
130
0.0
111
1.0
121
0.0
131
0.0
112
0.0
122
1.0
132
0.0
 79
     0
146
0.0
170
     0
 61
     5
348
26C
292
     1
282
     1
141
0.0
142
0.0
 63
   256
  0
ENDSEC
  0
SECTION
  2
OBJECTS
  0
DICTIONARY
  5
19
330
0
100
AcDbDictionary
281
     1
  3
ACAD_COLOR
350
674
  3
ACAD_DETAILVIEWSTYLE
350
BBF
  3
ACAD_GROUP
350
1A
  3
ACAD_IMAGE_VARS
350
27B
  3
ACAD_LAYOUT
350
1E
  3
ACAD_MATERIAL
350
263
  3
ACAD_MLEADERSTYLE
350
336
  3
ACAD_MLINESTYLE
350
1B
  3
ACAD_PLOTSETTINGS
350
22
  3
ACAD_PLOTSTYLENAME
350
1F
  3
ACAD_SCALELIST
350
241
  3
ACAD_SECTIONVIEWSTYLE
350
BC0
  3
ACAD_TABLESTYLE
350
278
  3
ACAD_VISUALSTYLE
350
267
  3
ACDB_RECOMPOSE_DATA
350
120B
  3
AcDbVariableDictionary
350
330
  3
APPDATA
350
27A
  0
SUN
  5
904
330
15
100
AcDbSun
 90
        1
290
     0
 63
     7
421
 16777215
 40
1.0
291
     1
 91
  2455826
 92
 54000000
292
     0
 70
     2
 71
   256
280
     1
  0
DICTIONARY
  5
2E1
330
2
100
AcDbDictionary
280
     1
281
     1
  3
ACAD_LAYERSTATES
360
2E2
  3
ACLYDICTIONARY
360
D22
  0
DICTIONARY
  5
11F1
330
11F0
100
AcDbDictionary
280
     1
281
     1
  3
ACAD_DIMASSOC
360
11F2
  0
DICTIONARY
  5
674
102
{ACAD_REACTORS
330
19
102
}
330
19
100
AcDbDictionary
281
     1
  0
DICTIONARY
  5
BBF
102
{ACAD_REACTORS
330
19
102
}
330
19
100
AcDbDictionary
281
     1
  0
DICTIONARY
  5
1A
102
{ACAD_REACTORS
330
19
102
}
330
19
100
AcDbDictionary
281
     1
  0
RASTERVARIABLES
  5
27B
102
{ACAD_REACTORS
330
19
102
}
330
19
100
AcDbRasterVariables
 90
        0
 70
     1
 71
     1
 72
     1
  0
DICTIONARY
  5
1E
102
{ACAD_REACTORS
330
19
102
}
330
19
100
AcDbDictionary
281
     1
  3
Layout1
350
21
  3
Model
350
20
  0
DICTIONARY
  5
263
102
{ACAD_REACTORS
330
19
102
}
330
19
100
AcDbDictionary
281
     1
  3
ByBlock
350
265
  3
ByLayer
350
264
  3
Global
350
266
  0
DICTIONARY
  5
336
102
{ACAD_REACTORS
330
19
102
}
330
19
100
AcDbDictionary
281
     1
  0
DICTIONARY
  5
1B
102
{ACAD_REACTORS
330
19
102
}
330
19
100
AcDbDictionary
281
     1
  3
Standard
350
1C
  0
DICTIONARY
  5
22
102
{ACAD_REACTORS
330
19
102
}
330
19
100
AcDbDictionary
281
     1
  0
ACDBDICTIONARYWDFLT
  5
1F
102
{ACAD_REACTORS
330
19
102
}
330
19
100
AcDbDictionary
281
     1
  3
Normal
350
1D
100
AcDbDictionaryWithDefault
340
1D
  0
DICTIONARY
  5
241
102
{ACAD_REACTORS
330
19
102
}
330
19
100
AcDbDictionary
281
     1
  3
A0
350
242
  3
A1
350
243
  3
A2
350
244
  3
A3
350
245
  3
A4
350
246
  3
A5
350
247
  3
A6
350
248
  3
A7
350
249
  3
A8
350
24A
  3
A9
350
24B
  3
B0
350
24C
  3
B1
350
24D
  3
B2
350
24E
  3
B3
350
24F
  3
B4
350
250
  3
B5
350
251
  3
B6
350
252
  3
B7
350
253
  3
B8
350
254
  3
B9
350
255
  3
C0
350
256
  3
C1
350
257
  3
C2
350
258
  3
C3
350
259
  3
C4
350
25A
  3
C5
350
25B
  3
C6
350
25C
  3
C7
350
25D
  3
C8
350
25E
  3
C9
350
25F
  3
D0
350
260
  3
D1
350
261
  3
D2
350
262
  0
DICTIONARY
  5
BC0
102
{ACAD_REACTORS
330
19
102
}
330
19
100
AcDbDictionary
281
     1
  0
DICTIONARY
  5
278
102
{ACAD_REACTORS
330
19
102
}
330
19
100
AcDbDictionary
281
     1
  3
Standard
350
279
  0
DICTIONARY
  5
267
102
{ACAD_REACTORS
330
19
102
}
330
19
100
AcDbDictionary
281
     1
  3
2dWireframe
350
26C
  3
3D Hidden
350
26E
  3
3dWireframe
350
26D
  3
Basic
350
26F
  3
Brighten
350
273
  3
ColorChange
350
277
  3
Conceptual
350
271
  3
Dim
350
272
  3
EdgeColorOff
350
8FE
  3
Facepattern
350
276
  3
Flat
350
268
  3
FlatWithEdges
350
269
  3
Gouraud
350
26A
  3
GouraudWithEdges
350
26B
  3
Hidden
350
8FB
  3
JitterOff
350
8FC
  3
Linepattern
350
275
  3
OverhangOff
350
8FD
  3
Realistic
350
270
  3
Shaded
350
903
  3
Shaded with edges
350
902
  3
Shades of Gray
350
8FF
  3
Sketchy
350
900
  3
Thicken
350
274
  3
Wireframe
350
8FA
  3
X-Ray
350
901
  0
XRECORD
  5
120B
102
{ACAD_REACTORS
330
19
102
}
330
19
100
AcDbXrecord
280
     1
 90
        1
330
279
  0
DICTIONARY
  5
330
102
{ACAD_REACTORS
330
19
102
}
330
19
100
AcDbDictionary
281
     1
  3
CANNOSCALE
350
331
  3
CTABLESTYLE
350
335
  3
HPTRANSPARENCY
350
D52
  3
XCLIPFRAME
350
896
  0
DICTIONARY
  5
27A
102
{ACAD_REACTORS
330
19
102
}
330
19
100
AcDbDictionary
281
     1
  0
DICTIONARY
  5
2E2
102
{ACAD_REACTORS
330
2E1
102
}
330
2E1
100
AcDbDictionary
281
     1
  3
ARGON_LAYERP_2
350
88B
  3
ARGON_LAYERP_3
350
88F
  3
ARGON_LAYERP_4
350
892
  3
ARGON_LAYERP_5
350
8F6
  3
ARGON_LAYERP_6
350
BC1
  3
ARGON_LAYERP_7
350
C9E
  3
ARGON_LAYERP_8
350
C9F
  3
ARGON_LAYERP_9
350
7AA
  0
DICTIONARY
  5
D22
102
{ACAD_REACTORS
330
2E1
102
}
330
2E1
100
AcDbDictionary
281
     1
1001
ACAD
1000
<All
  0
DIMASSOC
  5
11F2
102
{ACAD_REACTORS
330
11F1
102
}
330
11F1
100
AcDbDimAssoc
330
11F0
 90
        3
 70
     0
 71
     1
  1
AcDbOsnapPointRef
 72
     2
331
FF4
 73
     0
 91
        0
 40
0.5
 10
0.0
 20
0.0
 30
0.0
 75
     0
  1
AcDbOsnapPointRef
 72
     2
331
FF5
 73
     0
 91
        0
 40
0.5000000000000001
 10
0.0
 20
0.0
 30
0.0
 75
     0
  0
LAYOUT
  5
21
102
{ACAD_REACTORS
330
1E
102
}
330
1E
100
AcDbPlotSettings
  1

  2
none_device
  4
ISO_A3_(420.00_x_297.00_MM)
  6

 40
7.5
 41
20.0
 42
7.5
 43
20.0
 44
420.0
 45
297.0
 46
0.0
 47
0.0
 48
0.0
 49
0.0
140
0.0
141
0.0
142
1.0
143
1.0
 70
     0
 72
     1
 73
     0
 74
     0
  7

 75
     0
 76
     0
 77
     2
 78
   300
147
1.0
148
0.0
149
0.0
100
AcDbLayout
  1
Layout1
 70
     0
 71
     0
 10
-7.5
 20
-20.0
 11
412.5
 21
277.0
 12
0.0
 22
0.0
 32
0.0
 14
0.0
 24
0.0
 34
0.0
 15
0.0
 25
0.0
 35
0.0
146
0.0
 13
0.0
 23
0.0
 33
0.0
 16
0.0
 26
0.0
 36
0.0
 17
0.0
 27
0.0
 37
0.0
 76
     0
330
B
331
349
  0
LAYOUT
  5
20
102
{ACAD_REACTORS
330
1E
102
}
330
1E
100
AcDbPlotSettings
  1

  2
none_device
  4
ISO_A3_(420.00_x_297.00_MM)
  6

 40
7.5
 41
20.0
 42
7.5
 43
20.0
 44
420.0
 45
297.0
 46
0.0
 47
0.0
 48
0.0
 49
0.0
140
0.0
141
0.0
142
1.0
143
1.0
 70
  1024
 72
     1
 73
     0
 74
     0
  7

 75
     0
 76
     0
 77
     2
 78
   300
147
1.0
148
0.0
149
0.0
100
AcDbLayout
  1
Model
 70
     0
 71
     1
 10
0.0
 20
0.0
 11
1050.0
 21
1485.0
 12
0.0
 22
0.0
 32
0.0
 14
36.10107227362437
 24
31.89607416228557
 34
0.0
 15
1011.101072273866
 25
1448.573336753213
 35
0.0
146
0.0
 13
0.0
 23
0.0
 33
0.0
 16
0.0
 26
0.0
 36
0.0
 17
0.0
 27
0.0
 37
0.0
 76
     0
330
A
331
15
  0
MATERIAL
  5
265
102
{ACAD_REACTORS
330
263
102
}
330
263
100
AcDbMaterial
  1
ByBlock
 72
     1
 94
      127
  0
MATERIAL
  5
264
102
{ACAD_REACTORS
330
263
102
}
330
263
100
AcDbMaterial
  1
ByLayer
 72
     1
 94
      127
  0
MATERIAL
  5
266
102
{ACAD_REACTORS
330
263
102
}
330
263
100
AcDbMaterial
  1
Global
 72
     1
 94
      127
  0
MLINESTYLE
  5
1C
102
{ACAD_REACTORS
330
1B
102
}
330
1B
100
AcDbMlineStyle
  2
Standard
 70
     0
  3

 62
     0
 51
90.0
 52
90.0
 71
     2
 49
0.5
 62
   256
  6
BYLAYER
 49
-0.5
 62
   256
  6
BYLAYER
  0
ACDBPLACEHOLDER
  5
1D
102
{ACAD_REACTORS
330
1F
102
}
330
1F
  0
SCALE
  5
242
102
{ACAD_REACTORS
330
241
102
}
330
241
100
AcDbScale
 70
     0
300
1:1
140
1.0
141
1.0
290
     1
  0
SCALE
  5
243
102
{ACAD_REACTORS
330
241
102
}
330
241
100
AcDbScale
 70
     0
300
1:2
140
1.0
141
2.0
290
     0
  0
SCALE
  5
244
102
{ACAD_REACTORS
330
241
102
}
330
241
100
AcDbScale
 70
     0
300
1:4
140
1.0
141
4.0
290
     0
  0
SCALE
  5
245
102
{ACAD_REACTORS
330
241
102
}
330
241
100
AcDbScale
 70
     0
300
1:5
140
1.0
141
5.0
290
     0
  0
SCALE
  5
246
102
{ACAD_REACTORS
330
241
102
}
330
241
100
AcDbScale
 70
     0
300
1:8
140
1.0
141
8.0
290
     0
  0
SCALE
  5
247
102
{ACAD_REACTORS
330
241
102
}
330
241
100
AcDbScale
 70
     0
300
1:10
140
1.0
141
10.0
290
     0
  0
SCALE
  5
248
102
{ACAD_REACTORS
330
241
102
}
330
241
100
AcDbScale
 70
     0
300
1:16
140
1.0
141
16.0
290
     0
  0
SCALE
  5
249
102
{ACAD_REACTORS
330
241
102
}
330
241
100
AcDbScale
 70
     0
300
1:20
140
1.0
141
20.0
290
     0
  0
SCALE
  5
24A
102
{ACAD_REACTORS
330
241
102
}
330
241
100
AcDbScale
 70
     0
300
1:30
140
1.0
141
30.0
290
     0
  0
SCALE
  5
24B
102
{ACAD_REACTORS
330
241
102
}
330
241
100
AcDbScale
 70
     0
300
1:40
140
1.0
141
40.0
290
     0
  0
SCALE
  5
24C
102
{ACAD_REACTORS
330
241
102
}
330
241
100
AcDbScale
 70
     0
300
1:50
140
1.0
141
50.0
290
     0
  0
SCALE
  5
24D
102
{ACAD_REACTORS
330
241
102
}
330
241
100
AcDbScale
 70
     0
300
1:100
140
1.0
141
100.0
290
     0
  0
SCALE
  5
24E
102
{ACAD_REACTORS
330
241
102
}
330
241
100
AcDbScale
 70
     0
300
2:1
140
2.0
141
1.0
290
     0
  0
SCALE
  5
24F
102
{ACAD_REACTORS
330
241
102
}
330
241
100
AcDbScale
 70
     0
300
4:1
140
4.0
141
1.0
290
     0
  0
SCALE
  5
250
102
{ACAD_REACTORS
330
241
102
}
330
241
100
AcDbScale
 70
     0
300
8:1
140
8.0
141
1.0
290
     0
  0
SCALE
  5
251
102
{ACAD_REACTORS
330
241
102
}
330
241
100
AcDbScale
 70
     0
300
10:1
140
10.0
141
1.0
290
     0
  0
SCALE
  5
252
102
{ACAD_REACTORS
330
241
102
}
330
241
100
AcDbScale
 70
     0
300
100:1
140
100.0
141
1.0
290
     0
  0
SCALE
  5
253
102
{ACAD_REACTORS
330
241
102
}
330
241
100
AcDbScale
 70
     0
300
1/128" = 1'-0"
140
0.0078125
141
12.0
290
     0
  0
SCALE
  5
254
102
{ACAD_REACTORS
330
241
102
}
330
241
100
AcDbScale
 70
     0
300
1/64" = 1'-0"
140
0.015625
141
12.0
290
     0
  0
SCALE
  5
255
102
{ACAD_REACTORS
330
241
102
}
330
241
100
AcDbScale
 70
     0
300
1/32" = 1'-0"
140
0.03125
141
12.0
290
     0
  0
SCALE
  5
256
102
{ACAD_REACTORS
330
241
102
}
330
241
100
AcDbScale
 70
     0
300
1/16" = 1'-0"
140
0.0625
141
12.0
290
     0
  0
SCALE
  5
257
102
{ACAD_REACTORS
330
241
102
}
330
241
100
AcDbScale
 70
     0
300
3/32" = 1'-0"
140
0.09375
141
12.0
290
     0
  0
SCALE
  5
258
102
{ACAD_REACTORS
330
241
102
}
330
241
100
AcDbScale
 70
     0
300
1/8" = 1'-0"
140
0.125
141
12.0
290
     0
  0
SCALE
  5
259
102
{ACAD_REACTORS
330
241
102
}
330
241
100
AcDbScale
 70
     0
300
3/16" = 1'-0"
140
0.1875
141
12.0
290
     0
  0
SCALE
  5
25A
102
{ACAD_REACTORS
330
241
102
}
330
241
100
AcDbScale
 70
     0
300
1/4" = 1'-0"
140
0.25
141
12.0
290
     0
  0
SCALE
  5
25B
102
{ACAD_REACTORS
330
241
102
}
330
241
100
AcDbScale
 70
     0
300
3/8" = 1'-0"
140
0.375
141
12.0
290
     0
  0
SCALE
  5
25C
102
{ACAD_REACTORS
330
241
102
}
330
241
100
AcDbScale
 70
     0
300
1/2" = 1'-0"
140
0.5
141
12.0
290
     0
  0
SCALE
  5
25D
102
{ACAD_REACTORS
330
241
102
}
330
241
100
AcDbScale
 70
     0
300
3/4" = 1'-0"
140
0.75
141
12.0
290
     0
  0
SCALE
  5
25E
102
{ACAD_REACTORS
330
241
102
}
330
241
100
AcDbScale
 70
     0
300
1" = 1'-0"
140
1.0
141
12.0
290
     0
  0
SCALE
  5
25F
102
{ACAD_REACTORS
330
241
102
}
330
241
100
AcDbScale
 70
     0
300
1-1/2" = 1'-0"
140
1.5
141
12.0
290
     0
  0
SCALE
  5
260
102
{ACAD_REACTORS
330
241
102
}
330
241
100
AcDbScale
 70
     0
300
3" = 1'-0"
140
3.0
141
12.0
290
     0
  0
SCALE
  5
261
102
{ACAD_REACTORS
330
241
102
}
330
241
100
AcDbScale
 70
     0
300
6" = 1'-0"
140
6.0
141
12.0
290
     0
  0
SCALE
  5
262
102
{ACAD_REACTORS
330
241
102
}
330
241
100
AcDbScale
 70
     0
300
1'-0" = 1'-0"
140
12.0
141
12.0
290
     0
  0
TABLESTYLE
  5
279
102
{ACAD_REACTORS
330
278
102
}
102
{ACAD_XDICTIONARY
360
1209
102
}
330
278
100
AcDbTableStyle
  3
Standard
 70
     0
 71
     0
 40
0.06
 41
0.06
280
     0
281
     0
  7
Standard
140
4.5
170
     2
 62
     0
 63
   257
283
     0
 90
        4
 91
        0
  1

274
    -2
284
     1
 64
     0
275
    -2
285
     1
 65
     0
276
    -2
286
     1
 66
     0
277
    -2
287
     1
 67
     0
278
    -2
288
     1
 68
     0
279
    -2
289
     1
 69
     0
  7
Standard
140
6.0
170
     5
 62
     0
 63
   257
283
     0
 90
        4
 91
        0
  1

274
    -2
284
     1
 64
     0
275
    -2
285
     1
 65
     0
276
    -2
286
     1
 66
     0
277
    -2
287
     1
 67
     0
278
    -2
288
     1
 68
     0
279
    -2
289
     1
 69
     0
  7
Standard
140
4.5
170
     5
 62
     0
 63
   257
283
     0
 90
        4
 91
        0
  1

274
    -2
284
     1
 64
     0
275
    -2
285
     1
 65
     0
276
    -2
286
     1
 66
     0
277
    -2
287
     1
 67
     0
278
    -2
288
     1
 68
     0
279
    -2
289
     1
 69
     0
  0
VISUALSTYLE
  5
26C
102
{ACAD_REACTORS
330
267
102
}
330
267
100
AcDbVisualStyle
  2
2dWireframe
 70
     4
 71
     0
 72
     2
 73
     0
 90
        0
 40
-0.6
 41
-30.0
 62
     5
 63
     7
421
 16777215
 74
     1
 91
        4
 64
     7
 65
   257
 75
     1
175
     1
 42
1.0
 92
        0
 66
   257
 43
1.0
 76
     1
 77
     6
 78
     2
 67
     7
 79
     5
170
     0
171
     0
290
     0
174
     0
 93
        1
 44
0.0
173
     0
291
     0
 45
0.0
  0
VISUALSTYLE
  5
26E
102
{ACAD_REACTORS
330
267
102
}
330
267
100
AcDbVisualStyle
  2
3D Hidden
 70
     6
 71
     1
 72
     2
 73
     2
 90
        0
 40
-0.6
 41
-30.0
 62
     5
 63
     7
421
 16777215
 74
     2
 91
        2
 64
     7
 65
   257
 75
     2
175
     1
 42
40.0
 92
        0
 66
   257
 43
1.0
 76
     1
 77
     6
 78
     2
 67
     7
 79
     3
170
     0
171
     0
290
     0
174
     0
 93
        1
 44
0.0
173
     0
291
     0
 45
0.0
  0
VISUALSTYLE
  5
26D
102
{ACAD_REACTORS
330
267
102
}
330
267
100
AcDbVisualStyle
  2
3dWireframe
 70
     5
 71
     0
 72
     2
 73
     0
 90
        0
 40
-0.6
 41
-30.0
 62
     5
 63
     7
421
 16777215
 74
     1
 91
        4
 64
     7
 65
   257
 75
     1
175
     1
 42
1.0
 92
        0
 66
   257
 43
1.0
 76
     1
 77
     6
 78
     2
 67
     7
 79
     5
170
     0
171
     0
290
     0
174
     0
 93
        1
 44
0.0
173
     0
291
     0
 45
0.0
  0
VISUALSTYLE
  5
26F
102
{ACAD_REACTORS
330
267
102
}
330
267
100
AcDbVisualStyle
  2
Basic
 70
     7
 71
     1
 72
     0
 73
     1
 90
        0
 40
-0.6
 41
-30.0
 62
     5
 63
     7
421
 16777215
 74
     0
 91
        4
 64
     7
 65
   257
 75
     1
175
     1
 42
1.0
 92
        8
 66
     7
 43
1.0
 76
     1
 77
     6
 78
     2
 67
     7
 79
     5
170
     0
171
     0
290
     0
174
     0
 93
        1
 44
0.0
173
     0
291
     1
 45
0.0
  0
VISUALSTYLE
  5
273
102
{ACAD_REACTORS
330
267
102
}
330
267
100
AcDbVisualStyle
  2
Brighten
 70
    12
 71
     2
 72
     2
 73
     0
 90
        0
 40
-0.6
 41
-30.0
 62
     5
 63
     7
421
 16777215
 74
     1
 91
        4
 64
     7
 65
   257
 75
     1
175
     1
 42
1.0
 92
        8
 66
     7
 43
1.0
 76
     1
 77
     6
 78
     2
 67
     7
 79
     5
170
     0
171
     0
290
     0
174
     0
 93
        1
 44
50.0
173
     0
291
     1
 45
0.0
  0
VISUALSTYLE
  5
277
102
{ACAD_REACTORS
330
267
102
}
330
267
100
AcDbVisualStyle
  2
ColorChange
 70
    16
 71
     2
 72
     2
 73
     3
 90
        0
 40
-0.6
 41
-30.0
 62
     5
 63
     8
421
  8421504
 74
     1
 91
        4
 64
     7
 65
   257
 75
     1
175
     1
 42
1.0
 92
        8
 66
     8
424
  8421504
 43
1.0
 76
     1
 77
     6
 78
     2
 67
     7
 79
     5
170
     0
171
     0
290
     0
174
     0
 93
        1
 44
0.0
173
     0
291
     1
 45
0.0
  0
VISUALSTYLE
  5
271
102
{ACAD_REACTORS
330
267
102
}
330
267
100
AcDbVisualStyle
  2
Conceptual
 70
     9
 71
     3
 72
     2
 73
     0
 90
        0
 40
-0.6
 41
-30.0
 62
     5
 63
     7
421
 16777215
 74
     2
 91
        2
 64
     7
 65
   257
 75
     1
175
     1
 42
40.0
 92
        8
 66
     7
 43
1.0
 76
     1
 77
     6
 78
     2
 67
     7
 79
     3
170
     0
171
     0
290
     0
174
     0
 93
        1
 44
0.0
173
     0
291
     0
 45
0.0
  0
VISUALSTYLE
  5
272
102
{ACAD_REACTORS
330
267
102
}
330
267
100
AcDbVisualStyle
  2
Dim
 70
    11
 71
     2
 72
     2
 73
     0
 90
        0
 40
-0.6
 41
-30.0
 62
     5
 63
     7
421
 16777215
 74
     1
 91
        4
 64
     7
 65
   257
 75
     1
175
     1
 42
1.0
 92
        8
 66
     7
 43
1.0
 76
     1
 77
     6
 78
     2
 67
     7
 79
     5
170
     0
171
     0
290
     0
174
     0
 93
        1
 44
-50.0
173
     0
291
     1
 45
0.0
  0
VISUALSTYLE
  5
8FE
102
{ACAD_REACTORS
330
267
102
}
330
267
100
AcDbVisualStyle
  2
EdgeColorOff
 70
    22
 71
     2
 72
     2
 73
     0
 90
        0
 40
0.6
 41
30.0
 62
     5
 63
     7
421
 16777215
 74
     1
 91
        4
 64
     7
 65
   257
 75
     1
175
     1
 42
1.0
 92
        8
 66
     7
 43
1.0
 76
     1
 77
     6
 78
     2
 67
     7
 79
     5
170
     0
171
     0
290
     0
174
     0
 93
        1
 44
0.0
173
     0
291
     1
 45
0.0
  0
VISUALSTYLE
  5
276
102
{ACAD_REACTORS
330
267
102
}
330
267
100
AcDbVisualStyle
  2
Facepattern
 70
    15
 71
     2
 72
     2
 73
     0
 90
        0
 40
-0.6
 41
-30.0
 62
     5
 63
     7
421
 16777215
 74
     1
 91
        4
 64
     7
 65
   257
 75
     1
175
     1
 42
1.0
 92
        8
 66
     7
 43
1.0
 76
     1
 77
     6
 78
     2
 67
     7
 79
     5
170
     0
171
     0
290
     0
174
     0
 93
        1
 44
0.0
173
     0
291
     1
 45
0.0
  0
VISUALSTYLE
  5
268
102
{ACAD_REACTORS
330
267
102
}
330
267
100
AcDbVisualStyle
  2
Flat
 70
     0
 71
     2
 72
     1
 73
     1
 90
        2
 40
-0.6
 41
30.0
 62
     5
 63
     7
421
 16777215
 74
     0
 91
        4
 64
     7
 65
   257
 75
     1
175
     1
 42
1.0
 92
        8
 66
     7
 43
1.0
 76
     1
 77
     6
 78
     2
 67
     7
 79
     5
170
     0
171
     0
290
     0
174
     0
 93
       13
 44
0.0
173
     0
291
     1
 45
0.0
  0
VISUALSTYLE
  5
269
102
{ACAD_REACTORS
330
267
102
}
330
267
100
AcDbVisualStyle
  2
FlatWithEdges
 70
     1
 71
     2
 72
     1
 73
     1
 90
        2
 40
-0.6
 41
30.0
 62
     5
 63
     7
421
 16777215
 74
     1
 91
        4
 64
     7
 65
   257
 75
     1
175
     1
 42
1.0
 92
        0
 66
   257
 43
1.0
 76
     1
 77
     6
 78
     2
 67
     7
 79
     5
170
     0
171
     0
290
     0
174
     0
 93
       13
 44
0.0
173
     0
291
     1
 45
0.0
  0
VISUALSTYLE
  5
26A
102
{ACAD_REACTORS
330
267
102
}
330
267
100
AcDbVisualStyle
  2
Gouraud
 70
     2
 71
     2
 72
     2
 73
     1
 90
        2
 40
-0.6
 41
30.0
 62
     5
 63
     7
421
 16777215
 74
     0
 91
        4
 64
     7
 65
   257
 75
     1
175
     1
 42
1.0
 92
        0
 66
     7
 43
1.0
 76
     1
 77
     6
 78
     2
 67
     7
 79
     5
170
     0
171
     0
290
     0
174
     0
 93
       13
 44
0.0
173
     0
291
     1
 45
0.0
  0
VISUALSTYLE
  5
26B
102
{ACAD_REACTORS
330
267
102
}
330
267
100
AcDbVisualStyle
  2
GouraudWithEdges
 70
     3
 71
     2
 72
     2
 73
     1
 90
        2
 40
-0.6
 41
30.0
 62
     5
 63
     7
421
 16777215
 74
     1
 91
        4
 64
     7
 65
   257
 75
     1
175
     1
 42
1.0
 92
        0
 66
   257
 43
1.0
 76
     1
 77
     6
 78
     2
 67
     7
 79
     5
170
     0
171
     0
290
     0
174
     0
 93
       13
 44
0.0
173
     0
291
     1
 45
0.0
  0
VISUALSTYLE
  5
8FB
102
{ACAD_REACTORS
330
267
102
}
330
267
100
AcDbVisualStyle
  2
Hidden
 70
     6
 71
     1
 72
     2
 73
     2
 90
        0
 40
0.6
 41
30.0
 62
     5
 63
     7
421
 16777215
 74
     2
 91
        2
 64
     7
 65
   257
 75
     2
175
     1
 42
40.0
 92
        0
 66
   257
 43
1.0
 76
     1
 77
     6
 78
     2
 67
     7
 79
     3
170
     0
171
     0
290
     0
174
     0
 93
        1
 44
0.0
173
     0
291
     0
 45
0.0
  0
VISUALSTYLE
  5
8FC
102
{ACAD_REACTORS
330
267
102
}
330
267
100
AcDbVisualStyle
  2
JitterOff
 70
    20
 71
     2
 72
     2
 73
     0
 90
        0
 40
0.6
 41
30.0
 62
     5
 63
     7
421
 16777215
 74
     1
 91
        4
 64
     7
 65
   257
 75
     1
175
     1
 42
1.0
 92
       10
 66
     7
 43
1.0
 76
     1
 77
     6
 78
     2
 67
     7
 79
     5
170
     0
171
     0
290
     0
174
     0
 93
        1
 44
0.0
173
     0
291
     1
 45
0.0
  0
VISUALSTYLE
  5
275
102
{ACAD_REACTORS
330
267
102
}
330
267
100
AcDbVisualStyle
  2
Linepattern
 70
    14
 71
     2
 72
     2
 73
     0
 90
        0
 40
-0.6
 41
-30.0
 62
     5
 63
     7
421
 16777215
 74
     1
 91
        4
 64
     7
 65
   257
 75
     7
175
     7
 42
1.0
 92
        8
 66
     7
 43
1.0
 76
     1
 77
     6
 78
     2
 67
     7
 79
     5
170
     0
171
     0
290
     0
174
     0
 93
        1
 44
0.0
173
     0
291
     1
 45
0.0
  0
VISUALSTYLE
  5
8FD
102
{ACAD_REACTORS
330
267
102
}
330
267
100
AcDbVisualStyle
  2
OverhangOff
 70
    21
 71
     2
 72
     2
 73
     0
 90
        0
 40
0.6
 41
30.0
 62
     5
 63
     7
421
 16777215
 74
     1
 91
        4
 64
     7
 65
   257
 75
     1
175
     1
 42
1.0
 92
        9
 66
     7
 43
1.0
 76
     1
 77
     6
 78
     2
 67
     7
 79
     5
170
     0
171
     0
290
     0
174
     0
 93
        1
 44
0.0
173
     0
291
     1
 45
0.0
  0
VISUALSTYLE
  5
270
102
{ACAD_REACTORS
330
267
102
}
330
267
100
AcDbVisualStyle
  2
Realistic
 70
     8
 71
     2
 72
     2
 73
     0
 90
        0
 40
-0.6
 41
-30.0
 62
     5
 63
     7
421
 16777215
 74
     1
 91
        0
 64
     7
 65
   257
 75
     1
175
     1
 42
1.0
 92
        8
 66
     8
424
  7895160
 43
1.0
 76
     1
 77
     6
 78
     2
 67
     7
 79
     5
170
     0
171
     0
290
     0
174
     0
 93
       13
 44
0.0
173
     0
291
     0
 45
0.0
  0
VISUALSTYLE
  5
903
102
{ACAD_REACTORS
330
267
102
}
330
267
100
AcDbVisualStyle
  2
Shaded
 70
    27
 71
     2
 72
     2
 73
     1
 90
        2
 40
0.6
 41
30.0
 62
     5
 63
     7
421
 16777215
 74
     0
 91
        4
 64
     7
 65
   257
 75
     1
175
     1
 42
1.0
 92
        8
 66
   257
 43
1.0
 76
     1
 77
     6
 78
     2
 67
     8
425
  7895160
 79
     3
170
     0
171
     0
290
     0
174
     0
 93
        5
 44
0.0
173
     0
291
     0
 45
0.0
  0
VISUALSTYLE
  5
902
102
{ACAD_REACTORS
330
267
102
}
330
267
100
AcDbVisualStyle
  2
Shaded with edges
 70
    26
 71
     2
 72
     2
 73
     1
 90
        2
 40
0.6
 41
30.0
 62
     5
 63
     7
421
 16777215
 74
     1
 91
       10
 64
     7
 65
   257
 75
     2
175
     1
 42
1.0
 92
        8
 66
   257
 43
1.0
 76
     1
 77
     6
 78
     2
 67
     7
 79
     3
170
     0
171
     0
290
     0
174
     0
 93
        5
 44
0.0
173
     0
291
     0
 45
0.0
  0
VISUALSTYLE
  5
8FF
102
{ACAD_REACTORS
330
267
102
}
330
267
100
AcDbVisualStyle
  2
Shades of Gray
 70
    23
 71
     2
 72
     2
 73
     3
 90
        0
 40
0.6
 41
30.0
 62
     5
 63
     7
421
 16777215
 74
     2
 91
        2
 64
     7
 65
     7
 75
     1
175
     1
 42
40.0
 92
        8
 66
     7
 43
1.0
 76
     1
 77
     6
 78
     2
 67
     7
 79
     3
170
     0
171
     0
290
     0
174
     0
 93
        1
 44
0.0
173
     0
291
     0
 45
0.0
  0
VISUALSTYLE
  5
900
102
{ACAD_REACTORS
330
267
102
}
330
267
100
AcDbVisualStyle
  2
Sketchy
 70
    24
 71
     1
 72
     2
 73
     2
 90
        0
 40
0.6
 41
30.0
 62
     5
 63
     7
421
 16777215
 74
     2
 91
        2
 64
     7
 65
     7
 75
     1
175
     1
 42
40.0
 92
       11
 66
     7
 43
1.0
 76
     1
 77
     6
 78
     2
 67
     7
 79
     6
170
     0
171
     0
290
     0
174
     0
 93
        1
 44
0.0
173
     0
291
     0
 45
0.0
  0
VISUALSTYLE
  5
274
102
{ACAD_REACTORS
330
267
102
}
330
267
100
AcDbVisualStyle
  2
Thicken
 70
    13
 71
     2
 72
     2
 73
     0
 90
        0
 40
-0.6
 41
-30.0
 62
     5
 63
     7
421
 16777215
 74
     1
 91
        4
 64
     7
 65
   257
 75
     1
175
     1
 42
1.0
 92
       12
 66
     7
 43
1.0
 76
     1
 77
     6
 78
     2
 67
     7
 79
     5
170
     0
171
     0
290
     0
174
     0
 93
        1
 44
0.0
173
     0
291
     1
 45
0.0
  0
VISUALSTYLE
  5
8FA
102
{ACAD_REACTORS
330
267
102
}
330
267
100
AcDbVisualStyle
  2
Wireframe
 70
     5
 71
     0
 72
     2
 73
     0
 90
        0
 40
0.6
 41
30.0
 62
     5
 63
     7
421
 16777215
 74
     1
 91
        4
 64
     7
 65
   257
 75
     1
175
     1
 42
1.0
 92
        0
 66
   257
 43
1.0
 76
     1
 77
     6
 78
     2
 67
     7
 79
     3
170
     0
171
     0
290
     0
174
     0
 93
        1
 44
0.0
173
     0
291
     0
 45
0.0
  0
VISUALSTYLE
  5
901
102
{ACAD_REACTORS
330
267
102
}
330
267
100
AcDbVisualStyle
  2
X-Ray
 70
    25
 71
     2
 72
     2
 73
     1
 90
        1
 40
0.5
 41
30.0
 62
     5
 63
     7
421
 16777215
 74
     1
 91
        0
 64
     7
 65
   257
 75
     1
175
     1
 42
1.0
 92
        8
 66
     7
 43
1.0
 76
     1
 77
     6
 78
     2
 67
     7
 79
     3
170
     0
171
     0
290
     0
174
     0
 93
       13
 44
0.0
173
     0
291
     0
 45
0.0
  0
DICTIONARYVAR
  5
331
102
{ACAD_REACTORS
330
330
102
}
330
330
100
DictionaryVariables
280
     0
  1
1:1
  0
DICTIONARYVAR
  5
335
102
{ACAD_REACTORS
330
330
102
}
330
330
100
DictionaryVariables
280
     0
  1
Standard
  0
DICTIONARYVAR
  5
D52
102
{ACAD_REACTORS
330
330
102
}
330
330
100
DictionaryVariables
280
     0
  1
ByLayer
  0
DICTIONARYVAR
  5
896
102
{ACAD_REACTORS
330
330
102
}
330
330
100
DictionaryVariables
280
     0
  1
0
  0
XRECORD
  5
88B
102
{ACAD_REACTORS
330
2E2
102
}
330
2E2
100
AcDbXrecord
280
     1
 91
     1023
301

290
     0
302
MODEL
330
14
 90
        8
 62
     7
370
    -3
331
13
  1
Color_7
330
0
 90
        0
 62
     7
370
    -3
331
13
  1
Color_7
330
4B
 90
        8
 62
     7
370
    -3
331
13
  1
Color_7
330
4C
 90
        8
 62
     7
370
    -3
331
13
  1
Color_7
330
4D
 90
        8
 62
     7
370
    -3
331
13
  1
Color_7
330
0
 90
        9
 62
     1
370
    -3
331
13
  1
Color_1
330
0
 90
        8
 62
     4
370
    -3
331
13
  1
Color_4
330
667
 90
        8
 62
     7
370
    -3
331
13
  1
Color_7
330
0
 90
        9
 62
     1
370
    -3
331
13
  1
Color_1
  0
XRECORD
  5
88F
102
{ACAD_REACTORS
330
2E2
102
}
330
2E2
100
AcDbXrecord
280
     1
 91
     1023
301

290
     0
302
MODEL
330
14
 90
        8
 62
     7
370
    -3
331
13
  1
Color_7
330
0
 90
        0
 62
     7
370
    -3
331
13
  1
Color_7
330
4B
 90
        8
 62
     7
370
     0
331
13
  1
Color_7
330
4C
 90
        8
 62
     7
370
     9
331
13
  1
Color_7
330
4D
 90
        8
 62
     7
370
    -3
331
13
  1
Color_7
330
667
 90
        8
 62
     7
370
    -3
331
13
  1
Color_7
330
88C
 90
        8
 62
     7
370
     9
331
45
  1
Color_7
  0
XRECORD
  5
892
102
{ACAD_REACTORS
330
2E2
102
}
330
2E2
100
AcDbXrecord
280
     1
 91
     1023
301

290
     0
302
MODEL
330
14
 90
        8
 62
     7
370
    -3
331
13
  1
Color_7
330
0
 90
        0
 62
     7
370
    -3
331
13
  1
Color_7
330
4B
 90
        8
 62
     7
370
     0
331
13
  1
Color_7
330
4C
 90
        8
 62
     7
370
     9
331
13
  1
Color_7
330
4D
 90
        8
 62
     7
370
    -3
331
13
  1
Color_7
330
667
 90
        8
 62
     3
370
    -3
331
13
  1
Color_3
330
88C
 90
        8
 62
     7
370
     9
331
45
  1
Color_7
  0
XRECORD
  5
8F6
102
{ACAD_REACTORS
330
2E2
102
}
330
2E2
100
AcDbXrecord
280
     1
 91
     1023
301

290
     0
302
MODEL
330
14
 90
        8
 62
     7
370
    -3
331
13
  1
Color_7
330
0
 90
        0
 62
     7
370
    -3
331
13
  1
Color_7
330
4B
 90
        8
 62
     7
370
     0
331
13
  1
Color_7
330
4C
 90
        8
 62
     7
370
     9
331
13
  1
Color_7
330
4D
 90
        8
 62
     7
370
    -3
331
13
  1
Color_7
330
667
 90
        8
 62
     7
370
    -3
331
13
  1
Color_7
330
88C
 90
        8
 62
     7
370
     9
331
45
  1
Color_7
  0
XRECORD
  5
BC1
102
{ACAD_REACTORS
330
2E2
102
}
330
2E2
100
AcDbXrecord
280
     1
 91
     1023
301

290
     0
302
MODEL
330
14
 90
        8
 62
     7
370
    -3
331
13
  1
Color_7
330
0
 90
        0
 62
     7
370
    -3
331
13
  1
Color_7
330
4B
 90
        8
 62
     7
370
     0
331
13
  1
Color_7
330
4C
 90
        8
 62
     7
370
     9
331
13
  1
Color_7
330
4D
 90
        8
 62
     7
370
    -3
331
13
  1
Color_7
330
667
 90
        8
 62
     7
370
    -3
331
13
  1
Color_7
330
88C
 90
        8
 62
     7
370
     9
331
45
  1
Color_7
330
0
 90
        8
 62
     7
370
    -3
331
13
  1
Color_7
  0
XRECORD
  5
C9E
102
{ACAD_REACTORS
330
2E2
102
}
330
2E2
100
AcDbXrecord
280
     1
 91
     1023
301

290
     0
302
DIM
330
14
 90
        8
 62
     7
370
    -3
331
13
  1
Color_7
330
0
 90
        0
 62
     7
370
    -3
331
13
  1
Color_7
330
4B
 90
        8
 62
     7
370
     0
331
13
  1
Color_7
330
4C
 90
        8
 62
     7
370
     9
331
13
  1
Color_7
330
4D
 90
        8
 62
     7
370
    -3
331
13
  1
Color_7
330
667
 90
        8
 62
     7
370
    -3
331
13
  1
Color_7
330
88C
 90
        8
 62
     7
370
     9
331
45
  1
Color_7
330
0
 90
        8
 62
     7
370
    -3
331
13
  1
Color_7
  0
XRECORD
  5
C9F
102
{ACAD_REACTORS
330
2E2
102
}
330
2E2
100
AcDbXrecord
280
     1
 91
     1023
301

290
     0
302
MODEL
330
14
 90
        8
 62
     7
370
    -3
331
13
  1
Color_7
330
0
 90
        0
 62
     7
370
    -3
331
13
  1
Color_7
330
4B
 90
        8
 62
     7
370
     0
331
13
  1
Color_7
330
4C
 90
        8
 62
     7
370
     9
331
13
  1
Color_7
330
4D
 90
        8
 62
     7
370
    -3
331
13
  1
Color_7
330
667
 90
        8
 62
     7
370
    -3
331
13
  1
Color_7
330
88C
 90
        8
 62
     7
370
     9
331
45
  1
Color_7
330
0
 90
        8
 62
     7
370
    -3
331
13
  1
Color_7
  0
XRECORD
  5
7AA
102
{ACAD_REACTORS
330
2E2
102
}
330
2E2
100
AcDbXrecord
280
     1
 91
     1023
301

290
     0
302
DIM
330
14
 90
        8
 62
     7
370
    -3
331
13
  1
Color_7
330
4B
 90
        8
 62
     7
370
    20
331
13
  1
Color_7
330
4C
 90
        8
 62
     7
370
    13
331
13
  1
Color_7
330
4D
 90
        9
 62
     7
370
    20
331
13
  1
Color_7
330
667
 90
        8
 62
     7
370
    -3
331
13
  1
Color_7
330
88C
 90
        8
 62
     7
370
    20
331
45
  1
Color_7
330
D5A
 90
        8
 62
     7
370
    -3
331
13
  1
Color_7
330
D5C
 90
        8
 62
     7
370
    -3
331
13
  1
Color_7
330
D5D
 90
        8
 62
     7
370
    -3
331
13
  1
Color_7
330
D5E
 90
        8
 62
     7
370
    -3
331
13
  1
Color_7
330
D5F
 90
        8
 62
     7
370
    -3
331
13
  1
Color_7
330
F6E
 90
        0
 62
     7
370
    -3
331
13
  1
Color_7
  0
DICTIONARY
  5
1209
330
279
100
AcDbDictionary
280
     1
281
     1
  3
ACAD_ROUNDTRIP_2008_TABLESTYLE_CELLSTYLEMAP
360
120A
  0
CELLSTYLEMAP
  5
120A
102
{ACAD_REACTORS
330
1209
102
}
330
1209
100
AcDbCellStyleMap
 90
        3
300
CELLSTYLE
  1
TABLEFORMAT_BEGIN
 90
        5
170
     1
 91
        0
 92
    32768
 62
   257
 93
        1
300
CONTENTFORMAT
  1
CONTENTFORMAT_BEGIN
 90
        0
 91
        0
 92
        4
 93
        0
300

 40
0.0
140
1.0
 94
        5
 62
     0
340
17
144
6.0
309
CONTENTFORMAT_END
171
     1
301
MARGIN
  1
CELLMARGIN_BEGIN
 40
0.06
 40
0.06
 40
0.06
 40
0.06
 40
0.18
 40
0.18
309
CELLMARGIN_END
 94
        6
 95
        1
302
GRIDFORMAT
  1
GRIDFORMAT_BEGIN
 90
        0
 91
        1
 62
     0
 92
       -2
340
0
 93
        0
 40
0.045
309
GRIDFORMAT_END
 95
        2
302
GRIDFORMAT
  1
GRIDFORMAT_BEGIN
 90
        0
 91
        1
 62
     0
 92
       -2
340
0
 93
        0
 40
0.045
309
GRIDFORMAT_END
 95
        4
302
GRIDFORMAT
  1
GRIDFORMAT_BEGIN
 90
        0
 91
        1
 62
     0
 92
       -2
340
0
 93
        0
 40
0.045
309
GRIDFORMAT_END
 95
        8
302
GRIDFORMAT
  1
GRIDFORMAT_BEGIN
 90
        0
 91
        1
 62
     0
 92
       -2
340
0
 93
        0
 40
0.045
309
GRIDFORMAT_END
 95
       16
302
GRIDFORMAT
  1
GRIDFORMAT_BEGIN
 90
        0
 91
        1
 62
     0
 92
       -2
340
0
 93
        0
 40
0.045
309
GRIDFORMAT_END
 95
       32
302
GRIDFORMAT
  1
GRIDFORMAT_BEGIN
 90
        0
 91
        1
 62
     0
 92
       -2
340
0
 93
        0
 40
0.045
309
GRIDFORMAT_END
309
TABLEFORMAT_END
  1
CELLSTYLE_BEGIN
 90
        1
 91
        1
300
_TITLE
309
CELLSTYLE_END
300
CELLSTYLE
  1
TABLEFORMAT_BEGIN
 90
        5
170
     1
 91
        0
 92
        0
 62
   257
 93
        1
300
CONTENTFORMAT
  1
CONTENTFORMAT_BEGIN
 90
        0
 91
        0
 92
        4
 93
        0
300

 40
0.0
140
1.0
 94
        5
 62
     0
340
17
144
4.5
309
CONTENTFORMAT_END
171
     1
301
MARGIN
  1
CELLMARGIN_BEGIN
 40
0.06
 40
0.06
 40
0.06
 40
0.06
 40
0.18
 40
0.18
309
CELLMARGIN_END
 94
        6
 95
        1
302
GRIDFORMAT
  1
GRIDFORMAT_BEGIN
 90
        0
 91
        1
 62
     0
 92
       -2
340
0
 93
        0
 40
0.045
309
GRIDFORMAT_END
 95
        2
302
GRIDFORMAT
  1
GRIDFORMAT_BEGIN
 90
        0
 91
        1
 62
     0
 92
       -2
340
0
 93
        0
 40
0.045
309
GRIDFORMAT_END
 95
        4
302
GRIDFORMAT
  1
GRIDFORMAT_BEGIN
 90
        0
 91
        1
 62
     0
 92
       -2
340
0
 93
        0
 40
0.045
309
GRIDFORMAT_END
 95
        8
302
GRIDFORMAT
  1
GRIDFORMAT_BEGIN
 90
        0
 91
        1
 62
     0
 92
       -2
340
0
 93
        0
 40
0.045
309
GRIDFORMAT_END
 95
       16
302
GRIDFORMAT
  1
GRIDFORMAT_BEGIN
 90
        0
 91
        1
 62
     0
 92
       -2
340
0
 93
        0
 40
0.045
309
GRIDFORMAT_END
 95
       32
302
GRIDFORMAT
  1
GRIDFORMAT_BEGIN
 90
        0
 91
        1
 62
     0
 92
       -2
340
0
 93
        0
 40
0.045
309
GRIDFORMAT_END
309
TABLEFORMAT_END
  1
CELLSTYLE_BEGIN
 90
        2
 91
        1
300
_HEADER
309
CELLSTYLE_END
300
CELLSTYLE
  1
TABLEFORMAT_BEGIN
 90
        5
170
     1
 91
        0
 92
        0
 62
   257
 93
        1
300
CONTENTFORMAT
  1
CONTENTFORMAT_BEGIN
 90
        0
 91
        0
 92
        4
 93
        0
300

 40
0.0
140
1.0
 94
        2
 62
     0
340
17
144
4.5
309
CONTENTFORMAT_END
171
     1
301
MARGIN
  1
CELLMARGIN_BEGIN
 40
0.06
 40
0.06
 40
0.06
 40
0.06
 40
0.18
 40
0.18
309
CELLMARGIN_END
 94
        6
 95
        1
302
GRIDFORMAT
  1
GRIDFORMAT_BEGIN
 90
        0
 91
        1
 62
     0
 92
       -2
340
0
 93
        0
 40
0.045
309
GRIDFORMAT_END
 95
        2
302
GRIDFORMAT
  1
GRIDFORMAT_BEGIN
 90
        0
 91
        1
 62
     0
 92
       -2
340
0
 93
        0
 40
0.045
309
GRIDFORMAT_END
 95
        4
302
GRIDFORMAT
  1
GRIDFORMAT_BEGIN
 90
        0
 91
        1
 62
     0
 92
       -2
340
0
 93
        0
 40
0.045
309
GRIDFORMAT_END
 95
        8
302
GRIDFORMAT
  1
GRIDFORMAT_BEGIN
 90
        0
 91
        1
 62
     0
 92
       -2
340
0
 93
        0
 40
0.045
309
GRIDFORMAT_END
 95
       16
302
GRIDFORMAT
  1
GRIDFORMAT_BEGIN
 90
        0
 91
        1
 62
     0
 92
       -2
340
0
 93
        0
 40
0.045
309
GRIDFORMAT_END
 95
       32
302
GRIDFORMAT
  1
GRIDFORMAT_BEGIN
 90
        0
 91
        1
 62
     0
 92
       -2
340
0
 93
        0
 40
0.045
309
GRIDFORMAT_END
309
TABLEFORMAT_END
  1
CELLSTYLE_BEGIN
 90
        3
 91
        2
300
_DATA
309
CELLSTYLE_END
  0
ENDSEC
  0
EOF
