  0
SECTION
  2
HEADER
  9
$ACADVER
  1
AC1021
  9
$ACADMAINTVER
 70
    25
  9
$DWGCODEPAGE
  3
ANSI_932
  9
$LASTSAVEDBY
  1
Shimosaki
  9
$INSBASE
 10
0.0
 20
0.0
 30
0.0
  9
$EXTMIN
 10
-6448.114718063597
 20
-2837.758609081921
 30
0.0
  9
$EXTMAX
 10
4024.479906224276
 20
2828.950441281793
 30
0.0
  9
$LIMMIN
 10
-2103.754647862727
 20
-2976.353036140506
  9
$LIMMAX
 10
2096.245352137274
 20
2963.646963859495
  9
$ORTHOMODE
 70
     0
  9
$REGENMODE
 70
     1
  9
$FILLMODE
 70
     1
  9
$QTEXTMODE
 70
     0
  9
$MIRRTEXT
 70
     1
  9
$LTSCALE
 40
10.16
  9
$ATTMODE
 70
     1
  9
$TEXTSIZE
 40
0.0
  9
$TRACEWID
 40
1.0
  9
$TEXTSTYLE
  7
Standard
  9
$CLAYER
  8
template
  9
$CELTYPE
  6
Continuous
  9
$CECOLOR
 62
   256
  9
$CELTSCALE
 40
1.0
  9
$DISPSILH
 70
     0
  9
$DIMSCALE
 40
1.0
  9
$DIMASZ
 40
7.99951171875
  9
$DIMEXO
 40
49.99999999999999
  9
$DIMDLI
 40
0.9999999999999999
  9
$DIMRND
 40
0.0
  9
$DIMDLE
 40
0.0
  9
$DIMEXE
 40
0.0
  9
$DIMTP
 40
0.0
  9
$DIMTM
 40
0.0
  9
$DIMTXT
 40
43.65625
  9
$DIMCEN
 40
0.0
  9
$DIMTSZ
 40
0.0
  9
$DIMTOL
 70
     0
  9
$DIMLIM
 70
     0
  9
$DIMTIH
 70
     0
  9
$DIMTOH
 70
     0
  9
$DIMSE1
 70
     0
  9
$DIMSE2
 70
     0
  9
$DIMTAD
 70
     1
  9
$DIMZIN
 70
    11
  9
$DIMBLK
  1
DOT
  9
$DIMASO
 70
     1
  9
$DIMSHO
 70
     1
  9
$DIMPOST
  1
<>
  9
$DIMAPOST
  1
[]
  9
$DIMALT
 70
     0
  9
$DIMALTD
 70
     3
  9
$DIMALTF
 40
0.0393700787401575
  9
$DIMLFAC
 40
1.0
  9
$DIMTOFL
 70
     1
  9
$DIMTVP
 40
0.0
  9
$DIMTIX
 70
     1
  9
$DIMSOXD
 70
     0
  9
$DIMSAH
 70
     0
  9
$DIMBLK1
  1

  9
$DIMBLK2
  1

  9
$DIMSTYLE
  2
T-form線あり
  9
$DIMCLRD
 70
     0
  9
$DIMCLRE
 70
     0
  9
$DIMCLRT
 70
     0
  9
$DIMTFAC
 40
1.0
  9
$DIMGAP
 40
0.4999999999999999
  9
$DIMJUST
 70
     0
  9
$DIMSD1
 70
     0
  9
$DIMSD2
 70
     0
  9
$DIMTOLJ
 70
     1
  9
$DIMTZIN
 70
    11
  9
$DIMALTZ
 70
    15
  9
$DIMALTTZ
 70
    15
  9
$DIMUPT
 70
     0
  9
$DIMDEC
 70
     1
  9
$DIMTDEC
 70
     1
  9
$DIMALTU
 70
     4
  9
$DIMALTTD
 70
     2
  9
$DIMTXSTY
  7
MS UI Gothic
  9
$DIMAUNIT
 70
     0
  9
$DIMADEC
 70
     2
  9
$DIMALTRND
 40
0.0
  9
$DIMAZIN
 70
     0
  9
$DIMDSEP
 70
    46
  9
$DIMATFIT
 70
     0
  9
$DIMFRAC
 70
     2
  9
$DIMLDRBLK
  1

  9
$DIMLUNIT
 70
     2
  9
$DIMLWD
 70
    -2
  9
$DIMLWE
 70
    -2
  9
$DIMTMOVE
 70
     0
  9
$DIMFXL
 40
1.0
  9
$DIMFXLON
 70
     0
  9
$DIMJOGANG
 40
0.7853981633974483
  9
$DIMTFILL
 70
     0
  9
$DIMTFILLCLR
 70
     0
  9
$DIMARCSYM
 70
     0
  9
$DIMLTYPE
  6

  9
$DIMLTEX1
  6

  9
$DIMLTEX2
  6

  9
$LUNITS
 70
     2
  9
$LUPREC
 70
     4
  9
$SKETCHINC
 40
0.1
  9
$FILLETRAD
 40
0.0
  9
$AUNITS
 70
     0
  9
$AUPREC
 70
     0
  9
$MENU
  1
acad
  9
$ELEVATION
 40
0.0
  9
$PELEVATION
 40
0.0
  9
$THICKNESS
 40
0.0
  9
$LIMCHECK
 70
     0
  9
$CHAMFERA
 40
0.0
  9
$CHAMFERB
 40
0.0
  9
$CHAMFERC
 40
0.0
  9
$CHAMFERD
 40
0.0
  9
$SKPOLY
 70
     0
  9
$TDCREATE
 40
2447893.375
  9
$TDUCREATE
 40
0.0
  9
$TDUPDATE
 40
2456848.479715174
  9
$TDUUPDATE
 40
2456848.104715174
  9
$TDINDWG
 40
0.3882747106
  9
$TDUSRTIMER
 40
2456848.104544491
  9
$USRTIMER
 70
     1
  9
$ANGBASE
 50
0.0
  9
$ANGDIR
 70
     0
  9
$PDMODE
 70
     1
  9
$PDSIZE
 40
-2.0
  9
$PLINEWID
 40
0.0
  9
$SPLFRAME
 70
     0
  9
$SPLINETYPE
 70
     6
  9
$SPLINESEGS
 70
     8
  9
$HANDSEED
  5
9A7
  9
$SURFTAB1
 70
     6
  9
$SURFTAB2
 70
     6
  9
$SURFTYPE
 70
     6
  9
$SURFU
 70
     6
  9
$SURFV
 70
     6
  9
$UCSBASE
  2

  9
$UCSNAME
  2

  9
$UCSORG
 10
0.0
 20
0.0
 30
0.0
  9
$UCSXDIR
 10
1.0
 20
0.0
 30
0.0
  9
$UCSYDIR
 10
0.0
 20
1.0
 30
0.0
  9
$UCSORTHOREF
  2

  9
$UCSORTHOVIEW
 70
     0
  9
$UCSORGTOP
 10
0.0
 20
0.0
 30
0.0
  9
$UCSORGBOTTOM
 10
0.0
 20
0.0
 30
0.0
  9
$UCSORGLEFT
 10
0.0
 20
0.0
 30
0.0
  9
$UCSORGRIGHT
 10
0.0
 20
0.0
 30
0.0
  9
$UCSORGFRONT
 10
0.0
 20
0.0
 30
0.0
  9
$UCSORGBACK
 10
0.0
 20
0.0
 30
0.0
  9
$PUCSBASE
  2

  9
$PUCSNAME
  2

  9
$PUCSORG
 10
0.0
 20
0.0
 30
0.0
  9
$PUCSXDIR
 10
1.0
 20
0.0
 30
0.0
  9
$PUCSYDIR
 10
0.0
 20
1.0
 30
0.0
  9
$PUCSORTHOREF
  2

  9
$PUCSORTHOVIEW
 70
     0
  9
$PUCSORGTOP
 10
0.0
 20
0.0
 30
0.0
  9
$PUCSORGBOTTOM
 10
0.0
 20
0.0
 30
0.0
  9
$PUCSORGLEFT
 10
0.0
 20
0.0
 30
0.0
  9
$PUCSORGRIGHT
 10
0.0
 20
0.0
 30
0.0
  9
$PUCSORGFRONT
 10
0.0
 20
0.0
 30
0.0
  9
$PUCSORGBACK
 10
0.0
 20
0.0
 30
0.0
  9
$USERI1
 70
     0
  9
$USERI2
 70
     0
  9
$USERI3
 70
     0
  9
$USERI4
 70
     0
  9
$USERI5
 70
     0
  9
$USERR1
 40
0.0
  9
$USERR2
 40
0.0
  9
$USERR3
 40
0.0
  9
$USERR4
 40
0.0
  9
$USERR5
 40
0.0
  9
$WORLDVIEW
 70
     1
  9
$SHADEDGE
 70
     3
  9
$SHADEDIF
 70
    70
  9
$TILEMODE
 70
     1
  9
$MAXACTVP
 70
    64
  9
$PINSBASE
 10
0.0
 20
0.0
 30
0.0
  9
$PLIMCHECK
 70
     0
  9
$PEXTMIN
 10
0.0
 20
0.0
 30
0.0
  9
$PEXTMAX
 10
0.0
 20
0.0
 30
0.0
  9
$PLIMMIN
 10
-7.5
 20
-20.0
  9
$PLIMMAX
 10
412.5
 20
277.0
  9
$UNITMODE
 70
     0
  9
$VISRETAIN
 70
     0
  9
$PLINEGEN
 70
     1
  9
$PSLTSCALE
 70
     0
  9
$TREEDEPTH
 70
  3020
  9
$CMLSTYLE
  2
Standard
  9
$CMLJUST
 70
     0
  9
$CMLSCALE
 40
1.0
  9
$PROXYGRAPHICS
 70
     0
  9
$MEASUREMENT
 70
     1
  9
$CELWEIGHT
370
     0
  9
$ENDCAPS
280
     0
  9
$JOINSTYLE
280
     0
  9
$LWDISPLAY
290
     1
  9
$INSUNITS
 70
     4
  9
$HYPERLINKBASE
  1

  9
$STYLESHEET
  1

  9
$XEDIT
290
     1
  9
$CEPSNTYPE
380
     0
  9
$PSTYLEMODE
290
     1
  9
$FINGERPRINTGUID
  2

  9
$VERSIONGUID
  2

  9
$EXTNAMES
290
     1
  9
$PSVPSCALE
 40
0.0
  9
$OLESTARTUP
290
     0
  9
$SORTENTS
280
   127
  9
$INDEXCTL
280
     0
  9
$HIDETEXT
280
     1
  9
$XCLIPFRAME
290
     0
  9
$HALOGAP
280
     0
  9
$OBSCOLOR
 70
   257
  9
$OBSLTYPE
280
     0
  9
$INTERSECTIONDISPLAY
280
     0
  9
$INTERSECTIONCOLOR
 70
   257
  9
$DIMASSOC
280
     2
  9
$PROJECTNAME
  1

  9
$CAMERADISPLAY
290
     0
  9
$LENSLENGTH
 40
50.0
  9
$CAMERAHEIGHT
 40
0.0
  9
$STEPSPERSEC
 40
2.0
  9
$STEPSIZE
 40
6.0
  9
$3DDWFPREC
 40
2.0
  9
$PSOLWIDTH
 40
0.25
  9
$PSOLHEIGHT
 40
4.0
  9
$LOFTANG1
 40
1.570796326794897
  9
$LOFTANG2
 40
1.570796326794897
  9
$LOFTMAG1
 40
0.0
  9
$LOFTMAG2
 40
0.0
  9
$LOFTPARAM
 70
     7
  9
$LOFTNORMALS
280
     1
  9
$LATITUDE
 40
37.795
  9
$LONGITUDE
 40
-122.394
  9
$NORTHDIRECTION
 40
0.0
  9
$TIMEZONE
 70
 -8000
  9
$LIGHTGLYPHDISPLAY
280
     1
  9
$TILEMODELIGHTSYNCH
280
     1
  9
$SOLIDHIST
280
     1
  9
$SHOWHIST
280
     1
  9
$DWFFRAME
280
     2
  9
$DGNFRAME
280
     2
  9
$REALWORLDSCALE
290
     1
  9
$INTERFERECOLOR
 62
   256
  9
$CSHADOW
280
     0
  9
$SHADOWPLANELOCATION
 40
0.0
  0
ENDSEC
  0
SECTION
  2
CLASSES
  0
CLASS
  1
LWPOLYLINE
  2
AcDbPolyline
  3
ObjectDBX Classes
 90
        0
 91
        1
280
     0
281
     1
  0
CLASS
  1
IMAGE
  2
AcDbRasterImage
  3
ISM
 90
      127
 91
        7
280
     0
281
     1
  0
CLASS
  1
OLE2FRAME
  2
AcDbOle2Frame
  3
ObjectDBX Classes
 90
        0
 91
        1
280
     0
281
     1
  0
CLASS
  1
HATCH
  2
AcDbHatch
  3
ObjectDBX Classes
 90
        0
 91
        1
280
     0
281
     1
  0
CLASS
  1
DICTIONARYVAR
  2
AcDbDictionaryVar
  3
ObjectDBX Classes
 90
        0
 91
        6
280
     0
281
     0
  0
CLASS
  1
RASTERVARIABLES
  2
AcDbRasterVariables
  3
ISM
 90
        0
 91
        9
280
     0
281
     0
  0
CLASS
  1
IMAGEDEF
  2
AcDbRasterImageDef
  3
ISM
 90
        0
 91
        6
280
     0
281
     0
  0
CLASS
  1
IMAGEDEF_REACTOR
  2
AcDbRasterImageDefReactor
  3
ISM
 90
        1
 91
        6
280
     0
281
     0
  0
CLASS
  1
IDBUFFER
  2
AcDbIdBuffer
  3
ObjectDBX Classes
 90
        0
 91
        6
280
     0
281
     0
  0
CLASS
  1
SPATIAL_FILTER
  2
AcDbSpatialFilter
  3
ObjectDBX Classes
 90
        0
 91
        6
280
     0
281
     0
  0
CLASS
  1
XRECORD
  2
AcDbXrecord
  3
ObjectDBX Classes
 90
        0
 91
        1
280
     0
281
     0
  0
CLASS
  1
SORTENTSTABLE
  2
AcDbSortentsTable
  3
ObjectDBX Classes
 90
        0
 91
        6
280
     0
281
     0
  0
CLASS
  1
LAYER_INDEX
  2
AcDbLayerIndex
  3
ObjectDBX Classes
 90
        0
 91
        6
280
     0
281
     0
  0
CLASS
  1
SPATIAL_INDEX
  2
AcDbSpatialIndex
  3
AutoCAD 2000
 90
        0
 91
        6
280
     0
281
     0
  0
CLASS
  1
OBJECT_PTR
  2
CAseDLPNTableRecord
  3
ASE-LPNTableRecord
 90
        1
 91
        6
280
     0
281
     0
  0
CLASS
  1
LAYOUT
  2
AcDbLayout
  3
ObjectDBX Classes
 90
        0
 91
        1
280
     0
281
     0
  0
CLASS
  1
PLOTSETTINGS
  2
AcDbPlotSettings
  3
ObjectDBX Classes
 90
        0
 91
        6
280
     0
281
     0
  0
CLASS
  1
ACDBDICTIONARYWDFLT
  2
AcDbDictionaryWithDefault
  3
ObjectDBX Classes
 90
        0
 91
        9
280
     0
281
     0
  0
CLASS
  1
ACDBPLACEHOLDER
  2
AcDbPlaceHolder
  3
ObjectDBX Classes
 90
        0
 91
        1
280
     0
281
     0
  0
CLASS
  1
SCALE
  2
AcDbScale
  3
ObjectDBX Classes
 90
     1153
 91
        9
280
     0
281
     0
  0
CLASS
  1
VISUALSTYLE
  2
AcDbVisualStyle
  3
ObjectDBX Classes
 90
     4095
 91
        9
280
     0
281
     0
  0
CLASS
  1
MATERIAL
  2
AcDbMaterial
  3
ObjectDBX Classes
 90
     1153
 91
        9
280
     0
281
     0
  0
CLASS
  1
TABLESTYLE
  2
AcDbTableStyle
  3
ObjectDBX Classes
 90
     4095
 91
        9
280
     0
281
     0
  0
CLASS
  1
SUN
  2
AcDbSun
  3
SCENEOE
 90
     1153
 91
        9
280
     0
281
     0
  0
CLASS
  1
DIMASSOC
  2
AcDbDimAssoc
  3
"AcDbDimAssoc|Product Desc:     AcDim ARX App For Dimension|Company:          Autodesk, Inc.|WEB Address:      www.autodesk.com"
 90
        0
 91
        4
280
     0
281
     0
  0
CLASS
  1
CELLSTYLEMAP
  2
AcDbCellStyleMap
  3
ObjectDBX Classes
 90
     1152
 91
        5
280
     0
281
     0
  0
ENDSEC
  0
SECTION
  2
TABLES
  0
TABLE
  2
VPORT
  5
7
330
0
100
AcDbSymbolTable
 70
     1
  0
VPORT
  5
15
330
7
100
AcDbSymbolTableRecord
100
AcDbViewportTableRecord
  2
*ACTIVE
 70
     0
 10
0.0
 20
0.0
 11
1.0
 21
1.0
 12
1918.482494498742
 22
-303.2474492766532
 13
0.0
 23
0.0
 14
1.0
 24
1.0
 15
0.0
 25
0.0
 16
0.0
 26
0.0
 36
1.0
 17
0.0
 27
0.0
 37
0.0
 40
8502.860622909218
 41
2.216397849462366
 42
50.0
 43
0.0
 44
0.0
 50
0.0
 51
0.0
 71
    16
 72
  2000
 73
     1
 74
     1
 75
     0
 76
     0
 77
     0
 78
     0
281
     0
 65
     0
110
0.0
120
0.0
130
0.0
111
1.0
121
0.0
131
0.0
112
0.0
122
1.0
132
0.0
 79
     0
146
0.0
348
3AF
 60
     3
 61
     5
292
     1
282
     1
141
0.0
142
0.0
 63
   250
361
3CA
  0
ENDTAB
  0
TABLE
  2
LTYPE
  5
4
330
0
100
AcDbSymbolTable
 70
    33
  0
LTYPE
  5
11
330
4
100
AcDbSymbolTableRecord
100
AcDbLinetypeTableRecord
  2
ByBlock
 70
     0
  3

 72
    65
 73
     0
 40
0.0
  0
LTYPE
  5
12
330
4
100
AcDbSymbolTableRecord
100
AcDbLinetypeTableRecord
  2
ByLayer
 70
     0
  3

 72
    65
 73
     0
 40
0.0
  0
LTYPE
  5
13
330
4
100
AcDbSymbolTableRecord
100
AcDbLinetypeTableRecord
  2
Continuous
 70
     0
  3
Solid line
 72
    65
 73
     0
 40
0.0
  0
LTYPE
  5
43
330
4
100
AcDbSymbolTableRecord
100
AcDbLinetypeTableRecord
  2
STYLE_01
 70
     0
  3

 72
    65
 73
     2
 40
5.555555555555555
 49
2.777777777777778
 74
     0
 49
-2.777777777777778
 74
     0
  0
LTYPE
  5
44
330
4
100
AcDbSymbolTableRecord
100
AcDbLinetypeTableRecord
  2
STYLE_02
 70
     0
  3

 72
    65
 73
     2
 40
0.2460629921259843
 49
0.1922244094488189
 74
     0
 49
-0.0538385826771653
 74
     0
  0
LTYPE
  5
45
330
4
100
AcDbSymbolTableRecord
100
AcDbLinetypeTableRecord
  2
STYLE_03
 70
     0
  3

 72
    65
 73
     2
 40
0.7874015748031495
 49
0.7874015748031495
 74
     0
 49
-0.005
 74
     0
  0
LTYPE
  5
46
330
4
100
AcDbSymbolTableRecord
100
AcDbLinetypeTableRecord
  2
STYLE_04
 70
     0
  3

 72
    65
 73
     2
 40
0.7874015748031495
 49
0.7874015748031495
 74
     0
 49
-0.005
 74
     0
  0
LTYPE
  5
47
330
4
100
AcDbSymbolTableRecord
100
AcDbLinetypeTableRecord
  2
STYLE_05
 70
     0
  3

 72
    65
 73
     4
 40
0.639763779527559
 49
0.4798228346456693
 74
     0
 49
-0.0600393700787401
 74
     0
 49
0.0398622047244094
 74
     0
 49
-0.0600393700787401
 74
     0
  0
LTYPE
  5
48
330
4
100
AcDbSymbolTableRecord
100
AcDbLinetypeTableRecord
  2
STYLE_06
 70
     0
  3

 72
    65
 73
     4
 40
0.639763779527559
 49
0.4798228346456693
 74
     0
 49
-0.0600393700787401
 74
     0
 49
0.0398622047244094
 74
     0
 49
-0.0600393700787401
 74
     0
  0
LTYPE
  5
49
330
4
100
AcDbSymbolTableRecord
100
AcDbLinetypeTableRecord
  2
STYLE_07
 70
     0
  3

 72
    65
 73
     6
 40
0.7386811023622047
 49
0.484251968503937
 74
     0
 49
-0.0462598425196851
 74
     0
 49
0.0462598425196851
 74
     0
 49
-0.0462598425196851
 74
     0
 49
0.0462598425196851
 74
     0
 49
-0.0693897637795275
 74
     0
  0
LTYPE
  5
4A
330
4
100
AcDbSymbolTableRecord
100
AcDbLinetypeTableRecord
  2
STYLE_08
 70
     0
  3

 72
    65
 73
     8
 40
0.7874015748031495
 49
0.0492125984251968
 74
     0
 49
-0.1476377952755905
 74
     0
 49
0.0492125984251968
 74
     0
 49
-0.1476377952755905
 74
     0
 49
0.0492125984251968
 74
     0
 49
-0.1476377952755905
 74
     0
 49
0.0492125984251968
 74
     0
 49
-0.1476377952755905
 74
     0
  0
LTYPE
  5
4B
330
4
100
AcDbSymbolTableRecord
100
AcDbLinetypeTableRecord
  2
STYLE_09
 70
     0
  3

 72
    65
 73
     2
 40
0.7874015748031495
 49
0.7874015748031495
 74
     0
 49
-0.005
 74
     0
  0
LTYPE
  5
4C
330
4
100
AcDbSymbolTableRecord
100
AcDbLinetypeTableRecord
  2
STYLE_10
 70
     0
  3

 72
    65
 73
     6
 40
0.7386811023622047
 49
0.484251968503937
 74
     0
 49
-0.0462598425196851
 74
     0
 49
0.0462598425196851
 74
     0
 49
-0.0462598425196851
 74
     0
 49
0.0462598425196851
 74
     0
 49
-0.0693897637795275
 74
     0
  0
LTYPE
  5
4D
330
4
100
AcDbSymbolTableRecord
100
AcDbLinetypeTableRecord
  2
STYLE_11
 70
     0
  3

 72
    65
 73
     8
 40
0.7874015748031495
 49
0.4429133858267716
 74
     0
 49
-0.0492125984251968
 74
     0
 49
0.0492125984251968
 74
     0
 49
-0.0492125984251968
 74
     0
 49
0.0492125984251968
 74
     0
 49
-0.0492125984251968
 74
     0
 49
0.0492125984251968
 74
     0
 49
-0.0492125984251968
 74
     0
  0
LTYPE
  5
4E
330
4
100
AcDbSymbolTableRecord
100
AcDbLinetypeTableRecord
  2
STYLE_12
 70
     0
  3

 72
    65
 73
     8
 40
0.7874015748031495
 49
0.4429133858267716
 74
     0
 49
-0.0492125984251968
 74
     0
 49
0.0492125984251968
 74
     0
 49
-0.0492125984251968
 74
     0
 49
0.0492125984251968
 74
     0
 49
-0.0492125984251968
 74
     0
 49
0.0492125984251968
 74
     0
 49
-0.0492125984251968
 74
     0
  0
LTYPE
  5
4F
330
4
100
AcDbSymbolTableRecord
100
AcDbLinetypeTableRecord
  2
STYLE_13
 70
     0
  3

 72
    65
 73
    10
 40
0.7874015748031495
 49
0.344488188976378
 74
     0
 49
-0.0492125984251968
 74
     0
 49
0.0492125984251968
 74
     0
 49
-0.0492125984251968
 74
     0
 49
0.0492125984251968
 74
     0
 49
-0.0492125984251968
 74
     0
 49
0.0492125984251968
 74
     0
 49
-0.0492125984251968
 74
     0
 49
0.0492125984251968
 74
     0
 49
-0.0492125984251968
 74
     0
  0
LTYPE
  5
50
330
4
100
AcDbSymbolTableRecord
100
AcDbLinetypeTableRecord
  2
STYLE_14
 70
     0
  3

 72
    65
 73
    10
 40
0.7874015748031495
 49
0.344488188976378
 74
     0
 49
-0.0492125984251968
 74
     0
 49
0.0492125984251968
 74
     0
 49
-0.0492125984251968
 74
     0
 49
0.0492125984251968
 74
     0
 49
-0.0492125984251968
 74
     0
 49
0.0492125984251968
 74
     0
 49
-0.0492125984251968
 74
     0
 49
0.0492125984251968
 74
     0
 49
-0.0492125984251968
 74
     0
  0
LTYPE
  5
51
330
4
100
AcDbSymbolTableRecord
100
AcDbLinetypeTableRecord
  2
STYLE_15
 70
     0
  3

 72
    65
 73
    10
 40
0.6889763779527559
 49
0.2460629921259843
 74
     0
 49
-0.0492125984251968
 74
     0
 49
0.0492125984251968
 74
     0
 49
-0.0492125984251968
 74
     0
 49
0.0492125984251968
 74
     0
 49
-0.0492125984251968
 74
     0
 49
0.0492125984251968
 74
     0
 49
-0.0492125984251968
 74
     0
 49
0.0492125984251968
 74
     0
 49
-0.0492125984251968
 74
     0
  0
LTYPE
  5
52
330
4
100
AcDbSymbolTableRecord
100
AcDbLinetypeTableRecord
  2
STYLE_16
 70
     0
  3

 72
    65
 73
    10
 40
0.6889763779527559
 49
0.2460629921259843
 74
     0
 49
-0.0492125984251968
 74
     0
 49
0.0492125984251968
 74
     0
 49
-0.0492125984251968
 74
     0
 49
0.0492125984251968
 74
     0
 49
-0.0492125984251968
 74
     0
 49
0.0492125984251968
 74
     0
 49
-0.0492125984251968
 74
     0
 49
0.0492125984251968
 74
     0
 49
-0.0492125984251968
 74
     0
  0
LTYPE
  5
53
330
4
100
AcDbSymbolTableRecord
100
AcDbLinetypeTableRecord
  2
STYLE_17
 70
     0
  3

 72
    65
 73
     2
 40
0.7874015748031495
 49
0.7874015748031495
 74
     0
 49
-0.005
 74
     0
  0
LTYPE
  5
54
330
4
100
AcDbSymbolTableRecord
100
AcDbLinetypeTableRecord
  2
STYLE_18
 70
     0
  3

 72
    65
 73
     2
 40
0.2461122047244095
 49
0.1999507874015748
 74
     0
 49
-0.0461614173228347
 74
     0
  0
LTYPE
  5
55
330
4
100
AcDbSymbolTableRecord
100
AcDbLinetypeTableRecord
  2
STYLE_19
 70
     0
  3

 72
    65
 73
     2
 40
0.7874015748031495
 49
0.7874015748031495
 74
     0
 49
-0.005
 74
     0
  0
LTYPE
  5
56
330
4
100
AcDbSymbolTableRecord
100
AcDbLinetypeTableRecord
  2
STYLE_20
 70
     0
  3

 72
    65
 73
     2
 40
0.2461122047244095
 49
0.1999507874015748
 74
     0
 49
-0.0461614173228347
 74
     0
  0
LTYPE
  5
57
330
4
100
AcDbSymbolTableRecord
100
AcDbLinetypeTableRecord
  2
STYLE_21
 70
     0
  3

 72
    65
 73
     4
 40
0.639763779527559
 49
0.4596456692913386
 74
     0
 49
-0.0600393700787401
 74
     0
 49
0.0600393700787401
 74
     0
 49
-0.0600393700787401
 74
     0
  0
LTYPE
  5
58
330
4
100
AcDbSymbolTableRecord
100
AcDbLinetypeTableRecord
  2
STYLE_22
 70
     0
  3

 72
    65
 73
     2
 40
0.7874015748031495
 49
0.7874015748031495
 74
     0
 49
-0.005
 74
     0
  0
LTYPE
  5
59
330
4
100
AcDbSymbolTableRecord
100
AcDbLinetypeTableRecord
  2
STYLE_23
 70
     0
  3

 72
    65
 73
     2
 40
0.2461122047244095
 49
0.1999507874015748
 74
     0
 49
-0.0461614173228347
 74
     0
  0
LTYPE
  5
5A
330
4
100
AcDbSymbolTableRecord
100
AcDbLinetypeTableRecord
  2
STYLE_24
 70
     0
  3

 72
    65
 73
     4
 40
0.639763779527559
 49
0.4596456692913386
 74
     0
 49
-0.0600393700787401
 74
     0
 49
0.0600393700787401
 74
     0
 49
-0.0600393700787401
 74
     0
  0
LTYPE
  5
5B
330
4
100
AcDbSymbolTableRecord
100
AcDbLinetypeTableRecord
  2
STYLE_25
 70
     0
  3

 72
    65
 73
     2
 40
0.2461122047244095
 49
0.1999507874015748
 74
     0
 49
-0.0461614173228347
 74
     0
  0
LTYPE
  5
5C
330
4
100
AcDbSymbolTableRecord
100
AcDbLinetypeTableRecord
  2
STYLE_26
 70
     0
  3

 72
    65
 73
     2
 40
0.7874015748031495
 49
0.7874015748031495
 74
     0
 49
-0.005
 74
     0
  0
LTYPE
  5
5D
330
4
100
AcDbSymbolTableRecord
100
AcDbLinetypeTableRecord
  2
STYLE_27
 70
     0
  3

 72
    65
 73
     2
 40
0.7874015748031495
 49
0.7874015748031495
 74
     0
 49
-0.005
 74
     0
  0
LTYPE
  5
5E
330
4
100
AcDbSymbolTableRecord
100
AcDbLinetypeTableRecord
  2
STYLE_28
 70
     0
  3

 72
    65
 73
     2
 40
0.7874015748031495
 49
0.7874015748031495
 74
     0
 49
-0.005
 74
     0
  0
LTYPE
  5
5F
330
4
100
AcDbSymbolTableRecord
100
AcDbLinetypeTableRecord
  2
STYLE_29
 70
     0
  3

 72
    65
 73
     2
 40
0.2461122047244095
 49
0.1999507874015748
 74
     0
 49
-0.0461614173228347
 74
     0
  0
LTYPE
  5
60
330
4
100
AcDbSymbolTableRecord
100
AcDbLinetypeTableRecord
  2
STYLE_30
 70
     0
  3

 72
    65
 73
     2
 40
0.2461122047244095
 49
0.1999507874015748
 74
     0
 49
-0.0461614173228347
 74
     0
  0
LTYPE
  5
61
330
4
100
AcDbSymbolTableRecord
100
AcDbLinetypeTableRecord
  2
STYLE_31
 70
     0
  3

 72
    65
 73
     2
 40
0.7874015748031495
 49
0.7874015748031495
 74
     0
 49
-0.005
 74
     0
  0
LTYPE
  5
62
330
4
100
AcDbSymbolTableRecord
100
AcDbLinetypeTableRecord
  2
STYLE_32
 70
     0
  3

 72
    65
 73
     2
 40
0.2461122047244095
 49
0.1999507874015748
 74
     0
 49
-0.0461614173228347
 74
     0
  0
ENDTAB
  0
TABLE
  2
LAYER
  5
2
102
{ACAD_XDICTIONARY
360
99A
102
}
330
0
100
AcDbSymbolTable
 70
     8
  0
LAYER
  5
14
330
2
100
AcDbSymbolTableRecord
100
AcDbLayerTableRecord
  2
0
 70
     0
 62
     7
  6
Continuous
370
    -3
390
1D
347
3C6
  0
LAYER
  5
63
330
2
100
AcDbSymbolTableRecord
100
AcDbLayerTableRecord
  2
Defpoints
 70
     0
 62
     7
  6
Continuous
290
     0
370
    -3
390
1D
347
3C6
  0
LAYER
  5
64
330
2
100
AcDbSymbolTableRecord
100
AcDbLayerTableRecord
  2
template
 70
     0
 62
     7
  6
Continuous
370
    -3
390
1D
347
3C6
  0
LAYER
  5
65
330
2
100
AcDbSymbolTableRecord
100
AcDbLayerTableRecord
  2
排水金具
 70
     0
 62
     7
  6
Continuous
370
    -3
390
1D
347
3C6
  0
LAYER
  5
66
330
2
100
AcDbSymbolTableRecord
100
AcDbLayerTableRecord
  2
notes
 70
     0
 62
     7
  6
Continuous
370
    -3
390
1D
347
3C6
  0
LAYER
  5
67
330
2
100
AcDbSymbolTableRecord
100
AcDbLayerTableRecord
  2
FLN72-5555
 70
     0
 62
     7
  6
Continuous
370
    -3
390
1D
347
3C6
  0
LAYER
  5
3CF
330
2
100
AcDbSymbolTableRecord
100
AcDbLayerTableRecord
  2
FLN72-5801
 70
     0
 62
     7
  6
Continuous
370
    -3
390
1D
347
3C6
  0
LAYER
  5
99D
330
2
100
AcDbSymbolTableRecord
100
AcDbLayerTableRecord
  2
waku 
 70
     0
 62
    -7
  6
Continuous
370
    -3
390
1D
347
3C6
1001
AcAecLayerStandard
1000

1000

  0
ENDTAB
  0
TABLE
  2
STYLE
  5
3
330
0
100
AcDbSymbolTable
 70
     4
  0
STYLE
  5
17
330
3
100
AcDbSymbolTableRecord
100
AcDbTextStyleTableRecord
  2
Standard
 70
     0
 40
0.0
 41
1.0
 50
0.0
 71
     0
 42
0.0
  3
txt
  4
BIGFONT.SHX
  0
STYLE
  5
40
330
3
100
AcDbSymbolTableRecord
100
AcDbTextStyleTableRecord
  2
MS UI Gothic
 70
     0
 40
0.0
 41
1.0
 50
0.0
 71
     0
 42
0.0
  3
msgothic.ttc
  4
MS UI Gothic
1001
ACAD
1000
MS UI Gothic
1071
        0
  0
STYLE
  5
41
330
3
100
AcDbSymbolTableRecord
100
AcDbTextStyleTableRecord
  2
ＭＳ ゴシック
 70
     0
 40
0.0
 41
1.0
 50
0.0
 71
     0
 42
0.0
  3
msgothic.ttc
  4
ＭＳ ゴシック
1001
ACAD
1000
ＭＳ ゴシック
1071
        0
  0
STYLE
  5
42
330
3
100
AcDbSymbolTableRecord
100
AcDbTextStyleTableRecord
  2
ＭＳゴシック
 70
     0
 40
0.0
 41
1.0
 50
0.0
 71
     0
 42
0.0
  3

  4
ＭＳゴシック
1001
ACAD
1000
ＭＳゴシック
1071
        0
  0
ENDTAB
  0
TABLE
  2
VIEW
  5
5
330
0
100
AcDbSymbolTable
 70
     0
  0
ENDTAB
  0
TABLE
  2
UCS
  5
6
330
0
100
AcDbSymbolTable
 70
     0
  0
ENDTAB
  0
TABLE
  2
APPID
  5
8
330
0
100
AcDbSymbolTable
 70
     2
  0
APPID
  5
16
330
8
100
AcDbSymbolTableRecord
100
AcDbRegAppTableRecord
  2
ACAD
 70
     0
  0
APPID
  5
99E
330
8
100
AcDbSymbolTableRecord
100
AcDbRegAppTableRecord
  2
AcAecLayerStandard
 70
     0
  0
ENDTAB
  0
TABLE
  2
DIMSTYLE
  5
9
330
0
100
AcDbSymbolTable
 70
     3
100
AcDbDimStyleTable
  0
DIMSTYLE
105
18
330
9
100
AcDbSymbolTableRecord
100
AcDbDimStyleTableRecord
  2
Standard
 70
     0
178
     0
340
17
  0
DIMSTYLE
105
70
330
9
100
AcDbSymbolTableRecord
100
AcDbDimStyleTableRecord
  2
T-form線あり
 70
     0
  3
<>
  4
[]
 41
7.99951171875
 42
49.99999999999999
 43
0.9999999999999999
 44
0.0
 73
     0
 74
     0
 77
     1
 78
    11
140
43.65625
141
0.0
143
0.0393700787401575
147
0.4999999999999999
171
     3
172
     1
174
     1
178
     0
179
     2
271
     1
272
     1
273
     4
276
     2
284
    11
285
    15
286
    15
289
     0
340
40
341
68
342
68
  0
DIMSTYLE
105
3DC
330
9
100
AcDbSymbolTableRecord
100
AcDbDimStyleTableRecord
  2
JIS
 70
     0
  3
<>
  4
[]
 41
63.5
 42
0.0
 43
6.99999999999994
 44
39.9999999999924
 73
     0
 74
     0
 77
     1
 78
    11
140
48.86523437500001
141
0.0
143
0.0393700787401575
147
1.00000000000108
171
     3
174
     1
178
     0
179
     2
271
     1
272
     1
273
     4
276
     2
284
    11
285
    15
286
    15
289
     0
340
41
341
3DD
342
3DD
  0
ENDTAB
  0
TABLE
  2
BLOCK_RECORD
  5
1
330
0
100
AcDbSymbolTable
 70
    59
  0
BLOCK_RECORD
  5
A
330
1
100
AcDbSymbolTableRecord
100
AcDbBlockTableRecord
  2
*MODEL_SPACE
340
20
 70
     0
280
     1
281
     0
  0
BLOCK_RECORD
  5
B
330
1
100
AcDbSymbolTableRecord
100
AcDbBlockTableRecord
  2
*PAPER_SPACE
340
21
 70
     0
280
     1
281
     0
  0
BLOCK_RECORD
  5
68
330
1
100
AcDbSymbolTableRecord
100
AcDbBlockTableRecord
  2
_DOT
340
0
102
{BLKREFS
331
E8
331
E9
331
F5
331
F6
331
102
331
103
331
10F
331
110
331
170
331
171
331
18F
331
190
331
19C
331
19D
331
1B7
331
1B8
331
1C4
331
1C5
331
1FA
331
1FB
331
207
331
208
331
216
331
217
331
221
331
222
331
230
331
231
331
23D
331
23E
331
61F
331
620
331
62D
331
62E
331
639
331
63A
331
647
331
648
331
988
102
}
 70
     0
280
     1
281
     0
  0
BLOCK_RECORD
  5
23
330
1
100
AcDbSymbolTableRecord
100
AcDbBlockTableRecord
  2
グループ
340
0
102
{BLKREFS
331
7A
102
}
 70
     0
280
     1
281
     0
  0
BLOCK_RECORD
  5
24
330
1
100
AcDbSymbolTableRecord
100
AcDbBlockTableRecord
  2
グループ-1
340
0
102
{BLKREFS
331
24D
102
}
 70
     0
280
     1
281
     0
  0
BLOCK_RECORD
  5
25
330
1
100
AcDbSymbolTableRecord
100
AcDbBlockTableRecord
  2
グループ-2
340
0
102
{BLKREFS
331
263
102
}
 70
     0
280
     1
281
     0
  0
BLOCK_RECORD
  5
26
330
1
100
AcDbSymbolTableRecord
100
AcDbBlockTableRecord
  2
グループ-3
340
0
102
{BLKREFS
331
264
102
}
 70
     0
280
     1
281
     0
  0
BLOCK_RECORD
  5
27
330
1
100
AcDbSymbolTableRecord
100
AcDbBlockTableRecord
  2
グループ-4
340
0
102
{BLKREFS
331
266
102
}
 70
     0
280
     1
281
     0
  0
BLOCK_RECORD
  5
28
330
1
100
AcDbSymbolTableRecord
100
AcDbBlockTableRecord
  2
*D6
340
0
 70
     0
280
     1
281
     0
  0
BLOCK_RECORD
  5
29
330
1
100
AcDbSymbolTableRecord
100
AcDbBlockTableRecord
  2
*D7
340
0
 70
     0
280
     1
281
     0
  0
BLOCK_RECORD
  5
2A
330
1
100
AcDbSymbolTableRecord
100
AcDbBlockTableRecord
  2
*D8
340
0
 70
     0
280
     1
281
     0
  0
BLOCK_RECORD
  5
2B
330
1
100
AcDbSymbolTableRecord
100
AcDbBlockTableRecord
  2
*D9
340
0
 70
     0
280
     1
281
     0
  0
BLOCK_RECORD
  5
2D
330
1
100
AcDbSymbolTableRecord
100
AcDbBlockTableRecord
  2
グループ-5
340
0
 70
     0
280
     1
281
     0
  0
BLOCK_RECORD
  5
2E
330
1
100
AcDbSymbolTableRecord
100
AcDbBlockTableRecord
  2
グループ-6
340
0
 70
     0
280
     1
281
     0
  0
BLOCK_RECORD
  5
2F
330
1
100
AcDbSymbolTableRecord
100
AcDbBlockTableRecord
  2
*D13
340
0
 70
     0
280
     1
281
     0
  0
BLOCK_RECORD
  5
31
330
1
100
AcDbSymbolTableRecord
100
AcDbBlockTableRecord
  2
グループ-7
340
0
 70
     0
280
     1
281
     0
  0
BLOCK_RECORD
  5
32
330
1
100
AcDbSymbolTableRecord
100
AcDbBlockTableRecord
  2
*D16
340
0
 70
     0
280
     1
281
     0
  0
BLOCK_RECORD
  5
33
330
1
100
AcDbSymbolTableRecord
100
AcDbBlockTableRecord
  2
*D17
340
0
 70
     0
280
     1
281
     0
  0
BLOCK_RECORD
  5
35
330
1
100
AcDbSymbolTableRecord
100
AcDbBlockTableRecord
  2
*D19
340
0
 70
     0
280
     1
281
     0
  0
BLOCK_RECORD
  5
36
330
1
100
AcDbSymbolTableRecord
100
AcDbBlockTableRecord
  2
*D20
340
0
 70
     0
280
     1
281
     0
  0
BLOCK_RECORD
  5
3A
330
1
100
AcDbSymbolTableRecord
100
AcDbBlockTableRecord
  2
*D24
340
0
 70
     0
280
     1
281
     0
  0
BLOCK_RECORD
  5
3B
330
1
100
AcDbSymbolTableRecord
100
AcDbBlockTableRecord
  2
*D25
340
0
 70
     0
280
     1
281
     0
  0
BLOCK_RECORD
  5
3C
330
1
100
AcDbSymbolTableRecord
100
AcDbBlockTableRecord
  2
*D26
340
0
 70
     0
280
     1
281
     0
  0
BLOCK_RECORD
  5
3D
330
1
100
AcDbSymbolTableRecord
100
AcDbBlockTableRecord
  2
*D27
340
0
 70
     0
280
     1
281
     0
  0
BLOCK_RECORD
  5
3E
330
1
100
AcDbSymbolTableRecord
100
AcDbBlockTableRecord
  2
*D28
340
0
 70
     0
280
     1
281
     0
  0
BLOCK_RECORD
  5
3F
330
1
100
AcDbSymbolTableRecord
100
AcDbBlockTableRecord
  2
*D29
340
0
 70
     0
280
     1
281
     0
  0
BLOCK_RECORD
  5
3DD
330
1
100
AcDbSymbolTableRecord
100
AcDbBlockTableRecord
  2
VW_FILLEDARROW
340
0
 70
     0
280
     1
281
     0
  0
BLOCK_RECORD
  5
41D
330
1
100
AcDbSymbolTableRecord
100
AcDbBlockTableRecord
  2
グループ-12
340
0
 70
     0
280
     1
281
     0
  0
BLOCK_RECORD
  5
424
330
1
100
AcDbSymbolTableRecord
100
AcDbBlockTableRecord
  2
グループ-11-1
340
0
 70
     0
280
     1
281
     0
  0
BLOCK_RECORD
  5
442
330
1
100
AcDbSymbolTableRecord
100
AcDbBlockTableRecord
  2
グループ-10-1
340
0
 70
     0
280
     1
281
     0
  0
BLOCK_RECORD
  5
619
330
1
100
AcDbSymbolTableRecord
100
AcDbBlockTableRecord
  2
*D38
340
0
 70
     0
280
     1
281
     0
  0
BLOCK_RECORD
  5
625
330
1
100
AcDbSymbolTableRecord
100
AcDbBlockTableRecord
  2
*D39
340
0
 70
     0
280
     1
281
     0
  0
BLOCK_RECORD
  5
633
330
1
100
AcDbSymbolTableRecord
100
AcDbBlockTableRecord
  2
*D40
340
0
 70
     0
280
     1
281
     0
  0
BLOCK_RECORD
  5
63F
330
1
100
AcDbSymbolTableRecord
100
AcDbBlockTableRecord
  2
*D41
340
0
 70
     0
280
     1
281
     0
  0
BLOCK_RECORD
  5
981
330
1
100
AcDbSymbolTableRecord
100
AcDbBlockTableRecord
  2
*D58
340
0
 70
     0
280
     1
281
     0
  0
ENDTAB
  0
ENDSEC
  0
SECTION
  2
BLOCKS
  0
BLOCK
  5
D
330
A
100
AcDbEntity
  8
0
390
1D
100
AcDbBlockBegin
  2
*MODEL_SPACE
 70
     0
 10
0.0
 20
0.0
 30
0.0
  3
*MODEL_SPACE
  1
*MODEL_SPACE
  0
ENDBLK
  5
E
330
A
100
AcDbEntity
  8
0
390
1D
100
AcDbBlockEnd
  0
BLOCK
  5
F
330
B
100
AcDbEntity
 67
     1
  8
0
390
1D
100
AcDbBlockBegin
  2
*PAPER_SPACE
 70
     0
 10
0.0
 20
0.0
 30
0.0
  3
*PAPER_SPACE
  1
*PAPER_SPACE
  0
ENDBLK
  5
10
330
B
100
AcDbEntity
 67
     1
  8
0
390
1D
100
AcDbBlockEnd
  0
BLOCK
  5
69
330
68
100
AcDbEntity
  8
0
390
1D
100
AcDbBlockBegin
  2
_DOT
 70
     0
 10
0.0
 20
0.0
 30
0.0
  3
_DOT
  1
_DOT
  0
POLYLINE
  5
6A
330
68
100
AcDbEntity
  8
0
  6
ByBlock
 62
     0
370
    -2
390
1D
100
AcDb2dPolyline
 66
     1
 10
0.0
 20
0.0
 30
0.0
 70
     1
 40
0.5
 41
0.5
  0
VERTEX
  5
6B
330
6A
100
AcDbEntity
  8
0
  6
ByBlock
 62
     0
370
    -2
390
1D
100
AcDbVertex
100
AcDb2dVertex
 10
-0.25
 20
0.0
 30
0.0
 42
1.0
  0
VERTEX
  5
6C
330
6A
100
AcDbEntity
  8
0
  6
ByBlock
 62
     0
370
    -2
390
1D
100
AcDbVertex
100
AcDb2dVertex
 10
0.25
 20
0.0
 30
0.0
 42
1.0
  0
SEQEND
  5
6D
330
6A
100
AcDbEntity
  8
0
390
1D
  0
LINE
  5
6E
330
68
100
AcDbEntity
  8
0
  6
ByBlock
 62
     0
370
    -2
390
1D
100
AcDbLine
 10
-0.5
 20
0.0
 30
0.0
 11
-1.0
 21
0.0
 31
0.0
  0
ENDBLK
  5
6F
330
68
100
AcDbEntity
  8
0
390
1D
100
AcDbBlockEnd
  0
BLOCK
  5
71
330
23
100
AcDbEntity
  8
template
390
1D
100
AcDbBlockBegin
  2
グループ
 70
     0
 10
0.0
 20
0.0
 30
0.0
  3
グループ
  1
グループ
  0
LWPOLYLINE
  5
72
330
23
100
AcDbEntity
  8
0
  6
Continuous
 62
     7
370
    15
390
1D
100
AcDbPolyline
 90
        8
 70
   129
 43
0.0
 10
565.8182670023949
 20
-3493.230224548178
 10
565.8182670023949
 20
-3505.22500193533
 10
546.8158731663883
 20
-3505.22500193533
 10
546.8158731663883
 20
-3554.126928462347
 10
530.1051186428227
 20
-3554.126928462347
 10
530.1051186428227
 20
-3505.22500193533
 10
511.4392047502039
 20
-3505.22500193533
 10
511.4392047502039
 20
-3493.230224548178
  0
LWPOLYLINE
  5
73
330
23
100
AcDbEntity
  8
0
  6
Continuous
 62
     7
370
    15
390
1D
100
AcDbPolyline
 90
      101
 70
   128
 43
0.0
 10
591.2748506635088
 20
-3494.686721534051
 10
591.3055507210864
 20
-3494.678000020679
 42
-0.0222221607811495
 10
591.885559874421
 20
-3494.540751090192
 10
591.9171474023933
 20
-3494.534744244001
 42
-0.0146883565590093
 10
592.4425528128565
 20
-3494.450737870099
 42
-0.0127458844187924
 10
592.9718307471612
 20
-3494.395663933954
 10
593.0967409037881
 20
-3494.385877088778
 42
-0.0198099018564308
 10
593.8784391227409
 20
-3494.355706773984
 10
593.9820620616294
 20
-3494.355814325314
 42
-0.0147617382765232
 10
594.9713089835718
 20
-3494.386054375804
 10
595.1166918933313
 20
-3494.39479958958
 42
-0.0162624549002781
 10
595.8969991522569
 20
-3494.467265340124
 10
596.1400639347812
 20
-3494.497838458118
 42
-0.0080020874670395
 10
596.4312219969584
 20
-3494.539204152654
 10
596.5078609381261
 20
-3494.551346708272
 42
-0.0053821929679761
 10
596.6448291487781
 20
-3494.574561755919
 10
595.1920177503808
 20
-3498.936418667347
 42
0.0108667757391909
 10
595.0573836101178
 20
-3498.910044436907
 10
594.9824475637402
 20
-3498.897048951718
 42
0.0170663203308623
 10
594.6960139899116
 20
-3498.857389757135
 10
594.5602633245431
 20
-3498.84329541596
 42
0.0220162375278552
 10
593.9995045088269
 20
-3498.80993069442
 10
593.8437933747279
 20
-3498.807531959887
 42
0.0282606915787583
 10
593.1725207275725
 20
-3498.835138513825
 10
593.0846941800373
 20
-3498.843738493831
 42
0.0169677213677994
 10
592.59284519011
 20
-3498.908812592936
 42
0.0190576269873568
 10
592.1070292649412
 20
-3499.009106337151
 10
592.0945108887282
 20
-3499.012192285367
 42
0.0213685642848738
 10
591.5937419197718
 20
-3499.158592855577
 10
591.5827621299403
 20
-3499.162318847695
 42
0.0237595297591433
 10
591.0757723601455
 20
-3499.361687891485
 10
591.0655682120836
 20
-3499.366271442443
 42
0.0261857468820222
 10
590.5612266596221
 20
-3499.625344117193
 10
590.5403742814492
 20
-3499.637475066129
 42
0.0272553062018966
 10
590.0675147309728
 20
-3499.948219478017
 10
589.9979887039566
 20
-3499.999541774199
 42
0.0325996893173613
 10
589.6976780166508
 20
-3500.253037520144
 10
589.6502591583982
 20
-3500.298673577176
 42
0.0138050960646856
 10
589.4664928459844
 20
-3500.485572900273
 42
0.0125280103794197
 10
589.2928077803238
 20
-3500.681899553466
 10
589.2454468905006
 20
-3500.738216549848
 42
0.0205218024732628
 10
588.9952467394722
 20
-3501.061803178308
 10
588.950314058499
 20
-3501.12512263796
 42
0.016311012958397
 10
588.6388932999923
 20
-3501.595783508107
 10
588.6334455078944
 20
-3501.604631032071
 42
0.0131897341900094
 10
588.3398444660868
 20
-3502.110895216792
 10
588.3364442753497
 20
-3502.117131695071
 42
0.010789557606469
 10
588.0608908709248
 20
-3502.649562114348
 10
588.059425091878
 20
-3502.652550579634
 42
0.0091371507217333
 10
587.8024651945818
 20
-3503.201600975147
 10
587.7429739317606
 20
-3503.335013989471
 42
0.0135418326348037
 10
587.3995460536175
 20
-3504.164889560008
 10
587.3323364367455
 20
-3504.340621844579
 42
0.0092834542409854
 10
586.9898783169069
 20
-3505.288418841182
 10
586.9386440614767
 20
-3505.438900980754
 42
0.0054261043580494
 10
586.7233677648858
 20
-3506.094428926899
 10
586.6883157925256
 20
-3506.205205251376
 42
0.0008225090813893
 10
586.5509756888708
 20
-3506.641742767657
 10
584.5815974250039
 20
-3512.691525354171
 10
591.0468451051516
 20
-3512.691525354171
 10
590.0384602454448
 20
-3516.500481950875
 10
583.5263476814781
 20
-3516.500481950875
 10
571.8680496167705
 20
-3554.126928082885
 10
568.2178543961498
 20
-3554.126928082885
 10
579.8872104671517
 20
-3516.500481950875
 10
575.076977729071
 20
-3516.500481950875
 10
576.0853625887779
 20
-3512.691525354171
 10
580.942460210678
 20
-3512.691525354171
 10
582.6627700470552
 20
-3507.418699352773
 42
-0.0005863560656416
 10
582.7362394033839
 20
-3507.185046512438
 10
582.888415070783
 20
-3506.703061913419
 42
-0.0087522378925535
 10
583.2873513577
 20
-3505.512509739117
 10
583.4718799085235
 20
-3504.9922294021
 42
-0.0077400953830652
 10
583.9877472267859
 20
-3503.606220047003
 10
584.0192771699411
 20
-3503.525358280238
 42
-0.0082369946332742
 10
584.5134461111676
 20
-3502.31720014784
 42
-0.0085725238366011
 10
585.0479383031737
 20
-3501.126348069265
 10
585.2511975051902
 20
-3500.693505865291
 42
-0.0168109410596077
 10
585.8250863626481
 20
-3499.571090813087
 10
586.0767731434851
 20
-3499.117162747238
 42
-0.000781772687063
 10
586.1853418436795
 20
-3498.92207425703
 10
586.1855984557214
 20
-3498.921614839544
 42
-0.0036626142157976
 10
586.2953741837565
 20
-3498.728419079619
 42
-0.0080221150680008
 10
586.4096226945645
 20
-3498.537860610123
 10
586.4710225972923
 20
-3498.43907871187
 42
-0.0202139325572128
 10
586.726334076905
 20
-3498.063115510508
 10
586.834469007281
 20
-3497.916957782025
 42
-0.0249323791800367
 10
587.352794594718
 20
-3497.284867297718
 10
587.4010742229733
 20
-3497.231638751891
 42
-0.024213212153797
 10
588.0804357060586
 20
-3496.551871779482
 10
588.1762588515566
 20
-3496.464853507113
 42
-0.0251017527857653
 10
588.74422225284
 20
-3495.998868015582
 10
588.7471132064741
 20
-3495.996729500419
 42
-0.0130868069039255
 10
589.3436345063822
 20
-3495.579168563338
 10
589.3467581446645
 20
-3495.57710168279
 42
-0.0290329526391175
 10
589.9689804274542
 20
-3495.21545067953
 10
590.0286715514328
 20
-3495.185245913848
 42
-0.0160250190044537
 10
590.5604803789556
 20
-3494.937213693424
 42
-0.026760037478415
 10
591.1110325338916
 20
-3494.735717052327
 10
591.1645043729349
 20
-3494.719331934676
 42
-0.0049981587688964
 10
591.2748506635088
 20
-3494.686721534051
 42
-0.0049981587688964
  0
LWPOLYLINE
  5
74
330
23
100
AcDbEntity
  8
0
  6
Continuous
 62
     7
370
    15
390
1D
100
AcDbPolyline
 90
      118
 70
   128
 43
0.0
 10
630.9035857924026
 20
-3512.839492009826
 10
634.6538296414016
 20
-3512.839492009826
 10
632.9777518302018
 20
-3518.202625062625
 42
-0.0010587229220598
 10
633.0406634612991
 20
-3518.128815995969
 10
633.1570516426095
 20
-3517.992851483564
 42
-0.0071874740409521
 10
633.4578020788001
 20
-3517.651570099512
 10
633.7412476253302
 20
-3517.339097816879
 42
-0.0148118053514529
 10
634.6415062107616
 20
-3516.403870124847
 10
634.8159508805595
 20
-3516.233075483146
 42
-0.0086273358692766
 10
635.487048482576
 20
-3515.598324215113
 10
635.5747159150111
 20
-3515.518224926462
 42
-0.0103138323112805
 10
636.0907633194948
 20
-3515.065898651771
 10
636.1823121321479
 20
-3514.988934557251
 42
-0.0060206748564942
 10
636.5280082603734
 20
-3514.705345255741
 10
636.5320705221612
 20
-3514.702093844466
 42
-0.006706902729082
 10
636.8766561514703
 20
-3514.433792576889
 10
636.8817536833283
 20
-3514.429932237133
 42
-0.0076184352041052
 10
637.223564215065
 20
-3514.17918248665
 42
-0.0089652861677053
 10
637.5734861405364
 20
-3513.939915965984
 10
637.6461895808201
 20
-3513.892093539022
 42
-0.0156916245937115
 10
638.0381085751442
 20
-3513.651568566071
 42
-0.0023299011063885
 10
638.4386326630978
 20
-3513.425212686992
 10
638.4694009278636
 20
-3513.408012696859
 42
-0.0107669341488134
 10
638.9378745780632
 20
-3513.159212430162
 10
638.982404180216
 20
-3513.13677893026
 42
-0.007805804589862
 10
639.5495844161205
 20
-3512.862056018984
 10
639.5693985915398
 20
-3512.852837763246
 42
-0.0181829330471953
 10
640.1900174007714
 20
-3512.591110281055
 10
640.2981282858982
 20
-3512.550080041171
 42
-0.0208411536032636
 10
640.996298220805
 20
-3512.317899116182
 10
641.0250104210565
 20
-3512.309662226276
 42
-0.0222799817135644
 10
641.6824500088944
 20
-3512.152379093995
 10
641.7002279353784
 20
-3512.148955072822
 42
-0.0215509523883136
 10
642.333169871928
 20
-3512.055123695756
 10
642.4181337940219
 20
-3512.046248642174
 42
-0.0182545924869084
 10
642.8863513526364
 20
-3512.014560991393
 10
642.9651533853323
 20
-3512.012111901234
 42
-0.007296285653518
 10
643.2769991447103
 20
-3512.00697324419
 10
643.3351984858565
 20
-3512.006863573382
 42
-0.0059227516308716
 10
643.5306974841443
 20
-3512.008810996963
 10
643.5891819190258
 20
-3512.010086530168
 42
-0.0011833111915283
 10
643.667684486553
 20
-3512.011984538789
 10
642.0769112953386
 20
-3517.089452428987
 42
0.0143932051538787
 10
642.0241085306337
 20
-3517.069054488896
 10
642.0095645858029
 20
-3517.063912051182
 42
0.0234388603505857
 10
641.9259028539409
 20
-3517.038673579752
 10
641.9085395281132
 20
-3517.034311655741
 42
0.019916274298966
 10
641.7879618599534
 20
-3517.009078185071
 10
641.7463339843408
 20
-3517.002083786214
 42
0.0293643550671279
 10
641.5401842668226
 20
-3516.979783694908
 10
641.4908139053819
 20
-3516.977360460871
 42
0.0214606686870027
 10
641.1845320734802
 20
-3516.975483340036
 10
641.165788251841
 20
-3516.976173163125
 42
0.0167564054178694
 10
640.8227478696102
 20
-3517.000327247862
 10
640.8058282841062
 20
-3517.002089928715
 42
0.0137677553245527
 10
640.431121657584
 20
-3517.051588545801
 10
640.4164181785611
 20
-3517.053944385738
 42
0.0118497261485717
 10
640.0154226503503
 20
-3517.127979086118
 10
640.003122635864
 20
-3517.130552811556
 42
0.0106421143890644
 10
639.5813608612896
 20
-3517.228217562707
 10
639.5715432445157
 20
-3517.230712248076
 42
0.00997463797047
 10
639.1346263061896
 20
-3517.351061304706
 10
639.0115302258503
 20
-3517.387625061967
 42
0.0191613675859747
 10
638.3395613008191
 20
-3517.615579822541
 10
638.1634417553222
 20
-3517.682953643191
 42
0.0205274080144754
 10
637.3928282115269
 20
-3518.014610458843
 10
637.2775296475675
 20
-3518.069946387985
 42
0.0181256912193147
 10
636.7609757662289
 20
-3518.341314025943
 10
636.6550649996025
 20
-3518.401949252371
 42
0.014070924241223
 10
636.3651551303442
 20
-3518.578938599241
 10
636.3126573931144
 20
-3518.613052236667
 42
0.0086667884395691
 10
636.1348050700221
 20
-3518.733057572437
 42
0.0036408192026315
 10
635.9599385939364
 20
-3518.857419288036
 10
635.8894848450182
 20
-3518.908301179848
 42
0.005226078127754
 10
635.5770274502474
 20
-3519.138965953108
 10
635.5446137377169
 20
-3519.163422174352
 42
0.0050024435892504
 10
635.172607051594
 20
-3519.449987310881
 10
635.1419707385688
 20
-3519.474079355768
 42
0.0136138710282065
 10
634.7210882019173
 20
-3519.824012365596
 10
634.653752450331
 20
-3519.883170311024
 42
0.0172815186907803
 10
634.1249453670163
 20
-3520.38116365626
 10
634.1198206753209
 20
-3520.386335290565
 42
0.0189403857991294
 10
633.6186570781642
 20
-3520.931945820171
 10
633.5533940910873
 20
-3521.008633683171
 42
0.0185044199507401
 10
633.1694812131306
 20
-3521.495130845413
 42
0.0088565243900636
 10
632.8125609998764
 20
-3522.00216368571
 10
632.7942050405767
 20
-3522.029246445234
 42
0.0157195347229013
 10
632.4277638279046
 20
-3522.608290863871
 10
632.3355979440415
 20
-3522.764595257915
 42
0.0095451879781808
 10
632.0054268437715
 20
-3523.34978454262
 10
631.9831310059105
 20
-3523.391125886887
 42
0.0100351706255438
 10
631.7190435075936
 20
-3523.905237007865
 42
0.008693591541968
 10
631.4743812040083
 20
-3524.428903298668
 10
631.4677397211766
 20
-3524.443787944618
 42
0.0072580174866153
 10
631.2270468172854
 20
-3525.004971927787
 10
631.220523550674
 20
-3525.020811979819
 42
0.0060005122618901
 10
630.9821222139848
 20
-3525.62003132104
 10
630.9757002573054
 20
-3525.636754376839
 42
0.0049017786976109
 10
630.7378999395935
 20
-3526.27461233804
 10
630.7315683268097
 20
-3526.292118212509
 42
0.0039415167607635
 10
630.4926957706961
 20
-3526.969202337336
 10
630.486433565392
 20
-3526.987408739087
 42
0.003103583876322
 10
630.2448239940073
 20
-3527.70428846263
 10
630.2386039049451
 20
-3527.723129705384
 42
0.0025070747152127
 10
629.9928012023124
 20
-3528.480424139278
 10
629.9182134094635
 20
-3528.714207469778
 42
0.0029081910284978
 10
629.5341768138468
 20
-3529.942534786345
 10
629.4525704768079
 20
-3530.208981270913
 42
0.0009266453735036
 10
628.9157357281582
 20
-3531.973430190827
 10
628.8739607828807
 20
-3532.111653949286
 42
-0.0005809993662844
 10
628.3192874217149
 20
-3533.93927016251
 10
628.1867238251731
 20
-3534.374240026816
 42
-0.0012018708171612
 10
627.8927552063105
 20
-3535.33056535587
 10
627.7881155032621
 20
-3535.668083637335
 42
-0.0002691059612839
 10
627.7009765408424
 20
-3535.948618878286
 10
622.0350647442639
 20
-3554.126928082885
 10
618.3990869603068
 20
-3554.126928082885
 10
630.9035857924026
 20
-3512.839492009826
  0
SPLINE
  5
75
330
23
100
AcDbEntity
  8
0
  6
Continuous
 62
     7
370
    15
390
1D
100
AcDbSpline
210
0.0
220
0.0
230
1.0
 70
    15
 71
     2
 72
   782
 73
   779
 74
     0
 42
0.000000001
 43
0.000001
 40
0.0
 40
0.0
 40
0.0
 40
1.0
 40
1.0
 40
2.0
 40
2.0
 40
3.0
 40
3.0
 40
4.0
 40
4.0
 40
5.0
 40
5.0
 40
6.0
 40
6.0
 40
7.0
 40
7.0
 40
8.0
 40
8.0
 40
9.0
 40
9.0
 40
10.0
 40
10.0
 40
11.0
 40
11.0
 40
12.0
 40
12.0
 40
13.0
 40
13.0
 40
14.0
 40
14.0
 40
15.0
 40
15.0
 40
16.0
 40
16.0
 40
17.0
 40
17.0
 40
18.0
 40
18.0
 40
19.0
 40
19.0
 40
20.0
 40
20.0
 40
21.0
 40
21.0
 40
22.0
 40
22.0
 40
23.0
 40
23.0
 40
24.0
 40
24.0
 40
25.0
 40
25.0
 40
26.0
 40
26.0
 40
27.0
 40
27.0
 40
28.0
 40
28.0
 40
29.0
 40
29.0
 40
30.0
 40
30.0
 40
31.0
 40
31.0
 40
32.0
 40
32.0
 40
33.0
 40
33.0
 40
34.0
 40
34.0
 40
35.0
 40
35.0
 40
36.0
 40
36.0
 40
37.0
 40
37.0
 40
38.0
 40
38.0
 40
39.0
 40
39.0
 40
40.0
 40
40.0
 40
41.0
 40
41.0
 40
42.0
 40
42.0
 40
43.0
 40
43.0
 40
44.0
 40
44.0
 40
45.0
 40
45.0
 40
46.0
 40
46.0
 40
47.0
 40
47.0
 40
48.0
 40
48.0
 40
49.0
 40
49.0
 40
50.0
 40
50.0
 40
51.0
 40
51.0
 40
52.0
 40
52.0
 40
53.0
 40
53.0
 40
54.0
 40
54.0
 40
55.0
 40
55.0
 40
56.0
 40
56.0
 40
57.0
 40
57.0
 40
58.0
 40
58.0
 40
59.0
 40
59.0
 40
60.0
 40
60.0
 40
61.0
 40
61.0
 40
62.0
 40
62.0
 40
63.0
 40
63.0
 40
64.0
 40
64.0
 40
65.0
 40
65.0
 40
66.0
 40
66.0
 40
67.0
 40
67.0
 40
68.0
 40
68.0
 40
69.0
 40
69.0
 40
70.0
 40
70.0
 40
71.0
 40
71.0
 40
72.0
 40
72.0
 40
73.0
 40
73.0
 40
74.0
 40
74.0
 40
75.0
 40
75.0
 40
76.0
 40
76.0
 40
77.0
 40
77.0
 40
78.0
 40
78.0
 40
79.0
 40
79.0
 40
80.0
 40
80.0
 40
81.0
 40
81.0
 40
82.0
 40
82.0
 40
83.0
 40
83.0
 40
84.0
 40
84.0
 40
85.0
 40
85.0
 40
86.0
 40
86.0
 40
87.0
 40
87.0
 40
88.0
 40
88.0
 40
89.0
 40
89.0
 40
90.0
 40
90.0
 40
91.0
 40
91.0
 40
92.0
 40
92.0
 40
93.0
 40
93.0
 40
94.0
 40
94.0
 40
95.0
 40
95.0
 40
96.0
 40
96.0
 40
97.0
 40
97.0
 40
98.0
 40
98.0
 40
99.0
 40
99.0
 40
100.0
 40
100.0
 40
101.0
 40
101.0
 40
102.0
 40
102.0
 40
103.0
 40
103.0
 40
104.0
 40
104.0
 40
105.0
 40
105.0
 40
106.0
 40
106.0
 40
107.0
 40
107.0
 40
108.0
 40
108.0
 40
109.0
 40
109.0
 40
110.0
 40
110.0
 40
111.0
 40
111.0
 40
112.0
 40
112.0
 40
113.0
 40
113.0
 40
114.0
 40
114.0
 40
115.0
 40
115.0
 40
116.0
 40
116.0
 40
117.0
 40
117.0
 40
118.0
 40
118.0
 40
119.0
 40
119.0
 40
120.0
 40
120.0
 40
121.0
 40
121.0
 40
122.0
 40
122.0
 40
123.0
 40
123.0
 40
124.0
 40
124.0
 40
125.0
 40
125.0
 40
126.0
 40
126.0
 40
127.0
 40
127.0
 40
128.0
 40
128.0
 40
129.0
 40
129.0
 40
130.0
 40
130.0
 40
131.0
 40
131.0
 40
132.0
 40
132.0
 40
133.0
 40
133.0
 40
134.0
 40
134.0
 40
135.0
 40
135.0
 40
136.0
 40
136.0
 40
137.0
 40
137.0
 40
138.0
 40
138.0
 40
139.0
 40
139.0
 40
140.0
 40
140.0
 40
141.0
 40
141.0
 40
142.0
 40
142.0
 40
143.0
 40
143.0
 40
144.0
 40
144.0
 40
145.0
 40
145.0
 40
146.0
 40
146.0
 40
147.0
 40
147.0
 40
148.0
 40
148.0
 40
149.0
 40
149.0
 40
150.0
 40
150.0
 40
151.0
 40
151.0
 40
152.0
 40
152.0
 40
153.0
 40
153.0
 40
154.0
 40
154.0
 40
155.0
 40
155.0
 40
156.0
 40
156.0
 40
157.0
 40
157.0
 40
158.0
 40
158.0
 40
159.0
 40
159.0
 40
160.0
 40
160.0
 40
161.0
 40
161.0
 40
162.0
 40
162.0
 40
163.0
 40
163.0
 40
164.0
 40
164.0
 40
165.0
 40
165.0
 40
166.0
 40
166.0
 40
167.0
 40
167.0
 40
168.0
 40
168.0
 40
169.0
 40
169.0
 40
170.0
 40
170.0
 40
171.0
 40
171.0
 40
172.0
 40
172.0
 40
173.0
 40
173.0
 40
174.0
 40
174.0
 40
175.0
 40
175.0
 40
176.0
 40
176.0
 40
177.0
 40
177.0
 40
178.0
 40
178.0
 40
179.0
 40
179.0
 40
180.0
 40
180.0
 40
181.0
 40
181.0
 40
182.0
 40
182.0
 40
183.0
 40
183.0
 40
184.0
 40
184.0
 40
185.0
 40
185.0
 40
186.0
 40
186.0
 40
187.0
 40
187.0
 40
188.0
 40
188.0
 40
189.0
 40
189.0
 40
190.0
 40
190.0
 40
191.0
 40
191.0
 40
192.0
 40
192.0
 40
193.0
 40
193.0
 40
194.0
 40
194.0
 40
195.0
 40
195.0
 40
196.0
 40
196.0
 40
197.0
 40
197.0
 40
198.0
 40
198.0
 40
199.0
 40
199.0
 40
200.0
 40
200.0
 40
201.0
 40
201.0
 40
202.0
 40
202.0
 40
203.0
 40
203.0
 40
204.0
 40
204.0
 40
205.0
 40
205.0
 40
206.0
 40
206.0
 40
207.0
 40
207.0
 40
208.0
 40
208.0
 40
209.0
 40
209.0
 40
210.0
 40
210.0
 40
211.0
 40
211.0
 40
212.0
 40
212.0
 40
213.0
 40
213.0
 40
214.0
 40
214.0
 40
215.0
 40
215.0
 40
216.0
 40
216.0
 40
217.0
 40
217.0
 40
218.0
 40
218.0
 40
219.0
 40
219.0
 40
220.0
 40
220.0
 40
221.0
 40
221.0
 40
222.0
 40
222.0
 40
223.0
 40
223.0
 40
224.0
 40
224.0
 40
225.0
 40
225.0
 40
226.0
 40
226.0
 40
227.0
 40
227.0
 40
228.0
 40
228.0
 40
229.0
 40
229.0
 40
230.0
 40
230.0
 40
231.0
 40
231.0
 40
232.0
 40
232.0
 40
233.0
 40
233.0
 40
234.0
 40
234.0
 40
235.0
 40
235.0
 40
236.0
 40
236.0
 40
237.0
 40
237.0
 40
238.0
 40
238.0
 40
239.0
 40
239.0
 40
240.0
 40
240.0
 40
241.0
 40
241.0
 40
242.0
 40
242.0
 40
243.0
 40
243.0
 40
244.0
 40
244.0
 40
245.0
 40
245.0
 40
246.0
 40
246.0
 40
247.0
 40
247.0
 40
248.0
 40
248.0
 40
249.0
 40
249.0
 40
250.0
 40
250.0
 40
251.0
 40
251.0
 40
252.0
 40
252.0
 40
253.0
 40
253.0
 40
254.0
 40
254.0
 40
255.0
 40
255.0
 40
256.0
 40
256.0
 40
257.0
 40
257.0
 40
258.0
 40
258.0
 40
259.0
 40
259.0
 40
260.0
 40
260.0
 40
261.0
 40
261.0
 40
262.0
 40
262.0
 40
263.0
 40
263.0
 40
264.0
 40
264.0
 40
265.0
 40
265.0
 40
266.0
 40
266.0
 40
267.0
 40
267.0
 40
268.0
 40
268.0
 40
269.0
 40
269.0
 40
270.0
 40
270.0
 40
271.0
 40
271.0
 40
272.0
 40
272.0
 40
273.0
 40
273.0
 40
274.0
 40
274.0
 40
275.0
 40
275.0
 40
276.0
 40
276.0
 40
277.0
 40
277.0
 40
278.0
 40
278.0
 40
279.0
 40
279.0
 40
280.0
 40
280.0
 40
281.0
 40
281.0
 40
282.0
 40
282.0
 40
283.0
 40
283.0
 40
284.0
 40
284.0
 40
285.0
 40
285.0
 40
286.0
 40
286.0
 40
287.0
 40
287.0
 40
288.0
 40
288.0
 40
289.0
 40
289.0
 40
290.0
 40
290.0
 40
291.0
 40
291.0
 40
292.0
 40
292.0
 40
293.0
 40
293.0
 40
294.0
 40
294.0
 40
295.0
 40
295.0
 40
296.0
 40
296.0
 40
297.0
 40
297.0
 40
298.0
 40
298.0
 40
299.0
 40
299.0
 40
300.0
 40
300.0
 40
301.0
 40
301.0
 40
302.0
 40
302.0
 40
303.0
 40
303.0
 40
304.0
 40
304.0
 40
305.0
 40
305.0
 40
306.0
 40
306.0
 40
307.0
 40
307.0
 40
308.0
 40
308.0
 40
309.0
 40
309.0
 40
310.0
 40
310.0
 40
311.0
 40
311.0
 40
312.0
 40
312.0
 40
313.0
 40
313.0
 40
314.0
 40
314.0
 40
315.0
 40
315.0
 40
316.0
 40
316.0
 40
317.0
 40
317.0
 40
318.0
 40
318.0
 40
319.0
 40
319.0
 40
320.0
 40
320.0
 40
321.0
 40
321.0
 40
322.0
 40
322.0
 40
323.0
 40
323.0
 40
324.0
 40
324.0
 40
325.0
 40
325.0
 40
326.0
 40
326.0
 40
327.0
 40
327.0
 40
328.0
 40
328.0
 40
329.0
 40
329.0
 40
330.0
 40
330.0
 40
331.0
 40
331.0
 40
332.0
 40
332.0
 40
333.0
 40
333.0
 40
334.0
 40
334.0
 40
335.0
 40
335.0
 40
336.0
 40
336.0
 40
337.0
 40
337.0
 40
338.0
 40
338.0
 40
339.0
 40
339.0
 40
340.0
 40
340.0
 40
341.0
 40
341.0
 40
342.0
 40
342.0
 40
343.0
 40
343.0
 40
344.0
 40
344.0
 40
345.0
 40
345.0
 40
346.0
 40
346.0
 40
347.0
 40
347.0
 40
348.0
 40
348.0
 40
349.0
 40
349.0
 40
350.0
 40
350.0
 40
351.0
 40
351.0
 40
352.0
 40
352.0
 40
353.0
 40
353.0
 40
354.0
 40
354.0
 40
355.0
 40
355.0
 40
356.0
 40
356.0
 40
357.0
 40
357.0
 40
358.0
 40
358.0
 40
359.0
 40
359.0
 40
360.0
 40
360.0
 40
361.0
 40
361.0
 40
362.0
 40
362.0
 40
363.0
 40
363.0
 40
364.0
 40
364.0
 40
365.0
 40
365.0
 40
366.0
 40
366.0
 40
367.0
 40
367.0
 40
368.0
 40
368.0
 40
369.0
 40
369.0
 40
370.0
 40
370.0
 40
371.0
 40
371.0
 40
372.0
 40
372.0
 40
373.0
 40
373.0
 40
374.0
 40
374.0
 40
375.0
 40
375.0
 40
376.0
 40
376.0
 40
377.0
 40
377.0
 40
378.0
 40
378.0
 40
379.0
 40
379.0
 40
380.0
 40
380.0
 40
381.0
 40
381.0
 40
382.0
 40
382.0
 40
383.0
 40
383.0
 40
384.0
 40
384.0
 40
385.0
 40
385.0
 40
386.0
 40
386.0
 40
387.0
 40
387.0
 40
388.0
 40
388.0
 40
389.0
 40
389.0
 40
389.0
 10
651.5609946938679
 20
-3512.817639283101
 30
0.0
 41
1.0
 10
653.1978429113088
 20
-3512.817639283101
 30
0.0
 41
1.0
 10
654.8346911287498
 20
-3512.817639283101
 30
0.0
 41
1.0
 10
654.0071836577163
 20
-3515.5028918116
 30
0.0
 41
1.0
 10
653.1796761866827
 20
-3518.188144340099
 30
0.0
 41
1.0
 10
653.2163551770145
 20
-3518.130742794283
 30
0.0
 41
0.9999957264412035
 10
653.2533691706741
 20
-3518.073556693985
 30
0.0
 41
1.0
 10
653.3142278189516
 20
-3517.979530937228
 30
0.0
 41
1.0
 10
653.3750864672293
 20
-3517.885505180472
 30
0.0
 41
1.0
 10
653.5338177574438
 20
-3517.640267566662
 30
0.0
 41
0.9995394069081586
 10
653.7071345405507
 20
-3517.405111443175
 30
0.0
 41
1.0
 10
653.7786482650686
 20
-3517.30808165799
 30
0.0
 41
1.0
 10
653.8501619895866
 20
-3517.211051872805
 30
0.0
 41
1.0
 10
654.1176153252218
 20
-3516.848171322553
 30
0.0
 41
0.9994460617143459
 10
654.4086162877967
 20
-3516.503886527255
 30
0.0
 41
1.0
 10
654.4173926497444
 20
-3516.493503166493
 30
0.0
 41
1.0
 10
654.4261690116921
 20
-3516.48311980573
 30
0.0
 41
1.0
 10
654.6996172503683
 20
-3516.15960173196
 30
0.0
 41
0.9994359394934049
 10
654.9941657110753
 20
-3515.855169329626
 30
0.0
 41
1.0
 10
654.9989324189823
 20
-3515.85024266888
 30
0.0
 41
1.0
 10
655.0036991268893
 20
-3515.845316008133
 30
0.0
 41
1.0
 10
655.2887141717795
 20
-3515.550736927296
 30
0.0
 41
0.9995293688567898
 10
655.5912575337426
 20
-3515.274190502969
 30
0.0
 41
1.0
 10
655.6298450522661
 20
-3515.238918731669
 30
0.0
 41
1.0
 10
655.6684325707897
 20
-3515.20364696037
 30
0.0
 41
1.0
 10
655.8938008957053
 20
-3514.997644078642
 30
0.0
 41
0.9997087614803415
 10
656.1288466736169
 20
-3514.802755517045
 30
0.0
 41
1.0
 10
656.1671788199706
 20
-3514.770972360027
 30
0.0
 41
1.0
 10
656.2055109663241
 20
-3514.739189203009
 30
0.0
 41
1.0
 10
656.3638924515267
 20
-3514.607866955449
 30
0.0
 41
0.9999595338698682
 10
656.5246109932373
 20
-3514.479415494139
 30
0.0
 41
1.0
 10
656.6853295349525
 20
-3514.350964032825
 30
0.0
 41
0.9999749417511787
 10
656.8478506036403
 20
-3514.224800924932
 30
0.0
 41
1.0
 10
656.8898228959922
 20
-3514.192218350307
 30
0.0
 41
1.0
 10
656.931795188344
 20
-3514.159635775683
 30
0.0
 41
1.0
 10
657.1009309589194
 20
-3514.028337756024
 30
0.0
 41
0.9999792037118088
 10
657.2717461584393
 20
-3513.899232192751
 30
0.0
 41
1.0
 10
657.3133958102633
 20
-3513.867752548235
 30
0.0
 41
1.0
 10
657.3550454620871
 20
-3513.836272903719
 30
0.0
 41
1.0
 10
657.4425613580233
 20
-3513.77012662943
 30
0.0
 41
0.9999993373652478
 10
657.5299247302647
 20
-3513.703779038616
 30
0.0
 41
1.0
 10
657.617288102537
 20
-3513.637431447778
 30
0.0
 41
0.9999160953815296
 10
657.7063409243714
 20
-3513.573369317385
 30
0.0
 41
1.0
 10
657.7719846992198
 20
-3513.526147006209
 30
0.0
 41
1.0
 10
657.8376284740683
 20
-3513.478924695032
 30
0.0
 41
1.0
 10
658.0579688455872
 20
-3513.320417942295
 30
0.0
 41
0.998096452723195
 10
658.2961468325897
 20
-3513.190242996582
 30
0.0
 41
1.0
 10
658.3702120464447
 20
-3513.149763037396
 30
0.0
 41
1.0
 10
658.4442772602997
 20
-3513.109283078211
 30
0.0
 41
1.0
 10
658.8029312868454
 20
-3512.913262576809
 30
0.0
 41
0.9984572810572994
 10
659.1811084195629
 20
-3512.758218054116
 30
0.0
 41
1.0
 10
659.188400958355
 20
-3512.75522826944
 30
0.0
 41
1.0
 10
659.1956934971473
 20
-3512.752238484764
 30
0.0
 41
1.0
 10
659.5592855522818
 20
-3512.603173531423
 30
0.0
 41
0.9987838528034171
 10
659.9357908693992
 20
-3512.490642251092
 30
0.0
 41
1.0
 10
659.9442667677956
 20
-3512.488108943711
 30
0.0
 41
1.0
 10
659.9527426661922
 20
-3512.485575636331
 30
0.0
 41
1.0
 10
660.3122961865172
 20
-3512.37811097076
 30
0.0
 41
0.9990652816207234
 10
660.6797880499494
 20
-3512.302103611676
 30
0.0
 41
1.0
 10
660.6901648520097
 20
-3512.299957405464
 30
0.0
 41
1.0
 10
660.70054165407
 20
-3512.297811199251
 30
0.0
 41
1.0
 10
661.0472799133784
 20
-3512.226096252592
 30
0.0
 41
0.9992909934270383
 10
661.3984314462978
 20
-3512.180675387659
 30
0.0
 41
1.0
 10
661.7495829792176
 20
-3512.135254522726
 30
0.0
 41
0.9994553539448874
 10
662.1029658454065
 20
-3512.113095914313
 30
0.0
 41
1.0
 10
662.1738346609948
 20
-3512.108652138218
 30
0.0
 41
1.0
 10
662.2447034765831
 20
-3512.104208362122
 30
0.0
 41
1.0
 10
662.5771550097219
 20
-3512.083362237299
 30
0.0
 41
0.9990928098292531
 10
662.9101745935272
 20
-3512.090881519768
 30
0.0
 41
1.0
 10
662.9872982640692
 20
-3512.092622902834
 30
0.0
 41
1.0
 10
663.0644219346111
 20
-3512.0943642859
 30
0.0
 41
1.0
 10
663.2431941773307
 20
-3512.098400802237
 30
0.0
 41
0.9998382089204679
 10
663.421705542905
 20
-3512.108865055293
 30
0.0
 41
1.0
 10
663.4225653553436
 20
-3512.108915457098
 30
0.0
 41
1.0
 10
663.4234251677823
 20
-3512.108965858902
 30
0.0
 41
1.0
 10
663.6002169084762
 20
-3512.119329308349
 30
0.0
 41
0.9997558016758911
 10
663.776378062879
 20
-3512.137494339082
 30
0.0
 41
1.0
 10
663.7773303397403
 20
-3512.137592534048
 30
0.0
 41
1.0
 10
663.7782826166016
 20
-3512.137690729013
 30
0.0
 41
1.0
 10
663.9525392172828
 20
-3512.155659369816
 30
0.0
 41
0.9996565144181979
 10
664.1256149239648
 20
-3512.182733983193
 30
0.0
 41
1.0
 10
664.126546774716
 20
-3512.182879754655
 30
0.0
 41
1.0
 10
664.1274786254671
 20
-3512.183025526117
 30
0.0
 41
1.0
 10
664.2986906306447
 20
-3512.20980859657
 30
0.0
 41
0.9995321806866787
 10
664.4679447913048
 20
-3512.24700957343
 30
0.0
 41
1.0
 10
664.468723180451
 20
-3512.247180658362
 30
0.0
 41
1.0
 10
664.4695015695971
 20
-3512.247351743294
 30
0.0
 41
1.0
 10
664.6371989519629
 20
-3512.284210550289
 30
0.0
 41
0.9993819199219544
 10
664.8018920203532
 20
-3512.33276131681
 30
0.0
 41
1.0
 10
664.8023688873502
 20
-3512.332901895029
 30
0.0
 41
1.0
 10
664.8028457543472
 20
-3512.333042473248
 30
0.0
 41
1.0
 10
664.9665850887465
 20
-3512.381312083332
 30
0.0
 41
0.9992088568506257
 10
665.1259701267221
 20
-3512.44244255492
 30
0.0
 41
1.0
 10
665.2853321084805
 20
-3512.503561756386
 30
0.0
 41
0.9990226101772617
 10
665.4386734482945
 20
-3512.578516619616
 30
0.0
 41
1.0
 10
665.5919917318894
 20
-3512.653460212722
 30
0.0
 41
0.9988424273972525
 10
665.7373989863113
 20
-3512.742789763226
 30
0.0
 41
1.0
 10
665.7379344030719
 20
-3512.743118691372
 30
0.0
 41
1.0
 10
665.7384698198326
 20
-3512.743447619517
 30
0.0
 41
1.0
 10
665.8849479077737
 20
-3512.833435026311
 30
0.0
 41
0.9986928844490046
 10
666.0214736411948
 20
-3512.937906494872
 30
0.0
 41
1.0
 10
666.0226362256399
 20
-3512.938796121327
 30
0.0
 41
1.0
 10
666.023798810085
 20
-3512.939685747783
 30
0.0
 41
1.0
 10
666.1626497123973
 20
-3513.045936469255
 30
0.0
 41
0.9986007262278999
 10
666.2895020519309
 20
-3513.166258008642
 30
0.0
 41
1.0
 10
666.2912908828444
 20
-3513.167954744312
 30
0.0
 41
1.0
 10
666.293079713758
 20
-3513.169651479981
 30
0.0
 41
1.0
 10
666.4235097151216
 20
-3513.29336649071
 30
0.0
 41
0.9985581491381486
 10
666.5399249385245
 20
-3513.430351471252
 30
0.0
 41
1.0
 10
666.5584418457156
 20
-3513.452140186655
 30
0.0
 41
1.0
 10
666.5769587529069
 20
-3513.473928902059
 30
0.0
 41
1.0
 10
666.7304077906931
 20
-3513.654491313408
 30
0.0
 41
0.997046023352044
 10
666.854391593012
 20
-3513.856425481772
 30
0.0
 41
1.0
 10
666.8833303231729
 20
-3513.903558399937
 30
0.0
 41
1.0
 10
666.9122690533337
 20
-3513.950691318103
 30
0.0
 41
1.0
 10
666.9917424533563
 20
-3514.080130766163
 30
0.0
 41
0.9988468816636351
 10
667.0584351948579
 20
-3514.216595671016
 30
0.0
 41
1.0
 10
667.0725072398393
 20
-3514.245389513287
 30
0.0
 41
1.0
 10
667.0865792848207
 20
-3514.274183355559
 30
0.0
 41
1.0
 10
667.1251279363601
 20
-3514.353060575869
 30
0.0
 41
0.9998431189999656
 10
667.1608585913509
 20
-3514.433253684752
 30
0.0
 41
1.0
 10
667.196589246347
 20
-3514.513446793647
 30
0.0
 41
0.9999989990084831
 10
667.2325466932048
 20
-3514.593538468846
 30
0.0
 41
1.0
 10
667.2448913163832
 20
-3514.621034902449
 30
0.0
 41
1.0
 10
667.2572359395618
 20
-3514.648531336052
 30
0.0
 41
1.0
 10
667.3178826327849
 20
-3514.783615878476
 30
0.0
 41
0.9998790356321442
 10
667.3742983930582
 20
-3514.920521382344
 30
0.0
 41
1.0
 10
667.3879687556275
 20
-3514.9536955852
 30
0.0
 41
1.0
 10
667.4016391181967
 20
-3514.986869788057
 30
0.0
 41
1.0
 10
667.448754442958
 20
-3515.101205697829
 30
0.0
 41
0.9998227574561259
 10
667.4915319397352
 20
-3515.21723431438
 30
0.0
 41
1.0
 10
667.5343094365126
 20
-3515.333262930931
 30
0.0
 41
0.9996797971040915
 10
667.571162006432
 20
-3515.45130716917
 30
0.0
 41
1.0
 10
667.5789696118832
 20
-3515.476316085509
 30
0.0
 41
1.0
 10
667.5867772173344
 20
-3515.501325001847
 30
0.0
 41
1.0
 10
667.6392449981547
 20
-3515.669387072757
 30
0.0
 41
0.9979274938734325
 10
667.6696940451134
 20
-3515.84279579008
 30
0.0
 41
1.0
 10
667.6741414196358
 20
-3515.868123791723
 30
0.0
 41
1.0
 10
667.6785887941584
 20
-3515.893451793366
 30
0.0
 41
1.0
 10
667.700448673555
 20
-3516.017944807948
 30
0.0
 41
0.9994985982137439
 10
667.7143850039085
 20
-3516.143571810229
 30
0.0
 41
1.0
 10
667.7283213342623
 20
-3516.269198812508
 30
0.0
 41
0.9996372611200944
 10
667.735473065798
 20
-3516.395393969879
 30
0.0
 41
1.0
 10
667.7358102207766
 20
-3516.401343204042
 30
0.0
 41
1.0
 10
667.7361473757552
 20
-3516.407292438206
 30
0.0
 41
1.0
 10
667.7439734172478
 20
-3516.545386063894
 30
0.0
 41
0.9997730630735725
 10
667.7459100442242
 20
-3516.683687711968
 30
0.0
 41
1.0
 10
667.7460242570603
 20
-3516.691844070251
 30
0.0
 41
1.0
 10
667.7461384698966
 20
-3516.700000428534
 30
0.0
 41
1.0
 10
667.7483035225454
 20
-3516.854614793163
 30
0.0
 41
0.9998772614070894
 10
667.7456233490818
 20
-3517.009221086285
 30
0.0
 41
1.0
 10
667.7454448226842
 20
-3517.019519413961
 30
0.0
 41
1.0
 10
667.7452662962867
 20
-3517.029817741638
 30
0.0
 41
1.0
 10
667.742229070028
 20
-3517.205020690113
 30
0.0
 41
0.9999415567326644
 10
667.7354044495363
 20
-3517.380117013458
 30
0.0
 41
1.0
 10
667.7349218081856
 20
-3517.392499932932
 30
0.0
 41
1.0
 10
667.734439166835
 20
-3517.404882852406
 30
0.0
 41
1.0
 10
667.7266492636415
 20
-3517.604745014714
 30
0.0
 41
0.9999716810420719
 10
667.7158520974048
 20
-3517.804467291163
 30
0.0
 41
1.0
 10
667.7094264998273
 20
-3517.923325790476
 30
0.0
 41
1.0
 10
667.7030009022499
 20
-3518.042184289789
 30
0.0
 41
1.0
 10
667.6868530839447
 20
-3518.340881092352
 30
0.0
 41
0.9999819129889819
 10
667.6671135007111
 20
-3518.639362047777
 30
0.0
 41
1.0
 10
667.6473739174779
 20
-3518.9378430032
 30
0.0
 41
1.0
 10
667.6424952763501
 20
-3519.012229094899
 30
0.0
 41
1.0
 10
667.6878917440415
 20
-3518.93474710019
 30
0.0
 41
0.9999982128099476
 10
667.7335808615703
 20
-3518.857437312243
 30
0.0
 41
1.0
 10
667.7873999813164
 20
-3518.766370884173
 30
0.0
 41
1.0
 10
667.8412191010624
 20
-3518.675304456102
 30
0.0
 41
1.0
 10
667.9945464581166
 20
-3518.415861811959
 30
0.0
 41
0.9998609190058598
 10
668.1564410838482
 20
-3518.161677048088
 30
0.0
 41
1.0
 10
668.2157377268012
 20
-3518.06857758219
 30
0.0
 41
1.0
 10
668.2750343697542
 20
-3517.975478116292
 30
0.0
 41
1.0
 10
668.4395788102386
 20
-3517.717132976286
 30
0.0
 41
0.9999067609735858
 10
668.6111168291668
 20
-3517.463377597403
 30
0.0
 41
1.0
 10
668.6159262355725
 20
-3517.456263065288
 30
0.0
 41
1.0
 10
668.6207356419782
 20
-3517.449148533172
 30
0.0
 41
1.0
 10
668.7826548480992
 20
-3517.209622218514
 30
0.0
 41
0.9998784952148091
 10
668.9519620674577
 20
-3516.975259785103
 30
0.0
 41
1.0
 10
669.1212692868216
 20
-3516.740897351684
 30
0.0
 41
0.9998532968282712
 10
669.2985045284647
 20
-3516.512471534746
 30
0.0
 41
1.0
 10
669.338428106445
 20
-3516.461016892708
 30
0.0
 41
1.0
 10
669.3783516844253
 20
-3516.409562250671
 30
0.0
 41
1.0
 10
669.6153197839465
 20
-3516.104151028729
 30
0.0
 41
0.9991551975795278
 10
669.8765686831948
 20
-3515.81923190456
 30
0.0
 41
1.0
 10
669.8835879151566
 20
-3515.811576701309
 30
0.0
 41
1.0
 10
669.8906071471184
 20
-3515.803921498058
 30
0.0
 41
1.0
 10
670.1378175824426
 20
-3515.534312780392
 30
0.0
 41
0.9997418144181213
 10
670.3970218618431
 20
-3515.276213959168
 30
0.0
 41
1.0
 10
670.6562261412466
 20
-3515.018115137941
 30
0.0
 41
0.998923820463325
 10
670.9382312377519
 20
-3514.785145213861
 30
0.0
 41
1.0
 10
671.0287265940265
 20
-3514.710385230647
 30
0.0
 41
1.0
 10
671.1192219503012
 20
-3514.635625247433
 30
0.0
 41
1.0
 10
671.399702064746
 20
-3514.403915140849
 30
0.0
 41
0.9990825084096214
 10
671.6989819299553
 20
-3514.197057145182
 30
0.0
 41
1.0
 10
671.7190726580659
 20
-3514.183170719026
 30
0.0
 41
1.0
 10
671.7391633861764
 20
-3514.169284292869
 30
0.0
 41
1.0
 10
671.9982617951587
 20
-3513.99019914952
 30
0.0
 41
0.9998164899825599
 10
672.2640302019157
 20
-3513.821170666484
 30
0.0
 41
1.0
 10
672.2877213229673
 20
-3513.806103133433
 30
0.0
 41
1.0
 10
672.3114124440189
 20
-3513.791035600382
 30
0.0
 41
1.0
 10
672.5297986086695
 20
-3513.65214218345
 30
0.0
 41
0.9997473449130662
 10
672.7542065231671
 20
-3513.523204267819
 30
0.0
 41
1.0
 10
672.9786144376616
 20
-3513.39426635219
 30
0.0
 41
0.9999327861147548
 10
673.2059516591902
 20
-3513.270566368827
 30
0.0
 41
1.0
 10
673.207055664313
 20
-3513.269965651468
 30
0.0
 41
1.0
 10
673.2081596694358
 20
-3513.269364934109
 30
0.0
 41
1.0
 10
673.4377049012077
 20
-3513.144463516028
 30
0.0
 41
0.9996956420484121
 10
673.6731315528863
 20
-3513.03103658208
 30
0.0
 41
1.0
 10
673.734012362675
 20
-3513.001704628618
 30
0.0
 41
1.0
 10
673.7948931724636
 20
-3512.972372675157
 30
0.0
 41
1.0
 10
674.0008473859491
 20
-3512.873145358271
 30
0.0
 41
0.999807057017708
 10
674.2105401638263
 20
-3512.782084184471
 30
0.0
 41
1.0
 10
674.4202329417085
 20
-3512.691023010669
 30
0.0
 41
0.9997827436147239
 10
674.6335388149242
 20
-3512.608780668047
 30
0.0
 41
1.0
 10
674.6719845141888
 20
-3512.593957520781
 30
0.0
 41
1.0
 10
674.7104302134535
 20
-3512.579134373515
 30
0.0
 41
1.0
 10
675.0006274852034
 20
-3512.467245736361
 30
0.0
 41
0.9988031841976913
 10
675.3003682104156
 20
-3512.384245608025
 30
0.0
 41
1.0
 10
675.3502027071379
 20
-3512.370446116412
 30
0.0
 41
1.0
 10
675.4000372038603
 20
-3512.3566466248
 30
0.0
 41
1.0
 10
675.7345772551549
 20
-3512.264010339986
 30
0.0
 41
0.9984748040549943
 10
676.0772910724535
 20
-3512.208821875456
 30
0.0
 41
1.0
 10
676.086769344948
 20
-3512.20729555443
 30
0.0
 41
1.0
 10
676.0962476174426
 20
-3512.205769233403
 30
0.0
 41
1.0
 10
676.4200048897483
 20
-3512.153633410926
 30
0.0
 41
0.9984436495479718
 10
676.7475543772009
 20
-3512.137877503289
 30
0.0
 41
1.0
 10
676.7909487934664
 20
-3512.135790128889
 30
0.0
 41
1.0
 10
676.834343209732
 20
-3512.13370275449
 30
0.0
 41
1.0
 10
677.075103864653
 20
-3512.122121595652
 30
0.0
 41
0.9987954789335618
 10
677.31584035447
 20
-3512.134194651136
 30
0.0
 41
1.0
 10
677.3557699394576
 20
-3512.136197139813
 30
0.0
 41
1.0
 10
677.395699524445
 20
-3512.13819962849
 30
0.0
 41
1.0
 10
677.5565768442885
 20
-3512.146267706621
 30
0.0
 41
0.9997941595878631
 10
677.7169944004785
 20
-3512.160855838463
 30
0.0
 41
1.0
 10
677.8774119566648
 20
-3512.175443970305
 30
0.0
 41
0.9998589466239065
 10
678.0372490503722
 20
-3512.195411679204
 30
0.0
 41
1.0
 10
678.1020614539913
 20
-3512.203508393043
 30
0.0
 41
1.0
 10
678.1668738576103
 20
-3512.211605106882
 30
0.0
 41
1.0
 10
678.4563357585541
 20
-3512.247766243459
 30
0.0
 41
0.9993495063249384
 10
678.7424382460855
 20
-3512.304697662942
 30
0.0
 41
1.0
 10
678.8083056403885
 20
-3512.317804589371
 30
0.0
 41
1.0
 10
678.8741730346916
 20
-3512.330911515801
 30
0.0
 41
1.0
 10
679.0927606811022
 20
-3512.374408184072
 30
0.0
 41
0.999678871556154
 10
679.3088638250146
 20
-3512.428923782798
 30
0.0
 41
1.0
 10
679.3129898300915
 20
-3512.429964635944
 30
0.0
 41
1.0
 10
679.3171158351686
 20
-3512.431005489089
 30
0.0
 41
1.0
 10
679.5249669689264
 20
-3512.483439381524
 30
0.0
 41
0.9995480654491999
 10
679.7292914393862
 20
-3512.548269294773
 30
0.0
 41
1.0
 10
679.7326707236462
 20
-3512.549341504601
 30
0.0
 41
1.0
 10
679.736050007906
 20
-3512.55041371443
 30
0.0
 41
1.0
 10
679.933615909847
 20
-3512.613099208023
 30
0.0
 41
0.9993867959456311
 10
680.1263102267302
 20
-3512.689457946602
 30
0.0
 41
1.0
 10
680.1287961248984
 20
-3512.690443030393
 30
0.0
 41
1.0
 10
680.1312820230665
 20
-3512.691428114185
 30
0.0
 41
1.0
 10
680.3190045436132
 20
-3512.76581668518
 30
0.0
 41
0.9992050256522114
 10
680.5002038936819
 20
-3512.854924483659
 30
0.0
 41
1.0
 10
680.5016732591082
 20
-3512.855647068581
 30
0.0
 41
1.0
 10
680.5031426245346
 20
-3512.856369653503
 30
0.0
 41
1.0
 10
680.6814032437493
 20
-3512.944032282137
 30
0.0
 41
0.9990222350741784
 10
680.851223366536
 20
-3513.047098817533
 30
0.0
 41
1.0
 10
680.8515911371019
 20
-3513.047322023343
 30
0.0
 41
1.0
 10
680.8519589076676
 20
-3513.047545229152
 30
0.0
 41
1.0
 10
681.0210434893236
 20
-3513.150165352929
 30
0.0
 41
0.9988642743804911
 10
681.1795925585614
 20
-3513.268413727979
 30
0.0
 41
1.0
 10
681.3381416277991
 20
-3513.38666210303
 30
0.0
 41
0.9987681233310911
 10
681.4841891963517
 20
-3513.520043485832
 30
0.0
 41
1.0
 10
681.4848470522833
 20
-3513.52064428826
 30
0.0
 41
1.0
 10
681.4855049082148
 20
-3513.521245090688
 30
0.0
 41
1.0
 10
681.6328681886293
 20
-3513.655828078346
 30
0.0
 41
0.9987496570898481
 10
681.7660557992851
 20
-3513.804453706521
 30
0.0
 41
1.0
 10
681.7676001388058
 20
-3513.806177053236
 30
0.0
 41
1.0
 10
681.7691444783266
 20
-3513.807900399952
 30
0.0
 41
1.0
 10
681.9054207680233
 20
-3513.959972721558
 30
0.0
 41
0.9988147669827434
 10
682.0262652764743
 20
-3514.124574735244
 30
0.0
 41
1.0
 10
682.0285039286289
 20
-3514.127623997948
 30
0.0
 41
1.0
 10
682.0307425807836
 20
-3514.130673260652
 30
0.0
 41
1.0
 10
682.1560643935427
 20
-3514.301373799744
 30
0.0
 41
0.9989452636216122
 10
682.2651982194662
 20
-3514.482851178061
 30
0.0
 41
1.0
 10
682.267895671638
 20
-3514.487336740114
 30
0.0
 41
1.0
 10
682.2705931238098
 20
-3514.491822302167
 30
0.0
 41
1.0
 10
682.3851218540744
 20
-3514.682270804585
 30
0.0
 41
0.9991046436070171
 10
682.4831402807176
 20
-3514.881719670636
 30
0.0
 41
1.0
 10
682.486068003898
 20
-3514.887677030782
 30
0.0
 41
1.0
 10
682.4889957270785
 20
-3514.893634390928
 30
0.0
 41
1.0
 10
682.5928696000824
 20
-3515.104997977271
 30
0.0
 41
0.999276383110148
 10
682.6803758571925
 20
-3515.323646101182
 30
0.0
 41
1.0
 10
682.683334396519
 20
-3515.331038476249
 30
0.0
 41
1.0
 10
682.6862929358454
 20
-3515.338430851315
 30
0.0
 41
1.0
 10
682.7797162716088
 20
-3515.571863725362
 30
0.0
 41
0.9994163472883191
 10
682.8569823339881
 20
-3515.811130902289
 30
0.0
 41
1.0
 10
682.8594586384816
 20
-3515.818799189854
 30
0.0
 41
1.0
 10
682.8619349429752
 20
-3515.82646747742
 30
0.0
 41
1.0
 10
682.9417020650098
 20
-3516.073479600377
 30
0.0
 41
0.9997268055890829
 10
683.009838176834
 20
-3516.323949664279
 30
0.0
 41
1.0
 10
683.0116985373738
 20
-3516.330788396499
 30
0.0
 41
1.0
 10
683.0135588979138
 20
-3516.33762712872
 30
0.0
 41
1.0
 10
683.0779742886576
 20
-3516.574419728178
 30
0.0
 41
0.999670131900031
 10
683.130145522199
 20
-3516.814207634707
 30
0.0
 41
1.0
 10
683.1823167557407
 20
-3517.053995541238
 30
0.0
 41
0.9995785451109185
 10
683.2204839104197
 20
-3517.296407063298
 30
0.0
 41
1.0
 10
683.228923474767
 20
-3517.350009372828
 30
0.0
 41
1.0
 10
683.2373630391145
 20
-3517.403611682358
 30
0.0
 41
1.0
 10
683.2905129909913
 20
-3517.741183629762
 30
0.0
 41
0.9979925101216932
 10
683.3005641628441
 20
-3518.082766285946
 30
0.0
 41
1.0
 10
683.3022137876934
 20
-3518.138827732908
 30
0.0
 41
1.0
 10
683.3038634125427
 20
-3518.194889179869
 30
0.0
 41
1.0
 10
683.3106153346966
 20
-3518.424348942128
 30
0.0
 41
0.9995314902263832
 10
683.3033149504198
 20
-3518.653791909634
 30
0.0
 41
1.0
 10
683.2960145661432
 20
-3518.883234877137
 30
0.0
 41
0.9996245486943907
 10
683.2761563758812
 20
-3519.111933419385
 30
0.0
 41
1.0
 10
683.2758302798927
 20
-3519.115688931656
 30
0.0
 41
1.0
 10
683.2755041839041
 20
-3519.119444443927
 30
0.0
 41
1.0
 10
683.2549938016643
 20
-3519.355654010723
 30
0.0
 41
0.9997286095001368
 10
683.2235031545222
 20
-3519.590651828508
 30
0.0
 41
1.0
 10
683.2227161692217
 20
-3519.596524677911
 30
0.0
 41
1.0
 10
683.2219291839211
 20
-3519.602397527313
 30
0.0
 41
1.0
 10
683.1888645661775
 20
-3519.849141043906
 30
0.0
 41
0.9998265533969225
 10
683.1466336487109
 20
-3520.094481993491
 30
0.0
 41
1.0
 10
683.1452805644369
 20
-3520.102342750503
 30
0.0
 41
1.0
 10
683.143927480163
 20
-3520.110203507516
 30
0.0
 41
1.0
 10
683.0989903941478
 20
-3520.371265971131
 30
0.0
 41
0.9999022530853094
 10
683.0467714649284
 20
-3520.630969908404
 30
0.0
 41
1.0
 10
683.0448141825981
 20
-3520.640704193177
 30
0.0
 41
1.0
 10
683.0428569002678
 20
-3520.650438477949
 30
0.0
 41
1.0
 10
682.9867234063879
 20
-3520.929610984769
 30
0.0
 41
0.9999524761938986
 10
682.925157468718
 20
-3521.2076359711
 30
0.0
 41
1.0
 10
682.9226052543665
 20
-3521.219161489707
 30
0.0
 41
1.0
 10
682.920053040015
 20
-3521.230687008314
 30
0.0
 41
1.0
 10
682.8533826736414
 20
-3521.531763031863
 30
0.0
 41
0.9999813588732372
 10
682.7830406720502
 20
-3521.832002457173
 30
0.0
 41
1.0
 10
682.7799328211381
 20
-3521.845267638013
 30
0.0
 41
1.0
 10
682.7768249702259
 20
-3521.858532818854
 30
0.0
 41
1.0
 10
682.7002672668199
 20
-3522.185302605807
 30
0.0
 41
0.9999955237664614
 10
682.6217555108491
 20
-3522.51160841306
 30
0.0
 41
1.0
 10
682.5971922395793
 20
-3522.61369679411
 30
0.0
 41
1.0
 10
682.5726289683095
 20
-3522.715785175161
 30
0.0
 41
1.0
 10
682.4449906698159
 20
-3523.246267744445
 30
0.0
 41
0.9999993604792604
 10
682.3161527754628
 20
-3523.776460245884
 30
0.0
 41
1.0
 10
682.3067151043749
 20
-3523.81529806194
 30
0.0
 41
1.0
 10
682.2972774332869
 20
-3523.854135877995
 30
0.0
 41
1.0
 10
682.1495641967665
 20
-3524.462004011511
 30
0.0
 41
0.9999659914730447
 10
681.9918450049934
 20
-3525.06735310464
 30
0.0
 41
1.0
 10
681.9819396271331
 20
-3525.105371379001
 30
0.0
 41
1.0
 10
681.9720342492728
 20
-3525.143389653361
 30
0.0
 41
1.0
 10
681.7945043017801
 20
-3525.824775295207
 30
0.0
 41
0.9999441976029014
 10
681.6026182358524
 20
-3526.502258145807
 30
0.0
 41
1.0
 10
681.5692171990027
 20
-3526.620185570858
 30
0.0
 41
1.0
 10
681.535816162153
 20
-3526.738112995909
 30
0.0
 41
1.0
 10
681.2771280225207
 20
-3527.651450696627
 30
0.0
 41
0.9999625120734867
 10
681.0026624878748
 20
-3528.560171764616
 30
0.0
 41
1.0
 10
680.931082601711
 20
-3528.797163817863
 30
0.0
 41
1.0
 10
680.8595027155471
 20
-3529.034155871111
 30
0.0
 41
1.0
 10
680.7104623074629
 20
-3529.527610027323
 30
0.0
 41
0.9999793386308686
 10
680.5550902611878
 20
-3530.019107305794
 30
0.0
 41
1.0
 10
680.3997182149127
 20
-3530.510604584266
 30
0.0
 41
1.0
 10
680.3781590971713
 20
-3530.578640393016
 30
0.0
 41
1.0
 10
676.677412990633
 20
-3542.35278423795
 30
0.0
 41
1.0
 10
672.9766668840947
 20
-3554.126928082885
 30
0.0
 41
1.0
 10
671.0541535040476
 20
-3554.126928082885
 30
0.0
 41
1.0
 10
669.1316401240005
 20
-3554.126928082885
 30
0.0
 41
1.0
 10
672.3695296813573
 20
-3543.830871079306
 30
0.0
 41
1.0
 10
675.6074192387142
 20
-3533.534814075727
 30
0.0
 41
1.0
 10
675.6977508850698
 20
-3533.246751631165
 30
0.0
 41
1.0
 10
675.7880825314255
 20
-3532.958689186603
 30
0.0
 41
1.0
 10
676.1286913661388
 20
-3531.872507128317
 30
0.0
 41
0.9999911657893922
 10
676.4601569894974
 20
-3530.783500065596
 30
0.0
 41
1.0
 10
676.5195488764862
 20
-3530.588372185534
 30
0.0
 41
1.0
 10
676.5789407634751
 20
-3530.393244305473
 30
0.0
 41
1.0
 10
676.7916226128506
 20
-3529.694493002893
 30
0.0
 41
0.999995242814471
 10
676.9999897915077
 20
-3528.994442954169
 30
0.0
 41
1.0
 10
677.0101087321766
 20
-3528.960446405606
 30
0.0
 41
1.0
 10
677.0202276728455
 20
-3528.926449857042
 30
0.0
 41
1.0
 10
677.2083569701693
 20
-3528.294392905431
 30
0.0
 41
0.9999931687489911
 10
677.3918086459049
 20
-3527.660962478929
 30
0.0
 41
1.0
 10
677.4016791748172
 20
-3527.62688106041
 30
0.0
 41
1.0
 10
677.4115497037295
 20
-3527.592799641891
 30
0.0
 41
1.0
 10
677.575260321646
 20
-3527.027532052409
 30
0.0
 41
0.9999893840788103
 10
677.7337547745659
 20
-3526.460779793895
 30
0.0
 41
1.0
 10
677.8922492274852
 20
-3525.894027535382
 30
0.0
 41
0.9999833980081082
 10
678.0442017089742
 20
-3525.325486369303
 30
0.0
 41
1.0
 10
678.0622095824131
 20
-3525.258108612367
 30
0.0
 41
1.0
 10
678.0802174558518
 20
-3525.190730855432
 30
0.0
 41
1.0
 10
678.2181465535831
 20
-3524.674659190845
 30
0.0
 41
0.9999233658066475
 10
678.3432564960266
 20
-3524.155330873389
 30
0.0
 41
1.0
 10
678.4683664384671
 20
-3523.636002555944
 30
0.0
 41
1.0
 10
678.5473332761823
 20
-3523.308389227092
 30
0.0
 41
1.0
 10
678.5572904841324
 20
-3523.267079303369
 30
0.0
 41
1.0
 10
678.5672476920826
 20
-3523.225769379646
 30
0.0
 41
1.0
 10
678.6263001138946
 20
-3522.980775898252
 30
0.0
 41
0.9999868670859586
 10
678.6828382818898
 20
-3522.735190006948
 30
0.0
 41
1.0
 10
678.6906332562087
 20
-3522.701330832099
 30
0.0
 41
1.0
 10
678.6984282305276
 20
-3522.66747165725
 30
0.0
 41
1.0
 10
678.7393764498861
 20
-3522.48960411564
 30
0.0
 41
0.9999778173340195
 10
678.777951646113
 20
-3522.311206881197
 30
0.0
 41
1.0
 10
678.8165268423434
 20
-3522.132809646738
 30
0.0
 41
0.9999602692862569
 10
678.8519155596092
 20
-3521.953753069864
 30
0.0
 41
1.0
 10
678.8583232237626
 20
-3521.921332160102
 30
0.0
 41
1.0
 10
678.8647308879159
 20
-3521.88891125034
 30
0.0
 41
1.0
 10
678.9129349334872
 20
-3521.645012853947
 30
0.0
 41
0.9995617985320355
 10
678.9466216279252
 20
-3521.398689358535
 30
0.0
 41
1.0
 10
678.9515506077378
 20
-3521.362647723802
 30
0.0
 41
1.0
 10
678.9564795875505
 20
-3521.32660608907
 30
0.0
 41
1.0
 10
678.9970461096469
 20
-3521.029975989669
 30
0.0
 41
0.9991121410639682
 10
679.0124968168235
 20
-3520.730983792056
 30
0.0
 41
1.0
 10
679.0143343968725
 20
-3520.695424118903
 30
0.0
 41
1.0
 10
679.0161719769217
 20
-3520.659864445751
 30
0.0
 41
1.0
 10
679.027947524
 20
-3520.431991594442
 30
0.0
 41
0.9989792494905392
 10
679.0191093397654
 20
-3520.203985922647
 30
0.0
 41
1.0
 10
679.017813396028
 20
-3520.170553430793
 30
0.0
 41
1.0
 10
679.0165174522908
 20
-3520.137120938939
 30
0.0
 41
1.0
 10
679.0102711555304
 20
-3519.975980250848
 30
0.0
 41
0.999782029539401
 10
678.9973031607793
 20
-3519.815240807362
 30
0.0
 41
1.0
 10
678.9843351660285
 20
-3519.65450136388
 30
0.0
 41
0.9998335105974594
 10
678.9655107750044
 20
-3519.494342130973
 30
0.0
 41
1.0
 10
678.9623209256517
 20
-3519.467202670007
 30
0.0
 41
1.0
 10
678.9591310762992
 20
-3519.440063209041
 30
0.0
 41
1.0
 10
678.9339269865699
 20
-3519.225625054206
 30
0.0
 41
0.9996876457879648
 10
678.8980391609733
 20
-3519.012714198775
 30
0.0
 41
1.0
 10
678.893575834683
 20
-3518.986234728293
 30
0.0
 41
1.0
 10
678.8891125083927
 20
-3518.959755257811
 30
0.0
 41
1.0
 10
678.8615208655499
 20
-3518.79606296989
 30
0.0
 41
0.9995547496494511
 10
678.8242142217651
 20
-3518.634307975511
 30
0.0
 41
1.0
 10
678.823466308022
 20
-3518.631065154098
 30
0.0
 41
1.0
 10
678.822718394279
 20
-3518.627822332685
 30
0.0
 41
1.0
 10
678.7869075779788
 20
-3518.472552981123
 30
0.0
 41
0.9994899427174817
 10
678.7412577606212
 20
-3518.31988641546
 30
0.0
 41
1.0
 10
678.7403407071398
 20
-3518.316819515882
 30
0.0
 41
1.0
 10
678.7394236536584
 20
-3518.313752616305
 30
0.0
 41
1.0
 10
678.6956079432623
 20
-3518.16721984979
 30
0.0
 41
0.9993784877591144
 10
678.6415766730494
 20
-3518.024138439473
 30
0.0
 41
1.0
 10
678.6405132910962
 20
-3518.021322474034
 30
0.0
 41
1.0
 10
678.6394499091431
 20
-3518.018506508594
 30
0.0
 41
1.0
 10
678.5875454028369
 20
-3517.881057029157
 30
0.0
 41
0.9992430832254725
 10
678.5251123325174
 20
-3517.748058725018
 30
0.0
 41
1.0
 10
678.5239481004048
 20
-3517.745578614785
 30
0.0
 41
1.0
 10
678.5227838682922
 20
-3517.743098504552
 30
0.0
 41
1.0
 10
678.4626792621991
 20
-3517.615060420882
 30
0.0
 41
0.99907896327982
 10
678.3918180086454
 20
-3517.492647197383
 30
0.0
 41
1.0
 10
678.3906265962812
 20
-3517.490589025664
 30
0.0
 41
1.0
 10
678.389435183917
 20
-3517.488530853945
 30
0.0
 41
1.0
 10
678.320956755091
 20
-3517.370233973882
 30
0.0
 41
0.9988874801120788
 10
678.2416382030278
 20
-3517.258914549047
 30
0.0
 41
1.0
 10
678.2405271508997
 20
-3517.257355245699
 30
0.0
 41
1.0
 10
678.2394160987716
 20
-3517.25579594235
 30
0.0
 41
1.0
 10
678.1623196509635
 20
-3517.147595124211
 30
0.0
 41
0.9986762060692326
 10
678.0745147084115
 20
-3517.047887695333
 30
0.0
 41
1.0
 10
678.0736267877464
 20
-3517.0468794117
 30
0.0
 41
1.0
 10
678.0727388670814
 20
-3517.045871128065
 30
0.0
 41
1.0
 10
677.9867097658582
 20
-3516.948180266455
 30
0.0
 41
0.9984621642488805
 10
677.8903946523035
 20
-3516.860613665513
 30
0.0
 41
1.0
 10
677.8899013832711
 20
-3516.860165201187
 30
0.0
 41
1.0
 10
677.8894081142386
 20
-3516.85971673686
 30
0.0
 41
1.0
 10
677.7940795387481
 20
-3516.773047064571
 30
0.0
 41
0.9982724693851915
 10
677.689242275065
 20
-3516.698158363535
 30
0.0
 41
1.0
 10
677.5844050113816
 20
-3516.623269662499
 30
0.0
 41
0.9981399180159259
 10
677.4712328845922
 20
-3516.561696623611
 30
0.0
 41
1.0
 10
677.4711415604369
 20
-3516.561646937297
 30
0.0
 41
1.0
 10
677.4710502362816
 20
-3516.561597250984
 30
0.0
 41
1.0
 10
677.357695461183
 20
-3516.499924839469
 30
0.0
 41
0.9980927086837713
 10
677.2376047590521
 20
-3516.452691221765
 30
0.0
 41
1.0
 10
677.2367244196269
 20
-3516.452344970014
 30
0.0
 41
1.0
 10
677.2358440802016
 20
-3516.451998718263
 30
0.0
 41
1.0
 10
677.1139926992225
 20
-3516.404072597059
 30
0.0
 41
0.9981411356562075
 10
676.9872156564235
 20
-3516.371327314047
 30
0.0
 41
1.0
 10
676.9854514230205
 20
-3516.370871629636
 30
0.0
 41
1.0
 10
676.9836871896175
 20
-3516.370415945225
 30
0.0
 41
1.0
 10
676.8533816800098
 20
-3516.336759293391
 30
0.0
 41
0.9983031812934587
 10
676.7200468220168
 20
-3516.318480571039
 30
0.0
 41
1.0
 10
676.7023047712139
 20
-3516.316048333697
 30
0.0
 41
1.0
 10
676.6845627204109
 20
-3516.313616096355
 30
0.0
 41
1.0
 10
676.5758634354013
 20
-3516.298714636373
 30
0.0
 41
0.998388770826335
 10
676.4661757368139
 20
-3516.296225289106
 30
0.0
 41
1.0
 10
676.4500489263752
 20
-3516.295859293356
 30
0.0
 41
1.0
 10
676.4339221159365
 20
-3516.295493297607
 30
0.0
 41
1.0
 10
676.3564880382245
 20
-3516.29373594184
 30
0.0
 41
0.9998869563080387
 10
676.2790361318229
 20
-3516.294307680559
 30
0.0
 41
1.0
 10
676.201584225462
 20
-3516.294879419278
 30
0.0
 41
0.9999972320172575
 10
676.1241358670843
 20
-3516.295815618335
 30
0.0
 41
1.0
 10
676.0854298338802
 20
-3516.296283498515
 30
0.0
 41
1.0
 10
676.046723800676
 20
-3516.296751378694
 30
0.0
 41
1.0
 10
675.8918633759307
 20
-3516.298623338109
 30
0.0
 41
0.9997304945086313
 10
675.7372567634517
 20
-3516.307681525682
 30
0.0
 41
1.0
 10
675.719157480047
 20
-3516.308741937662
 30
0.0
 41
1.0
 10
675.7010581966423
 20
-3516.309802349641
 30
0.0
 41
1.0
 10
675.5102530173547
 20
-3516.320981361173
 30
0.0
 41
0.9997888306416024
 10
675.3200683456744
 20
-3516.33999129015
 30
0.0
 41
1.0
 10
675.3026262225242
 20
-3516.341734719415
 30
0.0
 41
1.0
 10
675.2851840993739
 20
-3516.34347814868
 30
0.0
 41
1.0
 10
675.0601151813953
 20
-3516.365974936186
 30
0.0
 41
0.9984170238190807
 10
674.8389968866904
 20
-3516.413607100058
 30
0.0
 41
1.0
 10
674.7662346247221
 20
-3516.42928117167
 30
0.0
 41
1.0
 10
674.6934723627536
 20
-3516.444955243281
 30
0.0
 41
1.0
 10
674.4630902259089
 20
-3516.494582976301
 30
0.0
 41
0.9976592854199532
 10
674.2416338930963
 20
-3516.575180330596
 30
0.0
 41
1.0
 10
674.020177560284
 20
-3516.655777684892
 30
0.0
 41
0.9993255074352502
 10
673.8052339627011
 20
-3516.752411481877
 30
0.0
 41
1.0
 10
673.7959836048562
 20
-3516.756570234275
 30
0.0
 41
1.0
 10
673.7867332470115
 20
-3516.760728986674
 30
0.0
 41
1.0
 10
673.5532889337385
 20
-3516.865680288457
 30
0.0
 41
0.9976475078274736
 10
673.336394245119
 20
-3517.001576267773
 30
0.0
 41
1.0
 10
673.2997094568466
 20
-3517.024561225404
 30
0.0
 41
1.0
 10
673.2630246685742
 20
-3517.047546183035
 30
0.0
 41
1.0
 10
673.0946202854735
 20
-3517.15306042457
 30
0.0
 41
0.9995131336407299
 10
672.9331248555576
 20
-3517.268872848476
 30
0.0
 41
1.0
 10
672.7716294256392
 20
-3517.384685272385
 30
0.0
 41
0.999581010760603
 10
672.6171061301778
 20
-3517.50964863732
 30
0.0
 41
1.0
 10
672.6111660677614
 20
-3517.514452380246
 30
0.0
 41
1.0
 10
672.6052260053449
 20
-3517.519256123172
 30
0.0
 41
1.0
 10
672.4388225850461
 20
-3517.653826973963
 30
0.0
 41
0.9996617837954582
 10
672.2796412107781
 20
-3517.796867885081
 30
0.0
 41
1.0
 10
672.25537970902
 20
-3517.818669351066
 30
0.0
 41
1.0
 10
672.2311182072619
 20
-3517.840470817051
 30
0.0
 41
1.0
 10
672.094567152472
 20
-3517.963176047992
 30
0.0
 41
0.9997267750052334
 10
671.963900135906
 20
-3518.092129121042
 30
0.0
 41
1.0
 10
671.8332331193533
 20
-3518.221082194078
 30
0.0
 41
0.9999667288966427
 10
671.704687233073
 20
-3518.352149807853
 30
0.0
 41
1.0
 10
671.5670323375089
 20
-3518.492505125384
 30
0.0
 41
1.0
 10
671.4293774419448
 20
-3518.632860442915
 30
0.0
 41
1.0
 10
671.025521764552
 20
-3519.044638691736
 30
0.0
 41
0.9988205335175134
 10
670.6635105305919
 20
-3519.493647155858
 30
0.0
 41
1.0
 10
670.6022306007826
 20
-3519.569653656717
 30
0.0
 41
1.0
 10
670.5409506709734
 20
-3519.645660157577
 30
0.0
 41
1.0
 10
670.0563795773944
 20
-3520.246681623419
 30
0.0
 41
0.9997077826755509
 10
669.6014236751796
 20
-3520.870421211858
 30
0.0
 41
1.0
 10
669.5979768449215
 20
-3520.875146778613
 30
0.0
 41
1.0
 10
669.5945300146633
 20
-3520.879872345369
 30
0.0
 41
1.0
 10
669.1326804519325
 20
-3521.513063067317
 30
0.0
 41
0.9989147567078841
 10
668.7317534461672
 20
-3522.186481989684
 30
0.0
 41
1.0
 10
668.6822711555526
 20
-3522.26959515079
 30
0.0
 41
1.0
 10
668.6327888649381
 20
-3522.352708311896
 30
0.0
 41
1.0
 10
668.3223662676618
 20
-3522.874111080804
 30
0.0
 41
0.9997476598182591
 10
668.0356762926423
 20
-3523.408930577969
 30
0.0
 41
1.0
 10
667.7489863176213
 20
-3523.943750075137
 30
0.0
 41
0.9996258967109382
 10
667.4919698137566
 20
-3524.493445948389
 30
0.0
 41
1.0
 10
667.465569994858
 20
-3524.549908748578
 30
0.0
 41
1.0
 10
667.4391701759595
 20
-3524.606371548768
 30
0.0
 41
1.0
 10
667.158752733958
 20
-3525.206116344677
 30
0.0
 41
0.9998735413944544
 10
666.8975500405201
 20
-3525.814475543607
 30
0.0
 41
1.0
 10
666.8906643843998
 20
-3525.830512714535
 30
0.0
 41
1.0
 10
666.8837787282794
 20
-3525.846549885463
 30
0.0
 41
1.0
 10
666.636347347081
 20
-3526.42283474254
 30
0.0
 41
0.9999377418859167
 10
666.4018377427299
 20
-3527.004497677893
 30
0.0
 41
1.0
 10
666.1673281383812
 20
-3527.58616061324
 30
0.0
 41
0.999950829950349
 10
665.9444002516269
 20
-3528.172359966882
 30
0.0
 41
1.0
 10
665.938238714301
 20
-3528.188562018812
 30
0.0
 41
1.0
 10
665.9320771769749
 20
-3528.204764070743
 30
0.0
 41
1.0
 10
665.6968262155672
 20
-3528.823367528249
 30
0.0
 41
0.9999609228434786
 10
665.4725490098233
 20
-3529.446033560269
 30
0.0
 41
1.0
 10
665.4666369891236
 20
-3529.46244724109
 30
0.0
 41
1.0
 10
665.4607249684237
 20
-3529.47886092191
 30
0.0
 41
1.0
 10
665.2246237212748
 20
-3530.134354315585
 30
0.0
 41
0.9999674607401009
 10
664.9991286691379
 20
-3530.793571555577
 30
0.0
 41
1.0
 10
664.8963318880119
 20
-3531.094089946964
 30
0.0
 41
1.0
 10
664.7935351068858
 20
-3531.394608338351
 30
0.0
 41
1.0
 10
664.561513893374
 20
-3532.072904303346
 30
0.0
 41
0.9999287532306627
 10
664.3457510854337
 20
-3532.756545781294
 30
0.0
 41
1.0
 10
664.2527965732015
 20
-3533.05107086989
 30
0.0
 41
1.0
 10
664.1598420609694
 20
-3533.345595958486
 30
0.0
 41
1.0
 10
664.129988277554
 20
-3533.440187259051
 30
0.0
 41
0.9999998223053123
 10
664.1002472600313
 20
-3533.534814075727
 30
0.0
 41
1.0
 10
660.8589349864404
 20
-3543.830871079306
 30
0.0
 41
1.0
 10
657.6176227128495
 20
-3554.126928082885
 30
0.0
 41
1.0
 10
655.8070058250677
 20
-3554.126928082885
 30
0.0
 41
1.0
 10
653.9963889372858
 20
-3554.126928082885
 30
0.0
 41
1.0
 10
657.7005577600579
 20
-3542.35278423795
 30
0.0
 41
1.0
 10
661.40472658283
 20
-3530.578640393016
 30
0.0
 41
1.0
 10
661.4249700994354
 20
-3530.514553966116
 30
0.0
 41
1.0
 10
661.5701854371349
 20
-3530.053954882464
 30
0.0
 41
1.0
 10
661.7154007748352
 20
-3529.593355798809
 30
0.0
 41
0.9999825681978574
 10
661.8551668532536
 20
-3529.131074008695
 30
0.0
 41
1.0
 10
661.9517489775787
 20
-3528.811624841691
 30
0.0
 41
1.0
 10
662.0483311019038
 20
-3528.492175674688
 30
0.0
 41
1.0
 10
662.2426358085362
 20
-3527.849505231144
 30
0.0
 41
0.999967252895588
 10
662.4265134197791
 20
-3527.203774139983
 30
0.0
 41
1.0
 10
662.4320911871173
 20
-3527.184186449207
 30
0.0
 41
1.0
 10
662.4376689544555
 20
-3527.164598758432
 30
0.0
 41
1.0
 10
662.6103910310321
 20
-3526.558043048787
 30
0.0
 41
0.999989974917132
 10
662.7776742500952
 20
-3525.949964871905
 30
0.0
 41
1.0
 10
662.7978860881319
 20
-3525.876494396543
 30
0.0
 41
1.0
 10
662.8180979261685
 20
-3525.80302392118
 30
0.0
 41
1.0
 10
662.9449574691672
 20
-3525.341886694991
 30
0.0
 41
0.9999214200505292
 10
663.06021632592
 20
-3524.877714010582
 30
0.0
 41
1.0
 10
663.0857480302799
 20
-3524.774892239795
 30
0.0
 41
1.0
 10
663.1112797346398
 20
-3524.672070469007
 30
0.0
 41
1.0
 10
663.1754751826757
 20
-3524.413541326162
 30
0.0
 41
0.999982868166639
 10
663.2366396866663
 20
-3524.154278377228
 30
0.0
 41
1.0
 10
663.2978041906583
 20
-3523.895015428289
 30
0.0
 41
0.9999389844480672
 10
663.3532261682375
 20
-3523.634464516484
 30
0.0
 41
1.0
 10
663.367501655677
 20
-3523.567352308813
 30
0.0
 41
1.0
 10
663.3817771431164
 20
-3523.500240101143
 30
0.0
 41
1.0
 10
663.4657500955739
 20
-3523.105464774002
 30
0.0
 41
0.9998933699440156
 10
663.5381586243797
 20
-3522.708405558479
 30
0.0
 41
1.0
 10
663.5409042748126
 20
-3522.693349517085
 30
0.0
 41
1.0
 10
663.5436499252456
 20
-3522.67829347569
 30
0.0
 41
1.0
 10
663.6215497549159
 20
-3522.251122177385
 30
0.0
 41
0.9996850305193434
 10
663.6779171074329
 20
-3521.820580166514
 30
0.0
 41
1.0
 10
663.6819071741713
 20
-3521.790103458271
 30
0.0
 41
1.0
 10
663.6858972409099
 20
-3521.759626750027
 30
0.0
 41
1.0
 10
663.7407129658277
 20
-3521.340936295718
 30
0.0
 41
0.9994697936707018
 10
663.7681620842675
 20
-3520.919565905055
 30
0.0
 41
1.0
 10
663.7691162227669
 20
-3520.904918960631
 30
0.0
 41
1.0
 10
663.7700703612663
 20
-3520.890272016208
 30
0.0
 41
1.0
 10
663.795611202707
 20
-3520.49819551439
 30
0.0
 41
0.9991804893136559
 10
663.7893545701611
 20
-3520.105337814447
 30
0.0
 41
1.0
 10
663.7891868125168
 20
-3520.09480421162
 30
0.0
 41
1.0
 10
663.7890190548726
 20
-3520.084270608793
 30
0.0
 41
1.0
 10
663.7830979376156
 20
-3519.7124801145
 30
0.0
 41
0.9988448329321459
 10
663.741514846368
 20
-3519.342974934833
 30
0.0
 41
1.0
 10
663.7383266989618
 20
-3519.31464522329
 30
0.0
 41
1.0
 10
663.7351385515558
 20
-3519.286315511748
 30
0.0
 41
1.0
 10
663.6999317551204
 20
-3518.973469755166
 30
0.0
 41
0.9985503209458612
 10
663.6312992105213
 20
-3518.666221386988
 30
0.0
 41
1.0
 10
663.6161272263787
 20
-3518.598300732187
 30
0.0
 41
1.0
 10
663.6009552422361
 20
-3518.530380077385
 30
0.0
 41
1.0
 10
663.5626666659226
 20
-3518.358973018811
 30
0.0
 41
0.9991036781370026
 10
663.5100169426198
 20
-3518.191418844159
 30
0.0
 41
1.0
 10
663.5020524917089
 20
-3518.166072519141
 30
0.0
 41
1.0
 10
663.494088040798
 20
-3518.140726194124
 30
0.0
 41
1.0
 10
663.4573672193181
 20
-3518.023864669512
 30
0.0
 41
0.9998874504369013
 10
663.4171568039606
 20
-3517.908157465063
 30
0.0
 41
1.0
 10
663.3769463886025
 20
-3517.792450260612
 30
0.0
 41
0.9994041637543427
 10
663.3288491627343
 20
-3517.679792852834
 30
0.0
 41
1.0
 10
663.3204555942871
 20
-3517.660132723872
 30
0.0
 41
1.0
 10
663.3120620258397
 20
-3517.64047259491
 30
0.0
 41
1.0
 10
663.2563043638509
 20
-3517.509872262977
 30
0.0
 41
0.999184684070288
 10
663.1901916504638
 20
-3517.384196200413
 30
0.0
 41
1.0
 10
663.1879184376735
 20
-3517.379874967503
 30
0.0
 41
1.0
 10
663.1856452248833
 20
-3517.375553734594
 30
0.0
 41
1.0
 10
663.1240789370772
 20
-3517.258520137852
 30
0.0
 41
0.9989253167923254
 10
663.0519400889677
 20
-3517.147690281073
 30
0.0
 41
1.0
 10
663.0498318396187
 20
-3517.144451291547
 30
0.0
 41
1.0
 10
663.0477235902697
 20
-3517.141212302022
 30
0.0
 41
1.0
 10
662.9798012408584
 20
-3517.036860424293
 30
0.0
 41
0.998646717283653
 10
662.901406935583
 20
-3516.940128357033
 30
0.0
 41
1.0
 10
662.8996586781818
 20
-3516.937971152477
 30
0.0
 41
1.0
 10
662.8979104207805
 20
-3516.93581394792
 30
0.0
 41
1.0
 10
662.8230126303075
 20
-3516.843396289773
 30
0.0
 41
0.9984001104267203
 10
662.7381591692739
 20
-3516.760026075036
 30
0.0
 41
1.0
 10
662.7369848930566
 20
-3516.758872325276
 30
0.0
 41
1.0
 10
662.7358106168394
 20
-3516.757718575514
 30
0.0
 41
1.0
 10
662.6533057082411
 20
-3516.6766558603
 30
0.0
 41
0.9982442159082737
 10
662.5617935055684
 20
-3516.605918737779
 30
0.0
 41
1.0
 10
662.5613639146435
 20
-3516.605586672491
 30
0.0
 41
1.0
 10
662.5609343237186
 20
-3516.605254607204
 30
0.0
 41
1.0
 10
662.4702813028963
 20
-3516.535181615257
 30
0.0
 41
0.998245006083609
 10
662.3719793447536
 20
-3516.476318049191
 30
0.0
 41
1.0
 10
662.2736773866103
 20
-3516.417454483123
 30
0.0
 41
0.99839226396347
 10
662.1693447742822
 20
-3516.370095213816
 30
0.0
 41
1.0
 10
662.1688910196324
 20
-3516.369889242853
 30
0.0
 41
1.0
 10
662.1684372649826
 20
-3516.36968327189
 30
0.0
 41
1.0
 10
662.0631971433539
 20
-3516.321912060655
 30
0.0
 41
0.9986517147149345
 10
661.9535711976154
 20
-3516.285309822411
 30
0.0
 41
1.0
 10
661.9522153547616
 20
-3516.284857129549
 30
0.0
 41
1.0
 10
661.9508595119078
 20
-3516.284404436687
 30
0.0
 41
1.0
 10
661.838521880463
 20
-3516.246896812718
 30
0.0
 41
0.9989435598957029
 10
661.7232151061615
 20
-3516.219861408249
 30
0.0
 41
1.0
 10
661.7210548669962
 20
-3516.219354907743
 30
0.0
 41
1.0
 10
661.7188946278309
 20
-3516.218848407236
 30
0.0
 41
1.0
 10
661.5992673752008
 20
-3516.190800001755
 30
0.0
 41
0.9992249241239999
 10
661.4778043574053
 20
-3516.172249316325
 30
0.0
 41
1.0
 10
661.4749769808238
 20
-3516.171817499509
 30
0.0
 41
1.0
 10
661.4721496042424
 20
-3516.171385682694
 30
0.0
 41
1.0
 10
661.3450318332868
 20
-3516.151971363633
 30
0.0
 41
0.9994396597834324
 10
661.216899960216
 20
-3516.141105518941
 30
0.0
 41
1.0
 10
661.1786186252572
 20
-3516.137859183504
 30
0.0
 41
1.0
 10
661.1403372902984
 20
-3516.134612848066
 30
0.0
 41
1.0
 10
660.9356427473091
 20
-3516.117254332499
 30
0.0
 41
0.9987693403120118
 10
660.730235500131
 20
-3516.120260459405
 30
0.0
 41
1.0
 10
660.7097268316847
 20
-3516.120560602953
 30
0.0
 41
1.0
 10
660.6892181632384
 20
-3516.120860746502
 30
0.0
 41
1.0
 10
660.4701066308768
 20
-3516.124067435077
 30
0.0
 41
0.9989753644967004
 10
660.2521826308395
 20
-3516.147073448927
 30
0.0
 41
1.0
 10
660.0342586308045
 20
-3516.170079462777
 30
0.0
 41
0.9983190067305309
 10
659.8204610088728
 20
-3516.218149446352
 30
0.0
 41
1.0
 10
659.8026591056612
 20
-3516.222152003476
 30
0.0
 41
1.0
 10
659.7848572024496
 20
-3516.226154560602
 30
0.0
 41
1.0
 10
659.5354557740932
 20
-3516.282229658425
 30
0.0
 41
0.9985539388302948
 10
659.2935162667379
 20
-3516.364757010517
 30
0.0
 41
1.0
 10
659.2888254048167
 20
-3516.366357098149
 30
0.0
 41
1.0
 10
659.2841345428956
 20
-3516.367957185781
 30
0.0
 41
1.0
 10
659.0328133116972
 20
-3516.453684713136
 30
0.0
 41
0.9988468746493737
 10
658.7908726270961
 20
-3516.563120883261
 30
0.0
 41
1.0
 10
658.7845069831196
 20
-3516.56600023238
 30
0.0
 41
1.0
 10
658.7781413391432
 20
-3516.5688795815
 30
0.0
 41
1.0
 10
658.5234693665892
 20
-3516.684074449864
 30
0.0
 41
0.9991322885919515
 10
658.2792681984737
 20
-3516.820065114228
 30
0.0
 41
1.0
 10
658.2440641763876
 20
-3516.839669518207
 30
0.0
 41
1.0
 10
658.2088601543014
 20
-3516.859273922185
 30
0.0
 41
1.0
 10
658.0045067921852
 20
-3516.973074153748
 30
0.0
 41
0.9993860037849439
 10
657.8086247840373
 20
-3517.100906184925
 30
0.0
 41
1.0
 10
657.7973881583339
 20
-3517.108239174315
 30
0.0
 41
1.0
 10
657.7861515326304
 20
-3517.115572163704
 30
0.0
 41
1.0
 10
657.612742775895
 20
-3517.228738216099
 30
0.0
 41
0.9998821494954092
 10
657.4428900242649
 20
-3517.347174676256
 30
0.0
 41
1.0
 10
657.2730372726401
 20
-3517.465611136409
 30
0.0
 41
0.9997976482743515
 10
657.1080860118303
 20
-3517.590783952495
 30
0.0
 41
1.0
 10
657.0788134822213
 20
-3517.612997332054
 30
0.0
 41
1.0
 10
657.0495409526123
 20
-3517.635210711613
 30
0.0
 41
1.0
 10
656.8260446325864
 20
-3517.804810286815
 30
0.0
 41
0.9998091630798656
 10
656.6093440765355
 20
-3517.983010988214
 30
0.0
 41
1.0
 10
656.5833325715782
 20
-3518.004401189108
 30
0.0
 41
1.0
 10
656.5573210666208
 20
-3518.025791390002
 30
0.0
 41
1.0
 10
656.2885975006559
 20
-3518.24677249319
 30
0.0
 41
0.9995035112317594
 10
656.0343257451283
 20
-3518.48424012722
 30
0.0
 41
1.0
 10
656.0150311243515
 20
-3518.502259619538
 30
0.0
 41
1.0
 10
655.9957365035748
 20
-3518.520279111856
 30
0.0
 41
1.0
 10
655.7488903780475
 20
-3518.750811855365
 30
0.0
 41
0.9994630424299329
 10
655.5176735664818
 20
-3518.997017341833
 30
0.0
 41
1.0
 10
655.5103078889391
 20
-3519.004860500859
 30
0.0
 41
1.0
 10
655.5029422113964
 20
-3519.012703659885
 30
0.0
 41
1.0
 10
655.2864567549155
 20
-3519.243222828301
 30
0.0
 41
0.9995160693750027
 10
655.08472469585
 20
-3519.486757664048
 30
0.0
 41
1.0
 10
655.0808572556869
 20
-3519.491426512466
 30
0.0
 41
1.0
 10
655.0769898155236
 20
-3519.496095360885
 30
0.0
 41
1.0
 10
654.8829926367819
 20
-3519.730292499798
 30
0.0
 41
0.9996561470515072
 10
654.7015401994544
 20
-3519.974338024691
 30
0.0
 41
1.0
 10
654.6892248676519
 20
-3519.990901602774
 30
0.0
 41
1.0
 10
654.6769095358494
 20
-3520.007465180857
 30
0.0
 41
1.0
 10
654.5200877621215
 20
-3520.218383549592
 30
0.0
 41
0.9998349055174648
 10
654.3710331982581
 20
-3520.434860716917
 30
0.0
 41
1.0
 10
654.2219786344092
 20
-3520.651337884221
 30
0.0
 41
0.9999728109556615
 10
654.0761328426072
 20
-3520.869989735304
 30
0.0
 41
1.0
 10
654.0735024117669
 20
-3520.873933274334
 30
0.0
 41
1.0
 10
654.0708719809264
 20
-3520.877876813364
 30
0.0
 41
1.0
 10
653.9197653274116
 20
-3521.104415742557
 30
0.0
 41
0.999997214736204
 10
653.7697297066402
 20
-3521.331665428263
 30
0.0
 41
1.0
 10
653.759786621431
 20
-3521.346725605154
 30
0.0
 41
1.0
 10
653.7498435362216
 20
-3521.361785782045
 30
0.0
 41
1.0
 10
653.5799217449903
 20
-3521.619155821597
 30
0.0
 41
0.9999371979008215
 10
653.4158110461809
 20
-3521.880269649152
 30
0.0
 41
1.0
 10
653.4087932774542
 20
-3521.891435505288
 30
0.0
 41
1.0
 10
653.4017755087275
 20
-3521.902601361423
 30
0.0
 41
1.0
 10
653.2236292724704
 20
-3522.18604690124
 30
0.0
 41
0.9998272025610986
 10
653.0561424907055
 20
-3522.475918654726
 30
0.0
 41
1.0
 10
653.0257121466578
 20
-3522.528584883638
 30
0.0
 41
1.0
 10
652.9952818026102
 20
-3522.581251112551
 30
0.0
 41
1.0
 10
652.7669343327522
 20
-3522.976455323859
 30
0.0
 41
0.9995217214838266
 10
652.5634549536398
 20
-3523.385019979585
 30
0.0
 41
1.0
 10
652.5481678283653
 20
-3523.415714879
 30
0.0
 41
1.0
 10
652.5328807030908
 20
-3523.446409778414
 30
0.0
 41
1.0
 10
652.3590701179141
 20
-3523.795402694572
 30
0.0
 41
0.9998269762607493
 10
652.1983611853749
 20
-3524.150619268009
 30
0.0
 41
1.0
 10
652.0376522528334
 20
-3524.505835841449
 30
0.0
 41
0.9998944747386749
 10
651.887330663704
 20
-3524.865571292708
 30
0.0
 41
1.0
 10
651.877423324522
 20
-3524.889280602542
 30
0.0
 41
1.0
 10
651.8675159853401
 20
-3524.912989912376
 30
0.0
 41
1.0
 10
651.7062218642347
 20
-3525.298983792412
 30
0.0
 41
0.9999506734411291
 10
651.5526268064233
 20
-3525.688105402135
 30
0.0
 41
1.0
 10
651.523426875892
 20
-3525.76208124572
 30
0.0
 41
1.0
 10
651.4942269453609
 20
-3525.836057089305
 30
0.0
 41
1.0
 10
651.3990317486315
 20
-3526.077227011807
 30
0.0
 41
0.999991239393446
 10
651.3058588605711
 20
-3526.319185417238
 30
0.0
 41
1.0
 10
651.2126859725171
 20
-3526.561143822653
 30
0.0
 41
0.9999927113937948
 10
651.1213633837311
 20
-3526.803806637651
 30
0.0
 41
1.0
 10
651.0934265209389
 20
-3526.87804060164
 30
0.0
 41
1.0
 10
651.0654896581468
 20
-3526.95227456563
 30
0.0
 41
1.0
 10
650.9182933437651
 20
-3527.343405308635
 30
0.0
 41
0.9999487550949752
 10
650.7790460938279
 20
-3527.737436038984
 30
0.0
 41
1.0
 10
650.7318588739483
 20
-3527.870962659586
 30
0.0
 41
1.0
 10
650.6846716540689
 20
-3528.004489280187
 30
0.0
 41
1.0
 10
650.4953003853389
 20
-3528.540356949806
 30
0.0
 41
0.9999808436934177
 10
650.3125772080526
 20
-3529.078527812344
 30
0.0
 41
1.0
 10
650.1298540307713
 20
-3529.616698674869
 30
0.0
 41
0.9999873932887242
 10
649.9525446133372
 20
-3530.156677384889
 30
0.0
 41
1.0
 10
649.9123598995966
 20
-3530.2790560504
 30
0.0
 41
1.0
 10
649.8721751858561
 20
-3530.401434715911
 30
0.0
 41
1.0
 10
649.6144963409419
 20
-3531.186170756952
 30
0.0
 41
0.9999794883043353
 10
649.3668907710216
 20
-3531.97414316952
 30
0.0
 41
1.0
 10
649.3445862521362
 20
-3532.045124390027
 30
0.0
 41
1.0
 10
649.3222817332509
 20
-3532.116105610535
 30
0.0
 41
1.0
 10
649.0371654054819
 20
-3533.023451114625
 30
0.0
 41
0.9999982761816034
 10
648.7554205254511
 20
-3533.931849158872
 30
0.0
 41
1.0
 10
645.5791398603059
 20
-3544.029388620879
 30
0.0
 41
1.0
 10
642.4028591951607
 20
-3554.126928082885
 30
0.0
 41
1.0
 10
640.5053579722079
 20
-3554.126928082885
 30
0.0
 41
1.0
 10
638.6078567492551
 20
-3554.126928082885
 30
0.0
 41
1.0
 10
645.0844257215615
 20
-3533.472283682993
 30
0.0
 41
1.0
 10
651.5609946938679
 20
-3512.817639283101
 30
0.0
 41
1.0
  0
LWPOLYLINE
  5
76
330
23
100
AcDbEntity
  8
0
  6
Continuous
 62
     7
370
    15
390
1D
100
AcDbPolyline
 90
      232
 70
   128
 43
0.0
 10
600.1539031462138
 20
-3514.986324946131
 42
0.0004370800701008
 10
600.0481487978723
 20
-3515.1236582249
 10
599.9695803358148
 20
-3515.225872450437
 42
0.0030481992169638
 10
599.7089029016029
 20
-3515.56931583509
 10
599.6318795580756
 20
-3515.672089402702
 42
0.0042058245764578
 10
599.2239094567148
 20
-3516.226100892879
 10
599.1190992117346
 20
-3516.37096658641
 42
0.012094889874306
 10
598.5270113782094
 20
-3517.232465795512
 10
598.3346263799639
 20
-3517.527427265964
 42
0.0141601263948872
 10
597.7273382861239
 20
-3518.518765939429
 10
597.6482637512778
 20
-3518.656453874282
 42
0.0071131081302325
 10
597.2377191047951
 20
-3519.395459471969
 42
0.0068458791001156
 10
596.8479600511112
 20
-3520.145642598916
 10
596.8343363261935
 20
-3520.172766026368
 42
0.0064120880293444
 10
596.4380518260963
 20
-3520.987614976224
 10
596.4229824550708
 20
-3521.019638689648
 42
0.0058857236446727
 10
596.0174716713361
 20
-3521.908390911698
 10
596.0011218187395
 20
-3521.945371218986
 42
0.0053189741894265
 10
595.5837131934047
 20
-3522.917298166822
 10
595.5662175820418
 20
-3522.959261923214
 42
0.0047503650418857
 10
595.1342701297367
 20
-3524.023660789643
 10
595.1157336330441
 20
-3524.07061354185
 42
0.0042071762174656
 10
594.6666388655838
 20
-3525.236800730002
 10
594.6471400608913
 20
-3525.288733079728
 42
0.003668008648545
 10
594.1782307742718
 20
-3526.566003848778
 10
594.1578152145715
 20
-3526.62290091748
 42
0.0032573142627999
 10
593.6665506426398
 20
-3528.020606236982
 10
593.529249600947
 20
-3528.419532405121
 42
0.0026133366649536
 10
592.8323592034408
 20
-3530.479258972437
 10
592.7058456284414
 20
-3530.859720643217
 42
0.0020592950739362
 10
592.2781194905052
 20
-3532.163927948449
 10
592.2720159081813
 20
-3532.182800925261
 42
0.0025609928534578
 10
591.8683749052074
 20
-3533.45309137
 10
591.8631921709477
 20
-3533.469696051901
 42
0.0031362356242973
 10
591.4842105996001
 20
-3534.71122176424
 10
591.4799485137497
 20
-3534.725504376648
 42
0.0037229918028222
 10
591.1263477398926
 20
-3535.943474980611
 10
591.1229905614816
 20
-3535.955368760953
 42
0.0043077623706735
 10
590.7955089573496
 20
-3537.155006224497
 42
0.0047654161827141
 10
590.4898515123184
 20
-3538.360378402299
 10
590.4209222946395
 20
-3538.643501956602
 42
0.0112969368447378
 10
590.0291935783521
 20
-3540.426886277851
 10
589.973180800159
 20
-3540.712542370045
 42
0.0130056762571974
 10
589.5715063128657
 20
-3543.086424513335
 10
589.5304268125715
 20
-3543.37458074029
 42
0.0138721532145186
 10
589.3230208034958
 20
-3545.188239711941
 10
589.2844298276802
 20
-3545.635235155788
 42
0.0071254697005729
 10
589.2177365358348
 20
-3546.561609173486
 10
589.2078145875086
 20
-3546.7336171626
 42
0.0028881799204375
 10
589.1775380009285
 20
-3547.317100582291
 42
0.0060297297136113
 10
589.1576736013776
 20
-3547.900998454517
 10
589.1555490380433
 20
-3547.997783198386
 42
0.0229523164156012
 10
589.1710110936148
 20
-3548.643292890954
 10
589.1794626406553
 20
-3548.764099958983
 42
0.0123673300662487
 10
589.2176199336922
 20
-3549.166341409336
 42
0.0128577674483363
 10
589.2760107145051
 20
-3549.566137109192
 10
589.2902624612788
 20
-3549.648794738383
 42
0.0285717853769813
 10
589.4192504646699
 20
-3550.205027041009
 10
589.4465875120039
 20
-3550.298336579967
 42
0.0316283099158821
 10
589.6782086718315
 20
-3550.936365583616
 10
589.6843060553415
 20
-3550.950338328265
 42
0.0338984824235433
 10
589.9831694772769
 20
-3551.525470256646
 10
589.9877869360176
 20
-3551.533052315199
 42
0.0350228718351398
 10
590.3525075173637
 20
-3552.047156284551
 10
590.3542780209116
 20
-3552.049314440077
 42
0.0347476747528815
 10
590.783127395394
 20
-3552.503684534519
 42
0.0331337701907461
 10
591.2696140468886
 20
-3552.895941858676
 10
591.271814243919
 20
-3552.897487265019
 42
0.030523331908775
 10
591.8089036350673
 20
-3553.227743605203
 10
591.8153637240682
 20
-3553.231191628927
 42
0.0273744481150132
 10
592.4004711472126
 20
-3553.503467916706
 10
592.4106802174919
 20
-3553.507555085647
 42
0.0240964406198268
 10
593.0416343687876
 20
-3553.725522538211
 10
593.0548010272032
 20
-3553.72937201756
 42
0.0209636179811744
 10
593.7296013325066
 20
-3553.896308313424
 10
593.7448662534058
 20
-3553.899412139428
 42
0.0181388704695019
 10
594.4615110374098
 20
-3554.018244325856
 10
594.478072734159
 20
-3554.02037669349
 42
0.0156086547586055
 10
595.2344474625368
 20
-3554.093849066643
 10
595.3208379671873
 20
-3554.099526071601
 42
0.0137148329022169
 10
595.9761842577885
 20
-3554.124566582103
 10
596.068056637679
 20
-3554.125555448334
 42
0.0051057823883784
 10
596.540347810825
 20
-3554.125815957152
 42
0.0052256693312243
 10
597.0125423783913
 20
-3554.116318308224
 10
597.1529959458811
 20
-3554.112024376196
 42
0.0161507179048031
 10
597.9044701020839
 20
-3554.064723635543
 10
597.9444960228298
 20
-3554.060903244967
 42
0.0101216737832473
 10
598.7725504658092
 20
-3553.964917384237
 10
598.8406570446647
 20
-3553.955621990617
 42
0.0245291776399924
 10
599.7942363557707
 20
-3553.777471834464
 10
599.9638829868114
 20
-3553.737079993773
 42
0.0143509212555407
 10
600.6771451946942
 20
-3553.545470726215
 42
0.0156557857042877
 10
601.3775773241591
 20
-3553.311448294574
 10
601.392579753138
 20
-3553.305907971069
 42
0.0170137333628202
 10
602.1057717444992
 20
-3553.014592741327
 10
602.1199795893157
 20
-3553.008217070199
 42
0.0183105364410538
 10
602.8386789256461
 20
-3552.653546986552
 10
602.8525724549257
 20
-3552.646046116807
 42
0.0194899958152587
 10
603.5695339368957
 20
-3552.222088153024
 10
603.5835616955671
 20
-3552.213037468435
 42
0.0204869852946804
 10
604.2915902997513
 20
-3551.713997438266
 10
604.306121516929
 20
-3551.702837307567
 42
0.0212516938558363
 10
604.998101379149
 20
-3551.123029313774
 10
605.0911347672982
 20
-3551.038094693589
 42
0.021524891825482
 10
605.6111871050716
 20
-3550.520566135601
 10
605.7012465738233
 20
-3550.422877892912
 42
0.0114578554953128
 10
606.0108308811875
 20
-3550.071232025985
 10
606.0332199531532
 20
-3550.044594498903
 42
0.0061531305136795
 10
606.2861692451496
 20
-3549.736015432283
 42
0.0006325587127649
 10
606.5349262137588
 20
-3549.424008680547
 10
606.5810064835562
 20
-3549.366061639612
 42
0.0041897761553594
 10
606.9179172914788
 20
-3548.935022887518
 10
607.0348415312859
 20
-3548.782820193519
 42
0.0092993880036558
 10
607.5880653857446
 20
-3548.034262665735
 10
607.75285437213
 20
-3547.802388658616
 42
0.0159321727085389
 10
608.4460673374159
 20
-3546.758040217102
 10
608.5347796082008
 20
-3546.614681088591
 42
0.0085547317021464
 10
609.0038031388456
 20
-3545.826931190152
 42
0.0084601156888213
 10
609.4457554937218
 20
-3545.023677492103
 10
609.4619864413904
 20
-3544.992958127542
 42
0.008142965428518
 10
609.908484982266
 20
-3544.113515102459
 10
609.9262053106335
 20
-3544.077157418421
 42
0.0076574581330816
 10
610.3790203317734
 20
-3543.110791667901
 10
610.3979796132143
 20
-3543.068662711309
 42
0.0070682724201533
 10
610.8588694288314
 20
-3542.004588101738
 10
610.8788499967912
 20
-3541.956609723723
 42
0.0064559514444673
 10
611.3495164131555
 20
-3540.783985190683
 10
611.3703351294846
 20
-3540.730115339801
 42
0.0058311413905506
 10
611.8524286030121
 20
-3539.438051151029
 10
611.8739387577851
 20
-3539.378282468713
 42
0.0052312425818327
 10
612.3691013138704
 20
-3537.955877641034
 10
612.3911889866265
 20
-3537.890224216904
 42
0.0046680544796128
 10
612.9010458420845
 20
-3536.326571585429
 10
612.9850301421845
 20
-3536.060605110804
 42
0.004166685644494
 10
613.3916021669725
 20
-3534.734667560799
 10
613.4669270483014
 20
-3534.481505345487
 42
0.0015170975158327
 10
613.7093002051262
 20
-3533.657768642504
 42
-0.0004887993112343
 10
613.9499797513682
 20
-3532.833531818435
 10
614.1029342663626
 20
-3532.311617046538
 42
0.0002583378929194
 10
614.6493634064863
 20
-3530.443503640196
 10
614.8129091056826
 20
-3529.883305120883
 42
0.0006636169673093
 10
615.200644625667
 20
-3528.54859927384
 10
615.2108379343764
 20
-3528.513336108027
 42
0.0010589131323328
 10
615.5737353361943
 20
-3527.247873421983
 10
615.5836994771582
 20
-3527.212847607932
 42
0.0015655524463877
 10
615.9202398915209
 20
-3526.015614249541
 10
615.9299002923337
 20
-3525.98082993173
 42
0.0021640440476421
 10
616.2384802363229
 20
-3524.850775895633
 10
616.2477486751885
 20
-3524.816246435623
 42
0.0028763871851037
 10
616.5267801112886
 20
-3523.752310533951
 10
616.5355518396266
 20
-3523.718062577628
 42
0.0037310511946142
 10
616.7834652232968
 20
-3522.719167389594
 10
616.7916156638726
 20
-3522.685246847112
 42
0.0047652197769134
 10
617.0068634648918
 20
-3521.750291310493
 10
617.0142446635377
 20
-3521.716772200196
 42
0.0060276699301585
 10
617.1953048618459
 20
-3520.844620609905
 10
617.2017422424242
 20
-3520.811618181286
 42
0.0075824337759535
 10
617.3471208612551
 20
-3520.001083852434
 10
617.352411616015
 20
-3519.968773957537
 42
0.0095130624606772
 10
617.4606420872781
 20
-3519.218595251389
 10
617.4746145350437
 20
-3519.106728135152
 42
0.0121054653225062
 10
617.527797196199
 20
-3518.576936478208
 10
617.5295301757187
 20
-3518.554129592341
 42
0.0069050827385444
 10
617.5597078117935
 20
-3518.068247138662
 10
617.5619784111303
 20
-3518.021194624576
 42
0.0169063976696399
 10
617.5676329690912
 20
-3517.628809169971
 10
617.5652916660284
 20
-3517.508137647265
 42
0.0052007732904028
 10
617.5607847688426
 20
-3517.356950866968
 42
0.0054038123297033
 10
617.5208577451631
 20
-3517.116914274938
 10
617.510686033424
 20
-3517.059597301786
 42
0.0112050460467273
 10
617.4399173093071
 20
-3516.706944425108
 10
617.4042673852257
 20
-3516.547861251666
 42
0.0240764468012986
 10
617.2224726529329
 20
-3515.887387180663
 10
617.1853551273056
 20
-3515.774146850673
 42
0.0256812331832312
 10
616.8986292869274
 20
-3515.030698438161
 10
616.887810435284
 20
-3515.00643576818
 42
0.0268360501217836
 10
616.5489559535848
 20
-3514.34444950014
 10
616.5378831383175
 20
-3514.32541015952
 42
0.0274670231728729
 10
616.1534811854881
 20
-3513.740835409681
 10
616.142718585561
 20
-3513.726277114596
 42
0.0275035967100045
 10
615.7195728264392
 20
-3513.21524533399
 10
615.7094338245049
 20
-3513.204287158728
 42
0.0269557673523105
 10
615.254626737627
 20
-3512.763002586805
 10
615.2451406220642
 20
-3512.754742677886
 42
0.0259124802214562
 10
614.7660309592002
 20
-3512.379361623578
 10
614.7569692688346
 20
-3512.372990618916
 42
0.0245162152998451
 10
614.2611365626468
 20
-3512.059524600697
 10
614.2520834699969
 20
-3512.054404206294
 42
0.0229282588841626
 10
613.7472443563437
 20
-3511.798667821297
 10
613.7376833686725
 20
-3511.794363221774
 42
0.0212984135689834
 10
613.2316074637467
 20
-3511.591965387289
 10
613.2209988938063
 20
-3511.588238261768
 42
0.0197555462347956
 10
612.7214422183617
 20
-3511.434607425839
 42
0.0183511896784758
 10
612.2115847674396
 20
-3511.319441611909
 10
612.0388543739865
 20
-3511.287036031138
 42
0.0338057877149288
 10
611.4678396754688
 20
-3511.219419220858
 10
611.2858288653882
 20
-3511.210259910335
 42
0.0091990524490906
 10
611.0741346481169
 20
-3511.20350819849
 42
0.0028333980790585
 10
610.8623068161193
 20
-3511.201851983457
 10
610.8604759100324
 20
-3511.201848043809
 42
-0.0023619827818318
 10
610.6449838798166
 20
-3511.200366361652
 10
610.5721735394688
 20
-3511.199521748726
 42
0.0008824598480187
 10
610.2110615599962
 20
-3511.195970192251
 10
610.1233386949572
 20
-3511.195262269198
 42
0.0038132665768256
 10
609.5867729031951
 20
-3511.195024397065
 10
609.5537055936126
 20
-3511.195261929352
 42
0.0060665569336861
 10
608.951144610425
 20
-3511.206902528194
 10
608.9226439463793
 20
-3511.207799144129
 42
0.0080356953338225
 10
608.2637265136874
 20
-3511.239134588264
 10
608.2395864835263
 20
-3511.240671754144
 42
0.0098996399104403
 10
607.5340603142444
 20
-3511.299642212538
 10
607.5139688954752
 20
-3511.301722804937
 42
0.011774098136919
 10
606.771655178762
 20
-3511.396307299999
 10
606.7552097858126
 20
-3511.398797533138
 42
0.0137435215131867
 10
605.986032146849
 20
-3511.53699148026
 10
605.9727180685957
 20
-3511.539763272728
 42
0.0158359869388462
 10
605.1867238809853
 20
-3511.729547449691
 10
605.1758975072564
 20
-3511.73252733143
 42
0.0180554124029993
 10
604.3832674180295
 20
-3511.981803363909
 10
604.3741538418648
 20
-3511.985035436441
 42
0.0203657431280355
 10
603.5851988062389
 20
-3512.301556119473
 10
603.5769117282274
 20
-3512.305279362356
 42
0.0226819684655516
 10
602.8020396158239
 20
-3512.696564519696
 10
602.7936400337838
 20
-3512.701295703538
 42
0.0248634984604679
 10
602.0432761514224
 20
-3513.174548995431
 10
601.9468862938513
 20
-3513.242263079085
 42
0.0267044190887614
 10
601.3983009000204
 20
-3513.67314383082
 42
0.0139303002194559
 10
600.8859665681482
 20
-3514.147621512639
 10
600.876259796701
 20
-3514.157126838364
 42
0.02834609634376
 10
600.3881146082481
 20
-3514.692588159252
 10
600.3087775979335
 20
-3514.7901913142
 42
0.0070695364819118
 10
600.1539031462138
 20
-3514.986324946131
 42
0.0070695364819118
  0
LWPOLYLINE
  5
77
330
23
100
AcDbEntity
  8
0
  6
Continuous
 62
     7
370
    15
390
1D
100
AcDbPolyline
 90
      226
 70
   128
 43
0.0
 10
593.096262271721
 20
-3546.429502558499
 42
-0.0026277636627839
 10
593.0961065041208
 20
-3546.295958707025
 10
593.096541220585
 20
-3546.189648272127
 42
-0.0088680296731303
 10
593.1040944531709
 20
-3545.843616707327
 10
593.108787171396
 20
-3545.725056656413
 42
-0.0077381705620052
 10
593.1408793929222
 20
-3545.142535664817
 10
593.1426152152684
 20
-3545.117959197447
 42
-0.0068872530528872
 10
593.1958793747639
 20
-3544.487515693317
 10
593.1982878231369
 20
-3544.463033735271
 42
-0.00621300214878
 10
593.2734752567949
 20
-3543.785294352775
 10
593.2764830638628
 20
-3543.760946608961
 42
-0.0056726929670745
 10
593.3743267828644
 20
-3543.036556164754
 10
593.3778736741561
 20
-3543.012368564244
 42
-0.0052341884490632
 10
593.4990948466798
 20
-3542.241982053187
 10
593.5031308242294
 20
-3542.217972193223
 42
-0.004976845016919
 10
593.6486081870808
 20
-3541.402283058365
 10
593.6971062165256
 20
-3541.145187092346
 42
-0.0089029805624627
 10
593.9712679201149
 20
-3539.821636197502
 10
594.0367586707522
 20
-3539.531573336454
 42
-0.008031825709999
 10
594.4958558994327
 20
-3537.640154072751
 10
594.5198257523301
 20
-3537.547892802367
 42
-0.0074265721317179
 10
595.0878488300339
 20
-3535.487763645593
 10
595.1276079162594
 20
-3535.35149552444
 42
-0.0069711922704445
 10
595.7822170732767
 20
-3533.218960043771
 10
595.9021209674896
 20
-3532.846917327024
 42
-0.0052070422894357
 10
596.3609714180063
 20
-3531.472373172967
 10
596.3955338023519
 20
-3531.372318611729
 42
-0.000916700445021
 10
596.8017175769296
 20
-3530.203406915425
 42
-0.0025162726942497
 10
597.2159128374587
 20
-3529.037324387089
 10
597.2903620610633
 20
-3528.831025295295
 42
-0.0028212681457262
 10
597.7867138989918
 20
-3527.479564030947
 10
597.8063754244957
 20
-3527.426949141586
 42
-0.0031964916819743
 10
598.2789599398178
 20
-3526.186539617339
 10
598.2982288478186
 20
-3526.136919637046
 42
-0.0036281836450875
 10
598.7484407700182
 20
-3525.002038275266
 10
598.7673175903222
 20
-3524.955443412287
 42
-0.0041269166832043
 10
599.1965529836515
 20
-3523.920561620304
 10
599.2618188964973
 20
-3523.766804727572
 42
-0.004747221305595
 10
599.5759085076003
 20
-3523.045961791815
 10
599.5896966700318
 20
-3523.015120597117
 42
-0.002565165999472
 10
599.886412737717
 20
-3522.360464485654
 42
-0.005714463499642
 10
600.1939121252581
 20
-3521.710845138933
 10
600.2499735360557
 20
-3521.595828374154
 42
-0.0065388068374189
 10
600.6169075915417
 20
-3520.867363380811
 10
600.6338245031022
 20
-3520.834844222065
 42
-0.0074510843026548
 10
600.9861889948544
 20
-3520.181467659826
 10
601.0025483359178
 20
-3520.152186105286
 42
-0.008464897985546
 10
601.3418160421165
 20
-3519.568368083367
 10
601.3575282950917
 20
-3519.542354100067
 42
-0.0095638542809956
 10
601.6851991902812
 20
-3519.022576356108
 10
601.700149077625
 20
-3518.999837633196
 42
-0.0107191626805471
 10
602.0177522383998
 20
-3518.538615164109
 10
602.031785705852
 20
-3518.519142979393
 42
-0.0118458573906483
 10
602.340881902887
 20
-3518.110998588758
 42
-0.012918451818971
 10
602.669787150094
 20
-3517.718677556413
 10
602.7300766948185
 20
-3517.650425398615
 42
-0.0217742579632383
 10
603.083301339487
 20
-3517.284011858118
 10
603.104792428413
 20
-3517.263578191707
 42
-0.0097266568650513
 10
603.4369076661192
 20
-3516.959883042837
 42
-0.0187720905720454
 10
603.7856028178975
 20
-3516.67574533606
 10
603.8470147992432
 20
-3516.629427171269
 42
-0.0179428207520108
 10
604.3118562392389
 20
-3516.304322817043
 10
604.3191608930734
 20
-3516.299594947266
 42
-0.0170047877698211
 10
604.7906881681312
 20
-3516.016673918965
 10
604.7982541456216
 20
-3516.012477308894
 42
-0.0160190788359478
 10
605.2720712408949
 20
-3515.769174704916
 42
-0.0151102861495353
 10
605.7601348057888
 20
-3515.555809152806
 10
605.8649078102118
 20
-3515.513728887017
 42
-0.0271945441886532
 10
606.5822329283326
 20
-3515.269999265604
 10
606.7203625292989
 20
-3515.231300183074
 42
-0.0237596594025393
 10
607.5519562233494
 20
-3515.04039875911
 10
607.6880819308146
 20
-3515.015889382856
 42
-0.0213715440550998
 10
608.2598317937009
 20
-3514.937995319837
 10
608.3801261261262
 20
-3514.926815890436
 42
-0.0101465655820462
 10
608.7151111901252
 20
-3514.902528803907
 10
608.7337919625318
 20
-3514.901554973912
 42
-0.0100375910880775
 10
609.0321001636468
 20
-3514.892003338061
 10
609.0526187029968
 20
-3514.891758460033
 42
-0.0103625633384724
 10
609.3100346923172
 20
-3514.894021327086
 10
609.3545659948629
 20
-3514.895336044016
 42
-0.0115689250234474
 10
609.5226674699069
 20
-3514.904195056506
 42
-0.0072438037440325
 10
609.6903440287659
 20
-3514.919373456003
 10
609.7239450477308
 20
-3514.922906541453
 42
-0.0217917313127662
 10
609.9570845743601
 20
-3514.957746326896
 10
610.0882847555
 20
-3514.983239543726
 42
-0.0332943556753925
 10
610.4970690855482
 20
-3515.091320126338
 10
610.557414222648
 20
-3515.111656280575
 42
-0.0184824084793009
 10
610.8344243355791
 20
-3515.216558311348
 42
-0.0198002050692937
 10
611.1025730165778
 20
-3515.342326431747
 10
611.1063462913316
 20
-3515.344282005507
 42
-0.021224234299064
 10
611.3706241761289
 20
-3515.495807483089
 10
611.3742547672225
 20
-3515.49809908751
 42
-0.0226090605784287
 10
611.6312625696693
 20
-3515.677058374641
 10
611.6349514531407
 20
-3515.679882880614
 42
-0.023845705223695
 10
611.8813156157263
 20
-3515.887874672338
 10
611.8852210728447
 20
-3515.891504427871
 42
-0.0248160564147859
 10
612.1176240874455
 20
-3516.130053630287
 10
612.1218313542502
 20
-3516.134824297697
 42
-0.0254109591450552
 10
612.3370417899814
 20
-3516.405401069625
 10
612.3415378338102
 20
-3516.411684166427
 42
-0.0255528488279761
 10
612.536431191406
 20
-3516.715738274898
 10
612.5410933912367
 20
-3516.723901498111
 42
-0.0252146793221019
 10
612.7126554432549
 20
-3517.062905990104
 10
612.7172599215702
 20
-3517.07327015393
 42
-0.0244265635960073
 10
612.8625693090925
 20
-3517.448763298021
 10
612.8810621120301
 20
-3517.5044941347
 42
-0.0231319612908806
 10
612.972907670014
 20
-3517.831096228303
 42
-0.0112130424362679
 10
613.0421797150905
 20
-3518.163503428679
 10
613.0445847653154
 20
-3518.176496602454
 42
-0.0210527881239255
 10
613.095957716057
 20
-3518.538607893335
 10
613.1029789057009
 20
-3518.609418990431
 42
-0.019002989242486
 10
613.13386185279
 20
-3519.116490682974
 10
613.1354818056781
 20
-3519.187441911714
 42
-0.0137974553660743
 10
613.1323841000068
 20
-3519.837504725185
 10
613.1306931900959
 20
-3519.889742214365
 42
-0.0081336634215251
 10
613.1009745196508
 20
-3520.500437149565
 42
-0.0073526923570025
 10
613.0523574529019
 20
-3521.109933638132
 10
613.0498346053361
 20
-3521.136606987467
 42
-0.0066886138693437
 10
612.9783634332445
 20
-3521.79777907445
 10
612.9750492543033
 20
-3521.825022312445
 42
-0.0061359187357722
 10
612.8793480502013
 20
-3522.538550272646
 10
612.8752730480558
 20
-3522.566339878303
 42
-0.0056698610066888
 10
612.7539723865215
 20
-3523.33289701598
 10
612.7491615198755
 20
-3523.361215254441
 42
-0.0052721077276141
 10
612.6008971182769
 20
-3524.181469933793
 10
612.5953708205928
 20
-3524.210303204568
 42
-0.0049289272179135
 10
612.4187825843943
 20
-3525.084920226806
 10
612.4125575950277
 20
-3525.114257932445
 42
-0.0047415956712054
 10
612.2060816119617
 20
-3526.043851447271
 10
612.1365451912435
 20
-3526.343465638032
 42
-0.0084404470902302
 10
611.756512304099
 20
-3527.863913687097
 10
611.7442589281285
 20
-3527.909641935401
 42
-0.0039635940259498
 10
611.3013515595633
 20
-3529.511619663886
 10
611.2745979692014
 20
-3529.60548289708
 42
-0.0072475040837405
 10
610.7397041934748
 20
-3531.383922329862
 10
610.5992795398228
 20
-3531.827403029798
 42
-0.0051345458826707
 10
610.0257607957027
 20
-3533.576053405427
 10
609.9827082621845
 20
-3533.702905939637
 42
-0.0019150016601634
 10
609.4716414484343
 20
-3535.190004180139
 10
609.4587062396463
 20
-3535.227179109968
 42
-0.0021524362751785
 10
608.9617501375142
 20
-3536.635830753398
 10
608.9433292961186
 20
-3536.687337910008
 42
-0.0024331286823037
 10
608.4708187780493
 20
-3537.988536526237
 10
608.4527228729481
 20
-3538.037623138946
 42
-0.0027449721785745
 10
608.0034937312774
 20
-3539.235882896794
 10
607.9857137165028
 20
-3539.282528076473
 42
-0.003108322976907
 10
607.5586287432731
 20
-3540.382376151658
 10
607.541156479909
 20
-3540.426555583407
 42
-0.0035311343281245
 10
607.1350741087383
 20
-3541.432521834834
 10
607.1179034304546
 20
-3541.474207281827
 42
-0.0040245640945601
 10
606.7316798228541
 20
-3542.39082592704
 10
606.7148075956424
 20
-3542.429984663197
 42
-0.00460151358511
 10
606.3472950093204
 20
-3543.261794722468
 10
606.3307226536768
 20
-3543.298389001344
 42
-0.005276863826946
 10
605.9807676157527
 20
-3544.049934769913
 10
605.9645031944989
 20
-3544.083921447
 42
-0.0060672675642454
 10
605.6309439689669
 20
-3544.759752693228
 10
605.6150050080007
 20
-3544.791083211229
 42
-0.0069904648870065
 10
605.2966682200008
 20
-3545.39575482455
 10
605.2810854207773
 20
-3545.424375923008
 42
-0.0080637022763247
 10
604.9767817000875
 20
-3545.96244652931
 10
604.9616036348266
 20
-3545.988302260509
 42
-0.0093006455663841
 10
604.670122281762
 20
-3546.464331057518
 10
604.655420948277
 20
-3546.487366995861
 42
-0.0107060778054603
 10
604.3755238613978
 20
-3546.905907630623
 10
604.3614003248448
 20
-3546.926078715746
 42
-0.0122723111414198
 10
604.0918128884423
 20
-3547.291665374732
 10
604.0911604413341
 20
-3547.292506150352
 42
-0.0141836319618272
 10
603.8039972353861
 20
-3547.641645666011
 10
603.7901017240836
 20
-3547.657595666539
 42
-0.0175957477209937
 10
603.5102893880128
 20
-3547.95683744335
 42
-0.008046635967618
 10
603.2153618579607
 20
-3548.241482499644
 10
603.1232927689174
 20
-3548.327523375835
 42
-0.0269600260393894
 10
602.6167322769528
 20
-3548.752169892853
 10
602.4835980043612
 20
-3548.852072722098
 42
-0.0178362839753658
 10
602.0037090250459
 20
-3549.186108574606
 10
601.989219083036
 20
-3549.195445599021
 42
-0.0174650732650447
 10
601.5165466881624
 20
-3549.477167528934
 42
-0.0169240130168898
 10
601.0256141964556
 20
-3549.725752048485
 10
600.9336418853313
 20
-3549.768475959623
 42
-0.031888303684225
 10
600.2329401740911
 20
-3550.041152578644
 10
600.0962091037559
 20
-3550.084553819596
 42
-0.0284435909900469
 10
599.3441088511798
 20
-3550.276988690543
 10
599.2737925301805
 20
-3550.290775882201
 42
-0.0243909341012047
 10
598.6469056083448
 20
-3550.38221794426
 10
598.5463441548068
 20
-3550.391909038063
 42
-0.0196639292934425
 10
598.115152999748
 20
-3550.416405609091
 10
598.0115048574326
 20
-3550.418212130564
 42
-0.0100501510692808
 10
597.7866582940926
 20
-3550.417611333858
 10
597.7233385713803
 20
-3550.416169190087
 42
-0.0019752031115678
 10
597.6251538980417
 20
-3550.413544869668
 10
597.6196332915936
 20
-3550.413375486016
 42
0.0065378751996053
 10
597.5324801420879
 20
-3550.411841703586
 42
-0.0167974694671986
 10
597.4454184962253
 20
-3550.408521906534
 10
597.4372598177001
 20
-3550.407935884744
 42
-0.0081283276275878
 10
597.3341402222384
 20
-3550.39884189747
 10
597.310661074466
 20
-3550.396386062311
 42
-0.0126703440166742
 10
597.1612244828704
 20
-3550.376916480167
 10
597.1156487475255
 20
-3550.369799968338
 42
-0.0117852088439062
 10
596.8765707758691
 20
-3550.326673978025
 10
596.7658098723347
 20
-3550.303986897554
 42
-0.0251774592291948
 10
596.3121217943186
 20
-3550.186990878688
 10
596.2226834146147
 20
-3550.159057240017
 42
-0.0146525199892221
 10
595.8498974395399
 20
-3550.030524185622
 42
-0.0166929435854455
 10
595.4859421272826
 20
-3549.878909919511
 10
595.4766288647402
 20
-3549.874660118284
 42
-0.0191684358441977
 10
595.1062616022488
 20
-3549.688187950708
 10
595.0995964307278
 20
-3549.684505455598
 42
-0.0221181781808933
 10
594.7329758229172
 20
-3549.460238458852
 10
594.7282762149065
 20
-3549.457069862875
 42
-0.0254984685385666
 10
594.3756959141391
 20
-3549.192247562938
 10
594.3307316187291
 20
-3549.15474294506
 42
-0.0292492648797516
 10
594.0811937410459
 20
-3548.920557345776
 42
-0.0159048957499892
 10
593.8535137461482
 20
-3548.664517362581
 10
593.8508761649871
 20
-3548.661354136538
 42
-0.0343813379563405
 10
593.6456016417355
 20
-3548.377611485001
 10
593.5826185790123
 20
-3548.27660470081
 42
-0.0369117275701573
 10
593.4108335752184
 20
-3547.949650218914
 42
-0.0191751379910622
 10
593.2764468041048
 20
-3547.604841006903
 10
593.2729201565853
 20
-3547.594654317552
 42
-0.0378178042228699
 10
593.1733307190167
 20
-3547.216772765389
 10
593.1613401275562
 20
-3547.151651528995
 42
-0.0184846046475138
 10
593.1199057289675
 20
-3546.868145887906
 42
-0.0179866351324611
 10
593.0992397188202
 20
-3546.582364261743
 10
593.0991268339286
 20
-3546.579248888519
 42
-0.0085497186109359
 10
593.096262271721
 20
-3546.429502558499
 42
-0.0085497186109359
  0
ENDBLK
  5
78
330
23
100
AcDbEntity
  8
template
390
1D
100
AcDbBlockEnd
  0
BLOCK
  5
79
330
24
100
AcDbEntity
  8
template
390
1D
100
AcDbBlockBegin
  2
グループ-1
 70
     0
 10
0.0
 20
0.0
 30
0.0
  3
グループ-1
  1
グループ-1
  0
INSERT
  5
7A
330
24
100
AcDbEntity
  8
0
 62
     7
390
1D
100
AcDbBlockReference
  2
グループ
 10
0.0
 20
0.0
 30
0.0
  0
ENDBLK
  5
7B
330
24
100
AcDbEntity
  8
template
390
1D
100
AcDbBlockEnd
  0
BLOCK
  5
7C
330
25
100
AcDbEntity
  8
排水金具
390
1D
100
AcDbBlockBegin
  2
グループ-2
 70
     0
 10
0.0
 20
0.0
 30
0.0
  3
グループ-2
  1
グループ-2
  0
LINE
  5
7D
330
25
100
AcDbEntity
  8
0
  6
Continuous
 62
     7
370
    15
390
1D
100
AcDbLine
 10
-658.4021927332282
 20
-280.799574731101
 30
0.0
 11
-538.4021927332282
 21
-280.799574731101
 31
0.0
  0
ARC
  5
7E
330
25
100
AcDbEntity
  8
0
  6
Continuous
 62
     7
370
    15
390
1D
100
AcDbCircle
 10
-598.4021927332282
 20
-517.0495747310996
 30
0.0
 40
243.7499999999987
100
AcDbArc
 50
75.74996730219632
 51
104.2500326978036
  0
POLYLINE
  5
7F
330
25
100
AcDbEntity
  8
0
  6
Continuous
 62
     7
370
    15
390
1D
100
AcDb2dPolyline
 66
     1
 10
0.0
 20
0.0
 30
0.0
 70
     1
 75
     5
  0
VERTEX
  5
80
330
7F
100
AcDbEntity
  8
0
  6
Continuous
 62
     7
370
    15
390
1D
100
AcDbVertex
100
AcDb2dVertex
 10
-652.9021927332282
 20
-280.799574731101
 30
0.0
  0
VERTEX
  5
81
330
7F
100
AcDbEntity
  8
0
  6
Continuous
 62
     7
370
    15
390
1D
100
AcDbVertex
100
AcDb2dVertex
 10
-649.7267662526853
 20
-286.299574731101
 30
0.0
  0
VERTEX
  5
82
330
7F
100
AcDbEntity
  8
0
  6
Continuous
 62
     7
370
    15
390
1D
100
AcDbVertex
100
AcDb2dVertex
 10
-633.4021927332282
 20
-286.299574731101
 30
0.0
  0
VERTEX
  5
83
330
7F
100
AcDbEntity
  8
0
  6
Continuous
 62
     7
370
    15
390
1D
100
AcDbVertex
100
AcDb2dVertex
 10
-633.4021927332282
 20
-280.799574731101
 30
0.0
  0
SEQEND
  5
84
330
7F
100
AcDbEntity
  8
0
  6
Continuous
 62
     7
370
    15
390
1D
  0
LINE
  5
85
330
25
100
AcDbEntity
  8
0
  6
Continuous
 62
     7
370
    15
390
1D
100
AcDbLine
 10
-627.4021927332282
 20
-280.799574731101
 30
0.0
 11
-627.4021927332282
 21
-286.299574731101
 31
0.0
  0
POLYLINE
  5
86
330
25
100
AcDbEntity
  8
0
  6
Continuous
 62
     7
370
    15
390
1D
100
AcDb2dPolyline
 66
     1
 10
0.0
 20
0.0
 30
0.0
 70
     1
 75
     5
  0
VERTEX
  5
87
330
86
100
AcDbEntity
  8
0
  6
Continuous
 62
     7
370
    15
390
1D
100
AcDbVertex
100
AcDb2dVertex
 10
-624.4021927332282
 20
-280.799574731101
 30
0.0
  0
VERTEX
  5
88
330
86
100
AcDbEntity
  8
0
  6
Continuous
 62
     7
370
    15
390
1D
100
AcDbVertex
100
AcDb2dVertex
 10
-614.8759132915994
 20
-280.799574731101
 30
0.0
  0
VERTEX
  5
89
330
86
100
AcDbEntity
  8
0
  6
Continuous
 62
     7
370
    15
390
1D
100
AcDbVertex
100
AcDb2dVertex
 10
-614.8759132915994
 20
-286.299574731101
 30
0.0
  0
VERTEX
  5
8A
330
86
100
AcDbEntity
  8
0
  6
Continuous
 62
     7
370
    15
390
1D
100
AcDbVertex
100
AcDb2dVertex
 10
-624.4021927332282
 20
-286.299574731101
 30
0.0
  0
SEQEND
  5
8B
330
86
100
AcDbEntity
  8
0
  6
Continuous
 62
     7
370
    15
390
1D
  0
POLYLINE
  5
8C
330
25
100
AcDbEntity
  8
0
  6
Continuous
 62
     7
370
    15
390
1D
100
AcDb2dPolyline
 66
     1
 10
0.0
 20
0.0
 30
0.0
 70
     1
 75
     5
  0
VERTEX
  5
8D
330
8C
100
AcDbEntity
  8
0
  6
Continuous
 62
     7
370
    15
390
1D
100
AcDbVertex
100
AcDb2dVertex
 10
-543.9021927332282
 20
-280.799574731101
 30
0.0
  0
VERTEX
  5
8E
330
8C
100
AcDbEntity
  8
0
  6
Continuous
 62
     7
370
    15
390
1D
100
AcDbVertex
100
AcDb2dVertex
 10
-547.0776192137711
 20
-286.299574731101
 30
0.0
  0
VERTEX
  5
8F
330
8C
100
AcDbEntity
  8
0
  6
Continuous
 62
     7
370
    15
390
1D
100
AcDbVertex
100
AcDb2dVertex
 10
-563.4021927332282
 20
-286.299574731101
 30
0.0
  0
VERTEX
  5
90
330
8C
100
AcDbEntity
  8
0
  6
Continuous
 62
     7
370
    15
390
1D
100
AcDbVertex
100
AcDb2dVertex
 10
-563.4021927332282
 20
-280.799574731101
 30
0.0
  0
SEQEND
  5
91
330
8C
100
AcDbEntity
  8
0
  6
Continuous
 62
     7
370
    15
390
1D
  0
LINE
  5
92
330
25
100
AcDbEntity
  8
0
  6
Continuous
 62
     7
370
    15
390
1D
100
AcDbLine
 10
-569.4021927332282
 20
-280.799574731101
 30
0.0
 11
-569.4021927332282
 21
-286.299574731101
 31
0.0
  0
POLYLINE
  5
93
330
25
100
AcDbEntity
  8
0
  6
Continuous
 62
     7
370
    15
390
1D
100
AcDb2dPolyline
 66
     1
 10
0.0
 20
0.0
 30
0.0
 70
     1
 75
     5
  0
VERTEX
  5
94
330
93
100
AcDbEntity
  8
0
  6
Continuous
 62
     7
370
    15
390
1D
100
AcDbVertex
100
AcDb2dVertex
 10
-581.9284721748569
 20
-280.799574731101
 30
0.0
  0
VERTEX
  5
95
330
93
100
AcDbEntity
  8
0
  6
Continuous
 62
     7
370
    15
390
1D
100
AcDbVertex
100
AcDb2dVertex
 10
-572.4021927332282
 20
-280.799574731101
 30
0.0
  0
VERTEX
  5
96
330
93
100
AcDbEntity
  8
0
  6
Continuous
 62
     7
370
    15
390
1D
100
AcDbVertex
100
AcDb2dVertex
 10
-572.4021927332282
 20
-286.299574731101
 30
0.0
  0
VERTEX
  5
97
330
93
100
AcDbEntity
  8
0
  6
Continuous
 62
     7
370
    15
390
1D
100
AcDbVertex
100
AcDb2dVertex
 10
-581.9284721748569
 20
-286.299574731101
 30
0.0
  0
SEQEND
  5
98
330
93
100
AcDbEntity
  8
0
  6
Continuous
 62
     7
370
    15
390
1D
  0
ENDBLK
  5
99
330
25
100
AcDbEntity
  8
排水金具
390
1D
100
AcDbBlockEnd
  0
BLOCK
  5
9A
330
26
100
AcDbEntity
  8
排水金具
390
1D
100
AcDbBlockBegin
  2
グループ-3
 70
     0
 10
0.0
 20
0.0
 30
0.0
  3
グループ-3
  1
グループ-3
  0
LINE
  5
9B
330
26
100
AcDbEntity
  8
0
  6
Continuous
 62
     7
370
    15
390
1D
100
AcDbLine
 10
-570.4021927332282
 20
-415.2995747311012
 30
0.0
 11
-593.9021927332282
 21
-428.8673060570572
 31
0.0
  0
LINE
  5
9C
330
26
100
AcDbEntity
  8
0
  6
Continuous
 62
     7
370
    15
390
1D
100
AcDbLine
 10
-593.9021927332282
 20
-394.799574731101
 30
0.0
 11
-593.9021927332282
 21
-435.7995747311008
 31
0.0
  0
LINE
  5
9D
330
26
100
AcDbEntity
  8
0
  6
Continuous
 62
     7
370
    15
390
1D
100
AcDbLine
 10
-623.9021927332282
 20
-435.7995747311008
 30
0.0
 11
-623.9021927332282
 21
-397.799574731101
 31
0.0
  0
LINE
  5
9E
330
26
100
AcDbEntity
  8
0
  6
Continuous
 62
     7
370
    15
390
1D
100
AcDbLine
 10
-570.4021927332282
 20
-397.799574731101
 30
0.0
 11
-570.4021927332282
 21
-415.2995747311012
 31
0.0
  0
ARC
  5
9F
330
26
100
AcDbEntity
  8
0
  6
Continuous
 62
     7
370
    15
390
1D
100
AcDbCircle
 10
-573.4021927332282
 20
-397.799574731101
 30
0.0
 40
3.0
100
AcDbArc
 50
0.0
 51
90.0
  0
LINE
  5
A0
330
26
100
AcDbEntity
  8
0
  6
Continuous
 62
     7
370
    15
390
1D
100
AcDbLine
 10
-620.9021927332282
 20
-394.799574731101
 30
0.0
 11
-573.4021927332282
 21
-394.799574731101
 31
0.0
  0
ARC
  5
A1
330
26
100
AcDbEntity
  8
0
  6
Continuous
 62
     7
370
    15
390
1D
100
AcDbCircle
 10
-620.9021927332282
 20
-397.799574731101
 30
0.0
 40
3.0
100
AcDbArc
 50
90.0
 51
180.0
  0
LINE
  5
A2
330
26
100
AcDbEntity
  8
0
  6
Continuous
 62
     7
370
    15
390
1D
100
AcDbLine
 10
-605.9021927332282
 20
-394.799574731101
 30
0.0
 11
-605.9021927332282
 21
-435.7995747311008
 31
0.0
  0
LWPOLYLINE
  5
A3
330
26
100
AcDbEntity
  8
0
  6
Continuous
 62
     7
370
    15
390
1D
100
AcDbPolyline
 90
        5
 70
   129
 43
0.0
 10
-608.9021927332282
 20
-394.799574731101
 10
-608.9021927332282
 20
-426.2995747311012
 42
-0.4142135623730817
 10
-613.9021927332282
 20
-431.299574731101
 42
-0.4142135623731084
 10
-618.9021927332282
 20
-426.2995747311012
 10
-618.9021927332282
 20
-394.799574731101
  0
POLYLINE
  5
A4
330
26
100
AcDbEntity
  8
0
  6
Continuous
 62
     7
370
    15
390
1D
100
AcDb2dPolyline
 66
     1
 10
0.0
 20
0.0
 30
0.0
 70
     1
 75
     5
  0
VERTEX
  5
A5
330
A4
100
AcDbEntity
  8
0
  6
Continuous
 62
     7
370
    15
390
1D
100
AcDbVertex
100
AcDb2dVertex
 10
-601.9021927332282
 20
-394.799574731101
 30
0.0
  0
VERTEX
  5
A6
330
A4
100
AcDbEntity
  8
0
  6
Continuous
 62
     7
370
    15
390
1D
100
AcDbVertex
100
AcDb2dVertex
 10
-597.9021927332282
 20
-394.799574731101
 30
0.0
  0
VERTEX
  5
A7
330
A4
100
AcDbEntity
  8
0
  6
Continuous
 62
     7
370
    15
390
1D
100
AcDbVertex
100
AcDb2dVertex
 10
-597.9021927332282
 20
-406.7995747311012
 30
0.0
  0
VERTEX
  5
A8
330
A4
100
AcDbEntity
  8
0
  6
Continuous
 62
     7
370
    15
390
1D
100
AcDbVertex
100
AcDb2dVertex
 10
-601.9021927332282
 20
-406.7995747311012
 30
0.0
  0
SEQEND
  5
A9
330
A4
100
AcDbEntity
  8
0
  6
Continuous
 62
     7
370
    15
390
1D
  0
POLYLINE
  5
AA
330
26
100
AcDbEntity
  8
0
  6
Continuous
 62
     7
370
    15
390
1D
100
AcDb2dPolyline
 66
     1
 10
0.0
 20
0.0
 30
0.0
 70
     1
 75
     5
  0
VERTEX
  5
AB
330
AA
100
AcDbEntity
  8
0
  6
Continuous
 62
     7
370
    15
390
1D
100
AcDbVertex
100
AcDb2dVertex
 10
-585.4021927332282
 20
-394.799574731101
 30
0.0
  0
VERTEX
  5
AC
330
AA
100
AcDbEntity
  8
0
  6
Continuous
 62
     7
370
    15
390
1D
100
AcDbVertex
100
AcDb2dVertex
 10
-582.4021927332282
 20
-394.799574731101
 30
0.0
  0
VERTEX
  5
AD
330
AA
100
AcDbEntity
  8
0
  6
Continuous
 62
     7
370
    15
390
1D
100
AcDbVertex
100
AcDb2dVertex
 10
-582.4021927332282
 20
-409.7995747311012
 30
0.0
  0
VERTEX
  5
AE
330
AA
100
AcDbEntity
  8
0
  6
Continuous
 62
     7
370
    15
390
1D
100
AcDbVertex
100
AcDb2dVertex
 10
-585.4021927332282
 20
-409.7995747311012
 30
0.0
  0
SEQEND
  5
AF
330
AA
100
AcDbEntity
  8
0
  6
Continuous
 62
     7
370
    15
390
1D
  0
LINE
  5
B0
330
26
100
AcDbEntity
  8
0
  6
Continuous
 62
     7
370
    15
390
1D
100
AcDbLine
 10
-593.9021927332282
 20
-435.7995747311008
 30
0.0
 11
-593.9021927332282
 21
-418.3017961308873
 31
0.0
  0
LINE
  5
B1
330
26
100
AcDbEntity
  8
0
  6
Continuous
 62
     7
370
    15
390
1D
100
AcDbLine
 10
-580.6021927332282
 20
-435.7995747311008
 30
0.0
 11
-593.9021927332282
 21
-435.7995747311008
 31
0.0
  0
ARC
  5
B2
330
26
100
AcDbEntity
  8
0
  6
Continuous
 62
     7
370
    15
390
1D
100
AcDbCircle
 10
-580.6021927332282
 20
-430.799574731101
 30
0.0
 40
4.999999999999773
100
AcDbArc
 50
270.0
 51
0.0
  0
LINE
  5
B3
330
26
100
AcDbEntity
  8
0
  6
Continuous
 62
     7
370
    15
390
1D
100
AcDbLine
 10
-575.6021927332282
 20
-418.3017961308873
 30
0.0
 11
-575.6021927332282
 21
-430.799574731101
 31
0.0
  0
ENDBLK
  5
B4
330
26
100
AcDbEntity
  8
排水金具
390
1D
100
AcDbBlockEnd
  0
BLOCK
  5
B5
330
27
100
AcDbEntity
  8
排水金具
390
1D
100
AcDbBlockBegin
  2
グループ-4
 70
     0
 10
0.0
 20
0.0
 30
0.0
  3
グループ-4
  1
グループ-4
  0
LINE
  5
B6
330
27
100
AcDbEntity
  8
0
  6
Continuous
 62
     7
370
    15
390
1D
100
AcDbLine
 10
-655.9021927332282
 20
-342.799574731101
 30
0.0
 11
-540.9021927332282
 21
-342.799574731101
 31
0.0
  0
LINE
  5
B7
330
27
100
AcDbEntity
  8
0
  6
Continuous
 62
     7
370
    15
390
1D
100
AcDbLine
 10
-658.4021927332282
 20
-352.799574731101
 30
0.0
 11
-538.4021927332282
 21
-352.799574731101
 31
0.0
  0
LINE
  5
B8
330
27
100
AcDbEntity
  8
0
  6
Continuous
 62
     7
370
    15
390
1D
100
AcDbLine
 10
-658.4021927332282
 20
-355.799574731101
 30
0.0
 11
-538.4021927332282
 21
-355.799574731101
 31
0.0
  0
LINE
  5
B9
330
27
100
AcDbEntity
  8
0
  6
Continuous
 62
     7
370
    15
390
1D
100
AcDbLine
 10
-648.4021927332282
 20
-345.799574731101
 30
0.0
 11
-548.4021927332282
 21
-345.799574731101
 31
0.0
  0
LINE
  5
BA
330
27
100
AcDbEntity
  8
0
  6
Continuous
 62
     7
370
    15
390
1D
100
AcDbLine
 10
-648.4021927332282
 20
-345.799574731101
 30
0.0
 11
-655.9021927332282
 21
-342.799574731101
 31
0.0
  0
LINE
  5
BB
330
27
100
AcDbEntity
  8
0
  6
Continuous
 62
     7
370
    15
390
1D
100
AcDbLine
 10
-548.4021927332282
 20
-345.799574731101
 30
0.0
 11
-540.9021927332282
 21
-342.799574731101
 31
0.0
  0
POLYLINE
  5
BC
330
27
100
AcDbEntity
  8
0
  6
Continuous
 62
     7
370
    15
390
1D
100
AcDb2dPolyline
 66
     1
 10
0.0
 20
0.0
 30
0.0
 70
     1
 75
     5
  0
VERTEX
  5
BD
330
BC
100
AcDbEntity
  8
0
  6
Continuous
 62
     7
370
    15
390
1D
100
AcDbVertex
100
AcDb2dVertex
 10
-641.4021927332282
 20
-345.799574731101
 30
0.0
  0
VERTEX
  5
BE
330
BC
100
AcDbEntity
  8
0
  6
Continuous
 62
     7
370
    15
390
1D
100
AcDbVertex
100
AcDb2dVertex
 10
-555.4021927332282
 20
-345.799574731101
 30
0.0
  0
VERTEX
  5
BF
330
BC
100
AcDbEntity
  8
0
  6
Continuous
 62
     7
370
    15
390
1D
100
AcDbVertex
100
AcDb2dVertex
 10
-555.4021927332282
 20
-352.799574731101
 30
0.0
  0
VERTEX
  5
C0
330
BC
100
AcDbEntity
  8
0
  6
Continuous
 62
     7
370
    15
390
1D
100
AcDbVertex
100
AcDb2dVertex
 10
-641.4021927332282
 20
-352.799574731101
 30
0.0
  0
SEQEND
  5
C1
330
BC
100
AcDbEntity
  8
0
  6
Continuous
 62
     7
370
    15
390
1D
  0
POLYLINE
  5
C2
330
27
100
AcDbEntity
  8
0
  6
Continuous
 62
     7
370
    15
390
1D
100
AcDb2dPolyline
 66
     1
 10
0.0
 20
0.0
 30
0.0
 70
     1
 75
     5
  0
VERTEX
  5
C3
330
C2
100
AcDbEntity
  8
0
  6
Continuous
 62
     7
370
    15
390
1D
100
AcDbVertex
100
AcDb2dVertex
 10
-655.9021927332282
 20
-342.799574731101
 30
0.0
  0
VERTEX
  5
C4
330
C2
100
AcDbEntity
  8
0
  6
Continuous
 62
     7
370
    15
390
1D
100
AcDbVertex
100
AcDb2dVertex
 10
-655.9021927332282
 20
-337.799574731101
 30
0.0
  0
VERTEX
  5
C5
330
C2
100
AcDbEntity
  8
0
  6
Continuous
 62
     7
370
    15
390
1D
100
AcDbVertex
100
AcDb2dVertex
 10
-641.9021927332282
 20
-334.799574731101
 30
0.0
  0
VERTEX
  5
C6
330
C2
100
AcDbEntity
  8
0
  6
Continuous
 62
     7
370
    15
390
1D
100
AcDbVertex
100
AcDb2dVertex
 10
-638.4021927332282
 20
-336.8203006732646
 30
0.0
  0
VERTEX
  5
C7
330
C2
100
AcDbEntity
  8
0
  6
Continuous
 62
     7
370
    15
390
1D
100
AcDbVertex
100
AcDb2dVertex
 10
-638.4021927332282
 20
-342.799574731101
 30
0.0
  0
SEQEND
  5
C8
330
C2
100
AcDbEntity
  8
0
  6
Continuous
 62
     7
370
    15
390
1D
  0
POLYLINE
  5
C9
330
27
100
AcDbEntity
  8
0
  6
Continuous
 62
     7
370
    15
390
1D
100
AcDb2dPolyline
 66
     1
 10
0.0
 20
0.0
 30
0.0
 75
     5
  0
VERTEX
  5
CA
330
C9
100
AcDbEntity
  8
0
  6
Continuous
 62
     7
370
    15
390
1D
100
AcDbVertex
100
AcDb2dVertex
 10
-627.4021927332282
 20
-342.799574731101
 30
0.0
  0
VERTEX
  5
CB
330
C9
100
AcDbEntity
  8
0
  6
Continuous
 62
     7
370
    15
390
1D
100
AcDbVertex
100
AcDb2dVertex
 10
-627.4021927332282
 20
-337.299574731101
 30
0.0
  0
VERTEX
  5
CC
330
C9
100
AcDbEntity
  8
0
  6
Continuous
 62
     7
370
    15
390
1D
100
AcDbVertex
100
AcDb2dVertex
 10
-620.4021927332282
 20
-334.799574731101
 30
0.0
  0
VERTEX
  5
CD
330
C9
100
AcDbEntity
  8
0
  6
Continuous
 62
     7
370
    15
390
1D
100
AcDbVertex
100
AcDb2dVertex
 10
-617.9021927332282
 20
-336.299574731101
 30
0.0
  0
VERTEX
  5
CE
330
C9
100
AcDbEntity
  8
0
  6
Continuous
 62
     7
370
    15
390
1D
100
AcDbVertex
100
AcDb2dVertex
 10
-617.9021927332282
 20
-342.799574731101
 30
0.0
  0
SEQEND
  5
CF
330
C9
100
AcDbEntity
  8
0
  6
Continuous
 62
     7
370
    15
390
1D
  0
POLYLINE
  5
D0
330
27
100
AcDbEntity
  8
0
  6
Continuous
 62
     7
370
    15
390
1D
100
AcDb2dPolyline
 66
     1
 10
0.0
 20
0.0
 30
0.0
 70
     1
 75
     5
  0
VERTEX
  5
D1
330
D0
100
AcDbEntity
  8
0
  6
Continuous
 62
     7
370
    15
390
1D
100
AcDbVertex
100
AcDb2dVertex
 10
-540.9021927332282
 20
-342.799574731101
 30
0.0
  0
VERTEX
  5
D2
330
D0
100
AcDbEntity
  8
0
  6
Continuous
 62
     7
370
    15
390
1D
100
AcDbVertex
100
AcDb2dVertex
 10
-540.9021927332282
 20
-337.799574731101
 30
0.0
  0
VERTEX
  5
D3
330
D0
100
AcDbEntity
  8
0
  6
Continuous
 62
     7
370
    15
390
1D
100
AcDbVertex
100
AcDb2dVertex
 10
-554.9021927332282
 20
-334.799574731101
 30
0.0
  0
VERTEX
  5
D4
330
D0
100
AcDbEntity
  8
0
  6
Continuous
 62
     7
370
    15
390
1D
100
AcDbVertex
100
AcDb2dVertex
 10
-558.4021927332282
 20
-336.8203006732646
 30
0.0
  0
VERTEX
  5
D5
330
D0
100
AcDbEntity
  8
0
  6
Continuous
 62
     7
370
    15
390
1D
100
AcDbVertex
100
AcDb2dVertex
 10
-558.4021927332282
 20
-342.799574731101
 30
0.0
  0
SEQEND
  5
D6
330
D0
100
AcDbEntity
  8
0
  6
Continuous
 62
     7
370
    15
390
1D
  0
POLYLINE
  5
D7
330
27
100
AcDbEntity
  8
0
  6
Continuous
 62
     7
370
    15
390
1D
100
AcDb2dPolyline
 66
     1
 10
0.0
 20
0.0
 30
0.0
 75
     5
  0
VERTEX
  5
D8
330
D7
100
AcDbEntity
  8
0
  6
Continuous
 62
     7
370
    15
390
1D
100
AcDbVertex
100
AcDb2dVertex
 10
-569.4021927332282
 20
-342.799574731101
 30
0.0
  0
VERTEX
  5
D9
330
D7
100
AcDbEntity
  8
0
  6
Continuous
 62
     7
370
    15
390
1D
100
AcDbVertex
100
AcDb2dVertex
 10
-569.4021927332282
 20
-337.299574731101
 30
0.0
  0
VERTEX
  5
DA
330
D7
100
AcDbEntity
  8
0
  6
Continuous
 62
     7
370
    15
390
1D
100
AcDbVertex
100
AcDb2dVertex
 10
-576.4021927332282
 20
-334.799574731101
 30
0.0
  0
VERTEX
  5
DB
330
D7
100
AcDbEntity
  8
0
  6
Continuous
 62
     7
370
    15
390
1D
100
AcDbVertex
100
AcDb2dVertex
 10
-578.9021927332282
 20
-336.299574731101
 30
0.0
  0
VERTEX
  5
DC
330
D7
100
AcDbEntity
  8
0
  6
Continuous
 62
     7
370
    15
390
1D
100
AcDbVertex
100
AcDb2dVertex
 10
-578.9021927332282
 20
-342.799574731101
 30
0.0
  0
SEQEND
  5
DD
330
D7
100
AcDbEntity
  8
0
  6
Continuous
 62
     7
370
    15
390
1D
  0
LINE
  5
DE
330
27
100
AcDbEntity
  8
0
  6
Continuous
 62
     7
370
    15
390
1D
100
AcDbLine
 10
-658.4021927332282
 20
-352.799574731101
 30
0.0
 11
-658.4021927332282
 21
-355.799574731101
 31
0.0
  0
LINE
  5
DF
330
27
100
AcDbEntity
  8
0
  6
Continuous
 62
     7
370
    15
390
1D
100
AcDbLine
 10
-538.4021927332282
 20
-352.799574731101
 30
0.0
 11
-538.4021927332282
 21
-355.799574731101
 31
0.0
  0
LINE
  5
E0
330
27
100
AcDbEntity
  8
0
  6
Continuous
 62
     7
370
    15
390
1D
100
AcDbLine
 10
-653.4021927332282
 20
-358.799574731101
 30
0.0
 11
-543.4021927332282
 21
-358.799574731101
 31
0.0
  0
ARC
  5
E1
330
27
100
AcDbEntity
  8
0
  6
Continuous
 62
     7
370
    15
390
1D
100
AcDbCircle
 10
-649.7610162626398
 20
-347.0642806134539
 30
0.0
 40
12.28720041822583
100
AcDbArc
 50
225.3103329409518
 51
252.7621539949004
  0
ARC
  5
E2
330
27
100
AcDbEntity
  8
0
  6
Continuous
 62
     7
370
    15
390
1D
100
AcDbCircle
 10
-547.0433692038165
 20
-347.0642806134539
 30
0.0
 40
12.28720041822579
100
AcDbArc
 50
287.2378460050996
 51
314.6896670590482
  0
ENDBLK
  5
E3
330
27
100
AcDbEntity
  8
排水金具
390
1D
100
AcDbBlockEnd
  0
BLOCK
  5
E4
330
28
100
AcDbEntity
  8
排水金具
390
1D
100
AcDbBlockBegin
  2
*D6
 70
     1
 10
0.0
 20
0.0
 30
0.0
  3
*D6
  1
*D6
  0
LINE
  5
E5
330
28
100
AcDbEntity
  8
排水金具
  6
Continuous
 62
     0
370
    -2
100
AcDbLine
 10
-226.0300158033835
 20
-675.0966790984659
 30
0.0
 11
-226.0300158033835
 21
-605.0966790984659
 31
0.0
  0
LINE
  5
E6
330
28
100
AcDbEntity
  8
排水金具
  6
Continuous
 62
     0
370
    -2
100
AcDbLine
 10
-706.0300158033833
 20
-675.0966790984659
 30
0.0
 11
-706.0300158033833
 21
-605.0966790984659
 31
0.0
  0
LINE
  5
E7
330
28
100
AcDbEntity
  8
排水金具
  6
Continuous
 62
     0
370
    -2
100
AcDbLine
 10
-234.0295275221335
 20
-605.0966790984659
 30
0.0
 11
-698.0305040846333
 21
-605.0966790984659
 31
0.0
  0
INSERT
  5
E8
102
{ACAD_REACTORS
330
E9
102
}
330
28
100
AcDbEntity
  8
排水金具
 62
     0
370
    -2
100
AcDbBlockReference
  2
_DOT
 10
-226.0300158033835
 20
-605.0966790984659
 30
0.0
 41
7.99951171875
 42
7.99951171875
 43
7.99951171875
  0
INSERT
  5
E9
330
28
100
AcDbEntity
  8
排水金具
 62
     0
370
    -2
100
AcDbBlockReference
  2
_DOT
 10
-706.0300158033833
 20
-605.0966790984659
 30
0.0
 41
7.99951171875
 42
7.99951171875
 43
7.99951171875
 50
180.0
  0
MTEXT
  5
EA
102
{ACAD_REACTORS
330
EB
102
}
330
28
100
AcDbEntity
  8
排水金具
  6
Continuous
 62
     0
370
     5
100
AcDbMText
 10
-466.0300158033834
 20
-566.6982884734658
 30
0.0
 40
43.65625
 41
0.0
 46
0.0
 71
     5
 72
     1
  1
\A1;φ120
  7
MS UI Gothic
 73
     1
 44
1.0
  0
POINT
  5
EB
330
28
100
AcDbEntity
  8
Defpoints
 62
     0
100
AcDbPoint
 10
-226.0300158033835
 20
-725.0966790984659
 30
0.0
  0
POINT
  5
EC
330
28
100
AcDbEntity
  8
Defpoints
 62
     0
100
AcDbPoint
 10
-706.0300158033833
 20
-725.0966790984659
 30
0.0
  0
POINT
  5
ED
330
28
100
AcDbEntity
  8
Defpoints
 62
     0
100
AcDbPoint
 10
-706.0300158033833
 20
-605.0966790984659
 30
0.0
  0
ENDBLK
  5
F0
330
28
100
AcDbEntity
  8
排水金具
390
1D
100
AcDbBlockEnd
  0
BLOCK
  5
F1
330
29
100
AcDbEntity
  8
排水金具
390
1D
100
AcDbBlockBegin
  2
*D7
 70
     1
 10
0.0
 20
0.0
 30
0.0
  3
*D7
  1
*D7
  0
LINE
  5
F2
330
29
100
AcDbEntity
  8
排水金具
  6
Continuous
 62
     0
370
    -2
100
AcDbLine
 10
-236.0300158033835
 20
-923.0966790984659
 30
0.0
 11
-236.0300158033835
 21
-859.0966790984659
 31
0.0
  0
LINE
  5
F3
330
29
100
AcDbEntity
  8
排水金具
  6
Continuous
 62
     0
370
    -2
100
AcDbLine
 10
-696.0300158033833
 20
-923.0966790984659
 30
0.0
 11
-696.0300158033833
 21
-859.0966790984659
 31
0.0
  0
LINE
  5
F4
330
29
100
AcDbEntity
  8
排水金具
  6
Continuous
 62
     0
370
    -2
100
AcDbLine
 10
-244.0295275221335
 20
-859.0966790984659
 30
0.0
 11
-688.0305040846333
 21
-859.0966790984659
 31
0.0
  0
INSERT
  5
F5
102
{ACAD_REACTORS
330
F6
102
}
330
29
100
AcDbEntity
  8
排水金具
 62
     0
370
    -2
100
AcDbBlockReference
  2
_DOT
 10
-236.0300158033835
 20
-859.0966790984659
 30
0.0
 41
7.99951171875
 42
7.99951171875
 43
7.99951171875
  0
INSERT
  5
F6
330
29
100
AcDbEntity
  8
排水金具
 62
     0
370
    -2
100
AcDbBlockReference
  2
_DOT
 10
-696.0300158033833
 20
-859.0966790984659
 30
0.0
 41
7.99951171875
 42
7.99951171875
 43
7.99951171875
 50
180.0
  0
MTEXT
  5
F7
102
{ACAD_REACTORS
330
F8
102
}
330
29
100
AcDbEntity
  8
排水金具
  6
Continuous
 62
     0
370
     5
100
AcDbMText
 10
-466.0300158033834
 20
-820.6982884734658
 30
0.0
 40
43.65625
 41
0.0
 46
0.0
 71
     5
 72
     1
  1
\A1;φ115
  7
MS UI Gothic
 73
     1
 44
1.0
  0
POINT
  5
F8
330
29
100
AcDbEntity
  8
Defpoints
 62
     0
100
AcDbPoint
 10
-236.0300158033835
 20
-973.0966790984659
 30
0.0
  0
POINT
  5
F9
330
29
100
AcDbEntity
  8
Defpoints
 62
     0
100
AcDbPoint
 10
-696.0300158033833
 20
-973.0966790984659
 30
0.0
  0
POINT
  5
FA
330
29
100
AcDbEntity
  8
Defpoints
 62
     0
100
AcDbPoint
 10
-696.0300158033833
 20
-859.0966790984659
 30
0.0
  0
ENDBLK
  5
FD
330
29
100
AcDbEntity
  8
排水金具
390
1D
100
AcDbBlockEnd
  0
BLOCK
  5
FE
330
2A
100
AcDbEntity
  8
排水金具
390
1D
100
AcDbBlockBegin
  2
*D8
 70
     1
 10
0.0
 20
0.0
 30
0.0
  3
*D8
  1
*D8
  0
LINE
  5
FF
330
2A
100
AcDbEntity
  8
排水金具
  6
Continuous
 62
     0
370
    -2
100
AcDbLine
 10
-676.0300158033833
 20
-1345.096679098465
 30
0.0
 11
-802.0300158033833
 21
-1345.096679098465
 31
0.0
  0
LINE
  5
100
330
2A
100
AcDbEntity
  8
排水金具
  6
Continuous
 62
     0
370
    -2
100
AcDbLine
 10
-756.0300158033833
 20
-1025.096679098466
 30
0.0
 11
-802.0300158033833
 21
-1025.096679098466
 31
0.0
  0
LINE
  5
101
330
2A
100
AcDbEntity
  8
排水金具
  6
Continuous
 62
     0
370
    -2
100
AcDbLine
 10
-802.0300158033833
 20
-1337.097167379715
 30
0.0
 11
-802.0300158033833
 21
-1033.096190817216
 31
0.0
  0
INSERT
  5
102
102
{ACAD_REACTORS
330
103
102
}
330
2A
100
AcDbEntity
  8
排水金具
 62
     0
370
    -2
100
AcDbBlockReference
  2
_DOT
 10
-802.0300158033833
 20
-1345.096679098465
 30
0.0
 41
7.99951171875
 42
7.99951171875
 43
7.99951171875
 50
270.0
  0
INSERT
  5
103
330
2A
100
AcDbEntity
  8
排水金具
 62
     0
370
    -2
100
AcDbBlockReference
  2
_DOT
 10
-802.0300158033833
 20
-1025.096679098466
 30
0.0
 41
7.99951171875
 42
7.99951171875
 43
7.99951171875
 50
90.0
  0
MTEXT
  5
104
102
{ACAD_REACTORS
330
105
102
}
330
2A
100
AcDbEntity
  8
排水金具
  6
Continuous
 62
     0
370
     5
100
AcDbMText
 10
-833.9672814283833
 20
-1185.096679098466
 30
0.0
 40
43.65625
 41
0.0
 46
0.0
 71
     5
 72
     1
  1
\A1;80
  7
MS UI Gothic
 11
0.0
 21
1.0
 31
0.0
 73
     1
 44
1.0
  0
POINT
  5
105
330
2A
100
AcDbEntity
  8
Defpoints
 62
     0
100
AcDbPoint
 10
-626.0300158033833
 20
-1345.096679098465
 30
0.0
  0
POINT
  5
106
330
2A
100
AcDbEntity
  8
Defpoints
 62
     0
100
AcDbPoint
 10
-706.0300158033833
 20
-1025.096679098466
 30
0.0
  0
POINT
  5
107
330
2A
100
AcDbEntity
  8
Defpoints
 62
     0
100
AcDbPoint
 10
-802.0300158033833
 20
-1025.096679098466
 30
0.0
  0
ENDBLK
  5
10A
330
2A
100
AcDbEntity
  8
排水金具
390
1D
100
AcDbBlockEnd
  0
BLOCK
  5
10B
330
2B
100
AcDbEntity
  8
排水金具
390
1D
100
AcDbBlockBegin
  2
*D9
 70
     1
 10
0.0
 20
0.0
 30
0.0
  3
*D9
  1
*D9
  0
LINE
  5
10C
330
2B
100
AcDbEntity
  8
排水金具
  6
Continuous
 62
     0
370
    -2
100
AcDbLine
 10
-286.0300158033833
 20
-1313.096679098467
 30
0.0
 11
-286.0300158033833
 21
-1487.096679098465
 31
0.0
  0
LINE
  5
10D
330
2B
100
AcDbEntity
  8
排水金具
  6
Continuous
 62
     0
370
    -2
100
AcDbLine
 10
-646.0300158033833
 20
-1375.096679098467
 30
0.0
 11
-646.0300158033833
 21
-1487.096679098465
 31
0.0
  0
LINE
  5
10E
330
2B
100
AcDbEntity
  8
排水金具
  6
Continuous
 62
     0
370
    -2
100
AcDbLine
 10
-294.0295275221333
 20
-1487.096679098465
 30
0.0
 11
-638.0305040846333
 21
-1487.096679098465
 31
0.0
  0
INSERT
  5
10F
102
{ACAD_REACTORS
330
110
102
}
330
2B
100
AcDbEntity
  8
排水金具
 62
     0
370
    -2
100
AcDbBlockReference
  2
_DOT
 10
-286.0300158033833
 20
-1487.096679098465
 30
0.0
 41
7.99951171875
 42
7.99951171875
 43
7.99951171875
  0
INSERT
  5
110
330
2B
100
AcDbEntity
  8
排水金具
 62
     0
370
    -2
100
AcDbBlockReference
  2
_DOT
 10
-646.0300158033833
 20
-1487.096679098465
 30
0.0
 41
7.99951171875
 42
7.99951171875
 43
7.99951171875
 50
180.0
  0
MTEXT
  5
111
102
{ACAD_REACTORS
330
112
102
}
330
2B
100
AcDbEntity
  8
排水金具
  6
Continuous
 62
     0
370
     5
100
AcDbMText
 10
-466.0300158033833
 20
-1448.698288473465
 30
0.0
 40
43.65625
 41
0.0
 46
0.0
 71
     5
 72
     1
  1
\A1;φ90
  7
MS UI Gothic
 73
     1
 44
1.0
  0
POINT
  5
112
330
2B
100
AcDbEntity
  8
Defpoints
 62
     0
100
AcDbPoint
 10
-286.0300158033833
 20
-1263.096679098467
 30
0.0
  0
POINT
  5
113
330
2B
100
AcDbEntity
  8
Defpoints
 62
     0
100
AcDbPoint
 10
-646.0300158033833
 20
-1325.096679098467
 30
0.0
  0
POINT
  5
114
330
2B
100
AcDbEntity
  8
Defpoints
 62
     0
100
AcDbPoint
 10
-646.0300158033833
 20
-1487.096679098465
 30
0.0
  0
ENDBLK
  5
117
330
2B
100
AcDbEntity
  8
排水金具
390
1D
100
AcDbBlockEnd
  0
BLOCK
  5
125
330
2D
100
AcDbEntity
  8
排水金具
390
1D
100
AcDbBlockBegin
  2
グループ-5
 70
     0
 10
0.0
 20
0.0
 30
0.0
  3
グループ-5
  1
グループ-5
  0
LINE
  5
126
330
2D
100
AcDbEntity
  8
0
  6
Continuous
 62
     7
370
    15
390
1D
100
AcDbLine
 10
-428.5871746759764
 20
-640.633043672574
 30
0.0
 11
-429.0528218537137
 21
-638.4134586748231
 31
0.0
  0
LINE
  5
127
330
2D
100
AcDbEntity
  8
0
  6
Continuous
 62
     7
370
    15
390
1D
100
AcDbLine
 10
-397.6516742685118
 20
-609.6975432651096
 30
0.0
 11
-399.8712573392737
 21
-609.2318941603831
 31
0.0
  0
LINE
  5
128
330
2D
100
AcDbEntity
  8
0
  6
Continuous
 62
     7
370
    15
390
1D
100
AcDbLine
 10
-445.2655524550695
 20
-623.9546658934809
 30
0.0
 11
-446.4332924664801
 21
-625.1224059048915
 31
0.0
  0
SPLINE
  5
129
330
2D
100
AcDbEntity
  8
0
  6
Continuous
 62
     7
370
    15
390
1D
100
AcDbSpline
210
0.0
220
0.0
230
1.0
 70
     8
 71
     2
 72
    30
 73
    27
 74
     0
 42
0.000000001
 43
0.000001
 40
0.0
 40
0.0
 40
0.0
 40
1.0
 40
2.0
 40
3.0
 40
4.0
 40
5.0
 40
6.0
 40
7.0
 40
7.0
 40
8.0
 40
9.0
 40
10.0
 40
11.0
 40
11.0
 40
12.0
 40
12.0
 40
13.0
 40
14.0
 40
15.0
 40
15.0
 40
16.0
 40
16.0
 40
17.0
 40
18.0
 40
19.0
 40
20.0
 40
20.0
 40
20.0
 10
-445.199994649233
 20
-629.8516224479926
 30
0.0
 10
-445.2319637104164
 20
-629.8196533868091
 30
0.0
 10
-445.4614203508703
 20
-629.5901967463552
 30
0.0
 10
-445.6462191187799
 20
-629.4053979784459
 30
0.0
 10
-445.8457179442472
 20
-629.2058991529783
 30
0.0
 10
-446.0403248104632
 20
-629.0112922867623
 30
0.0
 10
-446.2103918465856
 20
-628.8412252506399
 30
0.0
 10
-446.370245033475
 20
-628.6813720637505
 30
0.0
 10
-446.3908719571037
 20
-628.660745140122
 30
0.0
 10
-446.3993781745377
 20
-628.6461310525034
 30
0.0
 10
-446.469462892191
 20
-628.5257221618946
 30
0.0
 10
-446.5271598752128
 20
-628.426595990744
 30
0.0
 10
-446.5598584264652
 20
-628.3704183187398
 30
0.0
 10
-446.5628369950217
 20
-628.3653009957701
 30
0.0
 10
-446.5724645357406
 20
-628.3457154625969
 30
0.0
 10
-446.5820920764594
 20
-628.3261299294237
 30
0.0
 10
-446.8188944336654
 20
-627.8102160551063
 30
0.0
 10
-446.9323275757152
 20
-626.9731737826215
 30
0.0
 10
-446.8726368786712
 20
-626.0488171252688
 30
0.0
 10
-446.6110632478429
 20
-625.4586883311102
 30
0.0
 10
-446.6018153377346
 20
-625.439279351822
 30
0.0
 10
-446.5925674276262
 20
-625.4198703725339
 30
0.0
 10
-446.5846889358112
 20
-625.4051563122683
 30
0.0
 10
-446.5197761965502
 20
-625.2839237236082
 30
0.0
 10
-446.4663370254947
 20
-625.1841194461018
 30
0.0
 10
-446.4360514995948
 20
-625.127557471587
 30
0.0
 10
-446.4332927377626
 20
-625.1224051418252
 30
0.0
  0
LINE
  5
12A
330
2D
100
AcDbEntity
  8
0
  6
Continuous
 62
     7
370
    15
390
1D
100
AcDbLine
 10
-445.2655524550695
 20
-623.9546658934809
 30
0.0
 11
-444.6786936891866
 21
-623.367807127598
 31
0.0
  0
LINE
  5
12B
330
2D
100
AcDbEntity
  8
0
  6
Continuous
 62
     7
370
    15
390
1D
100
AcDbLine
 10
-445.1999960980178
 20
-629.8516228726695
 30
0.0
 11
-444.0145374569564
 21
-631.0370815137309
 31
0.0
  0
LINE
  5
12C
330
2D
100
AcDbEntity
  8
0
  6
Continuous
 62
     7
370
    15
390
1D
100
AcDbLine
 10
-444.6786936891866
 20
-623.367807127598
 30
0.0
 11
-429.7981346569662
 21
-608.4872480953776
 31
0.0
  0
SPLINE
  5
12D
330
2D
100
AcDbEntity
  8
0
  6
Continuous
 62
     7
370
    15
390
1D
100
AcDbSpline
210
0.0
220
0.0
230
1.0
 70
     8
 71
     2
 72
    24
 73
    21
 74
     0
 42
0.000000001
 43
0.000001
 40
0.0
 40
0.0
 40
0.0
 40
1.0
 40
2.0
 40
3.0
 40
4.0
 40
4.0
 40
5.0
 40
5.0
 40
6.0
 40
7.0
 40
8.0
 40
9.0
 40
10.0
 40
10.0
 40
11.0
 40
11.0
 40
12.0
 40
13.0
 40
14.0
 40
15.0
 40
15.0
 40
15.0
 10
-439.6919584393348
 20
-627.1941048453297
 30
0.0
 10
-439.6768597461061
 20
-627.1914710122163
 30
0.0
 10
-439.5524580763771
 20
-627.1697702443327
 30
0.0
 10
-439.4500448646728
 20
-627.1519051679214
 30
0.0
 10
-439.3920043315903
 20
-627.141780511725
 30
0.0
 10
-439.3867173173275
 20
-627.1408582389807
 30
0.0
 10
-439.3526221321151
 20
-627.1361172536211
 30
0.0
 10
-439.3185269469028
 20
-627.1313762682615
 30
0.0
 10
-438.9795746796477
 20
-627.1035912708047
 30
0.0
 10
-438.1982358311028
 20
-627.2122491688116
 30
0.0
 10
-437.3228468501724
 20
-627.7433716177237
 30
0.0
 10
-436.7106043089799
 20
-628.5631960190534
 30
0.0
 10
-436.4914127365863
 20
-629.4461819739546
 30
0.0
 10
-436.5289166120559
 20
-629.9211525696495
 30
0.0
 10
-436.533573767992
 20
-629.9552486010148
 30
0.0
 10
-436.5382309239282
 20
-629.98934463238
 30
0.0
 10
-436.5393232219675
 20
-629.9948508178574
 30
0.0
 10
-436.5507233507141
 20
-630.0523179386283
 30
0.0
 10
-436.5706171618639
 20
-630.1526010208075
 30
0.0
 10
-436.5951032036577
 20
-630.2760331637452
 30
0.0
 10
-436.5975741717849
 20
-630.2884891128798
 30
0.0
  0
LINE
  5
12E
330
2D
100
AcDbEntity
  8
0
  6
Continuous
 62
     7
370
    15
390
1D
100
AcDbLine
 10
-436.9379923913542
 20
-631.1085084254304
 30
0.0
 11
-436.1942011135274
 21
-631.8522997032572
 31
0.0
  0
SPLINE
  5
12F
330
2D
100
AcDbEntity
  8
0
  6
Continuous
 62
     7
370
    15
390
1D
100
AcDbSpline
210
0.0
220
0.0
230
1.0
 70
     8
 71
     2
 72
    25
 73
    22
 74
     0
 42
0.000000001
 43
0.000001
 40
0.0
 40
0.0
 40
0.0
 40
1.0
 40
2.0
 40
3.0
 40
4.0
 40
4.0
 40
5.0
 40
5.0
 40
6.0
 40
7.0
 40
8.0
 40
9.0
 40
10.0
 40
11.0
 40
11.0
 40
12.0
 40
12.0
 40
13.0
 40
14.0
 40
15.0
 40
16.0
 40
16.0
 40
16.0
 10
-434.1084729018845
 20
-633.9380284367927
 30
0.0
 10
-434.1102906373061
 20
-633.939504390046
 30
0.0
 10
-434.1306645540222
 20
-633.9560474734363
 30
0.0
 10
-434.1782606898317
 20
-633.99469428125
 30
0.0
 10
-434.2344754646396
 20
-634.0403391967737
 30
0.0
 10
-434.2381704958615
 20
-634.0433394647383
 30
0.0
 10
-434.2500592999846
 20
-634.0509309833541
 30
0.0
 10
-434.2619481041078
 20
-634.0585225019698
 30
0.0
 10
-434.4791067368377
 20
-634.1772786388784
 30
0.0
 10
-434.8601535407648
 20
-634.1847080035631
 30
0.0
 10
-435.1946131608148
 20
-634.0306867216656
 30
0.0
 10
-435.4411890711671
 20
-633.757174672358
 30
0.0
 10
-435.558780065447
 20
-633.4059332779153
 30
0.0
 10
-435.5116700422465
 20
-633.0683208142503
 30
0.0
 10
-435.4196351244501
 20
-632.900586531816
 30
0.0
 10
-435.4121481810754
 20
-632.8887176273576
 30
0.0
 10
-435.4046612377007
 20
-632.8768487228991
 30
0.0
 10
-435.4011456044108
 20
-632.8724681932889
 30
0.0
 10
-435.3688199781437
 20
-632.832189998339
 30
0.0
 10
-435.3422234093126
 20
-632.7990502912991
 30
0.0
 10
-435.3038463545744
 20
-632.7512319294959
 30
0.0
 10
-435.3000276143672
 20
-632.74647372431
 30
0.0
  0
LINE
  5
130
330
2D
100
AcDbEntity
  8
0
  6
Continuous
 62
     7
370
    15
390
1D
100
AcDbLine
 10
-444.0145374569564
 20
-631.0370815137309
 30
0.0
 11
-440.511978380005
 21
-627.5345224367794
 31
0.0
  0
LINE
  5
131
330
2D
100
AcDbEntity
  8
0
  6
Continuous
 62
     7
370
    15
390
1D
100
AcDbLine
 10
-436.1942011135274
 20
-631.8522997032572
 30
0.0
 11
-435.7560500276473
 21
-631.4141486173775
 31
0.0
  0
LINE
  5
132
330
2D
100
AcDbEntity
  8
0
  6
Continuous
 62
     7
370
    15
390
1D
100
AcDbLine
 10
-435.3000282136712
 20
-632.7464726031131
 30
0.0
 11
-434.8618771277914
 21
-632.3083215172334
 31
0.0
  0
SPLINE
  5
133
330
2D
100
AcDbEntity
  8
0
  6
Continuous
 62
     7
370
    15
390
1D
100
AcDbSpline
210
0.0
220
0.0
230
1.0
 70
     8
 71
     2
 72
    26
 73
    23
 74
     0
 42
0.000000001
 43
0.000001
 40
0.0
 40
0.0
 40
0.0
 40
1.0
 40
2.0
 40
3.0
 40
4.0
 40
4.0
 40
5.0
 40
5.0
 40
6.0
 40
7.0
 40
8.0
 40
9.0
 40
10.0
 40
11.0
 40
12.0
 40
12.0
 40
13.0
 40
13.0
 40
14.0
 40
15.0
 40
16.0
 40
17.0
 40
17.0
 40
17.0
 10
-435.7560500341971
 20
-631.4141479684982
 30
0.0
 10
-435.7529531294239
 20
-631.4117267432943
 30
0.0
 10
-435.7226453834188
 20
-631.3880315108364
 30
0.0
 10
-435.6823001846273
 20
-631.356488786948
 30
0.0
 10
-435.6463170553546
 20
-631.3283564206373
 30
0.0
 10
-435.6442768266378
 20
-631.3267613269703
 30
0.0
 10
-435.6360060133862
 20
-631.3221250500023
 30
0.0
 10
-435.6277352001347
 20
-631.3174887730344
 30
0.0
 10
-435.5446105684151
 20
-631.2764378029586
 30
0.0
 10
-435.3441645132663
 20
-631.2259630883137
 30
0.0
 10
-435.0933307920437
 20
-631.2684946573585
 30
0.0
 10
-434.8818116482265
 20
-631.3987639875678
 30
0.0
 10
-434.7322293682899
 20
-631.5949330832378
 30
0.0
 10
-434.6670512194429
 20
-631.835313593576
 30
0.0
 10
-434.7041760854794
 20
-632.0647332498344
 30
0.0
 10
-434.7647317527604
 20
-632.1801475206697
 30
0.0
 10
-434.7696105288045
 20
-632.1883481847148
 30
0.0
 10
-434.7744893048485
 20
-632.1965488487598
 30
0.0
 10
-434.7763104986574
 20
-632.198878274288
 30
0.0
 10
-434.7958876376739
 20
-632.2239187104973
 30
0.0
 10
-434.8266594147107
 20
-632.2632778180401
 30
0.0
 10
-434.8598059326142
 20
-632.3056743738608
 30
0.0
 10
-434.8618759463762
 20
-632.3083220563191
 30
0.0
  0
SPLINE
  5
134
330
2D
100
AcDbEntity
  8
0
  6
Continuous
 62
     7
370
    15
390
1D
100
AcDbSpline
210
0.0
220
0.0
230
1.0
 70
     8
 71
     2
 72
    24
 73
    21
 74
     0
 42
0.000000001
 43
0.000001
 40
0.0
 40
0.0
 40
0.0
 40
1.0
 40
2.0
 40
3.0
 40
4.0
 40
4.0
 40
5.0
 40
5.0
 40
6.0
 40
7.0
 40
8.0
 40
9.0
 40
10.0
 40
10.0
 40
11.0
 40
11.0
 40
12.0
 40
13.0
 40
14.0
 40
15.0
 40
15.0
 40
15.0
 10
-433.6605281137889
 20
-633.8057541978823
 30
0.0
 10
-433.6544446590468
 20
-633.80468178331
 30
0.0
 10
-433.5950472143639
 20
-633.7942109755298
 30
0.0
 10
-433.5282811214346
 20
-633.7824411943722
 30
0.0
 10
-433.4392005616063
 20
-633.7667377339982
 30
0.0
 10
-433.4302627707317
 20
-633.7651621461813
 30
0.0
 10
-433.4112212569917
 20
-633.7630073616971
 30
0.0
 10
-433.3921797432516
 20
-633.7608525772129
 30
0.0
 10
-432.972190480784
 20
-633.7365687450748
 30
0.0
 10
-432.3674998334676
 20
-633.9767336177214
 30
0.0
 10
-431.9313709167701
 20
-634.3473272381676
 30
0.0
 10
-431.6341621233736
 20
-634.8381340043371
 30
0.0
 10
-431.5301841010029
 20
-635.3388455562064
 30
0.0
 10
-431.5480927793161
 20
-635.6047498651016
 30
0.0
 10
-431.5502949828119
 20
-635.6238387978534
 30
0.0
 10
-431.5524971863077
 20
-635.6429277306053
 30
0.0
 10
-431.5535664913861
 20
-635.6489935462113
 30
0.0
 10
-431.5640367933451
 20
-635.7083881215405
 30
0.0
 10
-431.5758069244806
 20
-635.7751561997753
 30
0.0
 10
-431.5915109208291
 20
-635.8642398000128
 30
0.0
 10
-431.5930892380089
 20
-635.8731930736623
 30
0.0
  0
SPLINE
  5
135
330
2D
100
AcDbEntity
  8
0
  6
Continuous
 62
     7
370
    15
390
1D
100
AcDbSpline
210
0.0
220
0.0
230
1.0
 70
     8
 71
     2
 72
    27
 73
    24
 74
     0
 42
0.000000001
 43
0.000001
 40
0.0
 40
0.0
 40
0.0
 40
1.0
 40
2.0
 40
3.0
 40
4.0
 40
4.0
 40
5.0
 40
5.0
 40
6.0
 40
7.0
 40
8.0
 40
9.0
 40
10.0
 40
11.0
 40
12.0
 40
13.0
 40
13.0
 40
14.0
 40
14.0
 40
15.0
 40
16.0
 40
17.0
 40
18.0
 40
18.0
 40
18.0
 10
-430.5338087644369
 20
-637.5126925742405
 30
0.0
 10
-430.5356454877566
 20
-637.5141495395955
 30
0.0
 10
-430.5562322285465
 20
-637.5304797989121
 30
0.0
 10
-430.6043255492444
 20
-637.568629421837
 30
0.0
 10
-430.661127538457
 20
-637.6136871229565
 30
0.0
 10
-430.6648611676377
 20
-637.6166487929621
 30
0.0
 10
-430.6768560277696
 20
-637.6241135097514
 30
0.0
 10
-430.6888508879016
 20
-637.6315782265407
 30
0.0
 10
-430.8584231207248
 20
-637.7230886507433
 30
0.0
 10
-431.1971585597361
 20
-637.770301487336
 30
0.0
 10
-431.4579991197021
 20
-637.6845971196605
 30
0.0
 10
-431.614330153595
 20
-637.5931313421712
 30
0.0
 10
-431.8170871951421
 20
-637.4098338775458
 30
0.0
 10
-431.9695272856321
 20
-637.0757710691242
 30
0.0
 10
-431.9632008050941
 20
-636.7902038958447
 30
0.0
 10
-431.9110281392972
 20
-636.5958885873064
 30
0.0
 10
-431.8455404317612
 20
-636.4748886826811
 30
0.0
 10
-431.8381074683131
 20
-636.462862069208
 30
0.0
 10
-431.830674504865
 20
-636.4508354557348
 30
0.0
 10
-431.8271361111455
 20
-636.4464776865542
 30
0.0
 10
-431.7946012067551
 20
-636.4064087697276
 30
0.0
 10
-431.7678324500765
 20
-636.3734412505352
 30
0.0
 10
-431.7292069398892
 20
-636.3258713441811
 30
0.0
 10
-431.7253634769194
 20
-636.3211378617581
 30
0.0
  0
SPLINE
  5
136
330
2D
100
AcDbEntity
  8
0
  6
Continuous
 62
     7
370
    15
390
1D
100
AcDbSpline
210
0.0
220
0.0
230
1.0
 70
     8
 71
     2
 72
    25
 73
    22
 74
     0
 42
0.000000001
 43
0.000001
 40
0.0
 40
0.0
 40
0.0
 40
1.0
 40
2.0
 40
3.0
 40
4.0
 40
4.0
 40
5.0
 40
5.0
 40
6.0
 40
7.0
 40
8.0
 40
9.0
 40
10.0
 40
11.0
 40
11.0
 40
12.0
 40
12.0
 40
13.0
 40
14.0
 40
15.0
 40
16.0
 40
16.0
 40
16.0
 10
-430.2436992509337
 20
-637.2225830607373
 30
0.0
 10
-430.2393414817531
 20
-637.219044667018
 30
0.0
 10
-430.199272564926
 20
-637.1865097626275
 30
0.0
 10
-430.166305045734
 20
-637.1597410059491
 30
0.0
 10
-430.1187351393795
 20
-637.1211154957615
 30
0.0
 10
-430.1140016569567
 20
-637.1172720327919
 30
0.0
 10
-430.1019960008394
 20
-637.1098388578056
 30
0.0
 10
-430.0899903447222
 20
-637.1024056828193
 30
0.0
 10
-429.8709808171153
 20
-636.9860953738895
 30
0.0
 10
-429.4891565810891
 20
-636.9791429878436
 30
0.0
 10
-429.1555361190693
 20
-637.1313343595638
 30
0.0
 10
-428.9105254866851
 20
-637.4022634334193
 30
0.0
 10
-428.7943396317613
 20
-637.7517152615857
 30
0.0
 10
-428.8417381795381
 20
-638.0898535306968
 30
0.0
 10
-428.9333008008626
 20
-638.2590952266788
 30
0.0
 10
-428.9407445602961
 20
-638.2710902983489
 30
0.0
 10
-428.9481883197296
 20
-638.283085370019
 30
0.0
 10
-428.9517039530191
 20
-638.2874658996287
 30
0.0
 10
-428.9840295792868
 20
-638.3277440945793
 30
0.0
 10
-429.0106261481175
 20
-638.3608838016193
 30
0.0
 10
-429.0490032028555
 20
-638.4087021634224
 30
0.0
 10
-429.0528219430631
 20
-638.4134603686081
 30
0.0
  0
SPLINE
  5
137
330
2D
100
AcDbEntity
  8
0
  6
Continuous
 62
     7
370
    15
390
1D
100
AcDbSpline
210
0.0
220
0.0
230
1.0
 70
     8
 71
     2
 72
    26
 73
    23
 74
     0
 42
0.000000001
 43
0.000001
 40
0.0
 40
0.0
 40
0.0
 40
1.0
 40
2.0
 40
3.0
 40
4.0
 40
4.0
 40
5.0
 40
5.0
 40
6.0
 40
7.0
 40
8.0
 40
9.0
 40
10.0
 40
11.0
 40
12.0
 40
12.0
 40
13.0
 40
13.0
 40
14.0
 40
15.0
 40
16.0
 40
17.0
 40
17.0
 40
17.0
 10
-427.6092727149218
 20
-639.8570095967492
 30
0.0
 10
-427.597245985536
 20
-639.8520292517748
 30
0.0
 10
-427.4950827091965
 20
-639.8097227905931
 30
0.0
 10
-427.3938970628138
 20
-639.7678211721819
 30
0.0
 10
-427.3349284978921
 20
-639.7434019151632
 30
0.0
 10
-427.3294746401119
 20
-639.7411434380398
 30
0.0
 10
-427.2857069140663
 20
-639.7277991485385
 30
0.0
 10
-427.2419391880206
 20
-639.7144548590371
 30
0.0
 10
-426.6292196988246
 20
-639.5746395551438
 30
0.0
 10
-425.8217507616386
 20
-639.7102024270715
 30
0.0
 10
-425.2401789602892
 20
-639.9692593170968
 30
0.0
 10
-424.7439698603356
 20
-640.3579634466092
 30
0.0
 10
-424.3552558220573
 20
-640.8541824553289
 30
0.0
 10
-424.0962322639674
 20
-641.4357209247424
 30
0.0
 10
-423.9594814990163
 20
-642.2443777549521
 30
0.0
 10
-424.1006944602533
 20
-642.8556995868045
 30
0.0
 10
-424.1140387497546
 20
-642.89946731285
 30
0.0
 10
-424.127383039256
 20
-642.9432350388955
 30
0.0
 10
-424.1323633842306
 20
-642.9552617682813
 30
0.0
 10
-424.1746698454123
 20
-643.0574250446208
 30
0.0
 10
-424.2165714638235
 20
-643.1586106910034
 30
0.0
 10
-424.2409907208422
 20
-643.2175792559257
 30
0.0
 10
-424.2432491979656
 20
-643.2230331137056
 30
0.0
  0
LWPOLYLINE
  5
138
330
2D
100
AcDbEntity
  8
0
  6
Continuous
 62
     7
370
    15
390
1D
100
AcDbPolyline
 90
        4
 70
   128
 43
0.0
 10
-424.3951682066685
 20
-643.6513326101159
 10
-423.7963414304642
 20
-644.2501593863202
 10
-421.4815620215128
 20
-643.6505681067196
 10
-418.4171559574303
 20
-640.5861620426373
  0
LINE
  5
139
330
2D
100
AcDbEntity
  8
0
  6
Continuous
 62
     7
370
    15
390
1D
100
AcDbLine
 10
-430.5338077593054
 20
-637.5126930574792
 30
0.0
 11
-430.2436976151815
 21
-637.2225829133553
 31
0.0
  0
LINE
  5
13A
330
2D
100
AcDbEntity
  8
0
  6
Continuous
 62
     7
370
    15
390
1D
100
AcDbLine
 10
-434.1084721169365
 20
-633.9380286998481
 30
0.0
 11
-433.6605281234366
 21
-633.8057524051002
 31
0.0
  0
LINE
  5
13B
330
2D
100
AcDbEntity
  8
0
  6
Continuous
 62
     7
370
    15
390
1D
100
AcDbLine
 10
-431.5930875612925
 20
-635.8731929672443
 30
0.0
 11
-431.7253638560404
 21
-636.3211369607442
 31
0.0
  0
LINE
  5
13C
330
2D
100
AcDbEntity
  8
0
  6
Continuous
 62
     7
370
    15
390
1D
100
AcDbLine
 10
-439.6919595337023
 20
-627.1941045605653
 30
0.0
 11
-440.511978380005
 21
-627.5345224367794
 31
0.0
  0
LINE
  5
13D
330
2D
100
AcDbEntity
  8
0
  6
Continuous
 62
     7
370
    15
390
1D
100
AcDbLine
 10
-436.5975745151401
 20
-630.2884895791277
 30
0.0
 11
-436.9379923913542
 21
-631.1085084254304
 31
0.0
  0
LINE
  5
13E
330
2D
100
AcDbEntity
  8
0
  6
Continuous
 62
     7
370
    15
390
1D
100
AcDbLine
 10
-428.5871746759764
 20
-640.633043672574
 30
0.0
 11
-427.6092723268742
 21
-639.8570082016626
 31
0.0
  0
LINE
  5
13F
330
2D
100
AcDbEntity
  8
0
  6
Continuous
 62
     7
370
    15
390
1D
100
AcDbLine
 10
-424.2432487058005
 20
-643.2230318227363
 30
0.0
 11
-424.3951682066685
 21
-643.6513326101159
 31
0.0
  0
LINE
  5
140
330
2D
100
AcDbEntity
  8
0
  6
Continuous
 62
     7
370
    15
390
1D
100
AcDbLine
 10
-418.4171559574303
 20
-640.5861620426373
 30
0.0
 11
-408.0581883335686
 21
-630.2271944187754
 31
0.0
  0
LINE
  5
141
330
2D
100
AcDbEntity
  8
0
  6
Continuous
 62
     7
370
    15
390
1D
100
AcDbLine
 10
-397.699220709707
 20
-619.8682267949138
 30
0.0
 11
-408.0581883335686
 21
-630.2271944187754
 31
0.0
  0
LINE
  5
142
330
2D
100
AcDbEntity
  8
0
  6
Continuous
 62
     7
370
    15
390
1D
100
AcDbLine
 10
-395.0616841913605
 20
-614.0414673082963
 30
0.0
 11
-394.6511308164655
 21
-613.8585234396725
 31
0.0
  0
LINE
  5
143
330
2D
100
AcDbEntity
  8
0
  6
Continuous
 62
     7
370
    15
390
1D
100
AcDbLine
 10
-397.6516742685118
 20
-609.6975432651096
 30
0.0
 11
-398.4277078124345
 21
-610.6754436872226
 31
0.0
  0
LINE
  5
144
330
2D
100
AcDbEntity
  8
0
  6
Continuous
 62
     7
370
    15
390
1D
100
AcDbLine
 10
-407.9968912462272
 20
-601.687806310215
 30
0.0
 11
-407.1695691110309
 21
-601.3400851451071
 31
0.0
  0
LINE
  5
145
330
2D
100
AcDbEntity
  8
0
  6
Continuous
 62
     7
370
    15
390
1D
100
AcDbLine
 10
-411.0912762647896
 20
-598.5934212916526
 30
0.0
 11
-410.7435550996819
 21
-597.7660991564563
 31
0.0
  0
LINE
  5
146
330
2D
100
AcDbEntity
  8
0
  6
Continuous
 62
     7
370
    15
390
1D
100
AcDbLine
 10
-402.4115230468525
 20
-606.6916284528044
 30
0.0
 11
-401.9569405757171
 21
-606.5527136804209
 31
0.0
  0
LINE
  5
147
330
2D
100
AcDbEntity
  8
0
  6
Continuous
 62
     7
370
    15
390
1D
100
AcDbLine
 10
-404.3400488366132
 20
-604.1696054195248
 30
0.0
 11
-404.4789636089964
 21
-604.6241878906602
 31
0.0
  0
LINE
  5
148
330
2D
100
AcDbEntity
  8
0
  6
Continuous
 62
     7
370
    15
390
1D
100
AcDbLine
 10
-400.7653844789824
 20
-607.7442697771559
 30
0.0
 11
-401.0621331007416
 21
-608.0410183989153
 31
0.0
  0
LWPOLYLINE
  5
149
330
2D
100
AcDbEntity
  8
0
  6
Continuous
 62
     7
370
    15
390
1D
100
AcDbPolyline
 90
        4
 70
   128
 43
0.0
 10
-397.699220709707
 20
-619.8682267949138
 10
-394.6281742409998
 20
-616.7971803262068
 10
-394.0590798649151
 20
-614.4505743912229
 10
-394.6511308164655
 20
-613.8585234396725
  0
SPLINE
  5
14A
330
2D
100
AcDbEntity
  8
0
  6
Continuous
 62
     7
370
    15
390
1D
100
AcDbSpline
210
0.0
220
0.0
230
1.0
 70
     8
 71
     2
 72
    26
 73
    23
 74
     0
 42
0.000000001
 43
0.000001
 40
0.0
 40
0.0
 40
0.0
 40
1.0
 40
2.0
 40
3.0
 40
4.0
 40
4.0
 40
5.0
 40
5.0
 40
6.0
 40
7.0
 40
8.0
 40
9.0
 40
10.0
 40
11.0
 40
12.0
 40
12.0
 40
13.0
 40
13.0
 40
14.0
 40
15.0
 40
16.0
 40
17.0
 40
17.0
 40
17.0
 10
-395.0616842435965
 20
-614.0414681593367
 30
0.0
 10
-395.0737529849324
 20
-614.0464659017263
 30
0.0
 10
-395.1759163682171
 20
-614.0887724071946
 30
0.0
 10
-395.2771236379639
 20
-614.1306829799781
 30
0.0
 10
-395.3360325950995
 20
-614.155077553034
 30
0.0
 10
-395.3414823184063
 20
-614.1573343180459
 30
0.0
 10
-395.384776057482
 20
-614.1707425595338
 30
0.0
 10
-395.4280697965577
 20
-614.1841508010217
 30
0.0
 10
-396.0351602988377
 20
-614.3241922779317
 30
0.0
 10
-396.8404624897429
 20
-614.1859722113039
 30
0.0
 10
-397.4223559934195
 20
-613.9242781272804
 30
0.0
 10
-397.9203769755708
 20
-613.5329902850136
 30
0.0
 10
-398.3116357147538
 20
-613.0349984059457
 30
0.0
 10
-398.5732539224244
 20
-612.4531807786224
 30
0.0
 10
-398.7121849372714
 20
-611.6471676394982
 30
0.0
 10
-398.5704202877358
 20
-611.0418003098436
 30
0.0
 10
-398.556997103499
 20
-610.9985215135167
 30
0.0
 10
-398.5435739192623
 20
-610.9552427171899
 30
0.0
 10
-398.5385935742876
 20
-610.9432159878044
 30
0.0
 10
-398.4962871131062
 20
-610.8410527114648
 30
0.0
 10
-398.454385494695
 20
-610.7398670650822
 30
0.0
 10
-398.4299662376762
 20
-610.6808985001604
 30
0.0
 10
-398.4277077605528
 20
-610.6754446423803
 30
0.0
  0
SPLINE
  5
14B
330
2D
100
AcDbEntity
  8
0
  6
Continuous
 62
     7
370
    15
390
1D
100
AcDbSpline
210
0.0
220
0.0
230
1.0
 70
     8
 71
     2
 72
    25
 73
    22
 74
     0
 42
0.000000001
 43
0.000001
 40
0.0
 40
0.0
 40
0.0
 40
1.0
 40
2.0
 40
3.0
 40
4.0
 40
4.0
 40
5.0
 40
5.0
 40
6.0
 40
7.0
 40
8.0
 40
9.0
 40
10.0
 40
11.0
 40
11.0
 40
12.0
 40
12.0
 40
13.0
 40
14.0
 40
15.0
 40
16.0
 40
16.0
 40
16.0
 10
-399.8712569886942
 20
-609.2318954142389
 30
0.0
 10
-399.8729911760121
 20
-609.2332688314901
 30
0.0
 10
-399.8924286516541
 20
-609.2486626497331
 30
0.0
 10
-399.9378371385629
 20
-609.2846246237572
 30
0.0
 10
-399.9914681281908
 20
-609.3270985396965
 30
0.0
 10
-399.994993325647
 20
-609.3298903759363
 30
0.0
 10
-400.00696638227
 20
-609.3374391336873
 30
0.0
 10
-400.018939438893
 20
-609.3449878914383
 30
0.0
 10
-400.2375304298092
 20
-609.4631481984742
 30
0.0
 10
-400.6200482351711
 20
-609.4710666805928
 30
0.0
 10
-400.9550048964257
 20
-609.3183136201627
 30
0.0
 10
-401.201204663044
 20
-609.0460847677119
 30
0.0
 10
-401.3176466273095
 20
-608.6953810309582
 30
0.0
 10
-401.2689455603696
 20
-608.3568994461463
 30
0.0
 10
-401.1759253472702
 20
-608.1880019830611
 30
0.0
 10
-401.1683660050721
 20
-608.1760395108852
 30
0.0
 10
-401.1608066628741
 20
-608.1640770387093
 30
0.0
 10
-401.1574913246037
 20
-608.1599423249778
 30
0.0
 10
-401.1270073756149
 20
-608.1219243635522
 30
0.0
 10
-401.0875534613241
 20
-608.0727195380183
 30
0.0
 10
-401.0634238608824
 20
-608.0426263824648
 30
0.0
 10
-401.0621342965648
 20
-608.0410181063684
 30
0.0
  0
SPLINE
  5
14C
330
2D
100
AcDbEntity
  8
0
  6
Continuous
 62
     7
370
    15
390
1D
100
AcDbSpline
210
0.0
220
0.0
230
1.0
 70
     8
 71
     2
 72
    25
 73
    22
 74
     0
 42
0.000000001
 43
0.000001
 40
0.0
 40
0.0
 40
0.0
 40
1.0
 40
2.0
 40
3.0
 40
4.0
 40
4.0
 40
5.0
 40
5.0
 40
6.0
 40
7.0
 40
8.0
 40
9.0
 40
10.0
 40
11.0
 40
11.0
 40
12.0
 40
12.0
 40
13.0
 40
14.0
 40
15.0
 40
16.0
 40
16.0
 40
16.0
 10
-401.9569408339079
 20
-606.5527152187464
 30
0.0
 10
-401.9528061201762
 20
-606.549399880476
 30
0.0
 10
-401.9147881587509
 20
-606.5189159314872
 30
0.0
 10
-401.8655833332167
 20
-606.4794620171962
 30
0.0
 10
-401.8354901776635
 20
-606.4553324167547
 30
0.0
 10
-401.833881901567
 20
-606.454042852437
 30
0.0
 10
-401.8220671885734
 20
-606.4463772426919
 30
0.0
 10
-401.8102524755799
 20
-606.4387116329468
 30
0.0
 10
-401.5941258466145
 20
-606.3188026946679
 30
0.0
 10
-401.2122760181461
 20
-606.31104606836
 30
0.0
 10
-400.8757506600026
 20
-606.4657550809408
 30
0.0
 10
-400.6272120989528
 20
-606.7402674056426
 30
0.0
 10
-400.509120882513
 20
-607.0921224949481
 30
0.0
 10
-400.5583011796663
 20
-607.4293019321145
 30
0.0
 10
-400.6527161759556
 20
-607.5962479325711
 30
0.0
 10
-400.6603923701477
 20
-607.6080520611176
 30
0.0
 10
-400.6680685643399
 20
-607.6198561896641
 30
0.0
 10
-400.6694324876422
 20
-607.6215998709312
 30
0.0
 10
-400.6847198938482
 20
-607.6411437586104
 30
0.0
 10
-400.7204332754278
 20
-607.6868008379635
 30
0.0
 10
-400.7626135841653
 20
-607.7407254347937
 30
0.0
 10
-400.7653861214254
 20
-607.744269931229
 30
0.0
  0
SPLINE
  5
14D
330
2D
100
AcDbEntity
  8
0
  6
Continuous
 62
     7
370
    15
390
1D
100
AcDbSpline
210
0.0
220
0.0
230
1.0
 70
     8
 71
     2
 72
    24
 73
    21
 74
     0
 42
0.000000001
 43
0.000001
 40
0.0
 40
0.0
 40
0.0
 40
1.0
 40
2.0
 40
3.0
 40
4.0
 40
4.0
 40
5.0
 40
5.0
 40
6.0
 40
7.0
 40
8.0
 40
9.0
 40
10.0
 40
10.0
 40
11.0
 40
11.0
 40
12.0
 40
13.0
 40
14.0
 40
15.0
 40
15.0
 40
15.0
 10
-402.4115242836398
 20
-606.6916281192931
 30
0.0
 10
-402.4174674272191
 20
-606.6925602227028
 30
0.0
 10
-402.475494906167
 20
-606.7016610647476
 30
0.0
 10
-402.5407210799966
 20
-606.711890926806
 30
0.0
 10
-402.6277470511938
 20
-606.7255397985479
 30
0.0
 10
-402.6364786973878
 20
-606.7269092416851
 30
0.0
 10
-402.6557824662403
 20
-606.7291811231505
 30
0.0
 10
-402.6750862350929
 20
-606.7314530046159
 30
0.0
 10
-403.1002190601376
 20
-606.75826083206
 30
0.0
 10
-403.7066189658143
 20
-606.5208586464017
 30
0.0
 10
-404.1412891393951
 20
-606.1512400966748
 30
0.0
 10
-404.4356448136162
 20
-605.6594735269401
 30
0.0
 10
-404.5372495007499
 20
-605.1559260144924
 30
0.0
 10
-404.5187169162251
 20
-604.8876800664485
 30
0.0
 10
-404.5164805990185
 20
-604.868411861855
 30
0.0
 10
-404.5142442818118
 20
-604.8491436572614
 30
0.0
 10
-404.5133121784023
 20
-604.8432005136821
 30
0.0
 10
-404.5042113363576
 20
-604.7851730347339
 30
0.0
 10
-404.4939814742989
 20
-604.7199468609045
 30
0.0
 10
-404.480332602557
 20
-604.6329208897072
 30
0.0
 10
-404.4789631594198
 20
-604.6241892435133
 30
0.0
  0
SPLINE
  5
14E
330
2D
100
AcDbEntity
  8
0
  6
Continuous
 62
     7
370
    15
390
1D
100
AcDbSpline
210
0.0
220
0.0
230
1.0
 70
     8
 71
     2
 72
    27
 73
    24
 74
     0
 42
0.000000001
 43
0.000001
 40
0.0
 40
0.0
 40
0.0
 40
1.0
 40
2.0
 40
3.0
 40
4.0
 40
4.0
 40
5.0
 40
5.0
 40
6.0
 40
7.0
 40
8.0
 40
9.0
 40
10.0
 40
11.0
 40
12.0
 40
13.0
 40
13.0
 40
14.0
 40
14.0
 40
15.0
 40
16.0
 40
17.0
 40
18.0
 40
18.0
 40
18.0
 10
-405.9704205055103
 20
-603.4168666154532
 30
0.0
 10
-405.9735174102833
 20
-603.4192878406569
 30
0.0
 10
-406.0038251562886
 20
-603.4429830731148
 30
0.0
 10
-406.0441703550804
 20
-603.4745257970036
 30
0.0
 10
-406.0801534843525
 20
-603.5026581633139
 30
0.0
 10
-406.0821937130696
 20
-603.5042532569809
 30
0.0
 10
-406.0903062495191
 20
-603.5092393106058
 30
0.0
 10
-406.0984187859686
 20
-603.5142253642308
 30
0.0
 10
-406.2129525917893
 20
-603.5759128277092
 30
0.0
 10
-406.4421940304288
 20
-603.6135961017841
 30
0.0
 10
-406.6225560566151
 20
-603.5648544341753
 30
0.0
 10
-406.7891725822527
 20
-603.481467775117
 30
0.0
 10
-406.956784232376
 20
-603.2964040945895
 30
0.0
 10
-407.0470216743055
 20
-603.0610757533499
 30
0.0
 10
-407.0387801027063
 20
-602.865386123134
 30
0.0
 10
-407.0036285960808
 20
-602.733028993198
 30
0.0
 10
-406.9614878844746
 20
-602.6508115659859
 30
0.0
 10
-406.9567345596668
 20
-602.6426386505888
 30
0.0
 10
-406.9519812348589
 20
-602.6344657351916
 30
0.0
 10
-406.9501600410503
 20
-602.6321363096632
 30
0.0
 10
-406.9305829020335
 20
-602.6070958734543
 30
0.0
 10
-406.899811124997
 20
-602.567736765911
 30
0.0
 10
-406.8666646070932
 20
-602.5253402100908
 30
0.0
 10
-406.8645945933314
 20
-602.5226925276323
 30
0.0
  0
LINE
  5
14F
330
2D
100
AcDbEntity
  8
0
  6
Continuous
 62
     7
370
    15
390
1D
100
AcDbLine
 10
-405.5316049333481
 20
-602.9780493227898
 30
0.0
 11
-405.970420830486
 21
-603.4168652199279
 31
0.0
  0
LINE
  5
150
330
2D
100
AcDbEntity
  8
0
  6
Continuous
 62
     7
370
    15
390
1D
100
AcDbLine
 10
-406.4257778332041
 20
-602.0838764229339
 30
0.0
 11
-406.8645937303419
 21
-602.522692320072
 31
0.0
  0
LINE
  5
151
330
2D
100
AcDbEntity
  8
0
  6
Continuous
 62
     7
370
    15
390
1D
100
AcDbLine
 10
-407.2416627609776
 20
-594.2642068177521
 30
0.0
 11
-410.7435550996819
 21
-597.7660991564563
 31
0.0
  0
SPLINE
  5
152
330
2D
100
AcDbEntity
  8
0
  6
Continuous
 62
     7
370
    15
390
1D
100
AcDbSpline
210
0.0
220
0.0
230
1.0
 70
     8
 71
     2
 72
    27
 73
    24
 74
     0
 42
0.000000001
 43
0.000001
 40
0.0
 40
0.0
 40
0.0
 40
1.0
 40
2.0
 40
3.0
 40
4.0
 40
4.0
 40
5.0
 40
5.0
 40
6.0
 40
7.0
 40
8.0
 40
9.0
 40
10.0
 40
11.0
 40
12.0
 40
13.0
 40
13.0
 40
14.0
 40
14.0
 40
15.0
 40
16.0
 40
17.0
 40
18.0
 40
18.0
 40
18.0
 10
-405.5316049713557
 20
-602.9780510812985
 30
0.0
 10
-405.5274474971947
 20
-602.9747585034576
 30
0.0
 10
-405.489220257646
 20
-602.944483832592
 30
0.0
 10
-405.4397445734663
 20
-602.9053007769468
 30
0.0
 10
-405.4094857636043
 20
-602.8813368308139
 30
0.0
 10
-405.4078686344029
 20
-602.8800561196014
 30
0.0
 10
-405.3960532867945
 20
-602.8724533819237
 30
0.0
 10
-405.3842379391862
 20
-602.8648506442461
 30
0.0
 10
-405.2167551437902
 20
-602.771709794696
 30
0.0
 10
-404.8783655703943
 20
-602.7239924027632
 30
0.0
 10
-404.6152457815903
 20
-602.8111655990025
 30
0.0
 10
-404.3761130800311
 20
-602.9520425790948
 30
0.0
 10
-404.2119806525471
 20
-603.1737883750753
 30
0.0
 10
-404.096086136026
 20
-603.4254244338366
 30
0.0
 10
-404.1035113826646
 20
-603.7104811399273
 30
0.0
 10
-404.1579275287241
 20
-603.9034505065052
 30
0.0
 10
-404.2259425209087
 20
-604.0228556210769
 30
0.0
 10
-404.2336602067362
 20
-604.0347012412586
 30
0.0
 10
-404.2413778925637
 20
-604.0465468614403
 30
0.0
 10
-404.2427608037641
 20
-604.048271554809
 30
0.0
 10
-404.2582610340438
 20
-604.0676026184148
 30
0.0
 10
-404.2944716005123
 20
-604.1127625128789
 30
0.0
 10
-404.3372391236541
 20
-604.1660998953049
 30
0.0
 10
-404.340050258873
 20
-604.1696057937812
 30
0.0
  0
LINE
  5
153
330
2D
100
AcDbEntity
  8
0
  6
Continuous
 62
     7
370
    15
390
1D
100
AcDbLine
 10
-407.1695691110309
 20
-601.3400851451071
 30
0.0
 11
-406.4257778332041
 21
-602.0838764229339
 31
0.0
  0
SPLINE
  5
154
330
2D
100
AcDbEntity
  8
0
  6
Continuous
 62
     7
370
    15
390
1D
100
AcDbSpline
210
0.0
220
0.0
230
1.0
 70
     8
 71
     2
 72
    25
 73
    22
 74
     0
 42
0.000000001
 43
0.000001
 40
0.0
 40
0.0
 40
0.0
 40
1.0
 40
2.0
 40
3.0
 40
4.0
 40
4.0
 40
5.0
 40
5.0
 40
6.0
 40
7.0
 40
8.0
 40
9.0
 40
10.0
 40
11.0
 40
11.0
 40
12.0
 40
12.0
 40
13.0
 40
14.0
 40
15.0
 40
16.0
 40
16.0
 40
16.0
 10
-407.9968921105859
 20
-601.6878070516808
 30
0.0
 10
-408.0023982960632
 20
-601.6888993497201
 30
0.0
 10
-408.0598654168335
 20
-601.7002994784667
 30
0.0
 10
-408.1601484990132
 20
-601.7201932896165
 30
0.0
 10
-408.2835806419511
 20
-601.7446793314101
 30
0.0
 10
-408.2960365910855
 20
-601.7471502995376
 30
0.0
 10
-408.3303739468392
 20
-601.7514278256344
 30
0.0
 10
-408.364711302593
 20
-601.7557053517313
 30
0.0
 10
-408.8431031820841
 20
-601.7878880211557
 30
0.0
 10
-409.7265751846277
 20
-601.565159552502
 30
0.0
 10
-410.334683433481
 20
-601.1115108310515
 30
0.0
 10
-410.8459116252817
 20
-600.5487961301166
 30
0.0
 10
-411.1060986180729
 20
-599.825230555117
 30
0.0
 10
-411.1781584644415
 20
-599.3069542962509
 30
0.0
 10
-411.1532756130238
 20
-598.9671410413006
 30
0.0
 10
-411.1488992987543
 20
-598.9329024737194
 30
0.0
 10
-411.1445229844848
 20
-598.8986639061383
 30
0.0
 10
-411.1418891513714
 20
-598.8835652129093
 30
0.0
 10
-411.1201883834877
 20
-598.7591635431801
 30
0.0
 10
-411.1023233070765
 20
-598.656750331476
 30
0.0
 10
-411.0921986508801
 20
-598.5987097983935
 30
0.0
 10
-411.0912763781358
 20
-598.5934227841307
 30
0.0
  0
LINE
  5
155
330
2D
100
AcDbEntity
  8
0
  6
Continuous
 62
     7
370
    15
390
1D
100
AcDbLine
 10
-418.1227193416911
 20
-596.8118327801025
 30
0.0
 11
-418.7036025142075
 21
-597.3927159526189
 31
0.0
  0
LINE
  5
156
330
2D
100
AcDbEntity
  8
0
  6
Continuous
 62
     7
370
    15
390
1D
100
AcDbLine
 10
-414.9102704088633
 20
-593.5993838472747
 30
0.0
 11
-429.7981346569662
 21
-608.4872480953776
 31
0.0
  0
LINE
  5
157
330
2D
100
AcDbEntity
  8
0
  6
Continuous
 62
     7
370
    15
390
1D
100
AcDbLine
 10
-408.427121402039
 20
-593.0787481766907
 30
0.0
 11
-407.2416627609776
 21
-594.2642068177521
 31
0.0
  0
LINE
  5
158
330
2D
100
AcDbEntity
  8
0
  6
Continuous
 62
     7
370
    15
390
1D
100
AcDbLine
 10
-414.3300520476051
 20
-593.0191654860165
 30
0.0
 11
-414.9102704088633
 21
-593.5993838472747
 31
0.0
  0
SPLINE
  5
159
330
2D
100
AcDbEntity
  8
0
  6
Continuous
 62
     7
370
    15
390
1D
100
AcDbSpline
210
0.0
220
0.0
230
1.0
 70
     8
 71
     2
 72
    24
 73
    21
 74
     0
 42
0.000000001
 43
0.000001
 40
0.0
 40
0.0
 40
0.0
 40
1.0
 40
2.0
 40
3.0
 40
4.0
 40
5.0
 40
5.0
 40
6.0
 40
6.0
 40
7.0
 40
8.0
 40
9.0
 40
9.0
 40
10.0
 40
10.0
 40
11.0
 40
12.0
 40
13.0
 40
14.0
 40
15.0
 40
15.0
 40
15.0
 10
-413.1623122154768
 20
-591.8514246195394
 30
0.0
 10
-413.1579303158195
 20
-591.8490783765609
 30
0.0
 10
-413.1108060308144
 20
-591.8238461641728
 30
0.0
 10
-413.0247241107749
 20
-591.7777544878967
 30
0.0
 10
-412.9351168579807
 20
-591.7297752085564
 30
0.0
 10
-412.8705607925505
 20
-591.695209329123
 30
0.0
 10
-412.864846984768
 20
-591.6921499296758
 30
0.0
 10
-412.8475313194464
 20
-591.6836743945405
 30
0.0
 10
-412.8302156541248
 20
-591.6751988594052
 30
0.0
 10
-412.3021314338806
 20
-591.4340385399438
 30
0.0
 10
-411.4711467155777
 20
-591.3474778666649
 30
0.0
 10
-410.5576553407788
 20
-591.419117251549
 30
0.0
 10
-409.9543715814699
 20
-591.7042520492129
 30
0.0
 10
-409.9368939715009
 20
-591.7130662057466
 30
0.0
 10
-409.9194163615319
 20
-591.7218803622803
 30
0.0
 10
-409.9149762205919
 20
-591.7243255306945
 30
0.0
 10
-409.8672255910732
 20
-591.7506216173819
 30
0.0
 10
-409.7799995276622
 20
-591.798656672583
 30
0.0
 10
-409.6892012751288
 20
-591.8486589184946
 30
0.0
 10
-409.6237871736056
 20
-591.8846822107852
 30
0.0
 10
-409.6179974217074
 20
-591.8878706047257
 30
0.0
  0
LINE
  5
15A
330
2D
100
AcDbEntity
  8
0
  6
Continuous
 62
     7
370
    15
390
1D
100
AcDbLine
 10
-408.427121402039
 20
-593.0787481766907
 30
0.0
 11
-409.6179991297939
 21
-591.887870448936
 31
0.0
  0
LINE
  5
15B
330
2D
100
AcDbEntity
  8
0
  6
Continuous
 62
     7
370
    15
390
1D
100
AcDbLine
 10
-414.3300520476051
 20
-593.0191654860165
 30
0.0
 11
-413.1623120361947
 21
-591.8514254746061
 31
0.0
  0
LINE
  5
15C
330
2D
100
AcDbEntity
  8
0
  6
Continuous
 62
     7
370
    15
390
1D
100
AcDbLine
 10
-440.511978380005
 20
-627.5345224367794
 30
0.0
 11
-410.7435550996819
 21
-597.7660991564563
 31
0.0
  0
LINE
  5
15D
330
2D
100
AcDbEntity
  8
0
  6
Continuous
 62
     7
370
    15
390
1D
100
AcDbLine
 10
-436.8659825855074
 20
-630.9348887777952
 30
0.0
 11
-407.3445183811824
 21
-601.4134245734703
 31
0.0
  0
LINE
  5
15E
330
2D
100
AcDbEntity
  8
0
  6
Continuous
 62
     7
370
    15
390
1D
100
AcDbLine
 10
-436.1942011135274
 20
-631.8522997032572
 30
0.0
 11
-406.8645937303419
 21
-602.522692320072
 31
0.0
  0
LINE
  5
15F
330
2D
100
AcDbEntity
  8
0
  6
Continuous
 62
     7
370
    15
390
1D
100
AcDbLine
 10
-435.0836080617856
 20
-632.5300524512273
 30
0.0
 11
-405.970420830486
 21
-603.4168652199279
 31
0.0
  0
LINE
  5
160
330
2D
100
AcDbEntity
  8
0
  6
Continuous
 62
     7
370
    15
390
1D
100
AcDbLine
 10
-434.1084721169365
 20
-633.9380286998481
 30
0.0
 11
-404.3400488366132
 21
-604.1696054195248
 31
0.0
  0
LINE
  5
161
330
2D
100
AcDbEntity
  8
0
  6
Continuous
 62
     7
370
    15
390
1D
100
AcDbLine
 10
-431.7253638560404
 20
-636.3211369607442
 30
0.0
 11
-401.9569405757171
 21
-606.5527136804209
 31
0.0
  0
LINE
  5
162
330
2D
100
AcDbEntity
  8
0
  6
Continuous
 62
     7
370
    15
390
1D
100
AcDbLine
 10
-430.2436976151815
 20
-637.2225829133553
 30
0.0
 11
-401.273907281777
 21
-608.2527925799506
 31
0.0
  0
LINE
  5
163
330
2D
100
AcDbEntity
  8
0
  6
Continuous
 62
     7
370
    15
390
1D
100
AcDbLine
 10
-429.0528218537137
 20
-638.4134586748231
 30
0.0
 11
-399.8712573392737
 21
-609.2318941603831
 31
0.0
  0
LINE
  5
164
330
2D
100
AcDbEntity
  8
0
  6
Continuous
 62
     7
370
    15
390
1D
100
AcDbLine
 10
-428.5871746759764
 20
-640.633043672574
 30
0.0
 11
-397.8136569767972
 21
-609.8595259733949
 31
0.0
  0
LINE
  5
165
330
2D
100
AcDbEntity
  8
0
  6
Continuous
 62
     7
370
    15
390
1D
100
AcDbLine
 10
-424.3951682066685
 20
-643.6513326101159
 30
0.0
 11
-394.6267449263454
 21
-613.8829093297928
 31
0.0
  0
LINE
  5
166
330
2D
100
AcDbEntity
  8
0
  6
Continuous
 62
     7
370
    15
390
1D
100
AcDbLine
 10
-423.7963414304642
 20
-644.2501593863202
 30
0.0
 11
-394.1241789663401
 21
-614.5779969221959
 31
0.0
  0
ENDBLK
  5
167
330
2D
100
AcDbEntity
  8
排水金具
390
1D
100
AcDbBlockEnd
  0
BLOCK
  5
168
330
2E
100
AcDbEntity
  8
排水金具
390
1D
100
AcDbBlockBegin
  2
グループ-6
 70
     0
 10
0.0
 20
0.0
 30
0.0
  3
グループ-6
  1
グループ-6
  0
LINE
  5
169
330
2E
100
AcDbEntity
  8
0
  6
Continuous
 62
     7
370
    15
390
1D
100
AcDbLine
 10
-438.4305666485845
 20
-405.7995747311012
 30
0.0
 11
-508.4021927332281
 21
-405.7995747311012
 31
0.0
  0
LINE
  5
16A
330
2E
100
AcDbEntity
  8
0
  6
Continuous
 62
     7
370
    15
390
1D
100
AcDbLine
 10
-508.4021927332281
 20
-365.799574731101
 30
0.0
 11
-438.4305666485845
 21
-365.799574731101
 31
0.0
  0
ENDBLK
  5
16B
330
2E
100
AcDbEntity
  8
排水金具
390
1D
100
AcDbBlockEnd
  0
BLOCK
  5
16C
330
2F
100
AcDbEntity
  8
排水金具
390
1D
100
AcDbBlockBegin
  2
*D13
 70
     1
 10
0.0
 20
0.0
 30
0.0
  3
*D13
  1
*D13
  0
LINE
  5
16D
330
2F
100
AcDbEntity
  8
排水金具
  6
Continuous
 62
     0
370
    -2
100
AcDbLine
 10
116.132309515446
 20
-1069.157146598466
 30
0.0
 11
336.9170843072488
 21
-1069.157146598466
 31
0.0
  0
LINE
  5
16E
330
2F
100
AcDbEntity
  8
排水金具
  6
Continuous
 62
     0
370
    -2
100
AcDbLine
 10
116.5008520103704
 20
-1221.036211598465
 30
0.0
 11
336.9170843072488
 21
-1221.036211598465
 31
0.0
  0
LINE
  5
16F
330
2F
100
AcDbEntity
  8
排水金具
  6
Continuous
 62
     0
370
    -2
100
AcDbLine
 10
336.9170843072488
 20
-1077.156658317216
 30
0.0
 11
336.9170843072488
 21
-1213.036699879715
 31
0.0
  0
INSERT
  5
170
102
{ACAD_REACTORS
330
171
102
}
330
2F
100
AcDbEntity
  8
排水金具
 62
     0
370
    -2
100
AcDbBlockReference
  2
_DOT
 10
336.9170843072488
 20
-1069.157146598466
 30
0.0
 41
7.99951171875
 42
7.99951171875
 43
7.99951171875
 50
90.0
  0
INSERT
  5
171
330
2F
100
AcDbEntity
  8
排水金具
 62
     0
370
    -2
100
AcDbBlockReference
  2
_DOT
 10
336.9170843072488
 20
-1221.036211598465
 30
0.0
 41
7.99951171875
 42
7.99951171875
 43
7.99951171875
 50
270.0
  0
MTEXT
  5
172
102
{ACAD_REACTORS
330
173
102
}
330
2F
100
AcDbEntity
  8
排水金具
  6
Continuous
 62
     0
370
     5
100
AcDbMText
 10
298.5186936822488
 20
-1145.096679098466
 30
0.0
 40
43.65625
 41
0.0
 46
0.0
 71
     5
 72
     1
  1
\A1;φ38
  7
MS UI Gothic
 11
0.0
 21
1.0
 31
0.0
 73
     1
 44
1.0
  0
POINT
  5
173
330
2F
100
AcDbEntity
  8
Defpoints
 62
     0
100
AcDbPoint
 10
66.13230951544597
 20
-1069.157146598466
 30
0.0
  0
POINT
  5
174
330
2F
100
AcDbEntity
  8
Defpoints
 62
     0
100
AcDbPoint
 10
66.50085201037041
 20
-1221.036211598465
 30
0.0
  0
POINT
  5
175
330
2F
100
AcDbEntity
  8
Defpoints
 62
     0
100
AcDbPoint
 10
336.9170843072488
 20
-1221.036211598465
 30
0.0
  0
ENDBLK
  5
178
330
2F
100
AcDbEntity
  8
排水金具
390
1D
100
AcDbBlockEnd
  0
BLOCK
  5
186
330
31
100
AcDbEntity
  8
排水金具
390
1D
100
AcDbBlockBegin
  2
グループ-7
 70
     0
 10
0.0
 20
0.0
 30
0.0
  3
グループ-7
  1
グループ-7
  0
LINE
  5
187
330
31
100
AcDbEntity
  8
0
  6
STYLE_01
 62
     7
370
     5
390
1D
100
AcDbLine
 10
-480.252192731186
 20
-562.1600561828328
 30
0.0
 11
-578.5057675278719
 21
-562.1600561828328
 31
0.0
  0
LINE
  5
188
330
31
100
AcDbEntity
  8
0
  6
STYLE_01
 62
     7
370
     5
390
1D
100
AcDbLine
 10
-345.9777903036553
 20
-692.2923229866327
 30
0.0
 11
-473.1811249193207
 21
-565.0889883709675
 31
0.0
  0
ARC
  5
189
330
31
100
AcDbEntity
  8
0
  6
STYLE_01
 62
     7
370
     5
390
1D
100
AcDbCircle
 10
-480.252192731186
 20
-572.1600561828328
 30
0.0
 40
9.999999999999758
100
AcDbArc
 50
45.0
 51
90.0
  0
ENDBLK
  5
18A
330
31
100
AcDbEntity
  8
排水金具
390
1D
100
AcDbBlockEnd
  0
BLOCK
  5
18B
330
32
100
AcDbEntity
  8
FLN72-5555
390
1D
100
AcDbBlockBegin
  2
*D16
 70
     1
 10
0.0
 20
0.0
 30
0.0
  3
*D16
  1
*D16
  0
LINE
  5
18C
330
32
100
AcDbEntity
  8
FLN72-5555
  6
Continuous
 62
     0
370
    -2
100
AcDbLine
 10
-234.7013456970465
 20
2188.275061981559
 30
0.0
 11
-234.7013456970465
 21
2344.111365981559
 31
0.0
  0
LINE
  5
18D
330
32
100
AcDbEntity
  8
FLN72-5555
  6
Continuous
 62
     0
370
    -2
100
AcDbLine
 10
-1134.701055697046
 20
2188.275061981559
 30
0.0
 11
-1134.701055697046
 21
2344.111365981559
 31
0.0
  0
LINE
  5
18E
330
32
100
AcDbEntity
  8
FLN72-5555
  6
Continuous
 62
     0
370
    -2
100
AcDbLine
 10
-242.7008574157965
 20
2344.111365981559
 30
0.0
 11
-1126.701543978296
 21
2344.111365981559
 31
0.0
  0
INSERT
  5
18F
102
{ACAD_REACTORS
330
190
102
}
330
32
100
AcDbEntity
  8
FLN72-5555
 62
     0
370
    -2
100
AcDbBlockReference
  2
_DOT
 10
-234.7013456970465
 20
2344.111365981559
 30
0.0
 41
7.99951171875
 42
7.99951171875
 43
7.99951171875
  0
INSERT
  5
190
330
32
100
AcDbEntity
  8
FLN72-5555
 62
     0
370
    -2
100
AcDbBlockReference
  2
_DOT
 10
-1134.701055697046
 20
2344.111365981559
 30
0.0
 41
7.99951171875
 42
7.99951171875
 43
7.99951171875
 50
180.0
  0
MTEXT
  5
191
102
{ACAD_REACTORS
330
192
102
}
330
32
100
AcDbEntity
  8
FLN72-5555
  6
Continuous
 62
     0
370
     5
100
AcDbMText
 10
-684.7012006970461
 20
2378.543983169059
 30
0.0
 40
48.86523437500001
 41
0.0
 46
0.0
 71
     5
 72
     1
  1
\A1;900
  7
ＭＳ ゴシック
 73
     1
 44
1.0
  0
POINT
  5
192
330
32
100
AcDbEntity
  8
Defpoints
 62
     0
100
AcDbPoint
 10
-234.7013456970465
 20
2138.275061981559
 30
0.0
  0
POINT
  5
193
330
32
100
AcDbEntity
  8
Defpoints
 62
     0
100
AcDbPoint
 10
-1134.701055697046
 20
2138.275061981559
 30
0.0
  0
POINT
  5
194
330
32
100
AcDbEntity
  8
Defpoints
 62
     0
100
AcDbPoint
 10
-1134.701055697046
 20
2344.111365981559
 30
0.0
  0
ENDBLK
  5
197
330
32
100
AcDbEntity
  8
FLN72-5555
390
1D
100
AcDbBlockEnd
  0
BLOCK
  5
198
330
33
100
AcDbEntity
  8
FLN72-5555
390
1D
100
AcDbBlockBegin
  2
*D17
 70
     1
 10
0.0
 20
0.0
 30
0.0
  3
*D17
  1
*D17
  0
LINE
  5
199
330
33
100
AcDbEntity
  8
FLN72-5555
  6
Continuous
 62
     0
370
    -2
100
AcDbLine
 10
-207.7013386970459
 20
1261.27526098156
 30
0.0
 11
33.18750930295317
 21
1261.27526098156
 31
0.0
  0
LINE
  5
19A
330
33
100
AcDbEntity
  8
FLN72-5555
  6
Continuous
 62
     0
370
    -2
100
AcDbLine
 10
-207.7013386970459
 20
2161.27506198156
 30
0.0
 11
33.18750930295323
 21
2161.27506198156
 31
0.0
  0
LINE
  5
19B
330
33
100
AcDbEntity
  8
FLN72-5555
  6
Continuous
 62
     0
370
    -2
100
AcDbLine
 10
33.18750930295317
 20
1269.27477270031
 30
0.0
 11
33.18750930295323
 21
2153.27555026281
 31
0.0
  0
INSERT
  5
19C
102
{ACAD_REACTORS
330
19D
102
}
330
33
100
AcDbEntity
  8
FLN72-5555
 62
     0
370
    -2
100
AcDbBlockReference
  2
_DOT
 10
33.18750930295317
 20
1261.27526098156
 30
0.0
 41
7.99951171875
 42
7.99951171875
 43
7.99951171875
 50
270.0
  0
INSERT
  5
19D
330
33
100
AcDbEntity
  8
FLN72-5555
 62
     0
370
    -2
100
AcDbBlockReference
  2
_DOT
 10
33.18750930295323
 20
2161.27506198156
 30
0.0
 41
7.99951171875
 42
7.99951171875
 43
7.99951171875
 50
90.0
  0
MTEXT
  5
19E
102
{ACAD_REACTORS
330
19F
102
}
330
33
100
AcDbEntity
  8
FLN72-5555
  6
Continuous
 62
     0
370
     5
100
AcDbMText
 10
-1.245107884546798
 20
1711.27516148156
 30
0.0
 40
48.86523437500001
 41
0.0
 46
0.0
 71
     5
 72
     1
  1
\A1;900
  7
ＭＳ ゴシック
 11
6.315936825502478E-17
 21
1.0
 31
0.0
 73
     1
 44
1.0
  0
POINT
  5
19F
330
33
100
AcDbEntity
  8
Defpoints
 62
     0
100
AcDbPoint
 10
-257.7013386970459
 20
1261.27526098156
 30
0.0
  0
POINT
  5
1A0
330
33
100
AcDbEntity
  8
Defpoints
 62
     0
100
AcDbPoint
 10
-257.7013386970459
 20
2161.27506198156
 30
0.0
  0
POINT
  5
1A1
330
33
100
AcDbEntity
  8
Defpoints
 62
     0
100
AcDbPoint
 10
33.18750930295323
 20
2161.27506198156
 30
0.0
  0
ENDBLK
  5
1A4
330
33
100
AcDbEntity
  8
FLN72-5555
390
1D
100
AcDbBlockEnd
  0
BLOCK
  5
1B3
330
35
100
AcDbEntity
  8
FLN72-5555
390
1D
100
AcDbBlockBegin
  2
*D19
 70
     1
 10
0.0
 20
0.0
 30
0.0
  3
*D19
  1
*D19
  0
LINE
  5
1B4
330
35
100
AcDbEntity
  8
FLN72-5555
  6
Continuous
 62
     0
370
    -2
100
AcDbLine
 10
-904.7013456970467
 20
1212.693313481559
 30
0.0
 11
-904.7013456970467
 21
1094.11136598156
 31
0.0
  0
LINE
  5
1B5
330
35
100
AcDbEntity
  8
FLN72-5555
  6
Continuous
 62
     0
370
    -2
100
AcDbLine
 10
-294.7013456970465
 20
1212.693313481559
 30
0.0
 11
-294.7013456970465
 21
1094.11136598156
 31
0.0
  0
LINE
  5
1B6
330
35
100
AcDbEntity
  8
FLN72-5555
  6
Continuous
 62
     0
370
    -2
100
AcDbLine
 10
-896.7018339782967
 20
1094.11136598156
 30
0.0
 11
-302.7008574157965
 21
1094.11136598156
 31
0.0
  0
INSERT
  5
1B7
102
{ACAD_REACTORS
330
1B8
102
}
330
35
100
AcDbEntity
  8
FLN72-5555
 62
     0
370
    -2
100
AcDbBlockReference
  2
_DOT
 10
-904.7013456970467
 20
1094.11136598156
 30
0.0
 41
7.99951171875
 42
7.99951171875
 43
7.99951171875
 50
180.0
  0
INSERT
  5
1B8
330
35
100
AcDbEntity
  8
FLN72-5555
 62
     0
370
    -2
100
AcDbBlockReference
  2
_DOT
 10
-294.7013456970465
 20
1094.11136598156
 30
0.0
 41
7.99951171875
 42
7.99951171875
 43
7.99951171875
  0
MTEXT
  5
1B9
102
{ACAD_REACTORS
330
1BA
102
}
330
35
100
AcDbEntity
  8
FLN72-5555
  6
Continuous
 62
     0
370
     5
100
AcDbMText
 10
-599.7013456970466
 20
1128.54398316906
 30
0.0
 40
48.86523437500001
 41
0.0
 46
0.0
 71
     5
 72
     1
  1
\A1;610
  7
ＭＳ ゴシック
 73
     1
 44
1.0
  0
POINT
  5
1BA
330
35
100
AcDbEntity
  8
Defpoints
 62
     0
100
AcDbPoint
 10
-904.7013456970467
 20
1262.693313481559
 30
0.0
  0
POINT
  5
1BB
330
35
100
AcDbEntity
  8
Defpoints
 62
     0
100
AcDbPoint
 10
-294.7013456970465
 20
1262.693313481559
 30
0.0
  0
POINT
  5
1BC
330
35
100
AcDbEntity
  8
Defpoints
 62
     0
100
AcDbPoint
 10
-294.7013456970465
 20
1094.11136598156
 30
0.0
  0
ENDBLK
  5
1BF
330
35
100
AcDbEntity
  8
FLN72-5555
390
1D
100
AcDbBlockEnd
  0
BLOCK
  5
1C0
330
36
100
AcDbEntity
  8
FLN72-5555
390
1D
100
AcDbBlockBegin
  2
*D20
 70
     1
 10
0.0
 20
0.0
 30
0.0
  3
*D20
  1
*D20
  0
LINE
  5
1C1
330
36
100
AcDbEntity
  8
FLN72-5555
  6
Continuous
 62
     0
370
    -2
100
AcDbLine
 10
-1074.701345697047
 20
1211.27526098156
 30
0.0
 11
-1074.701345697047
 21
1092.693313481559
 31
0.0
  0
LINE
  5
1C2
330
36
100
AcDbEntity
  8
FLN72-5555
  6
Continuous
 62
     0
370
    -2
100
AcDbLine
 10
-904.7013456970467
 20
1211.27526098156
 30
0.0
 11
-904.7013456970467
 21
1092.693313481559
 31
0.0
  0
LINE
  5
1C3
330
36
100
AcDbEntity
  8
FLN72-5555
  6
Continuous
 62
     0
370
    -2
100
AcDbLine
 10
-1066.701833978297
 20
1092.693313481559
 30
0.0
 11
-912.7008574157967
 21
1092.693313481559
 31
0.0
  0
INSERT
  5
1C4
102
{ACAD_REACTORS
330
1C5
102
}
330
36
100
AcDbEntity
  8
FLN72-5555
 62
     0
370
    -2
100
AcDbBlockReference
  2
_DOT
 10
-1074.701345697047
 20
1092.693313481559
 30
0.0
 41
7.99951171875
 42
7.99951171875
 43
7.99951171875
 50
180.0
  0
INSERT
  5
1C5
330
36
100
AcDbEntity
  8
FLN72-5555
 62
     0
370
    -2
100
AcDbBlockReference
  2
_DOT
 10
-904.7013456970467
 20
1092.693313481559
 30
0.0
 41
7.99951171875
 42
7.99951171875
 43
7.99951171875
  0
MTEXT
  5
1C6
102
{ACAD_REACTORS
330
1C7
102
}
330
36
100
AcDbEntity
  8
FLN72-5555
  6
Continuous
 62
     0
370
     5
100
AcDbMText
 10
-989.7013456970467
 20
1127.125930669059
 30
0.0
 40
48.86523437500001
 41
0.0
 46
0.0
 71
     5
 72
     1
  1
\A1;170
  7
ＭＳ ゴシック
 73
     1
 44
1.0
  0
POINT
  5
1C7
330
36
100
AcDbEntity
  8
Defpoints
 62
     0
100
AcDbPoint
 10
-1074.701345697047
 20
1261.27526098156
 30
0.0
  0
POINT
  5
1C8
330
36
100
AcDbEntity
  8
Defpoints
 62
     0
100
AcDbPoint
 10
-904.7013456970467
 20
1261.27526098156
 30
0.0
  0
POINT
  5
1C9
330
36
100
AcDbEntity
  8
Defpoints
 62
     0
100
AcDbPoint
 10
-904.7013456970467
 20
1092.693313481559
 30
0.0
  0
ENDBLK
  5
1CC
330
36
100
AcDbEntity
  8
FLN72-5555
390
1D
100
AcDbBlockEnd
  0
BLOCK
  5
1F6
330
3A
100
AcDbEntity
  8
FLN72-5555
390
1D
100
AcDbBlockBegin
  2
*D24
 70
     1
 10
0.0
 20
0.0
 30
0.0
  3
*D24
  1
*D24
  0
LINE
  5
1F7
330
3A
100
AcDbEntity
  8
FLN72-5555
  6
Continuous
 62
     0
370
    -2
100
AcDbLine
 10
573.1873678029533
 20
580.9191769562995
 30
0.0
 11
508.1873678029533
 21
580.9191769562995
 31
0.0
  0
LINE
  5
1F8
330
3A
100
AcDbEntity
  8
FLN72-5555
  6
Continuous
 62
     0
370
    -2
100
AcDbLine
 10
573.1873678029533
 20
440.9191769562995
 30
0.0
 11
508.1873678029533
 21
440.9191769562995
 31
0.0
  0
LINE
  5
1F9
330
3A
100
AcDbEntity
  8
FLN72-5555
  6
Continuous
 62
     0
370
    -2
100
AcDbLine
 10
508.1873678029533
 20
572.9196652375495
 30
0.0
 11
508.1873678029533
 21
448.9186886750495
 31
0.0
  0
INSERT
  5
1FA
102
{ACAD_REACTORS
330
1FB
102
}
330
3A
100
AcDbEntity
  8
FLN72-5555
 62
     0
370
    -2
100
AcDbBlockReference
  2
_DOT
 10
508.1873678029533
 20
580.9191769562995
 30
0.0
 41
7.99951171875
 42
7.99951171875
 43
7.99951171875
 50
90.0
  0
INSERT
  5
1FB
330
3A
100
AcDbEntity
  8
FLN72-5555
 62
     0
370
    -2
100
AcDbBlockReference
  2
_DOT
 10
508.1873678029533
 20
440.9191769562995
 30
0.0
 41
7.99951171875
 42
7.99951171875
 43
7.99951171875
 50
270.0
  0
MTEXT
  5
1FC
102
{ACAD_REACTORS
330
1FD
102
}
330
3A
100
AcDbEntity
  8
FLN72-5555
  6
Continuous
 62
     0
370
     5
100
AcDbMText
 10
473.7547506154533
 20
510.9191769562995
 30
0.0
 40
48.86523437500001
 41
0.0
 46
0.0
 71
     5
 72
     1
  1
\A1;140
  7
ＭＳ ゴシック
 11
0.0
 21
1.0
 31
0.0
 73
     1
 44
1.0
  0
POINT
  5
1FD
330
3A
100
AcDbEntity
  8
Defpoints
 62
     0
100
AcDbPoint
 10
623.1873678029533
 20
580.9191769562995
 30
0.0
  0
POINT
  5
1FE
330
3A
100
AcDbEntity
  8
Defpoints
 62
     0
100
AcDbPoint
 10
623.1873678029533
 20
440.9191769562995
 30
0.0
  0
POINT
  5
1FF
330
3A
100
AcDbEntity
  8
Defpoints
 62
     0
100
AcDbPoint
 10
508.1873678029533
 20
440.9191769562995
 30
0.0
  0
ENDBLK
  5
202
330
3A
100
AcDbEntity
  8
FLN72-5555
390
1D
100
AcDbBlockEnd
  0
BLOCK
  5
203
330
3B
100
AcDbEntity
  8
FLN72-5555
390
1D
100
AcDbBlockBegin
  2
*D25
 70
     1
 10
0.0
 20
0.0
 30
0.0
  3
*D25
  1
*D25
  0
LINE
  5
204
330
3B
100
AcDbEntity
  8
FLN72-5555
  6
Continuous
 62
     0
370
    -2
100
AcDbLine
 10
617.0303858029529
 20
504.9191769562995
 30
0.0
 11
617.0303858029529
 21
344.9191769562995
 31
0.0
  0
LINE
  5
205
330
3B
100
AcDbEntity
  8
FLN72-5555
  6
Continuous
 62
     0
370
    -2
100
AcDbLine
 10
1067.030385802953
 20
482.1341419562996
 30
0.0
 11
1067.030385802953
 21
344.9191769562995
 31
0.0
  0
LINE
  5
206
330
3B
100
AcDbEntity
  8
FLN72-5555
  6
Continuous
 62
     0
370
    -2
100
AcDbLine
 10
625.0298975217029
 20
344.9191769562995
 30
0.0
 11
1059.030874084203
 21
344.9191769562995
 31
0.0
  0
INSERT
  5
207
102
{ACAD_REACTORS
330
208
102
}
330
3B
100
AcDbEntity
  8
FLN72-5555
 62
     0
370
    -2
100
AcDbBlockReference
  2
_DOT
 10
617.0303858029529
 20
344.9191769562995
 30
0.0
 41
7.99951171875
 42
7.99951171875
 43
7.99951171875
 50
180.0
  0
INSERT
  5
208
330
3B
100
AcDbEntity
  8
FLN72-5555
 62
     0
370
    -2
100
AcDbBlockReference
  2
_DOT
 10
1067.030385802953
 20
344.9191769562995
 30
0.0
 41
7.99951171875
 42
7.99951171875
 43
7.99951171875
  0
MTEXT
  5
209
102
{ACAD_REACTORS
330
20A
102
}
330
3B
100
AcDbEntity
  8
FLN72-5555
  6
Continuous
 62
     0
370
     5
100
AcDbMText
 10
842.0303858029529
 20
379.3517941437995
 30
0.0
 40
48.86523437500001
 41
0.0
 46
0.0
 71
     5
 72
     1
  1
\A1;450
  7
ＭＳ ゴシック
 73
     1
 44
1.0
  0
POINT
  5
20A
330
3B
100
AcDbEntity
  8
Defpoints
 62
     0
100
AcDbPoint
 10
617.0303858029529
 20
554.9191769562995
 30
0.0
  0
POINT
  5
20B
330
3B
100
AcDbEntity
  8
Defpoints
 62
     0
100
AcDbPoint
 10
1067.030385802953
 20
532.1341419562996
 30
0.0
  0
POINT
  5
20C
330
3B
100
AcDbEntity
  8
Defpoints
 62
     0
100
AcDbPoint
 10
1067.030385802953
 20
344.9191769562995
 30
0.0
  0
ENDBLK
  5
20F
330
3B
100
AcDbEntity
  8
FLN72-5555
390
1D
100
AcDbBlockEnd
  0
BLOCK
  5
210
330
3C
100
AcDbEntity
  8
FLN72-5555
390
1D
100
AcDbBlockBegin
  2
*D26
 70
     1
 10
0.0
 20
0.0
 30
0.0
  3
*D26
  1
*D26
  0
LINE
  5
211
330
3C
100
AcDbEntity
  8
FLN72-5555
  6
Continuous
 62
     0
370
    -2
100
AcDbLine
 10
-1184.701055697046
 20
2101.275053981559
 30
0.0
 11
-1282.0
 21
2101.275053981559
 31
0.0
  0
LINE
  5
212
330
3C
100
AcDbEntity
  8
FLN72-5555
  6
Continuous
 62
     0
370
    -2
100
AcDbLine
 10
-1161.701055697046
 20
2161.275053981559
 30
0.0
 11
-1282.0
 21
2161.275053981559
 31
0.0
  0
LINE
  5
213
330
3C
100
AcDbEntity
  8
FLN72-5555
  6
Continuous
 62
     0
370
    -2
100
AcDbLine
 10
-1282.0
 20
2101.275053981559
 30
0.0
 11
-1282.0
 21
2161.275053981559
 31
0.0
  0
LINE
  5
214
102
{ACAD_REACTORS
330
215
102
}
330
3C
100
AcDbEntity
  8
FLN72-5555
  6
Continuous
 62
     0
370
    -2
100
AcDbLine
 10
-1282.0
 20
2093.275542262809
 30
0.0
 11
-1282.0
 21
2085.276030544059
 31
0.0
  0
LINE
  5
215
330
3C
100
AcDbEntity
  8
FLN72-5555
  6
Continuous
 62
     0
370
    -2
100
AcDbLine
 10
-1282.0
 20
2169.274565700309
 30
0.0
 11
-1282.0
 21
2177.274077419059
 31
0.0
  0
INSERT
  5
216
102
{ACAD_REACTORS
330
217
102
}
330
3C
100
AcDbEntity
  8
FLN72-5555
 62
     0
370
    -2
100
AcDbBlockReference
  2
_DOT
 10
-1282.0
 20
2101.275053981559
 30
0.0
 41
7.99951171875
 42
7.99951171875
 43
7.99951171875
 50
90.0
  0
INSERT
  5
217
330
3C
100
AcDbEntity
  8
FLN72-5555
 62
     0
370
    -2
100
AcDbBlockReference
  2
_DOT
 10
-1282.0
 20
2161.275053981559
 30
0.0
 41
7.99951171875
 42
7.99951171875
 43
7.99951171875
 50
270.0
  0
MTEXT
  5
218
330
3C
100
AcDbEntity
  8
FLN72-5555
  6
Continuous
 62
     0
370
     5
100
AcDbMText
 10
-1316.4326171875
 20
2131.275053981559
 30
0.0
 40
48.86523437500001
 41
0.0
 46
0.0
 71
     5
 72
     1
  1
\A1;60
  7
ＭＳ ゴシック
 11
0.0
 21
1.0
 31
0.0
 73
     1
 44
1.0
  0
POINT
  5
219
330
3C
100
AcDbEntity
  8
Defpoints
 62
     0
100
AcDbPoint
 10
-1134.701055697046
 20
2101.275053981559
 30
0.0
  0
POINT
  5
21A
330
3C
100
AcDbEntity
  8
Defpoints
 62
     0
100
AcDbPoint
 10
-1111.701055697046
 20
2161.275053981559
 30
0.0
  0
POINT
  5
21B
330
3C
100
AcDbEntity
  8
Defpoints
 62
     0
100
AcDbPoint
 10
-1282.0
 20
2161.275053981559
 30
0.0
  0
ENDBLK
  5
21C
330
3C
100
AcDbEntity
  8
FLN72-5555
390
1D
100
AcDbBlockEnd
  0
BLOCK
  5
21D
330
3D
100
AcDbEntity
  8
FLN72-5555
390
1D
100
AcDbBlockBegin
  2
*D27
 70
     1
 10
0.0
 20
0.0
 30
0.0
  3
*D27
  1
*D27
  0
LINE
  5
21E
330
3D
100
AcDbEntity
  8
FLN72-5555
  6
Continuous
 62
     0
370
    -2
100
AcDbLine
 10
-1184.701055697046
 20
1321.275053981559
 30
0.0
 11
-1282.0
 21
1321.275053981559
 31
0.0
  0
LINE
  5
21F
330
3D
100
AcDbEntity
  8
FLN72-5555
  6
Continuous
 62
     0
370
    -2
100
AcDbLine
 10
-1184.701055697046
 20
2101.275053981559
 30
0.0
 11
-1282.0
 21
2101.275053981559
 31
0.0
  0
LINE
  5
220
330
3D
100
AcDbEntity
  8
FLN72-5555
  6
Continuous
 62
     0
370
    -2
100
AcDbLine
 10
-1282.0
 20
1329.274565700309
 30
0.0
 11
-1282.0
 21
2093.275542262809
 31
0.0
  0
INSERT
  5
221
102
{ACAD_REACTORS
330
222
102
}
330
3D
100
AcDbEntity
  8
FLN72-5555
 62
     0
370
    -2
100
AcDbBlockReference
  2
_DOT
 10
-1282.0
 20
1321.275053981559
 30
0.0
 41
7.99951171875
 42
7.99951171875
 43
7.99951171875
 50
270.0
  0
INSERT
  5
222
330
3D
100
AcDbEntity
  8
FLN72-5555
 62
     0
370
    -2
100
AcDbBlockReference
  2
_DOT
 10
-1282.0
 20
2101.275053981559
 30
0.0
 41
7.99951171875
 42
7.99951171875
 43
7.99951171875
 50
90.0
  0
MTEXT
  5
223
102
{ACAD_REACTORS
330
224
102
}
330
3D
100
AcDbEntity
  8
FLN72-5555
  6
Continuous
 62
     0
370
     5
100
AcDbMText
 10
-1316.4326171875
 20
1711.275053981559
 30
0.0
 40
48.86523437500001
 41
0.0
 46
0.0
 71
     5
 72
     1
  1
\A1;780
  7
ＭＳ ゴシック
 11
0.0
 21
1.0
 31
0.0
 73
     1
 44
1.0
  0
POINT
  5
224
330
3D
100
AcDbEntity
  8
Defpoints
 62
     0
100
AcDbPoint
 10
-1134.701055697046
 20
1321.275053981559
 30
0.0
  0
POINT
  5
225
330
3D
100
AcDbEntity
  8
Defpoints
 62
     0
100
AcDbPoint
 10
-1134.701055697046
 20
2101.275053981559
 30
0.0
  0
POINT
  5
226
330
3D
100
AcDbEntity
  8
Defpoints
 62
     0
100
AcDbPoint
 10
-1282.0
 20
2101.275053981559
 30
0.0
  0
ENDBLK
  5
229
330
3D
100
AcDbEntity
  8
FLN72-5555
390
1D
100
AcDbBlockEnd
  0
BLOCK
  5
22A
330
3E
100
AcDbEntity
  8
FLN72-5555
390
1D
100
AcDbBlockBegin
  2
*D28
 70
     1
 10
0.0
 20
0.0
 30
0.0
  3
*D28
  1
*D28
  0
LINE
  5
22B
330
3E
100
AcDbEntity
  8
FLN72-5555
  6
Continuous
 62
     0
370
    -2
100
AcDbLine
 10
-1161.701055697046
 20
1261.275053981559
 30
0.0
 11
-1282.0
 21
1261.275053981559
 31
0.0
  0
LINE
  5
22C
330
3E
100
AcDbEntity
  8
FLN72-5555
  6
Continuous
 62
     0
370
    -2
100
AcDbLine
 10
-1184.701055697046
 20
1321.275053981559
 30
0.0
 11
-1282.0
 21
1321.275053981559
 31
0.0
  0
LINE
  5
22D
330
3E
100
AcDbEntity
  8
FLN72-5555
  6
Continuous
 62
     0
370
    -2
100
AcDbLine
 10
-1282.0
 20
1261.275053981559
 30
0.0
 11
-1282.0
 21
1321.275053981559
 31
0.0
  0
LINE
  5
22E
102
{ACAD_REACTORS
330
22F
102
}
330
3E
100
AcDbEntity
  8
FLN72-5555
  6
Continuous
 62
     0
370
    -2
100
AcDbLine
 10
-1282.0
 20
1253.275542262809
 30
0.0
 11
-1282.0
 21
1245.276030544059
 31
0.0
  0
LINE
  5
22F
330
3E
100
AcDbEntity
  8
FLN72-5555
  6
Continuous
 62
     0
370
    -2
100
AcDbLine
 10
-1282.0
 20
1329.274565700309
 30
0.0
 11
-1282.0
 21
1337.274077419059
 31
0.0
  0
INSERT
  5
230
102
{ACAD_REACTORS
330
231
102
}
330
3E
100
AcDbEntity
  8
FLN72-5555
 62
     0
370
    -2
100
AcDbBlockReference
  2
_DOT
 10
-1282.0
 20
1261.275053981559
 30
0.0
 41
7.99951171875
 42
7.99951171875
 43
7.99951171875
 50
90.0
  0
INSERT
  5
231
330
3E
100
AcDbEntity
  8
FLN72-5555
 62
     0
370
    -2
100
AcDbBlockReference
  2
_DOT
 10
-1282.0
 20
1321.275053981559
 30
0.0
 41
7.99951171875
 42
7.99951171875
 43
7.99951171875
 50
270.0
  0
MTEXT
  5
232
330
3E
100
AcDbEntity
  8
FLN72-5555
  6
Continuous
 62
     0
370
     5
100
AcDbMText
 10
-1316.4326171875
 20
1291.275053981559
 30
0.0
 40
48.86523437500001
 41
0.0
 46
0.0
 71
     5
 72
     1
  1
\A1;60
  7
ＭＳ ゴシック
 11
0.0
 21
1.0
 31
0.0
 73
     1
 44
1.0
  0
POINT
  5
233
330
3E
100
AcDbEntity
  8
Defpoints
 62
     0
100
AcDbPoint
 10
-1111.701055697046
 20
1261.275053981559
 30
0.0
  0
POINT
  5
234
330
3E
100
AcDbEntity
  8
Defpoints
 62
     0
100
AcDbPoint
 10
-1134.701055697046
 20
1321.275053981559
 30
0.0
  0
POINT
  5
235
330
3E
100
AcDbEntity
  8
Defpoints
 62
     0
100
AcDbPoint
 10
-1282.0
 20
1321.275053981559
 30
0.0
  0
ENDBLK
  5
236
330
3E
100
AcDbEntity
  8
FLN72-5555
390
1D
100
AcDbBlockEnd
  0
BLOCK
  5
237
330
3F
100
AcDbEntity
  8
FLN72-5555
390
1D
100
AcDbBlockBegin
  2
*D29
 70
     1
 10
0.0
 20
0.0
 30
0.0
  3
*D29
  1
*D29
  0
LINE
  5
238
330
3F
100
AcDbEntity
  8
FLN72-5555
  6
Continuous
 62
     0
370
    -2
100
AcDbLine
 10
-1039.701101697046
 20
1761.275122981559
 30
0.0
 11
-1039.701101697046
 21
1842.0
 31
0.0
  0
LINE
  5
239
330
3F
100
AcDbEntity
  8
FLN72-5555
  6
Continuous
 62
     0
370
    -2
100
AcDbLine
 10
-949.7011316970461
 20
1761.275122981559
 30
0.0
 11
-949.7011316970461
 21
1842.0
 31
0.0
  0
LINE
  5
23A
330
3F
100
AcDbEntity
  8
FLN72-5555
  6
Continuous
 62
     0
370
    -2
100
AcDbLine
 10
-1039.701101697046
 20
1842.0
 30
0.0
 11
-949.7011316970461
 21
1842.0
 31
0.0
  0
LINE
  5
23B
102
{ACAD_REACTORS
330
23C
102
}
330
3F
100
AcDbEntity
  8
FLN72-5555
  6
Continuous
 62
     0
370
    -2
100
AcDbLine
 10
-1047.700613415796
 20
1842.0
 30
0.0
 11
-1055.700125134546
 21
1842.0
 31
0.0
  0
LINE
  5
23C
330
3F
100
AcDbEntity
  8
FLN72-5555
  6
Continuous
 62
     0
370
    -2
100
AcDbLine
 10
-941.7016199782961
 20
1842.0
 30
0.0
 11
-933.7021082595461
 21
1842.0
 31
0.0
  0
INSERT
  5
23D
102
{ACAD_REACTORS
330
23E
102
}
330
3F
100
AcDbEntity
  8
FLN72-5555
 62
     0
370
    -2
100
AcDbBlockReference
  2
_DOT
 10
-1039.701101697046
 20
1842.0
 30
0.0
 41
7.99951171875
 42
7.99951171875
 43
7.99951171875
  0
INSERT
  5
23E
330
3F
100
AcDbEntity
  8
FLN72-5555
 62
     0
370
    -2
100
AcDbBlockReference
  2
_DOT
 10
-949.7011316970461
 20
1842.0
 30
0.0
 41
7.99951171875
 42
7.99951171875
 43
7.99951171875
 50
180.0
  0
MTEXT
  5
23F
330
3F
100
AcDbEntity
  8
FLN72-5555
  6
Continuous
 62
     0
370
     5
100
AcDbMText
 10
-994.701116697046
 20
1880.390701171875
 30
0.0
 40
48.86523437500001
 41
0.0
 46
0.0
 71
     5
 72
     1
  1
\A1;φ90
  7
ＭＳ ゴシック
 73
     1
 44
1.0
  0
POINT
  5
240
330
3F
100
AcDbEntity
  8
Defpoints
 62
     0
100
AcDbPoint
 10
-1039.701101697046
 20
1711.275122981559
 30
0.0
  0
POINT
  5
241
330
3F
100
AcDbEntity
  8
Defpoints
 62
     0
100
AcDbPoint
 10
-949.7011316970461
 20
1711.275122981559
 30
0.0
  0
POINT
  5
242
330
3F
100
AcDbEntity
  8
Defpoints
 62
     0
100
AcDbPoint
 10
-949.7011316970461
 20
1842.0
 30
0.0
  0
ENDBLK
  5
243
330
3F
100
AcDbEntity
  8
FLN72-5555
390
1D
100
AcDbBlockEnd
  0
BLOCK
  5
3DE
330
3DD
100
AcDbEntity
  8
0
  6
ByBlock
 62
     0
370
    -2
390
1D
100
AcDbBlockBegin
  2
VW_FILLEDARROW
 70
     0
 10
0.0
 20
0.0
 30
0.0
  3
VW_FILLEDARROW
  1
VW_FILLEDARROW
  0
SOLID
  5
3DF
330
3DD
100
AcDbEntity
  8
0
 62
     0
370
    -2
390
1D
100
AcDbTrace
 10
0.0
 20
0.0
 30
0.0
 11
-0.9921874999999999
 21
-0.2658558393652545
 31
0.0
 12
-0.9921874999999999
 22
0.2658558393652548
 32
0.0
 13
-0.9921874999999999
 23
0.2658558393652548
 33
0.0
  0
ENDBLK
  5
3E0
330
3DD
100
AcDbEntity
  8
0
390
1D
100
AcDbBlockEnd
  0
BLOCK
  5
41E
330
41D
100
AcDbEntity
  8
FLN72-5801
390
1D
100
AcDbBlockBegin
  2
グループ-12
 70
     0
 10
0.0
 20
0.0
 30
0.0
  3
グループ-12
  1
グループ-12
  0
LINE
  5
41F
330
41D
100
AcDbEntity
  8
0
  6
Continuous
 62
     7
370
     5
390
1D
100
AcDbLine
 10
726.672608008061
 20
2175.774756000649
 30
0.0
 11
726.672608008061
 21
2184.774756000649
 31
0.0
  0
LWPOLYLINE
  5
420
330
41D
100
AcDbEntity
  8
0
  6
Continuous
 62
     7
370
     5
390
1D
100
AcDbPolyline
 90
        4
 70
   129
 43
0.0
 10
721.4726080080608
 20
2184.774756000649
 10
731.8726080080611
 20
2184.774756000649
 10
731.8726080080611
 20
2175.774756000649
 10
721.4726080080608
 20
2175.774756000649
  0
LWPOLYLINE
  5
421
330
41D
100
AcDbEntity
  8
0
  6
Continuous
 62
     7
370
     5
390
1D
100
AcDbPolyline
 90
        4
 70
   129
 43
0.0
 10
731.8726080080611
 20
2182.974756000649
 10
736.1621601081418
 20
2182.974756000649
 10
736.1621601081418
 20
2177.574756000649
 10
731.8726080080611
 20
2177.574756000649
  0
ENDBLK
  5
422
330
41D
100
AcDbEntity
  8
FLN72-5801
390
1D
100
AcDbBlockEnd
  0
BLOCK
  5
425
330
424
100
AcDbEntity
  8
FLN72-5801
390
1D
100
AcDbBlockBegin
  2
グループ-11-1
 70
     0
 10
0.0
 20
0.0
 30
0.0
  3
グループ-11-1
  1
グループ-11-1
  0
LINE
  5
426
330
424
100
AcDbEntity
  8
0
  6
Continuous
 62
     7
370
     5
390
1D
100
AcDbLine
 10
726.6726080080608
 20
2113.174756000649
 30
0.0
 11
726.6726080080608
 21
2122.174756000649
 31
0.0
  0
LWPOLYLINE
  5
427
330
424
100
AcDbEntity
  8
0
  6
Continuous
 62
     7
370
     5
390
1D
100
AcDbPolyline
 90
        4
 70
   129
 43
0.0
 10
721.4726080080608
 20
2122.174756000649
 10
731.8726080080609
 20
2122.174756000649
 10
731.8726080080609
 20
2113.174756000649
 10
721.4726080080608
 20
2113.174756000649
  0
LWPOLYLINE
  5
428
330
424
100
AcDbEntity
  8
0
  6
Continuous
 62
     7
370
     5
390
1D
100
AcDbPolyline
 90
        4
 70
   129
 43
0.0
 10
731.8726080080609
 20
2120.37475600065
 10
736.1621601081416
 20
2120.37475600065
 10
736.1621601081416
 20
2114.974756000649
 10
731.8726080080609
 20
2114.974756000649
  0
ENDBLK
  5
429
330
424
100
AcDbEntity
  8
FLN72-5801
390
1D
100
AcDbBlockEnd
  0
BLOCK
  5
443
330
442
100
AcDbEntity
  8
FLN72-5801
390
1D
100
AcDbBlockBegin
  2
グループ-10-1
 70
     0
 10
0.0
 20
0.0
 30
0.0
  3
グループ-10-1
  1
グループ-10-1
  0
LWPOLYLINE
  5
444
330
442
100
AcDbEntity
  8
0
  6
Continuous
 62
     7
370
     5
390
1D
100
AcDbPolyline
 90
       45
 70
   128
 43
0.0
 10
738.2385373437354
 20
2084.704524323541
 42
-0.0288111621704602
 10
738.3670324761271
 20
2084.663490061455
 10
738.3946597458678
 20
2084.652878739045
 42
-0.0292067509528993
 10
738.5713660056136
 20
2084.572880648745
 10
738.6234040210836
 20
2084.545556591514
 42
-0.0326044404083756
 10
738.8889140962888
 20
2084.383247503073
 10
738.9367322030654
 20
2084.349549585017
 42
-0.034694342357125
 10
739.2685196668342
 20
2084.079462579806
 10
739.3115855890622
 20
2084.039132696392
 42
-0.0355338363249036
 10
739.6822659750583
 20
2083.638959186409
 10
739.7468860537945
 20
2083.558411837825
 42
-0.034813234731964
 10
740.08499578164
 20
2083.071047854036
 42
-0.0169395819712331
 10
740.371486894265
 20
2082.550405052414
 10
740.3936113125409
 20
2082.50676046107
 42
-0.0314567301111222
 10
740.6667276784992
 20
2081.871919896245
 10
740.7146799137115
 20
2081.737806404012
 42
-0.0146101798290792
 10
740.8956276271649
 20
2081.18092014058
 42
-0.0138752074224687
 10
741.0445811118661
 20
2080.61461107406
 10
741.0604198442109
 20
2080.546797886114
 42
-0.0161476509875289
 10
741.2023756373517
 20
2079.836142425871
 10
741.212588866188
 20
2079.774756000649
 10
741.2125888661866
 20
2194.774756000642
 42
-0.0070887237910859
 10
741.1545811795829
 20
2194.49170692588
 10
741.1059070594686
 20
2194.270214577559
 42
-0.018322635863172
 10
740.9202030713637
 20
2193.551810706908
 10
740.8623162835803
 20
2193.357544353727
 42
-0.01412369915709
 10
740.6074214740042
 20
2192.582786181278
 10
740.5745010541265
 20
2192.491493768976
 42
-0.0203052960204801
 10
740.3401787333848
 20
2191.916041866168
 10
740.2971872700215
 20
2191.821629321198
 42
-0.0135532265079699
 10
740.1153785200478
 20
2191.44945149736
 10
740.1127263315327
 20
2191.444375844354
 42
-0.0166403983631155
 10
739.9144636256365
 20
2191.093878590704
 10
739.9102034095395
 20
2191.086899737936
 42
-0.0209368123404325
 10
739.6953483180241
 20
2190.765961065163
 10
739.689549530833
 20
2190.758037880472
 42
-0.0267102369261949
 10
739.4576812471246
 20
2190.474341640896
 10
739.4508042034574
 20
2190.466789053731
 42
-0.0343275624871267
 10
739.2010938949304
 20
2190.227757463693
 10
739.1944012537163
 20
2190.222178155508
 42
-0.0437689952330796
 10
738.9252362000881
 20
2190.035076693329
 10
738.9188614829203
 20
2190.031427114289
 42
-0.0538511466496191
 10
738.6325054814375
 20
2189.906163099346
 10
738.6269720743653
 20
2189.904422495431
 42
-0.0766141566567928
 10
738.2385373437354
 20
2189.844987677758
  0
LWPOLYLINE
  5
445
330
442
100
AcDbEntity
  8
0
  6
Continuous
 62
     7
370
     5
390
1D
100
AcDbPolyline
 90
       48
 70
   128
 43
0.0
 10
736.1621601081416
 20
2079.774756000649
 10
736.1621601081454
 20
2194.774756000632
 42
0.0022334719817514
 10
736.1896113881144
 20
2194.654732921946
 10
736.2597611577211
 20
2194.35420541445
 42
0.0101377382875578
 10
736.4425921577953
 20
2193.636957311426
 10
736.5201939079604
 20
2193.356415205329
 42
0.0067406441896762
 10
736.7435336731918
 20
2192.589402615052
 10
736.7718739129159
 20
2192.496746265705
 42
0.0101311446725244
 10
736.9605232831021
 20
2191.921880279221
 10
736.9957482105202
 20
2191.821455483668
 42
0.007004529692106
 10
737.1307568416285
 20
2191.453153385529
 10
737.1342909909973
 20
2191.443914858559
 42
0.0088885676945698
 10
737.2735328829659
 20
2191.098456768637
 10
737.2788713201907
 20
2191.085862565968
 42
0.0118096918323674
 10
737.4210059120597
 20
2190.771425998664
 10
737.4284304720013
 20
2190.755983453989
 42
0.0163674833931067
 10
737.5721642684463
 20
2190.480495957634
 10
737.5819778610443
 20
2190.46309981385
 42
0.0239512361973328
 10
737.7260848454408
 20
2190.234018030073
 10
737.753682085374
 20
2190.194482705486
 42
0.038399783119067
 10
737.8639288577843
 20
2190.059858021584
 10
737.8720893920954
 20
2190.051322341867
 42
0.0265383218366893
 10
737.9818531838835
 20
2189.948078424587
 10
737.9823358029969
 20
2189.947670486707
 42
0.0835004505454585
 10
738.1092732030015
 20
2189.872419946731
 10
738.123592078546
 20
2189.866890776815
 42
0.0903501751006272
 10
738.2385373437354
 20
2189.844987677758
 10
738.2385373437354
 20
2084.704524323541
 42
0.0049817827223246
 10
738.1576784661627
 20
2084.590103950143
 10
738.023274560989
 20
2084.39583576706
 42
0.0171036750522646
 10
737.6923727846458
 20
2083.880750779622
 10
737.5715542603965
 20
2083.677736192837
 42
0.0098996075331733
 10
737.235124843868
 20
2083.086077267161
 42
0.0127195062980609
 10
736.9258343264873
 20
2082.479887331737
 10
736.8800046649601
 20
2082.384122534989
 42
0.0170524623995982
 10
736.653496593536
 20
2081.866165287275
 10
736.6180401626142
 20
2081.776914797293
 42
0.0106389416839011
 10
736.4875622387038
 20
2081.42695463348
 10
736.486756225394
 20
2081.424643741939
 42
0.0122968357415883
 10
736.3739685431681
 20
2081.073754470173
 10
736.3728785719338
 20
2081.070053479062
 42
0.014540896358862
 10
736.2810515252771
 20
2080.721120846914
 10
736.2799326362534
 20
2080.71630426454
 42
0.0173389237481148
 10
736.2124366845279
 20
2080.37199241903
 10
736.2121619310695
 20
2080.37027792584
 42
0.0210601554219644
 10
736.1716940531218
 20
2080.025348472559
 42
0.0182739673584118
 10
736.162161230476
 20
2079.775463438547
 10
736.1621601081416
 20
2079.774756000649
  0
ENDBLK
  5
446
330
442
100
AcDbEntity
  8
FLN72-5801
390
1D
100
AcDbBlockEnd
  0
BLOCK
  5
61A
330
619
100
AcDbEntity
  8
0
100
AcDbBlockBegin
  2
*D38
 70
     1
 10
0.0
 20
0.0
 30
0.0
  3
*D38
  1
*D39
  0
LINE
  5
61C
330
619
100
AcDbEntity
  8
FLN72-5555
  6
Continuous
 62
     0
370
    -2
100
AcDbLine
 10
-294.7013456970465
 20
1211.27526098156
 30
0.0
 11
-294.7013456970465
 21
1094.11136598156
 31
0.0
  0
LINE
  5
61D
330
619
100
AcDbEntity
  8
FLN72-5555
  6
Continuous
 62
     0
370
    -2
100
AcDbLine
 10
-234.7013456970465
 20
1234.27524498156
 30
0.0
 11
-234.7013456970465
 21
1094.11136598156
 31
0.0
  0
LINE
  5
61E
330
619
100
AcDbEntity
  8
FLN72-5555
  6
Continuous
 62
     0
370
    -2
100
AcDbLine
 10
-286.7018339782965
 20
1094.11136598156
 30
0.0
 11
-242.7008574157965
 21
1094.11136598156
 31
0.0
  0
INSERT
  5
61F
330
619
100
AcDbEntity
  8
FLN72-5555
 62
     0
370
    -2
100
AcDbBlockReference
  2
_DOT
 10
-294.7013456970465
 20
1094.11136598156
 30
0.0
 41
7.99951171875
 42
7.99951171875
 43
7.99951171875
 50
180.0
  0
INSERT
  5
620
330
619
100
AcDbEntity
  8
FLN72-5555
 62
     0
370
    -2
100
AcDbBlockReference
  2
_DOT
 10
-234.7013456970465
 20
1094.11136598156
 30
0.0
 41
7.99951171875
 42
7.99951171875
 43
7.99951171875
  0
MTEXT
  5
621
330
619
100
AcDbEntity
  8
FLN72-5555
  6
Continuous
 62
     0
370
     5
100
AcDbMText
 10
-181.2182354531251
 20
1128.54398316906
 30
0.0
 40
48.86523437500001
 41
0.0
 46
0.0
 71
     5
 72
     1
  1
\A1;60
  7
ＭＳ ゴシック
 73
     1
 44
1.0
  0
POINT
  5
622
330
619
100
AcDbEntity
  8
Defpoints
 62
     0
100
AcDbPoint
 10
-294.7013456970465
 20
1261.27526098156
 30
0.0
  0
POINT
  5
623
330
619
100
AcDbEntity
  8
Defpoints
 62
     0
100
AcDbPoint
 10
-234.7013456970465
 20
1284.27524498156
 30
0.0
  0
POINT
  5
624
330
619
100
AcDbEntity
  8
Defpoints
 62
     0
100
AcDbPoint
 10
-234.7013456970465
 20
1094.11136598156
 30
0.0
  0
ENDBLK
  5
61B
330
619
100
AcDbEntity
  8
0
100
AcDbBlockEnd
  0
BLOCK
  5
626
330
625
100
AcDbEntity
  8
0
100
AcDbBlockBegin
  2
*D39
 70
     1
 10
0.0
 20
0.0
 30
0.0
  3
*D39
  1
*D40
  0
LINE
  5
628
330
625
100
AcDbEntity
  8
FLN72-5555
  6
Continuous
 62
     0
370
    -2
100
AcDbLine
 10
-1117.872246432136
 20
545.9191769562995
 30
0.0
 11
-1219.562490697047
 21
545.9191769562995
 31
0.0
  0
LINE
  5
629
330
625
100
AcDbEntity
  8
FLN72-5555
  6
Continuous
 62
     0
370
    -2
100
AcDbLine
 10
-1178.494024697046
 20
580.9191769562995
 30
0.0
 11
-1219.562490697047
 21
580.9191769562995
 31
0.0
  0
LINE
  5
62A
330
625
100
AcDbEntity
  8
FLN72-5555
  6
Continuous
 62
     0
370
    -2
100
AcDbLine
 10
-1219.562490697047
 20
545.9191769562995
 30
0.0
 11
-1219.562490697047
 21
580.9191769562995
 31
0.0
  0
LINE
  5
62B
330
625
100
AcDbEntity
  8
FLN72-5555
  6
Continuous
 62
     0
370
    -2
100
AcDbLine
 10
-1219.562490697047
 20
537.9196652375495
 30
0.0
 11
-1219.562490697047
 21
529.9201535187995
 31
0.0
  0
LINE
  5
62C
330
625
100
AcDbEntity
  8
FLN72-5555
  6
Continuous
 62
     0
370
    -2
100
AcDbLine
 10
-1219.562490697047
 20
588.9186886750495
 30
0.0
 11
-1219.562490697047
 21
596.9182003937995
 31
0.0
  0
INSERT
  5
62D
330
625
100
AcDbEntity
  8
FLN72-5555
 62
     0
370
    -2
100
AcDbBlockReference
  2
_DOT
 10
-1219.562490697047
 20
545.9191769562995
 30
0.0
 41
7.99951171875
 42
7.99951171875
 43
7.99951171875
 50
90.0
  0
INSERT
  5
62E
330
625
100
AcDbEntity
  8
FLN72-5555
 62
     0
370
    -2
100
AcDbBlockReference
  2
_DOT
 10
-1219.562490697047
 20
580.9191769562995
 30
0.0
 41
7.99951171875
 42
7.99951171875
 43
7.99951171875
 50
270.0
  0
MTEXT
  5
62F
330
625
100
AcDbEntity
  8
FLN72-5555
  6
Continuous
 62
     0
370
     5
100
AcDbMText
 10
-1253.402409532336
 20
652.5261231840963
 30
0.0
 40
48.86523437500001
 41
0.0
 46
0.0
 71
     5
 72
     1
  1
\A1;35(深さ)
  7
ＭＳ ゴシック
 11
0.0
 21
1.0
 31
0.0
 73
     1
 44
1.0
  0
POINT
  5
630
330
625
100
AcDbEntity
  8
Defpoints
 62
     0
100
AcDbPoint
 10
-1067.872246432136
 20
545.9191769562995
 30
0.0
  0
POINT
  5
631
330
625
100
AcDbEntity
  8
Defpoints
 62
     0
100
AcDbPoint
 10
-1128.494024697046
 20
580.9191769562995
 30
0.0
  0
POINT
  5
632
330
625
100
AcDbEntity
  8
Defpoints
 62
     0
100
AcDbPoint
 10
-1219.562490697047
 20
580.9191769562995
 30
0.0
  0
ENDBLK
  5
627
330
625
100
AcDbEntity
  8
0
100
AcDbBlockEnd
  0
BLOCK
  5
634
330
633
100
AcDbEntity
  8
0
100
AcDbBlockBegin
  2
*D40
 70
     1
 10
0.0
 20
0.0
 30
0.0
  3
*D40
  1
*D41
  0
LINE
  5
636
330
633
100
AcDbEntity
  8
FLN72-5555
  6
Continuous
 62
     0
370
    -2
100
AcDbLine
 10
-1134.701055697046
 20
504.9191769562995
 30
0.0
 11
-1134.701055697046
 21
313.6697869562995
 31
0.0
  0
LINE
  5
637
330
633
100
AcDbEntity
  8
FLN72-5555
  6
Continuous
 62
     0
370
    -2
100
AcDbLine
 10
-994.7011166970465
 20
482.1341419562996
 30
0.0
 11
-994.7011166970465
 21
313.6697869562995
 31
0.0
  0
LINE
  5
638
330
633
100
AcDbEntity
  8
FLN72-5555
  6
Continuous
 62
     0
370
    -2
100
AcDbLine
 10
-1126.701543978296
 20
313.6697869562995
 30
0.0
 11
-1002.700628415796
 21
313.6697869562995
 31
0.0
  0
INSERT
  5
639
330
633
100
AcDbEntity
  8
FLN72-5555
 62
     0
370
    -2
100
AcDbBlockReference
  2
_DOT
 10
-1134.701055697046
 20
313.6697869562995
 30
0.0
 41
7.99951171875
 42
7.99951171875
 43
7.99951171875
 50
180.0
  0
INSERT
  5
63A
330
633
100
AcDbEntity
  8
FLN72-5555
 62
     0
370
    -2
100
AcDbBlockReference
  2
_DOT
 10
-994.7011166970465
 20
313.6697869562995
 30
0.0
 41
7.99951171875
 42
7.99951171875
 43
7.99951171875
  0
MTEXT
  5
63B
330
633
100
AcDbEntity
  8
FLN72-5555
  6
Continuous
 62
     0
370
     5
100
AcDbMText
 10
-1064.701086197046
 20
353.2701319019125
 30
0.0
 40
48.86523437500001
 41
0.0
 46
0.0
 71
     5
 72
     1
  1
\A1;140
  7
ＭＳ ゴシック
 73
     1
 44
1.0
  0
POINT
  5
63C
330
633
100
AcDbEntity
  8
Defpoints
 62
     0
100
AcDbPoint
 10
-1134.701055697046
 20
554.9191769562995
 30
0.0
  0
POINT
  5
63D
330
633
100
AcDbEntity
  8
Defpoints
 62
     0
100
AcDbPoint
 10
-994.7011166970465
 20
532.1341419562996
 30
0.0
  0
POINT
  5
63E
330
633
100
AcDbEntity
  8
Defpoints
 62
     0
100
AcDbPoint
 10
-994.7011166970465
 20
313.6697869562995
 30
0.0
  0
ENDBLK
  5
635
330
633
100
AcDbEntity
  8
0
100
AcDbBlockEnd
  0
BLOCK
  5
640
330
63F
100
AcDbEntity
  8
0
100
AcDbBlockBegin
  2
*D41
 70
     1
 10
0.0
 20
0.0
 30
0.0
  3
*D41
  1
*D42
  0
LINE
  5
642
330
63F
100
AcDbEntity
  8
FLN72-5555
  6
Continuous
 62
     0
370
    -2
100
AcDbLine
 10
1559.815541802953
 20
548.9191769562995
 30
0.0
 11
1647.416208072678
 21
548.9191769562995
 31
0.0
  0
LINE
  5
643
330
63F
100
AcDbEntity
  8
FLN72-5555
  6
Continuous
 62
     0
370
    -2
100
AcDbLine
 10
1559.815541802953
 20
580.9191769562995
 30
0.0
 11
1647.416208072678
 21
580.9191769562995
 31
0.0
  0
LINE
  5
644
330
63F
100
AcDbEntity
  8
FLN72-5555
  6
Continuous
 62
     0
370
    -2
100
AcDbLine
 10
1647.416208072678
 20
548.9191769562995
 30
0.0
 11
1647.416208072678
 21
580.9191769562995
 31
0.0
  0
LINE
  5
645
330
63F
100
AcDbEntity
  8
FLN72-5555
  6
Continuous
 62
     0
370
    -2
100
AcDbLine
 10
1647.416208072678
 20
540.9196652375495
 30
0.0
 11
1647.416208072678
 21
532.9201535187995
 31
0.0
  0
LINE
  5
646
330
63F
100
AcDbEntity
  8
FLN72-5555
  6
Continuous
 62
     0
370
    -2
100
AcDbLine
 10
1647.416208072678
 20
588.9186886750495
 30
0.0
 11
1647.416208072678
 21
596.9182003937995
 31
0.0
  0
INSERT
  5
647
330
63F
100
AcDbEntity
  8
FLN72-5555
 62
     0
370
    -2
100
AcDbBlockReference
  2
_DOT
 10
1647.416208072678
 20
548.9191769562995
 30
0.0
 41
7.99951171875
 42
7.99951171875
 43
7.99951171875
 50
90.0
  0
INSERT
  5
648
330
63F
100
AcDbEntity
  8
FLN72-5555
 62
     0
370
    -2
100
AcDbBlockReference
  2
_DOT
 10
1647.416208072678
 20
580.9191769562995
 30
0.0
 41
7.99951171875
 42
7.99951171875
 43
7.99951171875
 50
270.0
  0
MTEXT
  5
649
330
63F
100
AcDbEntity
  8
FLN72-5555
  6
Continuous
 62
     0
370
     5
100
AcDbMText
 10
1657.416208072678
 20
633.8048462850742
 30
0.0
 40
48.86523437500001
 41
0.0
 46
0.0
 71
     5
 72
     1
  1
\A1;32
  7
ＭＳ ゴシック
 11
0.0
 21
1.0
 31
0.0
 73
     1
 44
1.0
  0
POINT
  5
64A
330
63F
100
AcDbEntity
  8
Defpoints
 62
     0
100
AcDbPoint
 10
1509.815541802953
 20
548.9191769562995
 30
0.0
  0
POINT
  5
64B
330
63F
100
AcDbEntity
  8
Defpoints
 62
     0
100
AcDbPoint
 10
1509.815541802953
 20
580.9191769562995
 30
0.0
  0
POINT
  5
64C
330
63F
100
AcDbEntity
  8
Defpoints
 62
     0
100
AcDbPoint
 10
1647.416208072678
 20
580.9191769562995
 30
0.0
  0
ENDBLK
  5
641
330
63F
100
AcDbEntity
  8
0
100
AcDbBlockEnd
  0
BLOCK
  5
982
330
981
100
AcDbEntity
  8
0
100
AcDbBlockBegin
  2
*D58
 70
     1
 10
0.0
 20
0.0
 30
0.0
  3
*D58
  1
*D61
  0
LINE
  5
984
330
981
100
AcDbEntity
  8
排水金具
  6
Continuous
 62
     0
370
    -2
100
AcDbLine
 10
-16.03001580338265
 20
-1145.096679098466
 30
0.0
 11
-21.78001580338308
 21
-1145.096679098466
 31
0.0
  0
LINE
  5
985
330
981
100
AcDbEntity
  8
排水金具
  6
Continuous
 62
     0
370
    -2
100
AcDbLine
 10
-344.8300109205702
 20
-1345.096679098465
 30
0.0
 11
-21.78001580338309
 21
-1345.096679098465
 31
0.0
  0
LINE
  5
986
330
981
100
AcDbEntity
  8
排水金具
  6
Continuous
 62
     0
370
    -2
100
AcDbLine
 10
-21.78001580338308
 20
-1153.096190817216
 30
0.0
 11
-21.78001580338309
 21
-1337.097167379715
 31
0.0
  0
INSERT
  5
987
330
981
100
AcDbEntity
  8
排水金具
 62
     0
370
    -2
100
AcDbBlockReference
  2
_DOT
 10
-21.78001580338308
 20
-1145.096679098466
 30
0.0
 41
7.99951171875
 42
7.99951171875
 43
7.99951171875
 50
90.0
  0
INSERT
  5
988
330
981
100
AcDbEntity
  8
排水金具
 62
     0
370
    -2
100
AcDbBlockReference
  2
_DOT
 10
-21.78001580338309
 20
-1345.096679098465
 30
0.0
 41
7.99951171875
 42
7.99951171875
 43
7.99951171875
 50
270.0
  0
MTEXT
  5
989
330
981
100
AcDbEntity
  8
排水金具
  6
Continuous
 62
     0
370
     5
100
AcDbMText
 10
-51.25174152437921
 20
-1394.466632529144
 30
0.0
 40
43.65625
 41
0.0
 46
0.0
 71
     5
 72
     1
  1
\A1;50
  7
MS UI Gothic
 11
5.329070518200764E-17
 21
1.0
 31
0.0
 73
     1
 44
1.0
  0
POINT
  5
98A
330
981
100
AcDbEntity
  8
Defpoints
 62
     0
100
AcDbPoint
 10
-66.03001580338264
 20
-1145.096679098466
 30
0.0
  0
POINT
  5
98B
330
981
100
AcDbEntity
  8
Defpoints
 62
     0
100
AcDbPoint
 10
-394.8300109205702
 20
-1345.096679098465
 30
0.0
  0
POINT
  5
98C
330
981
100
AcDbEntity
  8
Defpoints
 62
     0
100
AcDbPoint
 10
-21.78001580338309
 20
-1345.096679098465
 30
0.0
  0
ENDBLK
  5
983
330
981
100
AcDbEntity
  8
0
100
AcDbBlockEnd
  0
ENDSEC
  0
SECTION
  2
ENTITIES
  0
MTEXT
  5
244
330
A
100
AcDbEntity
  8
template
 62
     7
390
1D
100
AcDbMText
 10
-1939.754647862728
 20
-2277.879402468207
 30
0.0
 40
32.57682291666666
 41
0.0
 46
0.0
 71
     1
 72
     1
  1
品名
  7
ＭＳ ゴシック
 73
     1
 44
0.7828267384257843
  0
MTEXT
  5
245
330
A
100
AcDbEntity
  8
template
 62
     7
390
1D
100
AcDbMText
 10
-1939.754647862728
 20
-2447.879402468207
 30
0.0
 40
32.57682291666666
 41
0.0
 46
0.0
 71
     1
 72
     1
  1
仕様
  7
ＭＳ ゴシック
 73
     1
 44
0.7828267384257843
  0
MTEXT
  5
246
330
A
100
AcDbEntity
  8
template
 62
     7
390
1D
100
AcDbMText
 10
-1833.754647862728
 20
-2335.044324343207
 30
0.0
 40
48.86523437500001
 41
0.0
 46
0.0
 71
     1
 72
     1
  1
シャワートレー　-KALDEWEI,Ladoplan-
  7
ＭＳ ゴシック
 73
     1
 44
0.7828267384257843
  0
LINE
  5
247
330
A
100
AcDbEntity
  8
template
  6
Continuous
 62
     7
370
     5
390
1D
100
AcDbLine
 10
1946.245352136309
 20
-2431.049558718207
 30
0.0
 11
-1953.754647863692
 21
-2431.049558718207
 31
0.0
  0
LWPOLYLINE
  5
248
330
A
100
AcDbEntity
  8
template
  6
Continuous
 62
     7
370
     5
390
1D
100
AcDbPolyline
 90
        5
 70
   128
 43
0.0
 10
1946.245352137274
 20
2828.950441281793
 10
-1953.754647862728
 20
2828.950441281793
 10
-1953.754647862728
 20
-2771.049558718207
 10
1946.245352137274
 20
-2771.049558718207
 10
1946.245352137274
 20
2828.950441281793
  0
LINE
  5
249
330
A
100
AcDbEntity
  8
template
  6
Continuous
 62
     7
370
     5
390
1D
100
AcDbLine
 10
1946.245352136309
 20
-2261.049558718207
 30
0.0
 11
-1953.754647863692
 21
-2261.049558718207
 31
0.0
  0
LINE
  5
24A
330
A
100
AcDbEntity
  8
template
  6
Continuous
 62
     7
370
     5
390
1D
100
AcDbLine
 10
1946.245352137274
 20
-2601.049558718207
 30
0.0
 11
440.2453521372742
 21
-2601.049558718207
 31
0.0
  0
MTEXT
  5
24B
330
A
100
AcDbEntity
  8
template
 62
     7
390
1D
100
AcDbMText
 10
-1953.754647862321
 20
-2794.757202831921
 30
0.0
 40
43.43576388888889
 41
0.0
 46
0.0
 71
     1
 72
     1
  1
110217SH
  7
ＭＳ ゴシック
 73
     1
 44
0.7828267384257843
  0
MTEXT
  5
24C
330
A
100
AcDbEntity
  8
template
 62
     7
390
1D
100
AcDbMText
 10
499.9881646417934
 20
-2660.870347664822
 30
0.0
 40
48.86523437500001
 41
0.0
 46
0.0
 71
     1
 72
     1
  1
大洋金物株式会社 ティーフォルム事業部
  7
ＭＳ ゴシック
 73
     1
 44
0.7828267384257843
  0
INSERT
  5
24D
330
A
100
AcDbEntity
  8
template
 62
     7
390
1D
100
AcDbBlockReference
  2
グループ-1
 10
1205.284100740546
 20
841.2066384999999
 30
0.0
  0
MTEXT
  5
24E
330
A
100
AcDbEntity
  8
template
 62
     7
390
1D
100
AcDbMText
 10
1564.245352137792
 20
-2505.044324343207
 30
0.0
 40
48.86523437500001
 41
0.0
 46
0.0
 71
     1
 72
     1
  1
1:20
  7
ＭＳ ゴシック
 73
     1
 44
0.7828267384257843
  0
MTEXT
  5
24F
330
A
100
AcDbEntity
  8
template
 62
     7
390
1D
100
AcDbMText
 10
1458.245352137791
 20
-2447.879402468207
 30
0.0
 40
32.57682291666666
 41
0.0
 46
0.0
 71
     1
 72
     1
  1
縮尺
  7
ＭＳ ゴシック
 73
     1
 44
0.7828267384257843
  0
LINE
  5
250
330
A
100
AcDbEntity
  8
template
  6
Continuous
 62
     7
370
     5
390
1D
100
AcDbLine
 10
1444.245352137791
 20
-2601.049558718207
 30
0.0
 11
1444.245352137791
 21
-2431.049558718207
 31
0.0
  0
MTEXT
  5
251
330
A
100
AcDbEntity
  8
template
 62
     7
390
1D
100
AcDbMText
 10
956.2453521377917
 20
-2447.879402468207
 30
0.0
 40
32.57682291666666
 41
0.0
 46
0.0
 71
     1
 72
     1
  1
容量
  7
ＭＳ ゴシック
 73
     1
 44
0.7828267384257843
  0
LINE
  5
252
330
A
100
AcDbEntity
  8
template
  6
Continuous
 62
     7
370
     5
390
1D
100
AcDbLine
 10
942.2453521377917
 20
-2601.049558718207
 30
0.0
 11
942.2453521377917
 21
-2431.049558718207
 31
0.0
  0
MTEXT
  5
253
330
A
100
AcDbEntity
  8
template
 62
     7
390
1D
100
AcDbMText
 10
454.2453521377917
 20
-2277.879402468207
 30
0.0
 40
32.57682291666666
 41
0.0
 46
0.0
 71
     1
 72
     1
  1
品番
  7
ＭＳ ゴシック
 73
     1
 44
0.7828267384257843
  0
MTEXT
  5
254
330
A
100
AcDbEntity
  8
template
 62
     7
390
1D
100
AcDbMText
 10
454.2453521377917
 20
-2447.879402468207
 30
0.0
 40
32.57682291666666
 41
0.0
 46
0.0
 71
     1
 72
     1
  1
重量
  7
ＭＳ ゴシック
 73
     1
 44
0.7828267384257843
  0
MTEXT
  5
255
330
A
100
AcDbEntity
  8
template
 62
     7
390
1D
100
AcDbMText
 10
560.2453521377917
 20
-2335.044324343207
 30
0.0
 40
48.86523437500001
 41
0.0
 46
0.0
 71
     1
 72
     1
  1
FLN72-5555
  7
ＭＳ ゴシック
 73
     1
 44
0.7828267384257843
  0
MTEXT
  5
256
330
A
100
AcDbEntity
  8
template
 62
     7
390
1D
100
AcDbMText
 10
560.2453521377917
 20
-2505.044324343207
 30
0.0
 40
48.86523437500001
 41
0.0
 46
0.0
 71
     1
 72
     1
  1
22kg
  7
ＭＳ ゴシック
 73
     1
 44
0.7828267384257843
  0
LINE
  5
257
330
A
100
AcDbEntity
  8
template
  6
Continuous
 62
     7
370
     5
390
1D
100
AcDbLine
 10
440.2453521377917
 20
-2771.049558718207
 30
0.0
 11
440.2453521377917
 21
-2261.049558718207
 31
0.0
  0
MTEXT
  5
258
330
A
100
AcDbEntity
  8
template
 62
     7
390
1D
100
AcDbMText
 10
-1833.754647862728
 20
-2505.044324343207
 30
0.0
 40
48.86523437500001
 41
0.0
 46
0.0
 71
     1
 72
     1
  1
トレー用排水金具,ポリスチレン製設置用ベース付属/\Pイージークリーンフィニッシュ付き/鋼板ホーロー/ホワイト
  7
ＭＳ ゴシック
 73
     1
 44
1.130749733281688
  0
LINE
  5
259
330
A
100
AcDbEntity
  8
排水金具
  6
STYLE_01
 62
     7
370
     5
390
1D
100
AcDbLine
 10
-466.0300158033833
 20
-907.0966790984659
 30
0.0
 11
-466.0300158033833
 21
-1392.961361412977
 31
0.0
  0
LINE
  5
25A
330
A
100
AcDbEntity
  8
排水金具
  6
Continuous
 62
     7
370
    15
390
1D
100
AcDbLine
 10
-646.0300158033833
 20
-1325.096679098467
 30
0.0
 11
-646.0300158033833
 21
-1037.096679098466
 31
0.0
  0
ARC
  5
25B
330
A
100
AcDbEntity
  8
排水金具
  6
Continuous
 62
     7
370
    15
390
1D
100
AcDbCircle
 10
-626.0300158033833
 20
-1325.096679098467
 30
0.0
 40
20.0
100
AcDbArc
 50
180.0
 51
270.0
  0
LINE
  5
25C
330
A
100
AcDbEntity
  8
排水金具
  6
Continuous
 62
     7
370
    15
390
1D
100
AcDbLine
 10
-394.8300109205702
 20
-1345.096679098465
 30
0.0
 11
-626.0300158033833
 21
-1345.096679098465
 31
0.0
  0
LINE
  5
25D
330
A
100
AcDbEntity
  8
排水金具
  6
Continuous
 62
     7
370
    15
390
1D
100
AcDbLine
 10
-286.0300158033833
 20
-1037.096679098466
 30
0.0
 11
-286.0300158033833
 21
-1057.096679098466
 31
0.0
  0
LINE
  5
25E
330
A
100
AcDbEntity
  8
排水金具
  6
Continuous
 62
     7
370
    15
390
1D
100
AcDbLine
 10
-234.0300158033835
 20
-1057.096679098466
 30
0.0
 11
-286.0300158033833
 21
-1057.096679098466
 31
0.0
  0
LINE
  5
25F
330
A
100
AcDbEntity
  8
排水金具
  6
Continuous
 62
     7
370
    15
390
1D
100
AcDbLine
 10
-234.0300158033835
 20
-1233.096679098467
 30
0.0
 11
-286.0300158033833
 21
-1233.096679098467
 31
0.0
  0
ARC
  5
260
330
A
100
AcDbEntity
  8
排水金具
  6
Continuous
 62
     7
370
    15
390
1D
100
AcDbCircle
 10
-136.6966824700505
 20
-1145.096679098466
 30
0.0
 40
173.3333333333331
100
AcDbArc
 50
149.4897625938844
 51
210.510237406116
  0
LINE
  5
261
330
A
100
AcDbEntity
  8
排水金具
  6
Continuous
 62
     7
370
    15
390
1D
100
AcDbLine
 10
-286.0300158033833
 20
-1233.096679098467
 30
0.0
 11
-286.0300158033833
 21
-1263.096679098467
 31
0.0
  0
LINE
  5
262
330
A
100
AcDbEntity
  8
排水金具
  6
Continuous
 62
     7
370
    15
390
1D
100
AcDbLine
 10
-286.0300158033833
 20
-1263.096679098467
 30
0.0
 11
-354.0300158033833
 21
-1263.096679098467
 31
0.0
  0
INSERT
  5
263
330
A
100
AcDbEntity
  8
排水金具
 62
     7
390
1D
100
AcDbBlockReference
  2
グループ-2
 10
1927.578755129529
 20
398.101619825938
 30
0.0
 41
4.0
 42
4.0
 43
4.0
  0
INSERT
  5
264
330
A
100
AcDbEntity
  8
排水金具
 62
     7
390
1D
100
AcDbBlockReference
  2
グループ-3
 10
1927.578755129529
 20
398.101619825938
 30
0.0
 41
4.0
 42
4.0
 43
4.0
  0
INSERT
  5
266
330
A
100
AcDbEntity
  8
排水金具
 62
     7
390
1D
100
AcDbBlockReference
  2
グループ-4
 10
1927.578755129529
 20
398.101619825938
 30
0.0
 41
4.0
 42
4.0
 43
4.0
  0
POLYLINE
  5
27D
330
A
100
AcDbEntity
  8
排水金具
  6
Continuous
 62
     7
370
    15
390
1D
100
AcDb2dPolyline
 66
     1
 10
0.0
 20
0.0
 30
0.0
 70
     1
 75
     5
  0
VERTEX
  5
27E
330
27D
100
AcDbEntity
  8
排水金具
  6
Continuous
 62
     7
370
    15
390
1D
100
AcDbVertex
100
AcDb2dVertex
 10
-234.0300158033835
 20
-1053.096679098466
 30
0.0
  0
VERTEX
  5
27F
330
27D
100
AcDbEntity
  8
排水金具
  6
Continuous
 62
     7
370
    15
390
1D
100
AcDbVertex
100
AcDb2dVertex
 10
-226.0300158033835
 20
-1053.096679098466
 30
0.0
  0
VERTEX
  5
280
330
27D
100
AcDbEntity
  8
排水金具
  6
Continuous
 62
     7
370
    15
390
1D
100
AcDbVertex
100
AcDb2dVertex
 10
-226.0300158033835
 20
-1237.096679098467
 30
0.0
  0
VERTEX
  5
281
330
27D
100
AcDbEntity
  8
排水金具
  6
Continuous
 62
     7
370
    15
390
1D
100
AcDbVertex
100
AcDb2dVertex
 10
-234.0300158033835
 20
-1237.096679098467
 30
0.0
  0
SEQEND
  5
282
330
27D
100
AcDbEntity
  8
排水金具
  6
Continuous
 62
     7
370
    15
390
1D
  0
DIMENSION
  5
288
330
A
100
AcDbEntity
  8
排水金具
  6
Continuous
 62
     7
370
     5
390
1D
100
AcDbDimension
  2
*D6
 10
-706.0300158033833
 20
-605.0966790984659
 30
0.0
 11
-466.0300158033834
 21
-566.6982884734658
 31
0.0
 70
    32
 71
     5
 42
119.9999999999999
 73
     0
 74
     0
 75
     0
  3
T-form線あり
100
AcDbAlignedDimension
 13
-226.0300158033835
 23
-725.0966790984659
 33
0.0
 14
-706.0300158033833
 24
-725.0966790984659
 34
0.0
100
AcDbRotatedDimension
1001
ACAD
1000
DSTYLE
1002
{
1070
   279
1070
     2
1070
   340
1005
40
1070
   144
1040
0.25
1070
     3
1000
φ<>
1070
   147
1040
10.0
1002
}
  0
DIMENSION
  5
289
330
A
100
AcDbEntity
  8
排水金具
  6
Continuous
 62
     7
370
     5
390
1D
100
AcDbDimension
  2
*D7
 10
-696.0300158033833
 20
-859.0966790984659
 30
0.0
 11
-466.0300158033834
 21
-820.6982884734658
 31
0.0
 70
    32
 71
     5
 42
114.9999999999999
 73
     0
 74
     0
 75
     0
  3
T-form線あり
100
AcDbAlignedDimension
 13
-236.0300158033835
 23
-973.0966790984659
 33
0.0
 14
-696.0300158033833
 24
-973.0966790984659
 34
0.0
100
AcDbRotatedDimension
1001
ACAD
1000
DSTYLE
1002
{
1070
   279
1070
     2
1070
   340
1005
40
1070
   144
1040
0.25
1070
     3
1000
φ<>
1070
   147
1040
10.0
1002
}
  0
DIMENSION
  5
28A
330
A
100
AcDbEntity
  8
排水金具
  6
Continuous
 62
     7
370
     5
390
1D
100
AcDbDimension
  2
*D8
 10
-802.0300158033833
 20
-1025.096679098466
 30
0.0
 11
-833.9672814283833
 21
-1185.096679098466
 31
0.0
 70
    32
 71
     5
 42
79.99999999999989
 73
     0
 74
     0
 75
     0
  3
T-form線あり
100
AcDbAlignedDimension
 13
-626.0300158033833
 23
-1345.096679098465
 33
0.0
 14
-706.0300158033833
 24
-1025.096679098466
 34
0.0
 50
90.0
100
AcDbRotatedDimension
1001
ACAD
1000
DSTYLE
1002
{
1070
   279
1070
     2
1070
   340
1005
40
1070
   144
1040
0.25
1070
   147
1040
10.0
1002
}
  0
DIMENSION
  5
28B
330
A
100
AcDbEntity
  8
排水金具
  6
Continuous
 62
     7
370
     5
390
1D
100
AcDbDimension
  2
*D9
 10
-646.0300158033833
 20
-1487.096679098465
 30
0.0
 11
-466.0300158033833
 21
-1448.698288473465
 31
0.0
 70
    32
 71
     5
 42
90.0
 73
     0
 74
     0
 75
     0
  3
T-form線あり
100
AcDbAlignedDimension
 13
-286.0300158033833
 23
-1263.096679098467
 33
0.0
 14
-646.0300158033833
 24
-1325.096679098467
 34
0.0
100
AcDbRotatedDimension
1001
ACAD
1000
DSTYLE
1002
{
1070
   279
1070
     2
1070
   340
1005
40
1070
   144
1040
0.25
1070
     3
1000
φ<>
1070
   147
1040
10.0
1002
}
  0
DIMENSION
  5
28C
330
A
100
AcDbEntity
  8
排水金具
  6
Continuous
 62
     7
370
     5
390
1D
100
AcDbDimension
  2
*D58
 10
-21.78001580338309
 20
-1345.096679098465
 30
0.0
 11
-51.25174152437921
 21
-1394.466632529144
 31
0.0
 70
   160
 71
     5
 42
49.99999999999989
 73
     0
 74
     0
 75
     0
  3
T-form線あり
100
AcDbAlignedDimension
 13
-66.03001580338264
 23
-1145.096679098466
 33
0.0
 14
-394.8300109205702
 24
-1345.096679098465
 34
0.0
 50
90.0
100
AcDbRotatedDimension
1001
ACAD
1000
DSTYLE
1002
{
1070
   279
1070
     2
1070
   340
1005
40
1070
   144
1040
0.25
1070
   147
1040
10.0
1002
}
  0
MTEXT
  5
28D
330
A
100
AcDbEntity
  8
排水金具
 62
     7
390
1D
100
AcDbMText
 10
-956.3241819111163
 20
-415.0414735984664
 30
0.0
 40
43.65625
 41
0.0
 46
43.65625
 71
     1
 72
     1
  1
{付属排水部品 (No to scale)}
  7
ＭＳ ゴシック
 73
     1
 44
0.8762322015334064
1001
ACAD
1000
ACAD_MTEXT_DEFINED_HEIGHT_BEGIN
1070
    46
1040
43.65625
1000
ACAD_MTEXT_DEFINED_HEIGHT_END
  0
DIMENSION
  5
2B6
330
A
100
AcDbEntity
  8
排水金具
  6
Continuous
 62
     7
370
     5
390
1D
100
AcDbDimension
  2
*D13
 10
336.9170843072488
 20
-1221.036211598465
 30
0.0
 11
298.5186936822488
 21
-1145.096679098466
 31
0.0
 70
    32
 71
     5
 42
37.96976624999985
 73
     0
 74
     0
 75
     0
  3
T-form線あり
100
AcDbAlignedDimension
 13
66.13230951544597
 23
-1069.157146598466
 33
0.0
 14
66.50085201037041
 24
-1221.036211598465
 34
0.0
 50
90.0
100
AcDbRotatedDimension
1001
ACAD
1000
DSTYLE
1002
{
1070
   279
1070
     2
1070
   340
1005
40
1070
   144
1040
0.25
1070
     3
1000
φ<>
1070
   147
1040
10.0
1002
}
  0
LINE
  5
2B7
330
A
100
AcDbEntity
  8
排水金具
  6
STYLE_01
 62
     7
370
     5
390
1D
100
AcDbLine
 10
-367.2452410115802
 20
-1145.096679098466
 30
0.0
 11
238.6564885351912
 21
-1145.096679098466
 31
0.0
  0
ARC
  5
2BB
330
A
100
AcDbEntity
  8
FLN72-5555
  6
STYLE_01
 62
     8
370
    15
390
1D
100
AcDbCircle
 10
-994.7011166970465
 20
1711.275122981559
 30
0.0
 40
67.16517600000043
100
AcDbArc
 50
0.0
 51
180.0
  0
ARC
  5
2BC
330
A
100
AcDbEntity
  8
FLN72-5555
  6
STYLE_01
 62
     8
370
    15
390
1D
100
AcDbCircle
 10
-994.7011166970465
 20
1711.275122981559
 30
0.0
 40
44.99998500000038
100
AcDbArc
 50
0.0
 51
180.0
  0
ARC
  5
2BD
330
A
100
AcDbEntity
  8
FLN72-5555
  6
STYLE_01
 62
     8
370
    15
390
1D
100
AcDbCircle
 10
-994.7011166970465
 20
1711.275122981559
 30
0.0
 40
67.16517599999952
100
AcDbArc
 50
180.0
 51
0.0
  0
ARC
  5
2BE
330
A
100
AcDbEntity
  8
FLN72-5555
  6
STYLE_01
 62
     8
370
    15
390
1D
100
AcDbCircle
 10
-994.7011166970465
 20
1711.275122981559
 30
0.0
 40
44.99998499999947
100
AcDbArc
 50
180.0
 51
0.0
  0
LINE
  5
2BF
330
A
100
AcDbEntity
  8
FLN72-5555
  6
Continuous
 62
     8
370
    15
390
1D
100
AcDbLine
 10
-1111.701055697046
 20
2155.27506198156
 30
0.0
 11
-257.7013386970459
 21
2155.27506198156
 31
0.0
  0
LINE
  5
2C0
330
A
100
AcDbEntity
  8
FLN72-5555
  6
Continuous
 62
     8
370
    15
390
1D
100
AcDbLine
 10
-1128.701055697046
 20
1284.27524498156
 30
0.0
 11
-1128.701055697046
 21
2138.275061981559
 31
0.0
  0
LINE
  5
2C1
330
A
100
AcDbEntity
  8
FLN72-5555
  6
Continuous
 62
     8
370
    15
390
1D
100
AcDbLine
 10
-1111.701055697046
 20
1267.27526098156
 30
0.0
 11
-257.7013386970459
 21
1267.27526098156
 31
0.0
  0
LINE
  5
2C2
330
A
100
AcDbEntity
  8
FLN72-5555
  6
Continuous
 62
     8
370
    15
390
1D
100
AcDbLine
 10
-240.7013456970465
 20
1284.27524498156
 30
0.0
 11
-240.7013456970465
 21
2138.275061981559
 31
0.0
  0
LINE
  5
2C3
330
A
100
AcDbEntity
  8
FLN72-5555
  6
Continuous
 62
     8
370
    15
390
1D
100
AcDbLine
 10
-905.7011166970465
 20
2090.275061981559
 30
0.0
 11
-909.7011166970465
 21
2090.275061981559
 31
0.0
  0
LINE
  5
2C4
330
A
100
AcDbEntity
  8
FLN72-5555
  6
Continuous
 62
     8
370
    15
390
1D
100
AcDbLine
 10
-913.7011166970465
 20
2094.275061981559
 30
0.0
 11
-913.7011166970465
 21
2098.275061981559
 31
0.0
  0
LINE
  5
2C5
330
A
100
AcDbEntity
  8
FLN72-5555
  6
Continuous
 62
     8
370
    15
390
1D
100
AcDbLine
 10
-1063.701055697046
 20
2094.275061981559
 30
0.0
 11
-913.7011166970465
 21
2094.275061981559
 31
0.0
  0
LINE
  5
2C6
330
A
100
AcDbEntity
  8
FLN72-5555
  6
Continuous
 62
     8
370
    15
390
1D
100
AcDbLine
 10
-1067.701055697046
 20
1711.275122981559
 30
0.0
 11
-1067.701055697046
 21
2090.275061981559
 31
0.0
  0
LINE
  5
2C7
330
A
100
AcDbEntity
  8
FLN72-5555
  6
Continuous
 62
     8
370
    15
390
1D
100
AcDbLine
 10
-909.7011166970465
 20
2090.275061981559
 30
0.0
 11
-909.7011166970465
 21
1711.275122981559
 31
0.0
  0
LINE
  5
2C8
330
A
100
AcDbEntity
  8
FLN72-5555
  6
Continuous
 62
     8
370
    15
390
1D
100
AcDbLine
 10
-294.6814326970464
 20
2091.29263998156
 30
0.0
 11
-294.686315697046
 21
2091.394202981559
 31
0.0
  0
LINE
  5
2C9
330
A
100
AcDbEntity
  8
FLN72-5555
  6
Continuous
 62
     8
370
    15
390
1D
100
AcDbLine
 10
-294.6814326970464
 20
1331.25765198156
 30
0.0
 11
-294.686315697046
 21
1331.15413598156
 31
0.0
  0
LINE
  5
2CA
330
A
100
AcDbEntity
  8
FLN72-5555
  6
Continuous
 62
     8
370
    15
390
1D
100
AcDbLine
 10
-294.6814326970464
 20
1331.25765198156
 30
0.0
 11
-294.6814326970464
 21
2091.29263998156
 31
0.0
  0
LINE
  5
2CB
330
A
100
AcDbEntity
  8
FLN72-5555
  6
Continuous
 62
     8
370
    15
390
1D
100
AcDbLine
 10
-296.458044697046
 20
2096.353186981559
 30
0.0
 11
-295.571935697046
 21
2094.806311981559
 31
0.0
  0
LINE
  5
2CC
330
A
100
AcDbEntity
  8
FLN72-5555
  6
Continuous
 62
     8
370
    15
390
1D
100
AcDbLine
 10
-297.2761596970461
 20
2097.362952981559
 30
0.0
 11
-296.458044697046
 21
2096.353186981559
 31
0.0
  0
LINE
  5
2CD
330
A
100
AcDbEntity
  8
FLN72-5555
  6
Continuous
 62
     8
370
    15
390
1D
100
AcDbLine
 10
-298.5370236970459
 20
2098.493811981559
 30
0.0
 11
-297.2761596970461
 21
2097.362952981559
 31
0.0
  0
LINE
  5
2CE
330
A
100
AcDbEntity
  8
FLN72-5555
  6
Continuous
 62
     8
370
    15
390
1D
100
AcDbLine
 10
-299.6195436970459
 20
2099.193030981559
 30
0.0
 11
-298.5370236970459
 21
2098.493811981559
 31
0.0
  0
LINE
  5
2CF
330
A
100
AcDbEntity
  8
FLN72-5555
  6
Continuous
 62
     8
370
    15
390
1D
100
AcDbLine
 10
-301.1929076970462
 20
2099.882483981559
 30
0.0
 11
-299.6195436970459
 21
2099.193030981559
 31
0.0
  0
LINE
  5
2D0
330
A
100
AcDbEntity
  8
FLN72-5555
  6
Continuous
 62
     8
370
    15
390
1D
100
AcDbLine
 10
-302.759924697046
 20
2100.253577981559
 30
0.0
 11
-301.1929076970462
 21
2099.882483981559
 31
0.0
  0
LINE
  5
2D1
330
A
100
AcDbEntity
  8
FLN72-5555
  6
Continuous
 62
     8
370
    15
390
1D
100
AcDbLine
 10
-304.5754756970462
 20
2100.33951498156
 30
0.0
 11
-302.759924697046
 21
2100.253577981559
 31
0.0
  0
LINE
  5
2D2
330
A
100
AcDbEntity
  8
FLN72-5555
  6
Continuous
 62
     8
370
    15
390
1D
100
AcDbLine
 10
-906.1664486970462
 20
2092.962561981559
 30
0.0
 11
-614.9025326970461
 21
2094.525061981559
 31
0.0
  0
LINE
  5
2D3
330
A
100
AcDbEntity
  8
FLN72-5555
  6
Continuous
 62
     8
370
    15
390
1D
100
AcDbLine
 10
-304.5754756970462
 20
1322.210791981559
 30
0.0
 11
-302.759924697046
 21
1322.29672998156
 31
0.0
  0
LINE
  5
2D4
330
A
100
AcDbEntity
  8
FLN72-5555
  6
Continuous
 62
     8
370
    15
390
1D
100
AcDbLine
 10
-302.759924697046
 20
1322.29672998156
 30
0.0
 11
-301.1929076970462
 21
1322.66782398156
 31
0.0
  0
LINE
  5
2D5
330
A
100
AcDbEntity
  8
FLN72-5555
  6
Continuous
 62
     8
370
    15
390
1D
100
AcDbLine
 10
-301.1929076970462
 20
1322.66782398156
 30
0.0
 11
-299.6195436970459
 21
1323.35532398156
 31
0.0
  0
LINE
  5
2D6
330
A
100
AcDbEntity
  8
FLN72-5555
  6
Continuous
 62
     8
370
    15
390
1D
100
AcDbLine
 10
-299.6195436970459
 20
1323.35532398156
 30
0.0
 11
-298.5370236970459
 21
1324.054541981559
 31
0.0
  0
LINE
  5
2D7
330
A
100
AcDbEntity
  8
FLN72-5555
  6
Continuous
 62
     8
370
    15
390
1D
100
AcDbLine
 10
-298.5370236970459
 20
1324.054541981559
 30
0.0
 11
-297.2761596970461
 21
1325.187339981559
 31
0.0
  0
LINE
  5
2D8
330
A
100
AcDbEntity
  8
FLN72-5555
  6
Continuous
 62
     8
370
    15
390
1D
100
AcDbLine
 10
-297.2761596970461
 20
1325.187339981559
 30
0.0
 11
-296.458044697046
 21
1326.19710498156
 31
0.0
  0
LINE
  5
2D9
330
A
100
AcDbEntity
  8
FLN72-5555
  6
Continuous
 62
     8
370
    15
390
1D
100
AcDbLine
 10
-296.458044697046
 20
1326.19710498156
 30
0.0
 11
-295.571935697046
 21
1327.74397998156
 31
0.0
  0
LINE
  5
2DA
330
A
100
AcDbEntity
  8
FLN72-5555
  6
Continuous
 62
     8
370
    15
390
1D
100
AcDbLine
 10
-1078.902471697047
 20
2095.071936981559
 30
0.0
 11
-1079.546026697046
 21
2090.585608981559
 31
0.0
  0
LINE
  5
2DB
330
A
100
AcDbEntity
  8
FLN72-5555
  6
Continuous
 62
     8
370
    15
390
1D
100
AcDbLine
 10
-451.827276697046
 20
2106.118811981559
 30
0.0
 11
-1064.011114697046
 21
2106.118811981559
 31
0.0
  0
LINE
  5
2DC
330
A
100
AcDbEntity
  8
FLN72-5555
  6
Continuous
 62
     8
370
    15
390
1D
100
AcDbLine
 10
-302.2346556970463
 20
2102.634436981559
 30
0.0
 11
-303.2903196970462
 21
2102.896155981559
 31
0.0
  0
LINE
  5
2DD
330
A
100
AcDbEntity
  8
FLN72-5555
  6
Continuous
 62
     8
370
    15
390
1D
100
AcDbLine
 10
-1063.701055697046
 20
1328.27522998156
 30
0.0
 11
-913.7011166970465
 21
1328.27522998156
 31
0.0
  0
LINE
  5
2DE
330
A
100
AcDbEntity
  8
FLN72-5555
  6
Continuous
 62
     8
370
    15
390
1D
100
AcDbLine
 10
-906.1668156970459
 20
1329.58577698156
 30
0.0
 11
-614.9025326970461
 21
1328.02522998156
 31
0.0
  0
LINE
  5
2DF
330
A
100
AcDbEntity
  8
FLN72-5555
  6
Continuous
 62
     8
370
    15
390
1D
100
AcDbLine
 10
-302.2346556970463
 20
1319.913916981559
 30
0.0
 11
-303.2903196970462
 21
1319.65415198156
 31
0.0
  0
LINE
  5
2E0
330
A
100
AcDbEntity
  8
FLN72-5555
  6
Continuous
 62
     8
370
    15
390
1D
100
AcDbLine
 10
-451.827276697046
 20
1316.429541981559
 30
0.0
 11
-1064.011114697046
 21
1316.429541981559
 31
0.0
  0
LINE
  5
2E1
330
A
100
AcDbEntity
  8
FLN72-5555
  6
Continuous
 62
     8
370
    15
390
1D
100
AcDbLine
 10
-1079.546026697046
 20
1331.96468298156
 30
0.0
 11
-1079.546026697046
 21
2090.585608981559
 31
0.0
  0
LINE
  5
2E2
330
A
100
AcDbEntity
  8
FLN72-5555
  6
Continuous
 62
     8
370
    15
390
1D
100
AcDbLine
 10
-451.827276697046
 20
2101.484046981559
 30
0.0
 11
-451.827276697046
 21
2106.118811981559
 31
0.0
  0
LINE
  5
2E3
330
A
100
AcDbEntity
  8
FLN72-5555
  6
Continuous
 62
     8
370
    15
390
1D
100
AcDbLine
 10
-451.827276697046
 20
1321.066260981559
 30
0.0
 11
-451.827276697046
 21
1316.429541981559
 31
0.0
  0
LINE
  5
2E4
330
A
100
AcDbEntity
  8
FLN72-5555
  6
Continuous
 62
     8
370
    15
390
1D
100
AcDbLine
 10
-1073.859258697046
 20
1331.96468298156
 30
0.0
 11
-1073.859258697046
 21
2090.585608981559
 31
0.0
  0
LINE
  5
2E5
330
A
100
AcDbEntity
  8
FLN72-5555
  6
Continuous
 62
     8
370
    15
390
1D
100
AcDbLine
 10
-909.7011166970465
 20
1332.27522998156
 30
0.0
 11
-909.7011166970465
 21
1711.275122981559
 31
0.0
  0
LINE
  5
2E6
330
A
100
AcDbEntity
  8
FLN72-5555
  6
Continuous
 62
     8
370
    15
390
1D
100
AcDbLine
 10
-1078.902471697047
 20
1327.47835498156
 30
0.0
 11
-1079.546026697046
 21
1331.96468298156
 31
0.0
  0
LINE
  5
2E7
330
A
100
AcDbEntity
  8
FLN72-5555
  6
Continuous
 62
     8
370
    15
390
1D
100
AcDbLine
 10
-1064.011114697046
 20
1322.117041981559
 30
0.0
 11
-615.0847836970463
 21
1322.117041981559
 31
0.0
  0
LINE
  5
2E8
330
A
100
AcDbEntity
  8
FLN72-5555
  6
Continuous
 62
     8
370
    15
390
1D
100
AcDbLine
 10
-1064.011114697046
 20
2100.43326498156
 30
0.0
 11
-615.0847836970463
 21
2100.43326498156
 31
0.0
  0
LINE
  5
2E9
330
A
100
AcDbEntity
  8
FLN72-5555
  6
Continuous
 62
     8
370
    15
390
1D
100
AcDbLine
 10
-302.5763306970459
 20
2101.54459398156
 30
0.0
 11
-304.6495726970463
 21
2101.819983981559
 31
0.0
  0
LINE
  5
2EA
330
A
100
AcDbEntity
  8
FLN72-5555
  6
Continuous
 62
     8
370
    15
390
1D
100
AcDbLine
 10
-302.5763306970459
 20
1321.005713981559
 30
0.0
 11
-304.6495726970463
 21
1320.72836998156
 31
0.0
  0
LINE
  5
2EB
330
A
100
AcDbEntity
  8
FLN72-5555
  6
Continuous
 62
     8
370
    15
390
1D
100
AcDbLine
 10
-295.2479616970461
 20
1327.595542981559
 30
0.0
 11
-296.0253056970462
 21
1325.890464981559
 31
0.0
  0
LINE
  5
2EC
330
A
100
AcDbEntity
  8
FLN72-5555
  6
Continuous
 62
     8
370
    15
390
1D
100
AcDbLine
 10
-295.2479616970461
 20
2094.952796981559
 30
0.0
 11
-296.0253056970462
 21
2096.659827981559
 31
0.0
  0
LINE
  5
2ED
330
A
100
AcDbEntity
  8
FLN72-5555
  6
Continuous
 62
     8
370
    15
390
1D
100
AcDbLine
 10
-300.8379276970461
 20
1321.585791981559
 30
0.0
 11
-302.5763306970459
 21
1321.005713981559
 31
0.0
  0
LINE
  5
2EE
330
A
100
AcDbEntity
  8
FLN72-5555
  6
Continuous
 62
     8
370
    15
390
1D
100
AcDbLine
 10
-300.8379276970461
 20
2100.96451498156
 30
0.0
 11
-302.5763306970459
 21
2101.54459398156
 31
0.0
  0
LINE
  5
2EF
330
A
100
AcDbEntity
  8
FLN72-5555
  6
Continuous
 62
     8
370
    15
390
1D
100
AcDbLine
 10
-299.1561646970461
 20
1322.51157398156
 30
0.0
 11
-300.8379276970461
 21
1321.585791981559
 31
0.0
  0
LINE
  5
2F0
330
A
100
AcDbEntity
  8
FLN72-5555
  6
Continuous
 62
     8
370
    15
390
1D
100
AcDbLine
 10
-299.1561646970461
 20
2100.036780981559
 30
0.0
 11
-300.8379276970461
 21
2100.96451498156
 31
0.0
  0
LINE
  5
2F1
330
A
100
AcDbEntity
  8
FLN72-5555
  6
Continuous
 62
     8
370
    15
390
1D
100
AcDbLine
 10
-296.7943476970461
 20
1324.738135981559
 30
0.0
 11
-298.0408076970464
 21
1323.38852698156
 31
0.0
  0
LINE
  5
2F2
330
A
100
AcDbEntity
  8
FLN72-5555
  6
Continuous
 62
     8
370
    15
390
1D
100
AcDbLine
 10
-296.7943476970461
 20
2097.812171981559
 30
0.0
 11
-298.0408076970464
 21
2099.161780981559
 31
0.0
  0
LINE
  5
2F3
330
A
100
AcDbEntity
  8
FLN72-5555
  6
Continuous
 62
     8
370
    15
390
1D
100
AcDbLine
 10
-298.0408076970464
 20
2099.161780981559
 30
0.0
 11
-299.1561646970461
 21
2100.036780981559
 31
0.0
  0
LINE
  5
2F4
330
A
100
AcDbEntity
  8
FLN72-5555
  6
Continuous
 62
     8
370
    15
390
1D
100
AcDbLine
 10
-298.0408076970464
 20
1323.38852698156
 30
0.0
 11
-299.1561646970461
 21
1322.51157398156
 31
0.0
  0
LINE
  5
2F5
330
A
100
AcDbEntity
  8
FLN72-5555
  6
Continuous
 62
     8
370
    15
390
1D
100
AcDbLine
 10
-296.0253056970462
 20
2096.659827981559
 30
0.0
 11
-296.7943476970461
 21
2097.812171981559
 31
0.0
  0
LINE
  5
2F6
330
A
100
AcDbEntity
  8
FLN72-5555
  6
Continuous
 62
     8
370
    15
390
1D
100
AcDbLine
 10
-296.0253056970462
 20
1325.890464981559
 30
0.0
 11
-296.7943476970461
 21
1324.738135981559
 31
0.0
  0
LINE
  5
2F7
330
A
100
AcDbEntity
  8
FLN72-5555
  6
Continuous
 62
     8
370
    15
390
1D
100
AcDbLine
 10
-1067.701055697046
 20
1711.275122981559
 30
0.0
 11
-1067.701055697046
 21
1332.27522998156
 31
0.0
  0
LINE
  5
2F8
330
A
100
AcDbEntity
  8
FLN72-5555
  6
Continuous
 62
     8
370
    15
390
1D
100
AcDbLine
 10
-615.0847836970463
 20
2100.43326498156
 30
0.0
 11
-914.3903256970466
 21
2098.829749981559
 31
0.0
  0
LINE
  5
2F9
330
A
100
AcDbEntity
  8
FLN72-5555
  6
Continuous
 62
     8
370
    15
390
1D
100
AcDbLine
 10
-615.0847836970463
 20
1322.117041981559
 30
0.0
 11
-914.3903256970466
 21
1323.72055798156
 31
0.0
  0
ARC
  5
2FA
330
A
100
AcDbEntity
  8
FLN72-5555
  6
Continuous
 62
     8
370
    15
390
1D
100
AcDbCircle
 10
-1111.701055697046
 20
2138.275061981559
 30
0.0
 40
16.99999400000024
100
AcDbArc
 50
90.0
 51
180.0
  0
ARC
  5
2FB
330
A
100
AcDbEntity
  8
FLN72-5555
  6
Continuous
 62
     8
370
    15
390
1D
100
AcDbCircle
 10
-1063.701055697046
 20
2090.275061981559
 30
0.0
 40
3.999999000000116
100
AcDbArc
 50
90.0
 51
180.0
  0
ARC
  5
2FC
330
A
100
AcDbEntity
  8
FLN72-5555
  6
Continuous
 62
     8
370
    15
390
1D
100
AcDbCircle
 10
-913.7011166970465
 20
2090.275061981559
 30
0.0
 40
3.999999000000571
100
AcDbArc
 50
0.0
 51
90.0
  0
ARC
  5
2FD
330
A
100
AcDbEntity
  8
FLN72-5555
  6
Continuous
 62
     8
370
    15
390
1D
100
AcDbCircle
 10
-304.3462276970461
 20
1331.736167981559
 30
0.0
 40
9.639443999999957
100
AcDbArc
 50
335.5341950000008
 51
356.5499880000007
  0
ARC
  5
2FE
330
A
100
AcDbEntity
  8
FLN72-5555
  6
Continuous
 62
     8
370
    15
390
1D
100
AcDbCircle
 10
-304.3462276970461
 20
2090.814124981559
 30
0.0
 40
9.639443999999692
100
AcDbArc
 50
3.438385000000389
 51
24.46582000000108
  0
ARC
  5
2FF
330
A
100
AcDbEntity
  8
FLN72-5555
  6
Continuous
 62
     8
370
    15
390
1D
100
AcDbCircle
 10
-1064.413702697046
 20
2090.987952981559
 30
0.0
 40
15.05363100000014
100
AcDbArc
 50
105.7439730000014
 51
164.2585729999992
  0
ARC
  5
300
330
A
100
AcDbEntity
  8
FLN72-5555
  6
Continuous
 62
     8
370
    15
390
1D
100
AcDbCircle
 10
-304.3511106970461
 20
2100.036780981559
 30
0.0
 40
3.049294000000125
100
AcDbArc
 50
69.64795700000604
 51
93.58091700000118
  0
ARC
  5
301
330
A
100
AcDbEntity
  8
FLN72-5555
  6
Continuous
 62
     8
370
    15
390
1D
100
AcDbCircle
 10
-304.3511106970461
 20
1322.51352698156
 30
0.0
 40
3.04929400000015
100
AcDbArc
 50
266.421355999999
 51
290.3520509999997
  0
ARC
  5
302
330
A
100
AcDbEntity
  8
FLN72-5555
  6
Continuous
 62
     8
370
    15
390
1D
100
AcDbCircle
 10
-1064.243292697046
 20
2090.818030981559
 30
0.0
 40
9.618687000000296
100
AcDbArc
 50
88.61676000000075
 51
181.3846129999995
  0
ARC
  5
303
330
A
100
AcDbEntity
  8
FLN72-5555
  6
Continuous
 62
     8
370
    15
390
1D
100
AcDbCircle
 10
-580.856664697046
 20
1328.33772998156
 30
0.0
 40
129.2342379999998
100
AcDbArc
 50
356.774506
 51
358.928802
  0
ARC
  5
304
330
A
100
AcDbEntity
  8
FLN72-5555
  6
Continuous
 62
     8
370
    15
390
1D
100
AcDbCircle
 10
-580.856664697046
 20
2094.210608981559
 30
0.0
 40
129.2342379999997
100
AcDbArc
 50
1.071213000000171
 51
3.226379000000128
  0
ARC
  5
305
330
A
100
AcDbEntity
  8
FLN72-5555
  6
Continuous
 62
     8
370
    15
390
1D
100
AcDbCircle
 10
-472.1687076970459
 20
2345.84329998156
 30
0.0
 40
305.1547849999997
100
AcDbArc
 50
305.1562189999999
 51
305.25589
  0
ARC
  5
306
330
A
100
AcDbEntity
  8
FLN72-5555
  6
Continuous
 62
     8
370
    15
390
1D
100
AcDbCircle
 10
-685.6195436970463
 20
1327.249839981559
 30
0.0
 40
70.721275
100
AcDbArc
 50
355.837936
 51
0.6282199999999988
  0
ARC
  5
307
330
A
100
AcDbEntity
  8
FLN72-5555
  6
Continuous
 62
     8
370
    15
390
1D
100
AcDbCircle
 10
-685.6195436970463
 20
2095.300452981559
 30
0.0
 40
70.72127500000019
100
AcDbArc
 50
359.371796
 51
4.162079000000119
  0
ARC
  5
308
330
A
100
AcDbEntity
  8
FLN72-5555
  6
Continuous
 62
     8
370
    15
390
1D
100
AcDbCircle
 10
-914.3673766970464
 20
2033.101233981559
 30
0.0
 40
65.728409
100
AcDbArc
 50
90.02000400000004
 51
97.44727300000017
  0
ARC
  5
309
330
A
100
AcDbEntity
  8
FLN72-5555
  6
Continuous
 62
     8
370
    15
390
1D
100
AcDbCircle
 10
-1063.701055697046
 20
1332.27522998156
 30
0.0
 40
3.999999000000571
100
AcDbArc
 50
180.0
 51
270.0
  0
ARC
  5
30A
330
A
100
AcDbEntity
  8
FLN72-5555
  6
Continuous
 62
     8
370
    15
390
1D
100
AcDbCircle
 10
-913.7011166970465
 20
1332.27522998156
 30
0.0
 40
3.999998999999889
100
AcDbArc
 50
270.0
 51
0.0
  0
ARC
  5
30B
330
A
100
AcDbEntity
  8
FLN72-5555
  6
Continuous
 62
     8
370
    15
390
1D
100
AcDbCircle
 10
-1064.413702697046
 20
1331.562339981559
 30
0.0
 40
15.05363100000025
100
AcDbArc
 50
195.7414249999999
 51
254.2560119999985
  0
ARC
  5
30C
330
A
100
AcDbEntity
  8
FLN72-5555
  6
Continuous
 62
     8
370
    15
390
1D
100
AcDbCircle
 10
-1064.243292697046
 20
1331.73226098156
 30
0.0
 40
9.618686999999845
100
AcDbArc
 50
178.6154070000003
 51
271.3832700000008
  0
ARC
  5
30D
330
A
100
AcDbEntity
  8
FLN72-5555
  6
Continuous
 62
     8
370
    15
390
1D
100
AcDbCircle
 10
-914.3673766970464
 20
1389.44904298156
 30
0.0
 40
65.72840900000008
100
AcDbArc
 50
262.5527339999999
 51
269.980011
  0
LWPOLYLINE
  5
30E
330
A
100
AcDbEntity
  8
FLN72-5555
  6
Continuous
 62
     8
370
    15
390
1D
100
AcDbPolyline
 90
        9
 70
   128
 43
0.0
 10
-294.686315697046
 20
2091.394202981559
 10
-294.6910766970461
 20
2091.394202981559
 10
-294.6958376970463
 20
2091.394202981559
 10
-294.7004756970462
 20
2091.394202981559
 10
-294.7052366970458
 20
2091.394202981559
 10
-294.709997697046
 20
2091.394202981559
 10
-294.7147586970461
 20
2091.394202981559
 10
-294.7193966970465
 20
2091.392249981559
 10
-294.7241576970462
 20
2091.392249981559
  0
LWPOLYLINE
  5
30F
330
A
100
AcDbEntity
  8
FLN72-5555
  6
Continuous
 62
     8
370
    15
390
1D
100
AcDbPolyline
 90
        9
 70
   128
 43
0.0
 10
-294.7241576970462
 20
2091.392249981559
 10
-293.6405396970461
 20
2065.140296981559
 10
-293.3365846970462
 20
2038.862952981559
 10
-293.5525266970465
 20
2012.571936981559
 10
-294.0286006970462
 20
1986.271155981559
 10
-294.5047976970461
 20
1959.972327981559
 10
-294.7212276970461
 20
1933.67935898156
 10
-294.7212276970461
 20
1775.96652998156
 10
-294.7212276970461
 20
1711.275122981559
  0
LWPOLYLINE
  5
310
330
A
100
AcDbEntity
  8
FLN72-5555
  6
Continuous
 62
     8
370
    15
390
1D
100
AcDbPolyline
 90
        9
 70
   128
 43
0.0
 10
-294.7241576970462
 20
1331.156089981559
 10
-293.6405396970461
 20
1357.40998098156
 10
-293.3365846970462
 20
1383.68732398156
 10
-293.5525266970465
 20
1409.97833998156
 10
-294.0286006970462
 20
1436.27912098156
 10
-294.5047976970461
 20
1462.577918981559
 10
-294.7212276970461
 20
1488.87088698156
 10
-294.7212276970461
 20
1646.58377798156
 10
-294.7212276970461
 20
1711.275122981559
  0
LWPOLYLINE
  5
311
330
A
100
AcDbEntity
  8
FLN72-5555
  6
Continuous
 62
     8
370
    15
390
1D
100
AcDbPolyline
 90
        9
 70
   128
 43
0.0
 10
-294.686315697046
 20
1331.15413598156
 10
-294.6910766970461
 20
1331.15413598156
 10
-294.6958376970463
 20
1331.156089981559
 10
-294.7004756970462
 20
1331.156089981559
 10
-294.7052366970458
 20
1331.156089981559
 10
-294.709997697046
 20
1331.156089981559
 10
-294.7147586970461
 20
1331.156089981559
 10
-294.7193966970465
 20
1331.156089981559
 10
-294.7241576970462
 20
1331.156089981559
  0
LWPOLYLINE
  5
312
330
A
100
AcDbEntity
  8
FLN72-5555
  6
Continuous
 62
     8
370
    15
390
1D
100
AcDbPolyline
 90
        5
 70
   128
 43
0.0
 10
-451.6450256970459
 20
2096.626624981559
 10
-427.6618556970463
 20
2097.15396898156
 10
-379.6958066970462
 20
2098.218421981559
 10
-331.7325656970463
 20
2099.409827981559
 10
-304.5754756970462
 20
2100.33951498156
  0
LWPOLYLINE
  5
313
330
A
100
AcDbEntity
  8
FLN72-5555
  6
Continuous
 62
     8
370
    15
390
1D
100
AcDbPolyline
 90
        4
 70
   128
 43
0.0
 10
-614.9025326970461
 20
2094.525061981559
 10
-590.9141606970463
 20
2094.675452981559
 10
-494.964086697046
 20
2095.796546981559
 10
-451.6450256970459
 20
2096.626624981559
  0
LWPOLYLINE
  5
314
330
A
100
AcDbEntity
  8
FLN72-5555
  6
Continuous
 62
     8
370
    15
390
1D
100
AcDbPolyline
 90
        4
 70
   128
 43
0.0
 10
-614.9025326970461
 20
1328.02522998156
 10
-590.9141606970463
 20
1327.87288598156
 10
-494.964086697046
 20
1326.751792981559
 10
-451.6450256970459
 20
1325.921714981559
  0
LWPOLYLINE
  5
315
330
A
100
AcDbEntity
  8
FLN72-5555
  6
Continuous
 62
     8
370
    15
390
1D
100
AcDbPolyline
 90
        5
 70
   128
 43
0.0
 10
-451.6450256970459
 20
1325.921714981559
 10
-427.6618556970463
 20
1325.396323981559
 10
-379.6958066970462
 20
1324.331885981559
 10
-331.7325656970463
 20
1323.14047998156
 10
-304.5754756970462
 20
1322.210791981559
  0
LWPOLYLINE
  5
316
330
A
100
AcDbEntity
  8
FLN72-5555
  6
Continuous
 62
     8
370
    15
390
1D
100
AcDbPolyline
 90
        3
 70
   128
 43
0.0
 10
-1064.011114697046
 20
2106.118811981559
 10
-1067.500860697046
 20
2105.734046981559
 10
-1068.497930697046
 20
2105.476233981559
  0
LWPOLYLINE
  5
317
330
A
100
AcDbEntity
  8
FLN72-5555
  6
Continuous
 62
     8
370
    15
390
1D
100
AcDbPolyline
 90
        7
 70
   128
 43
0.0
 10
-304.5415406970462
 20
2103.079749981559
 10
-315.8194796970463
 20
2103.829749981559
 10
-327.1173306970461
 20
2104.349280981559
 10
-351.108053697046
 20
2105.101233981559
 10
-375.1065736970461
 20
2105.569983981559
 10
-423.1251126970462
 20
2106.050452981559
 10
-451.827276697046
 20
2106.118811981559
  0
LWPOLYLINE
  5
318
330
A
100
AcDbEntity
  8
FLN72-5555
  6
Continuous
 62
     8
370
    15
390
1D
100
AcDbPolyline
 90
        3
 70
   128
 43
0.0
 10
-300.3596556970463
 20
2101.876624981559
 10
-301.7123166970462
 20
2102.46451498156
 10
-302.2346556970463
 20
2102.634436981559
  0
LWPOLYLINE
  5
319
330
A
100
AcDbEntity
  8
FLN72-5555
  6
Continuous
 62
     8
370
    15
390
1D
100
AcDbPolyline
 90
        3
 70
   128
 43
0.0
 10
-298.5979366970462
 20
2100.737952981559
 10
-299.8469606970459
 20
2101.593421981559
 10
-300.3596556970463
 20
2101.876624981559
  0
LWPOLYLINE
  5
31A
330
A
100
AcDbEntity
  8
FLN72-5555
  6
Continuous
 62
     8
370
    15
390
1D
100
AcDbPolyline
 90
        3
 70
   128
 43
0.0
 10
-297.4681766970464
 20
2099.702796981559
 10
-298.3646606970462
 20
2100.548499981559
 10
-298.5979366970462
 20
2100.737952981559
  0
LWPOLYLINE
  5
31B
330
A
100
AcDbEntity
  8
FLN72-5555
  6
Continuous
 62
     8
370
    15
390
1D
100
AcDbPolyline
 90
        3
 70
   128
 43
0.0
 10
-296.2584596970462
 20
2098.159827981559
 10
-297.1179566970461
 20
2099.314124981559
 10
-297.4681766970464
 20
2099.702796981559
  0
LWPOLYLINE
  5
31C
330
A
100
AcDbEntity
  8
FLN72-5555
  6
Continuous
 62
     8
370
    15
390
1D
100
AcDbPolyline
 90
        3
 70
   128
 43
0.0
 10
-295.5549686970464
 20
2096.878577981559
 10
-296.1091676970461
 20
2097.921546981559
 10
-296.2584596970462
 20
2098.159827981559
  0
LWPOLYLINE
  5
31D
330
A
100
AcDbEntity
  8
FLN72-5555
  6
Continuous
 62
     8
370
    15
390
1D
100
AcDbPolyline
 90
        3
 70
   128
 43
0.0
 10
-294.9097046970462
 20
2095.040686981559
 10
-295.3401246970463
 20
2096.378577981559
 10
-295.5549686970464
 20
2096.878577981559
  0
LWPOLYLINE
  5
31E
330
A
100
AcDbEntity
  8
FLN72-5555
  6
Continuous
 62
     8
370
    15
390
1D
100
AcDbPolyline
 90
        3
 70
   128
 43
0.0
 10
-294.686315697046
 20
2091.394202981559
 10
-294.8020386970459
 20
2094.556311981559
 10
-294.9097046970462
 20
2095.040686981559
  0
LWPOLYLINE
  5
31F
330
A
100
AcDbEntity
  8
FLN72-5555
  6
Continuous
 62
     8
370
    15
390
1D
100
AcDbPolyline
 90
        3
 70
   128
 43
0.0
 10
-294.686315697046
 20
1331.15413598156
 10
-294.8020386970459
 20
1327.99397998156
 10
-294.9097046970462
 20
1327.50960498156
  0
LWPOLYLINE
  5
320
330
A
100
AcDbEntity
  8
FLN72-5555
  6
Continuous
 62
     8
370
    15
390
1D
100
AcDbPolyline
 90
        3
 70
   128
 43
0.0
 10
-294.9097046970462
 20
1327.50960498156
 10
-295.3401246970463
 20
1326.171714981559
 10
-295.5549686970464
 20
1325.671714981559
  0
LWPOLYLINE
  5
321
330
A
100
AcDbEntity
  8
FLN72-5555
  6
Continuous
 62
     8
370
    15
390
1D
100
AcDbPolyline
 90
        3
 70
   128
 43
0.0
 10
-295.5549686970464
 20
1325.671714981559
 10
-296.1091676970461
 20
1324.628760981559
 10
-296.2584596970462
 20
1324.39047998156
  0
LWPOLYLINE
  5
322
330
A
100
AcDbEntity
  8
FLN72-5555
  6
Continuous
 62
     8
370
    15
390
1D
100
AcDbPolyline
 90
        3
 70
   128
 43
0.0
 10
-296.2584596970462
 20
1324.39047998156
 10
-297.1179566970461
 20
1323.23618298156
 10
-297.4681766970464
 20
1322.847510981559
  0
LWPOLYLINE
  5
323
330
A
100
AcDbEntity
  8
FLN72-5555
  6
Continuous
 62
     8
370
    15
390
1D
100
AcDbPolyline
 90
        3
 70
   128
 43
0.0
 10
-297.4681766970464
 20
1322.847510981559
 10
-298.3646606970462
 20
1322.00180798156
 10
-298.5979366970462
 20
1321.81040198156
  0
LWPOLYLINE
  5
324
330
A
100
AcDbEntity
  8
FLN72-5555
  6
Continuous
 62
     8
370
    15
390
1D
100
AcDbPolyline
 90
        3
 70
   128
 43
0.0
 10
-298.5979366970462
 20
1321.81040198156
 10
-299.8469606970459
 20
1320.95493298156
 10
-300.3596556970463
 20
1320.67368298156
  0
LWPOLYLINE
  5
325
330
A
100
AcDbEntity
  8
FLN72-5555
  6
Continuous
 62
     8
370
    15
390
1D
100
AcDbPolyline
 90
        3
 70
   128
 43
0.0
 10
-300.3596556970463
 20
1320.67368298156
 10
-301.7123166970462
 20
1320.085791981559
 10
-302.2346556970463
 20
1319.913916981559
  0
LWPOLYLINE
  5
326
330
A
100
AcDbEntity
  8
FLN72-5555
  6
Continuous
 62
     8
370
    15
390
1D
100
AcDbPolyline
 90
        7
 70
   128
 43
0.0
 10
-304.5415406970462
 20
1319.46860498156
 10
-315.8194796970463
 20
1318.71860498156
 10
-327.1173306970461
 20
1318.20102698156
 10
-351.108053697046
 20
1317.44907398156
 10
-375.1065736970461
 20
1316.97836998156
 10
-423.1251126970462
 20
1316.49985498156
 10
-451.827276697046
 20
1316.429541981559
  0
LWPOLYLINE
  5
327
330
A
100
AcDbEntity
  8
FLN72-5555
  6
Continuous
 62
     8
370
    15
390
1D
100
AcDbPolyline
 90
        4
 70
   128
 43
0.0
 10
-304.6495726970463
 20
2101.819983981559
 10
-316.6476046970463
 20
2101.98209398156
 10
-364.6434386970461
 20
2102.08951498156
 10
-451.827276697046
 20
2101.484046981559
  0
LWPOLYLINE
  5
328
330
A
100
AcDbEntity
  8
FLN72-5555
  6
Continuous
 62
     8
370
    15
390
1D
100
AcDbPolyline
 90
        4
 70
   128
 43
0.0
 10
-304.6495726970463
 20
1320.72836998156
 10
-316.6476046970463
 20
1320.568213981559
 10
-364.6434386970461
 20
1320.458838981559
 10
-451.827276697046
 20
1321.066260981559
  0
LWPOLYLINE
  5
329
330
A
100
AcDbEntity
  8
FLN72-5555
  6
Continuous
 62
     8
370
    15
390
1D
100
AcDbPolyline
 90
        3
 70
   128
 43
0.0
 10
-294.686315697046
 20
2091.394202981559
 10
-294.7648066970462
 20
2092.896155981559
 10
-295.2479616970461
 20
2094.952796981559
  0
LWPOLYLINE
  5
32A
330
A
100
AcDbEntity
  8
FLN72-5555
  6
Continuous
 62
     8
370
    15
390
1D
100
AcDbPolyline
 90
        3
 70
   128
 43
0.0
 10
-294.686315697046
 20
1331.15413598156
 10
-294.7648066970462
 20
1329.65218298156
 10
-295.2479616970461
 20
1327.595542981559
  0
LWPOLYLINE
  5
32B
330
A
100
AcDbEntity
  8
FLN72-5555
  6
Continuous
 62
     8
370
    15
390
1D
100
AcDbPolyline
 90
        4
 70
   128
 43
0.0
 10
-451.827276697046
 20
1321.066260981559
 10
-495.1463376970462
 20
1321.48032398156
 10
-591.0964106970462
 20
1322.04086998156
 10
-615.0847836970463
 20
1322.117041981559
  0
LWPOLYLINE
  5
32C
330
A
100
AcDbEntity
  8
FLN72-5555
  6
Continuous
 62
     8
370
    15
390
1D
100
AcDbPolyline
 90
        4
 70
   128
 43
0.0
 10
-451.827276697046
 20
2101.484046981559
 10
-495.1463376970462
 20
2101.069983981559
 10
-591.0964106970462
 20
2100.509436981559
 10
-615.0847836970463
 20
2100.43326498156
  0
LWPOLYLINE
  5
32D
330
A
100
AcDbEntity
  8
FLN72-5555
  6
Continuous
 62
     8
370
    15
390
1D
100
AcDbPolyline
 90
        3
 70
   128
 43
0.0
 10
-914.3903256970466
 20
2098.829749981559
 10
-914.3582216970458
 20
2098.55826498156
 10
-914.336858697046
 20
2098.275061981559
  0
LWPOLYLINE
  5
32E
330
A
100
AcDbEntity
  8
FLN72-5555
  6
Continuous
 62
     8
370
    15
390
1D
100
AcDbPolyline
 90
        3
 70
   128
 43
0.0
 10
-1064.011114697046
 20
1316.43149498156
 10
-1067.500860697046
 20
1316.816260981559
 10
-1068.497930697046
 20
1317.07407398156
  0
ARC
  5
32F
330
A
100
AcDbEntity
  8
FLN72-5555
  6
Continuous
 62
     8
370
    15
390
1D
100
AcDbCircle
 10
-257.7013386970459
 20
2138.275061981559
 30
0.0
 40
16.99999399999979
100
AcDbArc
 50
0.0
 51
90.0
  0
ARC
  5
330
330
A
100
AcDbEntity
  8
FLN72-5555
  6
Continuous
 62
     8
370
    15
390
1D
100
AcDbCircle
 10
-257.7013386970459
 20
1284.27524498156
 30
0.0
 40
16.99999400000002
100
AcDbArc
 50
270.0
 51
0.0
  0
ARC
  5
331
330
A
100
AcDbEntity
  8
FLN72-5555
  6
Continuous
 62
     8
370
    15
390
1D
100
AcDbCircle
 10
-1111.701055697046
 20
1284.27524498156
 30
0.0
 40
16.9999940000007
100
AcDbArc
 50
180.0
 51
270.0
  0
ARC
  5
332
330
A
100
AcDbEntity
  8
FLN72-5555
  6
Continuous
 62
     7
370
    15
390
1D
100
AcDbCircle
 10
-1063.701055697046
 20
2090.275061981559
 30
0.0
 40
7.999998000000232
100
AcDbArc
 50
90.0
 51
180.0
  0
ARC
  5
333
330
A
100
AcDbEntity
  8
FLN72-5555
  6
Continuous
 62
     7
370
    15
390
1D
100
AcDbCircle
 10
-913.7011166970465
 20
2090.275061981559
 30
0.0
 40
7.999998000000232
100
AcDbArc
 50
0.0
 51
90.0
  0
ARC
  5
334
330
A
100
AcDbEntity
  8
FLN72-5555
  6
Continuous
 62
     7
370
    15
390
1D
100
AcDbCircle
 10
-257.7013386970459
 20
1284.27524498156
 30
0.0
 40
22.99999200000002
100
AcDbArc
 50
270.0
 51
0.0
  0
ARC
  5
335
330
A
100
AcDbEntity
  8
FLN72-5555
  6
Continuous
 62
     7
370
    15
390
1D
100
AcDbCircle
 10
-257.7013386970459
 20
2138.275061981559
 30
0.0
 40
22.99999200000002
100
AcDbArc
 50
0.0
 51
90.0
  0
ARC
  5
336
330
A
100
AcDbEntity
  8
FLN72-5555
  6
Continuous
 62
     7
370
    15
390
1D
100
AcDbCircle
 10
-1111.701055697046
 20
1284.27524498156
 30
0.0
 40
22.99999200000002
100
AcDbArc
 50
180.0
 51
270.0
  0
ARC
  5
337
330
A
100
AcDbEntity
  8
FLN72-5555
  6
Continuous
 62
     7
370
    15
390
1D
100
AcDbCircle
 10
-1111.701055697046
 20
2138.275061981559
 30
0.0
 40
22.99999200000002
100
AcDbArc
 50
90.0
 51
180.0
  0
ARC
  5
338
330
A
100
AcDbEntity
  8
FLN72-5555
  6
Continuous
 62
     7
370
    15
390
1D
100
AcDbCircle
 10
-1062.337530697046
 20
527.8841419562996
 30
0.0
 40
14.99999499999956
100
AcDbArc
 50
32.18631000000138
 51
88.5002060000012
  0
ARC
  5
339
330
A
100
AcDbEntity
  8
FLN72-5555
  6
Continuous
 62
     7
370
    15
390
1D
100
AcDbCircle
 10
-1042.871282697046
 20
540.1341419562996
 30
0.0
 40
7.999998000000175
100
AcDbArc
 50
212.1738889999992
 51
270.0
  0
ARC
  5
33A
330
A
100
AcDbEntity
  8
FLN72-5555
  6
Continuous
 62
     7
370
    15
390
1D
100
AcDbCircle
 10
-1063.849981697047
 20
551.9328489562995
 30
0.0
 40
8.999996999999647
100
AcDbArc
 50
199.5634770000007
 51
268.4998470000023
  0
ARC
  5
33B
330
A
100
AcDbEntity
  8
FLN72-5555
  6
Continuous
 62
     7
370
    15
390
1D
100
AcDbCircle
 10
-925.552191697046
 20
551.9328489562995
 30
0.0
 40
8.999997000000095
100
AcDbArc
 50
271.5001529999976
 51
340.4365079999991
  0
ARC
  5
33C
330
A
100
AcDbEntity
  8
FLN72-5555
  6
Continuous
 62
     7
370
    15
390
1D
100
AcDbCircle
 10
-1128.701055697046
 20
554.9191769562995
 30
0.0
 40
5.999998000000232
100
AcDbArc
 50
180.0
 51
270.0
  0
ARC
  5
33D
330
A
100
AcDbEntity
  8
FLN72-5555
  6
Continuous
 62
     7
370
    15
390
1D
100
AcDbCircle
 10
-1128.701055697046
 20
574.9191769562995
 30
0.0
 40
5.999998000000005
100
AcDbArc
 50
90.0
 51
180.0
  0
ARC
  5
33E
330
A
100
AcDbEntity
  8
FLN72-5555
  6
Continuous
 62
     7
370
    15
390
1D
100
AcDbCircle
 10
-946.5311946970464
 20
540.1341419562996
 30
0.0
 40
7.999998000000005
100
AcDbArc
 50
270.0
 51
327.826599000001
  0
ARC
  5
33F
330
A
100
AcDbEntity
  8
FLN72-5555
  6
Continuous
 62
     7
370
    15
390
1D
100
AcDbCircle
 10
-927.064764697046
 20
527.8841419562996
 30
0.0
 40
14.99999499999998
100
AcDbArc
 50
91.50026700000214
 51
147.8135759999997
  0
ARC
  5
340
330
A
100
AcDbEntity
  8
FLN72-5555
  6
Continuous
 62
     7
370
    15
390
1D
100
AcDbCircle
 10
-240.7013456970465
 20
574.9191769562995
 30
0.0
 40
5.999998000000232
100
AcDbArc
 50
0.0
 51
90.0
  0
ARC
  5
341
330
A
100
AcDbEntity
  8
FLN72-5555
  6
Continuous
 62
     7
370
    15
390
1D
100
AcDbCircle
 10
-240.7013456970465
 20
554.9191769562995
 30
0.0
 40
5.999998000000005
100
AcDbArc
 50
270.0
 51
0.0
  0
ARC
  5
342
330
A
100
AcDbEntity
  8
FLN72-5555
  6
Continuous
 62
     7
370
    15
390
1D
100
AcDbCircle
 10
1115.200429802953
 20
540.1341419562996
 30
0.0
 40
7.999998000000005
100
AcDbArc
 50
270.0
 51
327.8261109999974
  0
ARC
  5
343
330
A
100
AcDbEntity
  8
FLN72-5555
  6
Continuous
 62
     7
370
    15
390
1D
100
AcDbCircle
 10
1018.860341802953
 20
540.1341419562996
 30
0.0
 40
7.999998000000062
100
AcDbArc
 50
212.1738589999987
 51
270.0
  0
ARC
  5
344
330
A
100
AcDbEntity
  8
FLN72-5555
  6
Continuous
 62
     7
370
    15
390
1D
100
AcDbCircle
 10
623.0303858029529
 20
554.9191769562995
 30
0.0
 40
5.999998000000232
100
AcDbArc
 50
180.0
 51
270.0
  0
ARC
  5
345
330
A
100
AcDbEntity
  8
FLN72-5555
  6
Continuous
 62
     7
370
    15
390
1D
100
AcDbCircle
 10
999.3937888029527
 20
527.8841419562996
 30
0.0
 40
14.99999499999975
100
AcDbArc
 50
32.18617600000017
 51
88.49926799999963
  0
ARC
  5
346
330
A
100
AcDbEntity
  8
FLN72-5555
  6
Continuous
 62
     7
370
    15
390
1D
100
AcDbCircle
 10
623.0303858029529
 20
574.9191769562995
 30
0.0
 40
5.999998000000005
100
AcDbArc
 50
90.0
 51
180.0
  0
ARC
  5
347
330
A
100
AcDbEntity
  8
FLN72-5555
  6
Continuous
 62
     7
370
    15
390
1D
100
AcDbCircle
 10
1134.666737802953
 20
527.8841419562996
 30
0.0
 40
14.99999499999991
100
AcDbArc
 50
91.4997940000023
 51
147.8138120000008
  0
ARC
  5
348
330
A
100
AcDbEntity
  8
FLN72-5555
  6
Continuous
 62
     7
370
    15
390
1D
100
AcDbCircle
 10
1511.030385802953
 20
554.9191769562995
 30
0.0
 40
5.999998000000005
100
AcDbArc
 50
270.0
 51
0.0
  0
ARC
  5
349
330
A
100
AcDbEntity
  8
FLN72-5555
  6
Continuous
 62
     7
370
    15
390
1D
100
AcDbCircle
 10
1511.030385802953
 20
574.9191769562995
 30
0.0
 40
5.999997999999323
100
AcDbArc
 50
0.0
 51
90.0
  0
ARC
  5
34A
330
A
100
AcDbEntity
  8
FLN72-5555
  6
Continuous
 62
     7
370
    15
390
1D
100
AcDbCircle
 10
-1063.701055697046
 20
1332.27522998156
 30
0.0
 40
7.999998000000232
100
AcDbArc
 50
180.0
 51
270.0
  0
ARC
  5
34B
330
A
100
AcDbEntity
  8
FLN72-5555
  6
Continuous
 62
     7
370
    15
390
1D
100
AcDbCircle
 10
-913.7011166970465
 20
1332.27522998156
 30
0.0
 40
7.999998000000005
100
AcDbArc
 50
270.0
 51
0.0
  0
LINE
  5
34C
330
A
100
AcDbEntity
  8
FLN72-5555
  6
Continuous
 62
     7
370
    15
390
1D
100
AcDbLine
 10
-905.7011166970465
 20
1711.275122981559
 30
0.0
 11
-905.7011166970465
 21
2090.275061981559
 31
0.0
  0
LINE
  5
34D
330
A
100
AcDbEntity
  8
FLN72-5555
  6
Continuous
 62
     7
370
    15
390
1D
100
AcDbLine
 10
-1071.701055697046
 20
2090.275061981559
 30
0.0
 11
-1071.701055697046
 21
1711.275122981559
 31
0.0
  0
LINE
  5
34E
330
A
100
AcDbEntity
  8
FLN72-5555
  6
Continuous
 62
     7
370
    15
390
1D
100
AcDbLine
 10
-913.7011166970465
 20
2098.275061981559
 30
0.0
 11
-1063.701055697046
 21
2098.275061981559
 31
0.0
  0
LINE
  5
34F
330
A
100
AcDbEntity
  8
FLN72-5555
  6
Continuous
 62
     7
370
    15
390
1D
100
AcDbLine
 10
-257.7013386970459
 20
1261.27526098156
 30
0.0
 11
-1111.701055697046
 21
1261.27526098156
 31
0.0
  0
LINE
  5
350
330
A
100
AcDbEntity
  8
FLN72-5555
  6
Continuous
 62
     7
370
    15
390
1D
100
AcDbLine
 10
-257.7013386970459
 20
2161.27506198156
 30
0.0
 11
-1111.701055697046
 21
2161.27506198156
 31
0.0
  0
LINE
  5
351
330
A
100
AcDbEntity
  8
FLN72-5555
  6
Continuous
 62
     7
370
    15
390
1D
100
AcDbLine
 10
-234.7013456970465
 20
1284.27524498156
 30
0.0
 11
-234.7013456970465
 21
2138.275061981559
 31
0.0
  0
LINE
  5
352
330
A
100
AcDbEntity
  8
FLN72-5555
  6
Continuous
 62
     7
370
    15
390
1D
100
AcDbLine
 10
-1134.701055697046
 20
2138.275061981559
 30
0.0
 11
-1134.701055697046
 21
1284.27524498156
 31
0.0
  0
LINE
  5
353
330
A
100
AcDbEntity
  8
FLN72-5555
  6
Continuous
 62
     7
370
    15
390
1D
100
AcDbLine
 10
-905.7011166970465
 20
1711.275122981559
 30
0.0
 11
-905.7011166970465
 21
1332.27522998156
 31
0.0
  0
LINE
  5
354
330
A
100
AcDbEntity
  8
FLN72-5555
  6
Continuous
 62
     7
370
    15
390
1D
100
AcDbLine
 10
-255.0367876970461
 20
580.9191769562995
 30
0.0
 11
-240.9172886970462
 21
580.9191769562995
 31
0.0
  0
LINE
  5
355
330
A
100
AcDbEntity
  8
FLN72-5555
  6
Continuous
 62
     7
370
    15
390
1D
100
AcDbLine
 10
-1128.494024697046
 20
580.9191769562995
 30
0.0
 11
-257.7013386970459
 21
580.9191769562995
 31
0.0
  0
LINE
  5
356
330
A
100
AcDbEntity
  8
FLN72-5555
  6
Continuous
 62
     7
370
    15
390
1D
100
AcDbLine
 10
-1064.085577697046
 20
542.9348019562995
 30
0.0
 11
-1061.944952697046
 21
542.8801139562995
 31
0.0
  0
LINE
  5
357
330
A
100
AcDbEntity
  8
FLN72-5555
  6
Continuous
 62
     7
370
    15
390
1D
100
AcDbLine
 10
-927.4574646970464
 20
542.8801139562995
 30
0.0
 11
-925.3165956970465
 21
542.9348019562995
 31
0.0
  0
LINE
  5
358
330
A
100
AcDbEntity
  8
FLN72-5555
  6
Continuous
 62
     7
370
    15
390
1D
100
AcDbLine
 10
-1134.701055697046
 20
554.9191769562995
 30
0.0
 11
-1134.701055697046
 21
574.9191769562995
 31
0.0
  0
LINE
  5
359
330
A
100
AcDbEntity
  8
FLN72-5555
  6
Continuous
 62
     7
370
    15
390
1D
100
AcDbLine
 10
-234.7013456970465
 20
574.9191769562995
 30
0.0
 11
-234.7013456970465
 21
554.9191769562995
 31
0.0
  0
LINE
  5
35A
330
A
100
AcDbEntity
  8
FLN72-5555
  6
Continuous
 62
     7
370
    15
390
1D
100
AcDbLine
 10
-1042.871282697046
 20
532.1341419562996
 30
0.0
 11
-946.5311946970464
 21
532.1341419562996
 31
0.0
  0
LINE
  5
35B
330
A
100
AcDbEntity
  8
FLN72-5555
  6
Continuous
 62
     7
370
    15
390
1D
100
AcDbLine
 10
-994.7011166970465
 20
548.9191769562995
 30
0.0
 11
-1128.701055697046
 21
548.9191769562995
 31
0.0
  0
LINE
  5
35C
330
A
100
AcDbEntity
  8
FLN72-5555
  6
Continuous
 62
     7
370
    15
390
1D
100
AcDbLine
 10
-994.7011166970465
 20
548.9191769562995
 30
0.0
 11
-240.7013456970465
 21
548.9191769562995
 31
0.0
  0
LINE
  5
35D
330
A
100
AcDbEntity
  8
FLN72-5555
  6
Continuous
 62
     7
370
    15
390
1D
100
AcDbLine
 10
637.3851218029531
 20
580.9191769562995
 30
0.0
 11
624.2449848029528
 21
580.9191769562995
 31
0.0
  0
LINE
  5
35E
330
A
100
AcDbEntity
  8
FLN72-5555
  6
Continuous
 62
     7
370
    15
390
1D
100
AcDbLine
 10
1494.030141802953
 20
580.9191769562995
 30
0.0
 11
640.0303858029529
 21
580.9191769562995
 31
0.0
  0
LINE
  5
35F
330
A
100
AcDbEntity
  8
FLN72-5555
  6
Continuous
 62
     7
370
    15
390
1D
100
AcDbLine
 10
1509.815541802953
 20
580.9191769562995
 30
0.0
 11
1496.675404802953
 21
580.9191769562995
 31
0.0
  0
LINE
  5
360
330
A
100
AcDbEntity
  8
FLN72-5555
  6
Continuous
 62
     7
370
    15
390
1D
100
AcDbLine
 10
769.1873678029528
 20
548.9191769562995
 30
0.0
 11
999.786610802953
 21
542.8801139562995
 31
0.0
  0
LINE
  5
361
330
A
100
AcDbEntity
  8
FLN72-5555
  6
Continuous
 62
     7
370
    15
390
1D
100
AcDbLine
 10
1134.274159802953
 20
542.8801139562995
 30
0.0
 11
1364.873158802954
 21
548.9191769562995
 31
0.0
  0
LINE
  5
362
330
A
100
AcDbEntity
  8
FLN72-5555
  6
Continuous
 62
     7
370
    15
390
1D
100
AcDbLine
 10
617.0303858029529
 20
554.9191769562995
 30
0.0
 11
617.0303858029529
 21
574.9191769562995
 31
0.0
  0
LINE
  5
363
330
A
100
AcDbEntity
  8
FLN72-5555
  6
Continuous
 62
     7
370
    15
390
1D
100
AcDbLine
 10
1517.030385802953
 20
574.9191769562995
 30
0.0
 11
1517.030385802953
 21
554.9191769562995
 31
0.0
  0
LINE
  5
364
330
A
100
AcDbEntity
  8
FLN72-5555
  6
Continuous
 62
     7
370
    15
390
1D
100
AcDbLine
 10
1115.200429802953
 20
532.1341419562996
 30
0.0
 11
1018.860341802953
 21
532.1341419562996
 31
0.0
  0
LINE
  5
365
330
A
100
AcDbEntity
  8
FLN72-5555
  6
Continuous
 62
     7
370
    15
390
1D
100
AcDbLine
 10
1067.030263802953
 20
548.9191769562995
 30
0.0
 11
623.0303858029529
 21
548.9191769562995
 31
0.0
  0
LINE
  5
366
330
A
100
AcDbEntity
  8
FLN72-5555
  6
Continuous
 62
     7
370
    15
390
1D
100
AcDbLine
 10
1067.030263802953
 20
548.9191769562995
 30
0.0
 11
1511.030385802953
 21
548.9191769562995
 31
0.0
  0
LINE
  5
367
330
A
100
AcDbEntity
  8
FLN72-5555
  6
Continuous
 62
     7
370
    15
390
1D
100
AcDbLine
 10
-1071.701055697046
 20
1332.27522998156
 30
0.0
 11
-1071.701055697046
 21
1711.275122981559
 31
0.0
  0
LINE
  5
368
330
A
100
AcDbEntity
  8
FLN72-5555
  6
Continuous
 62
     7
370
    15
390
1D
100
AcDbLine
 10
-913.7011166970465
 20
1324.27524498156
 30
0.0
 11
-1063.701055697046
 21
1324.27524498156
 31
0.0
  0
LWPOLYLINE
  5
369
330
A
100
AcDbEntity
  8
FLN72-5555
  6
Continuous
 62
     7
370
    15
390
1D
100
AcDbPolyline
 90
        5
 70
   128
 43
0.0
 10
-257.7013386970459
 20
580.9191769562995
 10
-257.0352006970463
 20
580.9191769562995
 10
-256.3690626970463
 20
580.9191769562995
 10
-255.7018266970465
 20
580.9191769562995
 10
-255.0367876970461
 20
580.9191769562995
  0
LWPOLYLINE
  5
36A
330
A
100
AcDbEntity
  8
FLN72-5555
  6
Continuous
 62
     7
370
    15
390
1D
100
AcDbPolyline
 90
        5
 70
   128
 43
0.0
 10
640.0303858029529
 20
580.9191769562995
 10
639.3690088029525
 20
580.9191769562995
 10
638.7078758029529
 20
580.9191769562995
 10
638.0455228029527
 20
580.9191769562995
 10
637.3851218029531
 20
580.9191769562995
  0
LWPOLYLINE
  5
36B
330
A
100
AcDbEntity
  8
FLN72-5555
  6
Continuous
 62
     7
370
    15
390
1D
100
AcDbPolyline
 90
        5
 70
   128
 43
0.0
 10
1494.030141802953
 20
580.9191769562995
 10
1494.691518802953
 20
580.9191769562995
 10
1495.352650802952
 20
580.9191769562995
 10
1496.015004802952
 20
580.9191769562995
 10
1496.675404802953
 20
580.9191769562995
  0
DIMENSION
  5
36C
330
A
100
AcDbEntity
  8
FLN72-5555
  6
Continuous
 62
     7
370
     5
390
1D
100
AcDbDimension
  2
*D16
 10
-1134.701055697046
 20
2344.111365981559
 30
0.0
 11
-684.7012006970461
 21
2378.543983169059
 31
0.0
 70
    32
 71
     5
 42
899.9997099999994
 73
     0
 74
     0
 75
     0
  3
T-form線あり
100
AcDbAlignedDimension
 13
-234.7013456970465
 23
2138.275061981559
 33
0.0
 14
-1134.701055697046
 24
2138.275061981559
 34
0.0
100
AcDbRotatedDimension
1001
ACAD
1000
DSTYLE
1002
{
1070
   279
1070
     2
1070
   340
1005
41
1070
   140
1040
48.86523437500001
1070
   147
1040
10.0
1002
}
  0
DIMENSION
  5
36D
330
A
100
AcDbEntity
  8
FLN72-5555
  6
Continuous
 62
     7
370
     5
390
1D
100
AcDbDimension
  2
*D17
 10
33.18750930295323
 20
2161.27506198156
 30
0.0
 11
-1.245107884546798
 21
1711.27516148156
 31
0.0
 70
    32
 71
     5
 42
899.9998009999999
 73
     0
 74
     0
 75
     0
  3
T-form線あり
100
AcDbAlignedDimension
 13
-257.7013386970459
 23
1261.27526098156
 33
0.0
 14
-257.7013386970459
 24
2161.27506198156
 34
0.0
 50
90.0
100
AcDbRotatedDimension
1001
ACAD
1000
DSTYLE
1002
{
1070
   279
1070
     2
1070
   340
1005
41
1070
   140
1040
48.86523437500001
1070
   147
1040
10.0
1002
}
  0
DIMENSION
  5
36E
330
A
100
AcDbEntity
  8
FLN72-5555
  6
Continuous
 62
     7
370
     5
390
1D
100
AcDbDimension
  2
*D38
 10
-234.7013456970465
 20
1094.11136598156
 30
0.0
 11
-181.2182354531251
 21
1128.54398316906
 31
0.0
 70
   160
 71
     5
 42
60.0
 73
     0
 74
     0
 75
     0
  3
T-form線あり
100
AcDbAlignedDimension
 13
-294.7013456970465
 23
1261.27526098156
 33
0.0
 14
-234.7013456970465
 24
1284.27524498156
 34
0.0
100
AcDbRotatedDimension
1001
ACAD
1000
DSTYLE
1002
{
1070
   279
1070
     2
1070
   340
1005
41
1070
   140
1040
48.86523437500001
1070
   174
1070
     0
1070
   147
1040
10.0
1002
}
  0
DIMENSION
  5
36F
330
A
100
AcDbEntity
  8
FLN72-5555
  6
Continuous
 62
     7
370
     5
390
1D
100
AcDbDimension
  2
*D19
 10
-294.7013456970465
 20
1094.11136598156
 30
0.0
 11
-599.7013456970466
 21
1128.54398316906
 31
0.0
 70
    32
 71
     5
 42
610.0000000000002
 73
     0
 74
     0
 75
     0
  3
T-form線あり
100
AcDbAlignedDimension
 13
-904.7013456970467
 23
1262.693313481559
 33
0.0
 14
-294.7013456970465
 24
1262.693313481559
 34
0.0
100
AcDbRotatedDimension
1001
ACAD
1000
DSTYLE
1002
{
1070
   279
1070
     2
1070
   340
1005
41
1070
   140
1040
48.86523437500001
1070
   147
1040
10.0
1002
}
  0
DIMENSION
  5
370
330
A
100
AcDbEntity
  8
FLN72-5555
  6
Continuous
 62
     7
370
     5
390
1D
100
AcDbDimension
  2
*D20
 10
-904.7013456970467
 20
1092.693313481559
 30
0.0
 11
-989.7013456970467
 21
1127.125930669059
 31
0.0
 70
    32
 71
     5
 42
170.0
 73
     0
 74
     0
 75
     0
  3
T-form線あり
100
AcDbAlignedDimension
 13
-1074.701345697047
 23
1261.27526098156
 33
0.0
 14
-904.7013456970467
 24
1261.27526098156
 34
0.0
100
AcDbRotatedDimension
1001
ACAD
1000
DSTYLE
1002
{
1070
   279
1070
     2
1070
   340
1005
41
1070
   140
1040
48.86523437500001
1070
   147
1040
10.0
1002
}
  0
POLYLINE
  5
371
330
A
100
AcDbEntity
  8
FLN72-5555
  6
Continuous
 62
     7
370
    15
390
1D
100
AcDb2dPolyline
 66
     1
 10
0.0
 20
0.0
 30
0.0
 70
     1
 75
     5
  0
VERTEX
  5
372
330
371
100
AcDbEntity
  8
FLN72-5555
  6
Continuous
 62
     7
370
    15
390
1D
100
AcDbVertex
100
AcDb2dVertex
 10
-1128.701055697046
 20
548.9191769562995
 30
0.0
  0
VERTEX
  5
373
330
371
100
AcDbEntity
  8
FLN72-5555
  6
Continuous
 62
     7
370
    15
390
1D
100
AcDbVertex
100
AcDb2dVertex
 10
-240.7010556970465
 20
548.9191769562995
 30
0.0
  0
VERTEX
  5
374
330
371
100
AcDbEntity
  8
FLN72-5555
  6
Continuous
 62
     7
370
    15
390
1D
100
AcDbVertex
100
AcDb2dVertex
 10
-240.7010556970465
 20
440.9191769562995
 30
0.0
  0
VERTEX
  5
375
330
371
100
AcDbEntity
  8
FLN72-5555
  6
Continuous
 62
     7
370
    15
390
1D
100
AcDbVertex
100
AcDb2dVertex
 10
-1128.701055697046
 20
440.9191769562995
 30
0.0
  0
SEQEND
  5
376
330
371
100
AcDbEntity
  8
FLN72-5555
  6
Continuous
 62
     7
370
    15
390
1D
  0
DIMENSION
  5
377
330
A
100
AcDbEntity
  8
FLN72-5555
  6
Continuous
 62
     7
370
     5
390
1D
100
AcDbDimension
  2
*D40
 10
-994.7011166970465
 20
313.6697869562995
 30
0.0
 11
-1064.701086197046
 21
353.2701319019125
 31
0.0
 70
   160
 71
     5
 42
139.9999389999994
 73
     0
 74
     0
 75
     0
  3
T-form線あり
100
AcDbAlignedDimension
 13
-1134.701055697046
 23
554.9191769562995
 33
0.0
 14
-994.7011166970465
 24
532.1341419562996
 34
0.0
100
AcDbRotatedDimension
1001
ACAD
1000
DSTYLE
1002
{
1070
   279
1070
     2
1070
   340
1005
41
1070
   140
1040
48.86523437500001
1070
   147
1040
10.0
1002
}
  0
POLYLINE
  5
378
330
A
100
AcDbEntity
  8
FLN72-5555
  6
Continuous
 62
     7
370
    15
390
1D
100
AcDb2dPolyline
 66
     1
 10
0.0
 20
0.0
 30
0.0
 70
     1
 75
     5
  0
VERTEX
  5
379
330
378
100
AcDbEntity
  8
FLN72-5555
  6
Continuous
 62
     7
370
    15
390
1D
100
AcDbVertex
100
AcDb2dVertex
 10
623.1873678029533
 20
548.9191769562995
 30
0.0
  0
VERTEX
  5
37A
330
378
100
AcDbEntity
  8
FLN72-5555
  6
Continuous
 62
     7
370
    15
390
1D
100
AcDbVertex
100
AcDb2dVertex
 10
1511.187367802954
 20
548.9191769562995
 30
0.0
  0
VERTEX
  5
37B
330
378
100
AcDbEntity
  8
FLN72-5555
  6
Continuous
 62
     7
370
    15
390
1D
100
AcDbVertex
100
AcDb2dVertex
 10
1511.187367802954
 20
440.9191769562995
 30
0.0
  0
VERTEX
  5
37C
330
378
100
AcDbEntity
  8
FLN72-5555
  6
Continuous
 62
     7
370
    15
390
1D
100
AcDbVertex
100
AcDb2dVertex
 10
623.1873678029533
 20
440.9191769562995
 30
0.0
  0
SEQEND
  5
37D
330
378
100
AcDbEntity
  8
FLN72-5555
  6
Continuous
 62
     7
370
    15
390
1D
  0
DIMENSION
  5
37E
330
A
100
AcDbEntity
  8
FLN72-5555
  6
Continuous
 62
     7
370
     5
390
1D
100
AcDbDimension
  2
*D39
 10
-1219.562490697047
 20
580.9191769562995
 30
0.0
 11
-1253.402409532336
 21
652.5261231840963
 31
0.0
 70
   160
 71
     5
 42
34.99999999999999
 73
     0
 74
     0
 75
     0
  3
T-form線あり
100
AcDbAlignedDimension
 13
-1067.872246432136
 23
545.9191769562995
 33
0.0
 14
-1128.494024697046
 24
580.9191769562995
 34
0.0
 50
90.0
100
AcDbRotatedDimension
1001
ACAD
1000
DSTYLE
1002
{
1070
   279
1070
     2
1070
   340
1005
41
1070
   140
1040
48.86523437500001
1070
     3
1000
<>(深さ)
1070
   174
1070
     0
1070
   147
1040
10.0
1002
}
  0
DIMENSION
  5
37F
330
A
100
AcDbEntity
  8
FLN72-5555
  6
Continuous
 62
     7
370
     5
390
1D
100
AcDbDimension
  2
*D41
 10
1647.416208072678
 20
580.9191769562995
 30
0.0
 11
1657.416208072678
 21
633.8048462850742
 31
0.0
 70
   160
 71
     5
 42
32.0
 73
     0
 74
     0
 75
     0
  3
T-form線あり
100
AcDbAlignedDimension
 13
1509.815541802953
 23
548.9191769562995
 33
0.0
 14
1509.815541802953
 24
580.9191769562995
 34
0.0
 50
90.0
100
AcDbRotatedDimension
1001
ACAD
1000
DSTYLE
1002
{
1070
   279
1070
     2
1070
   340
1005
41
1070
   140
1040
48.86523437500001
1070
   174
1070
     0
1070
   147
1040
10.0
1002
}
  0
DIMENSION
  5
380
330
A
100
AcDbEntity
  8
FLN72-5555
  6
Continuous
 62
     7
370
     5
390
1D
100
AcDbDimension
  2
*D24
 10
508.1873678029533
 20
440.9191769562995
 30
0.0
 11
473.7547506154533
 21
510.9191769562995
 31
0.0
 70
    32
 71
     5
 42
140.0
 73
     0
 74
     0
 75
     0
  3
T-form線あり
100
AcDbAlignedDimension
 13
623.1873678029533
 23
580.9191769562995
 33
0.0
 14
623.1873678029533
 24
440.9191769562995
 34
0.0
 50
90.0
100
AcDbRotatedDimension
1001
ACAD
1000
DSTYLE
1002
{
1070
   279
1070
     2
1070
   340
1005
41
1070
   140
1040
48.86523437500001
1070
   147
1040
10.0
1002
}
  0
DIMENSION
  5
381
330
A
100
AcDbEntity
  8
FLN72-5555
  6
Continuous
 62
     7
370
     5
390
1D
100
AcDbDimension
  2
*D25
 10
1067.030385802953
 20
344.9191769562995
 30
0.0
 11
842.0303858029529
 21
379.3517941437995
 31
0.0
 70
    32
 71
     5
 42
450.0
 73
     0
 74
     0
 75
     0
  3
T-form線あり
100
AcDbAlignedDimension
 13
617.0303858029529
 23
554.9191769562995
 33
0.0
 14
1067.030385802953
 24
532.1341419562996
 34
0.0
100
AcDbRotatedDimension
1001
ACAD
1000
DSTYLE
1002
{
1070
   279
1070
     2
1070
   340
1005
41
1070
   140
1040
48.86523437500001
1070
   147
1040
10.0
1002
}
  0
MTEXT
  5
382
330
A
100
AcDbEntity
  8
FLN72-5555
 62
     7
390
1D
100
AcDbMText
 10
55.43748238814464
 20
846.9244113312996
 30
0.0
 40
48.86523437500001
 41
0.0
 46
0.0
 71
     1
 72
     1
  1
ポリスチレン製設置用ベース
  7
ＭＳ ゴシック
 73
     1
 44
0.7828267384257843
  0
LINE
  5
383
330
A
100
AcDbEntity
  8
FLN72-5555
  6
Continuous
 62
     7
370
     5
390
1D
100
AcDbLine
 10
-248.6075694019135
 20
504.1240982514331
 30
0.0
 11
44.98258800781946
 21
797.714255661166
 31
0.0
  0
DIMENSION
  5
384
330
A
100
AcDbEntity
  8
FLN72-5555
  6
Continuous
 62
     7
370
     5
390
1D
100
AcDbDimension
  2
*D26
 10
-1282.0
 20
2161.275053981559
 30
0.0
 11
-1316.4326171875
 21
2131.275053981559
 31
0.0
 70
    32
 71
     5
 42
60.0
 73
     0
 74
     0
 75
     0
  3
T-form線あり
100
AcDbAlignedDimension
 13
-1134.701055697046
 23
2101.275053981559
 33
0.0
 14
-1111.701055697046
 24
2161.275053981559
 34
0.0
 50
90.0
100
AcDbRotatedDimension
1001
ACAD
1000
DSTYLE
1002
{
1070
   279
1070
     2
1070
   340
1005
41
1070
   140
1040
48.86523437500001
1070
   147
1040
10.0
1002
}
  0
DIMENSION
  5
385
330
A
100
AcDbEntity
  8
FLN72-5555
  6
Continuous
 62
     7
370
     5
390
1D
100
AcDbDimension
  2
*D27
 10
-1282.0
 20
2101.275053981559
 30
0.0
 11
-1316.4326171875
 21
1711.275053981559
 31
0.0
 70
    32
 71
     5
 42
780.0
 73
     0
 74
     0
 75
     0
  3
T-form線あり
100
AcDbAlignedDimension
 13
-1134.701055697046
 23
1321.275053981559
 33
0.0
 14
-1134.701055697046
 24
2101.275053981559
 34
0.0
 50
90.0
100
AcDbRotatedDimension
1001
ACAD
1000
DSTYLE
1002
{
1070
   279
1070
     2
1070
   340
1005
41
1070
   140
1040
48.86523437500001
1070
   147
1040
10.0
1002
}
  0
DIMENSION
  5
386
330
A
100
AcDbEntity
  8
FLN72-5555
  6
Continuous
 62
     7
370
     5
390
1D
100
AcDbDimension
  2
*D28
 10
-1282.0
 20
1321.275053981559
 30
0.0
 11
-1316.4326171875
 21
1291.275053981559
 31
0.0
 70
    32
 71
     5
 42
60.0
 73
     0
 74
     0
 75
     0
  3
T-form線あり
100
AcDbAlignedDimension
 13
-1111.701055697046
 23
1261.275053981559
 33
0.0
 14
-1134.701055697046
 24
1321.275053981559
 34
0.0
 50
90.0
100
AcDbRotatedDimension
1001
ACAD
1000
DSTYLE
1002
{
1070
   279
1070
     2
1070
   340
1005
41
1070
   140
1040
48.86523437500001
1070
   147
1040
10.0
1002
}
  0
DIMENSION
  5
387
330
A
100
AcDbEntity
  8
FLN72-5555
  6
Continuous
 62
     7
370
     5
390
1D
100
AcDbDimension
  2
*D29
 10
-949.7011316970461
 20
1842.0
 30
0.0
 11
-994.701116697046
 21
1880.390701171875
 31
0.0
 70
    32
 71
     5
 42
89.99996999999985
 73
     0
 74
     0
 75
     0
  3
T-form線あり
100
AcDbAlignedDimension
 13
-1039.701101697046
 23
1711.275122981559
 33
0.0
 14
-949.7011316970461
 24
1711.275122981559
 34
0.0
100
AcDbRotatedDimension
1001
ACAD
1000
DSTYLE
1002
{
1070
   279
1070
     2
1070
   340
1005
41
1070
   140
1040
48.86523437500001
1070
     3
1000
φ<>
1070
   147
1040
10.0
1002
}
  0
MTEXT
  5
5FD
330
A
100
AcDbEntity
  8
notes
 62
     7
390
1D
100
AcDbMText
 10
-687.2920855532652
 20
-1670.691649941587
 30
0.0
 40
55.5625
 41
0.0
 46
125.7584438445967
 71
     1
 72
     1
  1
{\H0.8795x;・塩ビ管30に接続できます。\P・塩ビパイプ用の接着材を使ってVP30と接着してください。}
  7
ＭＳ ゴシック
 73
     1
 44
0.7828267384257843
1001
ACAD
1000
ACAD_MTEXT_DEFINED_HEIGHT_BEGIN
1070
    46
1040
125.7584438445967
1000
ACAD_MTEXT_DEFINED_HEIGHT_END
  0
LWPOLYLINE
  5
6BE
330
A
100
AcDbEntity
  8
FLN72-5801
  6
Continuous
 62
     7
370
     5
390
1D
100
AcDbPolyline
 90
        4
 70
   128
 43
0.0
 10
-150.8300158033828
 20
-1050.824882328741
 10
-126.8300158033828
 20
-1062.096679098466
 10
-126.8300158033828
 20
-1228.448562744297
 10
-150.8300158033828
 20
-1242.824882328741
  0
LWPOLYLINE
  5
6BF
330
A
100
AcDbEntity
  8
FLN72-5801
  6
Continuous
 62
     7
370
     5
390
1D
100
AcDbPolyline
 90
       20
 70
   129
 43
0.0
 10
-226.0300158033835
 20
-1045.496679098467
 10
-150.8300158033828
 20
-1045.496679098467
 10
-150.8300158033828
 20
-1063.096679098466
 10
-206.8300158033828
 20
-1063.096679098466
 10
-206.8300158033828
 20
-1081.496679098467
 10
-150.8300158033828
 20
-1081.496679098467
 10
-150.8300158033828
 20
-1096.696679098464
 10
-206.8300158033828
 20
-1096.696679098464
 10
-206.8300158033828
 20
-1135.096679098466
 10
-150.8300158033828
 20
-1135.096679098466
 10
-150.8300158033828
 20
-1156.696679098464
 10
-206.8300158033828
 20
-1156.696679098464
 10
-206.8300158033828
 20
-1197.496679098464
 10
-150.8300158033828
 20
-1197.496679098464
 10
-150.8300158033828
 20
-1214.296679098462
 10
-206.8300158033828
 20
-1214.296679098462
 10
-206.8300158033828
 20
-1227.096679098465
 10
-150.8300158033828
 20
-1227.096679098465
 10
-150.8300158033828
 20
-1244.696679098464
 10
-226.0300158033835
 20
-1244.696679098464
  0
LINE
  5
6C0
330
A
100
AcDbEntity
  8
FLN72-5801
  6
STYLE_15
 62
     7
370
     5
390
1D
100
AcDbLine
 10
-119.0662189778789
 20
-1222.096679098465
 30
0.0
 11
-126.8300158033828
 21
-1222.096679098465
 31
0.0
  0
LINE
  5
6C1
330
A
100
AcDbEntity
  8
FLN72-5801
  6
STYLE_15
 62
     7
370
     5
390
1D
100
AcDbLine
 10
-119.0662189778789
 20
-1062.096679098466
 30
0.0
 11
-126.8300158033828
 21
-1062.096679098466
 31
0.0
  0
LINE
  5
6C2
330
A
100
AcDbEntity
  8
FLN72-5801
  6
STYLE_11
 62
     7
370
     5
390
1D
100
AcDbLine
 10
89.16998419661718
 20
-1218.096679098465
 30
0.0
 11
-111.2945784628221
 21
-1218.096679098465
 31
0.0
  0
LINE
  5
6C3
330
A
100
AcDbEntity
  8
FLN72-5801
  6
STYLE_11
 62
     7
370
     5
390
1D
100
AcDbLine
 10
89.16998419661718
 20
-1066.096679098466
 30
0.0
 11
-111.2945784628221
 21
-1066.096679098466
 31
0.0
  0
LINE
  5
6C4
330
A
100
AcDbEntity
  8
FLN72-5801
  6
Continuous
370
     0
100
AcDbLine
 10
-111.2945784628221
 20
-1045.496679098467
 30
0.0
 11
89.16998419661718
 21
-1045.496679098467
 31
0.0
  0
LINE
  5
6C5
330
A
100
AcDbEntity
  8
FLN72-5801
  6
Continuous
370
     0
100
AcDbLine
 10
-111.2945784628221
 20
-1244.696679098464
 30
0.0
 11
89.16998419661718
 21
-1244.696679098464
 31
0.0
  0
LINE
  5
6C6
330
A
100
AcDbEntity
  8
FLN72-5801
  6
Continuous
370
     0
100
AcDbLine
 10
-119.0662189778789
 20
-1062.096679098466
 30
0.0
 11
-119.0662189778789
 21
-1222.096679098465
 31
0.0
  0
LINE
  5
6C7
330
A
100
AcDbEntity
  8
FLN72-5801
  6
Continuous
370
     0
100
AcDbLine
 10
-111.2945784628221
 20
-1045.496679098467
 30
0.0
 11
-111.2945784628221
 21
-1244.696679098464
 31
0.0
  0
LINE
  5
6C8
330
A
100
AcDbEntity
  8
FLN72-5801
  6
Continuous
370
     0
100
AcDbLine
 10
-119.0662189778789
 20
-1062.096679098466
 30
0.0
 11
-111.2945784628221
 21
-1045.496679098467
 31
0.0
  0
LINE
  5
6C9
330
A
100
AcDbEntity
  8
FLN72-5801
  6
Continuous
370
     0
100
AcDbLine
 10
-119.0662189778789
 20
-1222.096679098465
 30
0.0
 11
-111.2945784628221
 21
-1244.696679098464
 31
0.0
  0
LINE
  5
6CA
330
A
100
AcDbEntity
  8
FLN72-5801
  6
Continuous
370
     0
100
AcDbLine
 10
89.16998419661718
 20
-1045.496679098467
 30
0.0
 11
89.16998419661718
 21
-1244.696679098464
 31
0.0
  0
LWPOLYLINE
  5
999
330
A
100
AcDbEntity
  8
waku 
  6
Continuous
370
     0
100
AcDbPolyline
 90
        4
 70
     1
 43
0.0
 10
-2103.754647862727
 20
-2976.353036140506
 10
-2103.754647862727
 20
2963.646963859495
 10
2096.245352137274
 20
2963.646963859495
 10
2096.245352137274
 20
-2976.353036140506
  0
VIEWPORT
  5
96D
330
B
100
AcDbEntity
 67
     1
  8
0
100
AcDbViewport
 10
202.5
 20
128.5
 30
0.0
 40
486.0
 41
308.4
 68
     1
 69
     1
 12
202.5
 22
128.5
 13
0.0
 23
0.0
 14
0.5
 24
0.5
 15
0.0
 25
0.0
 16
0.0
 26
0.0
 36
1.0
 17
0.0
 27
0.0
 37
0.0
 42
50.0
 43
0.0
 44
0.0
 45
308.4
 50
0.0
 51
0.0
 72
   100
 90
   557152
  1

281
     0
 71
     1
 74
     0
110
0.0
120
0.0
130
0.0
111
1.0
121
0.0
131
0.0
112
0.0
122
1.0
132
0.0
 79
     0
146
0.0
170
     0
 61
     5
348
3AF
292
     1
282
     1
141
0.0
142
0.0
 63
   256
361
96F
  0
VIEWPORT
  5
96E
330
B
100
AcDbEntity
 67
     1
  8
0
100
AcDbViewport
 10
202.5
 20
128.5
 30
0.0
 40
324.0
 41
205.6
 68
     2
 69
     2
 12
-1211.81740591966
 22
-4.404083900064052
 13
0.0
 23
0.0
 14
0.5
 24
0.5
 15
0.0
 25
0.0
 16
0.0
 26
0.0
 36
1.0
 17
0.0
 27
0.0
 37
0.0
 42
50.0
 43
0.0
 44
0.0
 45
6778.483839039072
 50
0.0
 51
0.0
 72
   100
 90
   557152
  1

281
     0
 71
     1
 74
     0
110
0.0
120
0.0
130
0.0
111
1.0
121
0.0
131
0.0
112
0.0
122
1.0
132
0.0
 79
     0
146
0.0
170
     0
 61
     5
348
3AF
292
     1
282
     1
141
0.0
142
0.0
 63
   256
  0
ENDSEC
  0
SECTION
  2
OBJECTS
  0
DICTIONARY
  5
19
330
0
100
AcDbDictionary
281
     1
  3
ACAD_COLOR
350
3E3
  3
ACAD_DETAILVIEWSTYLE
350
996
  3
ACAD_GROUP
350
1A
  3
ACAD_IMAGE_VARS
350
3CB
  3
ACAD_LAYOUT
350
1E
  3
ACAD_MATERIAL
350
3C3
  3
ACAD_MLEADERSTYLE
350
3E7
  3
ACAD_MLINESTYLE
350
1B
  3
ACAD_PLOTSETTINGS
350
22
  3
ACAD_PLOTSTYLENAME
350
1F
  3
ACAD_SCALELIST
350
388
  3
ACAD_SECTIONVIEWSTYLE
350
997
  3
ACAD_TABLESTYLE
350
3C7
  3
ACAD_VISUALSTYLE
350
3AA
  3
ACDB_RECOMPOSE_DATA
350
9A6
  3
AcDbVariableDictionary
350
98E
  3
APPDATA
350
3C9
  0
SUN
  5
3CA
330
15
100
AcDbSun
 90
        1
290
     0
 63
     7
421
 16777215
 40
1.0
291
     1
 91
  2455826
 92
 54000000
292
     0
 70
     2
 71
   256
280
     1
  0
DICTIONARY
  5
99A
330
2
100
AcDbDictionary
280
     1
281
     1
  3
ACAD_LAYERSTATES
360
99B
  3
ACLYDICTIONARY
360
99F
  0
SUN
  5
96F
330
96D
100
AcDbSun
 90
        1
290
     0
 63
     7
421
 16777215
 40
1.0
291
     1
 91
  2455826
 92
 54000000
292
     0
 70
     2
 71
   256
280
     1
  0
DICTIONARY
  5
3E3
102
{ACAD_REACTORS
330
19
102
}
330
19
100
AcDbDictionary
281
     1
  0
DICTIONARY
  5
996
102
{ACAD_REACTORS
330
19
102
}
330
19
100
AcDbDictionary
281
     1
  0
DICTIONARY
  5
1A
102
{ACAD_REACTORS
330
19
102
}
330
19
100
AcDbDictionary
281
     1
  0
RASTERVARIABLES
  5
3CB
102
{ACAD_REACTORS
330
19
102
}
330
19
100
AcDbRasterVariables
 90
        0
 70
     1
 71
     1
 72
     1
  0
DICTIONARY
  5
1E
102
{ACAD_REACTORS
330
19
102
}
330
19
100
AcDbDictionary
281
     1
  3
Layout1
350
21
  3
Model
350
20
  0
DICTIONARY
  5
3C3
102
{ACAD_REACTORS
330
19
102
}
330
19
100
AcDbDictionary
281
     1
  3
ByBlock
350
3C5
  3
ByLayer
350
3C4
  3
Global
350
3C6
  0
DICTIONARY
  5
3E7
102
{ACAD_REACTORS
330
19
102
}
330
19
100
AcDbDictionary
281
     1
  0
DICTIONARY
  5
1B
102
{ACAD_REACTORS
330
19
102
}
330
19
100
AcDbDictionary
281
     1
  3
Standard
350
1C
  0
DICTIONARY
  5
22
102
{ACAD_REACTORS
330
19
102
}
330
19
100
AcDbDictionary
281
     1
  0
ACDBDICTIONARYWDFLT
  5
1F
102
{ACAD_REACTORS
330
19
102
}
330
19
100
AcDbDictionary
281
     1
  3
Normal
350
1D
100
AcDbDictionaryWithDefault
340
1D
  0
DICTIONARY
  5
388
102
{ACAD_REACTORS
330
19
102
}
330
19
100
AcDbDictionary
281
     1
  3
A0
350
389
  3
A1
350
38A
  3
A2
350
38B
  3
A3
350
38C
  3
A4
350
38D
  3
A5
350
38E
  3
A6
350
38F
  3
A7
350
390
  3
A8
350
391
  3
A9
350
392
  3
B0
350
393
  3
B1
350
394
  3
B2
350
395
  3
B3
350
396
  3
B4
350
397
  3
B5
350
398
  3
B6
350
399
  3
B7
350
39A
  3
B8
350
39B
  3
B9
350
39C
  3
C0
350
39D
  3
C1
350
39E
  3
C2
350
39F
  3
C3
350
3A0
  3
C4
350
3A1
  3
C5
350
3A2
  3
C6
350
3A3
  3
C7
350
3A4
  3
C8
350
3A5
  3
C9
350
3A6
  3
D0
350
3A7
  3
D1
350
3A8
  3
D2
350
3A9
  0
DICTIONARY
  5
997
102
{ACAD_REACTORS
330
19
102
}
330
19
100
AcDbDictionary
281
     1
  0
DICTIONARY
  5
3C7
102
{ACAD_REACTORS
330
19
102
}
330
19
100
AcDbDictionary
281
     1
  3
Standard
350
3C8
  0
DICTIONARY
  5
3AA
102
{ACAD_REACTORS
330
19
102
}
330
19
100
AcDbDictionary
281
     1
  3
2dWireframe
350
3AF
  3
Basic
350
3B2
  3
Brighten
350
3B6
  3
ColorChange
350
3BA
  3
Conceptual
350
3B4
  3
Dim
350
3B5
  3
EdgeColorOff
350
3BD
  3
Facepattern
350
3B9
  3
Flat
350
3AB
  3
FlatWithEdges
350
3AC
  3
Gouraud
350
3AD
  3
GouraudWithEdges
350
3AE
  3
Hidden
350
3B1
  3
JitterOff
350
3BB
  3
Linepattern
350
3B8
  3
OverhangOff
350
3BC
  3
Realistic
350
3B3
  3
Shaded
350
3C2
  3
Shaded with edges
350
3C1
  3
Shades of Gray
350
3BE
  3
Sketchy
350
3BF
  3
Thicken
350
3B7
  3
Wireframe
350
3B0
  3
X-Ray
350
3C0
  0
XRECORD
  5
9A6
102
{ACAD_REACTORS
330
19
102
}
330
19
100
AcDbXrecord
280
     1
 90
        1
330
3C8
  0
DICTIONARY
  5
98E
102
{ACAD_REACTORS
330
19
102
}
330
19
100
AcDbDictionary
281
     1
  3
CANNOSCALE
350
98F
  3
CTABLESTYLE
350
994
  3
LIGHTINGUNITS
350
990
  3
MSLTSCALE
350
995
  3
XCLIPFRAME
350
998
  0
DICTIONARY
  5
3C9
102
{ACAD_REACTORS
330
19
102
}
330
19
100
AcDbDictionary
281
     1
  0
DICTIONARY
  5
99B
102
{ACAD_REACTORS
330
99A
102
}
330
99A
100
AcDbDictionary
281
     1
  3
ARGON_LAYERP_1
350
99C
  3
ARGON_LAYERP_2
350
9A0
  3
ARGON_LAYERP_3
350
9A1
  3
ARGON_LAYERP_4
350
9A2
  3
ARGON_LAYERP_5
350
9A3
  0
DICTIONARY
  5
99F
102
{ACAD_REACTORS
330
99A
102
}
330
99A
100
AcDbDictionary
281
     1
1001
ACAD
1000
<All
  0
LAYOUT
  5
21
102
{ACAD_REACTORS
330
1E
102
}
330
1E
100
AcDbPlotSettings
  1

  2
none_device
  4
ISO_A3_(420.00_x_297.00_MM)
  6

 40
7.5
 41
20.0
 42
7.5
 43
20.0
 44
420.0
 45
297.0
 46
0.0
 47
0.0
 48
0.0
 49
0.0
140
0.0
141
0.0
142
1.0
143
1.0
 70
     0
 72
     1
 73
     0
 74
     0
  7

 75
     0
 76
     0
 77
     2
 78
   300
147
1.0
148
0.0
149
0.0
100
AcDbLayout
  1
Layout1
 70
     0
 71
     0
 10
0.0
 20
0.0
 11
412.5
 21
277.0
 12
0.0
 22
0.0
 32
0.0
 14
0.0
 24
0.0
 34
0.0
 15
0.0
 25
0.0
 35
0.0
146
0.0
 13
0.0
 23
0.0
 33
0.0
 16
0.0
 26
0.0
 36
0.0
 17
0.0
 27
0.0
 37
0.0
 76
     0
330
B
331
96D
  0
LAYOUT
  5
20
102
{ACAD_REACTORS
330
1E
102
}
330
1E
100
AcDbPlotSettings
  1

  2
none_device
  4
ISO_A3_(420.00_x_297.00_MM)
  6

 40
7.5
 41
20.0
 42
7.5
 43
20.0
 44
420.0
 45
297.0
 46
0.0
 47
0.0
 48
0.0
 49
0.0
140
0.0
141
0.0
142
1.0
143
1.0
 70
  1024
 72
     1
 73
     0
 74
     0
  7

 75
     0
 76
     0
 77
     2
 78
   300
147
1.0
148
1472.798402172274
149
910.6454289624112
100
AcDbLayout
  1
Model
 70
     0
 71
     1
 10
-2103.754647862727
 20
-2976.353036140506
 11
2096.245352137274
 21
2963.646963859495
 12
0.0
 22
0.0
 32
0.0
 14
-6448.114718063597
 24
-2837.758609081921
 34
0.0
 15
4024.479906224276
 25
2828.950441281793
 35
0.0
146
0.0
 13
0.0
 23
0.0
 33
0.0
 16
0.0
 26
0.0
 36
0.0
 17
0.0
 27
0.0
 37
0.0
 76
     0
330
A
331
15
  0
MATERIAL
  5
3C5
102
{ACAD_REACTORS
330
3C3
102
}
330
3C3
100
AcDbMaterial
  1
ByBlock
 72
     1
 94
      127
  0
MATERIAL
  5
3C4
102
{ACAD_REACTORS
330
3C3
102
}
330
3C3
100
AcDbMaterial
  1
ByLayer
 72
     1
 94
      127
  0
MATERIAL
  5
3C6
102
{ACAD_REACTORS
330
3C3
102
}
330
3C3
100
AcDbMaterial
  1
Global
 72
     1
 94
      127
  0
MLINESTYLE
  5
1C
102
{ACAD_REACTORS
330
1B
102
}
330
1B
100
AcDbMlineStyle
  2
Standard
 70
     0
  3

 62
     0
 51
90.0
 52
90.0
 71
     2
 49
0.5
 62
   256
  6
BYLAYER
 49
-0.5
 62
   256
  6
BYLAYER
  0
ACDBPLACEHOLDER
  5
1D
102
{ACAD_REACTORS
330
1F
102
}
330
1F
  0
SCALE
  5
389
102
{ACAD_REACTORS
330
388
102
}
330
388
100
AcDbScale
 70
     0
300
1:1
140
1.0
141
1.0
290
     1
  0
SCALE
  5
38A
102
{ACAD_REACTORS
330
388
102
}
330
388
100
AcDbScale
 70
     0
300
1:2
140
1.0
141
2.0
290
     0
  0
SCALE
  5
38B
102
{ACAD_REACTORS
330
388
102
}
330
388
100
AcDbScale
 70
     0
300
1:4
140
1.0
141
4.0
290
     0
  0
SCALE
  5
38C
102
{ACAD_REACTORS
330
388
102
}
330
388
100
AcDbScale
 70
     0
300
1:5
140
1.0
141
5.0
290
     0
  0
SCALE
  5
38D
102
{ACAD_REACTORS
330
388
102
}
330
388
100
AcDbScale
 70
     0
300
1:8
140
1.0
141
8.0
290
     0
  0
SCALE
  5
38E
102
{ACAD_REACTORS
330
388
102
}
330
388
100
AcDbScale
 70
     0
300
1:10
140
1.0
141
10.0
290
     0
  0
SCALE
  5
38F
102
{ACAD_REACTORS
330
388
102
}
330
388
100
AcDbScale
 70
     0
300
1:16
140
1.0
141
16.0
290
     0
  0
SCALE
  5
390
102
{ACAD_REACTORS
330
388
102
}
330
388
100
AcDbScale
 70
     0
300
1:20
140
1.0
141
20.0
290
     0
  0
SCALE
  5
391
102
{ACAD_REACTORS
330
388
102
}
330
388
100
AcDbScale
 70
     0
300
1:30
140
1.0
141
30.0
290
     0
  0
SCALE
  5
392
102
{ACAD_REACTORS
330
388
102
}
330
388
100
AcDbScale
 70
     0
300
1:40
140
1.0
141
40.0
290
     0
  0
SCALE
  5
393
102
{ACAD_REACTORS
330
388
102
}
330
388
100
AcDbScale
 70
     0
300
1:50
140
1.0
141
50.0
290
     0
  0
SCALE
  5
394
102
{ACAD_REACTORS
330
388
102
}
330
388
100
AcDbScale
 70
     0
300
1:100
140
1.0
141
100.0
290
     0
  0
SCALE
  5
395
102
{ACAD_REACTORS
330
388
102
}
330
388
100
AcDbScale
 70
     0
300
2:1
140
2.0
141
1.0
290
     0
  0
SCALE
  5
396
102
{ACAD_REACTORS
330
388
102
}
330
388
100
AcDbScale
 70
     0
300
4:1
140
4.0
141
1.0
290
     0
  0
SCALE
  5
397
102
{ACAD_REACTORS
330
388
102
}
330
388
100
AcDbScale
 70
     0
300
8:1
140
8.0
141
1.0
290
     0
  0
SCALE
  5
398
102
{ACAD_REACTORS
330
388
102
}
330
388
100
AcDbScale
 70
     0
300
10:1
140
10.0
141
1.0
290
     0
  0
SCALE
  5
399
102
{ACAD_REACTORS
330
388
102
}
330
388
100
AcDbScale
 70
     0
300
100:1
140
100.0
141
1.0
290
     0
  0
SCALE
  5
39A
102
{ACAD_REACTORS
330
388
102
}
330
388
100
AcDbScale
 70
     0
300
1/128" = 1'-0"
140
0.0078125
141
12.0
290
     0
  0
SCALE
  5
39B
102
{ACAD_REACTORS
330
388
102
}
330
388
100
AcDbScale
 70
     0
300
1/64" = 1'-0"
140
0.015625
141
12.0
290
     0
  0
SCALE
  5
39C
102
{ACAD_REACTORS
330
388
102
}
330
388
100
AcDbScale
 70
     0
300
1/32" = 1'-0"
140
0.03125
141
12.0
290
     0
  0
SCALE
  5
39D
102
{ACAD_REACTORS
330
388
102
}
330
388
100
AcDbScale
 70
     0
300
1/16" = 1'-0"
140
0.0625
141
12.0
290
     0
  0
SCALE
  5
39E
102
{ACAD_REACTORS
330
388
102
}
330
388
100
AcDbScale
 70
     0
300
3/32" = 1'-0"
140
0.09375
141
12.0
290
     0
  0
SCALE
  5
39F
102
{ACAD_REACTORS
330
388
102
}
330
388
100
AcDbScale
 70
     0
300
1/8" = 1'-0"
140
0.125
141
12.0
290
     0
  0
SCALE
  5
3A0
102
{ACAD_REACTORS
330
388
102
}
330
388
100
AcDbScale
 70
     0
300
3/16" = 1'-0"
140
0.1875
141
12.0
290
     0
  0
SCALE
  5
3A1
102
{ACAD_REACTORS
330
388
102
}
330
388
100
AcDbScale
 70
     0
300
1/4" = 1'-0"
140
0.25
141
12.0
290
     0
  0
SCALE
  5
3A2
102
{ACAD_REACTORS
330
388
102
}
330
388
100
AcDbScale
 70
     0
300
3/8" = 1'-0"
140
0.375
141
12.0
290
     0
  0
SCALE
  5
3A3
102
{ACAD_REACTORS
330
388
102
}
330
388
100
AcDbScale
 70
     0
300
1/2" = 1'-0"
140
0.5
141
12.0
290
     0
  0
SCALE
  5
3A4
102
{ACAD_REACTORS
330
388
102
}
330
388
100
AcDbScale
 70
     0
300
3/4" = 1'-0"
140
0.75
141
12.0
290
     0
  0
SCALE
  5
3A5
102
{ACAD_REACTORS
330
388
102
}
330
388
100
AcDbScale
 70
     0
300
1" = 1'-0"
140
1.0
141
12.0
290
     0
  0
SCALE
  5
3A6
102
{ACAD_REACTORS
330
388
102
}
330
388
100
AcDbScale
 70
     0
300
1-1/2" = 1'-0"
140
1.5
141
12.0
290
     0
  0
SCALE
  5
3A7
102
{ACAD_REACTORS
330
388
102
}
330
388
100
AcDbScale
 70
     0
300
3" = 1'-0"
140
3.0
141
12.0
290
     0
  0
SCALE
  5
3A8
102
{ACAD_REACTORS
330
388
102
}
330
388
100
AcDbScale
 70
     0
300
6" = 1'-0"
140
6.0
141
12.0
290
     0
  0
SCALE
  5
3A9
102
{ACAD_REACTORS
330
388
102
}
330
388
100
AcDbScale
 70
     0
300
1'-0" = 1'-0"
140
12.0
141
12.0
290
     0
  0
TABLESTYLE
  5
3C8
102
{ACAD_REACTORS
330
3C7
102
}
102
{ACAD_XDICTIONARY
360
9A4
102
}
330
3C7
100
AcDbTableStyle
  3
Standard
 70
     0
 71
     0
 40
1.5
 41
1.5
280
     0
281
     0
  7
Standard
140
4.5
170
     2
 62
     0
 63
   257
283
     0
 90
        4
 91
        0
  1

274
    -2
284
     1
 64
     0
275
    -2
285
     1
 65
     0
276
    -2
286
     1
 66
     0
277
    -2
287
     1
 67
     0
278
    -2
288
     1
 68
     0
279
    -2
289
     1
 69
     0
  7
Standard
140
6.0
170
     5
 62
     0
 63
   257
283
     0
 90
        4
 91
        0
  1

274
    -2
284
     1
 64
     0
275
    -2
285
     1
 65
     0
276
    -2
286
     1
 66
     0
277
    -2
287
     1
 67
     0
278
    -2
288
     1
 68
     0
279
    -2
289
     1
 69
     0
  7
Standard
140
4.5
170
     5
 62
     0
 63
   257
283
     0
 90
        4
 91
        0
  1

274
    -2
284
     1
 64
     0
275
    -2
285
     1
 65
     0
276
    -2
286
     1
 66
     0
277
    -2
287
     1
 67
     0
278
    -2
288
     1
 68
     0
279
    -2
289
     1
 69
     0
  0
VISUALSTYLE
  5
3AF
102
{ACAD_REACTORS
330
3AA
102
}
330
3AA
100
AcDbVisualStyle
  2
2dWireframe
 70
     4
 71
     0
 72
     2
 73
     0
 90
        0
 40
0.6
 41
30.0
 62
     5
 63
     7
421
 16777215
 74
     1
 91
        4
 64
     7
 65
   257
 75
     1
175
     1
 42
1.0
 92
        0
 66
   257
 43
1.0
 76
     1
 77
     6
 78
     2
 67
     7
 79
     5
170
     0
171
     0
290
     0
174
     0
 93
        1
 44
0.0
173
     0
291
     0
 45
0.0
  0
VISUALSTYLE
  5
3B2
102
{ACAD_REACTORS
330
3AA
102
}
330
3AA
100
AcDbVisualStyle
  2
Basic
 70
     7
 71
     1
 72
     0
 73
     1
 90
        0
 40
0.6
 41
30.0
 62
     5
 63
     7
421
 16777215
 74
     0
 91
        4
 64
     7
 65
   257
 75
     1
175
     1
 42
1.0
 92
        8
 66
     7
 43
1.0
 76
     1
 77
     6
 78
     2
 67
     7
 79
     5
170
     0
171
     0
290
     0
174
     0
 93
        1
 44
0.0
173
     0
291
     1
 45
0.0
  0
VISUALSTYLE
  5
3B6
102
{ACAD_REACTORS
330
3AA
102
}
330
3AA
100
AcDbVisualStyle
  2
Brighten
 70
    12
 71
     2
 72
     2
 73
     0
 90
        0
 40
0.6
 41
30.0
 62
     5
 63
     7
421
 16777215
 74
     1
 91
        4
 64
     7
 65
   257
 75
     1
175
     1
 42
1.0
 92
        8
 66
     7
 43
1.0
 76
     1
 77
     6
 78
     2
 67
     7
 79
     5
170
     0
171
     0
290
     0
174
     0
 93
        1
 44
50.0
173
     0
291
     1
 45
0.0
  0
VISUALSTYLE
  5
3BA
102
{ACAD_REACTORS
330
3AA
102
}
330
3AA
100
AcDbVisualStyle
  2
ColorChange
 70
    16
 71
     2
 72
     2
 73
     3
 90
        0
 40
0.6
 41
30.0
 62
     5
 63
     8
421
  8421504
 74
     1
 91
        4
 64
     7
 65
   257
 75
     1
175
     1
 42
1.0
 92
        8
 66
     8
424
  8421504
 43
1.0
 76
     1
 77
     6
 78
     2
 67
     7
 79
     5
170
     0
171
     0
290
     0
174
     0
 93
        1
 44
0.0
173
     0
291
     1
 45
0.0
  0
VISUALSTYLE
  5
3B4
102
{ACAD_REACTORS
330
3AA
102
}
330
3AA
100
AcDbVisualStyle
  2
Conceptual
 70
     9
 71
     3
 72
     2
 73
     0
 90
        0
 40
0.6
 41
30.0
 62
     5
 63
     7
421
 16777215
 74
     2
 91
        2
 64
     7
 65
   257
 75
     1
175
     1
 42
179.0
 92
        8
 66
     7
 43
1.0
 76
     1
 77
     6
 78
     2
 67
     7
 79
     3
170
     0
171
     0
290
     0
174
     0
 93
        1
 44
0.0
173
     0
291
     0
 45
0.0
  0
VISUALSTYLE
  5
3B5
102
{ACAD_REACTORS
330
3AA
102
}
330
3AA
100
AcDbVisualStyle
  2
Dim
 70
    11
 71
     2
 72
     2
 73
     0
 90
        0
 40
0.6
 41
30.0
 62
     5
 63
     7
421
 16777215
 74
     1
 91
        4
 64
     7
 65
   257
 75
     1
175
     1
 42
1.0
 92
        8
 66
     7
 43
1.0
 76
     1
 77
     6
 78
     2
 67
     7
 79
     5
170
     0
171
     0
290
     0
174
     0
 93
        1
 44
-50.0
173
     0
291
     1
 45
0.0
  0
VISUALSTYLE
  5
3BD
102
{ACAD_REACTORS
330
3AA
102
}
330
3AA
100
AcDbVisualStyle
  2
EdgeColorOff
 70
    22
 71
     2
 72
     2
 73
     0
 90
        0
 40
0.6
 41
30.0
 62
     5
 63
     7
421
 16777215
 74
     1
 91
        4
 64
     7
 65
   257
 75
     1
175
     1
 42
1.0
 92
        8
 66
     7
 43
1.0
 76
     1
 77
     6
 78
     2
 67
     7
 79
     5
170
     0
171
     0
290
     0
174
     0
 93
        1
 44
0.0
173
     0
291
     1
 45
0.0
  0
VISUALSTYLE
  5
3B9
102
{ACAD_REACTORS
330
3AA
102
}
330
3AA
100
AcDbVisualStyle
  2
Facepattern
 70
    15
 71
     2
 72
     2
 73
     0
 90
        0
 40
0.6
 41
30.0
 62
     5
 63
     7
421
 16777215
 74
     1
 91
        4
 64
     7
 65
   257
 75
     1
175
     1
 42
1.0
 92
        8
 66
     7
 43
1.0
 76
     1
 77
     6
 78
     2
 67
     7
 79
     5
170
     0
171
     0
290
     0
174
     0
 93
        1
 44
0.0
173
     0
291
     1
 45
0.0
  0
VISUALSTYLE
  5
3AB
102
{ACAD_REACTORS
330
3AA
102
}
330
3AA
100
AcDbVisualStyle
  2
Flat
 70
     0
 71
     2
 72
     1
 73
     1
 90
        2
 40
0.6
 41
30.0
 62
     5
 63
     7
421
 16777215
 74
     0
 91
        0
 64
     7
 65
   257
 75
     1
175
     1
 42
1.0
 92
        8
 66
     7
 43
1.0
 76
     1
 77
     6
 78
     2
 67
     7
 79
     5
170
     0
171
     0
290
     0
174
     0
 93
       13
 44
0.0
173
     0
291
     1
 45
0.0
  0
VISUALSTYLE
  5
3AC
102
{ACAD_REACTORS
330
3AA
102
}
330
3AA
100
AcDbVisualStyle
  2
FlatWithEdges
 70
     1
 71
     2
 72
     1
 73
     1
 90
        2
 40
0.6
 41
30.0
 62
     5
 63
     7
421
 16777215
 74
     1
 91
        0
 64
     7
 65
   257
 75
     1
175
     1
 42
1.0
 92
        0
 66
   257
 43
1.0
 76
     1
 77
     6
 78
     2
 67
     7
 79
     5
170
     0
171
     0
290
     0
174
     0
 93
       13
 44
0.0
173
     0
291
     1
 45
0.0
  0
VISUALSTYLE
  5
3AD
102
{ACAD_REACTORS
330
3AA
102
}
330
3AA
100
AcDbVisualStyle
  2
Gouraud
 70
     2
 71
     2
 72
     2
 73
     1
 90
        2
 40
0.6
 41
30.0
 62
     5
 63
     7
421
 16777215
 74
     0
 91
        0
 64
     7
 65
   257
 75
     1
175
     1
 42
1.0
 92
        0
 66
     7
 43
1.0
 76
     1
 77
     6
 78
     2
 67
     7
 79
     5
170
     0
171
     0
290
     0
174
     0
 93
       13
 44
0.0
173
     0
291
     1
 45
0.0
  0
VISUALSTYLE
  5
3AE
102
{ACAD_REACTORS
330
3AA
102
}
330
3AA
100
AcDbVisualStyle
  2
GouraudWithEdges
 70
     3
 71
     2
 72
     2
 73
     1
 90
        2
 40
0.6
 41
30.0
 62
     5
 63
     7
421
 16777215
 74
     1
 91
        0
 64
     7
 65
   257
 75
     1
175
     1
 42
1.0
 92
        0
 66
   257
 43
1.0
 76
     1
 77
     6
 78
     2
 67
     7
 79
     5
170
     0
171
     0
290
     0
174
     0
 93
       13
 44
0.0
173
     0
291
     1
 45
0.0
  0
VISUALSTYLE
  5
3B1
102
{ACAD_REACTORS
330
3AA
102
}
330
3AA
100
AcDbVisualStyle
  2
Hidden
 70
     6
 71
     1
 72
     2
 73
     2
 90
        0
 40
0.6
 41
30.0
 62
     5
 63
     7
421
 16777215
 74
     2
 91
        2
 64
     7
 65
   257
 75
     2
175
     1
 42
40.0
 92
        0
 66
   257
 43
1.0
 76
     1
 77
     6
 78
     2
 67
     7
 79
     3
170
     0
171
     0
290
     0
174
     0
 93
        1
 44
0.0
173
     0
291
     0
 45
0.0
  0
VISUALSTYLE
  5
3BB
102
{ACAD_REACTORS
330
3AA
102
}
330
3AA
100
AcDbVisualStyle
  2
JitterOff
 70
    20
 71
     2
 72
     2
 73
     0
 90
        0
 40
0.6
 41
30.0
 62
     5
 63
     7
421
 16777215
 74
     1
 91
        4
 64
     7
 65
   257
 75
     1
175
     1
 42
1.0
 92
       10
 66
     7
 43
1.0
 76
     1
 77
     6
 78
     2
 67
     7
 79
     5
170
     0
171
     0
290
     0
174
     0
 93
        1
 44
0.0
173
     0
291
     1
 45
0.0
  0
VISUALSTYLE
  5
3B8
102
{ACAD_REACTORS
330
3AA
102
}
330
3AA
100
AcDbVisualStyle
  2
Linepattern
 70
    14
 71
     2
 72
     2
 73
     0
 90
        0
 40
0.6
 41
30.0
 62
     5
 63
     7
421
 16777215
 74
     1
 91
        4
 64
     7
 65
   257
 75
     7
175
     7
 42
1.0
 92
        8
 66
     7
 43
1.0
 76
     1
 77
     6
 78
     2
 67
     7
 79
     5
170
     0
171
     0
290
     0
174
     0
 93
        1
 44
0.0
173
     0
291
     1
 45
0.0
  0
VISUALSTYLE
  5
3BC
102
{ACAD_REACTORS
330
3AA
102
}
330
3AA
100
AcDbVisualStyle
  2
OverhangOff
 70
    21
 71
     2
 72
     2
 73
     0
 90
        0
 40
0.6
 41
30.0
 62
     5
 63
     7
421
 16777215
 74
     1
 91
        4
 64
     7
 65
   257
 75
     1
175
     1
 42
1.0
 92
        9
 66
     7
 43
1.0
 76
     1
 77
     6
 78
     2
 67
     7
 79
     5
170
     0
171
     0
290
     0
174
     0
 93
        1
 44
0.0
173
     0
291
     1
 45
0.0
  0
VISUALSTYLE
  5
3B3
102
{ACAD_REACTORS
330
3AA
102
}
330
3AA
100
AcDbVisualStyle
  2
Realistic
 70
     8
 71
     2
 72
     3
 73
     0
 90
        2
 40
0.6
 41
30.0
 62
     5
 63
     7
421
 16777215
 74
     0
 91
        0
 64
     7
 65
   257
 75
     1
175
     1
 42
1.0
 92
        8
 66
   257
 43
1.0
 76
     1
 77
     6
 78
     2
 67
     7
 79
     3
170
     0
171
     0
290
     0
174
     0
 93
       13
 44
0.0
173
     0
291
     0
 45
0.0
  0
VISUALSTYLE
  5
3C2
102
{ACAD_REACTORS
330
3AA
102
}
330
3AA
100
AcDbVisualStyle
  2
Shaded
 70
    27
 71
     2
 72
     2
 73
     1
 90
        2
 40
0.6
 41
30.0
 62
     5
 63
     7
421
 16777215
 74
     0
 91
        4
 64
     7
 65
   257
 75
     1
175
     1
 42
1.0
 92
        8
 66
   257
 43
1.0
 76
     1
 77
     6
 78
     2
 67
     8
425
  7895160
 79
     3
170
     0
171
     0
290
     0
174
     0
 93
        5
 44
0.0
173
     0
291
     0
 45
0.0
  0
VISUALSTYLE
  5
3C1
102
{ACAD_REACTORS
330
3AA
102
}
330
3AA
100
AcDbVisualStyle
  2
Shaded with edges
 70
    26
 71
     2
 72
     2
 73
     1
 90
        2
 40
0.6
 41
30.0
 62
     5
 63
     7
421
 16777215
 74
     1
 91
       10
 64
     7
 65
   257
 75
     2
175
     1
 42
1.0
 92
        8
 66
   257
 43
1.0
 76
     1
 77
     6
 78
     2
 67
     7
 79
     3
170
     0
171
     0
290
     0
174
     0
 93
        5
 44
0.0
173
     0
291
     0
 45
0.0
  0
VISUALSTYLE
  5
3BE
102
{ACAD_REACTORS
330
3AA
102
}
330
3AA
100
AcDbVisualStyle
  2
Shades of Gray
 70
    23
 71
     2
 72
     2
 73
     3
 90
        0
 40
0.6
 41
30.0
 62
     5
 63
     7
421
 16777215
 74
     2
 91
        2
 64
     7
 65
     7
 75
     1
175
     1
 42
40.0
 92
        8
 66
     7
 43
1.0
 76
     1
 77
     6
 78
     2
 67
     7
 79
     3
170
     0
171
     0
290
     0
174
     0
 93
        1
 44
0.0
173
     0
291
     0
 45
0.0
  0
VISUALSTYLE
  5
3BF
102
{ACAD_REACTORS
330
3AA
102
}
330
3AA
100
AcDbVisualStyle
  2
Sketchy
 70
    24
 71
     1
 72
     2
 73
     2
 90
        0
 40
0.6
 41
30.0
 62
     5
 63
     7
421
 16777215
 74
     2
 91
        2
 64
     7
 65
     7
 75
     1
175
     1
 42
40.0
 92
       11
 66
     7
 43
1.0
 76
     1
 77
     6
 78
     2
 67
     7
 79
     6
170
     0
171
     0
290
     0
174
     0
 93
        1
 44
0.0
173
     0
291
     0
 45
0.0
  0
VISUALSTYLE
  5
3B7
102
{ACAD_REACTORS
330
3AA
102
}
330
3AA
100
AcDbVisualStyle
  2
Thicken
 70
    13
 71
     2
 72
     2
 73
     0
 90
        0
 40
0.6
 41
30.0
 62
     5
 63
     7
421
 16777215
 74
     1
 91
        4
 64
     7
 65
   257
 75
     1
175
     1
 42
1.0
 92
       12
 66
     7
 43
1.0
 76
     1
 77
     6
 78
     2
 67
     7
 79
     5
170
     0
171
     0
290
     0
174
     0
 93
        1
 44
0.0
173
     0
291
     1
 45
0.0
  0
VISUALSTYLE
  5
3B0
102
{ACAD_REACTORS
330
3AA
102
}
330
3AA
100
AcDbVisualStyle
  2
Wireframe
 70
     5
 71
     0
 72
     2
 73
     0
 90
        0
 40
0.6
 41
30.0
 62
     5
 63
     7
421
 16777215
 74
     1
 91
        4
 64
     7
 65
   257
 75
     1
175
     1
 42
1.0
 92
        0
 66
   257
 43
1.0
 76
     1
 77
     6
 78
     2
 67
     7
 79
     3
170
     0
171
     0
290
     0
174
     0
 93
        1
 44
0.0
173
     0
291
     0
 45
0.0
  0
VISUALSTYLE
  5
3C0
102
{ACAD_REACTORS
330
3AA
102
}
330
3AA
100
AcDbVisualStyle
  2
X-Ray
 70
    25
 71
     2
 72
     2
 73
     1
 90
        1
 40
0.5
 41
30.0
 62
     5
 63
     7
421
 16777215
 74
     1
 91
        0
 64
     7
 65
   257
 75
     1
175
     1
 42
1.0
 92
        8
 66
     7
 43
1.0
 76
     1
 77
     6
 78
     2
 67
     7
 79
     3
170
     0
171
     0
290
     0
174
     0
 93
       13
 44
0.0
173
     0
291
     0
 45
0.0
  0
DICTIONARYVAR
  5
98F
102
{ACAD_REACTORS
330
98E
102
}
330
98E
100
DictionaryVariables
280
     0
  1
1:1
  0
DICTIONARYVAR
  5
994
102
{ACAD_REACTORS
330
98E
102
}
330
98E
100
DictionaryVariables
280
     0
  1
Standard
  0
DICTIONARYVAR
  5
990
102
{ACAD_REACTORS
330
98E
102
}
330
98E
100
DictionaryVariables
280
     0
  1
0
  0
DICTIONARYVAR
  5
995
102
{ACAD_REACTORS
330
98E
102
}
330
98E
100
DictionaryVariables
280
     0
  1
0
  0
DICTIONARYVAR
  5
998
102
{ACAD_REACTORS
330
98E
102
}
330
98E
100
DictionaryVariables
280
     0
  1
0
  0
XRECORD
  5
99C
102
{ACAD_REACTORS
330
99B
102
}
330
99B
100
AcDbXrecord
280
     1
 91
     1023
301

290
     0
302
FLN72-5555
330
14
 90
        8
 62
     7
370
    -3
331
13
  1
Color_7
330
63
 90
        0
 62
     7
370
    -3
331
13
  1
Color_7
330
64
 90
        8
 62
     7
370
    -3
331
13
  1
Color_7
330
65
 90
        8
 62
     7
370
    -3
331
13
  1
Color_7
330
66
 90
        8
 62
     7
370
    -3
331
13
  1
Color_7
330
67
 90
        8
 62
     7
370
    -3
331
13
  1
Color_7
330
3CF
 90
        8
 62
     7
370
    -3
331
13
  1
Color_7
  0
XRECORD
  5
9A0
102
{ACAD_REACTORS
330
99B
102
}
330
99B
100
AcDbXrecord
280
     1
 91
     1023
301

290
     0
302
FLN72-5555
330
14
 90
        8
 62
     7
370
    -3
331
13
  1
Color_7
330
63
 90
        0
 62
     7
370
    -3
331
13
  1
Color_7
330
64
 90
        8
 62
     7
370
    -3
331
13
  1
Color_7
330
65
 90
        8
 62
     7
370
    -3
331
13
  1
Color_7
330
66
 90
        8
 62
     7
370
    -3
331
13
  1
Color_7
330
67
 90
        8
 62
     7
370
    -3
331
13
  1
Color_7
330
3CF
 90
        8
 62
     7
370
    -3
331
13
  1
Color_7
330
99D
 90
        8
 62
     7
370
    -3
331
13
  1
Color_7
  0
XRECORD
  5
9A1
102
{ACAD_REACTORS
330
99B
102
}
330
99B
100
AcDbXrecord
280
     1
 91
     1023
301

290
     0
302
FLN72-5555
330
14
 90
        8
 62
     7
370
    -3
331
13
  1
Color_7
330
63
 90
        0
 62
     7
370
    -3
331
13
  1
Color_7
330
64
 90
        8
 62
     7
370
    -3
331
13
  1
Color_7
330
65
 90
        8
 62
     7
370
    -3
331
13
  1
Color_7
330
66
 90
        8
 62
     7
370
    -3
331
13
  1
Color_7
330
67
 90
        8
 62
     7
370
    -3
331
13
  1
Color_7
330
3CF
 90
        8
 62
     7
370
    -3
331
13
  1
Color_7
330
99D
 90
        9
 62
     7
370
    -3
331
13
  1
Color_7
  0
XRECORD
  5
9A2
102
{ACAD_REACTORS
330
99B
102
}
330
99B
100
AcDbXrecord
280
     1
 91
     1023
301

290
     0
302
template
330
14
 90
        8
 62
     7
370
    -3
331
13
  1
Color_7
330
63
 90
        0
 62
     7
370
    -3
331
13
  1
Color_7
330
64
 90
        8
 62
     7
370
    -3
331
13
  1
Color_7
330
65
 90
        8
 62
     7
370
    -3
331
13
  1
Color_7
330
66
 90
        8
 62
     7
370
    -3
331
13
  1
Color_7
330
67
 90
        8
 62
     7
370
    -3
331
13
  1
Color_7
330
3CF
 90
        8
 62
     7
370
    -3
331
13
  1
Color_7
330
99D
 90
        9
 62
     7
370
    -3
331
13
  1
Color_7
  0
XRECORD
  5
9A3
102
{ACAD_REACTORS
330
99B
102
}
330
99B
100
AcDbXrecord
280
     1
 91
     1023
301

290
     0
302
template
330
14
 90
        8
 62
     7
370
    -3
331
13
  1
Color_7
330
63
 90
        0
 62
     7
370
    -3
331
13
  1
Color_7
330
64
 90
        8
 62
     7
370
    -3
331
13
  1
Color_7
330
65
 90
        8
 62
     7
370
    -3
331
13
  1
Color_7
330
66
 90
        8
 62
     7
370
    -3
331
13
  1
Color_7
330
67
 90
        8
 62
     7
370
    -3
331
13
  1
Color_7
330
3CF
 90
        8
 62
     7
370
    -3
331
13
  1
Color_7
330
99D
 90
        8
 62
     7
370
    -3
331
13
  1
Color_7
  0
DICTIONARY
  5
9A4
330
3C8
100
AcDbDictionary
280
     1
281
     1
  3
ACAD_ROUNDTRIP_2008_TABLESTYLE_CELLSTYLEMAP
360
9A5
  0
CELLSTYLEMAP
  5
9A5
102
{ACAD_REACTORS
330
9A4
102
}
330
9A4
100
AcDbCellStyleMap
 90
        3
300
CELLSTYLE
  1
TABLEFORMAT_BEGIN
 90
        5
170
     1
 91
        0
 92
        0
 62
   257
 93
        1
300
CONTENTFORMAT
  1
CONTENTFORMAT_BEGIN
 90
        0
 91
        0
 92
        4
 93
        0
300

 40
0.0
140
1.0
 94
        5
 62
     0
340
17
144
6.0
309
CONTENTFORMAT_END
171
     1
301
MARGIN
  1
CELLMARGIN_BEGIN
 40
1.5
 40
1.5
 40
1.5
 40
1.5
 40
1.5
 40
1.5
309
CELLMARGIN_END
 94
        6
 95
        1
302
GRIDFORMAT
  1
GRIDFORMAT_BEGIN
 90
        0
 91
        1
 62
     0
 92
       -2
340
11
 93
        0
 40
0.045
309
GRIDFORMAT_END
 95
        2
302
GRIDFORMAT
  1
GRIDFORMAT_BEGIN
 90
        0
 91
        1
 62
     0
 92
       -2
340
11
 93
        0
 40
0.045
309
GRIDFORMAT_END
 95
        4
302
GRIDFORMAT
  1
GRIDFORMAT_BEGIN
 90
        0
 91
        1
 62
     0
 92
       -2
340
11
 93
        0
 40
0.045
309
GRIDFORMAT_END
 95
        8
302
GRIDFORMAT
  1
GRIDFORMAT_BEGIN
 90
        0
 91
        1
 62
     0
 92
       -2
340
11
 93
        0
 40
0.045
309
GRIDFORMAT_END
 95
       16
302
GRIDFORMAT
  1
GRIDFORMAT_BEGIN
 90
        0
 91
        1
 62
     0
 92
       -2
340
11
 93
        0
 40
0.045
309
GRIDFORMAT_END
 95
       32
302
GRIDFORMAT
  1
GRIDFORMAT_BEGIN
 90
        0
 91
        1
 62
     0
 92
       -2
340
11
 93
        0
 40
0.045
309
GRIDFORMAT_END
309
TABLEFORMAT_END
  1
CELLSTYLE_BEGIN
 90
        1
 91
        1
300
_TITLE
309
CELLSTYLE_END
300
CELLSTYLE
  1
TABLEFORMAT_BEGIN
 90
        5
170
     1
 91
        0
 92
        0
 62
   257
 93
        1
300
CONTENTFORMAT
  1
CONTENTFORMAT_BEGIN
 90
        0
 91
        0
 92
        4
 93
        0
300

 40
0.0
140
1.0
 94
        5
 62
     0
340
17
144
4.5
309
CONTENTFORMAT_END
171
     1
301
MARGIN
  1
CELLMARGIN_BEGIN
 40
1.5
 40
1.5
 40
1.5
 40
1.5
 40
1.5
 40
1.5
309
CELLMARGIN_END
 94
        6
 95
        1
302
GRIDFORMAT
  1
GRIDFORMAT_BEGIN
 90
        0
 91
        1
 62
     0
 92
       -2
340
11
 93
        0
 40
0.045
309
GRIDFORMAT_END
 95
        2
302
GRIDFORMAT
  1
GRIDFORMAT_BEGIN
 90
        0
 91
        1
 62
     0
 92
       -2
340
11
 93
        0
 40
0.045
309
GRIDFORMAT_END
 95
        4
302
GRIDFORMAT
  1
GRIDFORMAT_BEGIN
 90
        0
 91
        1
 62
     0
 92
       -2
340
11
 93
        0
 40
0.045
309
GRIDFORMAT_END
 95
        8
302
GRIDFORMAT
  1
GRIDFORMAT_BEGIN
 90
        0
 91
        1
 62
     0
 92
       -2
340
11
 93
        0
 40
0.045
309
GRIDFORMAT_END
 95
       16
302
GRIDFORMAT
  1
GRIDFORMAT_BEGIN
 90
        0
 91
        1
 62
     0
 92
       -2
340
11
 93
        0
 40
0.045
309
GRIDFORMAT_END
 95
       32
302
GRIDFORMAT
  1
GRIDFORMAT_BEGIN
 90
        0
 91
        1
 62
     0
 92
       -2
340
11
 93
        0
 40
0.045
309
GRIDFORMAT_END
309
TABLEFORMAT_END
  1
CELLSTYLE_BEGIN
 90
        2
 91
        1
300
_HEADER
309
CELLSTYLE_END
300
CELLSTYLE
  1
TABLEFORMAT_BEGIN
 90
        5
170
     1
 91
        0
 92
        0
 62
   257
 93
        1
300
CONTENTFORMAT
  1
CONTENTFORMAT_BEGIN
 90
        0
 91
        0
 92
        4
 93
        0
300

 40
0.0
140
1.0
 94
        2
 62
     0
340
17
144
4.5
309
CONTENTFORMAT_END
171
     1
301
MARGIN
  1
CELLMARGIN_BEGIN
 40
1.5
 40
1.5
 40
1.5
 40
1.5
 40
1.5
 40
1.5
309
CELLMARGIN_END
 94
        6
 95
        1
302
GRIDFORMAT
  1
GRIDFORMAT_BEGIN
 90
        0
 91
        1
 62
     0
 92
       -2
340
11
 93
        0
 40
0.045
309
GRIDFORMAT_END
 95
        2
302
GRIDFORMAT
  1
GRIDFORMAT_BEGIN
 90
        0
 91
        1
 62
     0
 92
       -2
340
11
 93
        0
 40
0.045
309
GRIDFORMAT_END
 95
        4
302
GRIDFORMAT
  1
GRIDFORMAT_BEGIN
 90
        0
 91
        1
 62
     0
 92
       -2
340
11
 93
        0
 40
0.045
309
GRIDFORMAT_END
 95
        8
302
GRIDFORMAT
  1
GRIDFORMAT_BEGIN
 90
        0
 91
        1
 62
     0
 92
       -2
340
11
 93
        0
 40
0.045
309
GRIDFORMAT_END
 95
       16
302
GRIDFORMAT
  1
GRIDFORMAT_BEGIN
 90
        0
 91
        1
 62
     0
 92
       -2
340
11
 93
        0
 40
0.045
309
GRIDFORMAT_END
 95
       32
302
GRIDFORMAT
  1
GRIDFORMAT_BEGIN
 90
        0
 91
        1
 62
     0
 92
       -2
340
11
 93
        0
 40
0.045
309
GRIDFORMAT_END
309
TABLEFORMAT_END
  1
CELLSTYLE_BEGIN
 90
        3
 91
        2
300
_DATA
309
CELLSTYLE_END
  0
ENDSEC
  0
EOF
