  0
SECTION
  2
HEADER
  9
$ACADVER
  1
AC1015
  9
$ACADMAINTVER
 70
               6
  9
$DWGCODEPAGE
  3
ANSI_932
  9
$INSBASE
 10
0.0
 20
0.0
 30
0.0
  9
$EXTMIN
 10
-975.00000000024124
 20
-1431.5255224711127
 30
-14.834305555555554
  9
$EXTMAX
 10
975.00000000024124
 20
1405.9972926412995
 30
14.834305555555554
  9
$LIMMIN
 10
0.0
 20
0.0
  9
$LIMMAX
 10
0.0
 20
0.0
  9
$ORTHOMODE
 70
               0
  9
$REGENMODE
 70
               1
  9
$FILLMODE
 70
               1
  9
$QTEXTMODE
 70
               0
  9
$MIRRTEXT
 70
               1
  9
$LTSCALE
 40
25.399999999999999
  9
$ATTMODE
 70
               1
  9
$TEXTSIZE
 40
0.2
  9
$TRACEWID
 40
1.0
  9
$TEXTSTYLE
  7
Standard
  9
$CLAYER
  8
GAR70-0101
  9
$CELTYPE
  6
Continuous
  9
$CECOLOR
 62
             256
  9
$CELTSCALE
 40
1.0
  9
$DISPSILH
 70
               0
  9
$DIMSCALE
 40
1.0
  9
$DIMASZ
 40
3.999755859375
  9
$DIMEXO
 40
24.999999999999996
  9
$DIMDLI
 40
0.9999999999999999
  9
$DIMRND
 40
0.0
  9
$DIMDLE
 40
0.0
  9
$DIMEXE
 40
0.0
  9
$DIMTP
 40
0.0
  9
$DIMTM
 40
0.0
  9
$DIMTXT
 40
24.432617187500004
  9
$DIMCEN
 40
0.0
  9
$DIMTSZ
 40
0.0
  9
$DIMTOL
 70
               0
  9
$DIMLIM
 70
               0
  9
$DIMTIH
 70
               0
  9
$DIMTOH
 70
               0
  9
$DIMSE1
 70
               0
  9
$DIMSE2
 70
               0
  9
$DIMTAD
 70
               1
  9
$DIMZIN
 70
              11
  9
$DIMBLK
  1
_DOT
  9
$DIMASO
 70
               1
  9
$DIMSHO
 70
               1
  9
$DIMPOST
  1
<>
  9
$DIMAPOST
  1
[]
  9
$DIMALT
 70
               0
  9
$DIMALTD
 70
               1
  9
$DIMALTF
 40
1.0
  9
$DIMLFAC
 40
1.0
  9
$DIMTOFL
 70
               0
  9
$DIMTVP
 40
0.0
  9
$DIMTIX
 70
               1
  9
$DIMSOXD
 70
               0
  9
$DIMSAH
 70
               0
  9
$DIMBLK1
  1

  9
$DIMBLK2
  1

  9
$DIMSTYLE
  2
tfrom線あり
  9
$DIMCLRD
 70
               0
  9
$DIMCLRE
 70
               0
  9
$DIMCLRT
 70
               0
  9
$DIMTFAC
 40
1.0
  9
$DIMGAP
 40
0.4999999999999999
  9
$DIMJUST
 70
               0
  9
$DIMSD1
 70
               0
  9
$DIMSD2
 70
               0
  9
$DIMTOLJ
 70
               1
  9
$DIMTZIN
 70
              11
  9
$DIMALTZ
 70
              11
  9
$DIMALTTZ
 70
              11
  9
$DIMUPT
 70
               0
  9
$DIMDEC
 70
               1
  9
$DIMTDEC
 70
               1
  9
$DIMALTU
 70
               2
  9
$DIMALTTD
 70
               2
  9
$DIMTXSTY
  7
ＭＳ ゴシック
  9
$DIMAUNIT
 70
               0
  9
$DIMADEC
 70
               2
  9
$DIMALTRND
 40
0.0
  9
$DIMAZIN
 70
               0
  9
$DIMDSEP
 70
              46
  9
$DIMATFIT
 70
               0
  9
$DIMFRAC
 70
               2
  9
$DIMLDRBLK
  1

  9
$DIMLUNIT
 70
               2
  9
$DIMLWD
 70
              -2
  9
$DIMLWE
 70
              -2
  9
$DIMTMOVE
 70
               0
  9
$LUNITS
 70
               2
  9
$LUPREC
 70
               4
  9
$SKETCHINC
 40
0.1
  9
$FILLETRAD
 40
0.0
  9
$AUNITS
 70
               0
  9
$AUPREC
 70
               0
  9
$MENU
  1
acad
  9
$ELEVATION
 40
0.0
  9
$PELEVATION
 40
0.0
  9
$THICKNESS
 40
0.0
  9
$LIMCHECK
 70
               0
  9
$CHAMFERA
 40
0.0
  9
$CHAMFERB
 40
0.0
  9
$CHAMFERC
 40
0.0
  9
$CHAMFERD
 40
0.0
  9
$SKPOLY
 70
               0
  9
$TDCREATE
 40
2455982.563368056
  9
$TDUCREATE
 40
0.000000000
  9
$TDUPDATE
 40
2455982.563368056
  9
$TDUUPDATE
 40
0.000000000
  9
$TDINDWG
 40
0.0000000000
  9
$TDUSRTIMER
 40
0.0000000000
  9
$USRTIMER
 70
               1
  9
$ANGBASE
 50
0.0
  9
$ANGDIR
 70
               0
  9
$PDMODE
 70
               1
  9
$PDSIZE
 40
-2.0
  9
$PLINEWID
 40
0.0
  9
$SPLFRAME
 70
               0
  9
$SPLINETYPE
 70
               6
  9
$SPLINESEGS
 70
               8
  9
$HANDSEED
  5
23F
  9
$SURFTAB1
 70
               6
  9
$SURFTAB2
 70
               6
  9
$SURFTYPE
 70
               6
  9
$SURFU
 70
               6
  9
$SURFV
 70
               6
  9
$UCSBASE
  2

  9
$UCSNAME
  2

  9
$UCSORG
 10
0.0
 20
0.0
 30
0.0
  9
$UCSXDIR
 10
1.0
 20
0.0
 30
0.0
  9
$UCSYDIR
 10
0.0
 20
1.0
 30
0.0
  9
$UCSORTHOREF
  2

  9
$UCSORTHOVIEW
 70
               0
  9
$UCSORGTOP
 10
0.0
 20
0.0
 30
0.0
  9
$UCSORGBOTTOM
 10
0.0
 20
0.0
 30
0.0
  9
$UCSORGLEFT
 10
0.0
 20
0.0
 30
0.0
  9
$UCSORGRIGHT
 10
0.0
 20
0.0
 30
0.0
  9
$UCSORGFRONT
 10
0.0
 20
0.0
 30
0.0
  9
$UCSORGBACK
 10
0.0
 20
0.0
 30
0.0
  9
$PUCSBASE
  2

  9
$PUCSNAME
  2

  9
$PUCSORG
 10
0.0
 20
0.0
 30
0.0
  9
$PUCSXDIR
 10
1.0
 20
0.0
 30
0.0
  9
$PUCSYDIR
 10
0.0
 20
1.0
 30
0.0
  9
$PUCSORTHOREF
  2

  9
$PUCSORTHOVIEW
 70
               0
  9
$PUCSORGTOP
 10
0.0
 20
0.0
 30
0.0
  9
$PUCSORGBOTTOM
 10
0.0
 20
0.0
 30
0.0
  9
$PUCSORGLEFT
 10
0.0
 20
0.0
 30
0.0
  9
$PUCSORGRIGHT
 10
0.0
 20
0.0
 30
0.0
  9
$PUCSORGFRONT
 10
0.0
 20
0.0
 30
0.0
  9
$PUCSORGBACK
 10
0.0
 20
0.0
 30
0.0
  9
$USERI1
 70
               0
  9
$USERI2
 70
               0
  9
$USERI3
 70
               0
  9
$USERI4
 70
               0
  9
$USERI5
 70
               0
  9
$USERR1
 40
0.0
  9
$USERR2
 40
0.0
  9
$USERR3
 40
0.0
  9
$USERR4
 40
0.0
  9
$USERR5
 40
0.0
  9
$WORLDVIEW
 70
               1
  9
$SHADEDGE
 70
               3
  9
$SHADEDIF
 70
              70
  9
$TILEMODE
 70
               1
  9
$MAXACTVP
 70
              64
  9
$PINSBASE
 10
0.0
 20
0.0
 30
0.0
  9
$PLIMCHECK
 70
               0
  9
$PEXTMIN
 10
1.0000000000000000E+20
 20
1.0000000000000000E+20
 30
1.0000000000000000E+20
  9
$PEXTMAX
 10
-1.0000000000000000E+20
 20
-1.0000000000000000E+20
 30
-1.0000000000000000E+20
  9
$PLIMMIN
 10
0.0
 20
0.0
  9
$PLIMMAX
 10
12.0
 20
9.0
  9
$UNITMODE
 70
               0
  9
$VISRETAIN
 70
               0
  9
$PLINEGEN
 70
               1
  9
$PSLTSCALE
 70
               0
  9
$TREEDEPTH
 70
            3020
  9
$CMLSTYLE
  2
Standard
  9
$CMLJUST
 70
               0
  9
$CMLSCALE
 40
1.0
  9
$PROXYGRAPHICS
 70
               0
  9
$MEASUREMENT
 70
               1
  9
$CELWEIGHT
370
               0
  9
$ENDCAPS
280
               0
  9
$JOINSTYLE
280
               0
  9
$LWDISPLAY
290
               1
  9
$INSUNITS
 70
               4
  9
$HYPERLINKBASE
  1

  9
$STYLESHEET
  1

  9
$XEDIT
290
               1
  9
$CEPSNTYPE
380
               0
  9
$PSTYLEMODE
290
               1
  9
$FINGERPRINTGUID
  2

  9
$VERSIONGUID
  2

  9
$EXTNAMES
290
               1
  9
$PSVPSCALE
 40
0.0
  0
ENDSEC
  0
SECTION
  2
CLASSES
  0
CLASS
  1
LWPOLYLINE
  2
AcDbPolyline
  3
AutoCAD 2000
 90
        0
280
               0
281
               1
  0
CLASS
  1
IMAGE
  2
AcDbRasterImage
  3
ISM
 90
      127
280
               0
281
               1
  0
CLASS
  1
OLE2FRAME
  2
AcDbOle2Frame
  3
AutoCAD 2000
 90
        0
280
               0
281
               1
  0
CLASS
  1
HATCH
  2
AcDbHatch
  3
AutoCAD 2000
 90
        0
280
               0
281
               1
  0
CLASS
  1
DICTIONARYVAR
  2
AcDbDictionaryVar
  3
AutoCAD 2000
 90
        0
280
               0
281
               0
  0
CLASS
  1
RASTERVARIABLES
  2
AcDbRasterVariables
  3
ISM
 90
        0
280
               0
281
               0
  0
CLASS
  1
IMAGEDEF
  2
AcDbRasterImageDef
  3
ISM
 90
        0
280
               0
281
               0
  0
CLASS
  1
IMAGEDEF_REACTOR
  2
AcDbRasterImageDefReactor
  3
ISM
 90
        1
280
               0
281
               0
  0
CLASS
  1
IDBUFFER
  2
AcDbIdBuffer
  3
AutoCAD 2000
 90
        0
280
               0
281
               0
  0
CLASS
  1
SPATIAL_FILTER
  2
AcDbSpatialFilter
  3
AutoCAD 2000
 90
        0
280
               0
281
               0
  0
CLASS
  1
XRECORD
  2
AcDbXrecord
  3
AutoCAD 2000
 90
        0
280
               0
281
               0
  0
CLASS
  1
SORTENTSTABLE
  2
AcDbSortentsTable
  3
AutoCAD 2000
 90
        0
280
               0
281
               0
  0
CLASS
  1
LAYER_INDEX
  2
AcDbLayerIndex
  3
AutoCAD 2000
 90
        0
280
               0
281
               0
  0
CLASS
  1
SPATIAL_INDEX
  2
AcDbSpatialIndex
  3
AutoCAD 2000
 90
        0
280
               0
281
               0
  0
CLASS
  1
OBJECT_PTR
  2
CAseDLPNTableRecord
  3
"ASE-LPNTableRecord"
 90
        1
280
               0
281
               0
  0
CLASS
  1
LAYOUT
  2
AcDbLayout
  3
AutoCAD 2000
 90
        0
280
               0
281
               0
  0
CLASS
  1
PLOTSETTINGS
  2
AcDbPlotSettings
  3
AutoCAD 2000
 90
        0
280
               0
281
               0
  0
CLASS
  1
ACDBDICTIONARYWDFLT
  2
AcDbDictionaryWithDefault
  3
AutoCAD 2000
 90
        0
280
               0
281
               0
  0
CLASS
  1
ACDBPLACEHOLDER
  2
AcDbPlaceHolder
  3
AutoCAD 2000
 90
        0
280
               0
281
               0
  0
ENDSEC
  0
SECTION
  2
TABLES
  0
TABLE
  2
VPORT
  5
7
100
AcDbSymbolTable
 70
               1
  0
VPORT
  5
15
100
AcDbSymbolTableRecord
100
AcDbViewportTableRecord
  2
*ACTIVE
 70
               0
 10
0.0
 20
0.0
 11
1.0
 21
1.0
 12
0.0
 22
-12.764114914906713
 13
0.0
 23
0.0
 14
1.0
 24
1.0
 15
0.0
 25
0.0
 16
0.0
 26
0.0
 36
1.0
 17
0.0
 27
0.0
 37
0.0
 40
2837.522815112412
 41
0.688564
 42
50.0
 43
0.0
 44
0.0
 50
0.0
 51
0.0
 71
               0
 72
            2000
 73
               1
 74
               1
 75
               0
 76
               0
 77
               0
 78
               0
281
               0
 65
               0
110
0.0
120
0.0
130
0.0
111
1.0
121
0.0
131
0.0
112
0.0
122
1.0
132
0.0
345
0
346
0
 79
               0
146
0.0
  0
ENDTAB
  0
TABLE
  2
LTYPE
  5
4
100
AcDbSymbolTable
 70
              18
  0
LTYPE
  5
11
100
AcDbSymbolTableRecord
100
AcDbLinetypeTableRecord
  2
ByBlock
 70
              64
  3

 72
              65
 73
               0
 40
0.0
  0
LTYPE
  5
12
100
AcDbSymbolTableRecord
100
AcDbLinetypeTableRecord
  2
ByLayer
 70
              64
  3

 72
              65
 73
               0
 40
0.0
  0
LTYPE
  5
13
100
AcDbSymbolTableRecord
100
AcDbLinetypeTableRecord
  2
Continuous
 70
              64
  3
Solid line
 72
              65
 73
               0
 40
0.0
  0
LTYPE
  5
3A
100
AcDbSymbolTableRecord
100
AcDbLinetypeTableRecord
  2
STYLE_01
 70
               0
  3

 72
              65
 73
               2
 40
0.2083334645669291
 49
0.1388889763779528
 74
               0
 49
-0.0694444881889764
 74
               0
  0
LTYPE
  5
3B
100
AcDbSymbolTableRecord
100
AcDbLinetypeTableRecord
  2
STYLE_02
 70
               0
  3

 72
              65
 73
               2
 40
0.2947224409448819
 49
0.2357779527559055
 74
               0
 49
-0.0589444881889764
 74
               0
  0
LTYPE
  5
3C
100
AcDbSymbolTableRecord
100
AcDbLinetypeTableRecord
  2
STYLE_03
 70
               0
  3

 72
              65
 73
               2
 40
0.2947224409448819
 49
0.2357779527559055
 74
               0
 49
-0.0589444881889764
 74
               0
  0
LTYPE
  5
3D
100
AcDbSymbolTableRecord
100
AcDbLinetypeTableRecord
  2
STYLE_04
 70
               0
  3

 72
              65
 73
               2
 40
0.4166669291338582
 49
0.2777779527559055
 74
               0
 49
-0.1388889763779528
 74
               0
  0
LTYPE
  5
3E
100
AcDbSymbolTableRecord
100
AcDbLinetypeTableRecord
  2
STYLE_05
 70
               0
  3

 72
              65
 73
               2
 40
0.41656
 49
0.13885
 74
               0
 49
-0.27771
 74
               0
  0
LTYPE
  5
3F
100
AcDbSymbolTableRecord
100
AcDbLinetypeTableRecord
  2
STYLE_06
 70
               0
  3

 72
              65
 73
               4
 40
2.0832800000000002
 49
1.25
 74
               0
 49
-0.41656
 74
               0
 49
0.1388600000000001
 74
               0
 49
-0.2778600000000001
 74
               0
  0
LTYPE
  5
40
100
AcDbSymbolTableRecord
100
AcDbLinetypeTableRecord
  2
STYLE_07
 70
               0
  3

 72
              65
 73
               6
 40
3.75
 49
1.25
 74
               0
 49
-0.41656
 74
               0
 49
1.2500000000000002
 74
               0
 49
-0.4167199999999999
 74
               0
 49
0.1388600000000001
 74
               0
 49
-0.2778599999999998
 74
               0
  0
LTYPE
  5
41
100
AcDbSymbolTableRecord
100
AcDbLinetypeTableRecord
  2
STYLE_08
 70
               0
  3

 72
              65
 73
               6
 40
2.5
 49
1.25
 74
               0
 49
-0.41656
 74
               0
 49
0.1388600000000001
 74
               0
 49
-0.2778600000000001
 74
               0
 49
0.1388599999999998
 74
               0
 49
-0.2778600000000001
 74
               0
  0
LTYPE
  5
42
100
AcDbSymbolTableRecord
100
AcDbLinetypeTableRecord
  2
STYLE_09
 70
               0
  3

 72
              65
 73
               4
 40
10.0
 49
7.5
 74
               0
 49
-0.5555699999999997
 74
               0
 49
1.3888600000000006
 74
               0
 49
-0.5555699999999997
 74
               0
  0
LTYPE
  5
43
100
AcDbSymbolTableRecord
100
AcDbLinetypeTableRecord
  2
STYLE_10
 70
               0
  3

 72
              65
 73
               6
 40
11.875
 49
7.5
 74
               0
 49
-0.5555699999999997
 74
               0
 49
1.3888600000000006
 74
               0
 49
-0.5555699999999997
 74
               0
 49
1.25
 74
               0
 49
-0.625
 74
               0
  0
LTYPE
  5
44
100
AcDbSymbolTableRecord
100
AcDbLinetypeTableRecord
  2
STYLE_11
 70
               0
  3

 72
              65
 73
               2
 40
0.1388889763779528
 49
0.0694444881889764
 74
               0
 49
-0.0694444881889764
 74
               0
  0
LTYPE
  5
45
100
AcDbSymbolTableRecord
100
AcDbLinetypeTableRecord
  2
STYLE_12
 70
               0
  3

 72
              65
 73
               2
 40
0.7874015748031495
 49
0.3937007874015748
 74
               0
 49
-0.3937007874015748
 74
               0
  0
LTYPE
  5
46
100
AcDbSymbolTableRecord
100
AcDbLinetypeTableRecord
  2
STYLE_13
 70
               0
  3

 72
              65
 73
               2
 40
1.1811023622047243
 49
0.5905511811023622
 74
               0
 49
-0.5905511811023622
 74
               0
  0
LTYPE
  5
47
100
AcDbSymbolTableRecord
100
AcDbLinetypeTableRecord
  2
STYLE_14
 70
               0
  3

 72
              65
 73
               2
 40
3.9370078740157477
 49
1.9685039370078738
 74
               0
 49
-1.9685039370078738
 74
               0
  0
LTYPE
  5
48
100
AcDbSymbolTableRecord
100
AcDbLinetypeTableRecord
  2
STYLE_15
 70
               0
  3

 72
              65
 73
               2
 40
0.83328
 49
0.41656
 74
               0
 49
-0.41672
 74
               0
  0
ENDTAB
  0
TABLE
  2
LAYER
  5
2
100
AcDbSymbolTable
 70
               7
  0
LAYER
  5
14
100
AcDbSymbolTableRecord
100
AcDbLayerTableRecord
  2
0
 70
               0
 62
               7
  6
Continuous
290
               1
370
              -3
390
1D
  0
LAYER
  5
49
100
AcDbSymbolTableRecord
100
AcDbLayerTableRecord
  2
Defpoints
 70
               0
 62
               7
  6
Continuous
290
               0
370
              -3
390
1D
  0
LAYER
  5
4A
100
AcDbSymbolTableRecord
100
AcDbLayerTableRecord
  2
overflow
 70
               0
 62
               7
  6
Continuous
290
               1
370
              -3
390
1D
  0
LAYER
  5
4B
100
AcDbSymbolTableRecord
100
AcDbLayerTableRecord
  2
template
 70
               0
 62
               7
  6
Continuous
290
               1
370
              -3
390
1D
  0
LAYER
  5
4C
100
AcDbSymbolTableRecord
100
AcDbLayerTableRecord
  2
info
 70
               0
 62
               7
  6
Continuous
290
               1
370
              -3
390
1D
  0
LAYER
  5
4D
100
AcDbSymbolTableRecord
100
AcDbLayerTableRecord
  2
notes
 70
               0
 62
               7
  6
Continuous
290
               1
370
              -3
390
1D
  0
LAYER
  5
4E
100
AcDbSymbolTableRecord
100
AcDbLayerTableRecord
  2
GAR70-0101
 70
               0
 62
               7
  6
Continuous
290
               1
370
              -3
390
1D
  0
ENDTAB
  0
TABLE
  2
STYLE
  5
3
100
AcDbSymbolTable
 70
               2
  0
STYLE
  5
17
100
AcDbSymbolTableRecord
100
AcDbTextStyleTableRecord
  2
Standard
 70
               0
 40
0.0
 41
1.0
 50
0.0
 71
               0
 42
0.0
  3
txt
  4
BIGFONT.SHX
  0
STYLE
  5
39
100
AcDbSymbolTableRecord
100
AcDbTextStyleTableRecord
  2
ＭＳ ゴシック
 70
               0
 40
0.0
 41
1.0
 50
0.0
 71
               0
 42
0.0
  3

  4
ＭＳ ゴシック
1001
ACAD
1000
ＭＳ ゴシック
1071
        0
  0
ENDTAB
  0
TABLE
  2
VIEW
  5
5
100
AcDbSymbolTable
 70
               0
  0
ENDTAB
  0
TABLE
  2
UCS
  5
6
100
AcDbSymbolTable
 70
               0
  0
ENDTAB
  0
TABLE
  2
APPID
  5
8
100
AcDbSymbolTable
 70
               1
  0
APPID
  5
16
100
AcDbSymbolTableRecord
100
AcDbRegAppTableRecord
  2
ACAD
 70
               0
  0
ENDTAB
  0
TABLE
  2
DIMSTYLE
  5
9
100
AcDbSymbolTable
 70
               4
100
AcDbDimStyleTable
 71
               0
  0
DIMSTYLE
105
18
100
AcDbSymbolTableRecord
100
AcDbDimStyleTableRecord
  2
Standard
 70
               0
  3

  4

 40
1.0
 41
0.18
 42
0.0625
 43
0.38
 44
0.18
 45
0.0
 46
0.0
 47
0.0
 48
0.0
 71
               0
 72
               0
 73
               1
 74
               1
 75
               0
 76
               0
 77
               0
 78
               0
 79
               0
140
0.18
141
0.09
142
0.0
143
25.399999999999999
144
1.0
145
0.0
146
1.0
147
0.09
148
0.0
170
               0
171
               2
172
               0
173
               0
174
               0
175
               0
176
               0
177
               0
178
               0
179
               0
271
               4
272
               4
273
               2
274
               2
275
               0
276
               0
277
               2
278
              46
279
               0
280
               0
281
               0
282
               0
283
               1
284
               0
285
               0
286
               0
288
               0
289
               3
340
17
341
0
342
0
343
0
344
0
371
              -2
372
              -2
  0
DIMSTYLE
105
57
100
AcDbSymbolTableRecord
100
AcDbDimStyleTableRecord
  2
Tform線あり
 70
               0
  3
<>
  4
[]
 40
1.0
 41
3.999755859375
 42
24.999999999999996
 43
0.9999999999999999
 44
0.0
 45
0.0
 46
0.0
 47
0.0
 48
0.0
 71
               0
 72
               0
 73
               0
 74
               0
 75
               0
 76
               0
 77
               1
 78
              11
 79
               0
140
24.432617187500004
141
0.0
142
0.0
143
1.0
144
1.0
145
0.0
146
1.0
147
0.4999999999999999
148
0.0
170
               0
171
               1
172
               0
173
               0
174
               1
175
               0
176
               0
177
               0
178
               0
179
               2
271
               1
272
               1
273
               2
274
               2
275
               0
276
               2
277
               2
278
              46
279
               0
280
               0
281
               0
282
               0
283
               1
284
              11
285
              11
286
              11
288
               0
289
               0
340
39
341
4F
342
4F
343
0
344
0
371
              -2
372
              -2
  0
DIMSTYLE
105
58
100
AcDbSymbolTableRecord
100
AcDbDimStyleTableRecord
  2
tfrom長さ固定
 70
               0
  3
<>
  4
[]
 40
1.0
 41
3.999755859375
 42
24.999999999999996
 43
0.9999999999999999
 44
0.0
 45
0.0
 46
0.0
 47
0.0
 48
0.0
 71
               0
 72
               0
 73
               0
 74
               0
 75
               0
 76
               0
 77
               1
 78
              11
 79
               0
140
24.432617187500004
141
0.0
142
0.0
143
1.0
144
1.0
145
0.0
146
1.0
147
0.4999999999999999
148
0.0
170
               0
171
               1
172
               0
173
               0
174
               1
175
               0
176
               0
177
               0
178
               0
179
               2
271
               1
272
               1
273
               2
274
               2
275
               0
276
               2
277
               2
278
              46
279
               0
280
               0
281
               0
282
               0
283
               1
284
              11
285
              11
286
              11
288
               0
289
               0
340
39
341
4F
342
4F
343
0
344
0
371
              -2
372
              -2
  0
DIMSTYLE
105
59
100
AcDbSymbolTableRecord
100
AcDbDimStyleTableRecord
  2
tfrom線あり
 70
               0
  3
<>
  4
[]
 40
1.0
 41
3.999755859375
 42
24.999999999999996
 43
0.9999999999999999
 44
0.0
 45
0.0
 46
0.0
 47
0.0
 48
0.0
 71
               0
 72
               0
 73
               0
 74
               0
 75
               0
 76
               0
 77
               1
 78
              11
 79
               0
140
24.432617187500004
141
0.0
142
0.0
143
1.0
144
1.0
145
0.0
146
1.0
147
0.4999999999999999
148
0.0
170
               0
171
               1
172
               0
173
               0
174
               1
175
               0
176
               0
177
               0
178
               0
179
               2
271
               1
272
               1
273
               2
274
               2
275
               0
276
               2
277
               2
278
              46
279
               0
280
               0
281
               0
282
               0
283
               1
284
              11
285
              11
286
              11
288
               0
289
               0
340
39
341
4F
342
4F
343
0
344
0
371
              -2
372
              -2
  0
ENDTAB
  0
TABLE
  2
BLOCK_RECORD
  5
1
100
AcDbSymbolTable
 70
              23
  0
BLOCK_RECORD
  5
A
100
AcDbSymbolTableRecord
100
AcDbBlockTableRecord
  2
*MODEL_SPACE
340
20
  0
BLOCK_RECORD
  5
B
100
AcDbSymbolTableRecord
100
AcDbBlockTableRecord
  2
*PAPER_SPACE
340
21
  0
BLOCK_RECORD
  5
4F
100
AcDbSymbolTableRecord
100
AcDbBlockTableRecord
  2
_DOT
340
0
  0
BLOCK_RECORD
  5
23
100
AcDbSymbolTableRecord
100
AcDbBlockTableRecord
  2
*D1
340
0
  0
BLOCK_RECORD
  5
24
100
AcDbSymbolTableRecord
100
AcDbBlockTableRecord
  2
*D2
340
0
  0
BLOCK_RECORD
  5
25
100
AcDbSymbolTableRecord
100
AcDbBlockTableRecord
  2
*D3
340
0
  0
BLOCK_RECORD
  5
26
100
AcDbSymbolTableRecord
100
AcDbBlockTableRecord
  2
*D4
340
0
  0
BLOCK_RECORD
  5
27
100
AcDbSymbolTableRecord
100
AcDbBlockTableRecord
  2
*D5
340
0
  0
BLOCK_RECORD
  5
28
100
AcDbSymbolTableRecord
100
AcDbBlockTableRecord
  2
*D6
340
0
  0
BLOCK_RECORD
  5
29
100
AcDbSymbolTableRecord
100
AcDbBlockTableRecord
  2
グループ
340
0
102
{BLKREFS
331
1D6
102
}
  0
BLOCK_RECORD
  5
2A
100
AcDbSymbolTableRecord
100
AcDbBlockTableRecord
  2
*D8
340
0
  0
BLOCK_RECORD
  5
2B
100
AcDbSymbolTableRecord
100
AcDbBlockTableRecord
  2
*D9
340
0
  0
BLOCK_RECORD
  5
2C
100
AcDbSymbolTableRecord
100
AcDbBlockTableRecord
  2
*D10
340
0
  0
BLOCK_RECORD
  5
2D
100
AcDbSymbolTableRecord
100
AcDbBlockTableRecord
  2
*D11
340
0
  0
BLOCK_RECORD
  5
2E
100
AcDbSymbolTableRecord
100
AcDbBlockTableRecord
  2
*D12
340
0
  0
BLOCK_RECORD
  5
2F
100
AcDbSymbolTableRecord
100
AcDbBlockTableRecord
  2
*D13
340
0
  0
BLOCK_RECORD
  5
30
100
AcDbSymbolTableRecord
100
AcDbBlockTableRecord
  2
*D14
340
0
  0
BLOCK_RECORD
  5
31
100
AcDbSymbolTableRecord
100
AcDbBlockTableRecord
  2
*D15
340
0
  0
BLOCK_RECORD
  5
32
100
AcDbSymbolTableRecord
100
AcDbBlockTableRecord
  2
*D16
340
0
  0
BLOCK_RECORD
  5
33
100
AcDbSymbolTableRecord
100
AcDbBlockTableRecord
  2
*D17
340
0
  0
BLOCK_RECORD
  5
34
100
AcDbSymbolTableRecord
100
AcDbBlockTableRecord
  2
*D18
340
0
  0
BLOCK_RECORD
  5
35
100
AcDbSymbolTableRecord
100
AcDbBlockTableRecord
  2
*D19
340
0
  0
BLOCK_RECORD
  5
36
100
AcDbSymbolTableRecord
100
AcDbBlockTableRecord
  2
*D20
340
0
  0
BLOCK_RECORD
  5
37
100
AcDbSymbolTableRecord
100
AcDbBlockTableRecord
  2
*D21
340
0
  0
BLOCK_RECORD
  5
38
100
AcDbSymbolTableRecord
100
AcDbBlockTableRecord
  2
*D22
340
0
  0
ENDTAB
  0
ENDSEC
  0
SECTION
  2
BLOCKS
  0
BLOCK
  5
D
100
AcDbEntity
  8
0
390
0
100
AcDbBlockBegin
  2
*MODEL_SPACE
 70
               0
 10
0.0
 20
0.0
 30
0.0
  3
*MODEL_SPACE
  1

  0
ENDBLK
  5
E
100
AcDbEntity
  8
0
390
0
100
AcDbBlockEnd
  0
BLOCK
  5
F
100
AcDbEntity
 67
               1
  8
0
390
0
100
AcDbBlockBegin
  2
*PAPER_SPACE
 70
               0
 10
0.0
 20
0.0
 30
0.0
  3
*PAPER_SPACE
  1

  0
ENDBLK
  5
10
100
AcDbEntity
 67
               1
  8
0
390
0
100
AcDbBlockEnd
  0
BLOCK
  5
50
100
AcDbEntity
  8
0
390
0
100
AcDbBlockBegin
  2
_DOT
 70
               0
 10
0.0
 20
0.0
 30
0.0
  3
_DOT
  1

  0
POLYLINE
  5
51
100
AcDbEntity
  8
0
370
              -2
390
0
  6
ByBlock
 62
               0
100
AcDb2dPolyline
 66
               1
 10
0.0
 20
0.0
 30
0.0
 70
               1
 40
0.5
 41
0.5
  0
VERTEX
  5
52
100
AcDbEntity
  8
0
370
              -2
390
0
  6
ByBlock
 62
               0
100
AcDbVertex
100
AcDb2dVertex
 10
-0.25
 20
0.0
 30
0.0
 42
1.0
  0
VERTEX
  5
53
100
AcDbEntity
  8
0
370
              -2
390
0
  6
ByBlock
 62
               0
100
AcDbVertex
100
AcDb2dVertex
 10
0.25
 20
0.0
 30
0.0
 42
1.0
  0
SEQEND
  5
54
100
AcDbEntity
  8
0
390
0
  0
LINE
  5
55
100
AcDbEntity
  8
0
370
              -2
390
0
  6
ByBlock
 62
               0
100
AcDbLine
 10
-0.5
 20
0.0
 30
0.0
 11
-1.0
 21
0.0
 31
0.0
  0
ENDBLK
  5
56
100
AcDbEntity
  8
0
390
0
100
AcDbBlockEnd
  0
BLOCK
  5
5A
100
AcDbEntity
  8
overflow
390
0
100
AcDbBlockBegin
  2
*D1
 70
               1
 10
0.0
 20
0.0
 30
0.0
  3
*D1
  1

  0
LINE
  5
5B
100
AcDbEntity
  8
0
370
              -2
390
0
  6
Continuous
 62
               0
100
AcDbLine
 10
827.42942186761206
 20
391.5458814073117
 30
0.0
 11
906.75784393678236
 21
391.5458814073117
 31
0.0
  0
LINE
  5
5C
100
AcDbEntity
  8
0
370
              -2
390
0
  6
Continuous
 62
               0
100
AcDbLine
 10
805.30692493187212
 20
315.54588140731175
 30
0.0
 11
906.75784393678236
 21
315.54588140731175
 31
0.0
  0
LINE
  5
5D
100
AcDbEntity
  8
0
370
              -2
390
0
  6
Continuous
 62
               0
100
AcDbLine
 10
906.75784393678236
 20
391.5458814073117
 30
0.0
 11
906.75784393678236
 21
315.54588140731175
 31
0.0
  0
CIRCLE
  5
5E
102
{ACAD_REACTORS
330
5F
102
}
100
AcDbEntity
  8
0
370
              -2
390
0
  6
Continuous
 62
               0
100
AcDbCircle
 10
906.75784393678236
 20
391.5458814073117
 30
0.0
 40
1.9998779296875
  0
HATCH
  5
5F
100
AcDbEntity
  8
0
370
              -2
390
0
  6
Continuous
 62
               0
100
AcDbHatch
 10
0.0
 20
0.0
 30
0.0
210
0.0
220
0.0
230
1.0
  2
SOLID
 70
               1
 71
               1
 91
        1
 92
        1
 93
        1
 72
               2
 10
906.75784393678236
 20
391.5458814073117
 40
1.9998779296875
 50
0.0
 51
360.0
 73
               0
 97
        1
330
5E
 75
               0
 76
               1
 98
        1
 10
0.0
 20
0.0
  0
CIRCLE
  5
60
102
{ACAD_REACTORS
330
61
102
}
100
AcDbEntity
  8
0
370
              -2
390
0
  6
Continuous
 62
               0
100
AcDbCircle
 10
906.75784393678236
 20
315.54588140731175
 30
0.0
 40
1.9998779296875
  0
HATCH
  5
61
100
AcDbEntity
  8
0
370
              -2
390
0
  6
Continuous
 62
               0
100
AcDbHatch
 10
0.0
 20
0.0
 30
0.0
210
0.0
220
0.0
230
1.0
  2
SOLID
 70
               1
 71
               1
 91
        1
 92
        1
 93
        1
 72
               2
 10
906.75784393678236
 20
315.54588140731175
 40
1.9998779296875
 50
0.0
 51
360.0
 73
               0
 97
        1
330
60
 75
               0
 76
               1
 98
        1
 10
0.0
 20
0.0
  0
MTEXT
  5
62
100
AcDbEntity
  8
0
390
0
 62
               0
100
AcDbMText
 10
872.88022674928231
 20
337.67088140731175
 30
0.0
 40
24.432617187500004
 41
0.0
 71
               1
 72
               1
  1
38
  7
ＭＳ ゴシック
 11
0.0
 21
1.0
 31
0.0
 73
               1
 44
0.7828267384257843
  0
POINT
  5
63
100
AcDbEntity
  8
Defpoints
370
               0
390
0
 62
               0
100
AcDbPoint
 10
780.30692493187212
 20
315.54588140731175
 30
0.0
  0
POINT
  5
64
100
AcDbEntity
  8
Defpoints
370
               0
390
0
 62
               0
100
AcDbPoint
 10
802.42942186761206
 20
391.5458814073117
 30
0.0
  0
POINT
  5
65
100
AcDbEntity
  8
Defpoints
370
               0
390
0
 62
               0
100
AcDbPoint
 10
906.75784393678236
 20
391.5458814073117
 30
0.0
  0
ENDBLK
  5
66
100
AcDbEntity
  8
overflow
390
0
100
AcDbBlockEnd
  0
BLOCK
  5
67
100
AcDbEntity
  8
overflow
390
0
100
AcDbBlockBegin
  2
*D2
 70
               1
 10
0.0
 20
0.0
 30
0.0
  3
*D2
  1

  0
LINE
  5
68
100
AcDbEntity
  8
0
370
              -2
390
0
  6
Continuous
 62
               0
100
AcDbLine
 10
643.40127149110481
 20
391.5458814073117
 30
0.0
 11
116.00439480156976
 21
391.5458814073117
 31
0.0
  0
LINE
  5
69
100
AcDbEntity
  8
0
370
              -2
390
0
  6
Continuous
 62
               0
100
AcDbLine
 10
195.74662807014306
 20
891.63625936377878
 30
0.0
 11
116.00439480156976
 21
891.63625936377878
 31
0.0
  0
LINE
  5
6A
100
AcDbEntity
  8
0
370
              -2
390
0
  6
Continuous
 62
               0
100
AcDbLine
 10
116.00439480156976
 20
391.5458814073117
 30
0.0
 11
116.00439480156976
 21
891.63625936377878
 31
0.0
  0
CIRCLE
  5
6B
102
{ACAD_REACTORS
330
6C
102
}
100
AcDbEntity
  8
0
370
              -2
390
0
  6
Continuous
 62
               0
100
AcDbCircle
 10
116.00439480156976
 20
391.5458814073117
 30
0.0
 40
1.9998779296875
  0
HATCH
  5
6C
100
AcDbEntity
  8
0
370
              -2
390
0
  6
Continuous
 62
               0
100
AcDbHatch
 10
0.0
 20
0.0
 30
0.0
210
0.0
220
0.0
230
1.0
  2
SOLID
 70
               1
 71
               1
 91
        1
 92
        1
 93
        1
 72
               2
 10
116.00439480156976
 20
391.5458814073117
 40
1.9998779296875
 50
0.0
 51
360.0
 73
               0
 97
        1
330
6B
 75
               0
 76
               1
 98
        1
 10
0.0
 20
0.0
  0
CIRCLE
  5
6D
102
{ACAD_REACTORS
330
6E
102
}
100
AcDbEntity
  8
0
370
              -2
390
0
  6
Continuous
 62
               0
100
AcDbCircle
 10
116.00439480156976
 20
891.63625936377878
 30
0.0
 40
1.9998779296875
  0
HATCH
  5
6E
100
AcDbEntity
  8
0
370
              -2
390
0
  6
Continuous
 62
               0
100
AcDbHatch
 10
0.0
 20
0.0
 30
0.0
210
0.0
220
0.0
230
1.0
  2
SOLID
 70
               1
 71
               1
 91
        1
 92
        1
 93
        1
 72
               2
 10
116.00439480156976
 20
891.63625936377878
 40
1.9998779296875
 50
0.0
 51
360.0
 73
               0
 97
        1
330
6D
 75
               0
 76
               1
 98
        1
 10
0.0
 20
0.0
  0
MTEXT
  5
6F
100
AcDbEntity
  8
0
390
0
 62
               0
100
AcDbMText
 10
82.126777614069752
 20
522.52857038554521
 30
0.0
 40
24.432617187500004
 41
0.0
 71
               1
 72
               1
  1
min.85～max.250
  7
ＭＳ ゴシック
 11
0.0
 21
1.0
 31
0.0
 73
               1
 44
0.7828267384257843
  0
POINT
  5
70
100
AcDbEntity
  8
Defpoints
370
               0
390
0
 62
               0
100
AcDbPoint
 10
220.74662807014306
 20
891.63625936377878
 30
0.0
  0
POINT
  5
71
100
AcDbEntity
  8
Defpoints
370
               0
390
0
 62
               0
100
AcDbPoint
 10
668.40127149110481
 20
391.5458814073117
 30
0.0
  0
POINT
  5
72
100
AcDbEntity
  8
Defpoints
370
               0
390
0
 62
               0
100
AcDbPoint
 10
116.00439480156976
 20
391.5458814073117
 30
0.0
  0
ENDBLK
  5
73
100
AcDbEntity
  8
overflow
390
0
100
AcDbBlockEnd
  0
BLOCK
  5
74
100
AcDbEntity
  8
overflow
390
0
100
AcDbBlockBegin
  2
*D3
 70
               1
 10
0.0
 20
0.0
 30
0.0
  3
*D3
  1

  0
LINE
  5
75
100
AcDbEntity
  8
0
370
              -2
390
0
  6
Continuous
 62
               0
100
AcDbLine
 10
734.84902878621028
 20
290.54588140731175
 30
0.0
 11
734.84902878621028
 21
165.54588140731164
 31
0.0
  0
LINE
  5
76
100
AcDbEntity
  8
0
370
              -2
390
0
  6
Continuous
 62
               0
100
AcDbLine
 10
224.82294175478569
 20
390.6417434188964
 30
0.0
 11
224.82294175478569
 21
165.54588140731164
 31
0.0
  0
LINE
  5
77
100
AcDbEntity
  8
0
370
              -2
390
0
  6
Continuous
 62
               0
100
AcDbLine
 10
734.84902878621028
 20
165.54588140731164
 30
0.0
 11
224.82294175478569
 21
165.54588140731164
 31
0.0
  0
CIRCLE
  5
78
102
{ACAD_REACTORS
330
79
102
}
100
AcDbEntity
  8
0
370
              -2
390
0
  6
Continuous
 62
               0
100
AcDbCircle
 10
734.84902878621028
 20
165.54588140731164
 30
0.0
 40
1.9998779296875
  0
HATCH
  5
79
100
AcDbEntity
  8
0
370
              -2
390
0
  6
Continuous
 62
               0
100
AcDbHatch
 10
0.0
 20
0.0
 30
0.0
210
0.0
220
0.0
230
1.0
  2
SOLID
 70
               1
 71
               1
 91
        1
 92
        1
 93
        1
 72
               2
 10
734.84902878621028
 20
165.54588140731164
 40
1.9998779296875
 50
0.0
 51
360.0
 73
               0
 97
        1
330
78
 75
               0
 76
               1
 98
        1
 10
0.0
 20
0.0
  0
CIRCLE
  5
7A
102
{ACAD_REACTORS
330
7B
102
}
100
AcDbEntity
  8
0
370
              -2
390
0
  6
Continuous
 62
               0
100
AcDbCircle
 10
224.82294175478569
 20
165.54588140731164
 30
0.0
 40
1.9998779296875
  0
HATCH
  5
7B
100
AcDbEntity
  8
0
370
              -2
390
0
  6
Continuous
 62
               0
100
AcDbHatch
 10
0.0
 20
0.0
 30
0.0
210
0.0
220
0.0
230
1.0
  2
SOLID
 70
               1
 71
               1
 91
        1
 92
        1
 93
        1
 72
               2
 10
224.82294175478569
 20
165.54588140731164
 40
1.9998779296875
 50
0.0
 51
360.0
 73
               0
 97
        1
330
7A
 75
               0
 76
               1
 98
        1
 10
0.0
 20
0.0
  0
MTEXT
  5
7C
100
AcDbEntity
  8
0
390
0
 62
               0
100
AcDbMText
 10
360.77348527049799
 20
199.42349859481163
 30
0.0
 40
24.432617187500004
 41
0.0
 71
               1
 72
               1
  1
min.75～max.255
  7
ＭＳ ゴシック
 73
               1
 44
0.7828267384257843
  0
POINT
  5
7D
100
AcDbEntity
  8
Defpoints
370
               0
390
0
 62
               0
100
AcDbPoint
 10
224.82294175478569
 20
415.6417434188964
 30
0.0
  0
POINT
  5
7E
100
AcDbEntity
  8
Defpoints
370
               0
390
0
 62
               0
100
AcDbPoint
 10
734.84902878621028
 20
315.54588140731175
 30
0.0
  0
POINT
  5
7F
100
AcDbEntity
  8
Defpoints
370
               0
390
0
 62
               0
100
AcDbPoint
 10
734.84902878621028
 20
165.54588140731164
 30
0.0
  0
ENDBLK
  5
80
100
AcDbEntity
  8
overflow
390
0
100
AcDbBlockEnd
  0
BLOCK
  5
81
100
AcDbEntity
  8
overflow
390
0
100
AcDbBlockBegin
  2
*D4
 70
               1
 10
0.0
 20
0.0
 30
0.0
  3
*D4
  1

  0
LINE
  5
82
100
AcDbEntity
  8
0
370
              -2
390
0
  6
Continuous
 62
               0
100
AcDbLine
 10
827.42942186761206
 20
391.5458814073117
 30
0.0
 11
906.75784393678236
 21
391.5458814073117
 31
0.0
  0
LINE
  5
83
100
AcDbEntity
  8
0
370
              -2
390
0
  6
Continuous
 62
               0
100
AcDbLine
 10
829.87426570744969
 20
511.4811160016871
 30
0.0
 11
906.75784393678236
 21
511.4811160016871
 31
0.0
  0
LINE
  5
84
100
AcDbEntity
  8
0
370
              -2
390
0
  6
Continuous
 62
               0
100
AcDbLine
 10
906.75784393678236
 20
391.5458814073117
 30
0.0
 11
906.75784393678236
 21
511.4811160016871
 31
0.0
  0
CIRCLE
  5
85
102
{ACAD_REACTORS
330
86
102
}
100
AcDbEntity
  8
0
370
              -2
390
0
  6
Continuous
 62
               0
100
AcDbCircle
 10
906.75784393678236
 20
391.5458814073117
 30
0.0
 40
1.9998779296875
  0
HATCH
  5
86
100
AcDbEntity
  8
0
370
              -2
390
0
  6
Continuous
 62
               0
100
AcDbHatch
 10
0.0
 20
0.0
 30
0.0
210
0.0
220
0.0
230
1.0
  2
SOLID
 70
               1
 71
               1
 91
        1
 92
        1
 93
        1
 72
               2
 10
906.75784393678236
 20
391.5458814073117
 40
1.9998779296875
 50
0.0
 51
360.0
 73
               0
 97
        1
330
85
 75
               0
 76
               1
 98
        1
 10
0.0
 20
0.0
  0
CIRCLE
  5
87
102
{ACAD_REACTORS
330
88
102
}
100
AcDbEntity
  8
0
370
              -2
390
0
  6
Continuous
 62
               0
100
AcDbCircle
 10
906.75784393678236
 20
511.4811160016871
 30
0.0
 40
1.9998779296875
  0
HATCH
  5
88
100
AcDbEntity
  8
0
370
              -2
390
0
  6
Continuous
 62
               0
100
AcDbHatch
 10
0.0
 20
0.0
 30
0.0
210
0.0
220
0.0
230
1.0
  2
SOLID
 70
               1
 71
               1
 91
        1
 92
        1
 93
        1
 72
               2
 10
906.75784393678236
 20
511.4811160016871
 40
1.9998779296875
 50
0.0
 51
360.0
 73
               0
 97
        1
330
87
 75
               0
 76
               1
 98
        1
 10
0.0
 20
0.0
  0
MTEXT
  5
89
100
AcDbEntity
  8
0
390
0
 62
               0
100
AcDbMText
 10
872.88022674928231
 20
435.6384987044994
 30
0.0
 40
24.432617187500004
 41
0.0
 71
               1
 72
               1
  1
60
  7
ＭＳ ゴシック
 11
0.0
 21
1.0
 31
0.0
 73
               1
 44
0.7828267384257843
  0
POINT
  5
8A
100
AcDbEntity
  8
Defpoints
370
               0
390
0
 62
               0
100
AcDbPoint
 10
804.87426570744969
 20
511.4811160016871
 30
0.0
  0
POINT
  5
8B
100
AcDbEntity
  8
Defpoints
370
               0
390
0
 62
               0
100
AcDbPoint
 10
802.42942186761206
 20
391.5458814073117
 30
0.0
  0
POINT
  5
8C
100
AcDbEntity
  8
Defpoints
370
               0
390
0
 62
               0
100
AcDbPoint
 10
906.75784393678236
 20
391.5458814073117
 30
0.0
  0
ENDBLK
  5
8D
100
AcDbEntity
  8
overflow
390
0
100
AcDbBlockEnd
  0
BLOCK
  5
8E
100
AcDbEntity
  8
overflow
390
0
100
AcDbBlockBegin
  2
*D5
 70
               1
 10
0.0
 20
0.0
 30
0.0
  3
*D5
  1

  0
LINE
  5
8F
100
AcDbEntity
  8
0
370
              -2
390
0
  6
Continuous
 62
               0
100
AcDbLine
 10
829.87426570744969
 20
511.4811160016871
 30
0.0
 11
906.75784393678236
 21
511.4811160016871
 31
0.0
  0
LINE
  5
90
100
AcDbEntity
  8
0
370
              -2
390
0
  6
Continuous
 62
               0
100
AcDbLine
 10
828.38548699923354
 20
555.45589183227162
 30
0.0
 11
906.75784393678236
 21
555.45589183227162
 31
0.0
  0
LINE
  5
91
100
AcDbEntity
  8
0
370
              -2
390
0
  6
Continuous
 62
               0
100
AcDbLine
 10
906.75784393678236
 20
511.4811160016871
 30
0.0
 11
906.75784393678236
 21
555.45589183227162
 31
0.0
  0
CIRCLE
  5
92
102
{ACAD_REACTORS
330
93
102
}
100
AcDbEntity
  8
0
370
              -2
390
0
  6
Continuous
 62
               0
100
AcDbCircle
 10
906.75784393678236
 20
511.4811160016871
 30
0.0
 40
1.9998779296875
  0
HATCH
  5
93
100
AcDbEntity
  8
0
370
              -2
390
0
  6
Continuous
 62
               0
100
AcDbHatch
 10
0.0
 20
0.0
 30
0.0
210
0.0
220
0.0
230
1.0
  2
SOLID
 70
               1
 71
               1
 91
        1
 92
        1
 93
        1
 72
               2
 10
906.75784393678236
 20
511.4811160016871
 40
1.9998779296875
 50
0.0
 51
360.0
 73
               0
 97
        1
330
92
 75
               0
 76
               1
 98
        1
 10
0.0
 20
0.0
  0
CIRCLE
  5
94
102
{ACAD_REACTORS
330
95
102
}
100
AcDbEntity
  8
0
370
              -2
390
0
  6
Continuous
 62
               0
100
AcDbCircle
 10
906.75784393678236
 20
555.45589183227162
 30
0.0
 40
1.9998779296875
  0
HATCH
  5
95
100
AcDbEntity
  8
0
370
              -2
390
0
  6
Continuous
 62
               0
100
AcDbHatch
 10
0.0
 20
0.0
 30
0.0
210
0.0
220
0.0
230
1.0
  2
SOLID
 70
               1
 71
               1
 91
        1
 92
        1
 93
        1
 72
               2
 10
906.75784393678236
 20
555.45589183227162
 40
1.9998779296875
 50
0.0
 51
360.0
 73
               0
 97
        1
330
94
 75
               0
 76
               1
 98
        1
 10
0.0
 20
0.0
  0
MTEXT
  5
96
100
AcDbEntity
  8
0
390
0
 62
               0
100
AcDbMText
 10
872.88022674928231
 20
517.59350391697944
 30
0.0
 40
24.432617187500004
 41
0.0
 71
               1
 72
               1
  1
22
  7
ＭＳ ゴシック
 11
0.0
 21
1.0
 31
0.0
 73
               1
 44
0.7828267384257843
  0
POINT
  5
97
100
AcDbEntity
  8
Defpoints
370
               0
390
0
 62
               0
100
AcDbPoint
 10
803.38548699923354
 20
555.45589183227162
 30
0.0
  0
POINT
  5
98
100
AcDbEntity
  8
Defpoints
370
               0
390
0
 62
               0
100
AcDbPoint
 10
804.87426570744969
 20
511.4811160016871
 30
0.0
  0
POINT
  5
99
100
AcDbEntity
  8
Defpoints
370
               0
390
0
 62
               0
100
AcDbPoint
 10
906.75784393678236
 20
511.4811160016871
 30
0.0
  0
ENDBLK
  5
9A
100
AcDbEntity
  8
overflow
390
0
100
AcDbBlockEnd
  0
BLOCK
  5
9B
100
AcDbEntity
  8
overflow
390
0
100
AcDbBlockBegin
  2
*D6
 70
               1
 10
0.0
 20
0.0
 30
0.0
  3
*D6
  1

  0
LINE
  5
9C
100
AcDbEntity
  8
0
370
              -2
390
0
  6
Continuous
 62
               0
100
AcDbLine
 10
689.39113264054845
 20
290.54588140731175
 30
0.0
 11
689.39113264054845
 21
215.54588140731175
 31
0.0
  0
LINE
  5
9D
100
AcDbEntity
  8
0
370
              -2
390
0
  6
Continuous
 62
               0
100
AcDbLine
 10
780.30692493187212
 20
290.54588140731175
 30
0.0
 11
780.30692493187212
 21
215.54588140731175
 31
0.0
  0
LINE
  5
9E
100
AcDbEntity
  8
0
370
              -2
390
0
  6
Continuous
 62
               0
100
AcDbLine
 10
780.30692493187212
 20
215.54588140731175
 30
0.0
 11
899.49852460065983
 21
215.54588140731175
 31
0.0
  0
LINE
  5
9F
100
AcDbEntity
  8
0
370
              -2
390
0
  6
Continuous
 62
               0
100
AcDbLine
 10
689.39113264054845
 20
215.54588140731175
 30
0.0
 11
780.30692493187212
 21
215.54588140731175
 31
0.0
  0
CIRCLE
  5
A0
102
{ACAD_REACTORS
330
A1
102
}
100
AcDbEntity
  8
0
370
              -2
390
0
  6
Continuous
 62
               0
100
AcDbCircle
 10
689.39113264054845
 20
215.54588140731175
 30
0.0
 40
1.9998779296875
  0
HATCH
  5
A1
100
AcDbEntity
  8
0
370
              -2
390
0
  6
Continuous
 62
               0
100
AcDbHatch
 10
0.0
 20
0.0
 30
0.0
210
0.0
220
0.0
230
1.0
  2
SOLID
 70
               1
 71
               1
 91
        1
 92
        1
 93
        1
 72
               2
 10
689.39113264054845
 20
215.54588140731175
 40
1.9998779296875
 50
0.0
 51
360.0
 73
               0
 97
        1
330
A0
 75
               0
 76
               1
 98
        1
 10
0.0
 20
0.0
  0
CIRCLE
  5
A2
102
{ACAD_REACTORS
330
A3
102
}
100
AcDbEntity
  8
0
370
              -2
390
0
  6
Continuous
 62
               0
100
AcDbCircle
 10
780.30692493187212
 20
215.54588140731175
 30
0.0
 40
1.9998779296875
  0
HATCH
  5
A3
100
AcDbEntity
  8
0
370
              -2
390
0
  6
Continuous
 62
               0
100
AcDbHatch
 10
0.0
 20
0.0
 30
0.0
210
0.0
220
0.0
230
1.0
  2
SOLID
 70
               1
 71
               1
 91
        1
 92
        1
 93
        1
 72
               2
 10
780.30692493187212
 20
215.54588140731175
 40
1.9998779296875
 50
0.0
 51
360.0
 73
               0
 97
        1
330
A2
 75
               0
 76
               1
 98
        1
 10
0.0
 20
0.0
  0
MTEXT
  5
A4
100
AcDbEntity
  8
0
390
0
 62
               0
100
AcDbMText
 10
804.24851787195769
 20
249.42349859481175
 30
0.0
 40
24.432617187500004
 41
0.0
 71
               1
 72
               1
  1
G1 1/4
  7
ＭＳ ゴシック
 73
               1
 44
0.7828267384257843
  0
POINT
  5
A5
100
AcDbEntity
  8
Defpoints
370
               0
390
0
 62
               0
100
AcDbPoint
 10
780.30692493187212
 20
315.54588140731175
 30
0.0
  0
POINT
  5
A6
100
AcDbEntity
  8
Defpoints
370
               0
390
0
 62
               0
100
AcDbPoint
 10
689.39113264054845
 20
315.54588140731175
 30
0.0
  0
POINT
  5
A7
100
AcDbEntity
  8
Defpoints
370
               0
390
0
 62
               0
100
AcDbPoint
 10
689.39113264054845
 20
215.54588140731175
 30
0.0
  0
ENDBLK
  5
A8
100
AcDbEntity
  8
overflow
390
0
100
AcDbBlockEnd
  0
BLOCK
  5
A9
100
AcDbEntity
  8
template
390
0
100
AcDbBlockBegin
  2
グループ
 70
               0
 10
0.0
 20
0.0
 30
0.0
  3
グループ
  1

  0
LWPOLYLINE
  5
AA
100
AcDbEntity
  8
0
370
              15
390
0
  6
Continuous
 62
               7
100
AcDbPolyline
 90
        8
 70
             129
 10
887.42161761210252
 20
-2022.8534616599072
 10
887.42161761210252
 20
-2028.8508503534831
 10
877.92042069409922
 20
-2028.8508503534831
 10
877.92042069409922
 20
-2053.3018136169917
 10
869.56504343231643
 20
-2053.3018136169917
 10
869.56504343231643
 20
-2028.8508503534831
 10
860.23208648600701
 20
-2028.8508503534831
 10
860.23208648600701
 20
-2022.8534616599072
  0
LWPOLYLINE
  5
AB
100
AcDbEntity
  8
0
370
              15
390
0
  6
Continuous
 62
               7
100
AcDbPolyline
 90
      101
 70
             128
 10
900.14990944265946
 20
-2023.5817101528437
 10
900.16525947144942
 20
-2023.5773493961572
 42
-0.0222221607808347
 10
900.45526404811562
 20
-2023.508724930914
 10
900.47105781211815
 20
-2023.5057215078152
 42
-0.0146883565579629
 10
900.73376051733339
 20
-2023.4637183208677
 42
-0.0127458844182209
 10
900.99839948448925
 20
-2023.4361813527948
 10
901.06085456279914
 20
-2023.431287930207
 42
-0.0198099018566543
 10
901.45170367227149
 20
-2023.4162027728103
 10
901.50351514171984
 20
-2023.4162565484753
 42
-0.0147617382765665
 10
901.99813860269057
 20
-2023.4313765737199
 10
902.07083005756795
 20
-2023.4357491806077
 42
-0.0162624549003319
 10
902.46098368703349
 20
-2023.4719820558801
 10
902.58251607830232
 20
-2023.4872686148778
 42
-0.008002087466173
 10
902.72809510938418
 20
-2023.507951462145
 10
902.76641457997789
 20
-2023.5140227399559
 42
-0.0053821929675197
 10
902.83489868529409
 20
-2023.5256302637777
 10
902.10849298609548
 20
-2025.7065587194916
 42
0.0108667757409503
 10
902.04117591595832
 20
-2025.6933716042706
 10
902.00370789277508
 20
-2025.6868738616772
 42
0.0170663203310691
 10
901.86049110585748
 20
-2025.6670442643851
 10
901.79261577317664
 20
-2025.659997093798
 42
0.0220162375271706
 10
901.51223636532495
 20
-2025.6433147330279
 10
901.43438079826535
 20
-2025.6421153657614
 42
0.0282606915791467
 10
901.09874447469133
 20
-2025.6559186427305
 10
901.05483120092219
 20
-2025.6602186327339
 42
0.0169677213679873
 10
900.80890670596
 20
-2025.6927556822861
 42
0.019057626987216
 10
900.56599874337735
 20
-2025.7429025543931
 10
900.55973955526918
 20
-2025.7444455285017
 42
0.0213685642841074
 10
900.30935507079846
 20
-2025.8176458136043
 10
900.30386517587522
 20
-2025.8195088096656
 42
0.0237595297595893
 10
900.05037029097207
 20
-2025.9191933315633
 10
900.04526821694685
 20
-2025.9214851070394
 42
0.0261857468818501
 10
899.7930974407177
 20
-2026.0510214444134
 10
899.782671251632
 20
-2026.0570869188812
 42
0.0272553062015953
 10
899.54624147639151
 20
-2026.2124591248266
 10
899.51147846287859
 20
-2026.2381202729214
 42
0.0325996893186336
 10
899.36132311923052
 20
-2026.3648681458901
 10
899.33761369010347
 20
-2026.3876861744068
 42
0.0138050960648666
 10
899.24573053389724
 20
-2026.4811358359548
 42
0.0125280103800858
 10
899.15888800106882
 20
-2026.579299162549
 10
899.13520755615536
 20
-2026.6074576607423
 42
0.0205218024740052
 10
899.01010748064323
 20
-2026.7692509749693
 10
898.98764114015455
 20
-2026.8009107047983
 42
0.0163110129587611
 10
898.83193076090129
 20
-2027.0362411398714
 10
898.82920686485227
 20
-2027.0406649018537
 42
0.0131897341894856
 10
898.68240634394624
 20
-2027.2937969942184
 10
898.6807062485799
 20
-2027.2969152333537
 42
0.0107895576061885
 10
898.54292954636924
 20
-2027.5631304429883
 10
898.542196656844
 20
-2027.5646246756353
 42
0.0091371507217758
 10
898.41371670819797
 20
-2027.8391498733874
 10
898.38397107678543
 20
-2027.9058563805538
 42
0.013541832635238
 10
898.21225713771469
 20
-2028.32079416582
 10
898.17865232928079
 20
-2028.4086603081
 42
0.0092834542408239
 10
898.00742326935847
 20
-2028.8825588064092
 10
897.98180614163527
 20
-2028.9577998762193
 42
0.005426104358474
 10
897.87416799334801
 20
-2029.2855638492676
 10
897.85664200710448
 20
-2029.3409520117066
 42
0.0008225090821823
 10
897.78797195534048
 20
-2029.5592207696468
 10
896.80328282340702
 20
-2032.5841120629034
 10
900.03590666348089
 20
-2032.5841120629034
 10
899.53171423362744
 20
-2034.4885903612558
 10
896.27565795164412
 20
-2034.4885903612558
 10
890.4465089192903
 20
-2053.3018134272606
 10
888.62141130897999
 20
-2053.3018134272606
 10
894.45608934448092
 20
-2034.4885903612558
 10
892.05097297544057
 20
-2034.4885903612558
 10
892.55516540529402
 20
-2032.5841120629034
 10
894.98371421624404
 20
-2032.5841120629034
 10
895.84386913443268
 20
-2029.9476990622047
 42
-0.0005863560665173
 10
895.88060381256173
 20
-2029.8308726421492
 10
895.95669164629658
 20
-2029.5898803425275
 42
-0.008752237892429
 10
896.15615978975711
 20
-2028.9946042553706
 10
896.24842406516404
 20
-2028.734464086876
 42
-0.0077400953831621
 10
896.50635772429803
 20
-2028.0414594093197
 10
896.52212269587972
 20
-2028.0010285259264
 42
-0.0082369946330703
 10
896.76920716648885
 20
-2027.3969494597379
 42
-0.0085725238363663
 10
897.03645326249227
 20
-2026.8015234204497
 10
897.13808286349933
 20
-2026.5851023184655
 42
-0.016810941059311
 10
897.42502729222906
 20
-2026.0238947923615
 10
897.55087068268358
 20
-2025.7969307593721
 42
-0.0007817726860601
 10
897.60515503274473
 20
-2025.6993865143329
 10
897.6052833387688
 20
-2025.6991568055844
 42
-0.0036626142152292
 10
897.66017120278332
 20
-2025.6025589256278
 42
-0.0080221150695114
 10
897.71729545818562
 20
-2025.5072796908821
 10
897.74799540955121
 20
-2025.4578887417529
 42
-0.0202139325571096
 10
897.87565114935717
 20
-2025.2699071410725
 10
897.92971861454555
 20
-2025.1968282768307
 42
-0.0249323791802241
 10
898.18888140826232
 20
-2024.8807830346791
 10
898.21302122239172
 20
-2024.8541687617637
 42
-0.0242132121540639
 10
898.55270196393485
 20
-2024.5142852755587
 10
898.60061353668482
 20
-2024.4707761393734
 42
-0.0251017527859056
 10
898.88459523732513
 20
-2024.2377833936089
 10
898.88604071413101
 20
-2024.2367141360357
 42
-0.0130868069043585
 10
899.1843013640962
 20
-2024.0279336674873
 10
899.18586318323469
 20
-2024.026900227215
 42
-0.0290329526396588
 10
899.49697432463222
 20
-2023.8460747255831
 10
899.52681988661732
 20
-2023.830972342744
 42
-0.0160250190046804
 10
899.79272430038282
 20
-2023.7069562325303
 42
-0.0267600374781201
 10
900.06800037785365
 20
-2023.6062079119808
 10
900.09473629737249
 20
-2023.5980153531559
 42
-0.0049981587688922
 10
900.14990944265946
 20
-2023.5817101528437
 42
-0.0049981587688922
  0
LWPOLYLINE
  5
AC
100
AcDbEntity
  8
0
370
              15
390
0
  6
Continuous
 62
               7
100
AcDbPolyline
 90
      118
 70
             128
 10
919.96427700710638
 20
-2032.658095390731
 10
921.83939893160584
 20
-2032.658095390731
 10
921.00136002600595
 20
-2035.3396619171308
 42
-0.0010587229261692
 10
921.03281584148726
 20
-2035.3027573838817
 10
921.09100993220977
 20
-2035.2347751276
 42
-0.0071874740411491
 10
921.24138515029767
 20
-2035.0641344355824
 10
921.38310792357015
 20
-2034.9078982942576
 42
-0.0148118053510136
 10
921.8332372162904
 20
-2034.4402844482372
 10
921.92045955117931
 20
-2034.3548871273963
 42
-0.0086273358693329
 10
922.25600835219302
 20
-2034.0375114933747
 10
922.29984206841709
 20
-2033.9974618490432
 42
-0.010313832311339
 10
922.55786577065248
 20
-2033.7712987117034
 10
922.60364017699203
 20
-2033.7328166644327
 42
-0.0060206748560112
 10
922.77648824109178
 20
-2033.5910220136886
 10
922.77851937198022
 20
-2033.5893963080555
 42
-0.006706902729946
 10
922.95081218664018
 20
-2033.4552456742624
 10
922.95336095256027
 20
-2033.4533155043916
 42
-0.0076184352047047
 10
923.12426621843758
 20
-2033.3279406291433
 42
-0.0089652861672733
 10
923.29922718117768
 20
-2033.208307368807
 10
923.33557890131488
 20
-2033.1843961553291
 42
-0.0156916245934548
 10
923.5315383984771
 20
-2033.0641336688534
 42
-0.0023299011069306
 10
923.73180044242281
 20
-2032.9509557293316
 10
923.74718457483687
 20
-2032.9423557342477
 42
-0.0107669341479701
 10
923.98142139994832
 20
-2032.8179556008931
 10
924.00368620101312
 20
-2032.8067388509482
 42
-0.0078058045901598
 10
924.28727631895299
 20
-2032.6693773953157
 10
924.297183406675
 20
-2032.6647682674413
 42
-0.0181829330472132
 10
924.60749281129142
 20
-2032.5339045263454
 10
924.6615482538482
 20
-2032.5133894064056
 42
-0.0208411536037436
 10
925.01063322130756
 20
-2032.3972989439092
 10
925.02498932144385
 20
-2032.3931804989531
 42
-0.0222799817129166
 10
925.35370911535233
 20
-2032.3145389328154
 10
925.36259807859562
 20
-2032.3128269222291
 42
-0.0215509523883291
 10
925.67906904686902
 20
-2032.265911233696
 10
925.72155100791974
 20
-2032.261473706905
 42
-0.0182545924869225
 10
925.95565978722334
 20
-2032.2456298815143
 10
925.99506080357742
 20
-2032.244405336435
 42
-0.0072962856531299
 10
926.15098368326016
 20
-2032.241836007913
 10
926.18008335383445
 20
-2032.2417811725093
 42
-0.0059227516307778
 10
926.27783285297721
 20
-2032.2427548842995
 10
926.30707507040597
 20
-2032.2433926509018
 42
-0.0011833111924958
 10
926.34632635418154
 20
-2032.2443416552128
 10
925.55093975857437
 20
-2034.7830756003118
 42
0.0143932051496699
 10
925.52453837622306
 20
-2034.7728766302664
 10
925.5172664038065
 20
-2034.7703054114093
 42
0.0234388603508987
 10
925.47543553787204
 20
-2034.7576861756932
 10
925.46675387496168
 20
-2034.7555052136888
 42
0.019916274297663
 10
925.40646504088511
 20
-2034.7428884783544
 10
925.38565110307547
 20
-2034.7393912789253
 42
0.0293643550669802
 10
925.28257624431546
 20
-2034.728241233272
 10
925.25789106359593
 20
-2034.7270296162535
 42
0.021460668686189
 10
925.10475014764938
 20
-2034.7260910558359
 10
925.09537823682558
 20
-2034.7264359673804
 42
0.0167564054178956
 10
924.92385804571381
 20
-2034.7385130097489
 10
924.91539825295808
 20
-2034.7393943501756
 42
0.0137677553248185
 10
924.72804493968738
 20
-2034.7641436587198
 10
924.72069320018568
 20
-2034.765321578687
 42
0.0118497261481246
 10
924.52019543609106
 20
-2034.8023389288746
 10
924.51404542883711
 20
-2034.8036257915962
 42
0.0106421143898185
 10
924.30316454153171
 20
-2034.8524581671761
 10
924.29825573316293
 20
-2034.8537055098561
 42
0.0099746379701867
 10
924.07979726400595
 20
-2034.9138800381693
 10
924.01824922383025
 20
-2034.9321619168015
 42
0.0191613675864538
 10
923.6822647613119
 20
-2035.0461392970897
 10
923.59420498856548
 20
-2035.079826207414
 42
0.0205274080144785
 10
923.20889821666856
 20
-2035.2456546152393
 10
923.15124893468203
 20
-2035.2733225798138
 42
0.0181256912194653
 10
922.89297199401949
 20
-2035.4090063987894
 10
922.84001661070931
 20
-2035.4393240120019
 42
0.0140709242406244
 10
922.6950616760771
 20
-2035.5278186854384
 10
922.66881280745497
 20
-2035.5448755041564
 42
0.0086667884404749
 10
922.57988664591608
 20
-2035.6048781720367
 42
0.003640819204162
 10
922.49245340784819
 20
-2035.667059029854
 10
922.45722653341409
 20
-2035.6924999757418
 42
0.0052260781283409
 10
922.30099783601452
 20
-2035.8078323623827
 10
922.28479097976356
 20
-2035.8200604729943
 42
0.0050024435886344
 10
922.09878763672043
 20
-2035.9633430412441
 10
922.08346948018948
 20
-2035.9753890637023
 42
0.0136138710288885
 10
921.8730282118604
 20
-2036.150355568619
 10
921.83936033607051
 20
-2036.1799345413299
 42
0.0172815186911574
 10
921.57495679441035
 20
-2036.428931213951
 10
921.57239444856555
 20
-2036.4315170311004
 42
0.0189403857988171
 10
921.32181264999076
 20
-2036.7043222958994
 10
921.28918115644683
 20
-2036.7426662274058
 42
0.0185044199507776
 10
921.09722471747034
 20
-2036.9859148085247
 42
0.0088565243900048
 10
920.91876461084416
 20
-2037.2394312286717
 10
920.90958663119341
 20
-2037.2529726084349
 42
0.0157195347234943
 10
920.72636602485568
 20
-2037.5424948177567
 10
920.68028308293219
 20
-2037.6206470147649
 42
0.009545187977895
 10
920.51519753279081
 20
-2037.9132416571279
 10
920.50404961386153
 20
-2037.9339123292591
 42
0.0100351706249662
 10
920.3720058647018
 20
-2038.1909678897507
 42
0.008693591542566
 10
920.2496747129037
 20
-2038.4528010351646
 10
920.24635397149336
 20
-2038.4602433581269
 42
0.0072580174858159
 10
920.12600751955313
 20
-2038.740835349698
 10
920.122745886242
 20
-2038.7487553757278
 42
0.0060005122624175
 10
920.00354521788813
 20
-2039.0483650463625
 10
920.00033423955779
 20
-2039.0567265742377
 42
0.0049017786984363
 10
919.88143408069766
 20
-2039.3756555548493
 10
919.8782682743099
 20
-2039.3844084920725
 42
0.0039415167602213
 10
919.75883199625105
 20
-2039.7229505544919
 10
919.75570089360099
 20
-2039.7320537553617
 42
0.0031035838764047
 10
919.63489610790953
 20
-2040.0904936171307
 10
919.6317860633776
 20
-2040.0999142385101
 42
0.0025070747154092
 10
919.50888471205621
 20
-2040.478561455473
 10
919.47159081563677
 20
-2040.5954531207071
 42
0.0029081910283189
 10
919.27957251782016
 20
-2041.2096167790176
 10
919.238769349309
 20
-2041.3428400212747
 42
0.000926645373219
 10
918.97035197499872
 20
-2042.2250644811834
 10
918.94946450235841
 20
-2042.2941763604181
 42
-0.0005809993665949
 10
918.6721278217625
 20
-2043.2079844670729
 10
918.605846023494
 20
-2043.4254693992182
 42
-0.0012018708170342
 10
918.45886171406028
 20
-2043.9036320637533
 10
918.40654186255665
 20
-2044.0723912044193
 42
-0.0002691059603299
 10
918.36297238132624
 20
-2044.2126588249612
 10
915.530016483037
 20
-2053.3018134272606
 10
913.71202759105847
 20
-2053.3018134272606
 10
919.96427700710638
 20
-2032.658095390731
  0
SPLINE
  5
AD
100
AcDbEntity
  8
0
370
              15
390
0
  6
Continuous
 62
               7
100
AcDbSpline
210
0.0
220
0.0
230
1.0
 70
              13
 71
               2
 72
             782
 73
             779
 74
               0
 42
0.000001
 43
0.000001
 40
0.0
 40
0.0
 40
0.0
 40
1.0
 40
1.0
 40
2.0
 40
2.0
 40
3.0
 40
3.0
 40
4.0
 40
4.0
 40
5.0
 40
5.0
 40
6.0
 40
6.0
 40
7.0
 40
7.0
 40
8.0
 40
8.0
 40
9.0
 40
9.0
 40
10.0
 40
10.0
 40
11.0
 40
11.0
 40
12.0
 40
12.0
 40
13.0
 40
13.0
 40
14.0
 40
14.0
 40
15.0
 40
15.0
 40
16.0
 40
16.0
 40
17.0
 40
17.0
 40
18.0
 40
18.0
 40
19.0
 40
19.0
 40
20.0
 40
20.0
 40
21.0
 40
21.0
 40
22.0
 40
22.0
 40
23.0
 40
23.0
 40
24.0
 40
24.0
 40
25.0
 40
25.0
 40
26.0
 40
26.0
 40
27.0
 40
27.0
 40
28.0
 40
28.0
 40
29.0
 40
29.0
 40
30.0
 40
30.0
 40
31.0
 40
31.0
 40
32.0
 40
32.0
 40
33.0
 40
33.0
 40
34.0
 40
34.0
 40
35.0
 40
35.0
 40
36.0
 40
36.0
 40
37.0
 40
37.0
 40
38.0
 40
38.0
 40
39.0
 40
39.0
 40
40.0
 40
40.0
 40
41.0
 40
41.0
 40
42.0
 40
42.0
 40
43.0
 40
43.0
 40
44.0
 40
44.0
 40
45.0
 40
45.0
 40
46.0
 40
46.0
 40
47.0
 40
47.0
 40
48.0
 40
48.0
 40
49.0
 40
49.0
 40
50.0
 40
50.0
 40
51.0
 40
51.0
 40
52.0
 40
52.0
 40
53.0
 40
53.0
 40
54.0
 40
54.0
 40
55.0
 40
55.0
 40
56.0
 40
56.0
 40
57.0
 40
57.0
 40
58.0
 40
58.0
 40
59.0
 40
59.0
 40
60.0
 40
60.0
 40
61.0
 40
61.0
 40
62.0
 40
62.0
 40
63.0
 40
63.0
 40
64.0
 40
64.0
 40
65.0
 40
65.0
 40
66.0
 40
66.0
 40
67.0
 40
67.0
 40
68.0
 40
68.0
 40
69.0
 40
69.0
 40
70.0
 40
70.0
 40
71.0
 40
71.0
 40
72.0
 40
72.0
 40
73.0
 40
73.0
 40
74.0
 40
74.0
 40
75.0
 40
75.0
 40
76.0
 40
76.0
 40
77.0
 40
77.0
 40
78.0
 40
78.0
 40
79.0
 40
79.0
 40
80.0
 40
80.0
 40
81.0
 40
81.0
 40
82.0
 40
82.0
 40
83.0
 40
83.0
 40
84.0
 40
84.0
 40
85.0
 40
85.0
 40
86.0
 40
86.0
 40
87.0
 40
87.0
 40
88.0
 40
88.0
 40
89.0
 40
89.0
 40
90.0
 40
90.0
 40
91.0
 40
91.0
 40
92.0
 40
92.0
 40
93.0
 40
93.0
 40
94.0
 40
94.0
 40
95.0
 40
95.0
 40
96.0
 40
96.0
 40
97.0
 40
97.0
 40
98.0
 40
98.0
 40
99.0
 40
99.0
 40
100.0
 40
100.0
 40
101.0
 40
101.0
 40
102.0
 40
102.0
 40
103.0
 40
103.0
 40
104.0
 40
104.0
 40
105.0
 40
105.0
 40
106.0
 40
106.0
 40
107.0
 40
107.0
 40
108.0
 40
108.0
 40
109.0
 40
109.0
 40
110.0
 40
110.0
 40
111.0
 40
111.0
 40
112.0
 40
112.0
 40
113.0
 40
113.0
 40
114.0
 40
114.0
 40
115.0
 40
115.0
 40
116.0
 40
116.0
 40
117.0
 40
117.0
 40
118.0
 40
118.0
 40
119.0
 40
119.0
 40
120.0
 40
120.0
 40
121.0
 40
121.0
 40
122.0
 40
122.0
 40
123.0
 40
123.0
 40
124.0
 40
124.0
 40
125.0
 40
125.0
 40
126.0
 40
126.0
 40
127.0
 40
127.0
 40
128.0
 40
128.0
 40
129.0
 40
129.0
 40
130.0
 40
130.0
 40
131.0
 40
131.0
 40
132.0
 40
132.0
 40
133.0
 40
133.0
 40
134.0
 40
134.0
 40
135.0
 40
135.0
 40
136.0
 40
136.0
 40
137.0
 40
137.0
 40
138.0
 40
138.0
 40
139.0
 40
139.0
 40
140.0
 40
140.0
 40
141.0
 40
141.0
 40
142.0
 40
142.0
 40
143.0
 40
143.0
 40
144.0
 40
144.0
 40
145.0
 40
145.0
 40
146.0
 40
146.0
 40
147.0
 40
147.0
 40
148.0
 40
148.0
 40
149.0
 40
149.0
 40
150.0
 40
150.0
 40
151.0
 40
151.0
 40
152.0
 40
152.0
 40
153.0
 40
153.0
 40
154.0
 40
154.0
 40
155.0
 40
155.0
 40
156.0
 40
156.0
 40
157.0
 40
157.0
 40
158.0
 40
158.0
 40
159.0
 40
159.0
 40
160.0
 40
160.0
 40
161.0
 40
161.0
 40
162.0
 40
162.0
 40
163.0
 40
163.0
 40
164.0
 40
164.0
 40
165.0
 40
165.0
 40
166.0
 40
166.0
 40
167.0
 40
167.0
 40
168.0
 40
168.0
 40
169.0
 40
169.0
 40
170.0
 40
170.0
 40
171.0
 40
171.0
 40
172.0
 40
172.0
 40
173.0
 40
173.0
 40
174.0
 40
174.0
 40
175.0
 40
175.0
 40
176.0
 40
176.0
 40
177.0
 40
177.0
 40
178.0
 40
178.0
 40
179.0
 40
179.0
 40
180.0
 40
180.0
 40
181.0
 40
181.0
 40
182.0
 40
182.0
 40
183.0
 40
183.0
 40
184.0
 40
184.0
 40
185.0
 40
185.0
 40
186.0
 40
186.0
 40
187.0
 40
187.0
 40
188.0
 40
188.0
 40
189.0
 40
189.0
 40
190.0
 40
190.0
 40
191.0
 40
191.0
 40
192.0
 40
192.0
 40
193.0
 40
193.0
 40
194.0
 40
194.0
 40
195.0
 40
195.0
 40
196.0
 40
196.0
 40
197.0
 40
197.0
 40
198.0
 40
198.0
 40
199.0
 40
199.0
 40
200.0
 40
200.0
 40
201.0
 40
201.0
 40
202.0
 40
202.0
 40
203.0
 40
203.0
 40
204.0
 40
204.0
 40
205.0
 40
205.0
 40
206.0
 40
206.0
 40
207.0
 40
207.0
 40
208.0
 40
208.0
 40
209.0
 40
209.0
 40
210.0
 40
210.0
 40
211.0
 40
211.0
 40
212.0
 40
212.0
 40
213.0
 40
213.0
 40
214.0
 40
214.0
 40
215.0
 40
215.0
 40
216.0
 40
216.0
 40
217.0
 40
217.0
 40
218.0
 40
218.0
 40
219.0
 40
219.0
 40
220.0
 40
220.0
 40
221.0
 40
221.0
 40
222.0
 40
222.0
 40
223.0
 40
223.0
 40
224.0
 40
224.0
 40
225.0
 40
225.0
 40
226.0
 40
226.0
 40
227.0
 40
227.0
 40
228.0
 40
228.0
 40
229.0
 40
229.0
 40
230.0
 40
230.0
 40
231.0
 40
231.0
 40
232.0
 40
232.0
 40
233.0
 40
233.0
 40
234.0
 40
234.0
 40
235.0
 40
235.0
 40
236.0
 40
236.0
 40
237.0
 40
237.0
 40
238.0
 40
238.0
 40
239.0
 40
239.0
 40
240.0
 40
240.0
 40
241.0
 40
241.0
 40
242.0
 40
242.0
 40
243.0
 40
243.0
 40
244.0
 40
244.0
 40
245.0
 40
245.0
 40
246.0
 40
246.0
 40
247.0
 40
247.0
 40
248.0
 40
248.0
 40
249.0
 40
249.0
 40
250.0
 40
250.0
 40
251.0
 40
251.0
 40
252.0
 40
252.0
 40
253.0
 40
253.0
 40
254.0
 40
254.0
 40
255.0
 40
255.0
 40
256.0
 40
256.0
 40
257.0
 40
257.0
 40
258.0
 40
258.0
 40
259.0
 40
259.0
 40
260.0
 40
260.0
 40
261.0
 40
261.0
 40
262.0
 40
262.0
 40
263.0
 40
263.0
 40
264.0
 40
264.0
 40
265.0
 40
265.0
 40
266.0
 40
266.0
 40
267.0
 40
267.0
 40
268.0
 40
268.0
 40
269.0
 40
269.0
 40
270.0
 40
270.0
 40
271.0
 40
271.0
 40
272.0
 40
272.0
 40
273.0
 40
273.0
 40
274.0
 40
274.0
 40
275.0
 40
275.0
 40
276.0
 40
276.0
 40
277.0
 40
277.0
 40
278.0
 40
278.0
 40
279.0
 40
279.0
 40
280.0
 40
280.0
 40
281.0
 40
281.0
 40
282.0
 40
282.0
 40
283.0
 40
283.0
 40
284.0
 40
284.0
 40
285.0
 40
285.0
 40
286.0
 40
286.0
 40
287.0
 40
287.0
 40
288.0
 40
288.0
 40
289.0
 40
289.0
 40
290.0
 40
290.0
 40
291.0
 40
291.0
 40
292.0
 40
292.0
 40
293.0
 40
293.0
 40
294.0
 40
294.0
 40
295.0
 40
295.0
 40
296.0
 40
296.0
 40
297.0
 40
297.0
 40
298.0
 40
298.0
 40
299.0
 40
299.0
 40
300.0
 40
300.0
 40
301.0
 40
301.0
 40
302.0
 40
302.0
 40
303.0
 40
303.0
 40
304.0
 40
304.0
 40
305.0
 40
305.0
 40
306.0
 40
306.0
 40
307.0
 40
307.0
 40
308.0
 40
308.0
 40
309.0
 40
309.0
 40
310.0
 40
310.0
 40
311.0
 40
311.0
 40
312.0
 40
312.0
 40
313.0
 40
313.0
 40
314.0
 40
314.0
 40
315.0
 40
315.0
 40
316.0
 40
316.0
 40
317.0
 40
317.0
 40
318.0
 40
318.0
 40
319.0
 40
319.0
 40
320.0
 40
320.0
 40
321.0
 40
321.0
 40
322.0
 40
322.0
 40
323.0
 40
323.0
 40
324.0
 40
324.0
 40
325.0
 40
325.0
 40
326.0
 40
326.0
 40
327.0
 40
327.0
 40
328.0
 40
328.0
 40
329.0
 40
329.0
 40
330.0
 40
330.0
 40
331.0
 40
331.0
 40
332.0
 40
332.0
 40
333.0
 40
333.0
 40
334.0
 40
334.0
 40
335.0
 40
335.0
 40
336.0
 40
336.0
 40
337.0
 40
337.0
 40
338.0
 40
338.0
 40
339.0
 40
339.0
 40
340.0
 40
340.0
 40
341.0
 40
341.0
 40
342.0
 40
342.0
 40
343.0
 40
343.0
 40
344.0
 40
344.0
 40
345.0
 40
345.0
 40
346.0
 40
346.0
 40
347.0
 40
347.0
 40
348.0
 40
348.0
 40
349.0
 40
349.0
 40
350.0
 40
350.0
 40
351.0
 40
351.0
 40
352.0
 40
352.0
 40
353.0
 40
353.0
 40
354.0
 40
354.0
 40
355.0
 40
355.0
 40
356.0
 40
356.0
 40
357.0
 40
357.0
 40
358.0
 40
358.0
 40
359.0
 40
359.0
 40
360.0
 40
360.0
 40
361.0
 40
361.0
 40
362.0
 40
362.0
 40
363.0
 40
363.0
 40
364.0
 40
364.0
 40
365.0
 40
365.0
 40
366.0
 40
366.0
 40
367.0
 40
367.0
 40
368.0
 40
368.0
 40
369.0
 40
369.0
 40
370.0
 40
370.0
 40
371.0
 40
371.0
 40
372.0
 40
372.0
 40
373.0
 40
373.0
 40
374.0
 40
374.0
 40
375.0
 40
375.0
 40
376.0
 40
376.0
 40
377.0
 40
377.0
 40
378.0
 40
378.0
 40
379.0
 40
379.0
 40
380.0
 40
380.0
 40
381.0
 40
381.0
 40
382.0
 40
382.0
 40
383.0
 40
383.0
 40
384.0
 40
384.0
 40
385.0
 40
385.0
 40
386.0
 40
386.0
 40
387.0
 40
387.0
 40
388.0
 40
388.0
 40
389.0
 40
389.0
 40
389.0
 10
930.29298145783901
 20
-2032.6471690273684
 30
0.0
 41
1.0
 10
931.11140556655948
 20
-2032.6471690273684
 30
0.0
 41
1.0
 10
931.92982967527996
 20
-2032.6471690273684
 30
0.0
 41
1.0
 10
931.51607593976314
 20
-2033.9897952916181
 30
0.0
 41
1.0
 10
931.10232220424643
 20
-2035.3324215558678
 30
0.0
 41
1.0
 10
931.12066169940465
 20
-2035.3037207829716
 30
0.0
 41
0.9999957264324972
 10
931.13916869622665
 20
-2035.2751277328346
 30
0.0
 41
1.0
 10
931.16959802037309
 20
-2035.2281148544444
 30
0.0
 41
1.0
 10
931.20002734451964
 20
-2035.1811019760542
 30
0.0
 41
1.0
 10
931.27939298962565
 20
-2035.0584831691508
 30
0.0
 41
0.9995394069080797
 10
931.36605138117977
 20
-2034.9409051074063
 30
0.0
 41
1.0
 10
931.40180824343986
 20
-2034.8923902148126
 30
0.0
 41
1.0
 10
931.43756510569995
 20
-2034.8438753222188
 30
0.0
 41
1.0
 10
931.57129177351658
 20
-2034.6624350470938
 30
0.0
 41
0.9994460617143269
 10
931.71679225480341
 20
-2034.4902926494456
 30
0.0
 41
1.0
 10
931.72118043577871
 20
-2034.4851009690626
 30
0.0
 41
1.0
 10
931.725568616754
 20
-2034.4799092886797
 30
0.0
 41
1.0
 10
931.86229273609263
 20
-2034.3181502517946
 30
0.0
 41
0.9994359394934734
 10
932.00956696644266
 20
-2034.1659340506312
 30
0.0
 41
1.0
 10
932.01195032039391
 20
-2034.1634707202602
 30
0.0
 41
1.0
 10
932.01433367434515
 20
-2034.1610073898892
 30
0.0
 41
1.0
 10
932.15684119679213
 20
-2034.0137178494683
 30
0.0
 41
0.9995293688567853
 10
932.30811287777635
 20
-2033.8754446373025
 30
0.0
 41
1.0
 10
932.32740663704362
 20
-2033.8578087516478
 30
0.0
 41
1.0
 10
932.34670039631078
 20
-2033.8401728659931
 30
0.0
 41
1.0
 10
932.45938455876342
 20
-2033.7371714251344
 30
0.0
 41
0.9997087614803618
 10
932.57690744771344
 20
-2033.6397271443407
 30
0.0
 41
1.0
 10
932.59607352090575
 20
-2033.6238355658188
 30
0.0
 41
1.0
 10
932.61523959409806
 20
-2033.6079439872969
 30
0.0
 41
1.0
 10
932.69443033668585
 20
-2033.542282863529
 30
0.0
 41
0.999959533869649
 10
932.77478960752364
 20
-2033.4780571328877
 30
0.0
 41
1.0
 10
932.85514887838167
 20
-2033.4138314022305
 30
0.0
 41
0.9999749417501977
 10
932.93640941272952
 20
-2033.3507498482807
 30
0.0
 41
1.0
 10
932.957395558896
 20
-2033.3344585609759
 30
0.0
 41
1.0
 10
932.97838170506247
 20
-2033.3181672736712
 30
0.0
 41
1.0
 10
933.06294959035745
 20
-2033.2525182638356
 30
0.0
 41
0.999979203711693
 10
933.14835719012467
 20
-2033.1879654821937
 30
0.0
 41
1.0
 10
933.16918201609292
 20
-2033.1722256598932
 30
0.0
 41
1.0
 10
933.19000684206128
 20
-2033.1564858375925
 30
0.0
 41
1.0
 10
933.23376478994794
 20
-2033.1234127005096
 30
0.0
 41
0.9999993374148544
 10
933.27744647603743
 20
-2033.0902389051262
 30
0.0
 41
1.0
 10
933.32112816218148
 20
-2033.0570651097016
 30
0.0
 41
0.9999160953817903
 10
933.36565457310644
 20
-2033.0250340444995
 30
0.0
 41
1.0
 10
933.39847646052283
 20
-2033.0014228889167
 30
0.0
 41
1.0
 10
933.43129834793922
 20
-2032.977811733334
 30
0.0
 41
1.0
 10
933.54146853369866
 20
-2032.8985583569654
 30
0.0
 41
0.9980964527232
 10
933.66055752720035
 20
-2032.8334708841089
 30
0.0
 41
1.0
 10
933.69759013412818
 20
-2032.8132309045159
 30
0.0
 41
1.0
 10
933.73462274105589
 20
-2032.7929909249231
 30
0.0
 41
1.0
 10
933.91394975432786
 20
-2032.6949806742227
 30
0.0
 41
0.9984572810573221
 10
934.10303832068644
 20
-2032.6174584128762
 30
0.0
 41
1.0
 10
934.10668459008207
 20
-2032.6159635205383
 30
0.0
 41
1.0
 10
934.1103308594777
 20
-2032.6144686282005
 30
0.0
 41
1.0
 10
934.29212688704524
 20
-2032.5399361515297
 30
0.0
 41
0.9987838528034068
 10
934.48037954560459
 20
-2032.4836705113639
 30
0.0
 41
1.0
 10
934.4846174948035
 20
-2032.4824038576735
 30
0.0
 41
1.0
 10
934.48885544400241
 20
-2032.4811372039833
 30
0.0
 41
1.0
 10
934.66863220416417
 20
-2032.4274048711982
 30
0.0
 41
0.9990652816207297
 10
934.85237813587969
 20
-2032.3894011916561
 30
0.0
 41
1.0
 10
934.85756653690987
 20
-2032.3883280885498
 30
0.0
 41
1.0
 10
934.86275493794005
 20
-2032.3872549854436
 30
0.0
 41
1.0
 10
935.0361240675943
 20
-2032.3513975121143
 30
0.0
 41
0.9992909934270207
 10
935.21169983405389
 20
-2032.3286870796476
 30
0.0
 41
1.0
 10
935.38727560051655
 20
-2032.3059766471808
 30
0.0
 41
0.9994553539448723
 10
935.56396703361395
 20
-2032.2948973429743
 30
0.0
 41
1.0
 10
935.59940144140512
 20
-2032.2926754549267
 30
0.0
 41
1.0
 10
935.63483584919629
 20
-2032.2904535668793
 30
0.0
 41
1.0
 10
935.801061615766
 20
-2032.2800305044675
 30
0.0
 41
0.9990928098293105
 10
935.96757140766863
 20
-2032.2837901457021
 30
0.0
 41
1.0
 10
936.00613324294045
 20
-2032.2846608372352
 30
0.0
 41
1.0
 10
936.04469507821238
 20
-2032.2855315287682
 30
0.0
 41
1.0
 10
936.13408119957126
 20
-2032.2875497869368
 30
0.0
 41
0.9998382089205001
 10
936.22333688235756
 20
-2032.2927819134648
 30
0.0
 41
1.0
 10
936.2237667885762
 20
-2032.292807114367
 30
0.0
 41
1.0
 10
936.22419669479484
 20
-2032.2928323152692
 30
0.0
 41
1.0
 10
936.31259256514238
 20
-2032.2980140399925
 30
0.0
 41
0.9997558016758171
 10
936.40067314234454
 20
-2032.3070965553593
 30
0.0
 41
1.0
 10
936.40114928077446
 20
-2032.3071456528419
 30
0.0
 41
1.0
 10
936.40162541920449
 20
-2032.3071947503245
 30
0.0
 41
1.0
 10
936.48875371954568
 20
-2032.3161790707259
 30
0.0
 41
0.9996565144181898
 10
936.57529157288741
 20
-2032.3297163774148
 30
0.0
 41
1.0
 10
936.57575749826412
 20
-2032.329789263146
 30
0.0
 41
1.0
 10
936.57622342364084
 20
-2032.3298621488773
 30
0.0
 41
1.0
 10
936.66182942622868
 20
-2032.3432536841035
 30
0.0
 41
0.9995321806866994
 10
936.74645650655748
 20
-2032.361854172533
 30
0.0
 41
1.0
 10
936.74684570112868
 20
-2032.3619397149987
 30
0.0
 41
1.0
 10
936.74723489569976
 20
-2032.3620252574644
 30
0.0
 41
1.0
 10
936.8310835868848
 20
-2032.380454660962
 30
0.0
 41
0.9993819199218997
 10
936.91343012108166
 20
-2032.404730044223
 30
0.0
 41
1.0
 10
936.91366855457932
 20
-2032.4048003333323
 30
0.0
 41
1.0
 10
936.91390698807697
 20
-2032.4048706224414
 30
0.0
 41
1.0
 10
936.99577665527693
 20
-2032.4290054274834
 30
0.0
 41
0.9992088568506151
 10
937.07546917426612
 20
-2032.4595706632781
 30
0.0
 41
1.0
 10
937.15515016514507
 20
-2032.490130264011
 30
0.0
 41
0.9990226101772065
 10
937.2318208350523
 20
-2032.5276076956259
 30
0.0
 41
1.0
 10
937.30847997684998
 20
-2032.5650794921792
 30
0.0
 41
0.9988424273972658
 10
937.38118360406077
 20
-2032.6097442674311
 30
0.0
 41
1.0
 10
937.38145131244107
 20
-2032.6099087315038
 30
0.0
 41
1.0
 10
937.38171902082138
 20
-2032.6100731955767
 30
0.0
 41
1.0
 10
937.454958064793
 20
-2032.6550668989744
 30
0.0
 41
0.9986928844490928
 10
937.52322093150372
 20
-2032.7073026332548
 30
0.0
 41
1.0
 10
937.52380222372562
 20
-2032.7077474464822
 30
0.0
 41
1.0
 10
937.52438351594765
 20
-2032.7081922597094
 30
0.0
 41
1.0
 10
937.59380896710377
 20
-2032.7613176204459
 30
0.0
 41
0.9986007262279446
 10
937.6572351368701
 20
-2032.821478390139
 30
0.0
 41
1.0
 10
937.65812955232707
 20
-2032.8223267579738
 30
0.0
 41
1.0
 10
937.65902396778404
 20
-2032.8231751258086
 30
0.0
 41
1.0
 10
937.72423896846544
 20
-2032.8850326311726
 30
0.0
 41
0.9985581491381582
 10
937.7824465801674
 20
-2032.9535251214445
 30
0.0
 41
1.0
 10
937.79170503376304
 20
-2032.9644194791458
 30
0.0
 41
1.0
 10
937.80096348735856
 20
-2032.9753138368474
 30
0.0
 41
1.0
 10
937.87768800625179
 20
-2033.0655950425228
 30
0.0
 41
0.9970460233521753
 10
937.93967990741135
 20
-2033.1665621267043
 30
0.0
 41
1.0
 10
937.95414927249067
 20
-2033.1901285857853
 30
0.0
 41
1.0
 10
937.96861863756988
 20
-2033.213695044866
 30
0.0
 41
1.0
 10
938.00835533758243
 20
-2033.2784147688981
 30
0.0
 41
0.998846881663623
 10
938.04170170833402
 20
-2033.3466472213258
 30
0.0
 41
1.0
 10
938.04873773082488
 20
-2033.3610441424621
 30
0.0
 41
1.0
 10
938.05577375331575
 20
-2033.3754410635981
 30
0.0
 41
1.0
 10
938.07504807908606
 20
-2033.4148796737543
 30
0.0
 41
0.9998431189999021
 10
938.09291340658046
 20
-2033.4549762281943
 30
0.0
 41
1.0
 10
938.11077873407748
 20
-2033.4950727826395
 30
0.0
 41
0.9999989989834149
 10
938.12875745747567
 20
-2033.5351186201704
 30
0.0
 41
1.0
 10
938.13492976908083
 20
-2033.5488668370072
 30
0.0
 41
1.0
 10
938.14110208068598
 20
-2033.5626150538442
 30
0.0
 41
1.0
 10
938.17142542729573
 20
-2033.6301573250516
 30
0.0
 41
0.9998790356321258
 10
938.19963330743053
 20
-2033.6986100769814
 30
0.0
 41
1.0
 10
938.20646848871706
 20
-2033.7151971784142
 30
0.0
 41
1.0
 10
938.21330367000371
 20
-2033.7317842798473
 30
0.0
 41
1.0
 10
938.23686133238357
 20
-2033.7889522347318
 30
0.0
 41
0.9998227574560544
 10
938.25825008077265
 20
-2033.8469665430082
 30
0.0
 41
1.0
 10
938.27963882916208
 20
-2033.9049808512855
 30
0.0
 41
0.9996797971041016
 10
938.29806511412096
 20
-2033.9640029704028
 30
0.0
 41
1.0
 10
938.30196891684659
 20
-2033.9765074285722
 30
0.0
 41
1.0
 10
938.30587271957233
 20
-2033.9890118867415
 30
0.0
 41
1.0
 10
938.3321066099827
 20
-2034.0730429221985
 30
0.0
 41
0.997927493873518
 10
938.34733113346181
 20
-2034.159747280858
 30
0.0
 41
1.0
 10
938.3495548207228
 20
-2034.1724112816783
 30
0.0
 41
1.0
 10
938.35177850798379
 20
-2034.1850752824982
 30
0.0
 41
1.0
 10
938.36270844768194
 20
-2034.2473217897875
 30
0.0
 41
0.9994985982137712
 10
938.36967661285939
 20
-2034.3101352909325
 30
0.0
 41
1.0
 10
938.37664477803605
 20
-2034.3729487920716
 30
0.0
 41
0.9996372611201894
 10
938.38022064380391
 20
-2034.4360463707558
 30
0.0
 41
1.0
 10
938.38038922129329
 20
-2034.4390209878384
 30
0.0
 41
1.0
 10
938.38055779878266
 20
-2034.441995604921
 30
0.0
 41
1.0
 10
938.38447081952893
 20
-2034.5110424177628
 30
0.0
 41
0.9997730630735309
 10
938.38543913301714
 20
-2034.5801932417978
 30
0.0
 41
1.0
 10
938.38549623943527
 20
-2034.5842714209414
 30
0.0
 41
1.0
 10
938.3855533458534
 20
-2034.5883496000849
 30
0.0
 41
1.0
 10
938.38663587217752
 20
-2034.6656567824066
 30
0.0
 41
0.9998772614069503
 10
938.38529578544592
 20
-2034.7429599289674
 30
0.0
 41
1.0
 10
938.38520652224724
 20
-2034.7481090928022
 30
0.0
 41
1.0
 10
938.38511725904846
 20
-2034.7532582566371
 30
0.0
 41
1.0
 10
938.38359864591939
 20
-2034.8408597308662
 30
0.0
 41
0.9999415567327455
 10
938.38018633567367
 20
-2034.9284078925359
 30
0.0
 41
1.0
 10
938.37994501499816
 20
-2034.9345993522784
 30
0.0
 41
1.0
 10
938.37970369432264
 20
-2034.9407908120211
 30
0.0
 41
1.0
 10
938.37580874272624
 20
-2035.0407218931655
 30
0.0
 41
0.9999716810429769
 10
938.37041015960892
 20
-2035.1405830313718
 30
0.0
 41
1.0
 10
938.36719736081989
 20
-2035.2000122810337
 30
0.0
 41
1.0
 10
938.36398456203085
 20
-2035.2594415306955
 30
0.0
 41
1.0
 10
938.35591065287838
 20
-2035.4087899319759
 30
0.0
 41
0.9999819129902872
 10
938.34604086126069
 20
-2035.5580304097066
 30
0.0
 41
1.0
 10
938.33617106964402
 20
-2035.707270887418
 30
0.0
 41
1.0
 10
938.33373174908013
 20
-2035.7444639332675
 30
0.0
 41
1.0
 10
938.35642998295566
 20
-2035.7057229358625
 30
0.0
 41
0.9999982128145968
 10
938.37927454176395
 20
-2035.6670680418147
 30
0.0
 41
1.0
 10
938.40618410160005
 20
-2035.621534827842
 30
0.0
 41
1.0
 10
938.43309366143626
 20
-2035.5760016138693
 30
0.0
 41
1.0
 10
938.50975733996324
 20
-2035.4462802917978
 30
0.0
 41
0.9998609190057185
 10
938.59070465282423
 20
-2035.3191879098697
 30
0.0
 41
1.0
 10
938.62035297430918
 20
-2035.2726381769075
 30
0.0
 41
1.0
 10
938.65000129579414
 20
-2035.2260884439452
 30
0.0
 41
1.0
 10
938.73227351603043
 20
-2035.096915873952
 30
0.0
 41
0.999906760973345
 10
938.81804252548841
 20
-2034.9700381845196
 30
0.0
 41
1.0
 10
938.82044722869034
 20
-2034.9664809184633
 30
0.0
 41
1.0
 10
938.82285193189227
 20
-2034.962923652407
 30
0.0
 41
1.0
 10
938.90381153495287
 20
-2034.8431604950777
 30
0.0
 41
0.9998784952147345
 10
938.98846514463389
 20
-2034.7259792783696
 30
0.0
 41
1.0
 10
939.07311875431515
 20
-2034.608798061661
 30
0.0
 41
0.9998532968283082
 10
939.16173637513441
 20
-2034.4945851531952
 30
0.0
 41
1.0
 10
939.18169816412728
 20
-2034.4688578321729
 30
0.0
 41
1.0
 10
939.20165995312004
 20
-2034.4431305111505
 30
0.0
 41
1.0
 10
939.32014400287892
 20
-2034.290424900182
 30
0.0
 41
0.9991551975795212
 10
939.45076845250242
 20
-2034.1479653380982
 30
0.0
 41
1.0
 10
939.45427806848193
 20
-2034.144137736474
 30
0.0
 41
1.0
 10
939.45778768446144
 20
-2034.1403101348501
 30
0.0
 41
1.0
 10
939.58139290212557
 20
-2034.0055057760151
 30
0.0
 41
0.9997418144180598
 10
939.71099504182666
 20
-2033.8764563654022
 30
0.0
 41
1.0
 10
939.84059718152787
 20
-2033.7474069547891
 30
0.0
 41
0.9989238204633114
 10
939.98159972977942
 20
-2033.6309219927498
 30
0.0
 41
1.0
 10
940.02684740791597
 20
-2033.5935420011433
 30
0.0
 41
1.0
 10
940.07209508605263
 20
-2033.556162009537
 30
0.0
 41
1.0
 10
940.21233514327628
 20
-2033.4403069562438
 30
0.0
 41
0.9990825084095963
 10
940.3619750758827
 20
-2033.3368779584093
 30
0.0
 41
1.0
 10
940.37202043994273
 20
-2033.3299347453276
 30
0.0
 41
1.0
 10
940.38206580400276
 20
-2033.3229915322461
 30
0.0
 41
1.0
 10
940.51161500848843
 20
-2033.2334489605753
 30
0.0
 41
0.99981648998273
 10
940.64449921186292
 20
-2033.14893471906
 30
0.0
 41
1.0
 10
940.65634477238746
 20
-2033.1414009525352
 30
0.0
 41
1.0
 10
940.6681903329121
 20
-2033.1338671860103
 30
0.0
 41
1.0
 10
940.77738341523684
 20
-2033.0644204775447
 30
0.0
 41
0.9997473449130344
 10
940.88958737248868
 20
-2032.9999515197278
 30
0.0
 41
1.0
 10
941.00179132973699
 20
-2032.9354825619127
 30
0.0
 41
0.9999327861148043
 10
941.11545994050039
 20
-2032.8736325702312
 30
0.0
 41
1.0
 10
941.11601194306172
 20
-2032.8733322115518
 30
0.0
 41
1.0
 10
941.11656394562294
 20
-2032.8730318528724
 30
0.0
 41
1.0
 10
941.23133656151253
 20
-2032.8105811438304
 30
0.0
 41
0.9996956420483826
 10
941.34904988735718
 20
-2032.7538676768536
 30
0.0
 41
1.0
 10
941.37949029224342
 20
-2032.7392017001266
 30
0.0
 41
1.0
 10
941.40993069712965
 20
-2032.7245357233999
 30
0.0
 41
1.0
 10
941.5129078038741
 20
-2032.674922064956
 30
0.0
 41
0.9998070570178
 10
941.61775419281821
 20
-2032.6293914780535
 30
0.0
 41
1.0
 10
941.72260058175721
 20
-2032.5838608911531
 30
0.0
 41
0.9997827436148162
 10
941.82925351836502
 20
-2032.5427397198421
 30
0.0
 41
1.0
 10
941.84847636799839
 20
-2032.5353281462089
 30
0.0
 41
1.0
 10
941.86769921763175
 20
-2032.5279165725758
 30
0.0
 41
1.0
 10
942.01279785350653
 20
-2032.4719722539985
 30
0.0
 41
0.9988031841976869
 10
942.16266821611316
 20
-2032.4304721898304
 30
0.0
 41
1.0
 10
942.18758546447361
 20
-2032.4235724440243
 30
0.0
 41
1.0
 10
942.21250271283395
 20
-2032.4166726982182
 30
0.0
 41
1.0
 10
942.37977273848173
 20
-2032.3703545558112
 30
0.0
 41
0.9984748040549756
 10
942.5511296471318
 20
-2032.3427603235461
 30
0.0
 41
1.0
 10
942.55586878338181
 20
-2032.3419971630324
 30
0.0
 41
1.0
 10
942.56060791963171
 20
-2032.3412340025188
 30
0.0
 41
1.0
 10
942.72248655578198
 20
-2032.3151660912813
 30
0.0
 41
0.9984436495480391
 10
942.88626129950558
 20
-2032.3072881374626
 30
0.0
 41
1.0
 10
942.90795850763857
 20
-2032.306244450263
 30
0.0
 41
1.0
 10
942.92965571577145
 20
-2032.3052007630631
 30
0.0
 41
1.0
 10
943.05003604323178
 20
-2032.2994101836439
 30
0.0
 41
0.9987954789335656
 10
943.17040428814005
 20
-2032.3054467113861
 30
0.0
 41
1.0
 10
943.19036908063617
 20
-2032.3064479557247
 30
0.0
 41
1.0
 10
943.21033387313219
 20
-2032.3074492000635
 30
0.0
 41
1.0
 10
943.29077253305172
 20
-2032.3114832391286
 30
0.0
 41
0.9997941595878011
 10
943.37098131114431
 20
-2032.3187773050495
 30
0.0
 41
1.0
 10
943.45119008923893
 20
-2032.3260713709706
 30
0.0
 41
0.9998589466239065
 10
943.53110863609368
 20
-2032.3360552254208
 30
0.0
 41
1.0
 10
943.56351483790195
 20
-2032.3401035823399
 30
0.0
 41
1.0
 10
943.59592103971022
 20
-2032.3441519392591
 30
0.0
 41
1.0
 10
943.74065199017991
 20
-2032.3622325075473
 30
0.0
 41
0.9993495063249018
 10
943.88370323394406
 20
-2032.3906982172884
 30
0.0
 41
1.0
 10
943.9166369310974
 20
-2032.3972516805034
 30
0.0
 41
1.0
 10
943.94957062825085
 20
-2032.4038051437185
 30
0.0
 41
1.0
 10
944.05886445145529
 20
-2032.4255534778538
 30
0.0
 41
0.9996788715561086
 10
944.16691602341234
 20
-2032.4528112772171
 30
0.0
 41
1.0
 10
944.16897902595167
 20
-2032.4533317037901
 30
0.0
 41
1.0
 10
944.171042028491
 20
-2032.4538521303632
 30
0.0
 41
1.0
 10
944.27496759536973
 20
-2032.4800690765805
 30
0.0
 41
0.99954806544928
 10
944.37712983059816
 20
-2032.5124840332046
 30
0.0
 41
1.0
 10
944.3788194727299
 20
-2032.5130201381194
 30
0.0
 41
1.0
 10
944.38050911486152
 20
-2032.5135562430341
 30
0.0
 41
1.0
 10
944.47929206583024
 20
-2032.54489898983
 30
0.0
 41
0.9993867959456482
 10
944.57563922427016
 20
-2032.5830783591189
 30
0.0
 41
1.0
 10
944.57688217335453
 20
-2032.5835709010148
 30
0.0
 41
1.0
 10
944.57812512243902
 20
-2032.584063442911
 30
0.0
 41
1.0
 10
944.67198638271191
 20
-2032.6212577284082
 30
0.0
 41
0.9992050256521901
 10
944.76258605774603
 20
-2032.6658116276474
 30
0.0
 41
1.0
 10
944.76332074045888
 20
-2032.6661729201082
 30
0.0
 41
1.0
 10
944.76405542317173
 20
-2032.6665342125693
 30
0.0
 41
1.0
 10
944.85318573278005
 20
-2032.7103655268866
 30
0.0
 41
0.9990222350742314
 10
944.93809579417302
 20
-2032.7618987945843
 30
0.0
 41
1.0
 10
944.93827967945708
 20
-2032.76201039749
 30
0.0
 41
1.0
 10
944.93846356474114
 20
-2032.7621220003957
 30
0.0
 41
1.0
 10
945.02300585556827
 20
-2032.8134320622837
 30
0.0
 41
0.9988642743805619
 10
945.1022803901858
 20
-2032.8725562498078
 30
0.0
 41
1.0
 10
945.18155492480435
 20
-2032.9316804373327
 30
0.0
 41
0.9987681233310566
 10
945.25457870908008
 20
-2032.9983711287332
 30
0.0
 41
1.0
 10
945.25490763704624
 20
-2032.9986715299478
 30
0.0
 41
1.0
 10
945.25523656501241
 20
-2032.9989719311623
 30
0.0
 41
1.0
 10
945.32891820522082
 20
-2033.0662634249923
 30
0.0
 41
0.9987496570899005
 10
945.39551201054758
 20
-2033.1405762390784
 30
0.0
 41
1.0
 10
945.39628418030793
 20
-2033.1414379124362
 30
0.0
 41
1.0
 10
945.3970563500684
 20
-2033.142299585794
 30
0.0
 41
1.0
 10
945.46519449491711
 20
-2033.2183357465972
 30
0.0
 41
0.9988147669826567
 10
945.5256167491417
 20
-2033.3006367534394
 30
0.0
 41
1.0
 10
945.52673607521933
 20
-2033.3021613847918
 30
0.0
 41
1.0
 10
945.52785540129685
 20
-2033.303686016144
 30
0.0
 41
1.0
 10
945.59051630767715
 20
-2033.3890362856912
 30
0.0
 41
0.9989452636215697
 10
945.64508322063955
 20
-2033.4797749748507
 30
0.0
 41
1.0
 10
945.64643194672476
 20
-2033.4820177558761
 30
0.0
 41
1.0
 10
945.64778067280997
 20
-2033.4842605369015
 30
0.0
 41
1.0
 10
945.70504503794223
 20
-2033.5794847881109
 30
0.0
 41
0.9991046436070503
 10
945.75405425126348
 20
-2033.6792092211354
 30
0.0
 41
1.0
 10
945.75551811285391
 20
-2033.6821879012086
 30
0.0
 41
1.0
 10
945.75698197444433
 20
-2033.6851665812821
 30
0.0
 41
1.0
 10
945.80891891094677
 20
-2033.7908483744548
 30
0.0
 41
0.9992763831101363
 10
945.85267203950161
 20
-2033.9001724364102
 30
0.0
 41
1.0
 10
945.85415130916465
 20
-2033.903868623943
 30
0.0
 41
1.0
 10
945.85563057882769
 20
-2033.9075648114758
 30
0.0
 41
1.0
 10
945.90234224670917
 20
-2034.0242812484983
 30
0.0
 41
0.9994163472883477
 10
945.94097527789859
 20
-2034.1439148369611
 30
0.0
 41
1.0
 10
945.94221343014544
 20
-2034.1477489807442
 30
0.0
 41
1.0
 10
945.9434515823923
 20
-2034.1515831245272
 30
0.0
 41
1.0
 10
945.9833351434105
 20
-2034.2750891860085
 30
0.0
 41
0.9997268055890378
 10
946.01740319932208
 20
-2034.4003242179576
 30
0.0
 41
1.0
 10
946.0183333795917
 20
-2034.4037435840664
 30
0.0
 41
1.0
 10
946.0192635598612
 20
-2034.4071629501752
 30
0.0
 41
1.0
 10
946.05147125523376
 20
-2034.5255592499077
 30
0.0
 41
0.9996701319000549
 10
946.07755687200461
 20
-2034.6454532031717
 30
0.0
 41
1.0
 10
946.10364248877454
 20
-2034.7653471564311
 30
0.0
 41
0.9995785451108896
 10
946.1227260661143
 20
-2034.8865529174632
 30
0.0
 41
1.0
 10
946.12694584828807
 20
-2034.9133540722287
 30
0.0
 41
1.0
 10
946.13116563046185
 20
-2034.940155226994
 30
0.0
 41
1.0
 10
946.15774060640081
 20
-2035.1089412006977
 30
0.0
 41
0.9979925101215905
 10
946.16276619232713
 20
-2035.2797325287913
 30
0.0
 41
1.0
 10
946.16359100475177
 20
-2035.3077632522718
 30
0.0
 41
1.0
 10
946.1644158171764
 20
-2035.335793975752
 30
0.0
 41
1.0
 10
946.16779177825356
 20
-2035.4505238568815
 30
0.0
 41
0.9995314902262814
 10
946.16414158611497
 20
-2035.5652453406351
 30
0.0
 41
1.0
 10
946.16049139397649
 20
-2035.6799668243855
 30
0.0
 41
0.999624548694403
 10
946.15056229884567
 20
-2035.7943160955092
 30
0.0
 41
1.0
 10
946.15039925085136
 20
-2035.7961938516455
 30
0.0
 41
1.0
 10
946.15023620285706
 20
-2035.7980716077816
 30
0.0
 41
1.0
 10
946.13998101173752
 20
-2035.9161763911779
 30
0.0
 41
0.999728609500068
 10
946.12423568816598
 20
-2036.0336753000734
 30
0.0
 41
1.0
 10
946.12384219551586
 20
-2036.036611724774
 30
0.0
 41
1.0
 10
946.12344870286563
 20
-2036.0395481494745
 30
0.0
 41
1.0
 10
946.10691639399477
 20
-2036.1629199077652
 30
0.0
 41
0.9998265533968457
 10
946.08580093526359
 20
-2036.2855903825459
 30
0.0
 41
1.0
 10
946.08512439312517
 20
-2036.2895207610611
 30
0.0
 41
1.0
 10
946.08444785098663
 20
-2036.2934511395763
 30
0.0
 41
1.0
 10
946.0619793079785
 20
-2036.4239823713851
 30
0.0
 41
0.999902253085573
 10
946.03586984336937
 20
-2036.5538343400199
 30
0.0
 41
1.0
 10
946.03489120220411
 20
-2036.5587014824064
 30
0.0
 41
1.0
 10
946.03391256103896
 20
-2036.5635686247927
 30
0.0
 41
1.0
 10
946.00584581409737
 20
-2036.7031548782097
 30
0.0
 41
0.9999524761935321
 10
945.97506284526446
 20
-2036.842167371366
 30
0.0
 41
1.0
 10
945.97378673808851
 20
-2036.8479301306706
 30
0.0
 41
1.0
 10
945.97251063091255
 20
-2036.8536928899753
 30
0.0
 41
1.0
 10
945.93917544773069
 20
-2037.0042309017288
 30
0.0
 41
0.9999813588711634
 10
945.90400444693387
 20
-2037.1543506143885
 30
0.0
 41
1.0
 10
945.90245052147588
 20
-2037.1609832048168
 30
0.0
 41
1.0
 10
945.90089659601801
 20
-2037.1676157952452
 30
0.0
 41
1.0
 10
945.86261774430977
 20
-2037.3310006887432
 30
0.0
 41
0.9999955237726633
 10
945.82336186632949
 20
-2037.4941535923485
 30
0.0
 41
1.0
 10
945.81108023069464
 20
-2037.5451977828734
 30
0.0
 41
1.0
 10
945.79879859505979
 20
-2037.5962419733985
 30
0.0
 41
1.0
 10
945.73497944579822
 20
-2037.861483258102
 30
0.0
 41
0.9999993604509329
 10
945.67056049863731
 20
-2038.1265795087565
 30
0.0
 41
1.0
 10
945.66584166309292
 20
-2038.1459984167861
 30
0.0
 41
1.0
 10
945.66112282754852
 20
-2038.1654173248157
 30
0.0
 41
1.0
 10
945.58726620929019
 20
-2038.4693513915672
 30
0.0
 41
0.9999659914733019
 10
945.50840661340681
 20
-2038.7720259381183
 30
0.0
 41
1.0
 10
945.50345392447412
 20
-2038.7910350753086
 30
0.0
 41
1.0
 10
945.49850123554143
 20
-2038.8100442124987
 30
0.0
 41
1.0
 10
945.40973626179562
 20
-2039.1507370334202
 30
0.0
 41
0.9999441976029106
 10
945.31379322882765
 20
-2039.4894784587343
 30
0.0
 41
1.0
 10
945.29709271040451
 20
-2039.5484421712533
 30
0.0
 41
1.0
 10
945.28039219198149
 20
-2039.6074058837723
 30
0.0
 41
1.0
 10
945.15104812216487
 20
-2040.0640747341336
 30
0.0
 41
0.9999625120736315
 10
945.01381535483563
 20
-2040.5184352681488
 30
0.0
 41
1.0
 10
944.97802541175065
 20
-2040.6369312947822
 30
0.0
 41
1.0
 10
944.94223546866579
 20
-2040.7554273214157
 30
0.0
 41
1.0
 10
944.86771526463076
 20
-2041.0021543994967
 30
0.0
 41
0.9999793386304183
 10
944.79002924149904
 20
-2041.2479030387151
 30
0.0
 41
1.0
 10
944.71234321836141
 20
-2041.4936516779512
 30
0.0
 41
1.0
 10
944.70156365949072
 20
-2041.5276695823259
 30
0.0
 41
1.0
 10
942.85119060622151
 20
-2047.4147415047933
 30
0.0
 41
1.0
 10
941.00081755295241
 20
-2053.3018134272606
 30
0.0
 41
1.0
 10
940.03956086292885
 20
-2053.3018134272606
 30
0.0
 41
1.0
 10
939.07830417290529
 20
-2053.3018134272606
 30
0.0
 41
1.0
 10
940.69724895158379
 20
-2048.153784925471
 30
0.0
 41
1.0
 10
942.31619373026217
 20
-2043.0057564236818
 30
0.0
 41
1.0
 10
942.36135955344355
 20
-2042.8617252013894
 30
0.0
 41
1.0
 10
942.40652537662493
 20
-2042.717693979097
 30
0.0
 41
1.0
 10
942.57682979397669
 20
-2042.17460294997
 30
0.0
 41
0.999991165790195
 10
942.7425626056538
 20
-2041.6300994186161
 30
0.0
 41
1.0
 10
942.77225854915082
 20
-2041.5325354785768
 30
0.0
 41
1.0
 10
942.80195449264795
 20
-2041.4349715385374
 30
0.0
 41
1.0
 10
942.90829541732523
 20
-2041.0855958872812
 30
0.0
 41
0.9999952428181094
 10
943.01247900665885
 20
-2040.7355708629027
 30
0.0
 41
1.0
 10
943.01753847698274
 20
-2040.7185725886566
 30
0.0
 41
1.0
 10
943.02259794730651
 20
-2040.7015743144104
 30
0.0
 41
1.0
 10
943.11666259597575
 20
-2040.3855458385799
 30
0.0
 41
0.9999931687491247
 10
943.20838843385752
 20
-2040.0688306252825
 30
0.0
 41
1.0
 10
943.21332369831771
 20
-2040.0517899160095
 30
0.0
 41
1.0
 10
943.21825896277778
 20
-2040.0347492067365
 30
0.0
 41
1.0
 10
943.30011427173201
 20
-2039.7521154120091
 30
0.0
 41
0.9999893840809788
 10
943.37936149818802
 20
-2039.4687392827655
 30
0.0
 41
1.0
 10
943.45860872464266
 20
-2039.1853631535269
 30
0.0
 41
0.9999833980065874
 10
943.53458496537974
 20
-2038.9010925705159
 30
0.0
 41
1.0
 10
943.54358890210483
 20
-2038.867403692027
 30
0.0
 41
1.0
 10
943.55259283883004
 20
-2038.8337148135379
 30
0.0
 41
1.0
 10
943.62155738769843
 20
-2038.5756789812338
 30
0.0
 41
0.9999233658066459
 10
943.68411235891836
 20
-2038.3160148225124
 30
0.0
 41
1.0
 10
943.74666733013862
 20
-2038.05635066379
 30
0.0
 41
1.0
 10
943.78615074899619
 20
-2037.8925439993639
 30
0.0
 41
1.0
 10
943.79112935297167
 20
-2037.8718890375008
 30
0.0
 41
1.0
 10
943.79610795694725
 20
-2037.8512340756376
 30
0.0
 41
1.0
 10
943.82563416785251
 20
-2037.7287373349423
 30
0.0
 41
0.9999868670843365
 10
943.85390325184994
 20
-2037.6059443892923
 30
0.0
 41
1.0
 10
943.85780073900821
 20
-2037.589014801873
 30
0.0
 41
1.0
 10
943.86169822616648
 20
-2037.5720852144536
 30
0.0
 41
1.0
 10
943.88217233584601
 20
-2037.4831514436471
 30
0.0
 41
0.9999778173347216
 10
943.90145993396163
 20
-2037.3939528264164
 30
0.0
 41
1.0
 10
943.92074753207589
 20
-2037.3047542091908
 30
0.0
 41
0.9999602692867103
 10
943.93844189070683
 20
-2037.2152259207642
 30
0.0
 41
1.0
 10
943.94164572278487
 20
-2037.1990154658761
 30
0.0
 41
1.0
 10
943.94484955486303
 20
-2037.1828050109882
 30
0.0
 41
1.0
 10
943.96895157764982
 20
-2037.0608558127869
 30
0.0
 41
0.9995617985320072
 10
943.98579492486886
 20
-2036.9376940650777
 30
0.0
 41
1.0
 10
943.98825941477446
 20
-2036.9196732477167
 30
0.0
 41
1.0
 10
943.99072390468007
 20
-2036.9016524303554
 30
0.0
 41
1.0
 10
944.0110071657283
 20
-2036.7533373806536
 30
0.0
 41
0.9991121410639945
 10
944.01873251931681
 20
-2036.6038412818459
 30
0.0
 41
1.0
 10
944.01965130934138
 20
-2036.5860614452695
 30
0.0
 41
1.0
 10
944.02057009936595
 20
-2036.5682816086933
 30
0.0
 41
1.0
 10
944.0264578729051
 20
-2036.4543451830395
 30
0.0
 41
0.9989792494905584
 10
944.02203878078774
 20
-2036.3403423471414
 30
0.0
 41
1.0
 10
944.02139080891891
 20
-2036.3236261012098
 30
0.0
 41
1.0
 10
944.02074283705008
 20
-2036.3069098552783
 30
0.0
 41
1.0
 10
944.01761968867015
 20
-2036.2263395112384
 30
0.0
 41
0.9997820295394404
 10
944.01113569129473
 20
-2036.1459697894991
 30
0.0
 41
1.0
 10
944.0046516939193
 20
-2036.0656000677573
 30
0.0
 41
0.9998335105973611
 10
943.99523949840727
 20
-2035.9855204513037
 30
0.0
 41
1.0
 10
943.99364457373099
 20
-2035.9719507208213
 30
0.0
 41
1.0
 10
943.99204964905471
 20
-2035.9583809903388
 30
0.0
 41
1.0
 10
943.97944760419034
 20
-2035.8511619129233
 30
0.0
 41
0.9996876457879488
 10
943.96150369139218
 20
-2035.7447064852083
 30
0.0
 41
1.0
 10
943.95927202824691
 20
-2035.7314667499668
 30
0.0
 41
1.0
 10
943.95704036510165
 20
-2035.718227014725
 30
0.0
 41
1.0
 10
943.94324454368075
 20
-2035.6363808707674
 30
0.0
 41
0.9995547496494972
 10
943.92459122178764
 20
-2035.5555033735734
 30
0.0
 41
1.0
 10
943.92421726491625
 20
-2035.5538819628678
 30
0.0
 41
1.0
 10
943.92384330804487
 20
-2035.5522605521619
 30
0.0
 41
1.0
 10
943.90593789989521
 20
-2035.4746258763837
 30
0.0
 41
0.9994899427175843
 10
943.88311299121574
 20
-2035.3982925935479
 30
0.0
 41
1.0
 10
943.88265446447485
 20
-2035.396759143759
 30
0.0
 41
1.0
 10
943.88219593773408
 20
-2035.3952256939704
 30
0.0
 41
1.0
 10
943.86028808253639
 20
-2035.3219593107137
 30
0.0
 41
0.9993784877591212
 10
943.83327244742975
 20
-2035.2504186055546
 30
0.0
 41
1.0
 10
943.83274075645272
 20
-2035.2490106228338
 30
0.0
 41
1.0
 10
943.83220906547569
 20
-2035.247602640113
 30
0.0
 41
1.0
 10
943.80625681232243
 20
-2035.1788779003937
 30
0.0
 41
0.9992430832254222
 10
943.77504027716373
 20
-2035.1123787483273
 30
0.0
 41
1.0
 10
943.77445816110662
 20
-2035.1111386932089
 30
0.0
 41
1.0
 10
943.77387604504963
 20
-2035.1098986380907
 30
0.0
 41
1.0
 10
943.74382374200422
 20
-2035.0458795962581
 30
0.0
 41
0.9990789632797479
 10
943.70839311522775
 20
-2034.9846729845094
 30
0.0
 41
1.0
 10
943.70779740904618
 20
-2034.9836438986508
 30
0.0
 41
1.0
 10
943.7072017028645
 20
-2034.9826148127922
 30
0.0
 41
1.0
 10
943.67296248845139
 20
-2034.9234663727605
 30
0.0
 41
0.9988874801121199
 10
943.63330321241892
 20
-2034.8678066603418
 30
0.0
 41
1.0
 10
943.63274768635483
 20
-2034.8670270086673
 30
0.0
 41
1.0
 10
943.63219216029074
 20
-2034.8662473569927
 30
0.0
 41
1.0
 10
943.59364393638714
 20
-2034.812146947924
 30
0.0
 41
0.9986762060692281
 10
943.54974146511086
 20
-2034.7622932334848
 30
0.0
 41
1.0
 10
943.54929750477913
 20
-2034.7617890916686
 30
0.0
 41
1.0
 10
943.54885354444741
 20
-2034.7612849498526
 30
0.0
 41
1.0
 10
943.50583899383503
 20
-2034.712439519046
 30
0.0
 41
0.9984621642489345
 10
943.45768143705686
 20
-2034.6686562185746
 30
0.0
 41
1.0
 10
943.45743480253986
 20
-2034.6684319864107
 30
0.0
 41
1.0
 10
943.45718816802275
 20
-2034.6682077542469
 30
0.0
 41
1.0
 10
943.40952388027904
 20
-2034.6248729181036
 30
0.0
 41
0.9982724693851859
 10
943.35710524843762
 20
-2034.5874285675857
 30
0.0
 41
1.0
 10
943.30468661659688
 20
-2034.5499842170684
 30
0.0
 41
0.998139918015915
 10
943.24810055320347
 20
-2034.5191976976248
 30
0.0
 41
1.0
 10
943.24805489112464
 20
-2034.5191728544673
 30
0.0
 41
1.0
 10
943.24800922904592
 20
-2034.5191480113101
 30
0.0
 41
1.0
 10
943.19133184149575
 20
-2034.4883118055525
 30
0.0
 41
0.9980927086837339
 10
943.1312864904296
 20
-2034.4646949967
 30
0.0
 41
1.0
 10
943.13084632071775
 20
-2034.4645218708249
 30
0.0
 41
1.0
 10
943.1304061510059
 20
-2034.4643487449498
 30
0.0
 41
1.0
 10
943.06948046051707
 20
-2034.4403856843478
 30
0.0
 41
0.9981411356562078
 10
943.00609193911828
 20
-2034.4240130428423
 30
0.0
 41
1.0
 10
943.00520982241608
 20
-2034.4237852006365
 30
0.0
 41
1.0
 10
943.00432770571388
 20
-2034.4235573584308
 30
0.0
 41
1.0
 10
942.93917495091068
 20
-2034.406729032514
 30
0.0
 41
0.9983031812934994
 10
942.87250752191517
 20
-2034.3975896713378
 30
0.0
 41
1.0
 10
942.86363649651389
 20
-2034.3963735526668
 30
0.0
 41
1.0
 10
942.8547654711125
 20
-2034.395157433996
 30
0.0
 41
1.0
 10
942.80041582860679
 20
-2034.3877067040046
 30
0.0
 41
0.9983887708263264
 10
942.74557197931199
 20
-2034.3864620303711
 30
0.0
 41
1.0
 10
942.73750857409289
 20
-2034.3862790324963
 30
0.0
 41
1.0
 10
942.72944516887378
 20
-2034.3860960346215
 30
0.0
 41
1.0
 10
942.69072813001753
 20
-2034.3852173567379
 30
0.0
 41
0.9998869563080198
 10
942.6520021768165
 20
-2034.3855032260976
 30
0.0
 41
1.0
 10
942.61327622359829
 20
-2034.3857890954575
 30
0.0
 41
0.9999972320110655
 10
942.57455204437156
 20
-2034.3862571949867
 30
0.0
 41
1.0
 10
942.55519902780725
 20
-2034.3864911350759
 30
0.0
 41
1.0
 10
942.53584601124305
 20
-2034.386725075165
 30
0.0
 41
1.0
 10
942.45841579887338
 20
-2034.3876610548728
 30
0.0
 41
0.9997304945086087
 10
942.38111249263704
 20
-2034.3921901486588
 30
0.0
 41
1.0
 10
942.37206285093157
 20
-2034.3927203546486
 30
0.0
 41
1.0
 10
942.36301320922621
 20
-2034.3932505606388
 30
0.0
 41
1.0
 10
942.26761061958268
 20
-2034.3988400664045
 30
0.0
 41
0.9997888306416516
 10
942.17251828374287
 20
-2034.4083450308933
 30
0.0
 41
1.0
 10
942.16379722216743
 20
-2034.4092167455256
 30
0.0
 41
1.0
 10
942.15507616059199
 20
-2034.410088460158
 30
0.0
 41
1.0
 10
942.04254170160323
 20
-2034.4213368539113
 30
0.0
 41
0.9984170238190544
 10
941.9319825542517
 20
-2034.4451529358471
 30
0.0
 41
1.0
 10
941.89560142326525
 20
-2034.4529899716533
 30
0.0
 41
1.0
 10
941.85922029227879
 20
-2034.4608270074596
 30
0.0
 41
1.0
 10
941.74402922385775
 20
-2034.485640873969
 30
0.0
 41
0.9976592854198269
 10
941.6333010574532
 20
-2034.5259395511162
 30
0.0
 41
1.0
 10
941.52257289105057
 20
-2034.5662382282626
 30
0.0
 41
0.999325507435285
 10
941.41510109226203
 20
-2034.6145551267537
 30
0.0
 41
1.0
 10
941.41047591333643
 20
-2034.6166345029544
 30
0.0
 41
1.0
 10
941.40585073441082
 20
-2034.6187138791552
 30
0.0
 41
1.0
 10
941.28912857777186
 20
-2034.6711895300477
 30
0.0
 41
0.9976475078274409
 10
941.18068123345938
 20
-2034.7391375197076
 30
0.0
 41
1.0
 10
941.16233883932682
 20
-2034.7506299985207
 30
0.0
 41
1.0
 10
941.14399644519426
 20
-2034.7621224773341
 30
0.0
 41
1.0
 10
941.05979425364239
 20
-2034.8148795981024
 30
0.0
 41
0.9995131336407106
 10
940.97904653868386
 20
-2034.8727858100563
 30
0.0
 41
1.0
 10
940.89829882372533
 20
-2034.9306920220104
 30
0.0
 41
0.999581010760642
 10
940.82103717599512
 20
-2034.9931737044774
 30
0.0
 41
1.0
 10
940.81806714478626
 20
-2034.9955755759408
 30
0.0
 41
1.0
 10
940.81509711357751
 20
-2034.9979774474043
 30
0.0
 41
1.0
 10
940.73189540343174
 20
-2035.0652628727967
 30
0.0
 41
0.999661783795485
 10
940.65230471629684
 20
-2035.1367833283559
 30
0.0
 41
1.0
 10
940.6401739654159
 20
-2035.14768406135
 30
0.0
 41
1.0
 10
940.62804321453507
 20
-2035.1585847943443
 30
0.0
 41
1.0
 10
940.55976768713811
 20
-2035.2199374098168
 30
0.0
 41
0.999726775005218
 10
940.494434178858
 20
-2035.2844139463391
 30
0.0
 41
1.0
 10
940.42910067057494
 20
-2035.3488904828639
 30
0.0
 41
0.9999667288960213
 10
940.36482772742136
 20
-2035.4144242897653
 30
0.0
 41
1.0
 10
940.29600027964943
 20
-2035.4846019485203
 30
0.0
 41
1.0
 10
940.2271728318774
 20
-2035.5547796072753
 30
0.0
 41
1.0
 10
940.02524499317985
 20
-2035.760668731687
 30
0.0
 41
0.9988205335175252
 10
939.84423937619977
 20
-2035.9851729637483
 30
0.0
 41
1.0
 10
939.81359941129574
 20
-2036.0231762141775
 30
0.0
 41
1.0
 10
939.78295944639171
 20
-2036.0611794646065
 30
0.0
 41
1.0
 10
939.54067389960289
 20
-2036.3616901975267
 30
0.0
 41
0.9997077826754395
 10
939.31319594849811
 20
-2036.6735599917426
 30
0.0
 41
1.0
 10
939.31147253336735
 20
-2036.6759227751227
 30
0.0
 41
1.0
 10
939.30974911823671
 20
-2036.6782855585025
 30
0.0
 41
1.0
 10
939.07882433687007
 20
-2036.9948809194786
 30
0.0
 41
0.9989147567078769
 10
938.87836083398702
 20
-2037.3315903806629
 30
0.0
 41
1.0
 10
938.8536196886804
 20
-2037.3731469612148
 30
0.0
 41
1.0
 10
938.82887854337378
 20
-2037.4147035417666
 30
0.0
 41
1.0
 10
938.67366724473709
 20
-2037.6754049262183
 30
0.0
 41
0.9997476598182219
 10
938.5303222572262
 20
-2037.9428146748028
 30
0.0
 41
1.0
 10
938.38697726971702
 20
-2038.2102244233843
 30
0.0
 41
0.9996258967109922
 10
938.25846901778584
 20
-2038.4850723600073
 30
0.0
 41
1.0
 10
938.24526910833004
 20
-2038.5133037601158
 30
0.0
 41
1.0
 10
938.23206919887423
 20
-2038.5415351602246
 30
0.0
 41
1.0
 10
938.09186047788012
 20
-2038.8414075581654
 30
0.0
 41
0.9998735413945694
 10
937.96125913116509
 20
-2039.1455871576218
 30
0.0
 41
1.0
 10
937.95781630310955
 20
-2039.1536057430749
 30
0.0
 41
1.0
 10
937.95437347505401
 20
-2039.161624328528
 30
0.0
 41
1.0
 10
937.83065778445211
 20
-2039.4497667570724
 30
0.0
 41
0.9999377418860838
 10
937.71340298227005
 20
-2039.7405982247644
 30
0.0
 41
1.0
 10
937.5961481800955
 20
-2040.0314296924389
 30
0.0
 41
0.9999508299510189
 10
937.48468423671568
 20
-2040.3245293692662
 30
0.0
 41
1.0
 10
937.48160346805412
 20
-2040.3326303952279
 30
0.0
 41
1.0
 10
937.47852269939244
 20
-2040.3407314211895
 30
0.0
 41
1.0
 10
937.3608972186853
 20
-2040.6500331499517
 30
0.0
 41
0.9999609228430418
 10
937.24875861581029
 20
-2040.9613661659705
 30
0.0
 41
1.0
 10
937.24580260546361
 20
-2040.9695730063718
 30
0.0
 41
1.0
 10
937.24284659511693
 20
-2040.977779846773
 30
0.0
 41
1.0
 10
937.12479597154424
 20
-2041.3055265436058
 30
0.0
 41
0.9999674607395249
 10
937.0120484454801
 20
-2041.635135163589
 30
0.0
 41
1.0
 10
936.96065005491573
 20
-2041.7853943592866
 30
0.0
 41
1.0
 10
936.90925166435136
 20
-2041.9356535549841
 30
0.0
 41
1.0
 10
936.79324105759315
 20
-2042.2748015374882
 30
0.0
 41
0.9999287532310152
 10
936.68535965362184
 20
-2042.6166222764653
 30
0.0
 41
1.0
 10
936.63888239749281
 20
-2042.7638848208044
 30
0.0
 41
1.0
 10
936.59240514136366
 20
-2042.9111473651437
 30
0.0
 41
1.0
 10
936.57747824965713
 20
-2042.9584430154218
 30
0.0
 41
0.9999998222877166
 10
936.56260774092073
 20
-2043.0057564236818
 30
0.0
 41
1.0
 10
934.94195160412528
 20
-2048.153784925471
 30
0.0
 41
1.0
 10
933.32129546732983
 20
-2053.3018134272606
 30
0.0
 41
1.0
 10
932.4159870234389
 20
-2053.3018134272606
 30
0.0
 41
1.0
 10
931.51067857954797
 20
-2053.3018134272606
 30
0.0
 41
1.0
 10
933.36276299093402
 20
-2047.4147415047933
 30
0.0
 41
1.0
 10
935.21484740232006
 20
-2041.5276695823259
 30
0.0
 41
1.0
 10
935.22496916062278
 20
-2041.4956263688759
 30
0.0
 41
1.0
 10
935.29757682947252
 20
-2041.2653268270501
 30
0.0
 41
1.0
 10
935.3701844983209
 20
-2041.0350272852288
 30
0.0
 41
0.9999825681979891
 10
935.44006753753695
 20
-2040.803886390149
 30
0.0
 41
1.0
 10
935.48835859969302
 20
-2040.6441618066688
 30
0.0
 41
1.0
 10
935.53664966184908
 20
-2040.4844372231885
 30
0.0
 41
1.0
 10
935.63380201516827
 20
-2040.1631020014061
 30
0.0
 41
0.9999672528957864
 10
935.72574082079461
 20
-2039.8402364558094
 30
0.0
 41
1.0
 10
935.72852970446559
 20
-2039.830442610415
 30
0.0
 41
1.0
 10
935.73131858813656
 20
-2039.8206487650209
 30
0.0
 41
1.0
 10
935.81767962641925
 20
-2039.5173709102178
 30
0.0
 41
0.9999899749172715
 10
935.90132123595265
 20
-2039.2133318217707
 30
0.0
 41
1.0
 10
935.91142715497153
 20
-2039.1765965840873
 30
0.0
 41
1.0
 10
935.92153307399042
 20
-2039.1398613464039
 30
0.0
 41
1.0
 10
935.98496284548685
 20
-2038.9092927333195
 30
0.0
 41
0.9999214200505595
 10
936.04259227386501
 20
-2038.6772063911089
 30
0.0
 41
1.0
 10
936.05535812604876
 20
-2038.6257955056999
 30
0.0
 41
1.0
 10
936.06812397823262
 20
-2038.5743846202909
 30
0.0
 41
1.0
 10
936.10022170224329
 20
-2038.4451200488975
 30
0.0
 41
0.9999828681665636
 10
936.13080395423822
 20
-2038.315488574432
 30
0.0
 41
1.0
 10
936.16138620623167
 20
-2038.1858570999727
 30
0.0
 41
0.9999389844480949
 10
936.18909719501949
 20
-2038.0555816440801
 30
0.0
 41
1.0
 10
936.19623493874133
 20
-2038.0220255402351
 30
0.0
 41
1.0
 10
936.20337268246328
 20
-2037.9884694363898
 30
0.0
 41
1.0
 10
936.24535915869092
 20
-2037.7910817728241
 30
0.0
 41
0.9998933699442353
 10
936.28156342309308
 20
-2037.5925521650679
 30
0.0
 41
1.0
 10
936.28293624831053
 20
-2037.5850241443654
 30
0.0
 41
1.0
 10
936.28430907352788
 20
-2037.5774961236632
 30
0.0
 41
1.0
 10
936.32325898836268
 20
-2037.3639104745125
 30
0.0
 41
0.9996850305193752
 10
936.35144266462123
 20
-2037.1486394690769
 30
0.0
 41
1.0
 10
936.35343769799101
 20
-2037.133401114952
 30
0.0
 41
1.0
 10
936.35543273136068
 20
-2037.1181627608269
 30
0.0
 41
1.0
 10
936.38284059381965
 20
-2036.9088175336738
 30
0.0
 41
0.9994697936707062
 10
936.39656515303886
 20
-2036.6981323383454
 30
0.0
 41
1.0
 10
936.39704222228852
 20
-2036.6908088661353
 30
0.0
 41
1.0
 10
936.39751929153806
 20
-2036.6834853939251
 30
0.0
 41
1.0
 10
936.41028971225842
 20
-2036.4874471430173
 30
0.0
 41
0.9991804893136854
 10
936.40716139598567
 20
-2036.2910182930414
 30
0.0
 41
1.0
 10
936.40707751716354
 20
-2036.2857514916286
 30
0.0
 41
1.0
 10
936.40699363834142
 20
-2036.2804846902156
 30
0.0
 41
1.0
 10
936.40403307971292
 20
-2036.094589443069
 30
0.0
 41
0.9988448329321596
 10
936.38324153408905
 20
-2035.9098368532345
 30
0.0
 41
1.0
 10
936.38164746038626
 20
-2035.8956719974651
 30
0.0
 41
1.0
 10
936.38005338668347
 20
-2035.8815071416957
 30
0.0
 41
1.0
 10
936.36244998846564
 20
-2035.7250842634039
 30
0.0
 41
0.9985503209459142
 10
936.32813371616567
 20
-2035.5714600793119
 30
0.0
 41
1.0
 10
936.32054772409469
 20
-2035.5374997519129
 30
0.0
 41
1.0
 10
936.31296173202384
 20
-2035.5035394245142
 30
0.0
 41
1.0
 10
936.2938174438666
 20
-2035.4178358952252
 30
0.0
 41
0.999103678137158
 10
936.26749258221503
 20
-2035.3340588078977
 30
0.0
 41
1.0
 10
936.2635103567593
 20
-2035.3213856453879
 30
0.0
 41
1.0
 10
936.25952813130357
 20
-2035.308712482878
 30
0.0
 41
1.0
 10
936.24116772056402
 20
-2035.2502817205732
 30
0.0
 41
0.999887450436774
 10
936.22106251288528
 20
-2035.1924281183494
 30
0.0
 41
1.0
 10
936.20095730520734
 20
-2035.1345745161275
 30
0.0
 41
0.9994041637544379
 10
936.1769086922726
 20
-2035.078245812236
 30
0.0
 41
1.0
 10
936.17271190804854
 20
-2035.068415747754
 30
0.0
 41
1.0
 10
936.16851512382448
 20
-2035.0585856832722
 30
0.0
 41
1.0
 10
936.14063629283066
 20
-2034.993285517306
 30
0.0
 41
0.999184684070131
 10
936.10757993613697
 20
-2034.9304474860248
 30
0.0
 41
1.0
 10
936.10644332974221
 20
-2034.9282868695705
 30
0.0
 41
1.0
 10
936.10530672334733
 20
-2034.9261262531163
 30
0.0
 41
1.0
 10
936.07452357944351
 20
-2034.8676094547441
 30
0.0
 41
0.9989253167923395
 10
936.03845415538899
 20
-2034.8121945263545
 30
0.0
 41
1.0
 10
936.03740003071528
 20
-2034.8105750315931
 30
0.0
 41
1.0
 10
936.03634590604156
 20
-2034.8089555368315
 30
0.0
 41
1.0
 10
936.00238473133447
 20
-2034.7567795979653
 30
0.0
 41
0.9986467172838072
 10
935.96318757869653
 20
-2034.7084135643347
 30
0.0
 41
1.0
 10
935.96231344999592
 20
-2034.7073349620564
 30
0.0
 41
1.0
 10
935.9614393212953
 20
-2034.7062563597783
 30
0.0
 41
1.0
 10
935.92399042605973
 20
-2034.6600475307057
 30
0.0
 41
0.9984001104267871
 10
935.88156369554201
 20
-2034.6183624233363
 30
0.0
 41
1.0
 10
935.88097655743366
 20
-2034.6177855484561
 30
0.0
 41
1.0
 10
935.8803894193253
 20
-2034.6172086735758
 30
0.0
 41
1.0
 10
935.83913696502634
 20
-2034.5766773159692
 30
0.0
 41
0.9982442159084538
 10
935.79338086368921
 20
-2034.5413087547074
 30
0.0
 41
1.0
 10
935.79316606822681
 20
-2034.5411427220638
 30
0.0
 41
1.0
 10
935.7929512727643
 20
-2034.5409766894199
 30
0.0
 41
1.0
 10
935.74762476235298
 20
-2034.5059401934468
 30
0.0
 41
0.9982450060836027
 10
935.69847378328188
 20
-2034.4765084104135
 30
0.0
 41
1.0
 10
935.64932280421112
 20
-2034.4470766273805
 30
0.0
 41
0.9983922639634674
 10
935.59715649804696
 20
-2034.4233969927266
 30
0.0
 41
1.0
 10
935.59692962072165
 20
-2034.4232940072447
 30
0.0
 41
1.0
 10
935.59670274339635
 20
-2034.4231910217629
 30
0.0
 41
1.0
 10
935.54408268258317
 20
-2034.3993054161463
 30
0.0
 41
0.9986517147150265
 10
935.48926970971638
 20
-2034.3810042970249
 30
0.0
 41
1.0
 10
935.48859178828764
 20
-2034.3807779505933
 30
0.0
 41
1.0
 10
935.48791386685889
 20
-2034.3805516041614
 30
0.0
 41
1.0
 10
935.43174505113507
 20
-2034.3617977921767
 30
0.0
 41
0.9989435598956731
 10
935.37409166398299
 20
-2034.3482800899419
 30
0.0
 41
1.0
 10
935.37301154440183
 20
-2034.3480268396891
 30
0.0
 41
1.0
 10
935.37193142482056
 20
-2034.3477735894362
 30
0.0
 41
1.0
 10
935.31211779850389
 20
-2034.3337493866952
 30
0.0
 41
0.9992249241239225
 10
935.2513862896044
 20
-2034.32447404398
 30
0.0
 41
1.0
 10
935.24997260131533
 20
-2034.3242581355726
 30
0.0
 41
1.0
 10
935.24855891302627
 20
-2034.3240422271649
 30
0.0
 41
1.0
 10
935.18500002754877
 20
-2034.3143350676344
 30
0.0
 41
0.9994396597834107
 10
935.12093409101374
 20
-2034.3089021452888
 30
0.0
 41
1.0
 10
935.10179342353399
 20
-2034.3072789775699
 30
0.0
 41
1.0
 10
935.08265275605424
 20
-2034.305655809851
 30
0.0
 41
1.0
 10
934.98030548456188
 20
-2034.2969765520679
 30
0.0
 41
0.9987693403121195
 10
934.87760186097489
 20
-2034.2984796155206
 30
0.0
 41
1.0
 10
934.86734752674829
 20
-2034.2986296872948
 30
0.0
 41
1.0
 10
934.85709319252157
 20
-2034.298779759069
 30
0.0
 41
1.0
 10
934.74753742634198
 20
-2034.3003831033566
 30
0.0
 41
0.9989753644966841
 10
934.63857542632479
 20
-2034.3118861102816
 30
0.0
 41
1.0
 10
934.52961342630658
 20
-2034.3233891172069
 30
0.0
 41
0.9983190067305418
 10
934.42271461533994
 20
-2034.3474241089941
 30
0.0
 41
1.0
 10
934.41381366373491
 20
-2034.3494253875565
 30
0.0
 41
1.0
 10
934.40491271212989
 20
-2034.3514266661189
 30
0.0
 41
1.0
 10
934.28021199795012
 20
-2034.3794642150312
 30
0.0
 41
0.9985539388303035
 10
934.15924224427124
 20
-2034.4207278910774
 30
0.0
 41
1.0
 10
934.15689681331196
 20
-2034.4215279348928
 30
0.0
 41
1.0
 10
934.15455138235279
 20
-2034.4223279787084
 30
0.0
 41
1.0
 10
934.02889076675501
 20
-2034.4651917423855
 30
0.0
 41
0.9988468746494246
 10
933.90792042445537
 20
-2034.5199098274475
 30
0.0
 41
1.0
 10
933.90473760246596
 20
-2034.5213495020078
 30
0.0
 41
1.0
 10
933.90155478047666
 20
-2034.522789176568
 30
0.0
 41
1.0
 10
933.77421879420115
 20
-2034.5803866107492
 30
0.0
 41
0.9991322885919959
 10
933.65211821014566
 20
-2034.64838194293
 30
0.0
 41
1.0
 10
933.63451619909983
 20
-2034.6581841449208
 30
0.0
 41
1.0
 10
933.61691418805412
 20
-2034.6679863469117
 30
0.0
 41
1.0
 10
933.51473750699722
 20
-2034.7248864626922
 30
0.0
 41
0.999386003784942
 10
933.41679650292372
 20
-2034.7888024782808
 30
0.0
 41
1.0
 10
933.4111781900715
 20
-2034.7924689729757
 30
0.0
 41
1.0
 10
933.40555987721939
 20
-2034.7961354676704
 30
0.0
 41
1.0
 10
933.31885549885214
 20
-2034.852718493868
 30
0.0
 41
0.9998821494953721
 10
933.23392912303757
 20
-2034.9119367239462
 30
0.0
 41
1.0
 10
933.14900274722447
 20
-2034.9711549540232
 30
0.0
 41
0.9997976482744151
 10
933.06652711682023
 20
-2035.0337413620655
 30
0.0
 41
1.0
 10
933.05189085201573
 20
-2035.0448480518448
 30
0.0
 41
1.0
 10
933.03725458721124
 20
-2035.0559547416244
 30
0.0
 41
1.0
 10
932.92550642719505
 20
-2035.1407545292279
 30
0.0
 41
0.9998091630799404
 10
932.81715614916493
 20
-2035.2298548799313
 30
0.0
 41
1.0
 10
932.80415039669015
 20
-2035.2405499803754
 30
0.0
 41
1.0
 10
932.79114464421548
 20
-2035.2512450808192
 30
0.0
 41
1.0
 10
932.65678286123318
 20
-2035.3617356324125
 30
0.0
 41
0.9995035112316676
 10
932.52964698346989
 20
-2035.4804694494276
 30
0.0
 41
1.0
 10
932.51999967308348
 20
-2035.4894791955844
 30
0.0
 41
1.0
 10
932.51035236269718
 20
-2035.4984889417415
 30
0.0
 41
1.0
 10
932.38692929993113
 20
-2035.6137553134981
 30
0.0
 41
0.9994630424299418
 10
932.2713208941459
 20
-2035.7368580567345
 30
0.0
 41
1.0
 10
932.26763805537598
 20
-2035.7407796362459
 30
0.0
 41
1.0
 10
932.26395521660618
 20
-2035.7447012157572
 30
0.0
 41
1.0
 10
932.15571248836284
 20
-2035.8599607999688
 30
0.0
 41
0.9995160693750342
 10
932.05484645883007
 20
-2035.9817282178421
 30
0.0
 41
1.0
 10
932.05291273874923
 20
-2035.9840626420505
 30
0.0
 41
1.0
 10
932.05097901866827
 20
-2035.9863970662589
 30
0.0
 41
1.0
 10
931.95398042929628
 20
-2036.1034956357169
 30
0.0
 41
0.9996561470514601
 10
931.86325421063225
 20
-2036.2255183981638
 30
0.0
 41
1.0
 10
931.85709654472987
 20
-2036.2338001872067
 30
0.0
 41
1.0
 10
931.85093887882749
 20
-2036.2420819762494
 30
0.0
 41
1.0
 10
931.77252799196572
 20
-2036.3475411606139
 30
0.0
 41
0.9998349055173207
 10
931.69800071003419
 20
-2036.4557797442765
 30
0.0
 41
1.0
 10
931.62347342811154
 20
-2036.5640183279261
 30
0.0
 41
0.9999728109573067
 10
931.5505505322119
 20
-2036.6733442534648
 30
0.0
 41
1.0
 10
931.54923531679015
 20
-2036.6753160229825
 30
0.0
 41
1.0
 10
931.54792010136828
 20
-2036.6772877925002
 30
0.0
 41
1.0
 10
931.47236677461842
 20
-2036.7905572570846
 30
0.0
 41
0.9999972147335028
 10
931.39734896420737
 20
-2036.9041820999767
 30
0.0
 41
1.0
 10
931.39237742161163
 20
-2036.9117121884087
 30
0.0
 41
1.0
 10
931.38740587901589
 20
-2036.9192422768408
 30
0.0
 41
1.0
 10
931.30244498340107
 20
-2037.0479272966152
 30
0.0
 41
0.9999371979001156
 10
931.22038963400621
 20
-2037.1784842103771
 30
0.0
 41
1.0
 10
931.21688074963754
 20
-2037.1840671384532
 30
0.0
 41
1.0
 10
931.21337186526875
 20
-2037.1896500665293
 30
0.0
 41
1.0
 10
931.12429874713757
 20
-2037.3313728364424
 30
0.0
 41
0.9998272025610199
 10
931.04055535625275
 20
-2037.4763087131898
 30
0.0
 41
1.0
 10
931.02534018423148
 20
-2037.5026418276418
 30
0.0
 41
1.0
 10
931.01012501221021
 20
-2037.5289749420938
 30
0.0
 41
1.0
 10
930.89595127727921
 20
-2037.7265770477511
 30
0.0
 41
0.9995217214838186
 10
930.79421158772311
 20
-2037.9308593756141
 30
0.0
 41
1.0
 10
930.78656802508942
 20
-2037.9462068253142
 30
0.0
 41
1.0
 10
930.77892446245573
 20
-2037.9615542750146
 30
0.0
 41
1.0
 10
930.69201916986435
 20
-2038.1360507330996
 30
0.0
 41
0.9998269762608006
 10
930.61166470359251
 20
-2038.3136590198226
 30
0.0
 41
1.0
 10
930.53131023731999
 20
-2038.4912673065473
 30
0.0
 41
0.9998944747388001
 10
930.45614944275474
 20
-2038.671135032178
 30
0.0
 41
1.0
 10
930.45119577316132
 20
-2038.6829896871009
 30
0.0
 41
1.0
 10
930.44624210356778
 20
-2038.6948443420238
 30
0.0
 41
1.0
 10
930.36559504301977
 20
-2038.8878412820304
 30
0.0
 41
0.9999506734414794
 10
930.28879751411671
 20
-2039.0824020868854
 30
0.0
 41
1.0
 10
930.27419754885443
 20
-2039.1193900086696
 30
0.0
 41
1.0
 10
930.25959758359215
 20
-2039.1563779304536
 30
0.0
 41
1.0
 10
930.21199998521445
 20
-2039.2769628917381
 30
0.0
 41
0.9999912393960634
 10
930.16541354119067
 20
-2039.3979420944372
 30
0.0
 41
1.0
 10
930.11882709718202
 20
-2039.5189212970968
 30
0.0
 41
0.9999927113982433
 10
930.07316580280212
 20
-2039.6402527045602
 30
0.0
 41
1.0
 10
930.05919737139027
 20
-2039.6773696865966
 30
0.0
 41
1.0
 10
930.04522893997841
 20
-2039.7144866686328
 30
0.0
 41
1.0
 10
929.97163078279095
 20
-2039.9100520401271
 30
0.0
 41
0.9999487550951135
 10
929.90200715782157
 20
-2040.1070674053026
 30
0.0
 41
1.0
 10
929.8784135478802
 20
-2040.1738307156083
 30
0.0
 41
1.0
 10
929.85481993793871
 20
-2040.2405940259139
 30
0.0
 41
1.0
 10
929.76013430357114
 20
-2040.5085278607303
 30
0.0
 41
0.9999808436935808
 10
929.66877271493138
 20
-2040.7776132919901
 30
0.0
 41
1.0
 10
929.57741112629503
 20
-2041.0466987232396
 30
0.0
 41
0.9999873932907959
 10
929.48875641757581
 20
-2041.3166880782558
 30
0.0
 41
1.0
 10
929.46866406070444
 20
-2041.3778774110147
 30
0.0
 41
1.0
 10
929.44857170383307
 20
-2041.4390667437738
 30
0.0
 41
1.0
 10
929.31973228138156
 20
-2041.831434764277
 30
0.0
 41
0.9999794883035468
 10
929.1959294964272
 20
-2042.2254209705427
 30
0.0
 41
1.0
 10
929.18477723699971
 20
-2042.2609115807481
 30
0.0
 41
1.0
 10
929.1736249775721
 20
-2042.2964021909534
 30
0.0
 41
1.0
 10
929.03106681366432
 20
-2042.7500749430724
 30
0.0
 41
0.9999982761678721
 10
928.89019437363061
 20
-2043.2042739652543
 30
0.0
 41
1.0
 10
927.302054041058
 20
-2048.2530436962575
 30
0.0
 41
1.0
 10
925.71391370848539
 20
-2053.3018134272606
 30
0.0
 41
1.0
 10
924.76516309700901
 20
-2053.3018134272606
 30
0.0
 41
1.0
 10
923.81641248553262
 20
-2053.3018134272606
 30
0.0
 41
1.0
 10
927.05469697168587
 20
-2042.9744912273145
 30
0.0
 41
1.0
 10
930.29298145783901
 20
-2032.6471690273684
 30
0.0
 41
1.0
  0
LWPOLYLINE
  5
AE
100
AcDbEntity
  8
0
370
              15
390
0
  6
Continuous
 62
               7
100
AcDbPolyline
 90
      232
 70
             128
 10
904.58943568401196
 20
-2033.7315118588836
 42
0.0004370800677194
 10
904.53655851005067
 20
-2033.8001784979956
 10
904.49727427881248
 20
-2033.8512856110365
 42
0.0030481992176968
 10
904.36693556166381
 20
-2034.0230073034202
 10
904.32842388994288
 20
-2034.0743940871689
 42
0.0042058245755107
 10
904.12443883927062
 20
-2034.3513998322458
 10
904.07203371677235
 20
-2034.4238326790232
 42
0.0120948898741998
 10
903.77598980001562
 20
-2034.8545822835652
 10
903.6797973008853
 20
-2035.002063018803
 42
0.0141601263952457
 10
903.376153253967
 20
-2035.4977323555327
 10
903.33661598654271
 20
-2035.5665763229615
 42
0.0071131081302247
 10
903.13134366330269
 20
-2035.9360791218025
 42
0.0068458791005445
 10
902.93646413646491
 20
-2036.3111706852678
 10
902.9296522740018
 20
-2036.3247323990022
 42
0.006412088029155
 10
902.73151002395434
 20
-2036.7321568739278
 10
902.72397533844048
 20
-2036.7481687306422
 42
0.0058857236447717
 10
902.52121994657193
 20
-2037.19254484167
 10
902.51304502027483
 20
-2037.2110349953111
 42
0.0053189741897957
 10
902.30434070760725
 20
-2037.6969984692294
 10
902.29559290192594
 20
-2037.7179803474253
 42
0.0047503650418463
 10
902.07961917577711
 20
-2038.2501797806303
 10
902.07035092742717
 20
-2038.2736561567428
 42
0.0042071762172495
 10
901.84580354369893
 20
-2038.8567497508136
 10
901.8360541413507
 20
-2038.8827159256823
 42
0.003668008648144
 10
901.60159949803756
 20
-2039.5213513102167
 10
901.59139171819083
 20
-2039.549799844558
 42
0.0032573142626166
 10
901.34575943223615
 20
-2040.2486525042766
 10
901.27710891138179
 20
-2040.4481155883691
 42
0.0026133366647837
 10
900.92866371262539
 20
-2041.4779788720364
 10
900.8654069251196
 20
-2041.6682097074452
 42
0.0020592950740373
 10
900.65154385615767
 20
-2042.3203133600425
 10
900.64849206498718
 20
-2042.3297498484751
 42
0.00256099285381
 10
900.44667156350874
 20
-2042.9648950708181
 10
900.44408019638308
 20
-2042.9731974117553
 42
0.003136235624211
 10
900.25458941070519
 20
-2043.5939602679382
 10
900.25245836777549
 20
-2043.6011015741569
 42
0.0037229918030384
 10
900.07565798085136
 20
-2044.2100868761233
 10
900.07397939165435
 20
-2044.2160337662644
 42
0.0043077623704093
 10
899.91023858957988
 20
-2044.8158524980668
 42
0.0047654161825146
 10
899.7574098670591
 20
-2045.4185385869891
 10
899.72294525822485
 20
-2045.5601003641189
 42
0.0112969368446019
 10
899.52708090008082
 20
-2046.4517925247444
 10
899.49907451098454
 20
-2046.5946205708408
 42
0.0130056762570164
 10
899.29823726733798
 20
-2047.7815616424857
 10
899.27769751719063
 20
-2047.9256397559645
 42
0.0138721532145221
 10
899.17399451265294
 20
-2048.8324692417882
 10
899.15469902474501
 20
-2049.0559669637132
 42
0.0071254697002232
 10
899.12135237882239
 20
-2049.5191539725611
 10
899.11639140466002
 20
-2049.6051579671066
 42
0.0028881799199882
 10
899.10125311136926
 20
-2049.8968996769636
 42
0.0060297297138887
 10
899.09132091159347
 20
-2050.1888486130947
 10
899.09025862992667
 20
-2050.2372409850104
 42
0.0229523164147735
 10
899.09798965771245
 20
-2050.5599958312951
 10
899.10221543123305
 20
-2050.6203993653139
 42
0.012367330067463
 10
899.12129407775114
 20
-2050.821520090486
 42
0.0128577674470311
 10
899.15048946815773
 20
-2051.0214179404147
 10
899.15761534154444
 20
-2051.0627467550098
 42
0.0285717853759448
 10
899.22210934324005
 20
-2051.3408629063229
 10
899.23577786690623
 20
-2051.3875176757992
 42
0.0316283099150735
 10
899.35158844682087
 20
-2051.7065321776263
 10
899.35463713857644
 20
-2051.7135185499519
 42
0.0338984824241524
 10
899.5040688495435
 20
-2052.001084514141
 10
899.50637757891354
 20
-2052.0048755434173
 42
0.0350228718352616
 10
899.68873786958693
 20
-2052.261927528094
 10
899.68962312136296
 20
-2052.2630066058591
 42
0.0347476747521844
 10
899.90404780860206
 20
-2052.490191653078
 42
0.0331337701908264
 10
900.14729113434908
 20
-2052.6863203151556
 10
900.14839123286458
 20
-2052.6870930183277
 42
0.0305233319085327
 10
900.41693592843831
 20
-2052.8522211884192
 10
900.42016597293923
 20
-2052.8539452002815
 42
0.0273744481154919
 10
900.71271968451356
 20
-2052.990083344172
 10
900.71782421965099
 20
-2052.9921269286415
 42
0.0240964406203053
 10
901.0333012952949
 20
-2053.1011106549222
 10
901.03988462450661
 20
-2053.103035394598
 42
0.0209636179817998
 10
901.37728477716269
 20
-2053.1865035425312
 10
901.38491723760797
 20
-2053.1880554555319
 42
0.0181388704691288
 10
901.74323962960727
 20
-2053.247471548746
 10
901.75152047798451
 20
-2053.2485377325629
 42
0.0156086547580065
 10
902.12970784217089
 20
-2053.2852739191399
 10
902.17290309450686
 20
-2053.2881124216192
 42
0.0137148329019607
 10
902.50057623979933
 20
-2053.30063267687
 10
902.54651242976956
 20
-2053.3011271099854
 42
0.0051057823885265
 10
902.78265801631755
 20
-2053.3012573643941
 42
0.0052256693313292
 10
903.01875530009852
 20
-2053.2965085399301
 10
903.08898208384562
 20
-2053.2943615739159
 42
0.0161507179040049
 10
903.464719161939
 20
-2053.2707112035905
 10
903.48473212231988
 20
-2053.268801008302
 42
0.0101216737829421
 10
903.89875934380984
 20
-2053.2208080779365
 10
903.9328126332374
 20
-2053.2161603811264
 42
0.0245291776401541
 10
904.40960228879203
 20
-2053.1270853030496
 10
904.49442560431896
 20
-2053.1068893827028
 42
0.0143509212556883
 10
904.85105670825214
 20
-2053.0110847489259
 42
0.0156557857043898
 10
905.201272772979
 20
-2052.8940735331066
 10
905.20877398747405
 20
-2052.8913033713525
 42
0.0170137333625642
 10
905.56536998315323
 20
-2052.7456457564826
 10
905.5724739055629
 20
-2052.7424579209178
 42
0.0183105364405631
 10
905.93182357372552
 20
-2052.5651228790957
 10
905.93877033836793
 20
-2052.5613724442214
 42
0.0194899958152163
 10
906.29725107935224
 20
-2052.3493934623307
 10
906.30426495868869
 20
-2052.3448681200357
 42
0.020486985294372
 10
906.65827926077918
 20
-2052.0953481049523
 10
906.66554486936957
 20
-2052.0897680396015
 42
0.0212516938554791
 10
907.0115348004806
 20
-2051.7998640427045
 10
907.05805149455239
 20
-2051.7573967326143
 42
0.0215248918249718
 10
907.31807766344082
 20
-2051.4986324536185
 10
907.36310739782152
 20
-2051.4497883322688
 42
0.0114578554946529
 10
907.51789955149889
 20
-2051.2739653988106
 10
907.52909408748621
 20
-2051.2606466352645
 42
0.0061531305136107
 10
907.65556873347987
 20
-2051.1063571019595
 42
0.0006325587118874
 10
907.77994721765174
 20
-2050.9503537262585
 10
907.8029873526832
 20
-2050.9213802056242
 42
0.0041897761551043
 10
907.97144275664982
 20
-2050.7058608295702
 10
908.02990487654802
 20
-2050.6297594825774
 42
0.0092993880041321
 10
908.30651680377775
 20
-2050.2554807186852
 10
908.38891129697538
 20
-2050.1395437151186
 42
0.0159321727087822
 10
908.73551777961302
 20
-2049.6173694943691
 10
908.77987391500335
 20
-2049.5456899301171
 42
0.008554731702174
 10
909.0143856803279
 20
-2049.1518149808944
 42
0.0084601156885636
 10
909.23536185777527
 20
-2048.7501881318522
 10
909.24347733160027
 20
-2048.7348284495893
 42
0.0081429654284259
 10
909.46672660203888
 20
-2048.2951069370456
 10
909.4755867662218
 20
-2048.2769280950288
 42
0.007657458132904
 10
909.70199427679324
 20
-2047.7937452197652
 10
909.71147391751219
 20
-2047.7726807414726
 42
0.007068272420335
 10
909.94191882531584
 20
-2047.2406434366992
 10
909.95190910930069
 20
-2047.2166542476798
 42
0.0064559514446318
 10
910.1872423174807
 20
-2046.6303419811654
 10
910.19765167564742
 20
-2046.6034070557187
 42
0.0058311413907315
 10
910.43869841241428
 20
-2045.9573749613237
 10
910.44945348979763
 20
-2045.9274906201745
 42
0.0052312425816802
 10
910.69703476783116
 20
-2045.2162882063617
 10
910.70807860421837
 20
-2045.1834614942702
 42
0.0046680544795296
 10
910.96300703195379
 20
-2044.4016351785122
 10
911.00499918199023
 20
-2044.2686519412428
 42
0.0041666856442659
 10
911.20828519439124
 20
-2043.6056831662177
 10
911.2459476350466
 20
-2043.4791020585926
 42
0.0015170975153433
 10
911.36713421346815
 20
-2043.0672337070703
 42
-0.0004887993118873
 10
911.48747398654609
 20
-2042.6551152951831
 10
911.56395124408641
 20
-2042.3941579090872
 42
0.0002583378928656
 10
911.8371658141416
 20
-2041.4601012059391
 10
911.91893866371151
 20
-2041.1800019463788
 42
0.000663616967027
 10
912.11280642373856
 20
-2040.5126490227383
 10
912.11790307805904
 20
-2040.4950174399498
 42
0.0010589131322869
 10
912.29935177900222
 20
-2039.8622860968094
 10
912.30433384949197
 20
-2039.8447731897568
 42
0.0015655524464763
 10
912.47260405666543
 20
-2039.2461565105884
 10
912.47743425706699
 20
-2039.2287643517009
 42
0.0021640440476388
 10
912.63172422906655
 20
-2038.6637373336343
 10
912.63635844850899
 20
-2038.6464726035938
 42
0.0028763871853836
 10
912.77587416654933
 20
-2038.1145046527934
 10
912.78026003071795
 20
-2038.0973806746335
 42
0.0037310511946998
 10
912.90421672255343
 20
-2037.5979330806151
 10
912.90829194284913
 20
-2037.5809728093418
 42
0.0047652197775541
 10
913.01591584335097
 20
-2037.1134950410647
 10
913.01960644267183
 20
-2037.0967354859258
 42
0.0060276699297129
 10
913.11013654182807
 20
-2036.6606596907704
 10
913.11335523211721
 20
-2036.6441584764611
 42
0.0075824337754207
 10
913.18604454153262
 20
-2036.2388913120351
 10
913.18868991891361
 20
-2036.2227363645802
 42
0.0095130624612521
 10
913.24280515454416
 20
-2035.8476470115127
 10
913.24979137842638
 20
-2035.7917134533993
 42
0.012105465321959
 10
913.27638270900457
 20
-2035.5268176249222
 10
913.27724919876368
 20
-2035.5154141819983
 42
0.0069050827381775
 10
913.29233801680175
 20
-2035.2724729551489
 10
913.29347331647034
 20
-2035.2489466981019
 42
0.0169063976705098
 10
913.2963005954507
 20
-2035.0527539708035
 10
913.29512994391939
 20
-2034.9924182094537
 42
0.0052007732890725
 10
913.29287649532637
 20
-2034.9168248193023
 42
0.0054038123300436
 10
913.27291298348496
 20
-2034.7968065232781
 10
913.26782712761701
 20
-2034.7681480367112
 42
0.0112050460461022
 10
913.23244276555909
 20
-2034.5918215983745
 10
913.21461780351797
 20
-2034.5122800116512
 42
0.0240764468012243
 10
913.1237204373715
 20
-2034.1820429761492
 10
913.1051616745583
 20
-2034.1254228111561
 42
0.0256812331836952
 10
912.96179875436883
 20
-2033.7536986048988
 10
912.95638932854752
 20
-2033.7415672699092
 42
0.0268360501210238
 10
912.78696208769747
 20
-2033.4105741358881
 10
912.78142568006297
 20
-2033.4010544655766
 42
0.0274670231729897
 10
912.58922470364905
 20
-2033.1087670906586
 10
912.58384340368627
 20
-2033.101487943117
 42
0.0275035967101235
 10
912.37227052412459
 20
-2032.8459720528133
 10
912.36720102315871
 20
-2032.8404929651836
 42
0.0269557673524832
 10
912.13979747971848
 20
-2032.6198506792205
 10
912.13505442193889
 20
-2032.6157207247622
 42
0.0259124802210252
 10
911.8954995905051
 20
-2032.4280301976073
 10
911.89096874532311
 20
-2032.424844695277
 42
0.0245162153002435
 10
911.64305239222847
 20
-2032.2681116861665
 10
911.63852584590427
 20
-2032.2655514889657
 42
0.0229282588841996
 10
911.38610628907691
 20
-2032.1376832964668
 10
911.38132579523881
 20
-2032.1355309967041
 42
0.0212984135692155
 10
911.12828784277849
 20
-2032.0343320794625
 10
911.12298355780536
 20
-2032.0324685167013
 42
0.0197555462352315
 10
910.87320522008599
 20
-2031.9556530987377
 42
0.0183511896790585
 10
910.61827649461657
 20
-2031.8980701917712
 10
910.53191129790252
 20
-2031.8818674013878
 42
0.0338057877143038
 10
910.24640394863945
 20
-2031.8480589962469
 10
910.15539854358826
 20
-2031.8434793409849
 42
0.0091990524505922
 10
910.04955143496352
 20
-2031.8401034850633
 42
0.0028333980780764
 10
909.94363751899107
 20
-2031.8392753775468
 10
909.94272206592132
 20
-2031.8392734077227
 42
-0.0023619827815939
 10
909.83497605082437
 20
-2031.8385325666443
 10
909.79857088063955
 20
-2031.8381102601811
 42
0.0008824598484826
 10
909.61801489074685
 20
-2031.8363344819425
 10
909.57415345838365
 20
-2031.8359805204173
 42
0.003813266576387
 10
909.3058705625167
 20
-2031.8358615843506
 10
909.28933690771134
 20
-2031.8359803504943
 42
0.0060665569335053
 10
908.98805641611193
 20
-2031.8418006499153
 10
908.97380608409469
 20
-2031.8422489578827
 42
0.0080356953334813
 10
908.6443473677632
 20
-2031.8579166799491
 10
908.63227735266821
 20
-2031.85868526289
 42
0.0098996399106471
 10
908.27951426801826
 20
-2031.8881704920882
 10
908.26946855864264
 20
-2031.8892107882864
 42
0.0117740981368695
 10
907.89831170029458
 20
-2031.9365030358163
 10
907.89008900381134
 20
-2031.937748152387
 42
0.0137435215135985
 10
907.50550018432239
 20
-2032.0068451259494
 10
907.49884314520295
 20
-2032.0082310221821
 42
0.01583598693873
 10
907.10584605140195
 20
-2032.1031231106624
 10
907.10043286453333
 20
-2032.1046130515333
 42
0.0180554124033283
 10
906.70411781991538
 20
-2032.2292510677742
 10
906.69956103183745
 20
-2032.2308671040385
 42
0.0203657431284569
 10
906.30508351402227
 20
-2032.3891274455559
 10
906.30093997501876
 20
-2032.3909890669961
 42
0.0226819684654235
 10
905.91350391882213
 20
-2032.5866316456631
 10
905.90930412779699
 20
-2032.5889972375869
 42
0.0248634984604425
 10
905.53412218661117
 20
-2032.8256238835372
 10
905.48592725783408
 20
-2032.8594809253582
 42
0.0267044190885831
 10
905.21163456091529
 20
-2033.074921301228
 42
0.0139303002201379
 10
904.95546739497331
 20
-2033.3121601421433
 10
904.95061400925556
 20
-2033.3169128050001
 42
0.028346096344064
 10
904.70654141502996
 20
-2033.5846434654429
 10
904.66687290987181
 20
-2033.6334450429181
 42
0.0070695364826344
 10
904.58943568401196
 20
-2033.7315118588836
 42
0.0070695364826344
  0
LWPOLYLINE
  5
AF
100
AcDbEntity
  8
0
370
              15
390
0
  6
Continuous
 62
               7
100
AcDbPolyline
 90
      226
 70
             128
 10
901.06061524676556
 20
-2049.4531006650677
 42
-0.002627763668398
 10
901.06053736296553
 20
-2049.3863287393374
 10
901.06075472119755
 20
-2049.3331735218817
 42
-0.008868029674039
 10
901.06453133749073
 20
-2049.1601577394754
 10
901.06687769660311
 20
-2049.100877714025
 42
-0.0077381705624509
 10
901.08292380736555
 20
-2048.809617218235
 10
901.08379171853926
 20
-2048.7973289845413
 42
-0.0068872530522896
 10
901.11042379828768
 20
-2048.4821072324694
 10
901.1116280224735
 20
-2048.4698662534538
 42
-0.0062130021485968
 10
901.14922173930086
 20
-2048.1309965622195
 10
901.15072564283651
 20
-2048.1188226902987
 42
-0.0056726929666928
 10
901.1996475023376
 20
-2047.7566274681933
 10
901.20142094798314
 20
-2047.74453366794
 42
-0.0052341884494344
 10
901.26203153424615
 20
-2047.3593404124042
 10
901.26404952301982
 20
-2047.3473354824298
 42
-0.0049768450165049
 10
901.33678820444834
 20
-2046.9394909149853
 10
901.36103721916788
 20
-2046.8109429319911
 42
-0.0089029805625344
 10
901.4981180709616
 20
-2046.1491674845734
 10
901.53086344628116
 20
-2046.0041360540451
 42
-0.0080318257098832
 10
901.76041206062041
 20
-2045.0584264221975
 10
901.77239698707012
 20
-2045.0122957870014
 42
-0.0074265721317095
 10
902.05640852592262
 20
-2043.9822312086121
 10
902.07628806903438
 20
-2043.9140971480397
 42
-0.0069711922702315
 10
902.40359264754341
 20
-2042.8478294077036
 10
902.46354459464999
 20
-2042.6618080493297
 42
-0.005207042289529
 10
902.69296981990828
 20
-2041.9745359723015
 10
902.71025101209921
 20
-2041.9245086916305
 42
-0.0009167004450512
 10
902.91334289936981
 20
-2041.3400528435304
 42
-0.0025162726942635
 10
903.12044052963017
 20
-2040.7570115793742
 10
903.15766514144445
 20
-2040.6538620334441
 42
-0.0028212681457976
 10
903.40584106040092
 20
-2039.9781314012914
 10
903.41567182315509
 20
-2039.9518239566053
 42
-0.0031964916821458
 10
903.65196408081397
 20
-2039.3316191944878
 10
903.66159853480679
 20
-2039.3068092043604
 42
-0.0036281836452864
 10
903.88670449591416
 20
-2038.7393685234513
 10
903.8961429060804
 20
-2038.7160710919266
 42
-0.0041269166833337
 10
904.11076060273081
 20
-2038.1986301959701
 10
904.14339355915013
 20
-2038.1217517496123
 42
-0.0047472213057792
 10
904.3004383647052
 20
-2037.7613302817256
 10
904.3073324459167
 20
-2037.7459096843863
 42
-0.0025651659997641
 10
904.45569047976358
 20
-2037.4185816286451
 42
-0.0057144634993603
 10
904.60944017353631
 20
-2037.0937719552799
 10
904.63747087893921
 20
-2037.0362635728823
 42
-0.0065388068373807
 10
904.82093790667591
 20
-2036.6720310762234
 10
904.82939636244782
 20
-2036.6557714968667
 42
-0.0074510843024648
 10
905.00557860833226
 20
-2036.3290832157313
 10
905.01375827886329
 20
-2036.3144424384625
 42
-0.0084648979856894
 10
905.18339213196327
 20
-2036.0225334275015
 10
905.19124825845392
 20
-2036.0095264358463
 42
-0.00956385427992
 10
905.35508370604566
 20
-2035.7496375638721
 10
905.36255864971577
 20
-2035.7382682024192
 42
-0.0107191626805237
 10
905.52136023010496
 20
-2035.5076569678724
 10
905.52837696383688
 20
-2035.4979208755067
 42
-0.0118458573904719
 10
905.68292506234854
 20
-2035.293848680197
 42
-0.0129184518196563
 10
905.84737768594914
 20
-2035.0976881640277
 10
905.87752245831109
 20
-2035.0635620851294
 42
-0.0217742579637303
 10
906.05413478064861
 20
-2034.8803553148771
 10
906.06488032512038
 20
-2034.8701384816634
 42
-0.0097266568649071
 10
906.23093794396459
 20
-2034.7182909072367
 42
-0.0187720905728787
 10
906.40528551984983
 20
-2034.5762220538509
 10
906.43599151052501
 20
-2034.5530629714538
 42
-0.0179428207520449
 10
906.6684122305245
 20
-2034.3905107943397
 10
906.67206455744542
 20
-2034.3881468594486
 42
-0.0170047877696879
 10
906.90782819497065
 20
-2034.2466863453005
 10
906.91161118372145
 20
-2034.244588040262
 42
-0.0160190788362379
 10
907.14851973135251
 20
-2034.1229367382762
 42
-0.015110286149578
 10
907.39255151380019
 20
-2034.0162539622211
 10
907.44493801601095
 20
-2033.9952138293268
 42
-0.0271945441890598
 10
907.80360057506562
 20
-2033.8733490186219
 10
907.87266537555809
 20
-2033.8539994773544
 42
-0.0237596594025045
 10
908.28846222257971
 20
-2033.758548765373
 10
908.35652507630175
 20
-2033.7462940772477
 42
-0.0213715440557715
 10
908.64240000775544
 20
-2033.7073470457365
 10
908.70254717397438
 20
-2033.7017573310354
 42
-0.0101465655812814
 10
908.87003970596766
 20
-2033.6896137877713
 10
908.87938009216327
 20
-2033.6891268727743
 42
-0.010037591088769
 10
909.02853419272844
 20
-2033.6843510548488
 10
909.03879346241547
 20
-2033.6842286158342
 42
-0.010362563337142
 10
909.16750145706374
 20
-2033.685360049361
 10
909.18976710832771
 20
-2033.6860174078256
 42
-0.0115689250235128
 10
909.2738178458585
 20
-2033.6904469140711
 42
-0.0072438037441312
 10
909.35765612529178
 20
-2033.6980361138201
 10
909.37445663477047
 20
-2033.6998026565448
 42
-0.0217917313117648
 10
909.49102639808973
 20
-2033.7172225492668
 10
909.55662648865086
 20
-2033.7299691576802
 42
-0.0332943556764583
 10
909.76101865367923
 20
-2033.7840094489873
 10
909.79119122222914
 20
-2033.7941775261056
 42
-0.0184824084792246
 10
909.92969627869456
 20
-2033.8466285414922
 42
-0.0198002050699995
 10
910.06377061919386
 20
-2033.9095126016914
 10
910.06565725657083
 20
-2033.9104903885714
 42
-0.0212242342976805
 10
910.1977961989727
 20
-2033.9862531273643
 10
910.19961149451638
 20
-2033.9873989295729
 42
-0.0226090605782599
 10
910.32811539574027
 20
-2034.0768785731393
 10
910.32995983747537
 20
-2034.0782908261249
 42
-0.0238457052231027
 10
910.45314191876935
 20
-2034.182286721988
 10
910.45509464732743
 20
-2034.1841015997534
 42
-0.0248160564149536
 10
910.57129615462736
 20
-2034.3033762009611
 10
910.5733997880302
 20
-2034.3057615346665
 42
-0.0254109591457298
 10
910.68100500589605
 20
-2034.4410499206308
 10
910.68325302781022
 20
-2034.4441914690315
 42
-0.0255528488285081
 10
910.78069970660727
 20
-2034.5962185232659
 10
910.78303080652336
 20
-2034.6003001348734
 42
-0.025214679322329
 10
910.86881183253206
 20
-2034.7698023808691
 10
910.87111407169016
 20
-2034.7749844627831
 42
-0.024426563595257
 10
910.94376876545118
 20
-2034.9627310348283
 10
910.9530151669195
 20
-2034.9905964531661
 42
-0.0231319612894744
 10
910.99893794591208
 20
-2035.1538974999694
 42
-0.0112130424360512
 10
911.0335739684507
 20
-2035.3201011001597
 10
911.03477649356273
 20
-2035.3265976870453
 42
-0.021052788123281
 10
911.06046296893396
 20
-2035.5076533324886
 10
911.06397356375555
 20
-2035.5430588810336
 42
-0.0190029892420684
 10
911.07941503730001
 20
-2035.7965947273044
 10
911.0802250137441
 20
-2035.832070341675
 42
-0.0137974553661337
 10
911.07867616090846
 20
-2036.15710174841
 10
911.07783070595269
 20
-2036.183220493009
 42
-0.0081336634212137
 10
911.06297137073045
 20
-2036.4885679606004
 42
-0.0073526923572451
 10
911.03866283735613
 20
-2036.7933162048826
 10
911.03740141357309
 20
-2036.8066528795516
 42
-0.0066886138695605
 10
911.00166582752558
 20
-2037.1372389230573
 10
911.00000873805675
 20
-2037.1508605420404
 42
-0.0061359187352474
 10
910.95215813600589
 20
-2037.5076245221405
 10
910.950120634933
 20
-2037.5215193249696
 42
-0.0056698610057464
 10
910.8894703041608
 20
-2037.9047978938372
 10
910.88706487084278
 20
-2037.9189570130384
 42
-0.0052721077273522
 10
910.81293267004025
 20
-2038.3290843527316
 10
910.81016952120149
 20
-2038.3435009881023
 42
-0.0049289272178854
 10
910.7218754031046
 20
-2038.7808094992099
 10
910.71876290841897
 20
-2038.7954783520404
 42
-0.0047415956715054
 10
910.61552491689054
 20
-2039.2602751094337
 10
910.58075670652681
 20
-2039.4100822048342
 42
-0.0084404470902294
 10
910.39074026295373
 20
-2040.17030622937
 10
910.38461357496931
 20
-2040.1931703535188
 42
-0.0039635940259078
 10
910.16315989068619
 20
-2040.9941592177631
 10
910.14978309550577
 20
-2041.0410908343581
 42
-0.0072475040838199
 10
909.88233620764186
 20
-2041.9303105507513
 10
909.81212388081804
 20
-2042.1520509007119
 42
-0.0051345458829275
 10
909.52536450875641
 20
-2043.0263760885314
 10
909.50383824199287
 20
-2043.0898023556499
 42
-0.0019150016601779
 10
909.24830483512221
 20
-2043.8333514758874
 10
909.24183723071303
 20
-2043.8519389408459
 42
-0.0021524362750818
 10
908.99335917966209
 20
-2044.556264762517
 10
908.98414875896583
 20
-2044.582018340818
 42
-0.002433128682221
 10
908.74789349992966
 20
-2045.2326176489366
 10
908.73884554736242
 20
-2045.2571609553361
 42
-0.0027449721788677
 10
908.51423097654379
 20
-2045.8562908342153
 10
908.50534096915896
 20
-2045.8796134240483
 42
-0.0031083229768891
 10
908.29179848254159
 20
-2046.4295374616472
 10
908.28306235087064
 20
-2046.4516271774933
 42
-0.0035311343285195
 10
908.08002116527427
 20
-2046.9546103032351
 10
908.07143582612309
 20
-2046.9754530267537
 42
-0.0040245640949153
 10
907.87832402233209
 20
-2047.4337623493379
 10
907.86988790872647
 20
-2047.4533417174162
 42
-0.0046015135850859
 10
907.68613161556527
 20
-2047.8692467470523
 10
907.67784543774633
 20
-2047.8875438864839
 42
-0.0052768638273327
 10
907.50286791878148
 20
-2048.2633167707745
 10
907.49473570814837
 20
-2048.2803101093305
 42
-0.006067267564218
 10
907.32795609538857
 20
-2048.6182257324322
 10
907.31998661490798
 20
-2048.6338909914275
 42
-0.0069904648872993
 10
907.16081822090541
 20
-2048.9362267980932
 10
907.15302682129686
 20
-2048.9505373473162
 42
-0.0080637022771898
 10
907.00087496094875
 20
-2049.2195726504733
 10
906.99328592831898
 20
-2049.2325005160715
 42
-0.0093006455661744
 10
906.84754525178607
 20
-2049.4705149145775
 10
906.84019458503803
 20
-2049.4820328837577
 42
-0.0107060778034165
 10
906.70024604160403
 20
-2049.6913032011298
 10
906.69318427332087
 20
-2049.7013887437006
 42
-0.0122723111413474
 10
906.55839055512615
 20
-2049.8841820731841
 10
906.55806433156908
 20
-2049.8846024609975
 42
-0.0141836319632613
 10
906.41448272859816
 20
-2050.0591722188237
 10
906.40753497294827
 20
-2050.0671472190861
 42
-0.017595747719643
 10
906.26762880491151
 20
-2050.2167681074934
 42
-0.0080466359673213
 10
906.12016503987934
 20
-2050.3590906356462
 10
906.07413049536376
 20
-2050.4021110737358
 42
-0.0269600260393104
 10
905.8208502493793
 20
-2050.6144343322458
 10
905.75428311308258
 20
-2050.6643857468694
 42
-0.0178362839755278
 10
905.51433862342799
 20
-2050.8314036731208
 10
905.50709365242551
 20
-2050.8360721853269
 42
-0.0174650732657361
 10
905.27075745498632
 20
-2050.9769331502848
 42
-0.0169240130171767
 10
905.02529120913334
 20
-2051.1012254100601
 10
904.97930505357067
 20
-2051.1225873656294
 42
-0.0318883036847697
 10
904.62895419795484
 20
-2051.2589256751385
 10
904.5605886627842
 20
-2051.2806262956155
 42
-0.0284435909902669
 10
904.18453853649498
 20
-2051.37684373109
 10
904.14938037599802
 20
-2051.383737326918
 42
-0.0243909341008816
 10
903.83593691507747
 20
-2051.4294583579485
 10
903.78565618830521
 20
-2051.4343039048504
 42
-0.0196639292922773
 10
903.57006061077914
 20
-2051.4465521903635
 10
903.51823653961219
 20
-2051.4474554511003
 42
-0.0100501510691557
 10
903.40581325795142
 20
-2051.4471550527469
 10
903.37415339659049
 20
-2051.4464339808615
 42
-0.0019752031101977
 10
903.32506105992593
 20
-2051.4451218206523
 10
903.32230075669645
 20
-2051.4450371288258
 42
0.0065378751969844
 10
903.27872418194897
 20
-2051.4442702376109
 42
-0.016797469469859
 10
903.23519335902017
 20
-2051.4426103390851
 10
903.23111401975507
 20
-2051.4423173281903
 42
-0.0081283276247247
 10
903.17955422201794
 20
-2051.4377703345522
 10
903.16781464813812
 20
-2051.4365424169737
 42
-0.0126703440156467
 10
903.09309635233774
 20
-2051.4268076259013
 10
903.07030848466775
 20
-2051.4232493699869
 42
-0.0117852088450986
 10
902.95076949883878
 20
-2051.4016863748302
 10
902.8953890470724
 20
-2051.3903428345952
 42
-0.0251774592289865
 10
902.6685450080646
 20
-2051.3318448251625
 10
902.62382581821134
 20
-2051.3178780058265
 42
-0.0146525199888496
 10
902.43743283067499
 20
-2051.253611478629
 42
-0.0166929435847285
 10
902.25545517454486
 20
-2051.1778043455729
 10
902.2507985432751
 20
-2051.1756794449602
 42
-0.0191684358438885
 10
902.06561491202569
 20
-2051.0824433611701
 10
902.06228232626904
 20
-2051.0806021136168
 42
-0.0221181781818432
 10
901.87897202236661
 20
-2050.9684686152464
 10
901.87662221835831
 20
-2050.9668843172553
 42
-0.0254984685391886
 10
901.70033206797189
 20
-2050.8344731672846
 10
901.67784992026861
 20
-2050.815720858347
 42
-0.0292492648794036
 10
901.55308098142802
 20
-2050.6986280587062
 42
-0.0159048957509417
 10
901.43924098397838
 20
-2050.5706080671075
 10
901.43792219339866
 20
-2050.5690264540872
 42
-0.0343813379556095
 10
901.33528493177198
 20
-2050.4271551283173
 10
901.30379340041213
 20
-2050.3766517362246
 42
-0.0369117275704739
 10
901.21790089851424
 20
-2050.2131744952749
 42
-0.0191751379913111
 10
901.15070751295718
 20
-2050.0407698892691
 10
901.14894418919766
 20
-2050.035676544594
 42
-0.0378178042244091
 10
901.09914947041364
 20
-2049.8467357685131
 10
901.09315417468304
 20
-2049.8141751503144
 42
-0.01848460464819
 10
901.07243697538888
 20
-2049.6724223297711
 42
-0.0179866351323919
 10
901.06210397031532
 20
-2049.5295315166932
 10
901.06204752786937
 20
-2049.5279738300774
 42
-0.008549718614007
 10
901.06061524676556
 20
-2049.4531006650677
 42
-0.008549718614007
  0
ENDBLK
  5
B0
100
AcDbEntity
  8
template
390
0
100
AcDbBlockEnd
  0
BLOCK
  5
B1
100
AcDbEntity
  8
notes
390
0
100
AcDbBlockBegin
  2
*D8
 70
               1
 10
0.0
 20
0.0
 30
0.0
  3
*D8
  1

  0
LINE
  5
B2
100
AcDbEntity
  8
0
370
              -2
390
0
  6
Continuous
 62
               0
100
AcDbLine
 10
-424.00900611781969
 20
849.09999999999991
 30
0.0
 11
-424.00900611781969
 21
991.5598952331336
 31
0.0
  0
LINE
  5
B3
100
AcDbEntity
  8
0
370
              -2
390
0
  6
Continuous
 62
               0
100
AcDbLine
 10
-524.00900611781981
 20
847.29999999999995
 30
0.0
 11
-524.00900611781981
 21
991.5598952331336
 31
0.0
  0
LINE
  5
B4
100
AcDbEntity
  8
0
370
              -2
390
0
  6
Continuous
 62
               0
100
AcDbLine
 10
-424.00900611781969
 20
991.5598952331336
 30
0.0
 11
-524.00900611781981
 21
991.5598952331336
 31
0.0
  0
CIRCLE
  5
B5
102
{ACAD_REACTORS
330
B6
102
}
100
AcDbEntity
  8
0
370
              -2
390
0
  6
Continuous
 62
               0
100
AcDbCircle
 10
-424.00900611781969
 20
991.5598952331336
 30
0.0
 40
1.9998779296875
  0
HATCH
  5
B6
100
AcDbEntity
  8
0
370
              -2
390
0
  6
Continuous
 62
               0
100
AcDbHatch
 10
0.0
 20
0.0
 30
0.0
210
0.0
220
0.0
230
1.0
  2
SOLID
 70
               1
 71
               1
 91
        1
 92
        1
 93
        1
 72
               2
 10
-424.00900611781969
 20
991.5598952331336
 40
1.9998779296875
 50
0.0
 51
360.0
 73
               0
 97
        1
330
B5
 75
               0
 76
               1
 98
        1
 10
0.0
 20
0.0
  0
CIRCLE
  5
B7
102
{ACAD_REACTORS
330
B8
102
}
100
AcDbEntity
  8
0
370
              -2
390
0
  6
Continuous
 62
               0
100
AcDbCircle
 10
-524.00900611781981
 20
991.5598952331336
 30
0.0
 40
1.9998779296875
  0
HATCH
  5
B8
100
AcDbEntity
  8
0
370
              -2
390
0
  6
Continuous
 62
               0
100
AcDbHatch
 10
0.0
 20
0.0
 30
0.0
210
0.0
220
0.0
230
1.0
  2
SOLID
 70
               1
 71
               1
 91
        1
 92
        1
 93
        1
 72
               2
 10
-524.00900611781981
 20
991.5598952331336
 40
1.9998779296875
 50
0.0
 51
360.0
 73
               0
 97
        1
330
B7
 75
               0
 76
               1
 98
        1
 10
0.0
 20
0.0
  0
MTEXT
  5
B9
100
AcDbEntity
  8
0
390
0
 62
               0
100
AcDbMText
 10
-497.82150779999529
 20
1025.4375124206335
 30
0.0
 40
24.432617187500004
 41
0.0
 71
               1
 72
               1
  1
100
  7
ＭＳ ゴシック
 73
               1
 44
0.7828267384257843
  0
POINT
  5
BA
100
AcDbEntity
  8
Defpoints
370
               0
390
0
 62
               0
100
AcDbPoint
 10
-524.00900611781981
 20
822.29999999999995
 30
0.0
  0
POINT
  5
BB
100
AcDbEntity
  8
Defpoints
370
               0
390
0
 62
               0
100
AcDbPoint
 10
-424.00900611781969
 20
824.09999999999991
 30
0.0
  0
POINT
  5
BC
100
AcDbEntity
  8
Defpoints
370
               0
390
0
 62
               0
100
AcDbPoint
 10
-424.00900611781969
 20
991.5598952331336
 30
0.0
  0
ENDBLK
  5
BD
100
AcDbEntity
  8
notes
390
0
100
AcDbBlockEnd
  0
BLOCK
  5
BE
100
AcDbEntity
  8
notes
390
0
100
AcDbBlockBegin
  2
*D9
 70
               1
 10
0.0
 20
0.0
 30
0.0
  3
*D9
  1

  0
LINE
  5
BF
100
AcDbEntity
  8
0
370
              -2
390
0
  6
Continuous
 62
               0
100
AcDbLine
 10
-424.00900611781969
 20
849.09999999999991
 30
0.0
 11
-424.00900611781969
 21
991.5598952331336
 31
0.0
  0
LINE
  5
C0
100
AcDbEntity
  8
0
370
              -2
390
0
  6
Continuous
 62
               0
100
AcDbLine
 10
-324.00900611781969
 20
847.29999999999995
 30
0.0
 11
-324.00900611781969
 21
991.5598952331336
 31
0.0
  0
LINE
  5
C1
100
AcDbEntity
  8
0
370
              -2
390
0
  6
Continuous
 62
               0
100
AcDbLine
 10
-424.00900611781969
 20
991.5598952331336
 30
0.0
 11
-324.00900611781969
 21
991.5598952331336
 31
0.0
  0
CIRCLE
  5
C2
102
{ACAD_REACTORS
330
C3
102
}
100
AcDbEntity
  8
0
370
              -2
390
0
  6
Continuous
 62
               0
100
AcDbCircle
 10
-424.00900611781969
 20
991.5598952331336
 30
0.0
 40
1.9998779296875
  0
HATCH
  5
C3
100
AcDbEntity
  8
0
370
              -2
390
0
  6
Continuous
 62
               0
100
AcDbHatch
 10
0.0
 20
0.0
 30
0.0
210
0.0
220
0.0
230
1.0
  2
SOLID
 70
               1
 71
               1
 91
        1
 92
        1
 93
        1
 72
               2
 10
-424.00900611781969
 20
991.5598952331336
 40
1.9998779296875
 50
0.0
 51
360.0
 73
               0
 97
        1
330
C2
 75
               0
 76
               1
 98
        1
 10
0.0
 20
0.0
  0
CIRCLE
  5
C4
102
{ACAD_REACTORS
330
C5
102
}
100
AcDbEntity
  8
0
370
              -2
390
0
  6
Continuous
 62
               0
100
AcDbCircle
 10
-324.00900611781969
 20
991.5598952331336
 30
0.0
 40
1.9998779296875
  0
HATCH
  5
C5
100
AcDbEntity
  8
0
370
              -2
390
0
  6
Continuous
 62
               0
100
AcDbHatch
 10
0.0
 20
0.0
 30
0.0
210
0.0
220
0.0
230
1.0
  2
SOLID
 70
               1
 71
               1
 91
        1
 92
        1
 93
        1
 72
               2
 10
-324.00900611781969
 20
991.5598952331336
 40
1.9998779296875
 50
0.0
 51
360.0
 73
               0
 97
        1
330
C4
 75
               0
 76
               1
 98
        1
 10
0.0
 20
0.0
  0
MTEXT
  5
C6
100
AcDbEntity
  8
0
390
0
 62
               0
100
AcDbMText
 10
-397.82150779999529
 20
1025.4375124206335
 30
0.0
 40
24.432617187500004
 41
0.0
 71
               1
 72
               1
  1
100
  7
ＭＳ ゴシック
 73
               1
 44
0.7828267384257843
  0
POINT
  5
C7
100
AcDbEntity
  8
Defpoints
370
               0
390
0
 62
               0
100
AcDbPoint
 10
-324.00900611781969
 20
822.29999999999995
 30
0.0
  0
POINT
  5
C8
100
AcDbEntity
  8
Defpoints
370
               0
390
0
 62
               0
100
AcDbPoint
 10
-424.00900611781969
 20
824.09999999999991
 30
0.0
  0
POINT
  5
C9
100
AcDbEntity
  8
Defpoints
370
               0
390
0
 62
               0
100
AcDbPoint
 10
-424.00900611781969
 20
991.5598952331336
 30
0.0
  0
ENDBLK
  5
CA
100
AcDbEntity
  8
notes
390
0
100
AcDbBlockEnd
  0
BLOCK
  5
CB
100
AcDbEntity
  8
notes
390
0
100
AcDbBlockBegin
  2
*D10
 70
               1
 10
0.0
 20
0.0
 30
0.0
  3
*D10
  1

  0
LINE
  5
CC
100
AcDbEntity
  8
0
370
              -2
390
0
  6
Continuous
 62
               0
100
AcDbLine
 10
-749.02964956400115
 20
912.0642285034703
 30
0.0
 11
-749.02964956400115
 21
1041.5635232083314
 31
0.0
  0
LINE
  5
CD
100
AcDbEntity
  8
0
370
              -2
390
0
  6
Continuous
 62
               0
100
AcDbLine
 10
-99.029703817473234
 20
912.0642285034703
 30
0.0
 11
-99.029703817473234
 21
1041.5635232083314
 31
0.0
  0
LINE
  5
CE
100
AcDbEntity
  8
0
370
              -2
390
0
  6
Continuous
 62
               0
100
AcDbLine
 10
-749.02964956400115
 20
1041.5635232083314
 30
0.0
 11
-99.029703817473234
 21
1041.5635232083314
 31
0.0
  0
CIRCLE
  5
CF
102
{ACAD_REACTORS
330
D0
102
}
100
AcDbEntity
  8
0
370
              -2
390
0
  6
Continuous
 62
               0
100
AcDbCircle
 10
-749.02964956400115
 20
1041.5635232083314
 30
0.0
 40
1.9998779296875
  0
HATCH
  5
D0
100
AcDbEntity
  8
0
370
              -2
390
0
  6
Continuous
 62
               0
100
AcDbHatch
 10
0.0
 20
0.0
 30
0.0
210
0.0
220
0.0
230
1.0
  2
SOLID
 70
               1
 71
               1
 91
        1
 92
        1
 93
        1
 72
               2
 10
-749.02964956400115
 20
1041.5635232083314
 40
1.9998779296875
 50
0.0
 51
360.0
 73
               0
 97
        1
330
CF
 75
               0
 76
               1
 98
        1
 10
0.0
 20
0.0
  0
CIRCLE
  5
D1
102
{ACAD_REACTORS
330
D2
102
}
100
AcDbEntity
  8
0
370
              -2
390
0
  6
Continuous
 62
               0
100
AcDbCircle
 10
-99.029703817473234
 20
1041.5635232083314
 30
0.0
 40
1.9998779296875
  0
HATCH
  5
D2
100
AcDbEntity
  8
0
370
              -2
390
0
  6
Continuous
 62
               0
100
AcDbHatch
 10
0.0
 20
0.0
 30
0.0
210
0.0
220
0.0
230
1.0
  2
SOLID
 70
               1
 71
               1
 91
        1
 92
        1
 93
        1
 72
               2
 10
-99.029703817473234
 20
1041.5635232083314
 40
1.9998779296875
 50
0.0
 51
360.0
 73
               0
 97
        1
330
D1
 75
               0
 76
               1
 98
        1
 10
0.0
 20
0.0
  0
MTEXT
  5
D3
100
AcDbEntity
  8
0
390
0
 62
               0
100
AcDbMText
 10
-447.84217837291271
 20
1075.4411403958313
 30
0.0
 40
24.432617187500004
 41
0.0
 71
               1
 72
               1
  1
650
  7
ＭＳ ゴシック
 73
               1
 44
0.7828267384257843
  0
POINT
  5
D4
100
AcDbEntity
  8
Defpoints
370
               0
390
0
 62
               0
100
AcDbPoint
 10
-99.029703817473234
 20
887.0642285034703
 30
0.0
  0
POINT
  5
D5
100
AcDbEntity
  8
Defpoints
370
               0
390
0
 62
               0
100
AcDbPoint
 10
-749.02964956400115
 20
887.0642285034703
 30
0.0
  0
POINT
  5
D6
100
AcDbEntity
  8
Defpoints
370
               0
390
0
 62
               0
100
AcDbPoint
 10
-749.02964956400115
 20
1041.5635232083314
 30
0.0
  0
ENDBLK
  5
D7
100
AcDbEntity
  8
notes
390
0
100
AcDbBlockEnd
  0
BLOCK
  5
D8
100
AcDbEntity
  8
notes
390
0
100
AcDbBlockBegin
  2
*D11
 70
               1
 10
0.0
 20
0.0
 30
0.0
  3
*D11
  1

  0
LINE
  5
D9
100
AcDbEntity
  8
0
370
              -2
390
0
  6
Continuous
 62
               0
100
AcDbLine
 10
-78.528998522334419
 20
891.5598952331336
 30
0.0
 11
0.9571368361184369
 21
891.5598952331336
 31
0.0
  0
LINE
  5
DA
100
AcDbEntity
  8
0
370
              -2
390
0
  6
Continuous
 62
               0
100
AcDbLine
 10
-337.98947486782004
 20
381.5598952331336
 30
0.0
 11
0.9571368361184511
 21
381.5598952331336
 31
0.0
  0
LINE
  5
DB
100
AcDbEntity
  8
0
370
              -2
390
0
  6
Continuous
 62
               0
100
AcDbLine
 10
0.9571368361184369
 20
891.5598952331336
 30
0.0
 11
0.9571368361184511
 21
381.5598952331336
 31
0.0
  0
CIRCLE
  5
DC
102
{ACAD_REACTORS
330
DD
102
}
100
AcDbEntity
  8
0
370
              -2
390
0
  6
Continuous
 62
               0
100
AcDbCircle
 10
0.9571368361184369
 20
891.5598952331336
 30
0.0
 40
1.9998779296875
  0
HATCH
  5
DD
100
AcDbEntity
  8
0
370
              -2
390
0
  6
Continuous
 62
               0
100
AcDbHatch
 10
0.0
 20
0.0
 30
0.0
210
0.0
220
0.0
230
1.0
  2
SOLID
 70
               1
 71
               1
 91
        1
 92
        1
 93
        1
 72
               2
 10
0.9571368361184369
 20
891.5598952331336
 40
1.9998779296875
 50
0.0
 51
360.0
 73
               0
 97
        1
330
DC
 75
               0
 76
               1
 98
        1
 10
0.0
 20
0.0
  0
CIRCLE
  5
DE
102
{ACAD_REACTORS
330
DF
102
}
100
AcDbEntity
  8
0
370
              -2
390
0
  6
Continuous
 62
               0
100
AcDbCircle
 10
0.9571368361184511
 20
381.5598952331336
 30
0.0
 40
1.9998779296875
  0
HATCH
  5
DF
100
AcDbEntity
  8
0
370
              -2
390
0
  6
Continuous
 62
               0
100
AcDbHatch
 10
0.0
 20
0.0
 30
0.0
210
0.0
220
0.0
230
1.0
  2
SOLID
 70
               1
 71
               1
 91
        1
 92
        1
 93
        1
 72
               2
 10
0.9571368361184511
 20
381.5598952331336
 40
1.9998779296875
 50
0.0
 51
360.0
 73
               0
 97
        1
330
DE
 75
               0
 76
               1
 98
        1
 10
0.0
 20
0.0
  0
MTEXT
  5
E0
100
AcDbEntity
  8
0
390
0
 62
               0
100
AcDbMText
 10
-32.920480351381563
 20
612.74739355095812
 30
0.0
 40
24.432617187500004
 41
0.0
 71
               1
 72
               1
  1
510
  7
ＭＳ ゴシック
 11
0.0
 21
1.0
 31
0.0
 73
               1
 44
0.7828267384257843
  0
POINT
  5
E1
100
AcDbEntity
  8
Defpoints
370
               0
390
0
 62
               0
100
AcDbPoint
 10
-362.98947486782004
 20
381.5598952331336
 30
0.0
  0
POINT
  5
E2
100
AcDbEntity
  8
Defpoints
370
               0
390
0
 62
               0
100
AcDbPoint
 10
-103.52899852233442
 20
891.5598952331336
 30
0.0
  0
POINT
  5
E3
100
AcDbEntity
  8
Defpoints
370
               0
390
0
 62
               0
100
AcDbPoint
 10
0.9571368361184369
 20
891.5598952331336
 30
0.0
  0
ENDBLK
  5
E4
100
AcDbEntity
  8
notes
390
0
100
AcDbBlockEnd
  0
BLOCK
  5
E5
100
AcDbEntity
  8
notes
390
0
100
AcDbBlockBegin
  2
*D12
 70
               1
 10
0.0
 20
0.0
 30
0.0
  3
*D12
  1

  0
LINE
  5
E6
100
AcDbEntity
  8
0
370
              -2
390
0
  6
Continuous
 62
               0
100
AcDbLine
 10
-689.02871059899906
 20
380.11479198439571
 30
0.0
 11
-689.02871059899906
 21
281.14832839285668
 31
0.0
  0
LINE
  5
E7
100
AcDbEntity
  8
0
370
              -2
390
0
  6
Continuous
 62
               0
100
AcDbLine
 10
-159.03064278247527
 20
380.11479198439571
 30
0.0
 11
-159.03064278247527
 21
281.14832839285668
 31
0.0
  0
LINE
  5
E8
100
AcDbEntity
  8
0
370
              -2
390
0
  6
Continuous
 62
               0
100
AcDbLine
 10
-689.02871059899906
 20
281.14832839285668
 30
0.0
 11
-159.03064278247527
 21
281.14832839285668
 31
0.0
  0
CIRCLE
  5
E9
102
{ACAD_REACTORS
330
EA
102
}
100
AcDbEntity
  8
0
370
              -2
390
0
  6
Continuous
 62
               0
100
AcDbCircle
 10
-689.02871059899906
 20
281.14832839285668
 30
0.0
 40
1.9998779296875
  0
HATCH
  5
EA
100
AcDbEntity
  8
0
370
              -2
390
0
  6
Continuous
 62
               0
100
AcDbHatch
 10
0.0
 20
0.0
 30
0.0
210
0.0
220
0.0
230
1.0
  2
SOLID
 70
               1
 71
               1
 91
        1
 92
        1
 93
        1
 72
               2
 10
-689.02871059899906
 20
281.14832839285668
 40
1.9998779296875
 50
0.0
 51
360.0
 73
               0
 97
        1
330
E9
 75
               0
 76
               1
 98
        1
 10
0.0
 20
0.0
  0
CIRCLE
  5
EB
102
{ACAD_REACTORS
330
EC
102
}
100
AcDbEntity
  8
0
370
              -2
390
0
  6
Continuous
 62
               0
100
AcDbCircle
 10
-159.03064278247527
 20
281.14832839285668
 30
0.0
 40
1.9998779296875
  0
HATCH
  5
EC
100
AcDbEntity
  8
0
370
              -2
390
0
  6
Continuous
 62
               0
100
AcDbHatch
 10
0.0
 20
0.0
 30
0.0
210
0.0
220
0.0
230
1.0
  2
SOLID
 70
               1
 71
               1
 91
        1
 92
        1
 93
        1
 72
               2
 10
-159.03064278247527
 20
281.14832839285668
 40
1.9998779296875
 50
0.0
 51
360.0
 73
               0
 97
        1
330
EB
 75
               0
 76
               1
 98
        1
 10
0.0
 20
0.0
  0
MTEXT
  5
ED
100
AcDbEntity
  8
0
390
0
 62
               0
100
AcDbMText
 10
-447.84217837291271
 20
315.02594558035668
 30
0.0
 40
24.432617187500004
 41
0.0
 71
               1
 72
               1
  1
530
  7
ＭＳ ゴシック
 73
               1
 44
0.7828267384257843
  0
POINT
  5
EE
100
AcDbEntity
  8
Defpoints
370
               0
390
0
 62
               0
100
AcDbPoint
 10
-159.03064278247527
 20
405.11479198439571
 30
0.0
  0
POINT
  5
EF
100
AcDbEntity
  8
Defpoints
370
               0
390
0
 62
               0
100
AcDbPoint
 10
-689.02871059899906
 20
405.11479198439571
 30
0.0
  0
POINT
  5
F0
100
AcDbEntity
  8
Defpoints
370
               0
390
0
 62
               0
100
AcDbPoint
 10
-689.02871059899906
 20
281.14832839285668
 30
0.0
  0
ENDBLK
  5
F1
100
AcDbEntity
  8
notes
390
0
100
AcDbBlockEnd
  0
BLOCK
  5
F2
100
AcDbEntity
  8
notes
390
0
100
AcDbBlockBegin
  2
*D13
 70
               1
 10
0.0
 20
0.0
 30
0.0
  3
*D13
  1

  0
LINE
  5
F3
100
AcDbEntity
  8
0
370
              -2
390
0
  6
Continuous
 62
               0
100
AcDbLine
 10
-777.19864909539842
 20
431.57757288685974
 30
0.0
 11
-848.78711727540406
 21
431.57757288685974
 31
0.0
  0
LINE
  5
F4
100
AcDbEntity
  8
0
370
              -2
390
0
  6
Continuous
 62
               0
100
AcDbLine
 10
-777.41794735393182
 20
751.57757288685968
 30
0.0
 11
-848.78711727540406
 21
751.57757288685968
 31
0.0
  0
LINE
  5
F5
100
AcDbEntity
  8
0
370
              -2
390
0
  6
Continuous
 62
               0
100
AcDbLine
 10
-848.78711727540406
 20
431.57757288685974
 30
0.0
 11
-848.78711727540406
 21
751.57757288685968
 31
0.0
  0
CIRCLE
  5
F6
102
{ACAD_REACTORS
330
F7
102
}
100
AcDbEntity
  8
0
370
              -2
390
0
  6
Continuous
 62
               0
100
AcDbCircle
 10
-848.78711727540406
 20
431.57757288685974
 30
0.0
 40
1.9998779296875
  0
HATCH
  5
F7
100
AcDbEntity
  8
0
370
              -2
390
0
  6
Continuous
 62
               0
100
AcDbHatch
 10
0.0
 20
0.0
 30
0.0
210
0.0
220
0.0
230
1.0
  2
SOLID
 70
               1
 71
               1
 91
        1
 92
        1
 93
        1
 72
               2
 10
-848.78711727540406
 20
431.57757288685974
 40
1.9998779296875
 50
0.0
 51
360.0
 73
               0
 97
        1
330
F6
 75
               0
 76
               1
 98
        1
 10
0.0
 20
0.0
  0
CIRCLE
  5
F8
102
{ACAD_REACTORS
330
F9
102
}
100
AcDbEntity
  8
0
370
              -2
390
0
  6
Continuous
 62
               0
100
AcDbCircle
 10
-848.78711727540406
 20
751.57757288685968
 30
0.0
 40
1.9998779296875
  0
HATCH
  5
F9
100
AcDbEntity
  8
0
370
              -2
390
0
  6
Continuous
 62
               0
100
AcDbHatch
 10
0.0
 20
0.0
 30
0.0
210
0.0
220
0.0
230
1.0
  2
SOLID
 70
               1
 71
               1
 91
        1
 92
        1
 93
        1
 72
               2
 10
-848.78711727540406
 20
751.57757288685968
 40
1.9998779296875
 50
0.0
 51
360.0
 73
               0
 97
        1
330
F8
 75
               0
 76
               1
 98
        1
 10
0.0
 20
0.0
  0
MTEXT
  5
FA
100
AcDbEntity
  8
0
390
0
 62
               0
100
AcDbMText
 10
-882.66473446290411
 20
567.7650712046842
 30
0.0
 40
24.432617187500004
 41
0.0
 71
               1
 72
               1
  1
320
  7
ＭＳ ゴシック
 11
0.0
 21
1.0
 31
0.0
 73
               1
 44
0.7828267384257843
  0
POINT
  5
FB
100
AcDbEntity
  8
Defpoints
370
               0
390
0
 62
               0
100
AcDbPoint
 10
-752.41794735393182
 20
751.57757288685968
 30
0.0
  0
POINT
  5
FC
100
AcDbEntity
  8
Defpoints
370
               0
390
0
 62
               0
100
AcDbPoint
 10
-752.19864909539842
 20
431.57757288685974
 30
0.0
  0
POINT
  5
FD
100
AcDbEntity
  8
Defpoints
370
               0
390
0
 62
               0
100
AcDbPoint
 10
-848.78711727540406
 20
431.57757288685974
 30
0.0
  0
ENDBLK
  5
FE
100
AcDbEntity
  8
notes
390
0
100
AcDbBlockEnd
  0
BLOCK
  5
FF
100
AcDbEntity
  8
notes
390
0
100
AcDbBlockBegin
  2
*D14
 70
               1
 10
0.0
 20
0.0
 30
0.0
  3
*D14
  1

  0
LINE
  5
100
100
AcDbEntity
  8
0
370
              -2
390
0
  6
Continuous
 62
               0
100
AcDbLine
 10
-773.99158155792293
 20
751.55349332341154
 30
0.0
 11
-848.78711727540406
 21
751.55349332341154
 31
0.0
  0
LINE
  5
101
100
AcDbEntity
  8
0
370
              -2
390
0
  6
Continuous
 62
               0
100
AcDbLine
 10
-775.91386647614752
 20
891.55349332341154
 30
0.0
 11
-848.78711727540406
 21
891.55349332341154
 31
0.0
  0
LINE
  5
102
100
AcDbEntity
  8
0
370
              -2
390
0
  6
Continuous
 62
               0
100
AcDbLine
 10
-848.78711727540406
 20
751.55349332341154
 30
0.0
 11
-848.78711727540406
 21
891.55349332341154
 31
0.0
  0
CIRCLE
  5
103
102
{ACAD_REACTORS
330
104
102
}
100
AcDbEntity
  8
0
370
              -2
390
0
  6
Continuous
 62
               0
100
AcDbCircle
 10
-848.78711727540406
 20
751.55349332341154
 30
0.0
 40
1.9998779296875
  0
HATCH
  5
104
100
AcDbEntity
  8
0
370
              -2
390
0
  6
Continuous
 62
               0
100
AcDbHatch
 10
0.0
 20
0.0
 30
0.0
210
0.0
220
0.0
230
1.0
  2
SOLID
 70
               1
 71
               1
 91
        1
 92
        1
 93
        1
 72
               2
 10
-848.78711727540406
 20
751.55349332341154
 40
1.9998779296875
 50
0.0
 51
360.0
 73
               0
 97
        1
330
103
 75
               0
 76
               1
 98
        1
 10
0.0
 20
0.0
  0
CIRCLE
  5
105
102
{ACAD_REACTORS
330
106
102
}
100
AcDbEntity
  8
0
370
              -2
390
0
  6
Continuous
 62
               0
100
AcDbCircle
 10
-848.78711727540406
 20
891.55349332341154
 30
0.0
 40
1.9998779296875
  0
HATCH
  5
106
100
AcDbEntity
  8
0
370
              -2
390
0
  6
Continuous
 62
               0
100
AcDbHatch
 10
0.0
 20
0.0
 30
0.0
210
0.0
220
0.0
230
1.0
  2
SOLID
 70
               1
 71
               1
 91
        1
 92
        1
 93
        1
 72
               2
 10
-848.78711727540406
 20
891.55349332341154
 40
1.9998779296875
 50
0.0
 51
360.0
 73
               0
 97
        1
330
105
 75
               0
 76
               1
 98
        1
 10
0.0
 20
0.0
  0
MTEXT
  5
107
100
AcDbEntity
  8
0
390
0
 62
               0
100
AcDbMText
 10
-882.66473446290411
 20
797.74099164123595
 30
0.0
 40
24.432617187500004
 41
0.0
 71
               1
 72
               1
  1
140
  7
ＭＳ ゴシック
 11
0.0
 21
1.0
 31
0.0
 73
               1
 44
0.7828267384257843
  0
POINT
  5
108
100
AcDbEntity
  8
Defpoints
370
               0
390
0
 62
               0
100
AcDbPoint
 10
-750.91386647614752
 20
891.55349332341154
 30
0.0
  0
POINT
  5
109
100
AcDbEntity
  8
Defpoints
370
               0
390
0
 62
               0
100
AcDbPoint
 10
-748.99158155792293
 20
751.55349332341154
 30
0.0
  0
POINT
  5
10A
100
AcDbEntity
  8
Defpoints
370
               0
390
0
 62
               0
100
AcDbPoint
 10
-848.78711727540406
 20
751.55349332341154
 30
0.0
  0
ENDBLK
  5
10B
100
AcDbEntity
  8
notes
390
0
100
AcDbBlockEnd
  0
BLOCK
  5
10C
100
AcDbEntity
  8
notes
390
0
100
AcDbBlockBegin
  2
*D15
 70
               1
 10
0.0
 20
0.0
 30
0.0
  3
*D15
  1

  0
LINE
  5
10D
100
AcDbEntity
  8
0
370
              -2
390
0
  6
Continuous
 62
               0
100
AcDbLine
 10
-563.76172245422788
 20
-532.47556212651591
 30
0.0
 11
-563.76172245422788
 21
-389.01463853035114
 31
0.0
  0
LINE
  5
10E
100
AcDbEntity
  8
0
370
              -2
390
0
  6
Continuous
 62
               0
100
AcDbLine
 10
-283.76172245422754
 20
-532.47556212651591
 30
0.0
 11
-283.76172245422754
 21
-389.01463853035114
 31
0.0
  0
LINE
  5
10F
100
AcDbEntity
  8
0
370
              -2
390
0
  6
Continuous
 62
               0
100
AcDbLine
 10
-563.76172245422788
 20
-389.01463853035114
 30
0.0
 11
-283.76172245422754
 21
-389.01463853035114
 31
0.0
  0
CIRCLE
  5
110
102
{ACAD_REACTORS
330
111
102
}
100
AcDbEntity
  8
0
370
              -2
390
0
  6
Continuous
 62
               0
100
AcDbCircle
 10
-563.76172245422788
 20
-389.01463853035114
 30
0.0
 40
1.9998779296875
  0
HATCH
  5
111
100
AcDbEntity
  8
0
370
              -2
390
0
  6
Continuous
 62
               0
100
AcDbHatch
 10
0.0
 20
0.0
 30
0.0
210
0.0
220
0.0
230
1.0
  2
SOLID
 70
               1
 71
               1
 91
        1
 92
        1
 93
        1
 72
               2
 10
-563.76172245422788
 20
-389.01463853035114
 40
1.9998779296875
 50
0.0
 51
360.0
 73
               0
 97
        1
330
110
 75
               0
 76
               1
 98
        1
 10
0.0
 20
0.0
  0
CIRCLE
  5
112
102
{ACAD_REACTORS
330
113
102
}
100
AcDbEntity
  8
0
370
              -2
390
0
  6
Continuous
 62
               0
100
AcDbCircle
 10
-283.76172245422754
 20
-389.01463853035114
 30
0.0
 40
1.9998779296875
  0
HATCH
  5
113
100
AcDbEntity
  8
0
370
              -2
390
0
  6
Continuous
 62
               0
100
AcDbHatch
 10
0.0
 20
0.0
 30
0.0
210
0.0
220
0.0
230
1.0
  2
SOLID
 70
               1
 71
               1
 91
        1
 92
        1
 93
        1
 72
               2
 10
-283.76172245422754
 20
-389.01463853035114
 40
1.9998779296875
 50
0.0
 51
360.0
 73
               0
 97
        1
330
112
 75
               0
 76
               1
 98
        1
 10
0.0
 20
0.0
  0
MTEXT
  5
114
100
AcDbEntity
  8
0
390
0
 62
               0
100
AcDbMText
 10
-447.57422413640325
 20
-355.1370213428512
 30
0.0
 40
24.432617187500004
 41
0.0
 71
               1
 72
               1
  1
280
  7
ＭＳ ゴシック
 73
               1
 44
0.7828267384257843
  0
POINT
  5
115
100
AcDbEntity
  8
Defpoints
370
               0
390
0
 62
               0
100
AcDbPoint
 10
-283.76172245422754
 20
-557.47556212651591
 30
0.0
  0
POINT
  5
116
100
AcDbEntity
  8
Defpoints
370
               0
390
0
 62
               0
100
AcDbPoint
 10
-563.76172245422788
 20
-557.47556212651591
 30
0.0
  0
POINT
  5
117
100
AcDbEntity
  8
Defpoints
370
               0
390
0
 62
               0
100
AcDbPoint
 10
-563.76172245422788
 20
-389.01463853035114
 30
0.0
  0
ENDBLK
  5
118
100
AcDbEntity
  8
notes
390
0
100
AcDbBlockEnd
  0
BLOCK
  5
119
100
AcDbEntity
  8
notes
390
0
100
AcDbBlockBegin
  2
*D16
 70
               1
 10
0.0
 20
0.0
 30
0.0
  3
*D16
  1

  0
LINE
  5
11A
100
AcDbEntity
  8
0
370
              -2
390
0
  6
Continuous
 62
               0
100
AcDbLine
 10
-599.79387892801594
 20
-490.6244174603786
 30
0.0
 11
-848.73711727540399
 21
-490.6244174603786
 31
0.0
  0
LINE
  5
11B
100
AcDbEntity
  8
0
370
              -2
390
0
  6
Continuous
 62
               0
100
AcDbLine
 10
-608.76172245422811
 20
-540.60000000000002
 30
0.0
 11
-848.73711727540399
 21
-540.60000000000002
 31
0.0
  0
LINE
  5
11C
100
AcDbEntity
  8
0
370
              -2
390
0
  6
Continuous
 62
               0
100
AcDbLine
 10
-848.73711727540399
 20
-490.6244174603786
 30
0.0
 11
-848.73711727540399
 21
-540.60000000000002
 31
0.0
  0
CIRCLE
  5
11D
102
{ACAD_REACTORS
330
11E
102
}
100
AcDbEntity
  8
0
370
              -2
390
0
  6
Continuous
 62
               0
100
AcDbCircle
 10
-848.73711727540399
 20
-490.6244174603786
 30
0.0
 40
1.9998779296875
  0
HATCH
  5
11E
100
AcDbEntity
  8
0
370
              -2
390
0
  6
Continuous
 62
               0
100
AcDbHatch
 10
0.0
 20
0.0
 30
0.0
210
0.0
220
0.0
230
1.0
  2
SOLID
 70
               1
 71
               1
 91
        1
 92
        1
 93
        1
 72
               2
 10
-848.73711727540399
 20
-490.6244174603786
 40
1.9998779296875
 50
0.0
 51
360.0
 73
               0
 97
        1
330
11D
 75
               0
 76
               1
 98
        1
 10
0.0
 20
0.0
  0
CIRCLE
  5
11F
102
{ACAD_REACTORS
330
120
102
}
100
AcDbEntity
  8
0
370
              -2
390
0
  6
Continuous
 62
               0
100
AcDbCircle
 10
-848.73711727540399
 20
-540.60000000000002
 30
0.0
 40
1.9998779296875
  0
HATCH
  5
120
100
AcDbEntity
  8
0
370
              -2
390
0
  6
Continuous
 62
               0
100
AcDbHatch
 10
0.0
 20
0.0
 30
0.0
210
0.0
220
0.0
230
1.0
  2
SOLID
 70
               1
 71
               1
 91
        1
 92
        1
 93
        1
 72
               2
 10
-848.73711727540399
 20
-540.60000000000002
 40
1.9998779296875
 50
0.0
 51
360.0
 73
               0
 97
        1
330
11F
 75
               0
 76
               1
 98
        1
 10
0.0
 20
0.0
  0
MTEXT
  5
121
100
AcDbEntity
  8
0
390
0
 62
               0
100
AcDbMText
 10
-882.61473446290404
 20
-531.48720873018931
 30
0.0
 40
24.432617187500004
 41
0.0
 71
               1
 72
               1
  1
50
  7
ＭＳ ゴシック
 11
0.0
 21
1.0
 31
0.0
 73
               1
 44
0.7828267384257843
  0
POINT
  5
122
100
AcDbEntity
  8
Defpoints
370
               0
390
0
 62
               0
100
AcDbPoint
 10
-583.76172245422811
 20
-540.60000000000002
 30
0.0
  0
POINT
  5
123
100
AcDbEntity
  8
Defpoints
370
               0
390
0
 62
               0
100
AcDbPoint
 10
-574.79387892801594
 20
-490.6244174603786
 30
0.0
  0
POINT
  5
124
100
AcDbEntity
  8
Defpoints
370
               0
390
0
 62
               0
100
AcDbPoint
 10
-848.73711727540399
 20
-490.6244174603786
 30
0.0
  0
ENDBLK
  5
125
100
AcDbEntity
  8
notes
390
0
100
AcDbBlockEnd
  0
BLOCK
  5
126
100
AcDbEntity
  8
notes
390
0
100
AcDbBlockBegin
  2
*D17
 70
               1
 10
0.0
 20
0.0
 30
0.0
  3
*D17
  1

  0
LINE
  5
127
100
AcDbEntity
  8
0
370
              -2
390
0
  6
Continuous
 62
               0
100
AcDbLine
 10
761.20612107198394
 20
-464.25191231182646
 30
0.0
 11
761.20612107198394
 21
-389.01463853035159
 31
0.0
  0
LINE
  5
128
100
AcDbEntity
  8
0
370
              -2
390
0
  6
Continuous
 62
               0
100
AcDbLine
 10
676.20612107198394
 20
-464.25191231182646
 30
0.0
 11
676.20612107198394
 21
-389.01463853035159
 31
0.0
  0
LINE
  5
129
100
AcDbEntity
  8
0
370
              -2
390
0
  6
Continuous
 62
               0
100
AcDbLine
 10
761.20612107198394
 20
-389.01463853035159
 30
0.0
 11
676.20612107198394
 21
-389.01463853035159
 31
0.0
  0
CIRCLE
  5
12A
102
{ACAD_REACTORS
330
12B
102
}
100
AcDbEntity
  8
0
370
              -2
390
0
  6
Continuous
 62
               0
100
AcDbCircle
 10
761.20612107198394
 20
-389.01463853035159
 30
0.0
 40
1.9998779296875
  0
HATCH
  5
12B
100
AcDbEntity
  8
0
370
              -2
390
0
  6
Continuous
 62
               0
100
AcDbHatch
 10
0.0
 20
0.0
 30
0.0
210
0.0
220
0.0
230
1.0
  2
SOLID
 70
               1
 71
               1
 91
        1
 92
        1
 93
        1
 72
               2
 10
761.20612107198394
 20
-389.01463853035159
 40
1.9998779296875
 50
0.0
 51
360.0
 73
               0
 97
        1
330
12A
 75
               0
 76
               1
 98
        1
 10
0.0
 20
0.0
  0
CIRCLE
  5
12C
102
{ACAD_REACTORS
330
12D
102
}
100
AcDbEntity
  8
0
370
              -2
390
0
  6
Continuous
 62
               0
100
AcDbCircle
 10
676.20612107198394
 20
-389.01463853035159
 30
0.0
 40
1.9998779296875
  0
HATCH
  5
12D
100
AcDbEntity
  8
0
370
              -2
390
0
  6
Continuous
 62
               0
100
AcDbHatch
 10
0.0
 20
0.0
 30
0.0
210
0.0
220
0.0
230
1.0
  2
SOLID
 70
               1
 71
               1
 91
        1
 92
        1
 93
        1
 72
               2
 10
676.20612107198394
 20
-389.01463853035159
 40
1.9998779296875
 50
0.0
 51
360.0
 73
               0
 97
        1
330
12C
 75
               0
 76
               1
 98
        1
 10
0.0
 20
0.0
  0
MTEXT
  5
12E
100
AcDbEntity
  8
0
390
0
 62
               0
100
AcDbMText
 10
702.83112107198394
 20
-355.13702134285165
 30
0.0
 40
24.432617187500004
 41
0.0
 71
               1
 72
               1
  1
85
  7
ＭＳ ゴシック
 73
               1
 44
0.7828267384257843
  0
POINT
  5
12F
100
AcDbEntity
  8
Defpoints
370
               0
390
0
 62
               0
100
AcDbPoint
 10
676.20612107198394
 20
-489.25191231182646
 30
0.0
  0
POINT
  5
130
100
AcDbEntity
  8
Defpoints
370
               0
390
0
 62
               0
100
AcDbPoint
 10
761.20612107198394
 20
-489.25191231182646
 30
0.0
  0
POINT
  5
131
100
AcDbEntity
  8
Defpoints
370
               0
390
0
 62
               0
100
AcDbPoint
 10
761.20612107198394
 20
-389.01463853035159
 30
0.0
  0
ENDBLK
  5
132
100
AcDbEntity
  8
notes
390
0
100
AcDbBlockEnd
  0
BLOCK
  5
133
100
AcDbEntity
  8
notes
390
0
100
AcDbBlockBegin
  2
*D18
 70
               1
 10
0.0
 20
0.0
 30
0.0
  3
*D18
  1

  0
LINE
  5
134
100
AcDbEntity
  8
0
370
              -2
390
0
  6
Continuous
 62
               0
100
AcDbLine
 10
511.20612107198394
 20
-679.9719891987894
 30
0.0
 11
511.20612107198394
 21
-758.46682394537459
 31
0.0
  0
LINE
  5
135
100
AcDbEntity
  8
0
370
              -2
390
0
  6
Continuous
 62
               0
100
AcDbLine
 10
761.20612107198394
 20
-679.16174304099297
 30
0.0
 11
761.20612107198394
 21
-758.46682394537459
 31
0.0
  0
LINE
  5
136
100
AcDbEntity
  8
0
370
              -2
390
0
  6
Continuous
 62
               0
100
AcDbLine
 10
511.20612107198394
 20
-758.46682394537459
 30
0.0
 11
761.20612107198394
 21
-758.46682394537459
 31
0.0
  0
CIRCLE
  5
137
102
{ACAD_REACTORS
330
138
102
}
100
AcDbEntity
  8
0
370
              -2
390
0
  6
Continuous
 62
               0
100
AcDbCircle
 10
511.20612107198394
 20
-758.46682394537459
 30
0.0
 40
1.9998779296875
  0
HATCH
  5
138
100
AcDbEntity
  8
0
370
              -2
390
0
  6
Continuous
 62
               0
100
AcDbHatch
 10
0.0
 20
0.0
 30
0.0
210
0.0
220
0.0
230
1.0
  2
SOLID
 70
               1
 71
               1
 91
        1
 92
        1
 93
        1
 72
               2
 10
511.20612107198394
 20
-758.46682394537459
 40
1.9998779296875
 50
0.0
 51
360.0
 73
               0
 97
        1
330
137
 75
               0
 76
               1
 98
        1
 10
0.0
 20
0.0
  0
CIRCLE
  5
139
102
{ACAD_REACTORS
330
13A
102
}
100
AcDbEntity
  8
0
370
              -2
390
0
  6
Continuous
 62
               0
100
AcDbCircle
 10
761.20612107198394
 20
-758.46682394537459
 30
0.0
 40
1.9998779296875
  0
HATCH
  5
13A
100
AcDbEntity
  8
0
370
              -2
390
0
  6
Continuous
 62
               0
100
AcDbHatch
 10
0.0
 20
0.0
 30
0.0
210
0.0
220
0.0
230
1.0
  2
SOLID
 70
               1
 71
               1
 91
        1
 92
        1
 93
        1
 72
               2
 10
761.20612107198394
 20
-758.46682394537459
 40
1.9998779296875
 50
0.0
 51
360.0
 73
               0
 97
        1
330
139
 75
               0
 76
               1
 98
        1
 10
0.0
 20
0.0
  0
MTEXT
  5
13B
100
AcDbEntity
  8
0
390
0
 62
               0
100
AcDbMText
 10
612.39361938980846
 20
-724.58920675787465
 30
0.0
 40
24.432617187500004
 41
0.0
 71
               1
 72
               1
  1
250
  7
ＭＳ ゴシック
 73
               1
 44
0.7828267384257843
  0
POINT
  5
13C
100
AcDbEntity
  8
Defpoints
370
               0
390
0
 62
               0
100
AcDbPoint
 10
761.20612107198394
 20
-654.16174304099297
 30
0.0
  0
POINT
  5
13D
100
AcDbEntity
  8
Defpoints
370
               0
390
0
 62
               0
100
AcDbPoint
 10
511.20612107198394
 20
-654.9719891987894
 30
0.0
  0
POINT
  5
13E
100
AcDbEntity
  8
Defpoints
370
               0
390
0
 62
               0
100
AcDbPoint
 10
511.20612107198394
 20
-758.46682394537459
 30
0.0
  0
ENDBLK
  5
13F
100
AcDbEntity
  8
notes
390
0
100
AcDbBlockEnd
  0
BLOCK
  5
140
100
AcDbEntity
  8
notes
390
0
100
AcDbBlockBegin
  2
*D19
 70
               1
 10
0.0
 20
0.0
 30
0.0
  3
*D19
  1

  0
LINE
  5
141
100
AcDbEntity
  8
0
370
              -2
390
0
  6
Continuous
 62
               0
100
AcDbLine
 10
-193.43248698369939
 20
-660.605409308822
 30
0.0
 11
-2.1656360262470002
 21
-660.605409308822
 31
0.0
  0
LINE
  5
142
100
AcDbEntity
  8
0
370
              -2
390
0
  6
Continuous
 62
               0
100
AcDbLine
 10
-228.79387892801552
 20
-490.605409308822
 30
0.0
 11
-2.1656360262470002
 21
-490.605409308822
 31
0.0
  0
LINE
  5
143
100
AcDbEntity
  8
0
370
              -2
390
0
  6
Continuous
 62
               0
100
AcDbLine
 10
-2.1656360262470002
 20
-660.605409308822
 30
0.0
 11
-2.1656360262470002
 21
-490.605409308822
 31
0.0
  0
CIRCLE
  5
144
102
{ACAD_REACTORS
330
145
102
}
100
AcDbEntity
  8
0
370
              -2
390
0
  6
Continuous
 62
               0
100
AcDbCircle
 10
-2.1656360262470002
 20
-660.605409308822
 30
0.0
 40
1.9998779296875
  0
HATCH
  5
145
100
AcDbEntity
  8
0
370
              -2
390
0
  6
Continuous
 62
               0
100
AcDbHatch
 10
0.0
 20
0.0
 30
0.0
210
0.0
220
0.0
230
1.0
  2
SOLID
 70
               1
 71
               1
 91
        1
 92
        1
 93
        1
 72
               2
 10
-2.1656360262470002
 20
-660.605409308822
 40
1.9998779296875
 50
0.0
 51
360.0
 73
               0
 97
        1
330
144
 75
               0
 76
               1
 98
        1
 10
0.0
 20
0.0
  0
CIRCLE
  5
146
102
{ACAD_REACTORS
330
147
102
}
100
AcDbEntity
  8
0
370
              -2
390
0
  6
Continuous
 62
               0
100
AcDbCircle
 10
-2.1656360262470002
 20
-490.605409308822
 30
0.0
 40
1.9998779296875
  0
HATCH
  5
147
100
AcDbEntity
  8
0
370
              -2
390
0
  6
Continuous
 62
               0
100
AcDbHatch
 10
0.0
 20
0.0
 30
0.0
210
0.0
220
0.0
230
1.0
  2
SOLID
 70
               1
 71
               1
 91
        1
 92
        1
 93
        1
 72
               2
 10
-2.1656360262470002
 20
-490.605409308822
 40
1.9998779296875
 50
0.0
 51
360.0
 73
               0
 97
        1
330
146
 75
               0
 76
               1
 98
        1
 10
0.0
 20
0.0
  0
MTEXT
  5
148
100
AcDbEntity
  8
0
390
0
 62
               0
100
AcDbMText
 10
-36.043253213747008
 20
-599.41791099099748
 30
0.0
 40
24.432617187500004
 41
0.0
 71
               1
 72
               1
  1
170
  7
ＭＳ ゴシック
 11
0.0
 21
1.0
 31
0.0
 73
               1
 44
0.7828267384257843
  0
POINT
  5
149
100
AcDbEntity
  8
Defpoints
370
               0
390
0
 62
               0
100
AcDbPoint
 10
-253.79387892801552
 20
-490.605409308822
 30
0.0
  0
POINT
  5
14A
100
AcDbEntity
  8
Defpoints
370
               0
390
0
 62
               0
100
AcDbPoint
 10
-218.43248698369939
 20
-660.605409308822
 30
0.0
  0
POINT
  5
14B
100
AcDbEntity
  8
Defpoints
370
               0
390
0
 62
               0
100
AcDbPoint
 10
-2.1656360262470002
 20
-660.605409308822
 30
0.0
  0
ENDBLK
  5
14C
100
AcDbEntity
  8
notes
390
0
100
AcDbBlockEnd
  0
BLOCK
  5
14D
100
AcDbEntity
  8
notes
390
0
100
AcDbBlockBegin
  2
*D20
 70
               1
 10
0.0
 20
0.0
 30
0.0
  3
*D20
  1

  0
LINE
  5
14E
100
AcDbEntity
  8
0
370
              -2
390
0
  6
Continuous
 62
               0
100
AcDbLine
 10
-411.63463744705587
 20
818.97436867076374
 30
0.0
 11
-305.6090061178196
 21
925.0
 31
0.0
  0
CIRCLE
  5
14F
102
{ACAD_REACTORS
330
150
102
}
100
AcDbEntity
  8
0
370
              -2
390
0
  6
Continuous
 62
               0
100
AcDbCircle
 10
-411.63463744705587
 20
818.97436867076374
 30
0.0
 40
1.9998779296875
  0
HATCH
  5
150
100
AcDbEntity
  8
0
370
              -2
390
0
  6
Continuous
 62
               0
100
AcDbHatch
 10
0.0
 20
0.0
 30
0.0
210
0.0
220
0.0
230
1.0
  2
SOLID
 70
               1
 71
               1
 91
        1
 92
        1
 93
        1
 72
               2
 10
-411.63463744705587
 20
818.97436867076374
 40
1.9998779296875
 50
0.0
 51
360.0
 73
               0
 97
        1
330
14F
 75
               0
 76
               1
 98
        1
 10
0.0
 20
0.0
  0
LINE
  5
151
100
AcDbEntity
  8
0
370
              -2
390
0
  6
Continuous
 62
               0
100
AcDbLine
 10
-305.6090061178196
 20
925.0
 30
0.0
 11
-182.10900611781963
 21
925.0
 31
0.0
  0
MTEXT
  5
152
100
AcDbEntity
  8
0
390
0
 62
               0
100
AcDbMText
 10
-245.60900611781963
 20
958.87761718749994
 30
0.0
 40
24.432617187500004
 41
0.0
 71
               1
 72
               1
  1
φ35
  7
ＭＳ ゴシック
 73
               1
 44
0.7828267384257843
  0
POINT
  5
153
100
AcDbEntity
  8
Defpoints
370
               0
390
0
 62
               0
100
AcDbPoint
 10
-436.38337478858341
 20
794.22563132923608
 30
0.0
  0
POINT
  5
154
100
AcDbEntity
  8
Defpoints
370
               0
390
0
 62
               0
100
AcDbPoint
 10
-411.63463744705587
 20
818.97436867076374
 30
0.0
  0
ENDBLK
  5
155
100
AcDbEntity
  8
notes
390
0
100
AcDbBlockEnd
  0
BLOCK
  5
156
100
AcDbEntity
  8
notes
390
0
100
AcDbBlockBegin
  2
*D21
 70
               1
 10
0.0
 20
0.0
 30
0.0
  3
*D21
  1

  0
LINE
  5
157
100
AcDbEntity
  8
0
370
              -2
390
0
  6
Continuous
 62
               0
100
AcDbLine
 10
786.20612107198394
 20
-489.25191231182646
 30
0.0
 11
843.20612107198394
 21
-489.25191231182646
 31
0.0
  0
LINE
  5
158
100
AcDbEntity
  8
0
370
              -2
390
0
  6
Continuous
 62
               0
100
AcDbLine
 10
560.19004283509003
 20
-649.25191231182646
 30
0.0
 11
843.20612107198394
 21
-649.25191231182646
 31
0.0
  0
LINE
  5
159
100
AcDbEntity
  8
0
370
              -2
390
0
  6
Continuous
 62
               0
100
AcDbLine
 10
843.20612107198394
 20
-489.25191231182646
 30
0.0
 11
843.20612107198394
 21
-649.25191231182646
 31
0.0
  0
CIRCLE
  5
15A
102
{ACAD_REACTORS
330
15B
102
}
100
AcDbEntity
  8
0
370
              -2
390
0
  6
Continuous
 62
               0
100
AcDbCircle
 10
843.20612107198394
 20
-489.25191231182646
 30
0.0
 40
1.9998779296875
  0
HATCH
  5
15B
100
AcDbEntity
  8
0
370
              -2
390
0
  6
Continuous
 62
               0
100
AcDbHatch
 10
0.0
 20
0.0
 30
0.0
210
0.0
220
0.0
230
1.0
  2
SOLID
 70
               1
 71
               1
 91
        1
 92
        1
 93
        1
 72
               2
 10
843.20612107198394
 20
-489.25191231182646
 40
1.9998779296875
 50
0.0
 51
360.0
 73
               0
 97
        1
330
15A
 75
               0
 76
               1
 98
        1
 10
0.0
 20
0.0
  0
CIRCLE
  5
15C
102
{ACAD_REACTORS
330
15D
102
}
100
AcDbEntity
  8
0
370
              -2
390
0
  6
Continuous
 62
               0
100
AcDbCircle
 10
843.20612107198394
 20
-649.25191231182646
 30
0.0
 40
1.9998779296875
  0
HATCH
  5
15D
100
AcDbEntity
  8
0
370
              -2
390
0
  6
Continuous
 62
               0
100
AcDbHatch
 10
0.0
 20
0.0
 30
0.0
210
0.0
220
0.0
230
1.0
  2
SOLID
 70
               1
 71
               1
 91
        1
 92
        1
 93
        1
 72
               2
 10
843.20612107198394
 20
-649.25191231182646
 40
1.9998779296875
 50
0.0
 51
360.0
 73
               0
 97
        1
330
15C
 75
               0
 76
               1
 98
        1
 10
0.0
 20
0.0
  0
MTEXT
  5
15E
100
AcDbEntity
  8
0
390
0
 62
               0
100
AcDbMText
 10
809.32850388448389
 20
-593.06441399400194
 30
0.0
 40
24.432617187500004
 41
0.0
 71
               1
 72
               1
  1
160
  7
ＭＳ ゴシック
 11
0.0
 21
1.0
 31
0.0
 73
               1
 44
0.7828267384257843
  0
POINT
  5
15F
100
AcDbEntity
  8
Defpoints
370
               0
390
0
 62
               0
100
AcDbPoint
 10
535.19004283509003
 20
-649.25191231182646
 30
0.0
  0
POINT
  5
160
100
AcDbEntity
  8
Defpoints
370
               0
390
0
 62
               0
100
AcDbPoint
 10
761.20612107198394
 20
-489.25191231182646
 30
0.0
  0
POINT
  5
161
100
AcDbEntity
  8
Defpoints
370
               0
390
0
 62
               0
100
AcDbPoint
 10
843.20612107198394
 20
-489.25191231182646
 30
0.0
  0
ENDBLK
  5
162
100
AcDbEntity
  8
notes
390
0
100
AcDbBlockEnd
  0
BLOCK
  5
163
100
AcDbEntity
  8
GAR70-0101
390
0
100
AcDbBlockBegin
  2
*D22
 70
               1
 10
0.0
 20
0.0
 30
0.0
  3
*D22
  1

  0
LINE
  5
164
100
AcDbEntity
  8
0
370
              -2
390
0
  6
Continuous
 62
               0
100
AcDbLine
 10
498.69004283509059
 20
-619.26528266472826
 30
0.0
 11
519.0
 21
-619.26528266472826
 31
0.0
  0
LINE
  5
165
100
AcDbEntity
  8
0
370
              -2
390
0
  6
Continuous
 62
               0
100
AcDbLine
 10
498.69004283509059
 20
-502.75053998703731
 30
0.0
 11
519.0
 21
-502.75053998703731
 31
0.0
  0
LINE
  5
166
100
AcDbEntity
  8
0
370
              -2
390
0
  6
Continuous
 62
               0
100
AcDbLine
 10
519.0
 20
-502.75053998703731
 30
0.0
 11
519.0
 21
-336.25000000000011
 31
0.0
  0
LINE
  5
167
100
AcDbEntity
  8
0
370
              -2
390
0
  6
Continuous
 62
               0
100
AcDbLine
 10
519.0
 20
-619.26528266472826
 30
0.0
 11
519.0
 21
-502.75053998703731
 31
0.0
  0
CIRCLE
  5
168
102
{ACAD_REACTORS
330
169
102
}
100
AcDbEntity
  8
0
370
              -2
390
0
  6
Continuous
 62
               0
100
AcDbCircle
 10
519.0
 20
-619.26528266472826
 30
0.0
 40
1.9998779296875
  0
HATCH
  5
169
100
AcDbEntity
  8
0
370
              -2
390
0
  6
Continuous
 62
               0
100
AcDbHatch
 10
0.0
 20
0.0
 30
0.0
210
0.0
220
0.0
230
1.0
  2
SOLID
 70
               1
 71
               1
 91
        1
 92
        1
 93
        1
 72
               2
 10
519.0
 20
-619.26528266472826
 40
1.9998779296875
 50
0.0
 51
360.0
 73
               0
 97
        1
330
168
 75
               0
 76
               1
 98
        1
 10
0.0
 20
0.0
  0
CIRCLE
  5
16A
102
{ACAD_REACTORS
330
16B
102
}
100
AcDbEntity
  8
0
370
              -2
390
0
  6
Continuous
 62
               0
100
AcDbCircle
 10
519.0
 20
-502.75053998703731
 30
0.0
 40
1.9998779296875
  0
HATCH
  5
16B
100
AcDbEntity
  8
0
370
              -2
390
0
  6
Continuous
 62
               0
100
AcDbHatch
 10
0.0
 20
0.0
 30
0.0
210
0.0
220
0.0
230
1.0
  2
SOLID
 70
               1
 71
               1
 91
        1
 92
        1
 93
        1
 72
               2
 10
519.0
 20
-502.75053998703731
 40
1.9998779296875
 50
0.0
 51
360.0
 73
               0
 97
        1
330
16A
 75
               0
 76
               1
 98
        1
 10
0.0
 20
0.0
  0
MTEXT
  5
16C
100
AcDbEntity
  8
0
390
0
 62
               0
100
AcDbMText
 10
485.12238281249995
 20
-495.00000000000011
 30
0.0
 40
24.432617187500004
 41
0.0
 71
               1
 72
               1
  1
130(深さ) 
  7
ＭＳ ゴシック
 11
0.0
 21
1.0
 31
0.0
 73
               1
 44
0.7828267384257843
  0
POINT
  5
16D
100
AcDbEntity
  8
Defpoints
370
               0
390
0
 62
               0
100
AcDbPoint
 10
473.69004283509059
 20
-502.75053998703731
 30
0.0
  0
POINT
  5
16E
100
AcDbEntity
  8
Defpoints
370
               0
390
0
 62
               0
100
AcDbPoint
 10
473.69004283509059
 20
-619.26528266472826
 30
0.0
  0
POINT
  5
16F
100
AcDbEntity
  8
Defpoints
370
               0
390
0
 62
               0
100
AcDbPoint
 10
519.0
 20
-619.26528266472826
 30
0.0
  0
ENDBLK
  5
170
100
AcDbEntity
  8
GAR70-0101
390
0
100
AcDbBlockEnd
  0
ENDSEC
  0
SECTION
  2
ENTITIES
  0
LWPOLYLINE
  5
171
100
AcDbEntity
  8
overflow
370
              15
390
0
  6
Continuous
 62
               7
100
AcDbPolyline
 90
        4
 70
             129
 10
291.48057810969544
 20
859.21831043641498
 10
220.74662807014306
 20
859.21831043641498
 10
220.74662807014306
 20
891.63625936377878
 10
291.48057810969544
 20
891.63625936377878
  0
LWPOLYLINE
  5
172
100
AcDbEntity
  8
overflow
370
              15
390
0
  6
Continuous
 62
               7
100
AcDbPolyline
 90
        4
 70
             129
 10
297.31680437196223
 20
806.75883565990591
 10
219.50993013326865
 20
806.75883565990591
 10
219.50993013326865
 20
833.87328570819193
 10
297.31680437196223
 20
833.87328570819193
  0
LWPOLYLINE
  5
173
100
AcDbEntity
  8
overflow
370
              15
390
0
  6
Continuous
 62
               7
100
AcDbPolyline
 90
        4
 70
             129
 10
300.82235351025315
 20
786.71730981076109
 10
216.00439480157024
 20
786.71730981076109
 10
216.00439480157024
 20
806.75883565990591
 10
300.82235351025315
 20
806.75883565990591
  0
LINE
  5
174
100
AcDbEntity
  8
overflow
370
              15
390
0
  6
Continuous
 62
               7
100
AcDbLine
 10
226.48296363350096
 20
859.21831043641498
 30
0.0
 11
226.48296363350096
 21
833.87328570819193
 31
0.0
  0
LINE
  5
175
100
AcDbEntity
  8
overflow
370
              15
390
0
  6
Continuous
 62
               7
100
AcDbLine
 10
288.94060684546525
 20
859.21831043641498
 30
0.0
 11
288.94060684546525
 21
838.66262520474731
 31
0.0
  0
LINE
  5
176
100
AcDbEntity
  8
overflow
370
              15
390
0
  6
Continuous
 62
               7
100
AcDbLine
 10
283.66088291918891
 20
786.71730981076109
 30
0.0
 11
283.66088291918891
 21
494.23640546263067
 31
0.0
  0
LINE
  5
177
100
AcDbEntity
  8
overflow
370
              15
390
0
  6
Continuous
 62
               7
100
AcDbLine
 10
292.05611973715691
 20
786.71730981076109
 30
0.0
 11
292.05611973715691
 21
503.02642799512211
 31
0.0
  0
LINE
  5
178
100
AcDbEntity
  8
overflow
370
              15
390
0
  6
Continuous
 62
               7
100
AcDbLine
 10
238.07456475059666
 20
786.71730981076109
 30
0.0
 11
238.07456475059666
 21
471.08650473027268
 31
0.0
  0
LINE
  5
179
100
AcDbEntity
  8
overflow
370
              15
390
0
  6
Continuous
 62
               7
100
AcDbLine
 10
246.46978776197233
 20
786.71730981076109
 30
0.0
 11
246.46978776197233
 21
467.83306397650898
 31
0.0
  0
LINE
  5
17A
100
AcDbEntity
  8
overflow
370
              15
390
0
  6
Continuous
 62
               7
100
AcDbLine
 10
224.82294175478569
 20
786.71730981076109
 30
0.0
 11
224.82294175478569
 21
427.69293582358438
 31
0.0
  0
LWPOLYLINE
  5
17B
100
AcDbEntity
  8
overflow
370
              15
390
0
  6
Continuous
 62
               7
100
AcDbPolyline
 90
        4
 70
             129
 10
297.25021517488835
 20
402.89490068891138
 10
292.05611973715691
 20
402.89490068891138
 10
292.05611973715691
 20
503.02642799512211
 10
297.25021517488835
 20
503.02642799512211
  0
LWPOLYLINE
  5
17C
100
AcDbEntity
  8
overflow
370
              15
390
0
  6
Continuous
 62
               7
100
AcDbPolyline
 90
        4
 70
             129
 10
803.38548699923354
 20
552.21671328887123
 10
666.31257057318794
 20
552.21671328887123
 10
666.31257057318794
 20
555.45589183227162
 10
803.38548699923354
 20
555.45589183227162
  0
LINE
  5
17D
100
AcDbEntity
  8
overflow
370
              15
390
0
  6
Continuous
 62
               7
100
AcDbLine
 10
676.70077525524334
 20
548.70880322321136
 30
0.0
 11
792.99728231717813
 21
548.70880322321136
 31
0.0
  0
LINE
  5
17E
100
AcDbEntity
  8
overflow
370
              15
390
0
  6
Continuous
 62
               7
100
AcDbLine
 10
690.72770746973833
 20
530.36058694802341
 30
0.0
 11
778.97035010268314
 21
530.36058694802341
 31
0.0
  0
LWPOLYLINE
  5
17F
100
AcDbEntity
  8
overflow
370
              15
390
0
  6
Continuous
 62
               7
100
AcDbPolyline
 90
        4
 70
             129
 10
804.87426570744969
 20
508.40875906413731
 10
664.82379186497087
 20
508.40875906413731
 10
664.82379186497087
 20
511.4811160016871
 10
804.87426570744969
 20
511.4811160016871
  0
LWPOLYLINE
  5
180
100
AcDbEntity
  8
overflow
370
              15
390
0
  6
Continuous
 62
               7
100
AcDbPolyline
 90
        4
 70
             129
 10
806.75784393678236
 20
503.11680595159038
 10
662.9402136356382
 20
503.11680595159038
 10
662.9402136356382
 20
508.40875906413731
 10
806.75784393678236
 20
508.40875906413731
  0
LWPOLYLINE
  5
181
100
AcDbEntity
  8
overflow
370
              15
390
0
  6
Continuous
 62
               7
100
AcDbPolyline
 90
        4
 70
             129
 10
806.75784393678236
 20
500.14874747100345
 10
662.9402136356382
 20
500.14874747100345
 10
662.9402136356382
 20
503.11680595159038
 10
806.75784393678236
 20
503.11680595159038
  0
LWPOLYLINE
  5
182
100
AcDbEntity
  8
overflow
370
              15
390
0
  6
Continuous
 62
               7
100
AcDbPolyline
 90
        4
 70
             129
 10
751.98195424666187
 20
511.4811160016871
 10
717.7161033257596
 20
511.4811160016871
 10
717.7161033257596
 20
523.89559004966236
 10
751.98195424666187
 20
523.89559004966236
  0
LWPOLYLINE
  5
183
100
AcDbEntity
  8
overflow
370
              15
390
0
  6
Continuous
 62
               7
100
AcDbPolyline
 90
        4
 70
             129
 10
780.30692493187212
 20
315.54588140731175
 10
689.39113264054845
 20
315.54588140731175
 10
689.39113264054845
 20
340.87921474064507
 10
780.30692493187212
 20
340.87921474064507
  0
LWPOLYLINE
  5
184
100
AcDbEntity
  8
overflow
370
              15
390
0
  6
Continuous
 62
               7
100
AcDbPolyline
 90
        4
 70
             129
 10
802.42942186761206
 20
383.5458814073117
 10
667.26863570480941
 20
383.5458814073117
 10
667.26863570480941
 20
391.5458814073117
 10
802.42942186761206
 20
391.5458814073117
  0
LWPOLYLINE
  5
185
100
AcDbEntity
  8
overflow
370
              15
390
0
  6
Continuous
 62
               7
100
AcDbPolyline
 90
        4
 70
             129
 10
799.02146515619802
 20
368.65046379344284
 10
670.62441835337336
 20
368.65046379344284
 10
670.62441835337336
 20
376.89348292579081
 10
799.02146515619802
 20
376.89348292579081
  0
LINE
  5
186
100
AcDbEntity
  8
overflow
370
              15
390
0
  6
Continuous
 62
               7
100
AcDbLine
 10
673.71772398978169
 20
366.21254807397833
 30
0.0
 11
689.39113264054845
 21
340.87921474064507
 31
0.0
  0
LINE
  5
187
100
AcDbEntity
  8
overflow
370
              15
390
0
  6
Continuous
 62
               7
100
AcDbLine
 10
795.92815951978878
 20
366.21254807397833
 30
0.0
 11
780.30692493187212
 21
340.87921474064507
 31
0.0
  0
LWPOLYLINE
  5
188
100
AcDbEntity
  8
overflow
370
              15
390
0
  6
Continuous
 62
               7
100
AcDbPolyline
 90
        4
 70
             129
 10
640.79394174709773
 20
322.51714222470832
 10
664.68585019630586
 20
322.51714222470832
 10
664.68585019630586
 20
379.40254122874188
 10
640.79394174709773
 20
379.40254122874188
  0
LINE
  5
189
100
AcDbEntity
  8
overflow
370
              15
390
0
  6
Continuous
 62
               7
100
AcDbLine
 10
688.80607827064864
 20
334.54395476004612
 30
0.0
 11
664.68585019630586
 21
334.54395476004612
 31
0.0
  0
LINE
  5
18A
100
AcDbEntity
  8
overflow
370
              15
390
0
  6
Continuous
 62
               7
100
AcDbLine
 10
670.65050538479841
 20
368.65046379344284
 30
0.0
 11
664.68585019630586
 21
368.65046379344284
 31
0.0
  0
LWPOLYLINE
  5
18B
100
AcDbEntity
  8
overflow
370
              15
390
0
  6
Continuous
 62
               7
100
AcDbPolyline
 90
        4
 70
             129
 10
736.6374726878546
 20
415.33553823024357
 10
733.06058488456597
 20
415.33553823024357
 10
733.06058488456597
 20
500.14874747100345
 10
736.6374726878546
 20
500.14874747100345
  0
LWPOLYLINE
  5
18C
100
AcDbEntity
  8
overflow
370
              15
390
0
  6
Continuous
 62
               7
100
AcDbPolyline
 90
        4
 70
             129
 10
697.20606455653956
 20
471.66442109169492
 10
693.62917675325093
 20
471.66442109169492
 10
693.62917675325093
 20
500.14874747100345
 10
697.20606455653956
 20
500.14874747100345
  0
LWPOLYLINE
  5
18D
100
AcDbEntity
  8
overflow
370
              15
390
0
  6
Continuous
 62
               7
100
AcDbPolyline
 90
        4
 70
             129
 10
777.95245904850321
 20
415.33553823024357
 10
774.37557124521459
 20
415.33553823024357
 10
774.37557124521459
 20
500.14874747100345
 10
777.95245904850321
 20
500.14874747100345
  0
LINE
  5
18E
100
AcDbEntity
  8
overflow
370
              15
390
0
  6
Continuous
 62
               7
100
AcDbLine
 10
297.25021517488835
 20
503.02642799512211
 30
0.0
 11
662.00793726341158
 21
489.89848445761316
 31
0.0
  0
LINE
  5
18F
100
AcDbEntity
  8
overflow
370
              15
390
0
  6
Continuous
 62
               7
100
AcDbLine
 10
297.25021517488835
 20
403.39108448844325
 30
0.0
 11
667.26863570480941
 21
391.63625936378031
 31
0.0
  0
LINE
  5
190
100
AcDbEntity
  8
overflow
370
              15
390
0
  6
Continuous
 62
               7
100
AcDbLine
 10
786.80074433295863
 20
473.01973055421519
 30
0.0
 11
786.27633987132299
 21
473.48140863183431
 31
0.0
  0
LINE
  5
191
100
AcDbEntity
  8
overflow
370
              15
390
0
  6
Continuous
 62
               7
100
AcDbLine
 10
786.25731791000248
 20
473.298279477054
 30
0.0
 11
736.6374726878546
 21
473.298279477054
 31
0.0
  0
LINE
  5
192
100
AcDbEntity
  8
overflow
370
              15
390
0
  6
Continuous
 62
               7
100
AcDbLine
 10
793.08491324168767
 20
453.44463374273124
 30
0.0
 11
777.95245904850321
 21
453.44463374273124
 31
0.0
  0
SPLINE
  5
193
100
AcDbEntity
  8
overflow
370
              15
390
0
  6
Continuous
 62
               7
100
AcDbSpline
210
0.0
220
0.0
230
1.0
 70
               8
 71
               2
 72
              20
 73
              17
 74
               0
 42
0.000001
 43
0.000001
 40
0.0
 40
0.0
 40
0.0
 40
1.0
 40
1.0
 40
2.0
 40
3.0
 40
4.0
 40
5.0
 40
6.0
 40
7.0
 40
7.0
 40
8.0
 40
8.0
 40
9.0
 40
10.0
 40
10.0
 40
11.0
 40
11.0
 40
11.0
 10
297.25021427332899
 20
440.7083016379508
 30
0.0
 10
315.07593499174141
 20
440.1420354791797
 30
0.0
 10
337.85011023259608
 20
439.41857274033617
 30
0.0
 10
373.2947458075048
 20
438.29260998387457
 30
0.0
 10
457.70686820112564
 20
435.61110671920397
 30
0.0
 10
544.82865287391883
 20
432.84352614665619
 30
0.0
 10
623.81599447473741
 20
430.33435082486318
 30
0.0
 10
683.95187903242436
 20
428.42402602561975
 30
0.0
 10
706.41264819218645
 20
427.71051919602127
 30
0.0
 10
710.41011616982519
 20
427.58353241819151
 30
0.0
 10
710.66645770938089
 20
427.3273182849677
 30
0.0
 10
710.9227992489366
 20
427.0711041517439
 30
0.0
 10
715.52287937928827
 20
422.04631943086309
 30
0.0
 10
727.8520199230295
 20
410.16324210617876
 30
0.0
 10
733.98062730065863
 20
408.39104259778122
 30
0.0
 10
734.37201955190881
 20
408.39104259778122
 30
0.0
 10
734.76341180315899
 20
408.39104259778122
 30
0.0
  0
SPLINE
  5
194
100
AcDbEntity
  8
overflow
370
              15
390
0
  6
Continuous
 62
               7
100
AcDbSpline
210
0.0
220
0.0
230
1.0
 70
               8
 71
               2
 72
              16
 73
              13
 74
               0
 42
0.000001
 43
0.000001
 40
0.0
 40
0.0
 40
0.0
 40
1.0
 40
2.0
 40
3.0
 40
4.0
 40
5.0
 40
6.0
 40
7.0
 40
8.0
 40
9.0
 40
9.0
 40
10.0
 40
10.0
 40
10.0
 10
703.10412747982514
 20
391.54588703421683
 30
0.0
 10
703.34512897959371
 20
391.69175913077237
 30
0.0
 10
704.71830083642703
 20
392.51956956880537
 30
0.0
 10
708.40373377190167
 20
394.71302435072977
 30
0.0
 10
712.07960173917104
 20
396.86346179485787
 30
0.0
 10
716.06244986160505
 20
399.16961723708329
 30
0.0
 10
721.71392978376275
 20
402.3487890170606
 30
0.0
 10
727.09031308798671
 20
405.23112583254402
 30
0.0
 10
731.59093417066538
 20
407.42555180611322
 30
0.0
 10
733.83302857715785
 20
408.24517050122648
 30
0.0
 10
734.58259036676986
 20
408.39104259778122
 30
0.0
 10
734.67300108496443
 20
408.39104259778122
 30
0.0
 10
734.76341180315899
 20
408.39104259778122
 30
0.0
  0
LINE
  5
195
100
AcDbEntity
  8
overflow
370
              15
390
0
  6
Continuous
 62
               7
100
AcDbLine
 10
793.66795136903124
 20
415.33553823024357
 30
0.0
 11
722.36320916994077
 21
415.33553823024357
 31
0.0
  0
LINE
  5
196
100
AcDbEntity
  8
overflow
370
              15
390
0
  6
Continuous
 62
               7
100
AcDbLine
 10
793.66795136903124
 20
391.5458814073117
 30
0.0
 11
793.66795136903124
 21
436.09292210947575
 31
0.0
  0
SPLINE
  5
197
100
AcDbEntity
  8
overflow
370
              15
390
0
  6
Continuous
 62
               7
100
AcDbSpline
210
0.0
220
0.0
230
1.0
 70
               8
 71
               2
 72
              15
 73
              12
 74
               0
 42
0.000001
 43
0.000001
 40
0.0
 40
0.0
 40
0.0
 40
1.0
 40
1.0
 40
2.0
 40
3.0
 40
4.0
 40
5.0
 40
6.0
 40
7.0
 40
7.0
 40
8.0
 40
8.0
 40
8.0
 10
640.79393748047619
 20
379.40253473892398
 30
0.0
 10
640.71847969562373
 20
379.40253473892398
 30
0.0
 10
640.64302191077127
 20
379.40253473892398
 30
0.0
 10
639.59362284583926
 20
379.36369468860227
 30
0.0
 10
637.62514026274653
 20
378.86582802296795
 30
0.0
 10
635.65714956554052
 20
377.73913666370555
 30
0.0
 10
634.06319872549898
 20
376.14647610173705
 30
0.0
 10
632.93458780513788
 20
374.17854869050251
 30
0.0
 10
632.43686563909318
 20
372.21035265764846
 30
0.0
 10
632.39870959125142
 20
371.16075577429052
 30
0.0
 10
632.39870959125142
 20
371.08522043775787
 30
0.0
 10
632.39870959125142
 20
371.00968510122522
 30
0.0
  0
SPLINE
  5
198
100
AcDbEntity
  8
overflow
370
              15
390
0
  6
Continuous
 62
               7
100
AcDbSpline
210
0.0
220
0.0
230
1.0
 70
               8
 71
               2
 72
              15
 73
              12
 74
               0
 42
0.000001
 43
0.000001
 40
0.0
 40
0.0
 40
0.0
 40
1.0
 40
1.0
 40
2.0
 40
3.0
 40
4.0
 40
5.0
 40
6.0
 40
7.0
 40
7.0
 40
8.0
 40
8.0
 40
8.0
 10
632.39870959125142
 20
330.91236436118629
 30
0.0
 10
632.39870959125142
 20
330.83690657633389
 30
0.0
 10
632.39870959125142
 20
330.76144879148148
 30
0.0
 10
632.43757575530594
 20
329.71204972655016
 30
0.0
 10
632.93573240520232
 20
327.74356714345538
 30
0.0
 10
634.06298141939601
 20
325.77557644625097
 30
0.0
 10
635.65627475760516
 20
324.18162560620851
 30
0.0
 10
637.62476063911686
 20
323.05301468584787
 30
0.0
 10
639.59324506213011
 20
322.5552925198034
 30
0.0
 10
640.64286680741111
 20
322.51713647196095
 30
0.0
 10
640.71840214394365
 20
322.51713647196095
 30
0.0
 10
640.79393748047619
 20
322.51713647196095
 30
0.0
  0
LINE
  5
199
100
AcDbEntity
  8
overflow
370
              15
390
0
  6
Continuous
 62
               7
100
AcDbLine
 10
632.39870492912974
 20
371.00967914473546
 30
0.0
 11
632.39870492912974
 21
330.91236523608359
 31
0.0
  0
LWPOLYLINE
  5
19A
100
AcDbEntity
  8
overflow
370
              15
390
0
  6
Continuous
 62
               7
100
AcDbPolyline
 90
        4
 70
             129
 10
664.68585019630586
 20
369.75871899749865
 10
640.79394174709773
 20
369.75871899749865
 10
640.79394174709773
 20
371.73742465122331
 10
664.68585019630586
 20
371.73742465122331
  0
LWPOLYLINE
  5
19B
100
AcDbEntity
  8
overflow
370
              15
390
0
  6
Continuous
 62
               7
100
AcDbPolyline
 90
        4
 70
             129
 10
664.68585019630586
 20
330.18461972959528
 10
640.79394174709773
 20
330.18461972959528
 10
640.79394174709773
 20
332.16332538332051
 10
664.68585019630586
 20
332.16332538332051
  0
LWPOLYLINE
  5
19C
100
AcDbEntity
  8
overflow
370
              15
390
0
  6
Continuous
 62
               7
100
AcDbPolyline
 90
        4
 70
             129
 10
664.68585019630586
 20
349.97167626684353
 10
640.79394174709773
 20
349.97167626684353
 10
640.79394174709773
 20
351.9503819205683
 10
664.68585019630586
 20
351.9503819205683
  0
SPLINE
  5
19D
100
AcDbEntity
  8
overflow
370
              15
390
0
  6
Continuous
 62
               7
100
AcDbSpline
210
0.0
220
0.0
230
1.0
 70
               8
 71
               2
 72
              20
 73
              17
 74
               0
 42
0.000001
 43
0.000001
 40
0.0
 40
0.0
 40
0.0
 40
1.0
 40
1.0
 40
2.0
 40
3.0
 40
4.0
 40
5.0
 40
6.0
 40
7.0
 40
8.0
 40
9.0
 40
10.0
 40
11.0
 40
12.0
 40
12.0
 40
13.0
 40
13.0
 40
13.0
 10
324.12023369523627
 20
299.16984123441853
 30
0.0
 10
324.05508659091606
 20
299.16984123441853
 30
0.0
 10
323.98993948659586
 20
299.16984123441853
 30
0.0
 10
322.82395901245832
 20
299.21896659815297
 30
0.0
 10
320.95965729186059
 20
299.89154883125434
 30
0.0
 10
319.39852926217168
 20
301.05485005977414
 30
0.0
 10
318.23463588793106
 20
302.61543488473649
 30
0.0
 10
317.56128412785961
 20
304.47832537806664
 30
0.0
 10
317.50844106939689
 20
305.7742457240447
 30
0.0
 10
317.56322658829208
 20
307.0714947347526
 30
0.0
 10
318.23661690992844
 20
308.93521170563258
 30
0.0
 10
319.40057348272398
 20
310.49563055063504
 30
0.0
 10
320.96167815860986
 20
311.65897206017917
 30
0.0
 10
322.82556135012396
 20
312.33112083064884
 30
0.0
 10
323.98993948659586
 20
312.37865021366997
 30
0.0
 10
324.05508659091606
 20
312.37865021366997
 30
0.0
 10
324.12023369523627
 20
312.37865021366997
 30
0.0
  0
LINE
  5
19E
100
AcDbEntity
  8
overflow
370
              15
390
0
  6
Continuous
 62
               7
100
AcDbLine
 10
324.12022716347178
 20
312.37864358003389
 30
0.0
 11
632.39870492912974
 21
354.946978628473
 31
0.0
  0
LINE
  5
19F
100
AcDbEntity
  8
overflow
370
              15
390
0
  6
Continuous
 62
               7
100
AcDbLine
 10
324.12022716347178
 20
299.16983482849514
 30
0.0
 11
632.39870492912974
 21
341.73816987693459
 31
0.0
  0
SPLINE
  5
1A0
100
AcDbEntity
  8
overflow
370
              15
390
0
  6
Continuous
 62
               7
100
AcDbSpline
210
0.0
220
0.0
230
1.0
 70
               8
 71
               2
 72
              20
 73
              17
 74
               0
 42
0.000001
 43
0.000001
 40
0.0
 40
0.0
 40
0.0
 40
1.0
 40
1.0
 40
2.0
 40
3.0
 40
3.0
 40
4.0
 40
4.0
 40
5.0
 40
6.0
 40
7.0
 40
8.0
 40
9.0
 40
10.0
 40
11.0
 40
12.0
 40
12.0
 40
12.0
 10
733.06058371004724
 20
456.27475883621236
 30
0.0
 10
732.46758182720146
 20
456.27475883621236
 30
0.0
 10
731.87457994435567
 20
456.27475883621236
 30
0.0
 10
723.22251950258283
 20
457.067073552002
 30
0.0
 10
707.04249064474038
 20
461.33425648924486
 30
0.0
 10
698.19959444566553
 20
462.30549508257769
 30
0.0
 10
697.58778894549891
 20
462.3271541589815
 30
0.0
 10
696.9759834453323
 20
462.34881323538531
 30
0.0
 10
690.86448042190545
 20
462.56454694808718
 30
0.0
 10
650.54681282890829
 20
463.98774515055555
 30
0.0
 10
589.16285843421679
 20
466.15457519729335
 30
0.0
 10
516.06928888095445
 20
468.73475016798585
 30
0.0
 10
440.62938703971918
 20
471.39774976852328
 30
0.0
 10
372.23320668774954
 20
473.81210870206252
 30
0.0
 10
320.16075150095344
 20
475.65024639812196
 30
0.0
 10
300.71167539381327
 20
476.33679132514629
 30
0.0
 10
297.25021517488835
 20
476.45897954325352
 30
0.0
  0
SPLINE
  5
1A1
100
AcDbEntity
  8
overflow
370
              15
390
0
  6
Continuous
 62
               7
100
AcDbSpline
210
0.0
220
0.0
230
1.0
 70
               8
 71
               2
 72
              13
 73
              10
 74
               0
 42
0.000001
 43
0.000001
 40
0.0
 40
0.0
 40
0.0
 40
1.0
 40
1.0
 40
2.0
 40
3.0
 40
4.0
 40
5.0
 40
5.0
 40
6.0
 40
6.0
 40
6.0
 10
697.20623430518731
 20
484.33931849573975
 30
0.0
 10
699.75404182687521
 20
483.44266033978141
 30
0.0
 10
701.97810761757296
 20
482.47994708820744
 30
0.0
 10
706.65929055364063
 20
480.45364154255122
 30
0.0
 10
712.91657050086155
 20
477.59655168894523
 30
0.0
 10
719.33094528997185
 20
475.0722779719195
 30
0.0
 10
726.99672127466852
 20
473.63351885253672
 30
0.0
 10
731.4528856780023
 20
473.3245926717928
 30
0.0
 10
732.25673469402477
 20
473.31143796803582
 30
0.0
 10
733.06058371004724
 20
473.29828326427884
 30
0.0
  0
SPLINE
  5
1A2
100
AcDbEntity
  8
overflow
370
              15
390
0
  6
Continuous
 62
               7
100
AcDbSpline
210
0.0
220
0.0
230
1.0
 70
               8
 71
               2
 72
              11
 73
               8
 74
               0
 42
0.000001
 43
0.000001
 40
0.0
 40
0.0
 40
0.0
 40
1.0
 40
1.0
 40
2.0
 40
3.0
 40
3.0
 40
4.0
 40
4.0
 40
4.0
 10
693.62964249033917
 20
485.5164903340056
 30
0.0
 10
692.4357476288485
 20
485.88436257983739
 30
0.0
 10
691.18152545582666
 20
486.23992585852051
 30
0.0
 10
685.06612623014894
 20
487.97359908317759
 30
0.0
 10
672.29468640103801
 20
489.48687916222076
 30
0.0
 10
664.74174122850923
 20
489.85180573438225
 30
0.0
 10
663.37484116354221
 20
489.87514232748805
 30
0.0
 10
662.0079410985752
 20
489.89847892059385
 30
0.0
  0
LINE
  5
1A3
100
AcDbEntity
  8
overflow
370
              15
390
0
  6
Continuous
 62
               7
100
AcDbLine
 10
710.41011003356175
 20
427.58353238223714
 30
0.0
 11
782.22855413096181
 21
427.58353238223714
 31
0.0
  0
SPLINE
  5
1A4
100
AcDbEntity
  8
overflow
370
              15
390
0
  6
Continuous
 62
               7
100
AcDbSpline
210
0.0
220
0.0
230
1.0
 70
               8
 71
               2
 72
              14
 73
              11
 74
               0
 42
0.000001
 43
0.000001
 40
0.0
 40
0.0
 40
0.0
 40
1.0
 40
1.0
 40
2.0
 40
3.0
 40
4.0
 40
5.0
 40
6.0
 40
6.0
 40
7.0
 40
7.0
 40
7.0
 10
781.42946325992284
 20
427.58115416666493
 30
0.0
 10
781.5561943381515
 20
427.58115416666493
 30
0.0
 10
781.68292541638016
 20
427.58115416666493
 30
0.0
 10
783.4437392485122
 20
427.50579551739241
 30
0.0
 10
786.70390743018993
 20
426.5513493155874
 30
0.0
 10
789.84623597203404
 20
424.42130194817292
 30
0.0
 10
792.20237317742226
 20
421.45496044784176
 30
0.0
 10
793.57057923091065
 20
417.85440733642105
 30
0.0
 10
793.66794561628353
 20
415.58908839661359
 30
0.0
 10
793.66794561628353
 20
415.46231272616882
 30
0.0
 10
793.66794561628353
 20
415.33553705572405
 30
0.0
  0
LINE
  5
1A5
100
AcDbEntity
  8
overflow
370
              15
390
0
  6
Continuous
 62
               7
100
AcDbLine
 10
781.57691056398812
 20
433.14388911376699
 30
0.0
 11
781.57691056398812
 21
427.58115764827534
 31
0.0
  0
SPLINE
  5
1A6
100
AcDbEntity
  8
overflow
370
              15
390
0
  6
Continuous
 62
               7
100
AcDbSpline
210
0.0
220
0.0
230
1.0
 70
               8
 71
               2
 72
              15
 73
              12
 74
               0
 42
0.000001
 43
0.000001
 40
0.0
 40
0.0
 40
0.0
 40
1.0
 40
1.0
 40
2.0
 40
3.0
 40
4.0
 40
5.0
 40
6.0
 40
7.0
 40
7.0
 40
8.0
 40
8.0
 40
8.0
 10
806.7578420192001
 20
500.14874300063963
 30
0.0
 10
806.7578420192001
 20
499.409404057279
 30
0.0
 10
806.7578420192001
 20
498.67006511391838
 30
0.0
 10
806.27627315631503
 20
488.15329623944109
 30
0.0
 10
803.20679438344882
 20
473.21486134203457
 30
0.0
 10
800.2096763081679
 20
461.93918369268539
 30
0.0
 10
797.21361306189442
 20
451.8073290204656
 30
0.0
 10
794.78517358825479
 20
443.30876595308979
 30
0.0
 10
793.83905963717621
 20
438.54814123634202
 30
0.0
 10
793.66794561628353
 20
436.64297851745852
 30
0.0
 10
793.66794561628353
 20
436.36794744907832
 30
0.0
 10
793.66794561628353
 20
436.09291638069811
 30
0.0
  0
SPLINE
  5
1A7
100
AcDbEntity
  8
overflow
370
              15
390
0
  6
Continuous
 62
               7
100
AcDbSpline
210
0.0
220
0.0
230
1.0
 70
               8
 71
               2
 72
              10
 73
               7
 74
               0
 42
0.000001
 43
0.000001
 40
0.0
 40
0.0
 40
0.0
 40
1.0
 40
1.0
 40
2.0
 40
2.0
 40
3.0
 40
3.0
 40
3.0
 10
662.94021569703887
 20
500.14874300063963
 30
0.0
 10
662.94021569703887
 20
500.09578974399074
 30
0.0
 10
662.94021569703887
 20
500.04283648734184
 30
0.0
 10
662.96565887367137
 20
495.05122226889722
 30
0.0
 10
663.55558827957043
 20
489.97064399035713
 30
0.0
 10
663.56183118982813
 20
489.91672456902546
 30
0.0
 10
663.56807410008582
 20
489.86280514769379
 30
0.0
  0
LINE
  5
1A8
100
AcDbEntity
  8
overflow
370
              15
390
0
  6
Continuous
 62
               7
100
AcDbLine
 10
244.31985274434129
 20
450.7619713419129
 30
0.0
 11
292.05611973715691
 21
448.42176766890606
 31
0.0
  0
LINE
  5
1A9
100
AcDbEntity
  8
overflow
370
              15
390
0
  6
Continuous
 62
               7
100
AcDbLine
 10
244.34839097165906
 20
438.64715558406857
 30
0.0
 11
292.05611973715691
 21
438.64715558406857
 31
0.0
  0
SPLINE
  5
1AA
100
AcDbEntity
  8
overflow
370
              15
390
0
  6
Continuous
 62
               7
100
AcDbSpline
210
0.0
220
0.0
230
1.0
 70
               8
 71
               2
 72
              18
 73
              15
 74
               0
 42
0.000001
 43
0.000001
 40
0.0
 40
0.0
 40
0.0
 40
1.0
 40
1.0
 40
2.0
 40
3.0
 40
4.0
 40
5.0
 40
6.0
 40
7.0
 40
8.0
 40
9.0
 40
10.0
 40
10.0
 40
11.0
 40
11.0
 40
11.0
 10
230.82565337814435
 20
460.81246274914184
 30
0.0
 10
230.82565337814435
 20
460.78923020454027
 30
0.0
 10
230.82565337814435
 20
460.76599765993871
 30
0.0
 10
230.8448905398966
 20
460.33104501693782
 30
0.0
 10
231.17907908128132
 20
459.06157031256026
 30
0.0
 10
231.66906380120349
 20
457.82198850453545
 30
0.0
 10
232.42507013147974
 20
456.44778443642673
 30
0.0
 10
233.49323820452287
 20
455.03400792309714
 30
0.0
 10
234.9196849114353
 20
453.67566090171823
 30
0.0
 10
236.75052949316728
 20
452.46775015021518
 30
0.0
 10
239.03188981330666
 20
451.50527960911148
 30
0.0
 10
241.80995292894502
 20
450.8833957592521
 30
0.0
 10
243.88641619985839
 20
450.76883899862236
 30
0.0
 10
244.10313437022825
 20
450.7654053979806
 30
0.0
 10
244.31985254059811
 20
450.76197179733884
 30
0.0
  0
SPLINE
  5
1AB
100
AcDbEntity
  8
overflow
370
              15
390
0
  6
Continuous
 62
               7
100
AcDbSpline
210
0.0
220
0.0
230
1.0
 70
               8
 71
               2
 72
              17
 73
              14
 74
               0
 42
0.000001
 43
0.000001
 40
0.0
 40
0.0
 40
0.0
 40
1.0
 40
1.0
 40
2.0
 40
3.0
 40
4.0
 40
5.0
 40
6.0
 40
7.0
 40
8.0
 40
9.0
 40
9.0
 40
10.0
 40
10.0
 40
10.0
 10
230.82565337814435
 20
460.81246274914184
 30
0.0
 10
230.82565337814435
 20
460.85681173499751
 30
0.0
 10
230.82565337814435
 20
460.90116072085317
 30
0.0
 10
230.95061652131176
 20
461.69510888043504
 30
0.0
 10
231.93617869177092
 20
462.79652010992885
 30
0.0
 10
232.76468407505058
 20
463.56265121885673
 30
0.0
 10
233.70755951552223
 20
464.3705295619871
 30
0.0
 10
234.6994525987177
 20
465.23147603001729
 30
0.0
 10
235.67499995165986
 20
466.15681341197063
 30
0.0
 10
237.03641408651515
 20
467.65481170287359
 30
0.0
 10
237.99149920285276
 20
469.7276277948327
 30
0.0
 10
238.07456403150377
 20
470.91316723886138
 30
0.0
 10
238.07456403150377
 20
470.99983829165785
 30
0.0
 10
238.07456403150377
 20
471.08650934445433
 30
0.0
  0
SPLINE
  5
1AC
100
AcDbEntity
  8
overflow
370
              15
390
0
  6
Continuous
 62
               7
100
AcDbSpline
210
0.0
220
0.0
230
1.0
 70
               8
 71
               2
 72
              17
 73
              14
 74
               0
 42
0.000001
 43
0.000001
 40
0.0
 40
0.0
 40
0.0
 40
1.0
 40
1.0
 40
2.0
 40
3.0
 40
4.0
 40
5.0
 40
6.0
 40
7.0
 40
8.0
 40
9.0
 40
9.0
 40
10.0
 40
10.0
 40
10.0
 10
241.42789868414027
 20
451.00693170458811
 30
0.0
 10
241.41104282644508
 20
451.18677211222234
 30
0.0
 10
241.39418696874989
 20
451.36661251985657
 30
0.0
 10
241.23543633155558
 20
454.44784259574277
 30
0.0
 10
241.95624609609993
 20
457.42867358055793
 30
0.0
 10
242.62703156218166
 20
459.14582041628097
 30
0.0
 10
243.42025143736674
 20
460.65236536166123
 30
0.0
 10
244.2582691510309
 20
462.01639740169497
 30
0.0
 10
245.06350172440153
 20
463.30595852016842
 30
0.0
 10
245.75814501966437
 20
464.58928466220283
 30
0.0
 10
246.40087309802533
 20
466.26224723738954
 30
0.0
 10
246.47175397823816
 20
467.63025585700012
 30
0.0
 10
246.47077294948343
 20
467.73165855646954
 30
0.0
 10
246.46979192072871
 20
467.83306125593896
 30
0.0
  0
SPLINE
  5
1AD
100
AcDbEntity
  8
overflow
370
              15
390
0
  6
Continuous
 62
               7
100
AcDbSpline
210
0.0
220
0.0
230
1.0
 70
               8
 71
               2
 72
              17
 73
              14
 74
               0
 42
0.000001
 43
0.000001
 40
0.0
 40
0.0
 40
0.0
 40
1.0
 40
1.0
 40
2.0
 40
3.0
 40
4.0
 40
5.0
 40
6.0
 40
7.0
 40
8.0
 40
9.0
 40
9.0
 40
10.0
 40
10.0
 40
10.0
 10
230.85419239646421
 20
428.59666756856251
 30
0.0
 10
230.85419239646421
 20
428.61990011316391
 30
0.0
 10
230.85419239646421
 20
428.64313265776531
 30
0.0
 10
230.87001778513991
 20
429.22070840128998
 30
0.0
 10
231.42263559002936
 20
430.9437707120872
 30
0.0
 10
232.03985867624419
 20
432.26255501713769
 30
0.0
 10
232.94618081762405
 20
433.66842147473113
 30
0.0
 10
234.18772727083274
 20
435.06635091442803
 30
0.0
 10
235.81059145267159
 20
436.36138975668979
 30
0.0
 10
237.86099817443051
 20
437.45831374608298
 30
0.0
 10
241.01032465594679
 20
438.47493067923079
 30
0.0
 10
243.91495521817916
 20
438.64029131908234
 30
0.0
 10
244.13167338854902
 20
438.64372491972409
 30
0.0
 10
244.34839155891888
 20
438.64715852036585
 30
0.0
  0
LINE
  5
1AE
100
AcDbEntity
  8
overflow
370
              15
390
0
  6
Continuous
 62
               7
100
AcDbLine
 10
291.3521491834706
 20
412.27235232526419
 30
0.0
 11
240.24352525310613
 21
412.27235232526419
 31
0.0
  0
SPLINE
  5
1AF
100
AcDbEntity
  8
overflow
370
              15
390
0
  6
Continuous
 62
               7
100
AcDbSpline
210
0.0
220
0.0
230
1.0
 70
               8
 71
               2
 72
              14
 73
              11
 74
               0
 42
0.000001
 43
0.000001
 40
0.0
 40
0.0
 40
0.0
 40
1.0
 40
1.0
 40
2.0
 40
3.0
 40
4.0
 40
5.0
 40
6.0
 40
6.0
 40
7.0
 40
7.0
 40
7.0
 10
240.24352942384692
 20
412.27234908934366
 30
0.0
 10
240.06615149748112
 20
412.27234908934366
 30
0.0
 10
239.88877357111531
 20
412.27234908934366
 30
0.0
 10
238.13240961100314
 20
412.35347654307185
 30
0.0
 10
234.13139206858909
 20
413.27995806616565
 30
0.0
 10
229.66125434315586
 20
416.17359695439342
 30
0.0
 10
226.40730915694917
 20
420.37408365302491
 30
0.0
 10
224.93781602198965
 20
424.8796016445886
 30
0.0
 10
224.82294652477162
 20
427.34045529340057
 30
0.0
 10
224.82294652477162
 20
427.51788276667321
 30
0.0
 10
224.82294652477162
 20
427.69531023994585
 30
0.0
  0
LINE
  5
1B0
100
AcDbEntity
  8
overflow
370
              15
390
0
  6
Continuous
 62
               7
100
AcDbLine
 10
230.82564791303435
 20
460.8124667640804
 30
0.0
 11
230.82564791303435
 21
429.42667110125882
 31
0.0
  0
LINE
  5
1B1
100
AcDbEntity
  8
overflow
370
              15
390
0
  6
Continuous
 62
               7
100
AcDbLine
 10
244.34839097165906
 20
438.64715558406857
 30
0.0
 11
244.34839097165906
 21
412.27235232526419
 31
0.0
  0
SPLINE
  5
1B2
100
AcDbEntity
  8
overflow
370
              15
390
0
  6
Continuous
 62
               7
100
AcDbSpline
210
0.0
220
0.0
230
1.0
 70
               8
 71
               2
 72
              15
 73
              12
 74
               0
 42
0.000001
 43
0.000001
 40
0.0
 40
0.0
 40
0.0
 40
1.0
 40
1.0
 40
2.0
 40
3.0
 40
4.0
 40
5.0
 40
6.0
 40
7.0
 40
7.0
 40
8.0
 40
8.0
 40
8.0
 10
244.34839155891888
 20
412.27234908934366
 30
0.0
 10
244.18138197473519
 20
412.27234908934366
 30
0.0
 10
244.0143723905515
 20
412.27234908934366
 30
0.0
 10
241.72464309735213
 20
412.43242021351131
 30
0.0
 10
238.90274272869854
 20
413.73317968742498
 30
0.0
 10
235.89347867952097
 20
415.99668639014845
 30
0.0
 10
233.69627107418842
 20
419.15711718317795
 30
0.0
 10
231.92772396578152
 20
422.5677593512624
 30
0.0
 10
230.9281392312771
 20
426.57432242175463
 30
0.0
 10
230.85419239646421
 20
428.35183283244618
 30
0.0
 10
230.85419239646421
 20
428.47425020050434
 30
0.0
 10
230.85419239646421
 20
428.59666756856251
 30
0.0
  0
LINE
  5
1B3
100
AcDbEntity
  8
overflow
370
              15
390
0
  6
Continuous
 62
               7
100
AcDbLine
 10
778.97035010268314
 20
530.36058694802341
 30
0.0
 11
778.97035010268314
 21
511.4811160016871
 31
0.0
  0
LINE
  5
1B4
100
AcDbEntity
  8
overflow
370
              15
390
0
  6
Continuous
 62
               7
100
AcDbLine
 10
690.7277147602997
 20
530.36058874147079
 30
0.0
 11
690.72770746973833
 21
511.4811160016871
 31
0.0
  0
ARC
  5
1B5
100
AcDbEntity
  8
overflow
370
              15
390
0
  6
Continuous
 62
               7
100
AcDbCircle
 10
807.16227467688236
 20
523.43277589208697
 30
0.0
 40
29.030659262649134
100
AcDbArc
 50
97.475169740689509
 51
166.19384709665735
  0
ARC
  5
1B6
100
AcDbEntity
  8
overflow
370
              15
390
0
  6
Continuous
 62
               7
100
AcDbCircle
 10
662.53747884822837
 20
523.42590948098336
 30
0.0
 40
29.030659262649728
100
AcDbArc
 50
13.820111897757535
 51
82.52483025931231
  0
ARC
  5
1B7
100
AcDbEntity
  8
overflow
370
              15
390
0
  6
Continuous
 62
               7
100
AcDbCircle
 10
789.71534191159458
 20
385.82350165354518
 30
0.0
 40
12.916477194423237
100
AcDbArc
 50
316.26162878484445
 51
349.84367424316986
  0
ARC
  5
1B8
100
AcDbEntity
  8
overflow
370
              15
390
0
  6
Continuous
 62
               7
100
AcDbCircle
 10
679.98098448701944
 20
385.82350165354518
 30
0.0
 40
12.916477194424237
100
AcDbArc
 50
190.1563257568294
 51
223.73837121515271
  0
LINE
  5
1B9
100
AcDbEntity
  8
overflow
370
              15
390
0
  6
Continuous
 62
               7
100
AcDbLine
 10
673.71772398978169
 20
366.21254807397833
 30
0.0
 11
795.92815951978878
 21
366.21254807397833
 31
0.0
  0
ARC
  5
1BA
100
AcDbEntity
  8
overflow
370
              15
390
0
  6
Continuous
 62
               7
100
AcDbCircle
 10
264.05220545756811
 20
833.87328527074294
 30
0.0
 40
25.345025165672499
100
AcDbArc
 50
0.0000009889112621
 51
179.99999901108873
  0
ARC
  5
1BB
100
AcDbEntity
  8
overflow
370
              15
390
0
  6
Continuous
 62
               7
100
AcDbCircle
 10
264.05220545756811
 20
833.87328527074294
 30
0.0
 40
16.800000000000413
100
AcDbArc
 50
0.0000009889113896
 51
179.99999889760159
  0
ARC
  5
1BC
100
AcDbEntity
  8
overflow
370
              15
390
0
  6
Continuous
 62
               7
100
AcDbCircle
 10
260.63368481348925
 20
823.36676599231203
 30
0.0
 40
35.799999999999976
100
AcDbArc
 50
90.868386474214944
 51
163.08442525186689
  0
DIMENSION
  5
1BD
100
AcDbEntity
  8
overflow
370
               5
390
0
  6
Continuous
 62
               7
100
AcDbDimension
  2
*D1
 10
906.75784393678236
 20
391.5458814073117
 30
0.0
 11
906.75784393678236
 21
353.54588140731175
 31
0.0
 71
               5
 72
               1
 41
1.0
 42
0.0
  3
Tform線あり
100
AcDbAlignedDimension
 13
780.30692493187212
 23
315.54588140731175
 33
0.0
 14
802.42942186761206
 24
391.5458814073117
 34
0.0
 50
90.0
100
AcDbRotatedDimension
1001
ACAD
1000
DSTYLE
1002
{
1070
             279
1070
               2
1070
             340
1005
39
1070
             144
1040
0.5
1070
             147
1040
5.0
1002
}
  0
ARC
  5
1BE
100
AcDbEntity
  8
overflow
370
              15
390
0
  6
Continuous
 62
               7
100
AcDbCircle
 10
795.40636090276871
 20
370.05602343943673
 30
0.0
 40
3.8787339018821152
100
AcDbArc
 50
277.73133182191009
 51
338.75382061574464
  0
ARC
  5
1BF
100
AcDbEntity
  8
overflow
370
              15
390
0
  6
Continuous
 62
               7
100
AcDbCircle
 10
674.28720856360246
 20
370.05602343943673
 30
0.0
 40
3.8787339018828968
100
AcDbArc
 50
201.24617938425044
 51
262.26866817807672
  0
DIMENSION
  5
1C0
100
AcDbEntity
  8
overflow
370
               5
390
0
  6
Continuous
 62
               7
100
AcDbDimension
  2
*D2
 10
116.00439480156976
 20
391.5458814073117
 30
0.0
 11
116.00439480156976
 21
641.59107038554521
 31
0.0
 71
               5
 72
               1
 41
1.0
 42
0.0
  3
Tform線あり
100
AcDbAlignedDimension
 13
220.74662807014306
 23
891.63625936377878
 33
0.0
 14
668.40127149110481
 24
391.5458814073117
 34
0.0
 50
90.0
100
AcDbRotatedDimension
1001
ACAD
1000
DSTYLE
1002
{
1070
             279
1070
               2
1070
             340
1005
39
1070
             144
1040
0.5
1070
               3
1000
min.85～max.<>
1070
             147
1040
5.0
1002
}
  0
DIMENSION
  5
1C1
100
AcDbEntity
  8
overflow
370
               5
390
0
  6
Continuous
 62
               7
100
AcDbDimension
  2
*D3
 10
734.84902878621028
 20
165.54588140731164
 30
0.0
 11
479.83598527049799
 21
165.54588140731164
 31
0.0
 71
               5
 72
               1
 41
1.0
 42
0.0
  3
Tform線あり
100
AcDbAlignedDimension
 13
224.82294175478569
 23
415.6417434188964
 33
0.0
 14
734.84902878621028
 24
315.54588140731175
 34
0.0
100
AcDbRotatedDimension
1001
ACAD
1000
DSTYLE
1002
{
1070
             279
1070
               2
1070
             340
1005
39
1070
             144
1040
0.5
1070
               3
1000
min.75～max.<>
1070
             147
1040
5.0
1002
}
  0
SPLINE
  5
1C2
100
AcDbEntity
  8
overflow
370
              15
390
0
  6
Continuous
 62
               7
100
AcDbSpline
210
0.0
220
0.0
230
1.0
 70
               8
 71
               2
 72
               7
 73
               4
 74
               0
 42
0.000001
 43
0.000001
 40
0.0
 40
0.0
 40
0.0
 40
1.0
 40
2.0
 40
2.0
 40
2.0
 10
736.63747400619263
 20
456.27475883621236
 30
0.0
 10
746.11548270628805
 20
456.27475883621236
 30
0.0
 10
765.07820073564267
 20
453.44463951944755
 30
0.0
 10
774.37556923175248
 20
453.44463951944755
 30
0.0
  0
ARC
  5
1C3
100
AcDbEntity
  8
overflow
370
              15
390
0
  6
Continuous
 62
               7
100
AcDbCircle
 10
766.17039779819311
 20
455.2896466926058
 30
0.0
 40
26.977679928846761
100
AcDbArc
 50
304.82582876441336
 51
41.877347580429337
  0
LINE
  5
1C4
100
AcDbEntity
  8
overflow
370
              15
390
0
  6
Continuous
 62
               7
100
AcDbLine
 10
297.25021427332899
 20
448.04520759912504
 30
0.0
 11
710.41011003356175
 21
434.92043834341149
 31
0.0
  0
LINE
  5
1C5
100
AcDbEntity
  8
overflow
370
              15
390
0
  6
Continuous
 62
               7
100
AcDbLine
 10
710.41011003356175
 20
434.92043834341149
 30
0.0
 11
733.06058488456597
 21
434.92043834341149
 31
0.0
  0
LINE
  5
1C6
100
AcDbEntity
  8
overflow
370
              15
390
0
  6
Continuous
 62
               7
100
AcDbLine
 10
736.6374726878546
 20
434.92043834341149
 30
0.0
 11
774.37557124521459
 21
433.42857299998826
 31
0.0
  0
LINE
  5
1C7
100
AcDbEntity
  8
overflow
370
              15
390
0
  6
Continuous
 62
               7
100
AcDbLine
 10
777.95245904850321
 20
433.28717120299706
 30
0.0
 11
781.57691056398812
 21
433.14388911376699
 31
0.0
  0
DIMENSION
  5
1C8
100
AcDbEntity
  8
overflow
370
               5
390
0
  6
Continuous
 62
               7
100
AcDbDimension
  2
*D4
 10
906.75784393678236
 20
391.5458814073117
 30
0.0
 11
906.75784393678236
 21
451.5134987044994
 31
0.0
 71
               5
 72
               1
 41
1.0
 42
0.0
  3
Tform線あり
100
AcDbAlignedDimension
 13
804.87426570744969
 23
511.4811160016871
 33
0.0
 14
802.42942186761206
 24
391.5458814073117
 34
0.0
 50
90.0
100
AcDbRotatedDimension
1001
ACAD
1000
DSTYLE
1002
{
1070
             279
1070
               2
1070
             340
1005
39
1070
             144
1040
0.5
1070
             147
1040
5.0
1002
}
  0
DIMENSION
  5
1C9
100
AcDbEntity
  8
overflow
370
               5
390
0
  6
Continuous
 62
               7
100
AcDbDimension
  2
*D5
 10
906.75784393678236
 20
511.4811160016871
 30
0.0
 11
906.75784393678236
 21
533.46850391697944
 31
0.0
 71
               5
 72
               1
 41
1.0
 42
0.0
  3
Tform線あり
100
AcDbAlignedDimension
 13
803.38548699923354
 23
555.45589183227162
 33
0.0
 14
804.87426570744969
 24
511.4811160016871
 34
0.0
 50
90.0
100
AcDbRotatedDimension
1001
ACAD
1000
DSTYLE
1002
{
1070
             279
1070
               2
1070
             340
1005
39
1070
             144
1040
0.5
1070
             147
1040
5.0
1002
}
  0
DIMENSION
  5
1CA
100
AcDbEntity
  8
overflow
370
               5
390
0
  6
Continuous
 62
               7
100
AcDbDimension
  2
*D6
 10
689.39113264054845
 20
215.54588140731175
 30
0.0
 11
804.24851787195769
 21
220.54588140731175
 31
0.0
 70
             128
 71
               5
 72
               1
 41
1.0
 42
0.0
  1
G1 1/4
  3
Tform線あり
100
AcDbAlignedDimension
 13
780.30692493187212
 23
315.54588140731175
 33
0.0
 14
689.39113264054845
 24
315.54588140731175
 34
0.0
100
AcDbRotatedDimension
1001
ACAD
1000
DSTYLE
1002
{
1070
             279
1070
               2
1070
             340
1005
39
1070
             144
1040
0.5
1070
             174
1070
               0
1070
             147
1040
5.0
1002
}
  0
MTEXT
  5
1CB
100
AcDbEntity
  8
overflow
390
0
 62
               7
100
AcDbMText
 10
231.66647323693601
 20
1054.9121575645622
 30
0.0
 40
24.432617187500004
 41
0.0
 71
               1
 72
               1
  1
インボードオーバーフロー(Not To Scale)
  7
ＭＳ ゴシック
 73
               1
 44
0.7828267384257843
  0
MTEXT
  5
1CC
100
AcDbEntity
  8
template
390
0
 62
               7
100
AcDbMText
 10
-967.99999999975921
 20
-1147.4176292337002
 30
0.0
 40
16.288411458333332
 41
0.0
 71
               1
 72
               1
  1
品名
  7
ＭＳ ゴシック
 73
               1
 44
0.7828267384257843
  0
MTEXT
  5
1CD
100
AcDbEntity
  8
template
390
0
 62
               7
100
AcDbMText
 10
-967.99999999975921
 20
-1232.4176292337002
 30
0.0
 40
16.288411458333332
 41
0.0
 71
               1
 72
               1
  1
仕様
  7
ＭＳ ゴシック
 73
               1
 44
0.7828267384257843
  0
MTEXT
  5
1CE
100
AcDbEntity
  8
template
390
0
 62
               7
100
AcDbMText
 10
-914.99999999975921
 20
-1176.0000901712006
 30
0.0
 40
24.432617187500004
 41
0.0
 71
               1
 72
               1
  1
洗面器 -Laufen,Mylife-
  7
ＭＳ ゴシック
 73
               1
 44
0.7828267384257843
  0
LINE
  5
1CF
100
AcDbEntity
  8
template
370
               5
390
0
  6
Continuous
 62
               7
100
AcDbLine
 10
974.99999999975876
 20
-1224.0027073587003
 30
0.0
 11
-975.00000000024124
 21
-1224.0027073587003
 31
0.0
  0
LWPOLYLINE
  5
1D0
100
AcDbEntity
  8
template
370
               5
390
0
  6
Continuous
 62
               7
100
AcDbPolyline
 90
        5
 70
             128
 10
975.00000000024124
 20
1405.9972926412995
 10
-974.99999999975921
 20
1405.9972926412995
 10
-974.99999999975921
 20
-1394.0027073587003
 10
975.00000000024124
 20
-1394.0027073587003
 10
975.00000000024124
 20
1405.9972926412995
  0
LINE
  5
1D1
100
AcDbEntity
  8
template
370
               5
390
0
  6
Continuous
 62
               7
100
AcDbLine
 10
974.99999999975876
 20
-1139.0027073587003
 30
0.0
 11
-975.00000000024124
 21
-1139.0027073587003
 31
0.0
  0
LINE
  5
1D2
100
AcDbEntity
  8
template
370
               5
390
0
  6
Continuous
 62
               7
100
AcDbLine
 10
975.00000000024124
 20
-1309.0027073587003
 30
0.0
 11
222.00000000024124
 21
-1309.0027073587003
 31
0.0
  0
MTEXT
  5
1D3
100
AcDbEntity
  8
template
390
0
 62
               7
100
AcDbMText
 10
-914.99999999975921
 20
-1261.0000901712006
 30
0.0
 40
24.432617187500004
 41
0.0
 71
               1
 72
               1
  1
壁掛け/インボードオーバーフロー,壁取付ボルト付属/陶器/ホワイト
  7
ＭＳ ゴシック
 73
               1
 44
1.1307497332816883
  0
MTEXT
  5
1D4
100
AcDbEntity
  8
template
390
0
 62
               7
100
AcDbMText
 10
-974.99999999955594
 20
-1405.8565294155574
 30
0.0
 40
21.717881944444446
 41
0.0
 71
               1
 72
               1
  1
120224SH
  7
ＭＳ ゴシック
 73
               1
 44
0.7828267384257843
  0
MTEXT
  5
1D5
100
AcDbEntity
  8
template
390
0
 62
               7
100
AcDbMText
 10
251.87140625250089
 20
-1338.9131018320081
 30
0.0
 40
24.432617187500004
 41
0.0
 71
               1
 72
               1
  1
大洋金物株式会社 ティーフォルム事業部
  7
ＭＳ ゴシック
 73
               1
 44
0.7828267384257843
  0
INSERT
  5
1D6
100
AcDbEntity
  8
template
390
0
 62
               7
100
AcDbBlockReference
  2
グループ
 10
0.006890190972257
 20
688.36374063622122
 30
0.0
  0
MTEXT
  5
1D7
100
AcDbEntity
  8
template
390
0
 62
               7
100
AcDbMText
 10
784.00000000049999
 20
-1261.0000901712006
 30
0.0
 40
24.432617187500004
 41
0.0
 71
               1
 72
               1
  1
1:10
  7
ＭＳ ゴシック
 73
               1
 44
0.7828267384257843
  0
MTEXT
  5
1D8
100
AcDbEntity
  8
template
390
0
 62
               7
100
AcDbMText
 10
731.00000000049999
 20
-1232.4176292337002
 30
0.0
 40
16.288411458333332
 41
0.0
 71
               1
 72
               1
  1
縮尺
  7
ＭＳ ゴシック
 73
               1
 44
0.7828267384257843
  0
LINE
  5
1D9
100
AcDbEntity
  8
template
370
               5
390
0
  6
Continuous
 62
               7
100
AcDbLine
 10
724.00000000049999
 20
-1309.0027073587003
 30
0.0
 11
724.00000000049999
 21
-1224.0027073587003
 31
0.0
  0
MTEXT
  5
1DA
100
AcDbEntity
  8
template
390
0
 62
               7
100
AcDbMText
 10
480.00000000049999
 20
-1232.4176292337002
 30
0.0
 40
16.288411458333332
 41
0.0
 71
               1
 72
               1
  1
容量
  7
ＭＳ ゴシック
 73
               1
 44
0.7828267384257843
  0
MTEXT
  5
1DB
100
AcDbEntity
  8
template
390
0
 62
               7
100
AcDbMText
 10
533.00000000049999
 20
-1261.0000901712006
 30
0.0
 40
24.432617187500004
 41
0.0
 71
               1
 72
               1
  1
4.2L
  7
ＭＳ ゴシック
 73
               1
 44
0.7828267384257843
  0
LINE
  5
1DC
100
AcDbEntity
  8
template
370
               5
390
0
  6
Continuous
 62
               7
100
AcDbLine
 10
473.00000000049999
 20
-1309.0027073587003
 30
0.0
 11
473.00000000049999
 21
-1224.0027073587003
 31
0.0
  0
MTEXT
  5
1DD
100
AcDbEntity
  8
template
390
0
 62
               7
100
AcDbMText
 10
229.00000000049999
 20
-1147.4176292337002
 30
0.0
 40
16.288411458333332
 41
0.0
 71
               1
 72
               1
  1
品番
  7
ＭＳ ゴシック
 73
               1
 44
0.7828267384257843
  0
MTEXT
  5
1DE
100
AcDbEntity
  8
template
390
0
 62
               7
100
AcDbMText
 10
229.00000000049999
 20
-1232.4176292337002
 30
0.0
 40
16.288411458333332
 41
0.0
 71
               1
 72
               1
  1
重量
  7
ＭＳ ゴシック
 73
               1
 44
0.7828267384257843
  0
MTEXT
  5
1DF
100
AcDbEntity
  8
template
390
0
 62
               7
100
AcDbMText
 10
282.00000000049999
 20
-1176.0000901712006
 30
0.0
 40
24.432617187500004
 41
0.0
 71
               1
 72
               1
  1
GAR70-0101
  7
ＭＳ ゴシック
 73
               1
 44
0.7828267384257843
  0
MTEXT
  5
1E0
100
AcDbEntity
  8
template
390
0
 62
               7
100
AcDbMText
 10
282.00000000049999
 20
-1261.0000901712006
 30
0.0
 40
24.432617187500004
 41
0.0
 71
               1
 72
               1
  1
17kg
  7
ＭＳ ゴシック
 73
               1
 44
0.7828267384257843
  0
LINE
  5
1E1
100
AcDbEntity
  8
template
370
               5
390
0
  6
Continuous
 62
               7
100
AcDbLine
 10
222.00000000049999
 20
-1394.0027073587003
 30
0.0
 11
222.00000000049999
 21
-1139.0027073587003
 31
0.0
  0
MTEXT
  5
1E2
100
AcDbEntity
  8
notes
390
0
 62
               7
100
AcDbMText
 10
-828.78610188811274
 20
228.03111731330085
 30
0.0
 40
24.432617187500004
 41
833.92979864183906
 71
               1
 72
               1
  1
＝φ30もしくはφ35の水栓取付用穴あけ加工を承ります。\P   必要な場合、ご注文の際にご指示ください。
  7
ＭＳ ゴシック
 73
               1
 44
1.0437689845677123
  0
MTEXT
  5
1E3
100
AcDbEntity
  8
notes
390
0
 62
               7
100
AcDbMText
 10
-191.92647678559655
 20
-437.26489132165432
 30
0.0
 40
24.432617187500004
 41
0.0
 71
               1
 72
               1
  1
壁取付ボルト穴(2ヶ所)
  7
ＭＳ ゴシック
 73
               1
 44
0.7828267384257843
  0
LINE
  5
1E4
100
AcDbEntity
  8
notes
370
               5
390
0
  6
Continuous
 62
               7
100
AcDbLine
 10
-283.76172245422754
 20
-540.60000000000002
 30
0.0
 11
-193.50443199291644
 21
-469.22321190446075
 31
0.0
  0
CIRCLE
  5
1E5
100
AcDbEntity
  8
notes
370
               5
390
0
  6
STYLE_12
 62
               7
100
AcDbCircle
 10
-859.15397033029285
 20
211.60643763851158
 30
0.0
 40
17.500000000000025
  0
DIMENSION
  5
1E6
100
AcDbEntity
  8
notes
370
               5
390
0
  6
Continuous
 62
               7
100
AcDbDimension
  2
*D8
 10
-424.00900611781969
 20
991.5598952331336
 30
0.0
 11
-474.00900611781981
 21
991.5598952331336
 31
0.0
 71
               5
 72
               1
 41
1.0
 42
0.0
  3
tfrom線あり
100
AcDbAlignedDimension
 13
-524.00900611781981
 23
822.29999999999995
 33
0.0
 14
-424.00900611781969
 24
824.09999999999991
 34
0.0
100
AcDbRotatedDimension
1001
ACAD
1000
DSTYLE
1002
{
1070
             279
1070
               2
1070
             340
1005
39
1070
             147
1040
5.0
1002
}
  0
DIMENSION
  5
1E7
100
AcDbEntity
  8
notes
370
               5
390
0
  6
Continuous
 62
               7
100
AcDbDimension
  2
*D9
 10
-424.00900611781969
 20
991.5598952331336
 30
0.0
 11
-374.00900611781969
 21
991.5598952331336
 31
0.0
 71
               5
 72
               1
 41
1.0
 42
0.0
  3
tfrom線あり
100
AcDbAlignedDimension
 13
-324.00900611781969
 23
822.29999999999995
 33
0.0
 14
-424.00900611781969
 24
824.09999999999991
 34
0.0
100
AcDbRotatedDimension
1001
ACAD
1000
DSTYLE
1002
{
1070
             279
1070
               2
1070
             340
1005
39
1070
             147
1040
5.0
1002
}
  0
DIMENSION
  5
1E8
100
AcDbEntity
  8
notes
370
               5
390
0
  6
Continuous
 62
               7
100
AcDbDimension
  2
*D10
 10
-749.02964956400115
 20
1041.5635232083314
 30
0.0
 11
-424.02967669073723
 21
1041.5635232083314
 31
0.0
 71
               5
 72
               1
 41
1.0
 42
0.0
  3
tfrom線あり
100
AcDbAlignedDimension
 13
-99.029703817473234
 23
887.0642285034703
 33
0.0
 14
-749.02964956400115
 24
887.0642285034703
 34
0.0
100
AcDbRotatedDimension
1001
ACAD
1000
DSTYLE
1002
{
1070
             279
1070
               2
1070
             340
1005
39
1070
             147
1040
5.0
1002
}
  0
DIMENSION
  5
1E9
100
AcDbEntity
  8
notes
370
               5
390
0
  6
Continuous
 62
               7
100
AcDbDimension
  2
*D11
 10
0.9571368361184369
 20
891.5598952331336
 30
0.0
 11
0.9571368361184369
 21
636.5598952331336
 31
0.0
 71
               5
 72
               1
 41
1.0
 42
0.0
  3
tfrom線あり
100
AcDbAlignedDimension
 13
-362.98947486782004
 23
381.5598952331336
 33
0.0
 14
-103.52899852233442
 24
891.5598952331336
 34
0.0
 50
90.0
100
AcDbRotatedDimension
1001
ACAD
1000
DSTYLE
1002
{
1070
             279
1070
               2
1070
             340
1005
39
1070
             147
1040
5.0
1002
}
  0
DIMENSION
  5
1EA
100
AcDbEntity
  8
notes
370
               5
390
0
  6
Continuous
 62
               7
100
AcDbDimension
  2
*D12
 10
-689.02871059899906
 20
281.14832839285668
 30
0.0
 11
-424.02967669073712
 21
281.14832839285668
 31
0.0
 71
               5
 72
               1
 41
1.0
 42
0.0
  3
tfrom線あり
100
AcDbAlignedDimension
 13
-159.03064278247527
 23
405.11479198439571
 33
0.0
 14
-689.02871059899906
 24
405.11479198439571
 34
0.0
100
AcDbRotatedDimension
1001
ACAD
1000
DSTYLE
1002
{
1070
             279
1070
               2
1070
             340
1005
39
1070
             147
1040
5.0
1002
}
  0
DIMENSION
  5
1EB
100
AcDbEntity
  8
notes
370
               5
390
0
  6
Continuous
 62
               7
100
AcDbDimension
  2
*D13
 10
-848.78711727540406
 20
431.57757288685974
 30
0.0
 11
-848.78711727540406
 21
591.57757288685968
 31
0.0
 71
               5
 72
               1
 41
1.0
 42
0.0
  3
tfrom線あり
100
AcDbAlignedDimension
 13
-752.41794735393182
 23
751.57757288685968
 33
0.0
 14
-752.19864909539842
 24
431.57757288685974
 34
0.0
 50
90.0
100
AcDbRotatedDimension
1001
ACAD
1000
DSTYLE
1002
{
1070
             279
1070
               2
1070
             340
1005
39
1070
             147
1040
5.0
1002
}
  0
DIMENSION
  5
1EC
100
AcDbEntity
  8
notes
370
               5
390
0
  6
Continuous
 62
               7
100
AcDbDimension
  2
*D14
 10
-848.78711727540406
 20
751.55349332341154
 30
0.0
 11
-848.78711727540406
 21
821.55349332341154
 31
0.0
 71
               5
 72
               1
 41
1.0
 42
0.0
  3
tfrom線あり
100
AcDbAlignedDimension
 13
-750.91386647614752
 23
891.55349332341154
 33
0.0
 14
-748.99158155792293
 24
751.55349332341154
 34
0.0
 50
90.0
100
AcDbRotatedDimension
1001
ACAD
1000
DSTYLE
1002
{
1070
             279
1070
               2
1070
             340
1005
39
1070
             147
1040
5.0
1002
}
  0
DIMENSION
  5
1ED
100
AcDbEntity
  8
notes
370
               5
390
0
  6
Continuous
 62
               7
100
AcDbDimension
  2
*D15
 10
-563.76172245422788
 20
-389.01463853035114
 30
0.0
 11
-423.76172245422765
 21
-389.01463853035114
 31
0.0
 71
               5
 72
               1
 41
1.0
 42
0.0
  3
tfrom線あり
100
AcDbAlignedDimension
 13
-283.76172245422754
 23
-557.47556212651591
 33
0.0
 14
-563.76172245422788
 24
-557.47556212651591
 34
0.0
100
AcDbRotatedDimension
1001
ACAD
1000
DSTYLE
1002
{
1070
             279
1070
               2
1070
             340
1005
39
1070
             147
1040
5.0
1002
}
  0
DIMENSION
  5
1EE
100
AcDbEntity
  8
notes
370
               5
390
0
  6
Continuous
 62
               7
100
AcDbDimension
  2
*D16
 10
-848.73711727540399
 20
-490.6244174603786
 30
0.0
 11
-848.73711727540399
 21
-515.61220873018931
 31
0.0
 71
               5
 72
               1
 41
1.0
 42
0.0
  3
tfrom線あり
100
AcDbAlignedDimension
 13
-583.76172245422811
 23
-540.60000000000002
 33
0.0
 14
-574.79387892801594
 24
-490.6244174603786
 34
0.0
 50
90.0
100
AcDbRotatedDimension
1001
ACAD
1000
DSTYLE
1002
{
1070
             279
1070
               2
1070
             340
1005
39
1070
             147
1040
5.0
1002
}
  0
DIMENSION
  5
1EF
100
AcDbEntity
  8
notes
370
               5
390
0
  6
Continuous
 62
               7
100
AcDbDimension
  2
*D17
 10
761.20612107198394
 20
-389.01463853035159
 30
0.0
 11
718.70612107198394
 21
-389.01463853035159
 31
0.0
 71
               5
 72
               1
 41
1.0
 42
0.0
  3
tfrom線あり
100
AcDbAlignedDimension
 13
676.20612107198394
 23
-489.25191231182646
 33
0.0
 14
761.20612107198394
 24
-489.25191231182646
 34
0.0
100
AcDbRotatedDimension
1001
ACAD
1000
DSTYLE
1002
{
1070
             279
1070
               2
1070
             340
1005
39
1070
             147
1040
5.0
1002
}
  0
DIMENSION
  5
1F0
100
AcDbEntity
  8
notes
370
               5
390
0
  6
Continuous
 62
               7
100
AcDbDimension
  2
*D18
 10
511.20612107198394
 20
-758.46682394537459
 30
0.0
 11
636.20612107198394
 21
-758.46682394537459
 31
0.0
 71
               5
 72
               1
 41
1.0
 42
0.0
  3
tfrom線あり
100
AcDbAlignedDimension
 13
761.20612107198394
 23
-654.16174304099297
 33
0.0
 14
511.20612107198394
 24
-654.9719891987894
 34
0.0
100
AcDbRotatedDimension
1001
ACAD
1000
DSTYLE
1002
{
1070
             279
1070
               2
1070
             340
1005
39
1070
             147
1040
5.0
1002
}
  0
DIMENSION
  5
1F1
100
AcDbEntity
  8
notes
370
               5
390
0
  6
Continuous
 62
               7
100
AcDbDimension
  2
*D19
 10
-2.1656360262470002
 20
-660.605409308822
 30
0.0
 11
-2.1656360262470002
 21
-575.605409308822
 31
0.0
 71
               5
 72
               1
 41
1.0
 42
0.0
  3
tfrom線あり
100
AcDbAlignedDimension
 13
-253.79387892801552
 23
-490.605409308822
 33
0.0
 14
-218.43248698369939
 24
-660.605409308822
 34
0.0
 50
90.0
100
AcDbRotatedDimension
1001
ACAD
1000
DSTYLE
1002
{
1070
             279
1070
               2
1070
             340
1005
39
1070
             147
1040
5.0
1002
}
  0
DIMENSION
  5
1F2
100
AcDbEntity
  8
notes
370
               5
390
0
  6
Continuous
 62
               7
100
AcDbDimension
  2
*D20
 10
-436.38337478858341
 20
794.22563132923608
 30
0.0
 11
-245.60900611781986
 21
925.00000000000023
 31
0.0
 70
               3
 71
               5
 72
               1
 41
1.0
 42
0.0
  3
tfrom長さ固定
100
AcDbDiametricDimension
 15
-411.63463744705587
 25
818.97436867076374
 35
0.0
 40
149.94288578497569
1001
ACAD
1000
DSTYLE
1002
{
1070
             289
1070
               0
1070
             342
1005
4F
1070
             340
1005
39
1070
              73
1070
               1
1070
              74
1070
               1
1070
              75
1070
               1
1070
              76
1070
               1
1070
               3
1000

1070
             174
1070
               0
1070
             147
1040
5.0
1002
}
  0
DIMENSION
  5
1F3
100
AcDbEntity
  8
notes
370
               5
390
0
  6
Continuous
 62
               7
100
AcDbDimension
  2
*D21
 10
843.20612107198394
 20
-489.25191231182646
 30
0.0
 11
843.20612107198394
 21
-569.25191231182646
 31
0.0
 71
               5
 72
               1
 41
1.0
 42
0.0
  3
tfrom線あり
100
AcDbAlignedDimension
 13
535.19004283509003
 23
-649.25191231182646
 33
0.0
 14
761.20612107198394
 24
-489.25191231182646
 34
0.0
 50
90.0
100
AcDbRotatedDimension
1001
ACAD
1000
DSTYLE
1002
{
1070
             279
1070
               2
1070
             340
1005
39
1070
             147
1040
5.0
1002
}
  0
LINE
  5
1F4
100
AcDbEntity
  8
notes
370
               5
390
0
  6
Continuous
 62
               7
100
AcDbLine
 10
693.70872523865023
 20
-490.63339560175689
 30
0.0
 11
693.70612107198394
 21
-505.63339560175689
 31
0.0
  0
LINE
  5
1F5
100
AcDbEntity
  8
notes
370
               5
390
0
  6
Continuous
 62
               7
100
AcDbLine
 10
658.70872523865023
 20
-490.63339560175689
 30
0.0
 11
658.70612107198394
 21
-505.63339560175689
 31
0.0
  0
LWPOLYLINE
  5
1F6
100
AcDbEntity
  8
GAR70-0101
370
              15
390
0
  6
Continuous
 62
               7
100
AcDbPolyline
 90
      100
 70
             128
 10
-424.00900611781969
 20
891.5598952331336
 10
-103.52899852233443
 20
891.5598952331336
 42
-0.0182404662962009
 10
-103.19593599824255
 20
891.54774075767159
 10
-102.95129670438493
 20
891.52986166740197
 42
-0.0728407762413063
 10
-102.15527134410836
 20
891.35320975257991
 10
-101.92458568270571
 20
891.26537592299371
 42
-0.070713470998656
 10
-100.82357185277945
 20
890.65672865413717
 42
-0.0695298075856813
 10
-99.933423393928166
 20
889.76729069478779
 42
-0.0708507414340507
 10
-99.324354199176994
 20
888.66681616850246
 10
-99.236150983612703
 20
888.43531898720994
 42
-0.0728585968684397
 10
-99.059735684043318
 20
887.64108238616927
 10
-99.041888819066003
 20
887.39741011052752
 42
-0.0182797155377809
 10
-99.029703817473234
 20
887.0642285034703
 10
-99.343207506709319
 20
422.86082128405258
 10
-99.384548652542691
 20
422.15858850239005
 10
-99.560248522334319
 20
421.11900860012497
 10
-99.873752211570519
 20
420.11385187343132
 10
-100.30783424282052
 20
419.17065686276692
 10
-100.84871423413986
 20
418.31696210858883
 10
-101.46538632615378
 20
417.56653688112607
 10
-102.25775828795932
 20
416.82299628877746
 10
-103.09491649108432
 20
416.22403303382998
 10
-104.07332360913986
 20
415.70768540025455
 10
-104.93459748066769
 20
415.37722291476609
 10
-106.01980255879269
 20
415.11560678042127
 10
-113.9538574633066
 20
413.72491048732496
 10
-119.23518884351486
 20
412.76794620643182
 10
-129.7978516039316
 20
410.81270983395956
 10
-146.87174483309832
 20
407.67331622182093
 10
-155.41558163865378
 20
406.13804259132337
 10
-168.5103895813622
 20
403.85234373336289
 10
-181.62242300150115
 20
401.64926049677445
 10
-194.85158966816783
 20
399.53567751667242
 10
-208.09453671677903
 20
397.53224869839971
 10
-221.43050134351512
 20
395.62520477172785
 10
-234.78024635219566
 20
393.83519964199985
 10
-248.18855798414012
 20
392.16223330921537
 10
-261.61409509351506
 20
390.59942113826048
 10
-275.08097334872332
 20
389.16741703447798
 10
-288.56507708136212
 20
387.85245172763928
 10
-302.07329648240375
 20
386.65452521774432
 10
-315.59185116990363
 20
385.58740677502169
 10
-329.12418623934798
 20
384.64421176435724
 10
-342.66341149976449
 20
383.83182482086539
 10
-356.20952695115341
 20
383.13647667431707
 10
-369.76942278448666
 20
382.57193659494135
 10
-383.32931861781992
 20
382.13131994762369
 10
-396.88921445115307
 20
381.81462673236405
 10
-410.45600047545861
 20
381.62185694916252
 10
-424.02967669073632
 20
381.5598952331336
 10
-437.60335290601415
 20
381.62185694916252
 10
-451.17013893031969
 20
381.81462673236405
 10
-464.73003476365307
 20
382.13131994762369
 10
-478.28993059698632
 20
382.57193659494135
 10
-491.84982643031969
 20
383.13647667431707
 10
-505.39594188170861
 20
383.83182482086539
 10
-518.93516714212535
 20
384.64421176435724
 10
-532.46750221156981
 20
385.58740677502169
 10
-545.98605689907004
 20
386.65452521774432
 10
-559.49427630011189
 20
387.85245172763928
 10
-572.97838003275103
 20
389.16741703447798
 10
-586.4452582879594
 20
390.59942113826048
 10
-599.8707953973344
 20
392.16223330921537
 10
-613.27910702927886
 20
393.83519964199985
 10
-626.6288520379594
 20
395.62520477172785
 10
-639.96481666469549
 20
397.53224869839971
 10
-653.20776371330658
 20
399.53567751667242
 10
-666.43693037997332
 20
401.64926049677445
 10
-679.54896380011223
 20
403.85234373336289
 10
-692.64377174282049
 20
406.13804259132337
 10
-701.18760854837615
 20
407.67331622182093
 10
-718.26150177754289
 20
410.81270983395956
 10
-728.8241645379594
 20
412.76794620643182
 10
-734.10549591816789
 20
413.72491048732496
 10
-742.03955082268158
 20
415.11560678042127
 10
-743.12475590080658
 20
415.37722291476609
 10
-743.9860297723344
 20
415.70768540025455
 10
-744.96443689038983
 20
416.22403303382998
 10
-745.80159509351506
 20
416.82299628877746
 10
-746.59396705532049
 20
417.56653688112607
 10
-747.2106391473344
 20
418.31696210858883
 10
-747.75151913865398
 20
419.17065686276692
 10
-748.18560116990375
 20
420.11385187343132
 10
-748.49910485914006
 20
421.11900860012497
 10
-748.67480472893158
 20
422.15858850239005
 10
-748.71614587476483
 20
422.86082128405258
 10
-749.02964956400115
 20
887.0642285034703
 42
-0.0182687137443195
 10
-749.01747188136108
 20
887.39741064641498
 10
-748.99956645583723
 20
887.64203019765591
 42
-0.0730154273587591
 10
-748.82253869339513
 20
888.4380162782254
 10
-748.73453103611178
 20
888.66859814216059
 42
-0.0708332459230848
 10
-748.12479484890684
 20
889.76886154604585
 42
-0.0695238783598332
 10
-747.23420950802358
 20
890.65785913768923
 42
-0.0707297622122868
 10
-746.13299365856346
 20
891.26584498720922
 10
-745.90138989316881
 20
891.3538771877445
 42
-0.0726892814024969
 10
-745.10711136638167
 20
891.52991736122522
 10
-744.86341698822889
 20
891.54773535405047
 42
-0.0182485918492279
 10
-744.53035485913983
 20
891.5598952331336
 10
-424.05034726365307
 20
891.5598952331336
 10
-424.00900611781969
 20
891.5598952331336
  0
LWPOLYLINE
  5
1F7
100
AcDbEntity
  8
GAR70-0101
370
              15
390
0
  6
Continuous
 62
               7
100
AcDbPolyline
 90
       30
 70
             128
 10
-741.13769945422814
 20
-507.68015262651591
 10
-690.85653045422816
 20
-504.66913862651575
 10
-687.84896245422817
 20
-504.53822562651578
 10
-671.8154874542281
 20
-503.76652362651578
 10
-651.37573645422822
 20
-502.81567762651582
 10
-630.87052745422818
 20
-501.96129362651584
 10
-610.31708845422816
 20
-501.20337262651594
 10
-589.70852645422815
 20
-500.5143536265158
 10
-569.05862445422792
 20
-499.92179762651574
 10
-548.37082645422777
 20
-499.40503262651566
 10
-527.65202145422745
 20
-498.9709506265159
 10
-506.90565645422726
 20
-498.61266062651578
 10
-486.13862145422729
 20
-498.34394362651585
 10
-465.35436045422728
 20
-498.1441276265158
 10
-444.55976345422732
 20
-498.03388462651594
 10
-423.76172245422731
 20
-497.99254362651584
 10
-402.95334545422725
 20
-498.03388462651594
 10
-382.15874945422729
 20
-498.1441276265158
 10
-361.37793345422733
 20
-498.34394362651585
 10
-340.61089745422726
 20
-498.61266062651578
 10
-319.8645324542274
 20
-498.9709506265159
 10
-299.14572845422754
 20
-499.40503262651566
 10
-278.46137545422766
 20
-499.92179762651574
 10
-257.80458245422767
 20
-500.5143536265158
 10
-237.20291145422772
 20
-501.20337262651594
 10
-216.6425814542277
 20
-501.96129362651584
 10
-196.13737345422771
 20
-502.81567762651582
 10
-175.70106745422763
 20
-503.76652362651578
 10
-159.66070245422759
 20
-504.53822562651578
 10
-106.09291245422756
 20
-507.69393262651568
  0
LWPOLYLINE
  5
1F8
100
AcDbEntity
  8
GAR70-0101
370
              15
390
0
  6
Continuous
 62
               7
100
AcDbPolyline
 90
      113
 70
             128
 10
-102.60647645422759
 20
-521.80504362651584
 10
-107.09888045422755
 20
-526.79354162651578
 10
-111.54994445422759
 20
-531.54777362651578
 10
-115.11906245422759
 20
-535.20646562651575
 10
-119.39098145422756
 20
-539.43015262651591
 10
-124.28301645422758
 20
-544.07414062651571
 10
-129.65736545422757
 20
-548.97995662651567
 10
-133.44697045422757
 20
-552.30102862651586
 10
-137.36059945422755
 20
-555.6358816265157
 10
-141.49471445422756
 20
-559.05341662651574
 10
-145.61504845422752
 20
-562.34692762651582
 10
-149.80772945422751
 20
-565.5990976265158
 10
-154.07964745422757
 20
-568.8099266265159
 10
-158.48937045422755
 20
-572.02075562651578
 10
-162.9817744542276
 20
-575.19024362651578
 10
-167.46039845422757
 20
-578.24948862651593
 10
-171.96658345422762
 20
-581.23294062651587
 10
-176.51410945422762
 20
-584.14749162651572
 10
-181.11675745422764
 20
-587.01381062651592
 10
-185.76763645422767
 20
-589.81811862651568
 10
-190.45985645422769
 20
-592.56041462651581
 10
-195.2003074542277
 20
-595.24069862651584
 10
-199.98210045422772
 20
-597.85897162651565
 10
-206.97564345422771
 20
-601.54522362651562
 10
-211.79188745422772
 20
-603.98435162651583
 10
-216.68392345422771
 20
-606.38213762651583
 10
-224.08398845422772
 20
-609.86168462651574
 10
-231.53917445422772
 20
-613.18964662651581
 10
-239.06326345422769
 20
-616.38669562651569
 10
-246.65625345422771
 20
-619.44593962651572
 10
-254.30436545422771
 20
-622.3604906265158
 10
-262.00759945422772
 20
-625.13723762651591
 10
-269.76595445422777
 20
-627.77618062651584
 10
-277.57254045422769
 20
-630.27042962651569
 10
-285.4204684542276
 20
-632.6406556265157
 10
-293.30284645422751
 20
-634.87307762651574
 10
-301.24034645422751
 20
-636.98147562651582
 10
-309.1916274542275
 20
-638.94518062651571
 10
-314.57975645422744
 20
-640.19919562651569
 10
-319.98166645422737
 20
-641.37052762651581
 10
-325.32845445422731
 20
-642.45917762651573
 10
-330.67524245422726
 20
-643.47203562651578
 10
-338.69542445422724
 20
-644.87074462651583
 10
-346.72938745422732
 20
-646.1592106265158
 10
-357.46430445422732
 20
-647.7715146265158
 10
-360.12391845422724
 20
-648.16425562651568
 10
-360.13769945422723
 20
-648.17114662651568
 10
-366.83496445422725
 20
-648.9841886265159
 10
-373.54601045422726
 20
-649.7007686265157
 10
-380.25705645422727
 20
-650.33466662651574
 10
-387.01633445422726
 20
-650.87899162651581
 10
-393.80317245422725
 20
-651.3268536265158
 10
-400.52799845422726
 20
-651.6851436265157
 10
-406.96343645422724
 20
-651.94697062651574
 10
-413.64692245422725
 20
-652.1261156265158
 10
-420.38552845422726
 20
-652.20879762651577
 10
-423.76172245422731
 20
-652.22946862651577
 10
-427.13791645422725
 20
-652.20879762651577
 10
-433.87652245422726
 20
-652.1261156265158
 10
-440.54967245422733
 20
-651.94697062651574
 10
-446.99200145422731
 20
-651.6851436265157
 10
-453.71682745422731
 20
-651.3268536265158
 10
-460.50022045422725
 20
-650.87899162651581
 10
-467.2560534542273
 20
-650.33466662651574
 10
-473.97054445422725
 20
-649.7007686265157
 10
-480.67814545422732
 20
-648.9841886265159
 10
-487.37885545422728
 20
-648.17114662651568
 10
-487.38919145422733
 20
-648.16425562651568
 10
-490.05224945422731
 20
-647.7715146265158
 10
-500.78372245422725
 20
-646.1592106265158
 10
-508.81768445422722
 20
-644.87074462651583
 10
-516.84475745422731
 20
-643.47203562651578
 10
-522.19154545422737
 20
-642.45917762651573
 10
-527.53144345422743
 20
-641.37052762651581
 10
-532.93335345422747
 20
-640.19919562651569
 10
-538.32492745422758
 20
-638.94518062651571
 10
-546.27965345422774
 20
-636.98147562651582
 10
-554.21026345422786
 20
-634.87307762651574
 10
-562.09608645422793
 20
-632.6406556265157
 10
-569.94401445422807
 20
-630.27042962651569
 10
-577.75060045422811
 20
-627.77618062651584
 10
-585.50551045422822
 20
-625.13723762651591
 10
-593.21218945422811
 20
-622.3604906265158
 10
-600.86374645422814
 20
-619.44593962651572
 10
-608.45673645422812
 20
-616.38669562651569
 10
-615.97738045422818
 20
-613.18964662651581
 10
-623.43256645422821
 20
-609.86168462651574
 10
-630.83607645422819
 20
-606.38213762651583
 10
-635.72811245422815
 20
-603.98435162651583
 10
-640.5409104542282
 20
-601.54522362651562
 10
-647.53445445422813
 20
-597.85897162651565
 10
-652.31624745422823
 20
-595.24069862651584
 10
-657.05669845422813
 20
-592.56041462651581
 10
-661.7523634542282
 20
-589.81811862651568
 10
-666.39979745422818
 20
-587.01381062651592
 10
-670.99900045422817
 20
-584.14749162651572
 10
-675.54652645422811
 20
-581.23294062651587
 10
-680.04582045422808
 20
-578.24948862651593
 10
-684.5278904542281
 20
-575.19024362651578
 10
-689.02029445422818
 20
-572.02075562651578
 10
-693.43001645422817
 20
-568.8099266265159
 10
-697.69849045422814
 20
-565.5990976265158
 10
-701.89461645422818
 20
-562.34692762651582
 10
-706.00806045422814
 20
-559.05341662651574
 10
-710.14906545422809
 20
-555.6358816265157
 10
-714.06269345422811
 20
-552.30102862651586
 10
-717.84540845422816
 20
-548.97995662651567
 10
-723.22664745422821
 20
-544.07414062651571
 10
-728.11868345422818
 20
-539.43015262651591
 10
-732.39060145422809
 20
-535.20646562651575
 10
-735.96316545422815
 20
-531.54777362651578
 10
-740.41422945422823
 20
-526.79354162651578
 10
-744.90318845422814
 20
-521.80504362651584
  0
LWPOLYLINE
  5
1F9
100
AcDbEntity
  8
GAR70-0101
370
              15
390
0
  6
Continuous
 62
               7
100
AcDbPolyline
 90
      161
 70
             128
 10
-584.01378408617256
 20
-656.32224208832133
 10
-573.33054298374179
 20
-655.88816005707133
 10
-560.28396637783885
 20
-655.48163878971025
 10
-544.32628408617211
 20
-655.10956847721025
 10
-525.05786503235231
 20
-654.79261969248807
 10
-507.2949527059634
 20
-654.58591396332133
 10
-487.80604754103285
 20
-654.43432976193264
 10
-456.4453433309634
 20
-654.29652594248785
 10
-423.80306360006057
 20
-654.25518479665482
 10
-423.70660092644948
 20
-654.25518479665482
 10
-391.07465648200503
 20
-654.29652594248785
 10
-359.71050717644948
 20
-654.43432976193264
 10
-340.22504710700503
 20
-654.58591396332133
 10
-322.46213478061634
 20
-654.79261969248807
 10
-303.19027063131091
 20
-655.10956847721025
 10
-287.23258833964428
 20
-655.48163878971025
 10
-274.18945682922765
 20
-655.88816005707133
 10
-263.50277063131114
 20
-656.32224208832133
 42
0.0005682102653189
 10
-263.36746861234155
 20
-656.32866515492958
 10
-262.72481115927678
 20
-656.35844149732645
 42
0.0000733815508914
 10
-261.30417726906467
 20
-656.42405499372569
 10
-260.66151106739653
 20
-656.45364269971026
 42
-0.0006415918409184
 10
-260.52620813131114
 20
-656.46004590776568
 10
-251.68609311395002
 20
-656.94235927582133
 10
-244.28602800978331
 20
-657.43845302582133
 10
-238.01595422506111
 20
-657.9414369667935
 10
-231.44271203756111
 20
-658.58222472721025
 10
-225.95812002367222
 20
-659.22990267859916
 10
-224.01508616950551
 20
-659.48483974457133
 10
-219.82585005839442
 20
-660.11873731401568
 10
-219.68160516167387
 20
-660.1186603852949
 42
0.0581741805364241
 10
-217.16132523721365
 20
-659.82307169596208
 10
-216.83589683022379
 20
-659.74585523403846
 42
0.048903184298562
 10
-215.06072988546791
 20
-659.13643444915363
 10
-214.88880415886911
 20
-659.05791317767478
 42
0.0313328821287972
 10
-213.56175185162263
 20
-658.34825361528931
 42
0.0329984880626959
 10
-212.33694718301135
 20
-657.47443006267383
 10
-211.62223030969929
 20
-656.88974260586849
 42
0.0072982289056742
 10
-209.05727728924955
 20
-654.72818139688559
 10
-207.44844784296563
 20
-653.33171041657909
 42
0.0038476499790278
 10
-201.73614210504812
 20
-648.2958074672689
 10
-198.97289271853035
 20
-645.82170953896218
 42
0.0107111319533421
 10
-187.99273000566444
 20
-635.55840524328539
 10
-186.20278955584757
 20
-633.81200166350834
 42
0.0105381747004441
 10
-172.16633076661057
 20
-619.52730368102618
 42
0.0105677246306974
 10
-158.74771167953364
 20
-604.66562588525028
 10
-156.28561790717976
 20
-601.820094799103
 42
0.0185289644282002
 10
-139.05305444478196
 20
-580.34489217919361
 10
-136.80938412957485
 20
-577.3262025917935
 10
-136.93340756707485
 20
-577.49845736609916
 10
-132.60636763651925
 20
-571.60734408484916
 10
-128.40335114346377
 20
-565.68867003971025
 10
-124.32435808790817
 20
-559.76999599457133
 10
-121.00328603929708
 20
-554.83661925846002
 10
-117.79245704624148
 20
-549.90324252234893
 10
-115.31198829624148
 20
-546.03095519596002
 10
-110.86092492818599
 20
-538.89960753971025
 10
-106.46498308790817
 20
-531.59600510915482
 10
-101.26977909485257
 20
-522.72832932790482
 10
-100.09844662957485
 20
-520.74395432790482
 10
-99.67125478929708
 20
-519.90335102929373
 10
-99.340525622630395
 20
-519.01451639387699
 10
-99.120039511519252
 20
-518.09812099457133
 10
-99.009796455963766
 20
-517.06459234873785
 10
-98.996016074019252
 20
-515.94838141123785
 10
-98.996016074019252
 20
-515.68655415429373
 10
-98.996016074019252
 20
-515.25936231401568
 42
0.0174962166330234
 10
-99.014799170235747
 20
-514.72275069179602
 10
-99.042469613120147
 20
-514.3279784812986
 42
0.069812127280838
 10
-99.315970611508476
 20
-513.04085430519137
 10
-99.451969550625577
 20
-512.66686059180608
 42
0.0679416873915128
 10
-100.40032554923448
 20
-510.86485669028968
 10
-100.55193133515195
 20
-510.65255210437397
 42
0.0667443470833402
 10
-101.59170958471816
 20
-509.54404052975008
 42
0.0338292007098918
 10
-102.84003854195289
 20
-508.65950539363246
 10
-102.84979382643428
 20
-508.65354013136232
 42
0.0684995029672649
 10
-104.26253725858814
 20
-508.0360880532138
 10
-104.64304066399173
 20
-507.92862486331921
 42
0.035064933388635
 10
-105.42673481213095
 20
-507.76555290166073
 10
-105.55757650912018
 20
-507.74777417975486
 42
0.0174089531576181
 10
-106.09291277540817
 20
-507.69393262651568
 10
-106.36852041429708
 20
-507.68015224457133
 42
0.0011134667314059
 10
-119.54869688688069
 20
-506.29624185338469
 10
-136.02618958291617
 20
-504.60320549759956
 42
0.006679170690077
 10
-182.21951941209255
 20
-500.47966760597581
 10
-211.95074518021491
 20
-498.22551729811209
 42
0.0089030325013703
 10
-291.30172423915553
 20
-493.62856330927241
 42
0.0044518530903073
 10
-370.76349609995623
 20
-491.15189250806168
 42
0.0089029528097639
 10
-450.2605008401996
 20
-490.79809256986562
 10
-476.767508015001
 20
-491.15211425318773
 42
0.0089027653483623
 10
-556.21147039285052
 20
-493.628393075914
 42
0.0044524224219227
 10
-635.57293864028918
 20
-498.22616617644383
 10
-645.48711257321906
 20
-498.88916194737396
 42
0.008906041154511
 10
-704.89211018720675
 20
-503.92599439043181
 10
-727.95871199283943
 20
-506.29624276474703
 42
0.0011140122960466
 10
-741.13769901672799
 20
-507.68015224457133
 10
-741.40986156013082
 20
-507.69393262651568
 42
0.0174369841033254
 10
-741.94527294468105
 20
-507.74781204555813
 10
-742.33818984603442
 20
-507.80124630612966
 42
0.0695647213246571
 10
-743.60765803954291
 20
-508.15815111366749
 10
-743.97333232919414
 20
-508.31838004329131
 42
0.0677587967021173
 10
-745.71315513352079
 20
-509.38097744478375
 10
-745.91609924472039
 20
-509.54630154760446
 42
0.0667101131970481
 10
-746.95683971982692
 20
-510.65459137997743
 42
0.0338644788731537
 10
-747.7607478115126
 20
-511.95686811592043
 10
-747.76567306568188
 20
-511.96620639827154
 42
0.068719174125354
 10
-748.29116947027273
 20
-513.41423610700929
 10
-748.37378642852605
 20
-513.80014268998286
 42
0.035238142694429
 10
-748.48563526023906
 20
-514.59123334801404
 10
-748.49485717440677
 20
-514.72274556466334
 42
0.0175036661332067
 10
-748.51364845249191
 20
-515.25936231401568
 10
-748.51364845249191
 20
-515.68655415429373
 10
-748.51364845249191
 20
-515.94838141123785
 10
-748.50331316603365
 20
-517.06459234873785
 10
-748.38962501499191
 20
-518.09812099457133
 10
-748.16913890388082
 20
-519.01451639387699
 10
-747.84185483270028
 20
-519.90335102929373
 10
-747.40777280145028
 20
-520.74395432790482
 10
-747.41121789693648
 20
-520.74395432790482
 10
-746.23988543165865
 20
-522.72832932790482
 10
-741.04123634311691
 20
-531.59600510915482
 10
-736.64184940735299
 20
-538.89960753971025
 10
-732.20112132575582
 20
-546.03095519596002
 10
-729.72065257575582
 20
-549.90324252234893
 10
-726.49948829624191
 20
-554.83661925846002
 10
-723.18875153408908
 20
-559.76999599457133
 10
-719.10286828756148
 20
-565.68867003971025
 10
-714.89640669901974
 20
-571.60734408484916
 10
-710.57625695943648
 20
-577.49845736609916
 10
-710.70372549242245
 20
-577.3262025917935
 42
0.0026488122893104
 10
-707.69268463686853
 20
-581.33236821555636
 10
-703.9034882872553
 20
-586.31864383523146
 42
0.0158568907214695
 10
-692.86101966700994
 20
-599.9311227095742
 10
-688.76432531153569
 20
-604.66616027284851
 42
0.0105584738726384
 10
-675.3472891514715
 20
-619.52769693923017
 42
0.0105090399695611
 10
-661.31369433325256
 20
-633.8134330205811
 10
-659.52389692177132
 20
-635.56040970863921
 42
0.0107869742782211
 10
-648.54577575274106
 20
-645.82288128637072
 10
-645.78281898016132
 20
-648.29622254922867
 42
0.0037900443306841
 10
-640.07101253684004
 20
-653.33184599690651
 10
-638.46312916408306
 20
-654.72786525892627
 42
0.0075111256308524
 10
-635.89644258165231
 20
-656.88959397520205
 10
-635.40297194607922
 20
-657.29269368197527
 42
0.0321684439484419
 10
-633.7129431945159
 20
-658.50081957566147
 42
0.0573357118509386
 10
-631.84338117050015
 20
-659.38500921609523
 10
-631.26253789038765
 20
-659.58215984722767
 42
0.0542369118187263
 10
-629.33951372962531
 20
-660.00986818936974
 10
-629.01471797553313
 20
-660.04589980391904
 42
0.027770729676213
 10
-627.69070465908931
 20
-660.11873731401568
 10
-623.49802345249191
 20
-659.48483974457133
 10
-621.55498959832539
 20
-659.22990267859916
 10
-616.07384267992256
 20
-658.58222472721025
 10
-609.50060049242256
 20
-657.9414369667935
 10
-603.23052670770039
 20
-657.43845302582133
 10
-595.82701650804756
 20
-656.94235927582133
 10
-586.99034658617256
 20
-656.46004590776568
 42
-0.0005682102649159
 10
-586.85504456731132
 20
-656.45362284116243
 10
-586.21238711413832
 20
-656.42384649876033
 42
-0.0000733815490002
 10
-584.79175326101051
 20
-656.35823300406844
 10
-584.14908684459192
 20
-656.32864528819721
 42
0.000641592683017
 10
-584.01378408617256
 20
-656.32224208832133
 42
0.000641592683017
  0
LINE
  5
1FA
100
AcDbEntity
  8
GAR70-0101
370
              15
390
0
  6
Continuous
 62
               7
100
AcDbLine
 10
-668.74246245422819
 20
-502.00263462651594
 30
0.0
 11
-668.74246245667791
 21
-502.00263461795896
 31
0.0
  0
LINE
  5
1FB
100
AcDbEntity
  8
GAR70-0101
370
              15
390
0
  6
Continuous
 62
               7
100
AcDbLine
 10
-424.09245145422733
 20
-499.54283662651562
 30
0.0
 11
-424.09245145423063
 21
-499.54283661793409
 31
0.0
  0
LINE
  5
1FC
100
AcDbEntity
  8
GAR70-0101
370
              15
390
0
  6
Continuous
 62
               7
100
AcDbLine
 10
-424.09245145422733
 20
-499.54283662651562
 30
0.0
 11
-424.09245145423063
 21
-499.54283661793409
 31
0.0
  0
LINE
  5
1FD
100
AcDbEntity
  8
GAR70-0101
370
              15
390
0
  6
Continuous
 62
               7
100
AcDbLine
 10
-424.09245145422733
 20
-499.54283662651562
 30
0.0
 11
-424.09245145423063
 21
-499.54283661793409
 31
0.0
  0
LINE
  5
1FE
100
AcDbEntity
  8
GAR70-0101
370
              15
390
0
  6
STYLE_12
 62
               7
100
AcDbLine
 10
-283.76172245422754
 20
-560.60000000000002
 30
0.0
 11
-283.76172245422754
 21
-520.60000000000002
 31
0.0
  0
LINE
  5
1FF
100
AcDbEntity
  8
GAR70-0101
370
              15
390
0
  6
STYLE_04
 62
               7
100
AcDbLine
 10
-230.17491645422771
 20
-657.30064962651579
 30
0.0
 11
-230.17491645422771
 21
-657.2937586265158
 31
0.0
  0
LINE
  5
200
100
AcDbEntity
  8
GAR70-0101
370
              15
390
0
  6
Continuous
 62
               7
100
AcDbLine
 10
-224.49739945422772
 20
-661.17293662651593
 30
0.0
 11
-224.49739945223507
 21
-661.17293661955057
 31
0.0
  0
LINE
  5
201
100
AcDbEntity
  8
GAR70-0101
370
              15
390
0
  6
Continuous
 62
               7
100
AcDbLine
 10
-214.3343674542277
 20
-659.47794962651562
 30
0.0
 11
-214.33436745213342
 21
-659.47794961953343
 31
0.0
  0
LINE
  5
202
100
AcDbEntity
  8
GAR70-0101
370
              15
390
0
  6
Continuous
 62
               7
100
AcDbLine
 10
-178.77409245422766
 20
-502.00263462651594
 30
0.0
 11
-178.77409245177779
 21
-502.00263461795896
 31
0.0
  0
LINE
  5
203
100
AcDbEntity
  8
GAR70-0101
370
              15
390
0
  6
STYLE_03
 62
               7
100
AcDbLine
 10
-178.93945645422764
 20
-506.0816276265158
 30
0.0
 11
-178.95323745422766
 21
-506.0816276265158
 31
0.0
  0
SPLINE
  5
204
100
AcDbEntity
  8
GAR70-0101
370
              15
390
0
  6
Continuous
 62
               7
100
AcDbSpline
210
0.0
220
0.0
230
1.0
 70
              13
 71
               2
 72
             238
 73
             235
 74
               0
 42
0.000001
 43
0.000001
 40
0.0
 40
0.0
 40
0.0
 40
1.0
 40
1.0
 40
2.0
 40
2.0
 40
3.0
 40
3.0
 40
4.0
 40
4.0
 40
5.0
 40
5.0
 40
6.0
 40
6.0
 40
7.0
 40
7.0
 40
8.0
 40
8.0
 40
9.0
 40
9.0
 40
10.0
 40
10.0
 40
11.0
 40
11.0
 40
12.0
 40
12.0
 40
13.0
 40
13.0
 40
14.0
 40
14.0
 40
15.0
 40
15.0
 40
16.0
 40
16.0
 40
17.0
 40
17.0
 40
18.0
 40
18.0
 40
19.0
 40
19.0
 40
20.0
 40
20.0
 40
21.0
 40
21.0
 40
22.0
 40
22.0
 40
23.0
 40
23.0
 40
24.0
 40
24.0
 40
25.0
 40
25.0
 40
26.0
 40
26.0
 40
27.0
 40
27.0
 40
28.0
 40
28.0
 40
29.0
 40
29.0
 40
30.0
 40
30.0
 40
31.0
 40
31.0
 40
32.0
 40
32.0
 40
33.0
 40
33.0
 40
34.0
 40
34.0
 40
35.0
 40
35.0
 40
36.0
 40
36.0
 40
37.0
 40
37.0
 40
38.0
 40
38.0
 40
39.0
 40
39.0
 40
40.0
 40
40.0
 40
41.0
 40
41.0
 40
42.0
 40
42.0
 40
43.0
 40
43.0
 40
44.0
 40
44.0
 40
45.0
 40
45.0
 40
46.0
 40
46.0
 40
47.0
 40
47.0
 40
48.0
 40
48.0
 40
49.0
 40
49.0
 40
50.0
 40
50.0
 40
51.0
 40
51.0
 40
52.0
 40
52.0
 40
53.0
 40
53.0
 40
54.0
 40
54.0
 40
55.0
 40
55.0
 40
56.0
 40
56.0
 40
57.0
 40
57.0
 40
58.0
 40
58.0
 40
59.0
 40
59.0
 40
60.0
 40
60.0
 40
61.0
 40
61.0
 40
62.0
 40
62.0
 40
63.0
 40
63.0
 40
64.0
 40
64.0
 40
65.0
 40
65.0
 40
66.0
 40
66.0
 40
67.0
 40
67.0
 40
68.0
 40
68.0
 40
69.0
 40
69.0
 40
70.0
 40
70.0
 40
71.0
 40
71.0
 40
72.0
 40
72.0
 40
73.0
 40
73.0
 40
74.0
 40
74.0
 40
75.0
 40
75.0
 40
76.0
 40
76.0
 40
77.0
 40
77.0
 40
78.0
 40
78.0
 40
79.0
 40
79.0
 40
80.0
 40
80.0
 40
81.0
 40
81.0
 40
82.0
 40
82.0
 40
83.0
 40
83.0
 40
84.0
 40
84.0
 40
85.0
 40
85.0
 40
86.0
 40
86.0
 40
87.0
 40
87.0
 40
88.0
 40
88.0
 40
89.0
 40
89.0
 40
90.0
 40
90.0
 40
91.0
 40
91.0
 40
92.0
 40
92.0
 40
93.0
 40
93.0
 40
94.0
 40
94.0
 40
95.0
 40
95.0
 40
96.0
 40
96.0
 40
97.0
 40
97.0
 40
98.0
 40
98.0
 40
99.0
 40
99.0
 40
100.0
 40
100.0
 40
101.0
 40
101.0
 40
102.0
 40
102.0
 40
103.0
 40
103.0
 40
104.0
 40
104.0
 40
105.0
 40
105.0
 40
106.0
 40
106.0
 40
107.0
 40
107.0
 40
108.0
 40
108.0
 40
109.0
 40
109.0
 40
110.0
 40
110.0
 40
111.0
 40
111.0
 40
112.0
 40
112.0
 40
113.0
 40
113.0
 40
114.0
 40
114.0
 40
115.0
 40
115.0
 40
116.0
 40
116.0
 40
117.0
 40
117.0
 40
117.0
 10
745.69630119351177
 20
-489.49651409134015
 30
0.0
 41
1.0
 10
753.45121113274786
 20
-489.3742132015833
 30
0.0
 41
1.0
 10
761.20612107198394
 20
-489.25191231182646
 30
0.0
 41
1.0
 10
761.20612107198394
 20
-571.70682767640972
 30
0.0
 41
1.0
 10
761.20612107198394
 20
-654.16174304099297
 30
0.0
 41
1.0
 10
761.20612107198394
 20
-654.33231795264885
 30
0.0
 41
0.9994454947471614
 10
761.19476803944872
 20
-654.50251463046209
 30
0.0
 41
1.0
 10
761.19198751582314
 20
-654.54419828478069
 30
0.0
 41
1.0
 10
761.18920699219746
 20
-654.58588193909929
 30
0.0
 41
1.0
 10
761.17229291241154
 20
-654.83944592554815
 30
0.0
 41
0.9977415276976489
 10
761.12154447432522
 20
-655.08845471525512
 30
0.0
 41
1.0
 10
761.09712907823666
 20
-655.20825442652779
 30
0.0
 41
1.0
 10
761.07271368214799
 20
-655.32805413780045
 30
0.0
 41
1.0
 10
760.97313445188513
 20
-655.81666235005048
 30
0.0
 41
0.9913264547627286
 10
760.74968081061877
 20
-656.26244534477189
 30
0.0
 41
1.0
 10
760.71354580285526
 20
-656.33453355010954
 30
0.0
 41
1.0
 10
760.67741079509187
 20
-656.40662175544742
 30
0.0
 41
1.0
 10
760.38828044094657
 20
-656.98342772918397
 30
0.0
 41
0.9917388832620134
 10
759.96190986231989
 20
-657.46768966523371
 30
0.0
 41
1.0
 10
759.53553928369274
 20
-657.95195160128367
 30
0.0
 41
0.9918679346328541
 10
759.00071845361435
 20
-658.31287842591826
 30
0.0
 41
1.0
 10
758.99985060808206
 20
-658.3134640963234
 30
0.0
 41
1.0
 10
758.99898276254964
 20
-658.31404976672854
 30
0.0
 41
1.0
 10
758.46242624140586
 20
-658.67614793217365
 30
0.0
 41
0.9915660990135381
 10
757.85082875724254
 20
-658.88817740928937
 30
0.0
 41
1.0
 10
757.74075850563997
 20
-658.92633671912574
 30
0.0
 41
1.0
 10
757.6306882540373
 20
-658.96449602896189
 30
0.0
 41
1.0
 10
757.21477595349916
 20
-659.10868509103705
 30
0.0
 41
0.9909406249488127
 10
756.7754884855816
 20
-659.13697020888719
 30
0.0
 41
1.0
 10
756.66314476521245
 20
-659.14420386703216
 30
0.0
 41
1.0
 10
756.55080104484341
 20
-659.15143752517736
 30
0.0
 41
1.0
 10
756.33620101766292
 20
-659.16525532673734
 30
0.0
 41
0.9993869224556683
 10
756.12116013448394
 20
-659.16402168682646
 30
0.0
 41
1.0
 10
746.5851358289284
 20
-659.00210219897929
 30
0.0
 41
1.0
 10
737.04911152337286
 20
-658.84018271113189
 30
0.0
 41
1.0
 10
574.92980813795691
 20
-656.06343574932646
 30
0.0
 41
1.0
 10
412.81050475254085
 20
-653.2866887875208
 30
0.0
 41
1.0
 10
412.06980922302694
 20
-653.27635350106254
 30
0.0
 41
1.0
 10
411.32911369351314
 20
-653.26601821460429
 30
0.0
 41
1.0
 10
411.2378952814214
 20
-653.26429711248932
 30
0.0
 41
0.9999729390684307
 10
411.146712065619
 20
-653.26123409879722
 30
0.0
 41
1.0
 10
410.8499489562895
 20
-653.25126527438999
 30
0.0
 41
1.0
 10
410.55318584695999
 20
-653.24129644998277
 30
0.0
 41
1.0
 10
409.8684764125012
 20
-653.21829578747599
 30
0.0
 41
0.9943636336253882
 10
409.20401029411778
 20
-653.05144010842071
 30
0.0
 41
1.0
 10
408.76178335473628
 20
-652.94039144209194
 30
0.0
 41
1.0
 10
408.31955641535478
 20
-652.82934277576339
 30
0.0
 41
1.0
 10
407.92131220598242
 20
-652.72933871815064
 30
0.0
 41
0.9980749759048657
 10
407.53851196620792
 20
-652.58080172522966
 30
0.0
 41
1.0
 10
407.38974317121642
 20
-652.52307535217017
 30
0.0
 41
1.0
 10
407.24097437622493
 20
-652.46534897911044
 30
0.0
 41
1.0
 10
407.15571172643126
 20
-652.432264732308
 30
0.0
 41
0.9999695656265841
 10
407.07097567267988
 20
-652.39785415210429
 30
0.0
 41
1.0
 10
405.94787454420759
 20
-651.94999173890994
 30
0.0
 41
1.0
 10
404.82477341573542
 20
-651.50212932571537
 30
0.0
 41
1.0
 10
404.23221699212434
 20
-651.20585111390994
 30
0.0
 41
1.0
 10
403.63966056851325
 20
-650.90957290210429
 30
0.0
 41
1.0
 10
400.96452028509634
 20
-649.27849643157322
 30
0.0
 41
0.999992343692853
 10
398.3022270479031
 20
-647.626533748013
 30
0.0
 41
1.0
 10
394.97535896497982
 20
-645.56219994385594
 30
0.0
 41
1.0
 10
391.64849088205665
 20
-643.49786613969866
 30
0.0
 41
1.0
 10
382.33246147901707
 20
-637.71723584782433
 30
0.0
 41
0.9997248613955129
 10
373.29779410797823
 20
-631.50604627542464
 30
0.0
 41
1.0
 10
371.36383068104442
 20
-630.17647729657335
 30
0.0
 41
1.0
 10
369.4298672541106
 20
-628.84690831772207
 30
0.0
 41
1.0
 10
356.52727302920482
 20
-619.97658078762049
 30
0.0
 41
0.999877745031445
 10
343.90835296639023
 20
-610.70714150187371
 30
0.0
 41
1.0
 10
342.6481328120409
 20
-609.78142566016402
 30
0.0
 41
1.0
 10
341.38791265769157
 20
-608.85570981845433
 30
0.0
 41
1.0
 10
326.24855228617719
 20
-597.73483884928703
 30
0.0
 41
0.9995112193148305
 10
311.83376895696824
 20
-585.6895897799069
 30
0.0
 41
1.0
 10
306.42721864593614
 20
-581.17178027731404
 30
0.0
 41
1.0
 10
301.02066833490392
 20
-576.65397077472119
 30
0.0
 41
1.0
 10
292.60885920834892
 20
-569.62491360893421
 30
0.0
 41
0.9997245950177931
 10
284.53613652403726
 20
-562.20889541291911
 30
0.0
 41
1.0
 10
281.65332900372675
 20
-559.56060017694142
 30
0.0
 41
1.0
 10
278.77052148341636
 20
-556.91230494096374
 30
0.0
 41
1.0
 10
276.46341383971833
 20
-554.79287721689718
 30
0.0
 41
0.9999923360905751
 10
274.17297220045771
 20
-552.65544963821537
 30
0.0
 41
1.0
 10
274.13295334669863
 20
-552.6180126459891
 30
0.0
 41
0.9999773990823219
 10
274.0934414916336
 20
-552.58004094136788
 30
0.0
 41
1.0
 10
273.96510265449081
 20
-552.45670468172113
 30
0.0
 41
1.0
 10
273.8367638173479
 20
-552.33336842207439
 30
0.0
 41
1.0
 10
273.5405742879949
 20
-552.0487241981574
 30
0.0
 41
0.9955699485293391
 10
273.30291121761366
 20
-551.71366176146091
 30
0.0
 41
1.0
 10
273.2476503217606
 20
-551.63575377858035
 30
0.0
 41
1.0
 10
273.19238942590755
 20
-551.55784579570002
 30
0.0
 41
1.0
 10
272.84420456381986
 20
-551.06696739324218
 30
0.0
 41
0.9983489317374681
 10
272.55461680040855
 20
-550.53939443007232
 30
0.0
 41
1.0
 10
272.52090875636429
 20
-550.47798488545061
 30
0.0
 41
1.0
 10
272.48720071232003
 20
-550.4165753408289
 30
0.0
 41
1.0
 10
272.13019686081986
 20
-549.76618328841471
 30
0.0
 41
0.999977469255585
 10
271.78195682214402
 20
-549.11105700494397
 30
0.0
 41
1.0
 10
271.3673539909496
 20
-548.33108577317637
 30
0.0
 41
1.0
 10
270.95275115975528
 20
-547.55111454140877
 30
0.0
 41
1.0
 10
269.77530545869058
 20
-545.33604579440259
 30
0.0
 41
0.9999879723273715
 10
268.61964424220696
 20
-543.10953392925683
 30
0.0
 41
1.0
 10
266.91038022131261
 20
-539.81644373214169
 30
0.0
 41
1.0
 10
265.20111620041826
 20
-536.52335353502633
 30
0.0
 41
1.0
 10
261.54158408738044
 20
-529.4728515761966
 30
0.0
 41
0.9998065421146432
 10
258.16218569974865
 20
-522.28387253216749
 30
0.0
 41
1.0
 10
256.89500971588586
 20
-519.58821474099761
 30
0.0
 41
1.0
 10
255.62783373202311
 20
-516.89255694982774
 30
0.0
 41
1.0
 10
254.78278731211233
 20
-515.0948934881286
 30
0.0
 41
0.999990733027145
 10
253.9532503041963
 20
-513.29002071540083
 30
0.0
 41
1.0
 10
253.87661142884977
 20
-513.12327297765626
 30
0.0
 41
1.0
 10
253.79997255350321
 20
-512.95652523991146
 30
0.0
 41
1.0
 10
253.12371329627501
 20
-511.48514794266168
 30
0.0
 41
0.9999806845258471
 10
252.42921639078369
 20
-510.02229053945996
 30
0.0
 41
1.0
 10
252.27119088179532
 20
-509.68943263341237
 30
0.0
 41
1.0
 10
252.11316537280692
 20
-509.35657472736477
 30
0.0
 41
1.0
 10
251.73471948529195
 20
-508.55943313625755
 30
0.0
 41
0.9993873188061777
 10
251.41296620850162
 20
-507.73776968025788
 30
0.0
 41
1.0
 10
251.39010766839573
 20
-507.67939567627002
 30
0.0
 41
1.0
 10
251.36724912828984
 20
-507.62102167228193
 30
0.0
 41
1.0
 10
251.09121293171128
 20
-506.91610622425821
 30
0.0
 41
0.997120158727708
 10
250.92496264250033
 20
-506.17755181731047
 30
0.0
 41
1.0
 10
250.75871235328947
 20
-505.43899741036319
 30
0.0
 41
0.9914612906562196
 10
250.78908833961901
 20
-504.68257221899319
 30
0.0
 41
1.0
 10
250.79399445822503
 20
-504.5603996690985
 30
0.0
 41
1.0
 10
250.79890057683104
 20
-504.43822711920382
 30
0.0
 41
1.0
 10
250.83825783792281
 20
-503.45814952007402
 30
0.0
 41
0.9917685294002793
 10
251.12524406603242
 20
-502.52020495924364
 30
0.0
 41
1.0
 10
251.16137780955745
 20
-502.40211062271408
 30
0.0
 41
1.0
 10
251.19751155308248
 20
-502.28401628618451
 30
0.0
 41
1.0
 10
251.41223029414238
 20
-501.58226039841281
 30
0.0
 41
0.9919216619913148
 10
251.79663872650505
 20
-500.95712391658492
 30
0.0
 41
1.0
 10
251.85987538173518
 20
-500.85428657784553
 30
0.0
 41
1.0
 10
251.92311203696528
 20
-500.75144923910636
 30
0.0
 41
1.0
 10
252.18104715886815
 20
-500.33198743475657
 30
0.0
 41
0.9979114355846236
 10
252.49090840275412
 20
-499.94928031180564
 30
0.0
 41
1.0
 10
252.80076964663996
 20
-499.56657318885493
 30
0.0
 41
0.9978375297331927
 10
253.15815442884934
 20
-499.22781833668989
 30
0.0
 41
1.0
 10
253.25409903781465
 20
-499.13687517558185
 30
0.0
 41
1.0
 10
253.35004364677999
 20
-499.04593201447358
 30
0.0
 41
1.0
 10
253.89931764691946
 20
-498.52529084009268
 30
0.0
 41
0.9910833320093979
 10
254.56659517826674
 20
-498.16820561798238
 30
0.0
 41
1.0
 10
254.66737429163217
 20
-498.11427493638496
 30
0.0
 41
1.0
 10
254.76815340499758
 20
-498.06034425478754
 30
0.0
 41
1.0
 10
255.54327777263254
 20
-497.64554614758697
 30
0.0
 41
0.9939145818994825
 10
256.39041858806934
 20
-497.41054041603923
 30
0.0
 41
1.0
 10
256.5790303055112
 20
-497.3582175509049
 30
0.0
 41
1.0
 10
256.76764202295305
 20
-497.30589468577057
 30
0.0
 41
1.0
 10
257.23755940350509
 20
-497.17553468449171
 30
0.0
 41
0.9930178182635502
 10
257.72493935873888
 20
-497.15889576281563
 30
0.0
 41
1.0
 10
257.93615264719472
 20
-497.15168504081987
 30
0.0
 41
1.0
 10
258.14736593565044
 20
-497.14447431882388
 30
0.0
 41
1.0
 10
258.21231931397983
 20
-497.14225684113933
 30
0.0
 41
0.9999614055675732
 10
258.27730162754108
 20
-497.1411809750208
 30
0.0
 41
1.0
 10
276.87392706156879
 20
-496.85007040644439
 30
0.0
 41
1.0
 10
295.47055249559662
 20
-496.55895983786797
 30
0.0
 41
1.0
 10
296.50063604594379
 20
-496.6760930843958
 30
0.0
 41
1.0
 10
297.53071959629108
 20
-496.79322633092363
 30
0.0
 41
1.0
 10
298.02686304279814
 20
-496.91080199142436
 30
0.0
 41
0.9999999894421301
 10
298.52297301575015
 20
-497.02851880158357
 30
0.0
 41
1.0
 10
301.12874246663478
 20
-497.6468149143235
 30
0.0
 41
1.0
 10
303.73451191751928
 20
-498.26511102706343
 30
0.0
 41
1.0
 10
309.44217356180525
 20
-499.61942323814026
 30
0.0
 41
0.9999855305269814
 10
315.13493409782052
 20
-501.03506460898677
 30
0.0
 41
1.0
 10
317.73386087622521
 20
-501.68135005240822
 30
0.0
 41
1.0
 10
320.3327876546299
 20
-502.32763549582967
 30
0.0
 41
1.0
 10
320.82770740190267
 20
-502.45070915491954
 30
0.0
 41
0.9999999495460359
 10
321.32254902337445
 20
-502.5740965566182
 30
0.0
 41
1.0
 10
321.32254902337445
 20
-502.57237400887527
 30
0.0
 41
1.0
 10
321.32254902337445
 20
-502.57065146113212
 30
0.0
 41
1.0
 10
321.65327819004096
 20
-502.61888279793754
 30
0.0
 41
1.0
 10
321.98400735670759
 20
-502.66711413474297
 30
0.0
 41
1.0
 10
322.82116555983259
 20
-502.75151897415287
 30
0.0
 41
1.0
 10
323.65832376295771
 20
-502.83592381356277
 30
0.0
 41
1.0
 10
324.94334437927705
 20
-502.91860610522929
 30
0.0
 41
1.0
 10
326.22836499559651
 20
-503.0012883968958
 30
0.0
 41
1.0
 10
328.00258917094368
 20
-503.07363540210429
 30
0.0
 41
1.0
 10
329.77681334629096
 20
-503.14598240731254
 30
0.0
 41
1.0
 10
331.99200974386042
 20
-503.19249119637504
 30
0.0
 41
1.0
 10
334.20720614142988
 20
-503.23899998543754
 30
0.0
 41
1.0
 10
336.65666903205488
 20
-503.2493352718958
 30
0.0
 41
1.0
 10
339.10613192267988
 20
-503.25967055835406
 30
0.0
 41
1.0
 10
421.97790384108168
 20
-502.94616686911797
 30
0.0
 41
1.0
 10
504.8496757594836
 20
-502.63266317988212
 30
0.0
 41
1.0
 10
546.2735038844836
 20
-502.45179566686113
 30
0.0
 41
1.0
 10
587.69733200948349
 20
-502.27092815384037
 30
0.0
 41
1.0
 10
588.55171569003915
 20
-502.26403796286797
 30
0.0
 41
1.0
 10
589.4060993705948
 20
-502.2571477718958
 30
0.0
 41
1.0
 10
596.93018791226143
 20
-502.22441936477765
 30
0.0
 41
1.0
 10
604.45427645392806
 20
-502.19169095765972
 30
0.0
 41
1.0
 10
605.42407083326827
 20
-501.64392077536797
 30
0.0
 41
1.0
 10
606.39386521260849
 20
-501.09615059307646
 30
0.0
 41
1.0
 10
606.87164840489913
 20
-500.90882685387271
 30
0.0
 41
0.9999998904596169
 10
607.34925624737434
 20
-500.72105648637364
 30
0.0
 41
1.0
 10
609.8567718126443
 20
-499.73523280986103
 30
0.0
 41
1.0
 10
612.36428737791437
 20
-498.74940913334842
 30
0.0
 41
1.0
 10
617.85690806860066
 20
-496.58999860047777
 30
0.0
 41
0.999950778478823
 10
623.30559932104313
 20
-494.3220260396007
 30
0.0
 41
1.0
 10
625.79300618741308
 20
-493.28666336083791
 30
0.0
 41
1.0
 10
628.28041305378304
 20
-492.25130068207511
 30
0.0
 41
1.0
 10
628.75427229119157
 20
-492.05406066636544
 30
0.0
 41
0.999999903814956
 10
629.22795809455306
 20
-491.85640449932646
 30
0.0
 41
1.0
 10
629.28474963824351
 20
-491.83338671457307
 30
0.0
 41
0.9999687541040331
 10
629.34189798906061
 20
-491.81126966573709
 30
0.0
 41
1.0
 10
629.44177424710176
 20
-491.77261644048997
 30
0.0
 41
1.0
 10
629.5416505051428
 20
-491.73396321524262
 30
0.0
 41
1.0
 10
629.79855137204106
 20
-491.63453971591264
 30
0.0
 41
0.9980472579447612
 10
630.06584395030609
 20
-491.5679231621408
 30
0.0
 41
1.0
 10
630.36365883301926
 20
-491.49369962298681
 30
0.0
 41
1.0
 10
630.66147371573254
 20
-491.41947608383282
 30
0.0
 41
1.0
 10
631.10740596395692
 20
-491.30833768341301
 30
0.0
 41
0.9943869837040554
 10
631.56674002231489
 20
-491.29352090621489
 30
0.0
 41
1.0
 10
631.76576163974676
 20
-491.28710104922959
 30
0.0
 41
1.0
 10
631.96478325717862
 20
-491.28068119224451
 30
0.0
 41
1.0
 10
632.02607408066763
 20
-491.27870412901677
 30
0.0
 41
0.9999729747479119
 10
632.08738734802523
 20
-491.27762845765972
 30
0.0
 41
1.0
 10
645.39751375861556
 20
-491.06920018075004
 30
0.0
 41
1.0
 10
658.70764016920589
 20
-490.86077190384037
 30
0.0
 41
1.0
 10
659.07217560599372
 20
-490.85689615790864
 30
0.0
 41
0.9999999993099544
 10
659.43671026676782
 20
-490.85294809826917
 30
0.0
 41
1.0
 10
661.35095182760847
 20
-490.83221607835469
 30
0.0
 41
1.0
 10
663.26519338844912
 20
-490.81148405844044
 30
0.0
 41
1.0
 10
667.45826580611299
 20
-490.76607136725067
 30
0.0
 41
0.9999976640286554
 10
671.65110272877052
 20
-490.70253277822519
 30
0.0
 41
1.0
 10
673.56518249131375
 20
-490.67352676690405
 30
0.0
 41
1.0
 10
675.47926225385697
 20
-490.6445207555829
 30
0.0
 41
1.0
 10
675.84399429231723
 20
-490.63899359739173
 30
0.0
 41
0.9999999976067093
 10
676.20872523865023
 20
-490.63339560175689
 30
0.0
 41
1.0
 10
676.5732610657235
 20
-490.6277972960844
 30
0.0
 41
0.9999999664029713
 10
676.93779392679301
 20
-490.62200905412317
 30
0.0
 41
1.0
 10
678.85168788928979
 20
-490.59161925247156
 30
0.0
 41
1.0
 10
680.76558185178658
 20
-490.56122945082018
 30
0.0
 41
1.0
 10
684.95791238643335
 20
-490.49466145076292
 30
0.0
 41
0.9999970127005478
 10
689.14986740364122
 20
-490.40759972513194
 30
0.0
 41
1.0
 10
693.34183216975066
 20
-490.32053784470293
 30
0.0
 41
1.0
 10
693.70636521260872
 20
-490.31300172154863
 30
0.0
 41
1.0
 10
708.92851961799079
 20
-490.07356758526396
 30
0.0
 41
1.0
 10
724.15067402337286
 20
-489.83413344897929
 30
0.0
 41
1.0
 10
734.92348760844231
 20
-489.66532377015972
 30
0.0
 41
1.0
 10
745.69630119351177
 20
-489.49651409134015
 30
0.0
 41
1.0
  0
LWPOLYLINE
  5
205
100
AcDbEntity
  8
GAR70-0101
370
              15
390
0
  6
Continuous
 62
               7
100
AcDbPolyline
 90
      178
 70
             129
 10
-424.01595233843
 20
872.33626223313365
 10
-408.93980028084536
 20
872.26741081050147
 10
-393.86364921919176
 20
872.05397160019504
 10
-378.78749716160723
 20
871.70971548630041
 10
-363.72507002691452
 20
871.22087058546549
 10
-348.66264289222181
 20
870.59432383863214
 10
-333.61050870274994
 20
869.83007424653465
 10
-318.57209943616976
 20
868.92812180917292
 10
-303.54055113713935
 20
867.88158158413682
 10
-288.52272776100062
 20
866.7042234562465
 10
-273.52206028949399
 20
865.38916248309204
 10
-258.5316857632082
 20
863.94328460634915
 10
-243.56532810910386
 20
862.35970388434203
 10
-236.24340990553196
 20
861.51971792720235
 10
-222.8004509691221
 20
859.8810566666491
 10
-208.41051517820318
 20
857.9876445427974
 10
-193.51621013250568
 20
855.9221048616314
 10
-178.65621689607229
 20
853.80148364265324
 10
-178.57730232418498
 20
853.79459870024323
 10
-177.81560246737234
 20
853.64312597015885
 10
-176.29220474560881
 20
853.31263974108435
 10
-174.79282389602687
 20
852.8926462628815
 10
-173.3311858374494
 20
852.34872082350034
 10
-171.91071955975471
 20
851.70151825017115
 10
-170.53142705480477
 20
850.97169436938975
 10
-169.20703125362965
 20
850.1454782970701
 10
-168.0404645962289
 20
849.3054913406645
 10
-166.71263781331339
 20
848.20387057708228
 10
-165.37794906691744
 20
846.90946543042367
 10
-164.35891960400141
 20
845.76653301384954
 10
-163.3707689767478
 20
844.48589875127698
 10
-162.43065408571903
 20
843.07444658585018
 10
-161.61062654339145
 20
841.62168276743137
 10
-160.9312732361372
 20
840.18957577477443
 10
-160.35828434655383
 20
838.72992701394571
 10
-159.88136394162808
 20
837.23585354106672
 10
-159.50737697263315
 20
835.71423830001572
 10
-159.24661538885871
 20
834.16508328932468
 10
-159.10594115378538
 20
832.60215839381362
 10
-159.03045756363829
 20
831.03234855589255
 10
-159.03045756363829
 20
831.0185776718065
 10
-159.03388854537857
 20
719.8718716098806
 10
-159.5142389361136
 20
615.23161699256343
 10
-159.80931133322139
 20
564.54326600204809
 10
-160.21417813380941
 20
517.90337306641254
 10
-160.78716801932359
 20
469.81760325330043
 10
-160.78716801932359
 20
469.8107173116245
 10
-160.85235866424983
 20
468.50942722255598
 10
-160.91068734569575
 20
467.86222464922668
 10
-161.00332584454401
 20
467.21502207589748
 10
-161.14743106135762
 20
466.52650884884207
 10
-161.3532959413572
 20
465.81045485288064
 10
-161.8370783097634
 20
464.54359047512816
 10
-162.42722310397886
 20
463.38000323132388
 10
-163.12716329760536
 20
462.2783814684758
 10
-163.93689689878141
 20
461.25249706993577
 10
-164.82554606777563
 20
460.31611892125795
 10
-165.7793848857653
 20
459.47613296411828
 10
-166.78812140346037
 20
458.7187683144308
 10
-167.84832463912113
 20
458.04402497219547
 10
-168.95313163333557
 20
457.45190393667832
 10
-170.08538648147223
 20
456.92863332452725
 10
-171.24509017946147
 20
456.48798501909442
 10
-172.42194978208292
 20
456.11618813629366
 10
-174.19238615659069
 20
455.67553883159485
 10
-175.9868384073495
 20
455.38636325624623
 10
-177.79501657693089
 20
455.20734975725594
 10
-177.88765507577921
 20
455.19357987243592
 10
-195.49594137282264
 20
451.98510777469562
 10
-207.24051753906224
 20
449.90579720944356
 10
-219.00224960993393
 20
447.90910895090963
 10
-230.78456657531621
 20
446.02946771114398
 10
-242.59090240474194
 20
444.28064337496659
 10
-254.41439314286879
 20
442.66263694164343
 10
-266.25503978562779
 20
441.16167852635448
 10
-278.10940935941687
 20
439.77088118815777
 10
-289.97750485202846
 20
438.49024692558521
 10
-301.85246131218992
 20
437.30600385528493
 10
-313.74114269524296
 20
436.23192286134287
 10
-325.63668604177656
 20
435.26800394375897
 10
-337.54595431120208
 20
434.41424810179927
 10
-349.45865256643697
 20
433.67753827934183
 10
-361.3782137810831
 20
433.04410659009858
 10
-373.3046369592098
 20
432.52083597794757
 10
-385.23792210081695
 20
432.11461338383077
 10
-397.16434527894364
 20
431.81166692439621
 10
-409.10449238403135
 20
431.61888354058584
 10
-421.04463948911894
 20
431.53626223313364
 10
-424.03310824306197
 20
431.54314717554365
 10
-424.02624528365072
 20
431.54314717554365
 10
-427.01471403759365
 20
431.53626223313364
 10
-438.95486114268135
 20
431.61888354058584
 10
-450.89500824776917
 20
431.81166692439621
 10
-462.82143142589587
 20
432.11461338383077
 10
-474.75471656750312
 20
432.52083597794757
 10
-486.68113974562982
 20
433.04410659009858
 10
-498.60070096027607
 20
433.67753827934183
 10
-510.51339921551096
 20
434.41424810179927
 10
-522.42266748493671
 20
435.26800394375897
 10
-534.31821083147042
 20
436.23192286134287
 10
-546.20689221452392
 20
437.30600385528493
 10
-558.08184867468538
 20
438.49024692558521
 10
-569.9499431713665
 20
439.77088118815777
 10
-581.80431374108662
 20
441.16167852635448
 10
-593.64496038384561
 20
442.66263694164343
 10
-605.46845112197252
 20
444.28064337496659
 10
-617.27478595546734
 20
446.02946771114398
 10
-629.05710391678042
 20
447.90910895090963
 10
-640.81883598765216
 20
449.90579720944356
 10
-652.5634111579609
 20
451.98510777469562
 10
-670.1716984509352
 20
455.19357987243592
 10
-670.26433694978334
 20
455.20734975725594
 10
-672.07251412343396
 20
455.38636325624623
 10
-673.86696737012346
 20
455.67553883159485
 10
-675.63740374463134
 20
456.11618813629366
 10
-676.81426235132187
 20
456.48798501909442
 10
-677.97396704524215
 20
456.92863332452725
 10
-679.10622189337857
 20
457.45190393667832
 10
-680.21102888759322
 20
458.04402497219547
 10
-681.27123112732295
 20
458.7187683144308
 10
-682.27996764501825
 20
459.47613296411828
 10
-683.23380745893871
 20
460.31611892125795
 10
-684.12245662793282
 20
461.25249706993577
 10
-684.93219022910887
 20
462.2783814684758
 10
-685.63213042273549
 20
463.38000323132388
 10
-686.22227521695095
 20
464.54359047512816
 10
-686.70605758535692
 20
465.81045485288064
 10
-686.91192146942592
 20
466.52650884884207
 10
-687.05602668623953
 20
467.21502207589748
 10
-687.14866618101848
 20
467.86222464922668
 10
-687.20699486246428
 20
468.50942722255598
 10
-687.27218451145984
 20
469.8107173116245
 10
-687.27218451145984
 20
469.81760325330043
 10
-687.84517439697402
 20
517.90337306641254
 10
-688.25004219349296
 20
564.54326600204809
 10
-688.54511459060063
 20
615.23161699256343
 10
-689.02546498133563
 20
719.8718716098806
 10
-689.02889596307602
 20
831.0185776718065
 10
-689.02889596307602
 20
831.03234855589255
 10
-688.95341237292882
 20
832.60215839381362
 10
-688.81273813785549
 20
834.16508328932468
 10
-688.55197655408097
 20
835.71423830001572
 10
-688.17798958508604
 20
837.23585354106672
 10
-687.70106918016029
 20
838.72992701394571
 10
-687.12807929464623
 20
840.18957577477443
 10
-686.44872598739198
 20
841.62168276743137
 10
-685.62869944099509
 20
843.07444658585018
 10
-684.68858454996655
 20
844.48589875127698
 10
-683.7004339227127
 20
845.76653301384954
 10
-682.68140445979668
 20
846.90946543042367
 10
-681.34671571340084
 20
848.20387057708228
 10
-680.01888893048545
 20
849.3054913406645
 10
-678.85232227308472
 20
850.1454782970701
 10
-677.52792647190938
 20
850.97169436938975
 10
-676.14863396695955
 20
851.70151825017115
 10
-674.72816768926486
 20
852.34872082350034
 10
-673.26652963068739
 20
852.8926462628815
 10
-671.76714878110545
 20
853.31263974108435
 10
-670.243751059342
 20
853.64312597015885
 10
-669.48205120252931
 20
853.79459870024323
 10
-669.40313663064205
 20
853.80148364265324
 10
-654.54314339420876
 20
855.9221048616314
 10
-639.64883834851128
 20
857.9876445427974
 10
-625.25890255759225
 20
859.8810566666491
 10
-611.81594262525152
 20
861.51971792720235
 10
-604.4940254176106
 20
862.35970388434203
 10
-589.52766776350632
 20
863.94328460634915
 10
-574.53729323722018
 20
865.38916248309204
 10
-559.53662576571321
 20
866.7042234562465
 10
-544.51880238957438
 20
867.88158158413682
 10
-529.48725409054362
 20
868.92812180917292
 10
-514.44884482396321
 20
869.83007424653465
 10
-499.39671063449111
 20
870.59432383863214
 10
-484.3342834997984
 20
871.22087058546549
 10
-469.27185636510558
 20
871.70971548630041
 10
-454.19570430752105
 20
872.05397160019504
 10
-439.11955224993642
 20
872.26741081050147
 10
-424.0434011882827
 20
872.33626223313365
  0
LWPOLYLINE
  5
206
100
AcDbEntity
  8
GAR70-0101
370
              15
390
0
  6
Continuous
 62
               7
100
AcDbPolyline
 90
       41
 70
             128
 10
-171.76661434294121
 20
722.79666016232613
 10
-213.09736570638557
 20
714.12827784427907
 10
-231.63547394923688
 20
710.24506240430355
 10
-247.22285622914956
 20
707.09167084510943
 10
-259.35514428727606
 20
704.74384053100482
 10
-269.7856175975611
 20
702.82288863751296
 10
-280.39450693799301
 20
700.99144299388342
 10
-291.23327902653716
 20
699.26327448420204
 10
-300.07859495187256
 20
697.96198439513353
 10
-309.07487805750202
 20
696.75020155519303
 10
-318.21183639413573
 20
695.648579792345
 10
-327.46545010179943
 20
694.64335022103489
 10
-336.78768643206047
 20
693.76205361016923
 10
-346.26431992842504
 20
692.98403313398569
 10
-355.8473178424606
 20
692.32994561824637
 10
-365.50923032838341
 20
691.80667600536128
 10
-375.20545362763949
 20
691.41422329606451
 10
-384.96343559415072
 20
691.125047720716
 10
-397.24669083257118
 20
690.89783762632362
 10
-409.57111884780534
 20
690.78079060755533
 10
-424.02967626539089
 20
690.74636489623924
 10
-438.48823467890725
 20
690.78079060755533
 10
-450.81266269414152
 20
690.89783762632362
 10
-463.09591793256209
 20
691.125047720716
 10
-472.85389989907344
 20
691.41422329606451
 10
-482.55012319832952
 20
691.80667600536128
 10
-492.21203568425244
 20
692.32994561824637
 10
-501.795033598288
 20
692.98403313398569
 10
-511.27166709465257
 20
693.76205361016923
 10
-520.59390342491383
 20
694.64335022103489
 10
-529.84751713257754
 20
695.648579792345
 10
-538.98447546921147
 20
696.75020155519303
 10
-547.98075857484116
 20
697.96198439513353
 10
-556.82607450017679
 20
699.26327448420204
 10
-567.66484658872105
 20
700.99144299388342
 10
-578.27373592915319
 20
702.82288863751296
 10
-588.70420923943846
 20
704.74384053100482
 10
-600.83649729756473
 20
707.09167084510943
 10
-616.42387957747746
 20
710.24506240430355
 10
-634.96198782032889
 20
714.12827784427907
 10
-676.29273918377305
 20
722.79666016232613
  0
LWPOLYLINE
  5
207
100
AcDbEntity
  8
GAR70-0101
370
              15
390
0
  6
Continuous
 62
               7
100
AcDbPolyline
 90
       50
 70
             128
 10
-168.52424696463513
 20
460.55709890047046
 10
-206.66066569006756
 20
470.56808196131198
 10
-225.23994670973269
 20
475.39456049237543
 10
-240.31952974905749
 20
479.20892450971883
 10
-253.60809052343296
 20
482.44493737636515
 10
-264.99926561111909
 20
485.0957131506384
 10
-274.32836290892988
 20
487.16125383107038
 10
-283.82901526933779
 20
489.16482703201433
 10
-293.50808266396177
 20
491.08577892550602
 10
-303.36899707047291
 20
492.89656974190558
 10
-313.39803555784101
 20
494.58342659859488
 10
-321.02531910374125
 20
495.76078472648521
 10
-328.74867312616084
 20
496.86240648933335
 10
-336.56123466568852
 20
497.88140594546331
 10
-344.432124886662
 20
498.81089915173106
 10
-352.36820575256172
 20
499.65088510887085
 10
-360.36261529990736
 20
500.39447987373819
 10
-368.41192155102772
 20
501.0416824470675
 10
-376.50926254244234
 20
501.59249282885855
 10
-384.64777631067068
 20
502.0469120183775
 10
-392.81373992468275
 20
502.41182395876814
 10
-401.00715139261661
 20
502.68722865003076
 10
-411.95914886638138
 20
502.92132368683309
 10
-422.92487026710717
 20
503.00394499428535
 10
-424.00909037494944
 20
502.99706005187534
 10
-424.05026315176326
 20
502.99706005187534
 10
-425.13448325960542
 20
503.00394499428535
 10
-436.10020466033131
 20
502.92132368683309
 10
-447.05220213409598
 20
502.68722865003076
 10
-455.24561360203006
 20
502.41182395876814
 10
-463.41157622011121
 20
502.0469120183775
 10
-471.55009098427047
 20
501.59249282885855
 10
-479.64743197568509
 20
501.0416824470675
 10
-487.69673822680556
 20
500.39447987373819
 10
-495.6911477741512
 20
499.65088510887085
 10
-503.62722864005104
 20
498.81089915173106
 10
-511.49811886102452
 20
497.88140594546331
 10
-519.31068040055231
 20
496.86240648933335
 10
-527.03403442297201
 20
495.76078472648521
 10
-534.66131796887248
 20
494.58342659859488
 10
-544.69035546030989
 20
492.89656974190558
 10
-554.55127086275206
 20
491.08577892550602
 10
-564.23033825737627
 20
489.16482703201433
 10
-573.73099061778441
 20
487.16125383107038
 10
-583.06008791559532
 20
485.0957131506384
 10
-594.45126300328138
 20
482.44493737636515
 10
-607.73982377765685
 20
479.20892450971883
 10
-622.81940681698177
 20
475.39456049237543
 10
-641.39868783664679
 20
470.56808196131198
 10
-679.53510656207925
 20
460.55709890047046
  0
LWPOLYLINE
  5
208
100
AcDbEntity
  8
GAR70-0101
370
              15
390
0
  6
Continuous
 62
               7
100
AcDbPolyline
 90
       68
 70
             128
 10
-173.13561390267043
 20
739.72859611592548
 10
-173.13904488441071
 20
831.00480778698648
 10
-173.13904488441071
 20
831.0185776718065
 10
-173.15276980730252
 20
831.36283478496716
 10
-173.24540830615078
 20
832.40937501000326
 10
-173.46842809485165
 20
833.42837446613328
 10
-173.80810524644423
 20
834.41983415262325
 10
-174.31933546877232
 20
835.46637437765935
 10
-174.85115257747267
 20
836.29258945071297
 10
-175.33836493168823
 20
836.89848137031606
 10
-176.06575397516755
 20
837.64896107759353
 10
-176.87891855808388
 20
838.30304859333285
 10
-177.76070576359763
 20
838.8538589751239
 10
-178.70082065462634
 20
839.30827816464284
 10
-179.68897028594927
 20
839.63187945130744
 10
-180.70456976305582
 20
839.85220360402388
 10
-180.76632843031098
 20
839.85908854643401
 10
-188.15000629706904
 20
840.91251471314592
 10
-202.9104990711736
 20
842.99870922154207
 10
-217.64011201368515
 20
844.99539847934204
 10
-231.13453667212951
 20
846.70979610493737
 10
-245.14019254883277
 20
848.34157342234653
 10
-259.97959989482467
 20
849.91826820267761
 10
-274.83959313125797
 20
851.35037619460047
 10
-289.71331129058296
 20
852.64478134125898
 10
-304.60075437279988
 20
853.81525352747326
 10
-319.50192038604689
 20
854.85490881009935
 10
-334.41338034044543
 20
855.74997630505106
 10
-349.33513423599561
 20
856.50734095473865
 10
-364.2671800808356
 20
857.12700275916177
 10
-379.19922692160651
 20
857.60896271758668
 10
-394.14499768933842
 20
857.95321883148142
 10
-409.09076845707034
 20
858.15977309937784
 10
-424.03653922480225
 20
858.22862452200991
 10
-424.02281430191044
 20
858.22862452200991
 10
-438.96858506964236
 20
858.15977309937784
 10
-453.91435583737427
 20
857.95321883148142
 10
-468.8601266051063
 20
857.60896271758668
 10
-483.79217344587721
 20
857.12700275916177
 10
-498.72421929071743
 20
856.50734095473865
 10
-513.64597219033681
 20
855.74997630505106
 10
-528.55743214473569
 20
854.85490881009935
 10
-543.45859915391384
 20
853.81525352747326
 10
-558.34604124020007
 20
852.64478134125898
 10
-573.2197593995254
 20
851.35037619460047
 10
-588.07975363188973
 20
849.91826820267761
 10
-602.91916097788157
 20
848.34157342234653
 10
-616.92481685458495
 20
846.70979610493737
 10
-630.41924151302919
 20
844.99539847934204
 10
-645.1488544555408
 20
842.99870922154207
 10
-659.90934722964528
 20
840.91251471314592
 10
-667.29302410047251
 20
839.85908854643401
 10
-667.35478376365847
 20
839.85220360402388
 10
-668.37038224483422
 20
839.63187945130744
 10
-669.35853287208795
 20
839.30827816464284
 10
-670.29864776311661
 20
838.8538589751239
 10
-671.18043496863038
 20
838.30304859333285
 10
-671.99359955154671
 20
837.64896107759353
 10
-672.72098759909511
 20
836.89848137031606
 10
-673.20820094924159
 20
836.29258945071297
 10
-673.74001805794205
 20
835.46637437765935
 10
-674.25124828027003
 20
834.41983415262325
 10
-674.59092443593181
 20
833.42837446613328
 10
-674.8139452205636
 20
832.40937501000326
 10
-674.90658371941186
 20
831.36283478496716
 10
-674.92030864230367
 20
831.0185776718065
 10
-674.92030864230367
 20
831.00480778698648
 10
-674.92373962404383
 20
739.72859611592548
  0
LWPOLYLINE
  5
209
100
AcDbEntity
  8
GAR70-0101
370
              15
390
0
  6
Continuous
 62
               7
100
AcDbPolyline
 90
       84
 70
             128
 10
-159.03388819956936
 20
714.87187190827262
 10
-159.03314527815814
 20
715.03854453880922
 42
0.0628124035802125
 10
-159.21953242879661
 20
716.57137542164378
 10
-159.25879250457618
 20
716.72743113846263
 42
0.0391691403865494
 10
-159.65149805804253
 20
717.89383184193957
 42
0.034849755228363
 10
-160.21223342799431
 20
718.99029089138617
 10
-160.21612906560517
 20
718.99675454404314
 42
0.0301586557365757
 10
-160.92320785835079
 20
720.02432247547085
 10
-160.93159751432398
 20
720.03506573323477
 42
0.0264928527248655
 10
-161.76849977942737
 20
720.99705725940294
 10
-162.01686730537659
 20
721.25373437789926
 42
0.0398652475756403
 10
-163.50628749934447
 20
722.56576390313285
 10
-163.80366178179935
 20
722.78831739838029
 42
0.0284180880841864
 10
-166.07842964538483
 20
724.29711907490469
 10
-166.11967450769183
 20
724.32122044585617
 42
0.0209213202359932
 10
-168.54128694130625
 20
725.60354736828663
 42
0.0160385957311194
 10
-171.05188570964296
 20
726.70394958330189
 10
-172.18274252052228
 20
727.15695248912175
 42
0.0296488436492816
 10
-175.71843998464507
 20
728.33543450078525
 10
-176.91702368110452
 20
728.65742856728889
 42
0.0095626437363115
 10
-178.13126187880192
 20
728.95885452153163
 10
-183.99154111777591
 20
729.98473937459903
 10
-201.57924098837333
 20
733.02796826759038
 10
-213.3169548505104
 20
734.97646097509403
 10
-225.07182409683634
 20
736.83544695045077
 10
-236.85071088102694
 20
738.57050052745046
 10
-248.65018412624448
 20
740.18162170609298
 10
-260.46681275565095
 20
741.67569561962034
 10
-272.30059676924634
 20
743.059607401275
 10
-284.14810509019321
 20
744.34712731754053
 10
-296.009337718491
 20
745.53137023517513
 10
-307.88086357730242
 20
746.61922128742106
 10
-319.76268266662714
 20
747.59691020779383
 10
-331.65136390962743
 20
748.47132212953591
 10
-343.55376945997909
 20
749.24245705264673
 10
-355.46303716400632
 20
749.90342984388474
 10
-367.37573594487128
 20
750.45424050324971
 10
-379.29529687941192
 20
750.90177416398365
 10
-391.22171996762825
 20
751.24603082608678
 10
-403.14814305584446
 20
751.487010489559
 10
-415.07456614406067
 20
751.61782802115806
 10
-424.01252130654734
 20
751.63848342088443
 10
-424.04683207492542
 20
751.63848342088443
 10
-432.98478723741198
 20
751.61782802115806
 10
-444.9112103256283
 20
751.487010489559
 10
-456.83763341384463
 20
751.24603082608678
 10
-468.76405650206095
 20
750.90177416398365
 10
-480.68361743660171
 20
750.45424050324971
 10
-492.59631621746678
 20
749.90342984388474
 10
-504.50558392149401
 20
749.24245705264673
 10
-516.40798947184567
 20
748.47132212953591
 10
-528.2966707148463
 20
747.59691020779383
 10
-540.17848980417125
 20
746.61922128742106
 10
-552.0500156629829
 20
745.53137023517513
 10
-563.91124829128103
 20
744.34712731754053
 10
-575.7587566122279
 20
743.059607401275
 10
-587.59254062582352
 20
741.67569561962034
 10
-599.40916925523004
 20
740.18162170609298
 10
-611.20864250044758
 20
738.57050052745046
 10
-622.98752928463819
 20
736.83544695045077
 10
-634.74239853096412
 20
734.97646097509403
 10
-646.48011239310108
 20
733.02796826759038
 10
-664.06781226369856
 20
729.98473937459903
 10
-669.9280915026726
 20
728.95885452153163
 42
0.0087868953248115
 10
-671.14212086459474
 20
728.65639286004568
 10
-672.34172553150154
 20
728.33503460381689
 42
0.0298582372084192
 10
-675.87924254269615
 20
727.15708314181825
 10
-677.00792890357252
 20
726.70478056773686
 42
0.0159503160406768
 10
-679.5188545158918
 20
725.60437699305373
 42
0.0209009420935799
 10
-681.94106166870836
 20
724.32255584612267
 10
-682.26985338064435
 20
724.13056159711505
 42
0.0289936656239008
 10
-683.99019854609321
 20
722.98740193206595
 10
-684.02088419813219
 20
722.96434128687372
 42
0.0175705799628028
 10
-685.56952714860824
 20
721.71302284071135
 10
-685.58835488733575
 20
721.69668393666836
 42
0.0477524710592481
 10
-686.92127932133587
 20
720.29601356429055
 10
-687.13506887589517
 20
720.02347979902754
 42
0.0307062182651262
 10
-687.84322431586918
 20
718.99675454404314
 10
-687.84711995348039
 20
718.99029089138571
 42
0.0348497552283824
 10
-688.40785532343182
 20
717.89383184193957
 10
-688.4082782746201
 20
717.89283993915296
 42
0.0391691403866225
 10
-688.80029779547692
 20
716.72847686644343
 42
0.0628124035802087
 10
-689.02548603124535
 20
714.87654940763184
 10
-689.02546518190491
 20
714.87187190827262
  0
POLYLINE
  5
20A
100
AcDbEntity
  8
GAR70-0101
370
              15
390
0
  6
STYLE_15
 62
               7
100
AcDb2dPolyline
 66
               1
 10
0.0
 20
0.0
 30
0.0
 75
               5
  0
VERTEX
  5
20B
100
AcDbEntity
  8
GAR70-0101
370
              15
390
0
  6
STYLE_15
 62
               7
100
AcDbVertex
100
AcDb2dVertex
 10
-144.57829510824047
 20
-504.62360867929249
 30
0.0
  0
VERTEX
  5
20C
100
AcDbEntity
  8
GAR70-0101
370
              15
390
0
  6
STYLE_15
 62
               7
100
AcDbVertex
100
AcDb2dVertex
 10
-159.5923834968608
 20
-523.08260595873264
 30
0.0
  0
VERTEX
  5
20D
100
AcDbEntity
  8
GAR70-0101
370
              15
390
0
  6
STYLE_15
 62
               7
100
AcDbVertex
100
AcDb2dVertex
 10
-194.77861655509111
 20
-553.83270312157777
 30
0.0
  0
VERTEX
  5
20E
100
AcDbEntity
  8
GAR70-0101
370
              15
390
0
  6
STYLE_15
 62
               7
100
AcDbVertex
100
AcDb2dVertex
 10
-212.57118992857698
 20
-565.81710654170968
 30
0.0
  0
VERTEX
  5
20F
100
AcDbEntity
  8
GAR70-0101
370
              15
390
0
  6
STYLE_15
 62
               7
100
AcDbVertex
100
AcDb2dVertex
 10
-239.3751212451736
 20
-581.70766619969675
 30
0.0
  0
VERTEX
  5
210
100
AcDbEntity
  8
GAR70-0101
370
              15
390
0
  6
STYLE_15
 62
               7
100
AcDbVertex
100
AcDb2dVertex
 10
-265.72950752022678
 20
-593.5518616913406
 30
0.0
  0
VERTEX
  5
211
100
AcDbEntity
  8
GAR70-0101
370
              15
390
0
  6
STYLE_15
 62
               7
100
AcDbVertex
100
AcDb2dVertex
 10
-292.56361307738177
 20
-603.53344155919933
 30
0.0
  0
VERTEX
  5
212
100
AcDbEntity
  8
GAR70-0101
370
              15
390
0
  6
STYLE_15
 62
               7
100
AcDbVertex
100
AcDb2dVertex
 10
-328.02243715625195
 20
-612.91937237925356
 30
0.0
  0
VERTEX
  5
213
100
AcDbEntity
  8
GAR70-0101
370
              15
390
0
  6
STYLE_15
 62
               7
100
AcDbVertex
100
AcDb2dVertex
 10
-354.61719450016221
 20
-617.83581233261532
 30
0.0
  0
VERTEX
  5
214
100
AcDbEntity
  8
GAR70-0101
370
              15
390
0
  6
STYLE_15
 62
               7
100
AcDbVertex
100
AcDb2dVertex
 10
-381.21144041626633
 20
-619.62360867929249
 30
0.0
  0
VERTEX
  5
215
100
AcDbEntity
  8
GAR70-0101
370
              15
390
0
  6
STYLE_15
 62
               7
100
AcDbVertex
100
AcDb2dVertex
 10
-409.57829510824024
 20
-619.62360867929249
 30
0.0
  0
VERTEX
  5
216
100
AcDbEntity
  8
GAR70-0101
370
              15
390
0
  6
STYLE_15
 62
               7
100
AcDbVertex
100
AcDb2dVertex
 10
-437.94514980021415
 20
-619.62360867929249
 30
0.0
  0
VERTEX
  5
217
100
AcDbEntity
  8
GAR70-0101
370
              15
390
0
  6
STYLE_15
 62
               7
100
AcDbVertex
100
AcDb2dVertex
 10
-464.53939571631827
 20
-617.83581233261532
 30
0.0
  0
VERTEX
  5
218
100
AcDbEntity
  8
GAR70-0101
370
              15
390
0
  6
STYLE_15
 62
               7
100
AcDbVertex
100
AcDb2dVertex
 10
-491.13415306022864
 20
-612.91937237925356
 30
0.0
  0
VERTEX
  5
219
100
AcDbEntity
  8
GAR70-0101
370
              15
390
0
  6
STYLE_15
 62
               7
100
AcDbVertex
100
AcDb2dVertex
 10
-526.59297713909916
 20
-603.53344155919933
 30
0.0
  0
VERTEX
  5
21A
100
AcDbEntity
  8
GAR70-0101
370
              15
390
0
  6
STYLE_15
 62
               7
100
AcDbVertex
100
AcDb2dVertex
 10
-553.42708269625473
 20
-593.5518616913406
 30
0.0
  0
VERTEX
  5
21B
100
AcDbEntity
  8
GAR70-0101
370
              15
390
0
  6
STYLE_15
 62
               7
100
AcDbVertex
100
AcDb2dVertex
 10
-579.78146897130819
 20
-581.70766619969675
 30
0.0
  0
VERTEX
  5
21C
100
AcDbEntity
  8
GAR70-0101
370
              15
390
0
  6
STYLE_15
 62
               7
100
AcDbVertex
100
AcDb2dVertex
 10
-606.58540028790492
 20
-565.81710654170968
 30
0.0
  0
VERTEX
  5
21D
100
AcDbEntity
  8
GAR70-0101
370
              15
390
0
  6
STYLE_15
 62
               7
100
AcDbVertex
100
AcDb2dVertex
 10
-624.37797366139068
 20
-553.83270312157777
 30
0.0
  0
VERTEX
  5
21E
100
AcDbEntity
  8
GAR70-0101
370
              15
390
0
  6
STYLE_15
 62
               7
100
AcDbVertex
100
AcDb2dVertex
 10
-659.56420671962098
 20
-523.08260595873264
 30
0.0
  0
VERTEX
  5
21F
100
AcDbEntity
  8
GAR70-0101
370
              15
390
0
  6
STYLE_15
 62
               7
100
AcDbVertex
100
AcDb2dVertex
 10
-674.57829510824115
 20
-504.62360867929249
 30
0.0
  0
SEQEND
  5
220
100
AcDbEntity
  8
GAR70-0101
370
              15
390
0
  6
STYLE_15
 62
               7
  0
LINE
  5
221
100
AcDbEntity
  8
GAR70-0101
370
              15
390
0
  6
Continuous
 62
               7
100
AcDbLine
 10
-461.26172245422731
 20
-619.26528266472826
 30
0.0
 11
-447.7617224542272
 21
-629.86215783486716
 31
0.0
  0
LINE
  5
222
100
AcDbEntity
  8
GAR70-0101
370
              15
390
0
  6
Continuous
 62
               7
100
AcDbLine
 10
-399.79387892801515
 20
-629.86215783486716
 30
0.0
 11
-386.26172245422731
 21
-619.26528266472826
 31
0.0
  0
LINE
  5
223
100
AcDbEntity
  8
GAR70-0101
370
              15
390
0
  6
STYLE_12
 62
               7
100
AcDbLine
 10
-447.7617224542272
 20
-629.86215783486716
 30
0.0
 11
-447.7617224542272
 21
-649.25191231182646
 31
0.0
  0
LINE
  5
224
100
AcDbEntity
  8
GAR70-0101
370
              15
390
0
  6
STYLE_12
 62
               7
100
AcDbLine
 10
-399.79387892801515
 20
-629.86215783486716
 30
0.0
 11
-399.79387892801515
 21
-649.25191231182646
 31
0.0
  0
LINE
  5
225
100
AcDbEntity
  8
GAR70-0101
370
              15
390
0
  6
STYLE_12
 62
               7
100
AcDbLine
 10
-447.7617224542272
 20
-649.25191231182646
 30
0.0
 11
-399.79387892801515
 21
-649.25191231182646
 31
0.0
  0
LINE
  5
226
100
AcDbEntity
  8
GAR70-0101
370
              15
390
0
  6
STYLE_12
 62
               7
100
AcDbLine
 10
487.19004283509037
 20
-649.25191231182646
 30
0.0
 11
535.19004283509003
 21
-649.25191231182646
 31
0.0
  0
LINE
  5
227
100
AcDbEntity
  8
GAR70-0101
370
              15
390
0
  6
Continuous
 62
               7
100
AcDbLine
 10
548.69004283509014
 20
-619.26528266472826
 30
0.0
 11
535.19004283509003
 21
-629.86215783486716
 31
0.0
  0
LINE
  5
228
100
AcDbEntity
  8
GAR70-0101
370
              15
390
0
  6
Continuous
 62
               7
100
AcDbLine
 10
487.22219930887832
 20
-629.86215783486716
 30
0.0
 11
473.69004283509059
 21
-619.26528266472826
 31
0.0
  0
LINE
  5
229
100
AcDbEntity
  8
GAR70-0101
370
              15
390
0
  6
STYLE_12
 62
               7
100
AcDbLine
 10
535.19004283509003
 20
-629.86215783486716
 30
0.0
 11
535.19004283509003
 21
-649.25191231182646
 31
0.0
  0
LINE
  5
22A
100
AcDbEntity
  8
GAR70-0101
370
              15
390
0
  6
STYLE_12
 62
               7
100
AcDbLine
 10
487.19004283509037
 20
-629.83697647228826
 30
0.0
 11
487.19004283509037
 21
-649.25191231182646
 31
0.0
  0
LINE
  5
22B
100
AcDbEntity
  8
GAR70-0101
370
              15
390
0
  6
STYLE_12
 62
               7
100
AcDbLine
 10
535.19004283509003
 20
-649.25191231182646
 30
0.0
 11
487.22219930887832
 21
-649.25191231182646
 31
0.0
  0
LINE
  5
22C
100
AcDbEntity
  8
GAR70-0101
370
              15
390
0
  6
STYLE_15
 62
               7
100
AcDbLine
 10
332.08530865127318
 20
-543.13439681862349
 30
0.0
 11
306.5667400223158
 21
-499.18549170913468
 31
0.0
  0
LINE
  5
22D
100
AcDbEntity
  8
GAR70-0101
370
              15
390
0
  6
STYLE_15
 62
               7
100
AcDbLine
 10
347.01124028504501
 20
-565.48512492081329
 30
0.0
 11
332.08530865127318
 21
-543.13439681862349
 31
0.0
  0
LINE
  5
22E
100
AcDbEntity
  8
GAR70-0101
370
              15
390
0
  6
STYLE_15
 62
               7
100
AcDbLine
 10
400.4560247540204
 20
-617.84208614185638
 30
0.0
 11
347.01124028504501
 21
-565.48512492081329
 31
0.0
  0
LINE
  5
22F
100
AcDbEntity
  8
GAR70-0101
370
              15
390
0
  6
STYLE_15
 62
               7
100
AcDbLine
 10
577.64060624184674
 20
-619.81288906156453
 30
0.0
 11
400.4560247540204
 21
-617.84208614185638
 31
0.0
  0
LINE
  5
230
100
AcDbEntity
  8
GAR70-0101
370
              15
390
0
  6
STYLE_15
 62
               7
100
AcDbLine
 10
625.71249163929599
 20
-523.42636762154336
 30
0.0
 11
579.37454564917948
 21
-619.00000000000011
 31
0.0
  0
LINE
  5
231
100
AcDbEntity
  8
GAR70-0101
370
              15
390
0
  6
STYLE_15
 62
               7
100
AcDbLine
 10
631.56674002231489
 20
-491.8935209062148
 30
0.0
 11
625.71249163929599
 21
-523.42636762154336
 31
0.0
  0
LINE
  5
232
100
AcDbEntity
  8
GAR70-0101
370
              15
390
0
  6
STYLE_15
 62
               7
100
AcDbLine
 10
604.45427645392806
 20
-502.19169095765972
 30
0.0
 11
579.37454564917948
 21
-619.00000000000011
 31
0.0
  0
LINE
  5
233
100
AcDbEntity
  8
GAR70-0101
370
              15
390
0
  6
STYLE_15
 62
               7
100
AcDbLine
 10
337.7970536206609
 20
-503.22563769453598
 30
0.0
 11
400.4560247540204
 21
-617.84208614185638
 31
0.0
  0
LINE
  5
234
100
AcDbEntity
  8
GAR70-0101
370
              15
390
0
  6
STYLE_15
 62
               7
100
AcDbLine
 10
-263.76172245422765
 20
-540.60000000000002
 30
0.0
 11
-303.76172245422742
 21
-540.60000000000002
 31
0.0
  0
LINE
  5
235
100
AcDbEntity
  8
GAR70-0101
370
              15
390
0
  6
STYLE_15
 62
               7
100
AcDbLine
 10
-543.76172245422765
 20
-540.60000000000002
 30
0.0
 11
-583.76172245422811
 21
-540.60000000000002
 31
0.0
  0
LINE
  5
236
100
AcDbEntity
  8
GAR70-0101
370
              15
390
0
  6
STYLE_15
 62
               7
100
AcDbLine
 10
-563.76172245422788
 20
-560.60000000000002
 30
0.0
 11
-563.76172245422788
 21
-520.60000000000002
 31
0.0
  0
CIRCLE
  5
237
100
AcDbEntity
  8
GAR70-0101
370
              15
390
0
  6
STYLE_15
 62
               7
100
AcDbCircle
 10
-563.76172245422788
 20
-540.60000000000002
 30
0.0
 40
9.9999999999999165
  0
CIRCLE
  5
238
100
AcDbEntity
  8
GAR70-0101
370
              15
390
0
  6
STYLE_15
 62
               7
100
AcDbCircle
 10
-283.76172245422754
 20
-540.60000000000002
 30
0.0
 40
9.9999999999998579
  0
CIRCLE
  5
239
100
AcDbEntity
  8
GAR70-0101
370
              15
390
0
  6
Continuous
 62
               7
100
AcDbCircle
 10
-424.05034726365307
 20
641.5598952331336
 30
0.0
 40
35.0
  0
CIRCLE
  5
23A
100
AcDbEntity
  8
GAR70-0101
370
              15
390
0
  6
Continuous
 62
               7
100
AcDbCircle
 10
-424.05034726365307
 20
641.5598952331336
 30
0.0
 40
23.0
  0
CIRCLE
  5
23B
100
AcDbEntity
  8
GAR70-0101
370
              15
390
0
  6
Continuous
 62
               7
100
AcDbCircle
 10
-424.00900611781969
 20
806.59999999999991
 30
0.0
 40
17.5
  0
CIRCLE
  5
23C
100
AcDbEntity
  8
GAR70-0101
370
              15
390
0
  6
STYLE_15
 62
               7
100
AcDbCircle
 10
-324.00900611781969
 20
804.79999999999995
 30
0.0
 40
17.500000000000039
  0
CIRCLE
  5
23D
100
AcDbEntity
  8
GAR70-0101
370
              15
390
0
  6
STYLE_15
 62
               7
100
AcDbCircle
 10
-524.00900611781981
 20
804.79999999999995
 30
0.0
 40
17.50000000000005
  0
DIMENSION
  5
23E
100
AcDbEntity
  8
GAR70-0101
370
               5
390
0
  6
Continuous
 62
               7
100
AcDbDimension
  2
*D22
 10
519.0
 20
-619.26528266472826
 30
0.0
 11
524.0
 21
-495.00000000000011
 31
0.0
 70
             128
 71
               5
 72
               1
 41
1.0
 42
0.0
  1
130(深さ) 
  3
tfrom線あり
100
AcDbAlignedDimension
 13
473.69004283509059
 23
-502.75053998703731
 33
0.0
 14
473.69004283509059
 24
-619.26528266472826
 34
0.0
 50
90.0
100
AcDbRotatedDimension
1001
ACAD
1000
DSTYLE
1002
{
1070
             279
1070
               2
1070
             340
1005
39
1070
             174
1070
               0
1070
             147
1040
5.0
1002
}
  0
ENDSEC
  0
SECTION
  2
OBJECTS
  0
DICTIONARY
  5
19
100
AcDbDictionary
280
               0
281
               1
  3
ACAD_GROUP
350
1A
  3
ACAD_MLINESTYLE
350
1B
  3
ACAD_LAYOUT
350
1E
  3
ACAD_PLOTSETTINGS
350
22
  3
ACAD_PLOTSTYLENAME
350
1F
  0
DICTIONARY
  5
1A
102
{ACAD_REACTORS
330
19
102
}
100
AcDbDictionary
280
               0
281
               1
  0
DICTIONARY
  5
1B
102
{ACAD_REACTORS
330
19
102
}
100
AcDbDictionary
280
               0
281
               1
  3
Standard
350
1C
  0
MLINESTYLE
  5
1C
102
{ACAD_REACTORS
330
1B
102
}
100
AcDbMlineStyle
  2
Standard
 70
               0
  3

 62
               0
 51
90.0
 52
90.0
 71
               2
 49
0.5
 62
             256
  6
ByLayer
 49
-0.5
 62
             256
  6
ByLayer
  0
ACDBDICTIONARYWDFLT
  5
1F
102
{ACAD_REACTORS
330
19
102
}
100
AcDbDictionary
281
               1
  3
Normal
350
1D
100
AcDbDictionaryWithDefault
340
1D
  0
ACDBPLACEHOLDER
  5
1D
102
{ACAD_REACTORS
330
1F
102
}
  0
LAYOUT
  5
20
102
{ACAD_REACTORS
330
1E
102
}
100
AcDbPlotSettings
  1

  2

  4

  6

 40
0.0
 41
0.0
 42
0.0
 43
0.0
 44
0.0
 45
0.0
 46
0.0
 47
0.0
 48
0.0
 49
0.0
140
0.0
141
0.0
142
1.0
143
1.0
 70
            1024
 72
               0
 73
               0
 74
               0
  7

 75
               0
147
1.0
148
0.0
149
0.0
100
AcDbLayout
  1
Model
 70
               0
 71
               0
 10
0.0
 20
0.0
 11
0.0
 21
0.0
 12
0.0
 22
0.0
 32
0.0
 14
0.0
 24
0.0
 34
0.0
 15
0.0
 25
0.0
 35
0.0
146
0.0
 13
0.0
 23
0.0
 33
0.0
 16
0.0
 26
0.0
 36
0.0
 17
0.0
 27
0.0
 37
0.0
 76
               0
330
A
331
0
345
0
346
0
  0
LAYOUT
  5
21
102
{ACAD_REACTORS
330
1E
102
}
100
AcDbPlotSettings
  1

  2

  4

  6

 40
0.0
 41
0.0
 42
0.0
 43
0.0
 44
0.0
 45
0.0
 46
0.0
 47
0.0
 48
0.0
 49
0.0
140
0.0
141
0.0
142
1.0
143
1.0
 70
               0
 72
               0
 73
               0
 74
               0
  7

 75
               0
147
1.0
148
0.0
149
0.0
100
AcDbLayout
  1
Layout1
 70
               0
 71
               0
 10
0.0
 20
0.0
 11
0.0
 21
0.0
 12
0.0
 22
0.0
 32
0.0
 14
0.0
 24
0.0
 34
0.0
 15
0.0
 25
0.0
 35
0.0
146
0.0
 13
0.0
 23
0.0
 33
0.0
 16
0.0
 26
0.0
 36
0.0
 17
0.0
 27
0.0
 37
0.0
 76
               0
330
B
331
0
345
0
346
0
  0
DICTIONARY
  5
1E
102
{ACAD_REACTORS
330
19
102
}
100
AcDbDictionary
280
               0
281
               1
  3
Layout1
350
21
  3
Model
350
20
  0
DICTIONARY
  5
22
102
{ACAD_REACTORS
330
19
102
}
100
AcDbDictionary
280
               0
281
               1
  0
ENDSEC
  0
EOF
