  0
SECTION
  2
HEADER
  9
$ACADVER
  1
AC1015
  9
$ACADMAINTVER
 70
               6
  9
$DWGCODEPAGE
  3
ANSI_932
  9
$INSBASE
 10
0.0
 20
0.0
 30
0.0
  9
$EXTMIN
 10
-1049.9999999999998
 20
-1485.0
 30
-14.834305555555554
  9
$EXTMAX
 10
1049.9999999999998
 20
1485.0
 30
14.834305555555554
  9
$LIMMIN
 10
0.0
 20
0.0
  9
$LIMMAX
 10
0.0
 20
0.0
  9
$ORTHOMODE
 70
               0
  9
$REGENMODE
 70
               1
  9
$FILLMODE
 70
               1
  9
$QTEXTMODE
 70
               0
  9
$MIRRTEXT
 70
               1
  9
$LTSCALE
 40
50.799999999999997
  9
$ATTMODE
 70
               1
  9
$TEXTSIZE
 40
0.2
  9
$TRACEWID
 40
1.0
  9
$TEXTSTYLE
  7
Standard
  9
$CLAYER
  8
GAR70-0102
  9
$CELTYPE
  6
Continuous
  9
$CECOLOR
 62
             256
  9
$CELTSCALE
 40
1.0
  9
$DISPSILH
 70
               0
  9
$DIMSCALE
 40
1.0
  9
$DIMASZ
 40
3.999755859375
  9
$DIMEXO
 40
24.999999999999996
  9
$DIMDLI
 40
0.9999999999999999
  9
$DIMRND
 40
0.0
  9
$DIMDLE
 40
0.0
  9
$DIMEXE
 40
0.0
  9
$DIMTP
 40
0.0
  9
$DIMTM
 40
0.0
  9
$DIMTXT
 40
24.432617187500004
  9
$DIMCEN
 40
0.0
  9
$DIMTSZ
 40
0.0
  9
$DIMTOL
 70
               0
  9
$DIMLIM
 70
               0
  9
$DIMTIH
 70
               0
  9
$DIMTOH
 70
               0
  9
$DIMSE1
 70
               0
  9
$DIMSE2
 70
               0
  9
$DIMTAD
 70
               1
  9
$DIMZIN
 70
              11
  9
$DIMBLK
  1
_DOT
  9
$DIMASO
 70
               1
  9
$DIMSHO
 70
               1
  9
$DIMPOST
  1
<>
  9
$DIMAPOST
  1
[]
  9
$DIMALT
 70
               0
  9
$DIMALTD
 70
               1
  9
$DIMALTF
 40
1.0
  9
$DIMLFAC
 40
1.0
  9
$DIMTOFL
 70
               0
  9
$DIMTVP
 40
0.0
  9
$DIMTIX
 70
               1
  9
$DIMSOXD
 70
               0
  9
$DIMSAH
 70
               0
  9
$DIMBLK1
  1

  9
$DIMBLK2
  1

  9
$DIMSTYLE
  2
tfrom線あり
  9
$DIMCLRD
 70
               0
  9
$DIMCLRE
 70
               0
  9
$DIMCLRT
 70
               0
  9
$DIMTFAC
 40
1.0
  9
$DIMGAP
 40
0.4999999999999999
  9
$DIMJUST
 70
               0
  9
$DIMSD1
 70
               0
  9
$DIMSD2
 70
               0
  9
$DIMTOLJ
 70
               1
  9
$DIMTZIN
 70
              11
  9
$DIMALTZ
 70
              11
  9
$DIMALTTZ
 70
              11
  9
$DIMUPT
 70
               0
  9
$DIMDEC
 70
               1
  9
$DIMTDEC
 70
               1
  9
$DIMALTU
 70
               2
  9
$DIMALTTD
 70
               2
  9
$DIMTXSTY
  7
ＭＳ ゴシック
  9
$DIMAUNIT
 70
               0
  9
$DIMADEC
 70
               2
  9
$DIMALTRND
 40
0.0
  9
$DIMAZIN
 70
               0
  9
$DIMDSEP
 70
              46
  9
$DIMATFIT
 70
               0
  9
$DIMFRAC
 70
               2
  9
$DIMLDRBLK
  1

  9
$DIMLUNIT
 70
               2
  9
$DIMLWD
 70
              -2
  9
$DIMLWE
 70
              -2
  9
$DIMTMOVE
 70
               0
  9
$LUNITS
 70
               2
  9
$LUPREC
 70
               4
  9
$SKETCHINC
 40
0.1
  9
$FILLETRAD
 40
0.0
  9
$AUNITS
 70
               0
  9
$AUPREC
 70
               0
  9
$MENU
  1
acad
  9
$ELEVATION
 40
0.0
  9
$PELEVATION
 40
0.0
  9
$THICKNESS
 40
0.0
  9
$LIMCHECK
 70
               0
  9
$CHAMFERA
 40
0.0
  9
$CHAMFERB
 40
0.0
  9
$CHAMFERC
 40
0.0
  9
$CHAMFERD
 40
0.0
  9
$SKPOLY
 70
               0
  9
$TDCREATE
 40
2455982.565543981
  9
$TDUCREATE
 40
0.000000000
  9
$TDUPDATE
 40
2455982.565543981
  9
$TDUUPDATE
 40
0.000000000
  9
$TDINDWG
 40
0.0000000000
  9
$TDUSRTIMER
 40
0.0000000000
  9
$USRTIMER
 70
               1
  9
$ANGBASE
 50
0.0
  9
$ANGDIR
 70
               0
  9
$PDMODE
 70
               1
  9
$PDSIZE
 40
-2.0
  9
$PLINEWID
 40
0.0
  9
$SPLFRAME
 70
               0
  9
$SPLINETYPE
 70
               6
  9
$SPLINESEGS
 70
               8
  9
$HANDSEED
  5
400
  9
$SURFTAB1
 70
               6
  9
$SURFTAB2
 70
               6
  9
$SURFTYPE
 70
               6
  9
$SURFU
 70
               6
  9
$SURFV
 70
               6
  9
$UCSBASE
  2

  9
$UCSNAME
  2

  9
$UCSORG
 10
0.0
 20
0.0
 30
0.0
  9
$UCSXDIR
 10
1.0
 20
0.0
 30
0.0
  9
$UCSYDIR
 10
0.0
 20
1.0
 30
0.0
  9
$UCSORTHOREF
  2

  9
$UCSORTHOVIEW
 70
               0
  9
$UCSORGTOP
 10
0.0
 20
0.0
 30
0.0
  9
$UCSORGBOTTOM
 10
0.0
 20
0.0
 30
0.0
  9
$UCSORGLEFT
 10
0.0
 20
0.0
 30
0.0
  9
$UCSORGRIGHT
 10
0.0
 20
0.0
 30
0.0
  9
$UCSORGFRONT
 10
0.0
 20
0.0
 30
0.0
  9
$UCSORGBACK
 10
0.0
 20
0.0
 30
0.0
  9
$PUCSBASE
  2

  9
$PUCSNAME
  2

  9
$PUCSORG
 10
0.0
 20
0.0
 30
0.0
  9
$PUCSXDIR
 10
1.0
 20
0.0
 30
0.0
  9
$PUCSYDIR
 10
0.0
 20
1.0
 30
0.0
  9
$PUCSORTHOREF
  2

  9
$PUCSORTHOVIEW
 70
               0
  9
$PUCSORGTOP
 10
0.0
 20
0.0
 30
0.0
  9
$PUCSORGBOTTOM
 10
0.0
 20
0.0
 30
0.0
  9
$PUCSORGLEFT
 10
0.0
 20
0.0
 30
0.0
  9
$PUCSORGRIGHT
 10
0.0
 20
0.0
 30
0.0
  9
$PUCSORGFRONT
 10
0.0
 20
0.0
 30
0.0
  9
$PUCSORGBACK
 10
0.0
 20
0.0
 30
0.0
  9
$USERI1
 70
               0
  9
$USERI2
 70
               0
  9
$USERI3
 70
               0
  9
$USERI4
 70
               0
  9
$USERI5
 70
               0
  9
$USERR1
 40
0.0
  9
$USERR2
 40
0.0
  9
$USERR3
 40
0.0
  9
$USERR4
 40
0.0
  9
$USERR5
 40
0.0
  9
$WORLDVIEW
 70
               1
  9
$SHADEDGE
 70
               3
  9
$SHADEDIF
 70
              70
  9
$TILEMODE
 70
               1
  9
$MAXACTVP
 70
              64
  9
$PINSBASE
 10
0.0
 20
0.0
 30
0.0
  9
$PLIMCHECK
 70
               0
  9
$PEXTMIN
 10
1.0000000000000000E+20
 20
1.0000000000000000E+20
 30
1.0000000000000000E+20
  9
$PEXTMAX
 10
-1.0000000000000000E+20
 20
-1.0000000000000000E+20
 30
-1.0000000000000000E+20
  9
$PLIMMIN
 10
0.0
 20
0.0
  9
$PLIMMAX
 10
12.0
 20
9.0
  9
$UNITMODE
 70
               0
  9
$VISRETAIN
 70
               0
  9
$PLINEGEN
 70
               1
  9
$PSLTSCALE
 70
               0
  9
$TREEDEPTH
 70
            3020
  9
$CMLSTYLE
  2
Standard
  9
$CMLJUST
 70
               0
  9
$CMLSCALE
 40
1.0
  9
$PROXYGRAPHICS
 70
               0
  9
$MEASUREMENT
 70
               1
  9
$CELWEIGHT
370
               0
  9
$ENDCAPS
280
               0
  9
$JOINSTYLE
280
               0
  9
$LWDISPLAY
290
               1
  9
$INSUNITS
 70
               4
  9
$HYPERLINKBASE
  1

  9
$STYLESHEET
  1

  9
$XEDIT
290
               1
  9
$CEPSNTYPE
380
               0
  9
$PSTYLEMODE
290
               1
  9
$FINGERPRINTGUID
  2

  9
$VERSIONGUID
  2

  9
$EXTNAMES
290
               1
  9
$PSVPSCALE
 40
0.0
  0
ENDSEC
  0
SECTION
  2
CLASSES
  0
CLASS
  1
LWPOLYLINE
  2
AcDbPolyline
  3
AutoCAD 2000
 90
        0
280
               0
281
               1
  0
CLASS
  1
IMAGE
  2
AcDbRasterImage
  3
ISM
 90
      127
280
               0
281
               1
  0
CLASS
  1
OLE2FRAME
  2
AcDbOle2Frame
  3
AutoCAD 2000
 90
        0
280
               0
281
               1
  0
CLASS
  1
HATCH
  2
AcDbHatch
  3
AutoCAD 2000
 90
        0
280
               0
281
               1
  0
CLASS
  1
DICTIONARYVAR
  2
AcDbDictionaryVar
  3
AutoCAD 2000
 90
        0
280
               0
281
               0
  0
CLASS
  1
RASTERVARIABLES
  2
AcDbRasterVariables
  3
ISM
 90
        0
280
               0
281
               0
  0
CLASS
  1
IMAGEDEF
  2
AcDbRasterImageDef
  3
ISM
 90
        0
280
               0
281
               0
  0
CLASS
  1
IMAGEDEF_REACTOR
  2
AcDbRasterImageDefReactor
  3
ISM
 90
        1
280
               0
281
               0
  0
CLASS
  1
IDBUFFER
  2
AcDbIdBuffer
  3
AutoCAD 2000
 90
        0
280
               0
281
               0
  0
CLASS
  1
SPATIAL_FILTER
  2
AcDbSpatialFilter
  3
AutoCAD 2000
 90
        0
280
               0
281
               0
  0
CLASS
  1
XRECORD
  2
AcDbXrecord
  3
AutoCAD 2000
 90
        0
280
               0
281
               0
  0
CLASS
  1
SORTENTSTABLE
  2
AcDbSortentsTable
  3
AutoCAD 2000
 90
        0
280
               0
281
               0
  0
CLASS
  1
LAYER_INDEX
  2
AcDbLayerIndex
  3
AutoCAD 2000
 90
        0
280
               0
281
               0
  0
CLASS
  1
SPATIAL_INDEX
  2
AcDbSpatialIndex
  3
AutoCAD 2000
 90
        0
280
               0
281
               0
  0
CLASS
  1
OBJECT_PTR
  2
CAseDLPNTableRecord
  3
"ASE-LPNTableRecord"
 90
        1
280
               0
281
               0
  0
CLASS
  1
LAYOUT
  2
AcDbLayout
  3
AutoCAD 2000
 90
        0
280
               0
281
               0
  0
CLASS
  1
PLOTSETTINGS
  2
AcDbPlotSettings
  3
AutoCAD 2000
 90
        0
280
               0
281
               0
  0
CLASS
  1
ACDBDICTIONARYWDFLT
  2
AcDbDictionaryWithDefault
  3
AutoCAD 2000
 90
        0
280
               0
281
               0
  0
CLASS
  1
ACDBPLACEHOLDER
  2
AcDbPlaceHolder
  3
AutoCAD 2000
 90
        0
280
               0
281
               0
  0
ENDSEC
  0
SECTION
  2
TABLES
  0
TABLE
  2
VPORT
  5
7
100
AcDbSymbolTable
 70
               1
  0
VPORT
  5
15
100
AcDbSymbolTableRecord
100
AcDbViewportTableRecord
  2
*ACTIVE
 70
               0
 10
0.0
 20
0.0
 11
1.0
 21
1.0
 12
0.0
 22
0.0
 13
0.0
 23
0.0
 14
1.0
 24
1.0
 15
0.0
 25
0.0
 16
0.0
 26
0.0
 36
1.0
 17
0.0
 27
0.0
 37
0.0
 40
2970.0
 41
0.688564
 42
50.0
 43
0.0
 44
0.0
 50
0.0
 51
0.0
 71
               0
 72
            2000
 73
               1
 74
               1
 75
               0
 76
               0
 77
               0
 78
               0
281
               0
 65
               0
110
0.0
120
0.0
130
0.0
111
1.0
121
0.0
131
0.0
112
0.0
122
1.0
132
0.0
345
0
346
0
 79
               0
146
0.0
  0
ENDTAB
  0
TABLE
  2
LTYPE
  5
4
100
AcDbSymbolTable
 70
              18
  0
LTYPE
  5
11
100
AcDbSymbolTableRecord
100
AcDbLinetypeTableRecord
  2
ByBlock
 70
              64
  3

 72
              65
 73
               0
 40
0.0
  0
LTYPE
  5
12
100
AcDbSymbolTableRecord
100
AcDbLinetypeTableRecord
  2
ByLayer
 70
              64
  3

 72
              65
 73
               0
 40
0.0
  0
LTYPE
  5
13
100
AcDbSymbolTableRecord
100
AcDbLinetypeTableRecord
  2
Continuous
 70
              64
  3
Solid line
 72
              65
 73
               0
 40
0.0
  0
LTYPE
  5
3D
100
AcDbSymbolTableRecord
100
AcDbLinetypeTableRecord
  2
STYLE_01
 70
               0
  3

 72
              65
 73
               4
 40
0.2125984251968504
 49
0.1181102362204724
 74
               0
 49
-0.031496062992126
 74
               0
 49
0.031496062992126
 74
               0
 49
-0.031496062992126
 74
               0
  0
LTYPE
  5
3E
100
AcDbSymbolTableRecord
100
AcDbLinetypeTableRecord
  2
STYLE_02
 70
               0
  3

 72
              65
 73
               2
 40
0.1279527559055118
 49
0.0688976377952756
 74
               0
 49
-0.0590551181102362
 74
               0
  0
LTYPE
  5
3F
100
AcDbSymbolTableRecord
100
AcDbLinetypeTableRecord
  2
STYLE_03
 70
               0
  3

 72
              65
 73
               2
 40
1.25
 49
1.0416400000000001
 74
               0
 49
-0.2083599999999999
 74
               0
  0
LTYPE
  5
40
100
AcDbSymbolTableRecord
100
AcDbLinetypeTableRecord
  2
STYLE_04
 70
               0
  3

 72
              65
 73
               2
 40
1.5277099999999999
 49
1.3194249999999998
 74
               0
 49
-0.208285
 74
               0
  0
LTYPE
  5
41
100
AcDbSymbolTableRecord
100
AcDbLinetypeTableRecord
  2
STYLE_05
 70
               0
  3

 72
              65
 73
               2
 40
0.20828
 49
0.069425
 74
               0
 49
-0.138855
 74
               0
  0
LTYPE
  5
42
100
AcDbSymbolTableRecord
100
AcDbLinetypeTableRecord
  2
STYLE_06
 70
               0
  3

 72
              65
 73
               4
 40
1.0416400000000001
 49
0.625
 74
               0
 49
-0.20828
 74
               0
 49
0.06943
 74
               0
 49
-0.13893
 74
               0
  0
LTYPE
  5
43
100
AcDbSymbolTableRecord
100
AcDbLinetypeTableRecord
  2
STYLE_07
 70
               0
  3

 72
              65
 73
               6
 40
1.875
 49
0.625
 74
               0
 49
-0.20828
 74
               0
 49
0.6250000000000001
 74
               0
 49
-0.2083599999999999
 74
               0
 49
0.06943
 74
               0
 49
-0.1389299999999999
 74
               0
  0
LTYPE
  5
44
100
AcDbSymbolTableRecord
100
AcDbLinetypeTableRecord
  2
STYLE_08
 70
               0
  3

 72
              65
 73
               6
 40
1.25
 49
0.625
 74
               0
 49
-0.20828
 74
               0
 49
0.06943
 74
               0
 49
-0.13893
 74
               0
 49
0.0694299999999999
 74
               0
 49
-0.13893
 74
               0
  0
LTYPE
  5
45
100
AcDbSymbolTableRecord
100
AcDbLinetypeTableRecord
  2
STYLE_09
 70
               0
  3

 72
              65
 73
               4
 40
5.0
 49
3.75
 74
               0
 49
-0.2777849999999998
 74
               0
 49
0.6944300000000003
 74
               0
 49
-0.2777849999999998
 74
               0
  0
LTYPE
  5
46
100
AcDbSymbolTableRecord
100
AcDbLinetypeTableRecord
  2
STYLE_10
 70
               0
  3

 72
              65
 73
               6
 40
5.9375
 49
3.75
 74
               0
 49
-0.2777849999999998
 74
               0
 49
0.6944300000000003
 74
               0
 49
-0.2777849999999998
 74
               0
 49
0.625
 74
               0
 49
-0.3125
 74
               0
  0
LTYPE
  5
47
100
AcDbSymbolTableRecord
100
AcDbLinetypeTableRecord
  2
STYLE_11
 70
               0
  3

 72
              65
 73
               2
 40
0.0694444881889764
 49
0.0347222440944882
 74
               0
 49
-0.0347222440944882
 74
               0
  0
LTYPE
  5
48
100
AcDbSymbolTableRecord
100
AcDbLinetypeTableRecord
  2
STYLE_12
 70
               0
  3

 72
              65
 73
               2
 40
0.3937007874015748
 49
0.1968503937007874
 74
               0
 49
-0.1968503937007874
 74
               0
  0
LTYPE
  5
49
100
AcDbSymbolTableRecord
100
AcDbLinetypeTableRecord
  2
STYLE_13
 70
               0
  3

 72
              65
 73
               2
 40
0.5905511811023622
 49
0.2952755905511811
 74
               0
 49
-0.2952755905511811
 74
               0
  0
LTYPE
  5
4A
100
AcDbSymbolTableRecord
100
AcDbLinetypeTableRecord
  2
STYLE_14
 70
               0
  3

 72
              65
 73
               2
 40
1.9685039370078738
 49
0.9842519685039369
 74
               0
 49
-0.9842519685039369
 74
               0
  0
LTYPE
  5
4B
100
AcDbSymbolTableRecord
100
AcDbLinetypeTableRecord
  2
STYLE_15
 70
               0
  3

 72
              65
 73
               2
 40
0.41664
 49
0.20828
 74
               0
 49
-0.20836
 74
               0
  0
ENDTAB
  0
TABLE
  2
LAYER
  5
2
100
AcDbSymbolTable
 70
               6
  0
LAYER
  5
14
100
AcDbSymbolTableRecord
100
AcDbLayerTableRecord
  2
0
 70
               0
 62
               7
  6
Continuous
290
               1
370
              -3
390
1D
  0
LAYER
  5
4C
100
AcDbSymbolTableRecord
100
AcDbLayerTableRecord
  2
Defpoints
 70
               0
 62
               7
  6
Continuous
290
               0
370
              -3
390
1D
  0
LAYER
  5
4D
100
AcDbSymbolTableRecord
100
AcDbLayerTableRecord
  2
overflow
 70
               0
 62
               7
  6
Continuous
290
               1
370
              -3
390
1D
  0
LAYER
  5
4E
100
AcDbSymbolTableRecord
100
AcDbLayerTableRecord
  2
template
 70
               0
 62
               7
  6
Continuous
290
               1
370
              -3
390
1D
  0
LAYER
  5
4F
100
AcDbSymbolTableRecord
100
AcDbLayerTableRecord
  2
notes
 70
               0
 62
               7
  6
Continuous
290
               1
370
              -3
390
1D
  0
LAYER
  5
50
100
AcDbSymbolTableRecord
100
AcDbLayerTableRecord
  2
GAR70-0102
 70
               0
 62
               7
  6
Continuous
290
               1
370
              -3
390
1D
  0
ENDTAB
  0
TABLE
  2
STYLE
  5
3
100
AcDbSymbolTable
 70
               3
  0
STYLE
  5
17
100
AcDbSymbolTableRecord
100
AcDbTextStyleTableRecord
  2
Standard
 70
               0
 40
0.0
 41
1.0
 50
0.0
 71
               0
 42
0.0
  3
txt
  4
BIGFONT.SHX
  0
STYLE
  5
3B
100
AcDbSymbolTableRecord
100
AcDbTextStyleTableRecord
  2
MS UI Gothic
 70
               0
 40
0.0
 41
1.0
 50
0.0
 71
               0
 42
0.0
  3

  4
MS UI Gothic
1001
ACAD
1000
MS UI Gothic
1071
        0
  0
STYLE
  5
3C
100
AcDbSymbolTableRecord
100
AcDbTextStyleTableRecord
  2
ＭＳ ゴシック
 70
               0
 40
0.0
 41
1.0
 50
0.0
 71
               0
 42
0.0
  3

  4
ＭＳ ゴシック
1001
ACAD
1000
ＭＳ ゴシック
1071
        0
  0
ENDTAB
  0
TABLE
  2
VIEW
  5
5
100
AcDbSymbolTable
 70
               0
  0
ENDTAB
  0
TABLE
  2
UCS
  5
6
100
AcDbSymbolTable
 70
               0
  0
ENDTAB
  0
TABLE
  2
APPID
  5
8
100
AcDbSymbolTable
 70
               1
  0
APPID
  5
16
100
AcDbSymbolTableRecord
100
AcDbRegAppTableRecord
  2
ACAD
 70
               0
  0
ENDTAB
  0
TABLE
  2
DIMSTYLE
  5
9
100
AcDbSymbolTable
 70
               3
100
AcDbDimStyleTable
 71
               0
  0
DIMSTYLE
105
18
100
AcDbSymbolTableRecord
100
AcDbDimStyleTableRecord
  2
Standard
 70
               0
  3

  4

 40
1.0
 41
0.18
 42
0.0625
 43
0.38
 44
0.18
 45
0.0
 46
0.0
 47
0.0
 48
0.0
 71
               0
 72
               0
 73
               1
 74
               1
 75
               0
 76
               0
 77
               0
 78
               0
 79
               0
140
0.18
141
0.09
142
0.0
143
25.399999999999999
144
1.0
145
0.0
146
1.0
147
0.09
148
0.0
170
               0
171
               2
172
               0
173
               0
174
               0
175
               0
176
               0
177
               0
178
               0
179
               0
271
               4
272
               4
273
               2
274
               2
275
               0
276
               0
277
               2
278
              46
279
               0
280
               0
281
               0
282
               0
283
               1
284
               0
285
               0
286
               0
288
               0
289
               3
340
17
341
0
342
0
343
0
344
0
371
              -2
372
              -2
  0
DIMSTYLE
105
59
100
AcDbSymbolTableRecord
100
AcDbDimStyleTableRecord
  2
Tform線あり
 70
               0
  3
<>
  4
[]
 40
1.0
 41
3.999755859375
 42
24.999999999999996
 43
0.9999999999999999
 44
0.0
 45
0.0
 46
0.0
 47
0.0
 48
0.0
 71
               0
 72
               0
 73
               0
 74
               0
 75
               0
 76
               0
 77
               1
 78
              11
 79
               0
140
24.432617187500004
141
0.0
142
0.0
143
1.0
144
1.0
145
0.0
146
1.0
147
0.4999999999999999
148
0.0
170
               0
171
               1
172
               0
173
               0
174
               1
175
               0
176
               0
177
               0
178
               0
179
               2
271
               1
272
               1
273
               2
274
               2
275
               0
276
               2
277
               2
278
              46
279
               0
280
               0
281
               0
282
               0
283
               1
284
              11
285
              11
286
              11
288
               0
289
               0
340
3C
341
51
342
51
343
0
344
0
371
              -2
372
              -2
  0
DIMSTYLE
105
5A
100
AcDbSymbolTableRecord
100
AcDbDimStyleTableRecord
  2
tfrom線あり
 70
               0
  3
<>
  4
[]
 40
1.0
 41
3.999755859375
 42
24.999999999999996
 43
0.9999999999999999
 44
0.0
 45
0.0
 46
0.0
 47
0.0
 48
0.0
 71
               0
 72
               0
 73
               0
 74
               0
 75
               0
 76
               0
 77
               1
 78
              11
 79
               0
140
24.432617187500004
141
0.0
142
0.0
143
1.0
144
1.0
145
0.0
146
1.0
147
0.4999999999999999
148
0.0
170
               0
171
               1
172
               0
173
               0
174
               1
175
               0
176
               0
177
               0
178
               0
179
               2
271
               1
272
               1
273
               2
274
               2
275
               0
276
               2
277
               2
278
              46
279
               0
280
               0
281
               0
282
               0
283
               1
284
              11
285
              11
286
              11
288
               0
289
               0
340
3C
341
51
342
51
343
0
344
0
371
              -2
372
              -2
  0
ENDTAB
  0
TABLE
  2
BLOCK_RECORD
  5
1
100
AcDbSymbolTable
 70
              25
  0
BLOCK_RECORD
  5
A
100
AcDbSymbolTableRecord
100
AcDbBlockTableRecord
  2
*MODEL_SPACE
340
20
  0
BLOCK_RECORD
  5
B
100
AcDbSymbolTableRecord
100
AcDbBlockTableRecord
  2
*PAPER_SPACE
340
21
  0
BLOCK_RECORD
  5
51
100
AcDbSymbolTableRecord
100
AcDbBlockTableRecord
  2
_DOT
340
0
  0
BLOCK_RECORD
  5
23
100
AcDbSymbolTableRecord
100
AcDbBlockTableRecord
  2
*D1
340
0
  0
BLOCK_RECORD
  5
24
100
AcDbSymbolTableRecord
100
AcDbBlockTableRecord
  2
*D2
340
0
  0
BLOCK_RECORD
  5
25
100
AcDbSymbolTableRecord
100
AcDbBlockTableRecord
  2
*D3
340
0
  0
BLOCK_RECORD
  5
26
100
AcDbSymbolTableRecord
100
AcDbBlockTableRecord
  2
*D4
340
0
  0
BLOCK_RECORD
  5
27
100
AcDbSymbolTableRecord
100
AcDbBlockTableRecord
  2
*D5
340
0
  0
BLOCK_RECORD
  5
28
100
AcDbSymbolTableRecord
100
AcDbBlockTableRecord
  2
*D6
340
0
  0
BLOCK_RECORD
  5
29
100
AcDbSymbolTableRecord
100
AcDbBlockTableRecord
  2
グループ
340
0
102
{BLKREFS
331
2DC
102
}
  0
BLOCK_RECORD
  5
2A
100
AcDbSymbolTableRecord
100
AcDbBlockTableRecord
  2
*D8
340
0
  0
BLOCK_RECORD
  5
2B
100
AcDbSymbolTableRecord
100
AcDbBlockTableRecord
  2
*D9
340
0
  0
BLOCK_RECORD
  5
2C
100
AcDbSymbolTableRecord
100
AcDbBlockTableRecord
  2
*D10
340
0
  0
BLOCK_RECORD
  5
2D
100
AcDbSymbolTableRecord
100
AcDbBlockTableRecord
  2
*D11
340
0
  0
BLOCK_RECORD
  5
2E
100
AcDbSymbolTableRecord
100
AcDbBlockTableRecord
  2
*D12
340
0
  0
BLOCK_RECORD
  5
2F
100
AcDbSymbolTableRecord
100
AcDbBlockTableRecord
  2
*D13
340
0
  0
BLOCK_RECORD
  5
30
100
AcDbSymbolTableRecord
100
AcDbBlockTableRecord
  2
*D14
340
0
  0
BLOCK_RECORD
  5
31
100
AcDbSymbolTableRecord
100
AcDbBlockTableRecord
  2
*D15
340
0
  0
BLOCK_RECORD
  5
32
100
AcDbSymbolTableRecord
100
AcDbBlockTableRecord
  2
*D16
340
0
  0
BLOCK_RECORD
  5
33
100
AcDbSymbolTableRecord
100
AcDbBlockTableRecord
  2
*D17
340
0
  0
BLOCK_RECORD
  5
34
100
AcDbSymbolTableRecord
100
AcDbBlockTableRecord
  2
*D18
340
0
  0
BLOCK_RECORD
  5
35
100
AcDbSymbolTableRecord
100
AcDbBlockTableRecord
  2
*D19
340
0
  0
BLOCK_RECORD
  5
36
100
AcDbSymbolTableRecord
100
AcDbBlockTableRecord
  2
*D20
340
0
  0
BLOCK_RECORD
  5
37
100
AcDbSymbolTableRecord
100
AcDbBlockTableRecord
  2
*D21
340
0
  0
BLOCK_RECORD
  5
38
100
AcDbSymbolTableRecord
100
AcDbBlockTableRecord
  2
グループ-1
340
0
102
{BLKREFS
331
3DF
102
}
  0
BLOCK_RECORD
  5
39
100
AcDbSymbolTableRecord
100
AcDbBlockTableRecord
  2
グループ-2
340
0
102
{BLKREFS
331
3E0
102
}
  0
BLOCK_RECORD
  5
3A
100
AcDbSymbolTableRecord
100
AcDbBlockTableRecord
  2
グループ-3
340
0
102
{BLKREFS
331
3E1
102
}
  0
ENDTAB
  0
ENDSEC
  0
SECTION
  2
BLOCKS
  0
BLOCK
  5
D
100
AcDbEntity
  8
0
390
0
100
AcDbBlockBegin
  2
*MODEL_SPACE
 70
               0
 10
0.0
 20
0.0
 30
0.0
  3
*MODEL_SPACE
  1

  0
ENDBLK
  5
E
100
AcDbEntity
  8
0
390
0
100
AcDbBlockEnd
  0
BLOCK
  5
F
100
AcDbEntity
 67
               1
  8
0
390
0
100
AcDbBlockBegin
  2
*PAPER_SPACE
 70
               0
 10
0.0
 20
0.0
 30
0.0
  3
*PAPER_SPACE
  1

  0
ENDBLK
  5
10
100
AcDbEntity
 67
               1
  8
0
390
0
100
AcDbBlockEnd
  0
BLOCK
  5
52
100
AcDbEntity
  8
0
390
0
100
AcDbBlockBegin
  2
_DOT
 70
               0
 10
0.0
 20
0.0
 30
0.0
  3
_DOT
  1

  0
POLYLINE
  5
53
100
AcDbEntity
  8
0
370
              -2
390
0
  6
ByBlock
 62
               0
100
AcDb2dPolyline
 66
               1
 10
0.0
 20
0.0
 30
0.0
 70
               1
 40
0.5
 41
0.5
  0
VERTEX
  5
54
100
AcDbEntity
  8
0
370
              -2
390
0
  6
ByBlock
 62
               0
100
AcDbVertex
100
AcDb2dVertex
 10
-0.25
 20
0.0
 30
0.0
 42
1.0
  0
VERTEX
  5
55
100
AcDbEntity
  8
0
370
              -2
390
0
  6
ByBlock
 62
               0
100
AcDbVertex
100
AcDb2dVertex
 10
0.25
 20
0.0
 30
0.0
 42
1.0
  0
SEQEND
  5
56
100
AcDbEntity
  8
0
390
0
  0
LINE
  5
57
100
AcDbEntity
  8
0
370
              -2
390
0
  6
ByBlock
 62
               0
100
AcDbLine
 10
-0.5
 20
0.0
 30
0.0
 11
-1.0
 21
0.0
 31
0.0
  0
ENDBLK
  5
58
100
AcDbEntity
  8
0
390
0
100
AcDbBlockEnd
  0
BLOCK
  5
5B
100
AcDbEntity
  8
overflow
390
0
100
AcDbBlockBegin
  2
*D1
 70
               1
 10
0.0
 20
0.0
 30
0.0
  3
*D1
  1

  0
LINE
  5
5C
100
AcDbEntity
  8
0
370
              -2
390
0
  6
Continuous
 62
               0
100
AcDbLine
 10
709.87654170302449
 20
566.37327765152781
 30
0.0
 11
737.04075273760964
 21
566.37327765152781
 31
0.0
  0
LINE
  5
5D
100
AcDbEntity
  8
0
370
              -2
390
0
  6
Continuous
 62
               0
100
AcDbLine
 10
698.81529323515451
 20
528.37327765152804
 30
0.0
 11
737.04075273760964
 21
528.37327765152804
 31
0.0
  0
LINE
  5
5E
100
AcDbEntity
  8
0
370
              -2
390
0
  6
Continuous
 62
               0
100
AcDbLine
 10
737.04075273760964
 20
566.37327765152781
 30
0.0
 11
737.04075273760964
 21
528.37327765152804
 31
0.0
  0
CIRCLE
  5
5F
102
{ACAD_REACTORS
330
60
102
}
100
AcDbEntity
  8
0
370
              -2
390
0
  6
Continuous
 62
               0
100
AcDbCircle
 10
737.04075273760964
 20
566.37327765152781
 30
0.0
 40
1.9998779296875
  0
HATCH
  5
60
100
AcDbEntity
  8
0
370
              -2
390
0
  6
Continuous
 62
               0
100
AcDbHatch
 10
0.0
 20
0.0
 30
0.0
210
0.0
220
0.0
230
1.0
  2
SOLID
 70
               1
 71
               1
 91
        1
 92
        1
 93
        1
 72
               2
 10
737.04075273760964
 20
566.37327765152781
 40
1.9998779296875
 50
0.0
 51
360.0
 73
               0
 97
        1
330
5F
 75
               0
 76
               1
 98
        1
 10
0.0
 20
0.0
  0
CIRCLE
  5
61
102
{ACAD_REACTORS
330
62
102
}
100
AcDbEntity
  8
0
370
              -2
390
0
  6
Continuous
 62
               0
100
AcDbCircle
 10
737.04075273760964
 20
528.37327765152804
 30
0.0
 40
1.9998779296875
  0
HATCH
  5
62
100
AcDbEntity
  8
0
370
              -2
390
0
  6
Continuous
 62
               0
100
AcDbHatch
 10
0.0
 20
0.0
 30
0.0
210
0.0
220
0.0
230
1.0
  2
SOLID
 70
               1
 71
               1
 91
        1
 92
        1
 93
        1
 72
               2
 10
737.04075273760964
 20
528.37327765152804
 40
1.9998779296875
 50
0.0
 51
360.0
 73
               0
 97
        1
330
61
 75
               0
 76
               1
 98
        1
 10
0.0
 20
0.0
  0
MTEXT
  5
63
100
AcDbEntity
  8
0
390
0
 62
               0
100
AcDbMText
 10
705.6631355501097
 20
531.49827765152793
 30
0.0
 40
24.432617187500004
 41
0.0
 71
               1
 72
               1
  1
38
  7
ＭＳ ゴシック
 11
0.0
 21
1.0
 31
0.0
 73
               1
 44
0.7828267384257843
  0
POINT
  5
64
100
AcDbEntity
  8
Defpoints
370
               0
390
0
 62
               0
100
AcDbPoint
 10
673.81529323515451
 20
528.37327765152804
 30
0.0
  0
POINT
  5
65
100
AcDbEntity
  8
Defpoints
370
               0
390
0
 62
               0
100
AcDbPoint
 10
684.87654170302449
 20
566.37327765152781
 30
0.0
  0
POINT
  5
66
100
AcDbEntity
  8
Defpoints
370
               0
390
0
 62
               0
100
AcDbPoint
 10
737.04075273760964
 20
566.37327765152781
 30
0.0
  0
ENDBLK
  5
67
100
AcDbEntity
  8
overflow
390
0
100
AcDbBlockEnd
  0
BLOCK
  5
68
100
AcDbEntity
  8
overflow
390
0
100
AcDbBlockBegin
  2
*D2
 70
               1
 10
0.0
 20
0.0
 30
0.0
  3
*D2
  1

  0
LINE
  5
69
100
AcDbEntity
  8
0
370
              -2
390
0
  6
Continuous
 62
               0
100
AcDbLine
 10
592.86246651477086
 20
566.37327765152781
 30
0.0
 11
341.66402817000341
 21
566.37327765152781
 31
0.0
  0
LINE
  5
6A
100
AcDbEntity
  8
0
370
              -2
390
0
  6
Continuous
 62
               0
100
AcDbLine
 10
369.03514480429038
 20
816.41846662976354
 30
0.0
 11
341.66402817000341
 21
816.41846662976354
 31
0.0
  0
LINE
  5
6B
100
AcDbEntity
  8
0
370
              -2
390
0
  6
Continuous
 62
               0
100
AcDbLine
 10
341.66402817000341
 20
566.37327765152781
 30
0.0
 11
341.66402817000341
 21
816.41846662976354
 31
0.0
  0
CIRCLE
  5
6C
102
{ACAD_REACTORS
330
6D
102
}
100
AcDbEntity
  8
0
370
              -2
390
0
  6
Continuous
 62
               0
100
AcDbCircle
 10
341.66402817000341
 20
566.37327765152781
 30
0.0
 40
1.9998779296875
  0
HATCH
  5
6D
100
AcDbEntity
  8
0
370
              -2
390
0
  6
Continuous
 62
               0
100
AcDbHatch
 10
0.0
 20
0.0
 30
0.0
210
0.0
220
0.0
230
1.0
  2
SOLID
 70
               1
 71
               1
 91
        1
 92
        1
 93
        1
 72
               2
 10
341.66402817000341
 20
566.37327765152781
 40
1.9998779296875
 50
0.0
 51
360.0
 73
               0
 97
        1
330
6C
 75
               0
 76
               1
 98
        1
 10
0.0
 20
0.0
  0
CIRCLE
  5
6E
102
{ACAD_REACTORS
330
6F
102
}
100
AcDbEntity
  8
0
370
              -2
390
0
  6
Continuous
 62
               0
100
AcDbCircle
 10
341.66402817000341
 20
816.41846662976354
 30
0.0
 40
1.9998779296875
  0
HATCH
  5
6F
100
AcDbEntity
  8
0
370
              -2
390
0
  6
Continuous
 62
               0
100
AcDbHatch
 10
0.0
 20
0.0
 30
0.0
210
0.0
220
0.0
230
1.0
  2
SOLID
 70
               1
 71
               1
 91
        1
 92
        1
 93
        1
 72
               2
 10
341.66402817000341
 20
816.41846662976354
 40
1.9998779296875
 50
0.0
 51
360.0
 73
               0
 97
        1
330
6E
 75
               0
 76
               1
 98
        1
 10
0.0
 20
0.0
  0
MTEXT
  5
70
100
AcDbEntity
  8
0
390
0
 62
               0
100
AcDbMText
 10
310.28641098250341
 20
572.33337214064568
 30
0.0
 40
24.432617187500004
 41
0.0
 71
               1
 72
               1
  1
min.85～max.250
  7
ＭＳ ゴシック
 11
0.0
 21
1.0
 31
0.0
 73
               1
 44
0.7828267384257843
  0
POINT
  5
71
100
AcDbEntity
  8
Defpoints
370
               0
390
0
 62
               0
100
AcDbPoint
 10
394.03514480429038
 20
816.41846662976354
 30
0.0
  0
POINT
  5
72
100
AcDbEntity
  8
Defpoints
370
               0
390
0
 62
               0
100
AcDbPoint
 10
617.86246651477086
 20
566.37327765152781
 30
0.0
  0
POINT
  5
73
100
AcDbEntity
  8
Defpoints
370
               0
390
0
 62
               0
100
AcDbPoint
 10
341.66402817000341
 20
566.37327765152781
 30
0.0
  0
ENDBLK
  5
74
100
AcDbEntity
  8
overflow
390
0
100
AcDbBlockEnd
  0
BLOCK
  5
75
100
AcDbEntity
  8
overflow
390
0
100
AcDbBlockBegin
  2
*D3
 70
               1
 10
0.0
 20
0.0
 30
0.0
  3
*D3
  1

  0
LINE
  5
76
100
AcDbEntity
  8
0
370
              -2
390
0
  6
Continuous
 62
               0
100
AcDbLine
 10
651.0863451623236
 20
503.37327765152804
 30
0.0
 11
651.0863451623236
 21
431.99999999999989
 31
0.0
  0
LINE
  5
77
100
AcDbEntity
  8
0
370
              -2
390
0
  6
Continuous
 62
               0
100
AcDbLine
 10
396.0733016466117
 20
553.42120865732011
 30
0.0
 11
396.0733016466117
 21
431.99999999999989
 31
0.0
  0
LINE
  5
78
100
AcDbEntity
  8
0
370
              -2
390
0
  6
Continuous
 62
               0
100
AcDbLine
 10
651.0863451623236
 20
431.99999999999989
 30
0.0
 11
396.0733016466117
 21
431.99999999999989
 31
0.0
  0
CIRCLE
  5
79
102
{ACAD_REACTORS
330
7A
102
}
100
AcDbEntity
  8
0
370
              -2
390
0
  6
Continuous
 62
               0
100
AcDbCircle
 10
651.0863451623236
 20
431.99999999999989
 30
0.0
 40
1.9998779296875
  0
HATCH
  5
7A
100
AcDbEntity
  8
0
370
              -2
390
0
  6
Continuous
 62
               0
100
AcDbHatch
 10
0.0
 20
0.0
 30
0.0
210
0.0
220
0.0
230
1.0
  2
SOLID
 70
               1
 71
               1
 91
        1
 92
        1
 93
        1
 72
               2
 10
651.0863451623236
 20
431.99999999999989
 40
1.9998779296875
 50
0.0
 51
360.0
 73
               0
 97
        1
330
79
 75
               0
 76
               1
 98
        1
 10
0.0
 20
0.0
  0
CIRCLE
  5
7B
102
{ACAD_REACTORS
330
7C
102
}
100
AcDbEntity
  8
0
370
              -2
390
0
  6
Continuous
 62
               0
100
AcDbCircle
 10
396.0733016466117
 20
431.99999999999989
 30
0.0
 40
1.9998779296875
  0
HATCH
  5
7C
100
AcDbEntity
  8
0
370
              -2
390
0
  6
Continuous
 62
               0
100
AcDbHatch
 10
0.0
 20
0.0
 30
0.0
210
0.0
220
0.0
230
1.0
  2
SOLID
 70
               1
 71
               1
 91
        1
 92
        1
 93
        1
 72
               2
 10
396.0733016466117
 20
431.99999999999989
 40
1.9998779296875
 50
0.0
 51
360.0
 73
               0
 97
        1
330
7B
 75
               0
 76
               1
 98
        1
 10
0.0
 20
0.0
  0
MTEXT
  5
7D
100
AcDbEntity
  8
0
390
0
 62
               0
100
AcDbMText
 10
404.51732340446762
 20
463.37761718749988
 30
0.0
 40
24.432617187500004
 41
0.0
 71
               1
 72
               1
  1
min.75～max.255
  7
ＭＳ ゴシック
 73
               1
 44
0.7828267384257843
  0
POINT
  5
7E
100
AcDbEntity
  8
Defpoints
370
               0
390
0
 62
               0
100
AcDbPoint
 10
396.0733016466117
 20
578.42120865732011
 30
0.0
  0
POINT
  5
7F
100
AcDbEntity
  8
Defpoints
370
               0
390
0
 62
               0
100
AcDbPoint
 10
651.0863451623236
 20
528.37327765152804
 30
0.0
  0
POINT
  5
80
100
AcDbEntity
  8
Defpoints
370
               0
390
0
 62
               0
100
AcDbPoint
 10
651.0863451623236
 20
431.99999999999989
 30
0.0
  0
ENDBLK
  5
81
100
AcDbEntity
  8
overflow
390
0
100
AcDbBlockEnd
  0
BLOCK
  5
82
100
AcDbEntity
  8
overflow
390
0
100
AcDbBlockBegin
  2
*D4
 70
               1
 10
0.0
 20
0.0
 30
0.0
  3
*D4
  1

  0
LINE
  5
83
100
AcDbEntity
  8
0
370
              -2
390
0
  6
Continuous
 62
               0
100
AcDbLine
 10
709.87654170302449
 20
566.37327765152781
 30
0.0
 11
737.04075273760964
 21
566.37327765152781
 31
0.0
  0
LINE
  5
84
100
AcDbEntity
  8
0
370
              -2
390
0
  6
Continuous
 62
               0
100
AcDbLine
 10
711.0989636229433
 20
626.34089494871534
 30
0.0
 11
737.04075273760964
 21
626.34089494871534
 31
0.0
  0
LINE
  5
85
100
AcDbEntity
  8
0
370
              -2
390
0
  6
Continuous
 62
               0
100
AcDbLine
 10
737.04075273760964
 20
566.37327765152781
 30
0.0
 11
737.04075273760964
 21
626.34089494871534
 31
0.0
  0
CIRCLE
  5
86
102
{ACAD_REACTORS
330
87
102
}
100
AcDbEntity
  8
0
370
              -2
390
0
  6
Continuous
 62
               0
100
AcDbCircle
 10
737.04075273760964
 20
566.37327765152781
 30
0.0
 40
1.9998779296875
  0
HATCH
  5
87
100
AcDbEntity
  8
0
370
              -2
390
0
  6
Continuous
 62
               0
100
AcDbHatch
 10
0.0
 20
0.0
 30
0.0
210
0.0
220
0.0
230
1.0
  2
SOLID
 70
               1
 71
               1
 91
        1
 92
        1
 93
        1
 72
               2
 10
737.04075273760964
 20
566.37327765152781
 40
1.9998779296875
 50
0.0
 51
360.0
 73
               0
 97
        1
330
86
 75
               0
 76
               1
 98
        1
 10
0.0
 20
0.0
  0
CIRCLE
  5
88
102
{ACAD_REACTORS
330
89
102
}
100
AcDbEntity
  8
0
370
              -2
390
0
  6
Continuous
 62
               0
100
AcDbCircle
 10
737.04075273760964
 20
626.34089494871534
 30
0.0
 40
1.9998779296875
  0
HATCH
  5
89
100
AcDbEntity
  8
0
370
              -2
390
0
  6
Continuous
 62
               0
100
AcDbHatch
 10
0.0
 20
0.0
 30
0.0
210
0.0
220
0.0
230
1.0
  2
SOLID
 70
               1
 71
               1
 91
        1
 92
        1
 93
        1
 72
               2
 10
737.04075273760964
 20
626.34089494871534
 40
1.9998779296875
 50
0.0
 51
360.0
 73
               0
 97
        1
330
88
 75
               0
 76
               1
 98
        1
 10
0.0
 20
0.0
  0
MTEXT
  5
8A
100
AcDbEntity
  8
0
390
0
 62
               0
100
AcDbMText
 10
705.6631355501097
 20
580.48208630012164
 30
0.0
 40
24.432617187500004
 41
0.0
 71
               1
 72
               1
  1
60
  7
ＭＳ ゴシック
 11
0.0
 21
1.0
 31
0.0
 73
               1
 44
0.7828267384257843
  0
POINT
  5
8B
100
AcDbEntity
  8
Defpoints
370
               0
390
0
 62
               0
100
AcDbPoint
 10
686.0989636229433
 20
626.34089494871534
 30
0.0
  0
POINT
  5
8C
100
AcDbEntity
  8
Defpoints
370
               0
390
0
 62
               0
100
AcDbPoint
 10
684.87654170302449
 20
566.37327765152781
 30
0.0
  0
POINT
  5
8D
100
AcDbEntity
  8
Defpoints
370
               0
390
0
 62
               0
100
AcDbPoint
 10
737.04075273760964
 20
566.37327765152781
 30
0.0
  0
ENDBLK
  5
8E
100
AcDbEntity
  8
overflow
390
0
100
AcDbBlockEnd
  0
BLOCK
  5
8F
100
AcDbEntity
  8
overflow
390
0
100
AcDbBlockBegin
  2
*D5
 70
               1
 10
0.0
 20
0.0
 30
0.0
  3
*D5
  1

  0
LINE
  5
90
100
AcDbEntity
  8
0
370
              -2
390
0
  6
Continuous
 62
               0
100
AcDbLine
 10
711.0989636229433
 20
626.34089494871534
 30
0.0
 11
737.04075273760964
 21
626.34089494871534
 31
0.0
  0
LINE
  5
91
100
AcDbEntity
  8
0
370
              -2
390
0
  6
Continuous
 62
               0
100
AcDbLine
 10
710.35457426883522
 20
648.32828286400763
 30
0.0
 11
737.04075273760964
 21
648.32828286400763
 31
0.0
  0
LINE
  5
92
100
AcDbEntity
  8
0
370
              -2
390
0
  6
Continuous
 62
               0
100
AcDbLine
 10
737.04075273760964
 20
648.32828286400763
 30
0.0
 11
737.04075273760964
 21
690.65768406338168
 31
0.0
  0
LINE
  5
93
100
AcDbEntity
  8
0
370
              -2
390
0
  6
Continuous
 62
               0
100
AcDbLine
 10
737.04075273760964
 20
626.34089494871534
 30
0.0
 11
737.04075273760964
 21
648.32828286400763
 31
0.0
  0
CIRCLE
  5
94
102
{ACAD_REACTORS
330
95
102
}
100
AcDbEntity
  8
0
370
              -2
390
0
  6
Continuous
 62
               0
100
AcDbCircle
 10
737.04075273760964
 20
626.34089494871534
 30
0.0
 40
1.9998779296875
  0
HATCH
  5
95
100
AcDbEntity
  8
0
370
              -2
390
0
  6
Continuous
 62
               0
100
AcDbHatch
 10
0.0
 20
0.0
 30
0.0
210
0.0
220
0.0
230
1.0
  2
SOLID
 70
               1
 71
               1
 91
        1
 92
        1
 93
        1
 72
               2
 10
737.04075273760964
 20
626.34089494871534
 40
1.9998779296875
 50
0.0
 51
360.0
 73
               0
 97
        1
330
94
 75
               0
 76
               1
 98
        1
 10
0.0
 20
0.0
  0
CIRCLE
  5
96
102
{ACAD_REACTORS
330
97
102
}
100
AcDbEntity
  8
0
370
              -2
390
0
  6
Continuous
 62
               0
100
AcDbCircle
 10
737.04075273760964
 20
648.32828286400763
 30
0.0
 40
1.9998779296875
  0
HATCH
  5
97
100
AcDbEntity
  8
0
370
              -2
390
0
  6
Continuous
 62
               0
100
AcDbHatch
 10
0.0
 20
0.0
 30
0.0
210
0.0
220
0.0
230
1.0
  2
SOLID
 70
               1
 71
               1
 91
        1
 92
        1
 93
        1
 72
               2
 10
737.04075273760964
 20
648.32828286400763
 40
1.9998779296875
 50
0.0
 51
360.0
 73
               0
 97
        1
330
96
 75
               0
 76
               1
 98
        1
 10
0.0
 20
0.0
  0
MTEXT
  5
98
100
AcDbEntity
  8
0
390
0
 62
               0
100
AcDbMText
 10
705.6631355501097
 20
658.90768406338168
 30
0.0
 40
24.432617187500004
 41
0.0
 71
               1
 72
               1
  1
22
  7
ＭＳ ゴシック
 11
0.0
 21
1.0
 31
0.0
 73
               1
 44
0.7828267384257843
  0
POINT
  5
99
100
AcDbEntity
  8
Defpoints
370
               0
390
0
 62
               0
100
AcDbPoint
 10
685.35457426883522
 20
648.32828286400763
 30
0.0
  0
POINT
  5
9A
100
AcDbEntity
  8
Defpoints
370
               0
390
0
 62
               0
100
AcDbPoint
 10
686.0989636229433
 20
626.34089494871534
 30
0.0
  0
POINT
  5
9B
100
AcDbEntity
  8
Defpoints
370
               0
390
0
 62
               0
100
AcDbPoint
 10
737.04075273760964
 20
626.34089494871534
 30
0.0
  0
ENDBLK
  5
9C
100
AcDbEntity
  8
overflow
390
0
100
AcDbBlockEnd
  0
BLOCK
  5
9D
100
AcDbEntity
  8
overflow
390
0
100
AcDbBlockBegin
  2
*D6
 70
               1
 10
0.0
 20
0.0
 30
0.0
  3
*D6
  1

  0
LINE
  5
9E
100
AcDbEntity
  8
0
370
              -2
390
0
  6
Continuous
 62
               0
100
AcDbLine
 10
628.35739708949268
 20
503.37327765152804
 30
0.0
 11
628.35739708949268
 21
478.37327765152804
 31
0.0
  0
LINE
  5
9F
100
AcDbEntity
  8
0
370
              -2
390
0
  6
Continuous
 62
               0
100
AcDbLine
 10
673.81529323515451
 20
503.37327765152804
 30
0.0
 11
673.81529323515451
 21
478.37327765152804
 31
0.0
  0
LINE
  5
A0
100
AcDbEntity
  8
0
370
              -2
390
0
  6
Continuous
 62
               0
100
AcDbLine
 10
673.81529323515451
 20
478.37327765152804
 30
0.0
 11
781.0360964338995
 21
478.37327765152804
 31
0.0
  0
LINE
  5
A1
100
AcDbEntity
  8
0
370
              -2
390
0
  6
Continuous
 62
               0
100
AcDbLine
 10
628.35739708949268
 20
478.37327765152804
 30
0.0
 11
673.81529323515451
 21
478.37327765152804
 31
0.0
  0
CIRCLE
  5
A2
102
{ACAD_REACTORS
330
A3
102
}
100
AcDbEntity
  8
0
370
              -2
390
0
  6
Continuous
 62
               0
100
AcDbCircle
 10
628.35739708949268
 20
478.37327765152804
 30
0.0
 40
1.9998779296875
  0
HATCH
  5
A3
100
AcDbEntity
  8
0
370
              -2
390
0
  6
Continuous
 62
               0
100
AcDbHatch
 10
0.0
 20
0.0
 30
0.0
210
0.0
220
0.0
230
1.0
  2
SOLID
 70
               1
 71
               1
 91
        1
 92
        1
 93
        1
 72
               2
 10
628.35739708949268
 20
478.37327765152804
 40
1.9998779296875
 50
0.0
 51
360.0
 73
               0
 97
        1
330
A2
 75
               0
 76
               1
 98
        1
 10
0.0
 20
0.0
  0
CIRCLE
  5
A4
102
{ACAD_REACTORS
330
A5
102
}
100
AcDbEntity
  8
0
370
              -2
390
0
  6
Continuous
 62
               0
100
AcDbCircle
 10
673.81529323515451
 20
478.37327765152804
 30
0.0
 40
1.9998779296875
  0
HATCH
  5
A5
100
AcDbEntity
  8
0
370
              -2
390
0
  6
Continuous
 62
               0
100
AcDbHatch
 10
0.0
 20
0.0
 30
0.0
210
0.0
220
0.0
230
1.0
  2
SOLID
 70
               1
 71
               1
 91
        1
 92
        1
 93
        1
 72
               2
 10
673.81529323515451
 20
478.37327765152804
 40
1.9998779296875
 50
0.0
 51
360.0
 73
               0
 97
        1
330
A4
 75
               0
 76
               1
 98
        1
 10
0.0
 20
0.0
  0
MTEXT
  5
A6
100
AcDbEntity
  8
0
390
0
 62
               0
100
AcDbMText
 10
685.78608970519736
 20
509.75089483902804
 30
0.0
 40
24.432617187500004
 41
0.0
 71
               1
 72
               1
  1
G1 1/4
  7
ＭＳ ゴシック
 73
               1
 44
0.7828267384257843
  0
POINT
  5
A7
100
AcDbEntity
  8
Defpoints
370
               0
390
0
 62
               0
100
AcDbPoint
 10
673.81529323515451
 20
528.37327765152804
 30
0.0
  0
POINT
  5
A8
100
AcDbEntity
  8
Defpoints
370
               0
390
0
 62
               0
100
AcDbPoint
 10
628.35739708949268
 20
528.37327765152804
 30
0.0
  0
POINT
  5
A9
100
AcDbEntity
  8
Defpoints
370
               0
390
0
 62
               0
100
AcDbPoint
 10
628.35739708949268
 20
478.37327765152804
 30
0.0
  0
ENDBLK
  5
AA
100
AcDbEntity
  8
overflow
390
0
100
AcDbBlockEnd
  0
BLOCK
  5
AB
100
AcDbEntity
  8
template
390
0
100
AcDbBlockBegin
  2
グループ
 70
               0
 10
0.0
 20
0.0
 30
0.0
  3
グループ
  1

  0
LWPOLYLINE
  5
AC
100
AcDbEntity
  8
0
370
              15
390
0
  6
Continuous
 62
               7
100
AcDbPolyline
 90
        8
 70
             129
 10
887.2966122229177
 20
-2013.4890793861787
 10
887.2966122229177
 20
-2019.4864680797546
 10
877.79541530491429
 20
-2019.4864680797546
 10
877.79541530491429
 20
-2043.9374313432631
 10
869.44003804313161
 20
-2043.9374313432631
 10
869.44003804313161
 20
-2019.4864680797546
 10
860.10708109682218
 20
-2019.4864680797546
 10
860.10708109682218
 20
-2013.4890793861787
  0
LWPOLYLINE
  5
AD
100
AcDbEntity
  8
0
370
              15
390
0
  6
Continuous
 62
               7
100
AcDbPolyline
 90
      101
 70
             128
 10
900.02490405347453
 20
-2014.2173278791151
 10
900.04025408225448
 20
-2014.2129671224316
 42
-0.0222221607818087
 10
900.33025865893069
 20
-2014.1443426571855
 10
900.34605242292344
 20
-2014.1413392340887
 42
-0.0146883565589279
 10
900.60875512814846
 20
-2014.0993360471391
 42
-0.0127458844181425
 10
900.87339409530762
 20
-2014.0717990790661
 10
900.93584917361432
 20
-2014.0669056564784
 42
-0.0198099018568353
 10
901.32669828308303
 20
-2014.0518204990817
 10
901.37850975253491
 20
-2014.0518742747468
 42
-0.0147617382763764
 10
901.87313321351269
 20
-2014.0669942999918
 10
901.94582466838517
 20
-2014.0713669068793
 42
-0.0162624549003434
 10
902.33597829784867
 20
-2014.1075997821515
 10
902.45751068910363
 20
-2014.1228863411477
 42
-0.0080020874673414
 10
902.60308972019936
 20
-2014.1435691884164
 10
902.64140919080774
 20
-2014.1496404662296
 42
-0.0053821929658796
 10
902.70989329610916
 20
-2014.1612479900491
 10
901.98348759691066
 20
-2016.342176445763
 42
0.0108667757390248
 10
901.91617052677691
 20
-2016.3289893305425
 10
901.87870250359026
 20
-2016.3224915879487
 42
0.0170663203307349
 10
901.73548571668152
 20
-2016.3026619906577
 10
901.66761038399181
 20
-2016.2956148200694
 42
0.0220162375278688
 10
901.38723097613331
 20
-2016.2789324592993
 10
901.30937540908894
 20
-2016.2777330920328
 42
0.028260691578228
 10
900.97373908550651
 20
-2016.291536369002
 10
900.9298258117243
 20
-2016.2958363590067
 42
0.0169677213691369
 10
900.68390131677518
 20
-2016.3283734085576
 42
0.0190576269867001
 10
900.44099335419764
 20
-2016.3785202806632
 10
900.43473416608424
 20
-2016.3800632547732
 42
0.0213685642845426
 10
900.18434968160432
 20
-2016.4532635398787
 10
900.17885978669028
 20
-2016.4551265359371
 42
0.0237595297586269
 10
899.92536490179555
 20
-2016.5548110578309
 10
899.92026282776192
 20
-2016.5571028333109
 42
0.0261857468823794
 10
899.66809205153061
 20
-2016.6866391706862
 10
899.65766586244217
 20
-2016.6927046451553
 42
0.0272553062018435
 10
899.42123608720658
 20
-2016.8480768510981
 10
899.38647307369922
 20
-2016.8737379991887
 42
0.0325996893170005
 10
899.23631773004558
 20
-2017.0004858721616
 10
899.21260830091626
 20
-2017.0233039006805
 42
0.0138050960641986
 10
899.12072514471242
 20
-2017.1167535622262
 42
0.012528010379985
 10
899.03388261187865
 20
-2017.2149168888266
 10
899.01020216697054
 20
-2017.2430753870137
 42
0.0205218024739127
 10
898.88510209145966
 20
-2017.4048687012389
 10
898.86263575096973
 20
-2017.4365284310697
 42
0.0163110129582143
 10
898.70692537171988
 20
-2017.6718588661372
 10
898.70420147566745
 20
-2017.6762826281251
 42
0.0131897341898662
 10
898.55740095475971
 20
-2017.929414720493
 10
898.55570085939507
 20
-2017.9325329596252
 42
0.0107895576063751
 10
898.41792415718419
 20
-2018.1987481692604
 10
898.41719126765918
 20
-2018.2002424019067
 42
0.009137150721459
 10
898.28871131901167
 20
-2018.4747675996618
 10
898.25896568760049
 20
-2018.5414741068253
 42
0.0135418326352016
 10
898.08725174852646
 20
-2018.9564118921
 10
898.05364694009768
 20
-2019.0442780343672
 42
0.009283454241114
 10
897.88241788017365
 20
-2019.5181765326806
 10
897.85680075245625
 20
-2019.5934176024734
 42
0.0054261043582246
 10
897.74916260416308
 20
-2019.9211815755391
 10
897.73163661799231
 20
-2019.9765697377479
 42
0.0008225090812122
 10
897.66296656615555
 20
-2020.1948384959182
 10
896.67827743422208
 20
-2023.2197297891748
 10
899.91090127429607
 20
-2023.2197297891748
 10
899.40670884444262
 20
-2025.1242080875272
 10
896.1506525624593
 20
-2025.1242080875272
 10
890.32150353010547
 20
-2043.9374311535321
 10
888.49640591979505
 20
-2043.9374311535321
 10
894.33108395529598
 20
-2025.1242080875272
 10
891.92596758625564
 20
-2025.1242080875272
 10
892.43016001610908
 20
-2023.2197297891748
 10
894.85870882705922
 20
-2023.2197297891748
 10
895.71886374524775
 20
-2020.5833167884762
 42
-0.0005863560630618
 10
895.75559842347843
 20
-2020.4664903680987
 10
895.83168625711176
 20
-2020.225498068799
 42
-0.0087522378930349
 10
896.03115440056536
 20
-2019.6302219816619
 10
896.12341867598218
 20
-2019.3700818131392
 42
-0.0077400953829585
 10
896.38135233511321
 20
-2018.6770771355912
 10
896.39711730669239
 20
-2018.6366462522042
 42
-0.0082369946329852
 10
896.64420177730403
 20
-2018.0325671860094
 42
-0.0085725238363088
 10
896.91144787330904
 20
-2017.4371411467177
 10
897.01307747431497
 20
-2017.220720044736
 42
-0.0168109410593028
 10
897.30002190304424
 20
-2016.6595125186329
 10
897.42586529347966
 20
-2016.4325484856777
 42
-0.0007817726873471
 10
897.48014964355991
 20
-2016.3350042406043
 10
897.48027794956056
 20
-2016.3347745318977
 42
-0.0036626142165934
 10
897.5351658135985
 20
-2016.2381766518993
 42
-0.0080221150656855
 10
897.59229006901478
 20
-2016.1428974171308
 10
897.62299002036639
 20
-2016.0935064680243
 42
-0.0202139325581865
 10
897.75064576017064
 20
-2015.9055248673465
 10
897.80471322536073
 20
-2015.8324460031022
 42
-0.0249323791798257
 10
898.06387601908045
 20
-2015.5164007609471
 10
898.0880158332069
 20
-2015.4897864880352
 42
-0.0242132121539823
 10
898.42769657474707
 20
-2015.1499030018329
 10
898.47560814750352
 20
-2015.1063938656416
 42
-0.0251017527855328
 10
898.75958984814019
 20
-2014.8734011198803
 10
898.76103532494187
 20
-2014.8723318623101
 42
-0.0130868069042863
 10
899.05929597491127
 20
-2014.6635513937588
 10
899.06085779405646
 20
-2014.6625179534822
 42
-0.029032952638796
 10
899.37196893544728
 20
-2014.4816924518545
 10
899.40181449743989
 20
-2014.4665900690115
 42
-0.0160250190042448
 10
899.66771891119799
 20
-2014.3425739588017
 42
-0.0267600374781971
 10
899.94299498866587
 20
-2014.2418256382532
 10
899.96973090818756
 20
-2014.2336330794274
 42
-0.0049981587689019
 10
900.02490405347453
 20
-2014.2173278791151
 42
-0.0049981587689019
  0
LWPOLYLINE
  5
AE
100
AcDbEntity
  8
0
370
              15
390
0
  6
Continuous
 62
               7
100
AcDbPolyline
 90
      118
 70
             128
 10
919.83927161792144
 20
-2023.2937131170024
 10
921.71439354242102
 20
-2023.2937131170024
 10
920.87635463682113
 20
-2025.9752796434022
 42
-0.0010587229277225
 10
920.90781045229096
 20
-2025.9383751101664
 10
920.96600454302495
 20
-2025.8703928538714
 42
-0.0071874740407011
 10
921.11637976113059
 20
-2025.6997521618341
 10
921.25810253438533
 20
-2025.5435160205291
 42
-0.0148118053515922
 10
921.70823182709489
 20
-2025.0759021745191
 10
921.7954541620071
 20
-2024.9905048536555
 42
-0.0086273358691543
 10
922.1310029630082
 20
-2024.6731292196462
 10
922.17483667923284
 20
-2024.6330795753142
 42
-0.0103138323114992
 10
922.43286038146755
 20
-2024.4069164379748
 10
922.47863478778117
 20
-2024.3684343907257
 42
-0.0060206748565841
 10
922.65148285190685
 20
-2024.2266397399601
 10
922.653513982802
 20
-2024.2250140343215
 42
-0.0067069027296729
 10
922.82580679745536
 20
-2024.0908634005339
 10
922.8283555633692
 20
-2024.0889332306676
 42
-0.0076184352047885
 10
922.99926082925276
 20
-2023.9635583554148
 42
-0.0089652861674312
 10
923.17422179199252
 20
-2023.8439250950787
 10
923.21057351212983
 20
-2023.8200138816007
 42
-0.015691624593608
 10
923.40653300929227
 20
-2023.6997513951248
 42
-0.0023299011064511
 10
923.60679505328471
 20
-2023.5865734555769
 10
923.62217918565193
 20
-2023.5779734605192
 42
-0.0107669341491835
 10
923.85641601075179
 20
-2023.4535733271705
 10
923.87868081182819
 20
-2023.4423565772197
 42
-0.0078058045896699
 10
924.16227092978306
 20
-2023.3049951215803
 10
924.17217801749007
 20
-2023.3003859937128
 42
-0.0181829330468227
 10
924.48248742211297
 20
-2023.1695222526143
 10
924.53654286466133
 20
-2023.1490071326778
 42
-0.020841153603844
 10
924.88562783212262
 20
-2023.0329166701806
 10
924.89998393225676
 20
-2023.0287982252253
 42
-0.0222799817131101
 10
925.2287037261674
 20
-2022.9501566590868
 10
925.23759268939853
 20
-2022.9484446485028
 42
-0.0215509523890058
 10
925.5540636576842
 20
-2022.9015289599674
 10
925.59654561873811
 20
-2022.8970914331762
 42
-0.018254592486954
 10
925.8306543980384
 20
-2022.8812476077858
 10
925.87005541438737
 20
-2022.8800230627066
 42
-0.0072962856535856
 10
926.02597829407534
 20
-2022.8774537341844
 10
926.05507796464383
 20
-2022.8773988987807
 42
-0.0059227516310602
 10
926.15282746379228
 20
-2022.878372610571
 10
926.18206968123616
 20
-2022.8790103771735
 42
-0.0011833111905314
 10
926.22132096499672
 20
-2022.8799593814842
 10
925.42593436938955
 20
-2025.4186933265833
 42
0.0143932051468174
 10
925.3995329870429
 20
-2025.4084943565394
 10
925.39226101462157
 20
-2025.4059231376807
 42
0.0234388603494586
 10
925.35043014868961
 20
-2025.3933039019653
 10
925.34174848577675
 20
-2025.3911229399603
 42
0.0199162742995617
 10
925.28145965169153
 20
-2025.3785062046243
 10
925.26064571389054
 20
-2025.3750090051967
 42
0.0293643550672343
 10
925.15757085513189
 20
-2025.3638589595437
 10
925.13288567441111
 20
-2025.362647342525
 42
0.0214606686869901
 10
924.97974475846229
 20
-2025.3617087821076
 10
924.97037284764076
 20
-2025.3620536936519
 42
0.016756405417869
 10
924.79885265652877
 20
-2025.3741307360203
 10
924.79039286377326
 20
-2025.3750120764471
 42
0.0137677553251489
 10
924.60303955050347
 20
-2025.3997613849913
 10
924.59568781100074
 20
-2025.4009393049585
 42
0.0118497261487105
 10
924.3951900468968
 20
-2025.4379566551481
 10
924.38904003965217
 20
-2025.4392435178677
 42
0.0106421143886482
 10
924.17815915237213
 20
-2025.4880758934412
 10
924.173250343978
 20
-2025.4893232361276
 42
0.0099746379706648
 10
923.95479187481192
 20
-2025.5494977644435
 10
923.89324383464532
 20
-2025.567779643073
 42
0.019161367586164
 10
923.5572593721281
 20
-2025.6817570233607
 10
923.46919959938725
 20
-2025.715443933683
 42
0.0205274080142374
 10
923.08389282748362
 20
-2025.8812723415108
 10
923.02624354549994
 20
-2025.9089403060841
 42
0.0181256912197252
 10
922.76796660483467
 20
-2026.0446241250609
 10
922.71501122152142
 20
-2026.0749417382751
 42
0.0140709242405834
 10
922.57005628689228
 20
-2026.1634364117099
 10
922.54380741828197
 20
-2026.1804932304199
 42
0.0086667884393897
 10
922.45488125673126
 20
-2026.2404958983082
 42
0.0036408192030585
 10
922.36744801868406
 20
-2026.3026767561105
 10
922.33222114422927
 20
-2026.3281177020133
 42
0.0052260781286503
 10
922.17599244683572
 20
-2026.4434500886496
 10
922.15978559057862
 20
-2026.4556781992658
 42
0.0050024435893197
 10
921.9737822475081
 20
-2026.5989607675372
 10
921.95846409100466
 20
-2026.6110067899738
 42
0.013613871028028
 10
921.74802282268604
 20
-2026.7859732948812
 10
921.71435494688569
 20
-2026.8155522676013
 42
0.0172815186918601
 10
921.44995140522076
 20
-2027.0645489402273
 10
921.44738905938061
 20
-2027.0671347573718
 42
0.0189403857988069
 10
921.19680726080821
 20
-2027.3399400221681
 10
921.16417576726406
 20
-2027.378283953675
 42
0.018504419951033
 10
920.97221932828552
 20
-2027.6215325347962
 42
0.0088565243905644
 10
920.79375922164627
 20
-2027.8750489549625
 10
920.78458124200858
 20
-2027.8885903347064
 42
0.0157195347227944
 10
920.60136063567791
 20
-2028.1781125440161
 10
920.55527769374078
 20
-2028.2562647410475
 42
0.0095451879782346
 10
920.39019214360599
 20
-2028.5488593833993
 10
920.3790442246775
 20
-2028.5695300555292
 42
0.010035170625541
 10
920.24700047551698
 20
-2028.8265856160222
 42
0.0086935915420846
 10
920.12466932372229
 20
-2029.0884187614281
 10
920.12134858230843
 20
-2029.0958610843984
 42
0.0072580174858111
 10
920.00100213037092
 20
-2029.3764530759631
 10
919.99774049705718
 20
-2029.3843731019992
 42
0.006000512261712
 10
919.87853982871434
 20
-2029.6839827726053
 10
919.87532885037297
 20
-2029.6923443005091
 42
0.0049017786983174
 10
919.75642869151784
 20
-2030.0112732811072
 10
919.75326288512508
 20
-2030.0200262183439
 42
0.0039415167601015
 10
919.6338266070718
 20
-2030.358568280747
 10
919.63069550441617
 20
-2030.3676714816331
 42
0.0031035838765903
 10
919.50989071871129
 20
-2030.7261113434424
 10
919.50678067419267
 20
-2030.7355319647816
 42
0.0025070747152625
 10
919.3838793228806
 20
-2031.1141791817154
 10
919.34658542645195
 20
-2031.2310708469786
 42
0.0029081910282759
 10
919.15456712863011
 20
-2031.8452345053063
 10
919.11376396012417
 20
-2031.9784577475461
 42
0.000926645373219
 10
918.84534658583175
 20
-2032.8606822073957
 10
918.82445911317825
 20
-2032.9297940866741
 42
-0.0005809993665591
 10
918.54712243257757
 20
-2033.8436021933444
 10
918.48084063429428
 20
-2034.0610871255378
 42
-0.0012018708167743
 10
918.33385632487546
 20
-2034.5392497900248
 10
918.28153647341571
 20
-2034.7080089305496
 42
-0.0002691059617223
 10
918.23796699214131
 20
-2034.8482765512326
 10
915.40501109385218
 20
-2043.9374311535321
 10
913.58702220187365
 20
-2043.9374311535321
 10
919.83927161792144
 20
-2023.2937131170024
  0
SPLINE
  5
AF
100
AcDbEntity
  8
0
370
              15
390
0
  6
Continuous
 62
               7
100
AcDbSpline
210
0.0
220
0.0
230
1.0
 70
              13
 71
               2
 72
             782
 73
             779
 74
               0
 42
0.000001
 43
0.000001
 40
0.0
 40
0.0
 40
0.0
 40
1.0
 40
1.0
 40
2.0
 40
2.0
 40
3.0
 40
3.0
 40
4.0
 40
4.0
 40
5.0
 40
5.0
 40
6.0
 40
6.0
 40
7.0
 40
7.0
 40
8.0
 40
8.0
 40
9.0
 40
9.0
 40
10.0
 40
10.0
 40
11.0
 40
11.0
 40
12.0
 40
12.0
 40
13.0
 40
13.0
 40
14.0
 40
14.0
 40
15.0
 40
15.0
 40
16.0
 40
16.0
 40
17.0
 40
17.0
 40
18.0
 40
18.0
 40
19.0
 40
19.0
 40
20.0
 40
20.0
 40
21.0
 40
21.0
 40
22.0
 40
22.0
 40
23.0
 40
23.0
 40
24.0
 40
24.0
 40
25.0
 40
25.0
 40
26.0
 40
26.0
 40
27.0
 40
27.0
 40
28.0
 40
28.0
 40
29.0
 40
29.0
 40
30.0
 40
30.0
 40
31.0
 40
31.0
 40
32.0
 40
32.0
 40
33.0
 40
33.0
 40
34.0
 40
34.0
 40
35.0
 40
35.0
 40
36.0
 40
36.0
 40
37.0
 40
37.0
 40
38.0
 40
38.0
 40
39.0
 40
39.0
 40
40.0
 40
40.0
 40
41.0
 40
41.0
 40
42.0
 40
42.0
 40
43.0
 40
43.0
 40
44.0
 40
44.0
 40
45.0
 40
45.0
 40
46.0
 40
46.0
 40
47.0
 40
47.0
 40
48.0
 40
48.0
 40
49.0
 40
49.0
 40
50.0
 40
50.0
 40
51.0
 40
51.0
 40
52.0
 40
52.0
 40
53.0
 40
53.0
 40
54.0
 40
54.0
 40
55.0
 40
55.0
 40
56.0
 40
56.0
 40
57.0
 40
57.0
 40
58.0
 40
58.0
 40
59.0
 40
59.0
 40
60.0
 40
60.0
 40
61.0
 40
61.0
 40
62.0
 40
62.0
 40
63.0
 40
63.0
 40
64.0
 40
64.0
 40
65.0
 40
65.0
 40
66.0
 40
66.0
 40
67.0
 40
67.0
 40
68.0
 40
68.0
 40
69.0
 40
69.0
 40
70.0
 40
70.0
 40
71.0
 40
71.0
 40
72.0
 40
72.0
 40
73.0
 40
73.0
 40
74.0
 40
74.0
 40
75.0
 40
75.0
 40
76.0
 40
76.0
 40
77.0
 40
77.0
 40
78.0
 40
78.0
 40
79.0
 40
79.0
 40
80.0
 40
80.0
 40
81.0
 40
81.0
 40
82.0
 40
82.0
 40
83.0
 40
83.0
 40
84.0
 40
84.0
 40
85.0
 40
85.0
 40
86.0
 40
86.0
 40
87.0
 40
87.0
 40
88.0
 40
88.0
 40
89.0
 40
89.0
 40
90.0
 40
90.0
 40
91.0
 40
91.0
 40
92.0
 40
92.0
 40
93.0
 40
93.0
 40
94.0
 40
94.0
 40
95.0
 40
95.0
 40
96.0
 40
96.0
 40
97.0
 40
97.0
 40
98.0
 40
98.0
 40
99.0
 40
99.0
 40
100.0
 40
100.0
 40
101.0
 40
101.0
 40
102.0
 40
102.0
 40
103.0
 40
103.0
 40
104.0
 40
104.0
 40
105.0
 40
105.0
 40
106.0
 40
106.0
 40
107.0
 40
107.0
 40
108.0
 40
108.0
 40
109.0
 40
109.0
 40
110.0
 40
110.0
 40
111.0
 40
111.0
 40
112.0
 40
112.0
 40
113.0
 40
113.0
 40
114.0
 40
114.0
 40
115.0
 40
115.0
 40
116.0
 40
116.0
 40
117.0
 40
117.0
 40
118.0
 40
118.0
 40
119.0
 40
119.0
 40
120.0
 40
120.0
 40
121.0
 40
121.0
 40
122.0
 40
122.0
 40
123.0
 40
123.0
 40
124.0
 40
124.0
 40
125.0
 40
125.0
 40
126.0
 40
126.0
 40
127.0
 40
127.0
 40
128.0
 40
128.0
 40
129.0
 40
129.0
 40
130.0
 40
130.0
 40
131.0
 40
131.0
 40
132.0
 40
132.0
 40
133.0
 40
133.0
 40
134.0
 40
134.0
 40
135.0
 40
135.0
 40
136.0
 40
136.0
 40
137.0
 40
137.0
 40
138.0
 40
138.0
 40
139.0
 40
139.0
 40
140.0
 40
140.0
 40
141.0
 40
141.0
 40
142.0
 40
142.0
 40
143.0
 40
143.0
 40
144.0
 40
144.0
 40
145.0
 40
145.0
 40
146.0
 40
146.0
 40
147.0
 40
147.0
 40
148.0
 40
148.0
 40
149.0
 40
149.0
 40
150.0
 40
150.0
 40
151.0
 40
151.0
 40
152.0
 40
152.0
 40
153.0
 40
153.0
 40
154.0
 40
154.0
 40
155.0
 40
155.0
 40
156.0
 40
156.0
 40
157.0
 40
157.0
 40
158.0
 40
158.0
 40
159.0
 40
159.0
 40
160.0
 40
160.0
 40
161.0
 40
161.0
 40
162.0
 40
162.0
 40
163.0
 40
163.0
 40
164.0
 40
164.0
 40
165.0
 40
165.0
 40
166.0
 40
166.0
 40
167.0
 40
167.0
 40
168.0
 40
168.0
 40
169.0
 40
169.0
 40
170.0
 40
170.0
 40
171.0
 40
171.0
 40
172.0
 40
172.0
 40
173.0
 40
173.0
 40
174.0
 40
174.0
 40
175.0
 40
175.0
 40
176.0
 40
176.0
 40
177.0
 40
177.0
 40
178.0
 40
178.0
 40
179.0
 40
179.0
 40
180.0
 40
180.0
 40
181.0
 40
181.0
 40
182.0
 40
182.0
 40
183.0
 40
183.0
 40
184.0
 40
184.0
 40
185.0
 40
185.0
 40
186.0
 40
186.0
 40
187.0
 40
187.0
 40
188.0
 40
188.0
 40
189.0
 40
189.0
 40
190.0
 40
190.0
 40
191.0
 40
191.0
 40
192.0
 40
192.0
 40
193.0
 40
193.0
 40
194.0
 40
194.0
 40
195.0
 40
195.0
 40
196.0
 40
196.0
 40
197.0
 40
197.0
 40
198.0
 40
198.0
 40
199.0
 40
199.0
 40
200.0
 40
200.0
 40
201.0
 40
201.0
 40
202.0
 40
202.0
 40
203.0
 40
203.0
 40
204.0
 40
204.0
 40
205.0
 40
205.0
 40
206.0
 40
206.0
 40
207.0
 40
207.0
 40
208.0
 40
208.0
 40
209.0
 40
209.0
 40
210.0
 40
210.0
 40
211.0
 40
211.0
 40
212.0
 40
212.0
 40
213.0
 40
213.0
 40
214.0
 40
214.0
 40
215.0
 40
215.0
 40
216.0
 40
216.0
 40
217.0
 40
217.0
 40
218.0
 40
218.0
 40
219.0
 40
219.0
 40
220.0
 40
220.0
 40
221.0
 40
221.0
 40
222.0
 40
222.0
 40
223.0
 40
223.0
 40
224.0
 40
224.0
 40
225.0
 40
225.0
 40
226.0
 40
226.0
 40
227.0
 40
227.0
 40
228.0
 40
228.0
 40
229.0
 40
229.0
 40
230.0
 40
230.0
 40
231.0
 40
231.0
 40
232.0
 40
232.0
 40
233.0
 40
233.0
 40
234.0
 40
234.0
 40
235.0
 40
235.0
 40
236.0
 40
236.0
 40
237.0
 40
237.0
 40
238.0
 40
238.0
 40
239.0
 40
239.0
 40
240.0
 40
240.0
 40
241.0
 40
241.0
 40
242.0
 40
242.0
 40
243.0
 40
243.0
 40
244.0
 40
244.0
 40
245.0
 40
245.0
 40
246.0
 40
246.0
 40
247.0
 40
247.0
 40
248.0
 40
248.0
 40
249.0
 40
249.0
 40
250.0
 40
250.0
 40
251.0
 40
251.0
 40
252.0
 40
252.0
 40
253.0
 40
253.0
 40
254.0
 40
254.0
 40
255.0
 40
255.0
 40
256.0
 40
256.0
 40
257.0
 40
257.0
 40
258.0
 40
258.0
 40
259.0
 40
259.0
 40
260.0
 40
260.0
 40
261.0
 40
261.0
 40
262.0
 40
262.0
 40
263.0
 40
263.0
 40
264.0
 40
264.0
 40
265.0
 40
265.0
 40
266.0
 40
266.0
 40
267.0
 40
267.0
 40
268.0
 40
268.0
 40
269.0
 40
269.0
 40
270.0
 40
270.0
 40
271.0
 40
271.0
 40
272.0
 40
272.0
 40
273.0
 40
273.0
 40
274.0
 40
274.0
 40
275.0
 40
275.0
 40
276.0
 40
276.0
 40
277.0
 40
277.0
 40
278.0
 40
278.0
 40
279.0
 40
279.0
 40
280.0
 40
280.0
 40
281.0
 40
281.0
 40
282.0
 40
282.0
 40
283.0
 40
283.0
 40
284.0
 40
284.0
 40
285.0
 40
285.0
 40
286.0
 40
286.0
 40
287.0
 40
287.0
 40
288.0
 40
288.0
 40
289.0
 40
289.0
 40
290.0
 40
290.0
 40
291.0
 40
291.0
 40
292.0
 40
292.0
 40
293.0
 40
293.0
 40
294.0
 40
294.0
 40
295.0
 40
295.0
 40
296.0
 40
296.0
 40
297.0
 40
297.0
 40
298.0
 40
298.0
 40
299.0
 40
299.0
 40
300.0
 40
300.0
 40
301.0
 40
301.0
 40
302.0
 40
302.0
 40
303.0
 40
303.0
 40
304.0
 40
304.0
 40
305.0
 40
305.0
 40
306.0
 40
306.0
 40
307.0
 40
307.0
 40
308.0
 40
308.0
 40
309.0
 40
309.0
 40
310.0
 40
310.0
 40
311.0
 40
311.0
 40
312.0
 40
312.0
 40
313.0
 40
313.0
 40
314.0
 40
314.0
 40
315.0
 40
315.0
 40
316.0
 40
316.0
 40
317.0
 40
317.0
 40
318.0
 40
318.0
 40
319.0
 40
319.0
 40
320.0
 40
320.0
 40
321.0
 40
321.0
 40
322.0
 40
322.0
 40
323.0
 40
323.0
 40
324.0
 40
324.0
 40
325.0
 40
325.0
 40
326.0
 40
326.0
 40
327.0
 40
327.0
 40
328.0
 40
328.0
 40
329.0
 40
329.0
 40
330.0
 40
330.0
 40
331.0
 40
331.0
 40
332.0
 40
332.0
 40
333.0
 40
333.0
 40
334.0
 40
334.0
 40
335.0
 40
335.0
 40
336.0
 40
336.0
 40
337.0
 40
337.0
 40
338.0
 40
338.0
 40
339.0
 40
339.0
 40
340.0
 40
340.0
 40
341.0
 40
341.0
 40
342.0
 40
342.0
 40
343.0
 40
343.0
 40
344.0
 40
344.0
 40
345.0
 40
345.0
 40
346.0
 40
346.0
 40
347.0
 40
347.0
 40
348.0
 40
348.0
 40
349.0
 40
349.0
 40
350.0
 40
350.0
 40
351.0
 40
351.0
 40
352.0
 40
352.0
 40
353.0
 40
353.0
 40
354.0
 40
354.0
 40
355.0
 40
355.0
 40
356.0
 40
356.0
 40
357.0
 40
357.0
 40
358.0
 40
358.0
 40
359.0
 40
359.0
 40
360.0
 40
360.0
 40
361.0
 40
361.0
 40
362.0
 40
362.0
 40
363.0
 40
363.0
 40
364.0
 40
364.0
 40
365.0
 40
365.0
 40
366.0
 40
366.0
 40
367.0
 40
367.0
 40
368.0
 40
368.0
 40
369.0
 40
369.0
 40
370.0
 40
370.0
 40
371.0
 40
371.0
 40
372.0
 40
372.0
 40
373.0
 40
373.0
 40
374.0
 40
374.0
 40
375.0
 40
375.0
 40
376.0
 40
376.0
 40
377.0
 40
377.0
 40
378.0
 40
378.0
 40
379.0
 40
379.0
 40
380.0
 40
380.0
 40
381.0
 40
381.0
 40
382.0
 40
382.0
 40
383.0
 40
383.0
 40
384.0
 40
384.0
 40
385.0
 40
385.0
 40
386.0
 40
386.0
 40
387.0
 40
387.0
 40
388.0
 40
388.0
 40
389.0
 40
389.0
 40
389.0
 10
930.16797606865407
 20
-2023.2827867536398
 30
0.0
 41
1.0
 10
930.98640017737455
 20
-2023.2827867536398
 30
0.0
 41
1.0
 10
931.80482428609503
 20
-2023.2827867536398
 30
0.0
 41
1.0
 10
931.39107055057832
 20
-2024.6254130178895
 30
0.0
 41
1.0
 10
930.97731681506161
 20
-2025.9680392821392
 30
0.0
 41
1.0
 10
930.99565631024188
 20
-2025.9393385092085
 30
0.0
 41
0.9999957264362787
 10
931.01416330706877
 20
-2025.9107454590644
 30
0.0
 41
1.0
 10
931.04459263120179
 20
-2025.8637325806949
 30
0.0
 41
1.0
 10
931.07502195533482
 20
-2025.8167197023256
 30
0.0
 41
1.0
 10
931.15438760044231
 20
-2025.69410089542
 30
0.0
 41
0.9995394069081499
 10
931.24104599199643
 20
-2025.5765228336757
 30
0.0
 41
1.0
 10
931.27680285425504
 20
-2025.5280079410838
 30
0.0
 41
1.0
 10
931.31255971651353
 20
-2025.479493048492
 30
0.0
 41
1.0
 10
931.44628638433096
 20
-2025.2980527733664
 30
0.0
 41
0.9994460617143208
 10
931.59178686561859
 20
-2025.125910375717
 30
0.0
 41
1.0
 10
931.5961750465915
 20
-2025.120718695337
 30
0.0
 41
1.0
 10
931.60056322756452
 20
-2025.1155270149568
 30
0.0
 41
1.0
 10
931.73728734690428
 20
-2024.9537679780697
 30
0.0
 41
0.9994359394934195
 10
931.88456157725784
 20
-2024.8015517769027
 30
0.0
 41
1.0
 10
931.88694493121181
 20
-2024.7990884465289
 30
0.0
 41
1.0
 10
931.88932828516579
 20
-2024.7966251161552
 30
0.0
 41
1.0
 10
932.03183580760924
 20
-2024.649335575738
 30
0.0
 41
0.9995293688567245
 10
932.18310748859142
 20
-2024.511062363574
 30
0.0
 41
1.0
 10
932.20240124785369
 20
-2024.4934264779238
 30
0.0
 41
1.0
 10
932.22169500711607
 20
-2024.4757905922736
 30
0.0
 41
1.0
 10
932.33437916957223
 20
-2024.3727891514111
 30
0.0
 41
0.9997087614803017
 10
932.45190205852862
 20
-2024.2753448706121
 30
0.0
 41
1.0
 10
932.47106813171013
 20
-2024.2594532920994
 30
0.0
 41
1.0
 10
932.49023420489175
 20
-2024.2435617135864
 30
0.0
 41
1.0
 10
932.56942494748671
 20
-2024.1779005898118
 30
0.0
 41
0.9999595338696024
 10
932.64978421833882
 20
-2024.1136748591591
 30
0.0
 41
1.0
 10
932.73014348919594
 20
-2024.0494491285026
 30
0.0
 41
0.9999749417507762
 10
932.8114040235431
 20
-2023.9863675745532
 30
0.0
 41
1.0
 10
932.83239016969605
 20
-2023.970076287259
 30
0.0
 41
1.0
 10
932.85337631584889
 20
-2023.9537849999649
 30
0.0
 41
1.0
 10
932.93794420116228
 20
-2023.8881359901147
 30
0.0
 41
0.9999792037122728
 10
933.02335180093985
 20
-2023.8235832084652
 30
0.0
 41
1.0
 10
933.04417662684637
 20
-2023.8078433862113
 30
0.0
 41
1.0
 10
933.06500145275277
 20
-2023.7921035639574
 30
0.0
 41
1.0
 10
933.10875940070127
 20
-2023.7590304268278
 30
0.0
 41
0.9999993374007924
 10
933.1524410868526
 20
-2023.7258566313976
 30
0.0
 41
1.0
 10
933.1961227729962
 20
-2023.6926828359733
 30
0.0
 41
0.9999160953817496
 10
933.24064918392048
 20
-2023.6606517707717
 30
0.0
 41
1.0
 10
933.27347107133744
 20
-2023.6370406151887
 30
0.0
 41
1.0
 10
933.3062929587544
 20
-2023.6134294596054
 30
0.0
 41
1.0
 10
933.41646314451395
 20
-2023.5341760832368
 30
0.0
 41
0.9980964527231965
 10
933.53555213801496
 20
-2023.4690886103806
 30
0.0
 41
1.0
 10
933.5725847449404
 20
-2023.4488486307891
 30
0.0
 41
1.0
 10
933.60961735186584
 20
-2023.4286086511975
 30
0.0
 41
1.0
 10
933.7889443651402
 20
-2023.3305984004953
 30
0.0
 41
0.9984572810572611
 10
933.97803293150162
 20
-2023.2530761391477
 30
0.0
 41
1.0
 10
933.98167920089759
 20
-2023.2515812468096
 30
0.0
 41
1.0
 10
933.98532547029356
 20
-2023.2500863544717
 30
0.0
 41
1.0
 10
934.16712149786065
 20
-2023.1755538778011
 30
0.0
 41
0.9987838528033807
 10
934.35537415641977
 20
-2023.1192882376354
 30
0.0
 41
1.0
 10
934.3596121056205
 20
-2023.1180215839445
 30
0.0
 41
1.0
 10
934.36385005482111
 20
-2023.1167549302538
 30
0.0
 41
1.0
 10
934.54362681498083
 20
-2023.0630225974692
 30
0.0
 41
0.9990652816207282
 10
934.72737274669487
 20
-2023.0250189179276
 30
0.0
 41
1.0
 10
934.73256114772562
 20
-2023.0239458148212
 30
0.0
 41
1.0
 10
934.73774954875626
 20
-2023.0228727117149
 30
0.0
 41
1.0
 10
934.9111186784105
 20
-2022.9870152383855
 30
0.0
 41
0.9992909934270254
 10
935.08669444486907
 20
-2022.964304805919
 30
0.0
 41
1.0
 10
935.2622702113282
 20
-2022.9415943734525
 30
0.0
 41
0.9994553539448237
 10
935.43896164442185
 20
-2022.9305150692462
 30
0.0
 41
1.0
 10
935.47439605221484
 20
-2022.9282931811986
 30
0.0
 41
1.0
 10
935.50983046000783
 20
-2022.9260712931509
 30
0.0
 41
1.0
 10
935.67605622657914
 20
-2022.915648230739
 30
0.0
 41
0.9990928098292502
 10
935.84256601848381
 20
-2022.9194078719736
 30
0.0
 41
1.0
 10
935.88112785375711
 20
-2022.9202785635066
 30
0.0
 41
1.0
 10
935.91968968903041
 20
-2022.9211492550398
 30
0.0
 41
1.0
 10
936.00907581038803
 20
-2022.9231675132082
 30
0.0
 41
0.9998382089204588
 10
936.09833149317262
 20
-2022.9283996397362
 30
0.0
 41
1.0
 10
936.09876139939149
 20
-2022.9284248406384
 30
0.0
 41
1.0
 10
936.09919130561036
 20
-2022.9284500415406
 30
0.0
 41
1.0
 10
936.18758717595767
 20
-2022.9336317662639
 30
0.0
 41
0.9997558016757879
 10
936.27566775315961
 20
-2022.9427142816307
 30
0.0
 41
1.0
 10
936.27614389158987
 20
-2022.9427633791133
 30
0.0
 41
1.0
 10
936.27662003002013
 20
-2022.9428124765959
 30
0.0
 41
1.0
 10
936.36374833036098
 20
-2022.9517967969975
 30
0.0
 41
0.9996565144182734
 10
936.45028618370259
 20
-2022.9653341036862
 30
0.0
 41
1.0
 10
936.45075210908112
 20
-2022.9654069894177
 30
0.0
 41
1.0
 10
936.45121803445966
 20
-2022.9654798751492
 30
0.0
 41
1.0
 10
936.53682403704556
 20
-2022.9788714103754
 30
0.0
 41
0.9995321806867129
 10
936.62145111737266
 20
-2022.9974718988044
 30
0.0
 41
1.0
 10
936.62184031194522
 20
-2022.9975574412706
 30
0.0
 41
1.0
 10
936.62222950651778
 20
-2022.9976429837366
 30
0.0
 41
1.0
 10
936.70607819770157
 20
-2023.0160723872341
 30
0.0
 41
0.9993819199219139
 10
936.78842473189684
 20
-2023.0403477704945
 30
0.0
 41
1.0
 10
936.78866316539415
 20
-2023.0404180596038
 30
0.0
 41
1.0
 10
936.78890159889147
 20
-2023.0404883487129
 30
0.0
 41
1.0
 10
936.87077126609302
 20
-2023.0646231537551
 30
0.0
 41
0.9992088568505639
 10
936.9504637850813
 20
-2023.0951883895495
 30
0.0
 41
1.0
 10
937.03014477596025
 20
-2023.1257479902824
 30
0.0
 41
0.9990226101772376
 10
937.10681544586748
 20
-2023.1632254218973
 30
0.0
 41
1.0
 10
937.18347458766539
 20
-2023.2006972184506
 30
0.0
 41
0.9988424273972794
 10
937.25617821487822
 20
-2023.2453619937039
 30
0.0
 41
1.0
 10
937.25644592325739
 20
-2023.2455264577761
 30
0.0
 41
1.0
 10
937.25671363163656
 20
-2023.2456909218481
 30
0.0
 41
1.0
 10
937.32995267560648
 20
-2023.2906846252447
 30
0.0
 41
0.9986928844490358
 10
937.39821554231628
 20
-2023.3429203595244
 30
0.0
 41
1.0
 10
937.39879683453955
 20
-2023.3433651727528
 30
0.0
 41
1.0
 10
937.39937812676271
 20
-2023.3438099859809
 30
0.0
 41
1.0
 10
937.46880357791815
 20
-2023.3969353467166
 30
0.0
 41
0.9986007262279018
 10
937.53222974768482
 20
-2023.45709611641
 30
0.0
 41
1.0
 10
937.53312416314202
 20
-2023.457944484245
 30
0.0
 41
1.0
 10
937.5340185785991
 20
-2023.45879285208
 30
0.0
 41
1.0
 10
937.59923357928074
 20
-2023.5206503574441
 30
0.0
 41
0.9985581491381156
 10
937.65744119098213
 20
-2023.5891428477155
 30
0.0
 41
1.0
 10
937.66669964457788
 20
-2023.6000372054173
 30
0.0
 41
1.0
 10
937.67595809817362
 20
-2023.6109315631188
 30
0.0
 41
1.0
 10
937.7526826170664
 20
-2023.7012127687933
 30
0.0
 41
0.9970460233520827
 10
937.8146745182263
 20
-2023.8021798529755
 30
0.0
 41
1.0
 10
937.82914388330573
 20
-2023.8257463120567
 30
0.0
 41
1.0
 10
937.84361324838528
 20
-2023.8493127711379
 30
0.0
 41
1.0
 10
937.88334994839749
 20
-2023.9140324951693
 30
0.0
 41
0.9988468816636018
 10
937.9166963191492
 20
-2023.9822649475973
 30
0.0
 41
1.0
 10
937.92373234164097
 20
-2023.9966618687354
 30
0.0
 41
1.0
 10
937.93076836413275
 20
-2024.0110587898735
 30
0.0
 41
1.0
 10
937.95004268990203
 20
-2024.0504974000276
 30
0.0
 41
0.9998431189997551
 10
937.96790801739564
 20
-2024.0905939544657
 30
0.0
 41
1.0
 10
937.98577334490835
 20
-2024.1306905089468
 30
0.0
 41
0.9999989989854908
 10
938.00375206835099
 20
-2024.1707363465762
 30
0.0
 41
1.0
 10
938.00992437992602
 20
-2024.1844845633459
 30
0.0
 41
1.0
 10
938.01609669150105
 20
-2024.1982327801156
 30
0.0
 41
1.0
 10
938.04642003811136
 20
-2024.2657750513242
 30
0.0
 41
0.9998790356320946
 10
938.07462791824935
 20
-2024.3342278032619
 30
0.0
 41
1.0
 10
938.08146309953281
 20
-2024.350814904687
 30
0.0
 41
1.0
 10
938.08829828081628
 20
-2024.3674020061123
 30
0.0
 41
1.0
 10
938.11185594319738
 20
-2024.4245699609999
 30
0.0
 41
0.9998227574561669
 10
938.13324469158772
 20
-2024.4825842692796
 30
0.0
 41
1.0
 10
938.15463343997635
 20
-2024.5405985775551
 30
0.0
 41
0.999679797104187
 10
938.17305972493489
 20
-2024.5996206966706
 30
0.0
 41
1.0
 10
938.1769635276612
 20
-2024.6121251548418
 30
0.0
 41
1.0
 10
938.1808673303874
 20
-2024.624629613013
 30
0.0
 41
1.0
 10
938.20710122079777
 20
-2024.7086606484688
 30
0.0
 41
0.9979274938734387
 10
938.22232574427699
 20
-2024.7953650071295
 30
0.0
 41
1.0
 10
938.22454943153843
 20
-2024.8080290079524
 30
0.0
 41
1.0
 10
938.22677311879988
 20
-2024.8206930087752
 30
0.0
 41
1.0
 10
938.2377030584978
 20
-2024.8829395160637
 30
0.0
 41
0.9994985982137961
 10
938.24467122367446
 20
-2024.945753017204
 30
0.0
 41
1.0
 10
938.25163938885134
 20
-2025.0085665183451
 30
0.0
 41
0.9996372611201633
 10
938.25521525461909
 20
-2025.0716640970272
 30
0.0
 41
1.0
 10
938.25538383210846
 20
-2025.0746387141098
 30
0.0
 41
1.0
 10
938.25555240959773
 20
-2025.0776133311924
 30
0.0
 41
1.0
 10
938.25946543034399
 20
-2025.1466601440409
 30
0.0
 41
0.9997730630737315
 10
938.26043374383232
 20
-2025.2158109680765
 30
0.0
 41
1.0
 10
938.26049085025033
 20
-2025.2198891472165
 30
0.0
 41
1.0
 10
938.26054795666846
 20
-2025.2239673263564
 30
0.0
 41
1.0
 10
938.26163048299316
 20
-2025.3012745086635
 30
0.0
 41
0.9998772614069814
 10
938.26029039626121
 20
-2025.3785776552243
 30
0.0
 41
1.0
 10
938.26020113306231
 20
-2025.3837268190664
 30
0.0
 41
1.0
 10
938.26011186986352
 20
-2025.3888759829085
 30
0.0
 41
1.0
 10
938.25859325673434
 20
-2025.4764774571415
 30
0.0
 41
0.999941556732697
 10
938.25518094648851
 20
-2025.5640256188146
 30
0.0
 41
1.0
 10
938.25493962581311
 20
-2025.5702170785535
 30
0.0
 41
1.0
 10
938.25469830513771
 20
-2025.5764085382925
 30
0.0
 41
1.0
 10
938.2508033535405
 20
-2025.6763396194547
 30
0.0
 41
0.9999716810417653
 10
938.24540477042137
 20
-2025.7762007576941
 30
0.0
 41
1.0
 10
938.24219197163325
 20
-2025.8356300073397
 30
0.0
 41
1.0
 10
938.23897917284512
 20
-2025.8950592569852
 30
0.0
 41
1.0
 10
938.23090526369242
 20
-2026.0444076582667
 30
0.0
 41
0.9999819129906046
 10
938.22103547207576
 20
-2026.193648135978
 30
0.0
 41
1.0
 10
938.21116568045909
 20
-2026.3428886136894
 30
0.0
 41
1.0
 10
938.20872635989531
 20
-2026.380081659539
 30
0.0
 41
1.0
 10
938.23142459373241
 20
-2026.3413406621985
 30
0.0
 41
0.9999982128155563
 10
938.25426915247556
 20
-2026.3026857682612
 30
0.0
 41
1.0
 10
938.2811787123635
 20
-2026.257152554201
 30
0.0
 41
1.0
 10
938.30808827225133
 20
-2026.2116193401407
 30
0.0
 41
1.0
 10
938.3847519507774
 20
-2026.0818980180707
 30
0.0
 41
0.99986091900566
 10
938.46569926364032
 20
-2025.9548056361398
 30
0.0
 41
1.0
 10
938.49534758512482
 20
-2025.9082559031783
 30
0.0
 41
1.0
 10
938.52499590660921
 20
-2025.8617061702168
 30
0.0
 41
1.0
 10
938.60726812684356
 20
-2025.7325336002264
 30
0.0
 41
0.9999067609732847
 10
938.69303713630359
 20
-2025.605655910791
 30
0.0
 41
1.0
 10
938.69544183950143
 20
-2025.6020986447406
 30
0.0
 41
1.0
 10
938.69784654269927
 20
-2025.5985413786905
 30
0.0
 41
1.0
 10
938.77880614576191
 20
-2025.4787782213575
 30
0.0
 41
0.9998784952148262
 10
938.86345975544896
 20
-2025.361597004641
 30
0.0
 41
1.0
 10
938.94811336512817
 20
-2025.2444157879352
 30
0.0
 41
0.9998532968283612
 10
939.03673098594845
 20
-2025.1302028794678
 30
0.0
 41
1.0
 10
939.05669277494314
 20
-2025.104475558443
 30
0.0
 41
1.0
 10
939.07665456393784
 20
-2025.0787482374183
 30
0.0
 41
1.0
 10
939.19513861369626
 20
-2024.9260426264509
 30
0.0
 41
0.9991551975795833
 10
939.32576306331759
 20
-2024.7835830643696
 30
0.0
 41
1.0
 10
939.32927267929836
 20
-2024.7797554627441
 30
0.0
 41
1.0
 10
939.33278229527923
 20
-2024.7759278611186
 30
0.0
 41
1.0
 10
939.45638751294177
 20
-2024.6411235022854
 30
0.0
 41
0.9997418144181592
 10
939.58598965264173
 20
-2024.5120740916736
 30
0.0
 41
1.0
 10
939.71559179234077
 20
-2024.3830246810626
 30
0.0
 41
0.9989238204633241
 10
939.85659434059119
 20
-2024.266539719024
 30
0.0
 41
1.0
 10
939.90184201873353
 20
-2024.2291597274129
 30
0.0
 41
1.0
 10
939.94708969687576
 20
-2024.1917797358019
 30
0.0
 41
1.0
 10
940.08732975409555
 20
-2024.0759246825126
 30
0.0
 41
0.9990825084096576
 10
940.23696968669788
 20
-2023.9724956846808
 30
0.0
 41
1.0
 10
940.24701505075132
 20
-2023.9655524716036
 30
0.0
 41
1.0
 10
940.25706041480464
 20
-2023.9586092585266
 30
0.0
 41
1.0
 10
940.38660961929838
 20
-2023.8690666868501
 30
0.0
 41
0.9998164899824955
 10
940.5194938226781
 20
-2023.7845524453314
 30
0.0
 41
1.0
 10
940.53133938320309
 20
-2023.7770186788064
 30
0.0
 41
1.0
 10
940.54318494372808
 20
-2023.7694849122813
 30
0.0
 41
1.0
 10
940.65237802605475
 20
-2023.7000382038148
 30
0.0
 41
0.9997473449130285
 10
940.76458198330374
 20
-2023.6355692459992
 30
0.0
 41
1.0
 10
940.87678594056001
 20
-2023.5711002881797
 30
0.0
 41
0.9999327861145311
 10
940.99045455132762
 20
-2023.509250296496
 30
0.0
 41
1.0
 10
940.99100655388281
 20
-2023.50894993782
 30
0.0
 41
1.0
 10
940.99155855643801
 20
-2023.5086495791438
 30
0.0
 41
1.0
 10
941.10633117232044
 20
-2023.4461988701053
 30
0.0
 41
0.9996956420483868
 10
941.22404449815792
 20
-2023.3894854031319
 30
0.0
 41
1.0
 10
941.25448490305371
 20
-2023.3748194264003
 30
0.0
 41
1.0
 10
941.28492530794961
 20
-2023.360153449669
 30
0.0
 41
1.0
 10
941.38790241469303
 20
-2023.3105397912259
 30
0.0
 41
0.9998070570176524
 10
941.49274880363328
 20
-2023.265009204325
 30
0.0
 41
1.0
 10
941.5975951925717
 20
-2023.2194786174248
 30
0.0
 41
0.999782743614715
 10
941.70424812918066
 20
-2023.1783574461133
 30
0.0
 41
1.0
 10
941.72347097881379
 20
-2023.1709458724804
 30
0.0
 41
1.0
 10
941.74269382844693
 20
-2023.1635342988473
 30
0.0
 41
1.0
 10
941.8877924643208
 20
-2023.1075899802702
 30
0.0
 41
0.9988031841976646
 10
942.03766282692732
 20
-2023.0660899161021
 30
0.0
 41
1.0
 10
942.06258007528993
 20
-2023.0591901702956
 30
0.0
 41
1.0
 10
942.08749732365254
 20
-2023.0522904244888
 30
0.0
 41
1.0
 10
942.25476734929919
 20
-2023.0059722820822
 30
0.0
 41
0.9984748040550238
 10
942.42612425794698
 20
-2022.9783780498176
 30
0.0
 41
1.0
 10
942.43086339419654
 20
-2022.977614889304
 30
0.0
 41
1.0
 10
942.43560253044609
 20
-2022.9768517287905
 30
0.0
 41
1.0
 10
942.59748116659648
 20
-2022.9507838175527
 30
0.0
 41
0.998443649548028
 10
942.76125591032064
 20
-2022.942905863734
 30
0.0
 41
1.0
 10
942.78295311845159
 20
-2022.9418621765344
 30
0.0
 41
1.0
 10
942.80465032658265
 20
-2022.9408184893348
 30
0.0
 41
1.0
 10
942.92503065404503
 20
-2022.9350279099153
 30
0.0
 41
0.9987954789335113
 10
943.04539889895511
 20
-2022.9410644376576
 30
0.0
 41
1.0
 10
943.06536369144897
 20
-2022.9420656819962
 30
0.0
 41
1.0
 10
943.0853284839427
 20
-2022.9430669263347
 30
0.0
 41
1.0
 10
943.16576714386429
 20
-2022.9471009653998
 30
0.0
 41
0.9997941595877752
 10
943.24597592195937
 20
-2022.9543950313209
 30
0.0
 41
1.0
 10
943.3261847000532
 20
-2022.961689097242
 30
0.0
 41
0.9998589466237805
 10
943.40610324690715
 20
-2022.9716729516917
 30
0.0
 41
1.0
 10
943.43850944871622
 20
-2022.9757213086111
 30
0.0
 41
1.0
 10
943.47091565052528
 20
-2022.9797696655305
 30
0.0
 41
1.0
 10
943.61564660099498
 20
-2022.9978502338188
 30
0.0
 41
0.9993495063248934
 10
943.7586978447589
 20
-2023.0263159435599
 30
0.0
 41
1.0
 10
943.79163154191338
 20
-2023.0328694067753
 30
0.0
 41
1.0
 10
943.82456523906774
 20
-2023.0394228699904
 30
0.0
 41
1.0
 10
943.93385906227218
 20
-2023.0611712041257
 30
0.0
 41
0.9996788715561389
 10
944.04191063422741
 20
-2023.0884290034885
 30
0.0
 41
1.0
 10
944.04397363676878
 20
-2023.088949430062
 30
0.0
 41
1.0
 10
944.04603663931016
 20
-2023.0894698566356
 30
0.0
 41
1.0
 10
944.14996220618707
 20
-2023.1156868028527
 30
0.0
 41
0.9995480654492792
 10
944.25212444141323
 20
-2023.148101759476
 30
0.0
 41
1.0
 10
944.25381408353951
 20
-2023.148637864389
 30
0.0
 41
1.0
 10
944.2555037256659
 20
-2023.1491739693022
 30
0.0
 41
1.0
 10
944.35428667663996
 20
-2023.1805167160994
 30
0.0
 41
0.9993867959455922
 10
944.45063383508523
 20
-2023.2186960853903
 30
0.0
 41
1.0
 10
944.45187678417165
 20
-2023.2191886272872
 30
0.0
 41
1.0
 10
944.45311973325806
 20
-2023.219681169184
 30
0.0
 41
1.0
 10
944.54698099352959
 20
-2023.256875454681
 30
0.0
 41
0.9992050256522215
 10
944.6375806685611
 20
-2023.3014293539188
 30
0.0
 41
1.0
 10
944.63831535127474
 20
-2023.3017906463801
 30
0.0
 41
1.0
 10
944.6390500339885
 20
-2023.3021519388417
 30
0.0
 41
1.0
 10
944.72818034359477
 20
-2023.3459832531578
 30
0.0
 41
0.9990222350741822
 10
944.8130904049882
 20
-2023.3975165208558
 30
0.0
 41
1.0
 10
944.8132742902701
 20
-2023.3976281237601
 30
0.0
 41
1.0
 10
944.81345817555211
 20
-2023.3977397266644
 30
0.0
 41
1.0
 10
944.8980004663814
 20
-2023.4490497885536
 30
0.0
 41
0.9988642743804648
 10
944.97727500100086
 20
-2023.5081739760792
 30
0.0
 41
1.0
 10
945.05654953561987
 20
-2023.5672981636044
 30
0.0
 41
0.9987681233310514
 10
945.12957331989605
 20
-2023.6339888550056
 30
0.0
 41
1.0
 10
945.12990224786176
 20
-2023.6342892562197
 30
0.0
 41
1.0
 10
945.13023117582759
 20
-2023.6345896574337
 30
0.0
 41
1.0
 10
945.20391281603565
 20
-2023.7018811512633
 30
0.0
 41
0.9987496570898601
 10
945.27050662136185
 20
-2023.776193965349
 30
0.0
 41
1.0
 10
945.27127879112265
 20
-2023.7770556387072
 30
0.0
 41
1.0
 10
945.27205096088346
 20
-2023.7779173120655
 30
0.0
 41
1.0
 10
945.34018910573207
 20
-2023.8539534728686
 30
0.0
 41
0.9988147669826696
 10
945.40061135995677
 20
-2023.9362544797109
 30
0.0
 41
1.0
 10
945.4017306860344
 20
-2023.9377791110633
 30
0.0
 41
1.0
 10
945.40285001211191
 20
-2023.9393037424154
 30
0.0
 41
1.0
 10
945.46551091849221
 20
-2024.0246540119626
 30
0.0
 41
0.9989452636216141
 10
945.52007783145382
 20
-2024.1153927011208
 30
0.0
 41
1.0
 10
945.52142655753937
 20
-2024.1176354821469
 30
0.0
 41
1.0
 10
945.52277528362504
 20
-2024.119878263173
 30
0.0
 41
1.0
 10
945.58003964875809
 20
-2024.2151025143839
 30
0.0
 41
0.9991046436071055
 10
945.62904886207991
 20
-2024.3148269474095
 30
0.0
 41
1.0
 10
945.63051272366965
 20
-2024.3178056274814
 30
0.0
 41
1.0
 10
945.63197658525939
 20
-2024.3207843075536
 30
0.0
 41
1.0
 10
945.68391352176025
 20
-2024.4264661007221
 30
0.0
 41
0.9992763831101308
 10
945.72766665031577
 20
-2024.5357901626787
 30
0.0
 41
1.0
 10
945.72914591997937
 20
-2024.5394863502129
 30
0.0
 41
1.0
 10
945.73062518964286
 20
-2024.5431825377473
 30
0.0
 41
1.0
 10
945.77733685752412
 20
-2024.6598989747688
 30
0.0
 41
0.9994163472883194
 10
945.81596988871411
 20
-2024.7795325632335
 30
0.0
 41
1.0
 10
945.81720804096062
 20
-2024.7833667070156
 30
0.0
 41
1.0
 10
945.81844619320725
 20
-2024.7872008507977
 30
0.0
 41
1.0
 10
945.85832975422431
 20
-2024.9107069122749
 30
0.0
 41
0.9997268055890749
 10
945.89239781013725
 20
-2025.0359419442291
 30
0.0
 41
1.0
 10
945.89332799040676
 20
-2025.0393613103374
 30
0.0
 41
1.0
 10
945.89425817067615
 20
-2025.0427806764458
 30
0.0
 41
1.0
 10
945.92646586604849
 20
-2025.1611769761764
 30
0.0
 41
0.9996701318999977
 10
945.95255148281967
 20
-2025.2810709294431
 30
0.0
 41
1.0
 10
945.97863709959017
 20
-2025.4009648827075
 30
0.0
 41
0.9995785451109339
 10
945.99772067693016
 20
-2025.5221706437401
 30
0.0
 41
1.0
 10
946.00194045910348
 20
-2025.5489717985029
 30
0.0
 41
1.0
 10
946.00616024127692
 20
-2025.5757729532654
 30
0.0
 41
1.0
 10
946.0327352172161
 20
-2025.7445589269701
 30
0.0
 41
0.9979925101215869
 10
946.03776080314231
 20
-2025.9153502550628
 30
0.0
 41
1.0
 10
946.03858561556694
 20
-2025.9433809785432
 30
0.0
 41
1.0
 10
946.03941042799158
 20
-2025.9714117020235
 30
0.0
 41
1.0
 10
946.04278638906874
 20
-2026.0861415831532
 30
0.0
 41
0.9995314902263046
 10
946.03913619693014
 20
-2026.2008630669065
 30
0.0
 41
1.0
 10
946.03548600479166
 20
-2026.3155845506571
 30
0.0
 41
0.9996245486944495
 10
946.02555690966085
 20
-2026.4299338217807
 30
0.0
 41
1.0
 10
946.02539386166654
 20
-2026.431811577917
 30
0.0
 41
1.0
 10
946.02523081367224
 20
-2026.433689334053
 30
0.0
 41
1.0
 10
946.01497562255315
 20
-2026.5517941174442
 30
0.0
 41
0.9997286095000679
 10
945.99923029898252
 20
-2026.6692930263339
 30
0.0
 41
1.0
 10
945.99883680633161
 20
-2026.67222945104
 30
0.0
 41
1.0
 10
945.9984433136807
 20
-2026.675165875746
 30
0.0
 41
1.0
 10
945.9819110048096
 20
-2026.7985376340393
 30
0.0
 41
0.9998265533968738
 10
945.96079554607775
 20
-2026.9212081088226
 30
0.0
 41
1.0
 10
945.96011900393978
 20
-2026.9251384873351
 30
0.0
 41
1.0
 10
945.9594424618017
 20
-2026.9290688658477
 30
0.0
 41
1.0
 10
945.9369739187938
 20
-2027.0596000976559
 30
0.0
 41
0.9999022530855759
 10
945.91086445418489
 20
-2027.1894520662895
 30
0.0
 41
1.0
 10
945.90988581301951
 20
-2027.1943192086769
 30
0.0
 41
1.0
 10
945.90890717185414
 20
-2027.1991863510641
 30
0.0
 41
1.0
 10
945.88084042491334
 20
-2027.3387726044773
 30
0.0
 41
0.9999524761932909
 10
945.85005745607884
 20
-2027.4777850976411
 30
0.0
 41
1.0
 10
945.84878134890323
 20
-2027.4835478569439
 30
0.0
 41
1.0
 10
945.84750524172773
 20
-2027.4893106162467
 30
0.0
 41
1.0
 10
945.81417005853996
 20
-2027.6398486280254
 30
0.0
 41
0.9999813588713608
 10
945.7789990577412
 20
-2027.7899683406936
 30
0.0
 41
1.0
 10
945.7774451322872
 20
-2027.7966009311051
 30
0.0
 41
1.0
 10
945.77589120683319
 20
-2027.8032335215166
 30
0.0
 41
1.0
 10
945.737612355127
 20
-2027.9666184150058
 30
0.0
 41
0.9999955237645201
 10
945.69835647713955
 20
-2028.1297713186416
 30
0.0
 41
1.0
 10
945.68607484150721
 20
-2028.1808155091558
 30
0.0
 41
1.0
 10
945.67379320587497
 20
-2028.2318596996699
 30
0.0
 41
1.0
 10
945.60997405664875
 20
-2028.4971009842266
 30
0.0
 41
0.999999360454061
 10
945.54555510947773
 20
-2028.7621972349243
 30
0.0
 41
1.0
 10
945.54083627392072
 20
-2028.7816161430057
 30
0.0
 41
1.0
 10
945.5361174383637
 20
-2028.8010350510872
 30
0.0
 41
1.0
 10
945.46226082010537
 20
-2029.1049691178378
 30
0.0
 41
0.9999659914726419
 10
945.38340122421937
 20
-2029.4076436643998
 30
0.0
 41
1.0
 10
945.37844853528804
 20
-2029.4266528015851
 30
0.0
 41
1.0
 10
945.3734958463566
 20
-2029.4456619387702
 30
0.0
 41
1.0
 10
945.28473087260943
 20
-2029.7863547596958
 30
0.0
 41
0.9999441976025583
 10
945.18878783964055
 20
-2030.1250961850139
 30
0.0
 41
1.0
 10
945.17208732121867
 20
-2030.1840598975289
 30
0.0
 41
1.0
 10
945.15538680279667
 20
-2030.2430236100438
 30
0.0
 41
1.0
 10
945.02604273298516
 20
-2030.6996924603882
 30
0.0
 41
0.9999625120736942
 10
944.88880996566832
 20
-2031.1540529943622
 30
0.0
 41
1.0
 10
944.8530200225814
 20
-2031.2725490210028
 30
0.0
 41
1.0
 10
944.81723007949438
 20
-2031.3910450476433
 30
0.0
 41
1.0
 10
944.74270987545549
 20
-2031.6377721257386
 30
0.0
 41
0.9999793386308726
 10
944.66502385231411
 20
-2031.8835207649865
 30
0.0
 41
1.0
 10
944.58733782917648
 20
-2032.1292694042227
 30
0.0
 41
1.0
 10
944.5765582703059
 20
-2032.1632873085973
 30
0.0
 41
1.0
 10
942.72618521703669
 20
-2038.0503592310647
 30
0.0
 41
1.0
 10
940.87581216376748
 20
-2043.9374311535321
 30
0.0
 41
1.0
 10
939.91455547374392
 20
-2043.9374311535321
 30
0.0
 41
1.0
 10
938.95329878372036
 20
-2043.9374311535321
 30
0.0
 41
1.0
 10
940.57224356239885
 20
-2038.7894026517426
 30
0.0
 41
1.0
 10
942.19118834107735
 20
-2033.6413741499532
 30
0.0
 41
1.0
 10
942.23635416425384
 20
-2033.4973429276763
 30
0.0
 41
1.0
 10
942.28151998743033
 20
-2033.3533117053994
 30
0.0
 41
1.0
 10
942.45182440479152
 20
-2032.8102206762419
 30
0.0
 41
0.9999911657914915
 10
942.61755721646887
 20
-2032.2657171448875
 30
0.0
 41
1.0
 10
942.64725315996839
 20
-2032.1681532048401
 30
0.0
 41
1.0
 10
942.67694910346802
 20
-2032.0705892647925
 30
0.0
 41
1.0
 10
942.78329002814758
 20
-2031.721213613529
 30
0.0
 41
0.9999952428135578
 10
942.88747361747403
 20
-2031.3711885891742
 30
0.0
 41
1.0
 10
942.89253308780519
 20
-2031.3541903149035
 30
0.0
 41
1.0
 10
942.89759255813635
 20
-2031.3371920406328
 30
0.0
 41
1.0
 10
942.99165720679957
 20
-2031.0211635648229
 30
0.0
 41
0.9999931687554465
 10
943.08338304467259
 20
-2030.704448351554
 30
0.0
 41
1.0
 10
943.08831830913641
 20
-2030.6874076422682
 30
0.0
 41
1.0
 10
943.09325357360012
 20
-2030.6703669329825
 30
0.0
 41
1.0
 10
943.17510888255038
 20
-2030.3877331382689
 30
0.0
 41
0.9999893840781223
 10
943.25435610900308
 20
-2030.1043570090369
 30
0.0
 41
1.0
 10
943.33360333545784
 20
-2029.8209808797978
 30
0.0
 41
0.9999833980069249
 10
943.40957957619594
 20
-2029.5367102967837
 30
0.0
 41
1.0
 10
943.41858351292103
 20
-2029.5030214182948
 30
0.0
 41
1.0
 10
943.42758744964613
 20
-2029.4693325398057
 30
0.0
 41
1.0
 10
943.49655199851406
 20
-2029.2112967075034
 30
0.0
 41
0.9999233658064124
 10
943.55910696973353
 20
-2028.9516325487839
 30
0.0
 41
1.0
 10
943.6216619409538
 20
-2028.6919683900614
 30
0.0
 41
1.0
 10
943.66114535981137
 20
-2028.5281617256353
 30
0.0
 41
1.0
 10
943.66612396378309
 20
-2028.5075067637881
 30
0.0
 41
1.0
 10
943.6711025677547
 20
-2028.4868518019409
 30
0.0
 41
1.0
 10
943.70062877866394
 20
-2028.3643550612292
 30
0.0
 41
0.9999868670850763
 10
943.72889786266512
 20
-2028.2415621155637
 30
0.0
 41
1.0
 10
943.73279534982544
 20
-2028.2246325281353
 30
0.0
 41
1.0
 10
943.73669283698575
 20
-2028.2077029407069
 30
0.0
 41
1.0
 10
943.75716694666505
 20
-2028.1187691699015
 30
0.0
 41
0.9999778173345244
 10
943.7764545447767
 20
-2028.0295705526878
 30
0.0
 41
1.0
 10
943.79574214289357
 20
-2027.9403719354505
 30
0.0
 41
0.9999602692858455
 10
943.81343650152667
 20
-2027.850843647012
 30
0.0
 41
1.0
 10
943.81664033360244
 20
-2027.8346331921357
 30
0.0
 41
1.0
 10
943.81984416567809
 20
-2027.8184227372597
 30
0.0
 41
1.0
 10
943.84394618846443
 20
-2027.6964735390611
 30
0.0
 41
0.9995617985320366
 10
943.86078953568301
 20
-2027.5733117913546
 30
0.0
 41
1.0
 10
943.86325402558873
 20
-2027.5552909739927
 30
0.0
 41
1.0
 10
943.86571851549456
 20
-2027.5372701566305
 30
0.0
 41
1.0
 10
943.88600177654325
 20
-2027.3889551069269
 30
0.0
 41
0.9991121410639791
 10
943.89372713013199
 20
-2027.2394590081174
 30
0.0
 41
1.0
 10
943.89464592015622
 20
-2027.2216791715482
 30
0.0
 41
1.0
 10
943.89556471018045
 20
-2027.203899334979
 30
0.0
 41
1.0
 10
943.90145248371994
 20
-2027.089962909318
 30
0.0
 41
0.9989792494906636
 10
943.89703339160292
 20
-2026.9759600734128
 30
0.0
 41
1.0
 10
943.8963854197342
 20
-2026.9592438274849
 30
0.0
 41
1.0
 10
943.89573744786549
 20
-2026.942527581557
 30
0.0
 41
1.0
 10
943.89261429948556
 20
-2026.8619572375137
 30
0.0
 41
0.9997820295394551
 10
943.8861303021099
 20
-2026.7815875157705
 30
0.0
 41
1.0
 10
943.87964630473425
 20
-2026.7012177940269
 30
0.0
 41
0.9998335105972531
 10
943.87023410922257
 20
-2026.621138177577
 30
0.0
 41
1.0
 10
943.86863918454617
 20
-2026.6075684470936
 30
0.0
 41
1.0
 10
943.86704425986977
 20
-2026.5939987166103
 30
0.0
 41
1.0
 10
943.85444221500507
 20
-2026.4867796391918
 30
0.0
 41
0.9996876457879045
 10
943.83649830220691
 20
-2026.380324211478
 30
0.0
 41
1.0
 10
943.83426663906175
 20
-2026.3670844762373
 30
0.0
 41
1.0
 10
943.83203497591671
 20
-2026.3538447409965
 30
0.0
 41
1.0
 10
943.81823915449581
 20
-2026.2719985970386
 30
0.0
 41
0.9995547496494801
 10
943.7995858326027
 20
-2026.1911210998448
 30
0.0
 41
1.0
 10
943.79921187573154
 20
-2026.1894996891401
 30
0.0
 41
1.0
 10
943.79883791886039
 20
-2026.1878782784352
 30
0.0
 41
1.0
 10
943.7809325107105
 20
-2026.1102436026561
 30
0.0
 41
0.9994899427176338
 10
943.7581076020308
 20
-2026.0339103198194
 30
0.0
 41
1.0
 10
943.75764907529026
 20
-2026.0323768700316
 30
0.0
 41
1.0
 10
943.75719054854972
 20
-2026.0308434202439
 30
0.0
 41
1.0
 10
943.73528269335179
 20
-2025.9575770369861
 30
0.0
 41
0.9993784877590349
 10
943.70826705824493
 20
-2025.8860363318261
 30
0.0
 41
1.0
 10
943.70773536726824
 20
-2025.8846283491062
 30
0.0
 41
1.0
 10
943.70720367629156
 20
-2025.8832203663862
 30
0.0
 41
1.0
 10
943.68125142313886
 20
-2025.8144956266683
 30
0.0
 41
0.9992430832254329
 10
943.6500348879789
 20
-2025.7479964745987
 30
0.0
 41
1.0
 10
943.64945277192237
 20
-2025.7467564194817
 30
0.0
 41
1.0
 10
943.64887065586584
 20
-2025.7455163643644
 30
0.0
 41
1.0
 10
943.61881835281963
 20
-2025.681497322531
 30
0.0
 41
0.9990789632799085
 10
943.58338772604282
 20
-2025.6202907107809
 30
0.0
 41
1.0
 10
943.58279201986079
 20
-2025.6192616249216
 30
0.0
 41
1.0
 10
943.58219631367876
 20
-2025.6182325390623
 30
0.0
 41
1.0
 10
943.54795709926577
 20
-2025.5590840990305
 30
0.0
 41
0.9988874801120333
 10
943.5082978232341
 20
-2025.5034243866132
 30
0.0
 41
1.0
 10
943.50774229717024
 20
-2025.5026447349392
 30
0.0
 41
1.0
 10
943.50718677110638
 20
-2025.5018650832649
 30
0.0
 41
1.0
 10
943.46863854720289
 20
-2025.4477646741966
 30
0.0
 41
0.9986762060693469
 10
943.42473607592592
 20
-2025.3979109597562
 30
0.0
 41
1.0
 10
943.42429211559443
 20
-2025.3974068179405
 30
0.0
 41
1.0
 10
943.42384815526282
 20
-2025.3969026761245
 30
0.0
 41
1.0
 10
943.38083360465077
 20
-2025.3480572453186
 30
0.0
 41
0.9984621642490398
 10
943.33267604787193
 20
-2025.304273944846
 30
0.0
 41
1.0
 10
943.33242941335402
 20
-2025.3040497126813
 30
0.0
 41
1.0
 10
943.33218277883623
 20
-2025.3038254805167
 30
0.0
 41
1.0
 10
943.28451849109229
 20
-2025.2604906443732
 30
0.0
 41
0.9982724693850946
 10
943.23209985925268
 20
-2025.2230462938571
 30
0.0
 41
1.0
 10
943.17968122741149
 20
-2025.1856019433396
 30
0.0
 41
0.9981399180158715
 10
943.12309516401922
 20
-2025.1548154238967
 30
0.0
 41
1.0
 10
943.12304950194016
 20
-2025.1547905807392
 30
0.0
 41
1.0
 10
943.12300383986098
 20
-2025.1547657375816
 30
0.0
 41
1.0
 10
943.06632645231014
 20
-2025.1239295318235
 30
0.0
 41
0.9980927086836431
 10
943.00628110124387
 20
-2025.100312722971
 30
0.0
 41
1.0
 10
943.00584093153248
 20
-2025.1001395970961
 30
0.0
 41
1.0
 10
943.00540076182097
 20
-2025.0999664712213
 30
0.0
 41
1.0
 10
942.94447507133179
 20
-2025.076003410619
 30
0.0
 41
0.9981411356562411
 10
942.88108654993289
 20
-2025.0596307691135
 30
0.0
 41
1.0
 10
942.88020443323092
 20
-2025.0594029269078
 30
0.0
 41
1.0
 10
942.87932231652894
 20
-2025.0591750847022
 30
0.0
 41
1.0
 10
942.81416956172654
 20
-2025.0423467587857
 30
0.0
 41
0.998303181293447
 10
942.74750213273239
 20
-2025.0332073976097
 30
0.0
 41
1.0
 10
942.73863110732782
 20
-2025.0319912789382
 30
0.0
 41
1.0
 10
942.72976008192336
 20
-2025.0307751602668
 30
0.0
 41
1.0
 10
942.67541043941958
 20
-2025.0233244302758
 30
0.0
 41
0.9983887708262267
 10
942.62056659012717
 20
-2025.0220797566426
 30
0.0
 41
1.0
 10
942.61250318491057
 20
-2025.0218967587678
 30
0.0
 41
1.0
 10
942.60443977969396
 20
-2025.0217137608929
 30
0.0
 41
1.0
 10
942.5657227408351
 20
-2025.0208350830094
 30
0.0
 41
0.9998869563078477
 10
942.52699678763167
 20
-2025.0211209523691
 30
0.0
 41
1.0
 10
942.48827083441188
 20
-2025.021406821729
 30
0.0
 41
0.9999972320039312
 10
942.44954665518287
 20
-2025.0218749212581
 30
0.0
 41
1.0
 10
942.43019363862049
 20
-2025.0221088613473
 30
0.0
 41
1.0
 10
942.41084062205823
 20
-2025.0223428014365
 30
0.0
 41
1.0
 10
942.33341040968673
 20
-2025.0232787811442
 30
0.0
 41
0.9997304945086166
 10
942.25610710344836
 20
-2025.0278078749304
 30
0.0
 41
1.0
 10
942.24705746174482
 20
-2025.0283380809203
 30
0.0
 41
1.0
 10
942.23800782004139
 20
-2025.0288682869102
 30
0.0
 41
1.0
 10
942.14260523039241
 20
-2025.0344577926764
 30
0.0
 41
0.9997888306414771
 10
942.04751289454714
 20
-2025.0439627571659
 30
0.0
 41
1.0
 10
942.03879183297715
 20
-2025.0448344717977
 30
0.0
 41
1.0
 10
942.03007077140717
 20
-2025.0457061864295
 30
0.0
 41
1.0
 10
941.91753631242102
 20
-2025.0569545801825
 30
0.0
 41
0.9984170238190863
 10
941.80697716507166
 20
-2025.0807706621176
 30
0.0
 41
1.0
 10
941.77059603408429
 20
-2025.0886076979239
 30
0.0
 41
1.0
 10
941.73421490309704
 20
-2025.0964447337301
 30
0.0
 41
1.0
 10
941.61902383467441
 20
-2025.12125860024
 30
0.0
 41
0.9976592854199553
 10
941.50829566826826
 20
-2025.1615572773876
 30
0.0
 41
1.0
 10
941.39756750186075
 20
-2025.2018559545359
 30
0.0
 41
0.9993255074352123
 10
941.29009570306778
 20
-2025.2501728530292
 30
0.0
 41
1.0
 10
941.28547052414683
 20
-2025.2522522292279
 30
0.0
 41
1.0
 10
941.28084534522588
 20
-2025.2543316054266
 30
0.0
 41
1.0
 10
941.16412318858954
 20
-2025.3068072563181
 30
0.0
 41
0.997647507827503
 10
941.05567584427979
 20
-2025.3747552459758
 30
0.0
 41
1.0
 10
941.03733345014246
 20
-2025.3862477247922
 30
0.0
 41
1.0
 10
941.01899105600512
 20
-2025.3977402036082
 30
0.0
 41
1.0
 10
940.93478886445541
 20
-2025.4504973243752
 30
0.0
 41
0.9995131336406529
 10
940.85404114949904
 20
-2025.5084035363277
 30
0.0
 41
1.0
 10
940.77329343454028
 20
-2025.566309748282
 30
0.0
 41
0.9995810107606269
 10
940.69603178681177
 20
-2025.6287914307477
 30
0.0
 41
1.0
 10
940.69306175560223
 20
-2025.6311933022116
 30
0.0
 41
1.0
 10
940.69009172439269
 20
-2025.6335951736758
 30
0.0
 41
1.0
 10
940.60689001424691
 20
-2025.7008805990681
 30
0.0
 41
0.9996617837954612
 10
940.52729932711179
 20
-2025.7724010546276
 30
0.0
 41
1.0
 10
940.5151685762321
 20
-2025.7833017876205
 30
0.0
 41
1.0
 10
940.50303782535241
 20
-2025.7942025206137
 30
0.0
 41
1.0
 10
940.43476229795556
 20
-2025.8555551360864
 30
0.0
 41
0.9997267750052961
 10
940.36942878967318
 20
-2025.9200316726105
 30
0.0
 41
1.0
 10
940.30409528139216
 20
-2025.9845082091333
 30
0.0
 41
0.9999667288956786
 10
940.23982233824779
 20
-2026.0500420160256
 30
0.0
 41
1.0
 10
940.17099489047018
 20
-2026.1202196747863
 30
0.0
 41
1.0
 10
940.10216744269258
 20
-2026.1903973335468
 30
0.0
 41
1.0
 10
939.90023960399481
 20
-2026.3962864579587
 30
0.0
 41
0.9988205335174935
 10
939.71923398701529
 20
-2026.6207906900195
 30
0.0
 41
1.0
 10
939.68859402211115
 20
-2026.6587939404487
 30
0.0
 41
1.0
 10
939.65795405720689
 20
-2026.696797190878
 30
0.0
 41
1.0
 10
939.41566851041614
 20
-2026.9973079238007
 30
0.0
 41
0.9997077826755003
 10
939.18819055930987
 20
-2027.3091777180189
 30
0.0
 41
1.0
 10
939.18646714418082
 20
-2027.3115405013964
 30
0.0
 41
1.0
 10
939.18474372905189
 20
-2027.3139032847739
 30
0.0
 41
1.0
 10
938.95381894768582
 20
-2027.6304986457492
 30
0.0
 41
0.9989147567079005
 10
938.75335544480208
 20
-2027.9672081069343
 30
0.0
 41
1.0
 10
938.72861429949717
 20
-2028.0087646874836
 30
0.0
 41
1.0
 10
938.70387315419214
 20
-2028.0503212680326
 30
0.0
 41
1.0
 10
938.54866185555386
 20
-2028.3110226524871
 30
0.0
 41
0.9997476598181405
 10
938.40531686804138
 20
-2028.5784324010742
 30
0.0
 41
1.0
 10
938.2619718805322
 20
-2028.8458421496557
 30
0.0
 41
0.9996258967109264
 10
938.13346362860102
 20
-2029.1206900862787
 30
0.0
 41
1.0
 10
938.12026371914772
 20
-2029.1489214863818
 30
0.0
 41
1.0
 10
938.10706380969452
 20
-2029.1771528864851
 30
0.0
 41
1.0
 10
937.96685508869939
 20
-2029.4770252844282
 30
0.0
 41
0.9998735413943595
 10
937.83625374198027
 20
-2029.7812048838932
 30
0.0
 41
1.0
 10
937.8328109139195
 20
-2029.7892234693586
 30
0.0
 41
1.0
 10
937.82936808585873
 20
-2029.7972420548238
 30
0.0
 41
1.0
 10
937.70565239526013
 20
-2030.0853844833605
 30
0.0
 41
0.9999377418858921
 10
937.58839759308512
 20
-2030.3762159510359
 30
0.0
 41
1.0
 10
937.47114279090886
 20
-2030.6670474187142
 30
0.0
 41
0.999950829950654
 10
937.35967884753222
 20
-2030.9601470955342
 30
0.0
 41
1.0
 10
937.35659807886987
 20
-2030.9682481214977
 30
0.0
 41
1.0
 10
937.35351731020762
 20
-2030.976349147461
 30
0.0
 41
1.0
 10
937.23589182951287
 20
-2031.2856508761906
 30
0.0
 41
0.999960922842921
 10
937.12375322664025
 20
-2031.596983892201
 30
0.0
 41
1.0
 10
937.12079721628618
 20
-2031.6051907326228
 30
0.0
 41
1.0
 10
937.11784120593211
 20
-2031.6133975730445
 30
0.0
 41
1.0
 10
936.99979058235567
 20
-2031.9411442698877
 30
0.0
 41
0.9999674607407595
 10
936.88704305628335
 20
-2032.2707528898952
 30
0.0
 41
1.0
 10
936.83564466572363
 20
-2032.4210120855792
 30
0.0
 41
1.0
 10
936.78424627516392
 20
-2032.5712712812629
 30
0.0
 41
1.0
 10
936.66823566840833
 20
-2032.9104192637594
 30
0.0
 41
0.9999287532307836
 10
936.56035426443702
 20
-2033.2522400027367
 30
0.0
 41
1.0
 10
936.51387700832424
 20
-2033.399502547024
 30
0.0
 41
1.0
 10
936.46739975221135
 20
-2033.5467650913115
 30
0.0
 41
1.0
 10
936.45247286048857
 20
-2033.5940607416414
 30
0.0
 41
0.9999998223528909
 10
936.4376023517359
 20
-2033.6413741499532
 30
0.0
 41
1.0
 10
934.81694621494046
 20
-2038.7894026517426
 30
0.0
 41
1.0
 10
933.19629007814501
 20
-2043.9374311535321
 30
0.0
 41
1.0
 10
932.29098163425408
 20
-2043.9374311535321
 30
0.0
 41
1.0
 10
931.38567319036315
 20
-2043.9374311535321
 30
0.0
 41
1.0
 10
933.23775760174919
 20
-2038.0503592310647
 30
0.0
 41
1.0
 10
935.08984201313524
 20
-2032.1632873085973
 30
0.0
 41
1.0
 10
935.09996377143784
 20
-2032.1312440951474
 30
0.0
 41
1.0
 10
935.17257144028758
 20
-2031.9009445533216
 30
0.0
 41
1.0
 10
935.24517910913892
 20
-2031.6706450114907
 30
0.0
 41
0.9999825681971903
 10
935.31506214834678
 20
-2031.4395041164378
 30
0.0
 41
1.0
 10
935.36335321050763
 20
-2031.2797795329416
 30
0.0
 41
1.0
 10
935.41164427266847
 20
-2031.1200549494454
 30
0.0
 41
1.0
 10
935.50879662598527
 20
-2030.7987197276702
 30
0.0
 41
0.9999672528963381
 10
935.60073543160968
 20
-2030.4758541820809
 30
0.0
 41
1.0
 10
935.60352431527826
 20
-2030.4660603366947
 30
0.0
 41
1.0
 10
935.60631319894696
 20
-2030.4562664913087
 30
0.0
 41
1.0
 10
935.69267423723568
 20
-2030.1529886364854
 30
0.0
 41
0.9999899749162704
 10
935.77631584676772
 20
-2029.8489495480421
 30
0.0
 41
1.0
 10
935.78642176578751
 20
-2029.8122143103556
 30
0.0
 41
1.0
 10
935.79652768480719
 20
-2029.775479072669
 30
0.0
 41
1.0
 10
935.85995745630521
 20
-2029.5449104595796
 30
0.0
 41
0.9999214200506184
 10
935.91758688468019
 20
-2029.3128241173804
 30
0.0
 41
1.0
 10
935.93035273685916
 20
-2029.2614132319909
 30
0.0
 41
1.0
 10
935.94311858903814
 20
-2029.2100023466014
 30
0.0
 41
1.0
 10
935.97521631305608
 20
-2029.0807377751794
 30
0.0
 41
0.9999828681679034
 10
936.0057985650534
 20
-2028.9511063007035
 30
0.0
 41
1.0
 10
936.03638081704867
 20
-2028.8214748262367
 30
0.0
 41
0.9999389844473301
 10
936.06409180584001
 20
-2028.691199370327
 30
0.0
 41
1.0
 10
936.07122954955923
 20
-2028.6576432664942
 30
0.0
 41
1.0
 10
936.07836729327846
 20
-2028.6240871626612
 30
0.0
 41
1.0
 10
936.12035376950712
 20
-2028.4266994990912
 30
0.0
 41
0.9998933699440189
 10
936.1565580339086
 20
-2028.2281698913375
 30
0.0
 41
1.0
 10
936.15793085912583
 20
-2028.220641870636
 30
0.0
 41
1.0
 10
936.15930368434306
 20
-2028.2131138499346
 30
0.0
 41
1.0
 10
936.19825359917866
 20
-2027.9995282007799
 30
0.0
 41
0.9996850305193252
 10
936.22643727543698
 20
-2027.7842571953447
 30
0.0
 41
1.0
 10
936.22843230880596
 20
-2027.769018841225
 30
0.0
 41
1.0
 10
936.23042734217495
 20
-2027.7537804871054
 30
0.0
 41
1.0
 10
936.25783520463426
 20
-2027.5444352599472
 30
0.0
 41
0.9994697936706934
 10
936.27155976385393
 20
-2027.3337500646169
 30
0.0
 41
1.0
 10
936.27203683310381
 20
-2027.3264265924031
 30
0.0
 41
1.0
 10
936.27251390235358
 20
-2027.3191031201893
 30
0.0
 41
1.0
 10
936.28528432307371
 20
-2027.1230648692851
 30
0.0
 41
0.9991804893136789
 10
936.28215600680073
 20
-2026.9266360193128
 30
0.0
 41
1.0
 10
936.28207212797861
 20
-2026.9213692179019
 30
0.0
 41
1.0
 10
936.2819882491566
 20
-2026.9161024164907
 30
0.0
 41
1.0
 10
936.2790276905281
 20
-2026.7302071693421
 30
0.0
 41
0.9988448329321595
 10
936.25823614490423
 20
-2026.545454579506
 30
0.0
 41
1.0
 10
936.25664207120133
 20
-2026.5312897237359
 30
0.0
 41
1.0
 10
936.25504799749842
 20
-2026.5171248679655
 30
0.0
 41
1.0
 10
936.23744459928071
 20
-2026.3607019896745
 30
0.0
 41
0.9985503209458868
 10
936.20312832698085
 20
-2026.2070778055834
 30
0.0
 41
1.0
 10
936.19554233490953
 20
-2026.173117478183
 30
0.0
 41
1.0
 10
936.18795634283833
 20
-2026.1391571507829
 30
0.0
 41
1.0
 10
936.1688120546811
 20
-2026.0534536214939
 30
0.0
 41
0.99910367813704
 10
936.14248719303009
 20
-2025.9696765341691
 30
0.0
 41
1.0
 10
936.13850496757425
 20
-2025.9570033716591
 30
0.0
 41
1.0
 10
936.13452274211841
 20
-2025.9443302091488
 30
0.0
 41
1.0
 10
936.11616233137784
 20
-2025.8858994468408
 30
0.0
 41
0.9998874504369386
 10
936.09605712370046
 20
-2025.8280458446209
 30
0.0
 41
1.0
 10
936.07595191602195
 20
-2025.7701922423971
 30
0.0
 41
0.9994041637543275
 10
936.05190330308722
 20
-2025.7138635385065
 30
0.0
 41
1.0
 10
936.04770651886315
 20
-2025.7040334740245
 30
0.0
 41
1.0
 10
936.04350973463897
 20
-2025.6942034095423
 30
0.0
 41
1.0
 10
936.01563090364471
 20
-2025.6289032435755
 30
0.0
 41
0.9991846840701559
 10
935.98257454695204
 20
-2025.5660652122963
 30
0.0
 41
1.0
 10
935.98143794055727
 20
-2025.5639045958419
 30
0.0
 41
1.0
 10
935.98030133416239
 20
-2025.5617439793878
 30
0.0
 41
1.0
 10
935.94951819025846
 20
-2025.5032271810153
 30
0.0
 41
0.99892531679235
 10
935.91344876620406
 20
-2025.4478122526259
 30
0.0
 41
1.0
 10
935.91239464152989
 20
-2025.4461927578636
 30
0.0
 41
1.0
 10
935.91134051685572
 20
-2025.4445732631013
 30
0.0
 41
1.0
 10
935.87737934214965
 20
-2025.3923973242365
 30
0.0
 41
0.9986467172837201
 10
935.83818218951171
 20
-2025.3440312906062
 30
0.0
 41
1.0
 10
935.83730806081064
 20
-2025.3429526883274
 30
0.0
 41
1.0
 10
935.83643393210957
 20
-2025.3418740860488
 30
0.0
 41
1.0
 10
935.798985036874
 20
-2025.295665256976
 30
0.0
 41
0.9984001104266195
 10
935.75655830635708
 20
-2025.2539801496077
 30
0.0
 41
1.0
 10
935.75597116824747
 20
-2025.2534032747262
 30
0.0
 41
1.0
 10
935.75538403013786
 20
-2025.2528263998447
 30
0.0
 41
1.0
 10
935.71413157583959
 20
-2025.2122950422388
 30
0.0
 41
0.9982442159083811
 10
935.66837547450439
 20
-2025.1769264809789
 30
0.0
 41
1.0
 10
935.66816067904301
 20
-2025.1767604483362
 30
0.0
 41
1.0
 10
935.66794588358175
 20
-2025.1765944156932
 30
0.0
 41
1.0
 10
935.62261937316919
 20
-2025.1415579197189
 30
0.0
 41
0.9982450060836586
 10
935.57346839409706
 20
-2025.112126136685
 30
0.0
 41
1.0
 10
935.52431741502448
 20
-2025.0826943536508
 30
0.0
 41
0.9983922639634039
 10
935.47215110885929
 20
-2025.0590147189967
 30
0.0
 41
1.0
 10
935.47192423153547
 20
-2025.0589117335155
 30
0.0
 41
1.0
 10
935.47169735421153
 20
-2025.0588087480344
 30
0.0
 41
1.0
 10
935.41907729339846
 20
-2025.0349231424177
 30
0.0
 41
0.9986517147150528
 10
935.36426432053099
 20
-2025.0166220232961
 30
0.0
 41
1.0
 10
935.36358639910259
 20
-2025.0163956768645
 30
0.0
 41
1.0
 10
935.36290847767407
 20
-2025.0161693304328
 30
0.0
 41
1.0
 10
935.30673966195025
 20
-2024.9974155184482
 30
0.0
 41
0.9989435598956746
 10
935.24908627479772
 20
-2024.9838978162134
 30
0.0
 41
1.0
 10
935.24800615521667
 20
-2024.9836445659605
 30
0.0
 41
1.0
 10
935.24692603563562
 20
-2024.9833913157076
 30
0.0
 41
1.0
 10
935.18711240932112
 20
-2024.9693671129671
 30
0.0
 41
0.9992249241239553
 10
935.12638090042378
 20
-2024.9600917702521
 30
0.0
 41
1.0
 10
935.12496721213256
 20
-2024.9598758618442
 30
0.0
 41
1.0
 10
935.12355352384145
 20
-2024.9596599534364
 30
0.0
 41
1.0
 10
935.05999463836145
 20
-2024.9499527939056
 30
0.0
 41
0.9994396597834201
 10
934.99592870182369
 20
-2024.9445198715596
 30
0.0
 41
1.0
 10
934.97678803434655
 20
-2024.9428967038411
 30
0.0
 41
1.0
 10
934.95764736686942
 20
-2024.9412735361225
 30
0.0
 41
1.0
 10
934.85530009537854
 20
-2024.9325942783396
 30
0.0
 41
0.998769340312121
 10
934.75259647179325
 20
-2024.934097341792
 30
0.0
 41
1.0
 10
934.74234213756336
 20
-2024.9342474135663
 30
0.0
 41
1.0
 10
934.73208780333357
 20
-2024.9343974853405
 30
0.0
 41
1.0
 10
934.62253203715545
 20
-2024.936000829628
 30
0.0
 41
0.9989753644966641
 10
934.51357003713986
 20
-2024.9475038365531
 30
0.0
 41
1.0
 10
934.40460803712301
 20
-2024.9590068434782
 30
0.0
 41
0.9983190067305695
 10
934.29770922615774
 20
-2024.9830418352651
 30
0.0
 41
1.0
 10
934.28880827455134
 20
-2024.9850431138277
 30
0.0
 41
1.0
 10
934.27990732294495
 20
-2024.9870443923903
 30
0.0
 41
1.0
 10
934.15520660876791
 20
-2025.0150819413022
 30
0.0
 41
0.9985539388303009
 10
934.03423685509154
 20
-2025.0563456173472
 30
0.0
 41
1.0
 10
934.03189142412975
 20
-2025.0571456611635
 30
0.0
 41
1.0
 10
934.02954599316797
 20
-2025.0579457049798
 30
0.0
 41
1.0
 10
933.90388537756803
 20
-2025.1008094686576
 30
0.0
 41
0.9988468746493454
 10
933.78291503526623
 20
-2025.155527553721
 30
0.0
 41
1.0
 10
933.77973221327898
 20
-2025.1569672282803
 30
0.0
 41
1.0
 10
933.77654939129184
 20
-2025.1584069028395
 30
0.0
 41
1.0
 10
933.64921340501303
 20
-2025.2160043370222
 30
0.0
 41
0.9991322885919229
 10
933.5271128209547
 20
-2025.2839996692051
 30
0.0
 41
1.0
 10
933.50951080991263
 20
-2025.2938018711939
 30
0.0
 41
1.0
 10
933.49190879887044
 20
-2025.3036040731824
 30
0.0
 41
1.0
 10
933.38973211781297
 20
-2025.3605041889634
 30
0.0
 41
0.9993860037849982
 10
933.2917911137389
 20
-2025.4244202045522
 30
0.0
 41
1.0
 10
933.28617280089543
 20
-2025.4280866992412
 30
0.0
 41
1.0
 10
933.28055448805185
 20
-2025.4317531939305
 30
0.0
 41
1.0
 10
933.19385010967437
 20
-2025.4883362201349
 30
0.0
 41
0.9998821494953114
 10
933.10892373385263
 20
-2025.5475544502176
 30
0.0
 41
1.0
 10
933.02399735803738
 20
-2025.6067726802962
 30
0.0
 41
0.9997976482743629
 10
932.94152172763381
 20
-2025.6693590883381
 30
0.0
 41
1.0
 10
932.92688546283011
 20
-2025.680465778117
 30
0.0
 41
1.0
 10
932.9122491980263
 20
-2025.6915724678959
 30
0.0
 41
1.0
 10
932.80050103801159
 20
-2025.7763722554982
 30
0.0
 41
0.9998091630801143
 10
932.69215075998318
 20
-2025.8654726062002
 30
0.0
 41
1.0
 10
932.6791450075068
 20
-2025.8761677066454
 30
0.0
 41
1.0
 10
932.66613925503054
 20
-2025.8868628070907
 30
0.0
 41
1.0
 10
932.53177747204643
 20
-2025.9973533586856
 30
0.0
 41
0.9995035112316307
 10
932.40464159428154
 20
-2026.1160871757022
 30
0.0
 41
1.0
 10
932.3949942838949
 20
-2026.1250969218595
 30
0.0
 41
1.0
 10
932.38534697350826
 20
-2026.1341066680168
 30
0.0
 41
1.0
 10
932.26192391074414
 20
-2026.2493730397714
 30
0.0
 41
0.9994630424299179
 10
932.14631550496108
 20
-2026.3724757830059
 30
0.0
 41
1.0
 10
932.14263266619037
 20
-2026.3763973625182
 30
0.0
 41
1.0
 10
932.13894982741954
 20
-2026.3803189420305
 30
0.0
 41
1.0
 10
932.03070709917711
 20
-2026.4955785262412
 30
0.0
 41
0.9995160693750286
 10
931.92984106964525
 20
-2026.6173459441136
 30
0.0
 41
1.0
 10
931.92790734956657
 20
-2026.6196803683192
 30
0.0
 41
1.0
 10
931.925973629488
 20
-2026.6220147925249
 30
0.0
 41
1.0
 10
931.82897504011351
 20
-2026.7391133619858
 30
0.0
 41
0.9996561470514913
 10
931.73824882144743
 20
-2026.8611361244352
 30
0.0
 41
1.0
 10
931.73209115554459
 20
-2026.8694179134786
 30
0.0
 41
1.0
 10
931.72593348964165
 20
-2026.8776997025222
 30
0.0
 41
1.0
 10
931.64752260278033
 20
-2026.983158886886
 30
0.0
 41
0.9998349055173649
 10
931.57299532084926
 20
-2027.0913974705479
 30
0.0
 41
1.0
 10
931.49846803892001
 20
-2027.1996360542071
 30
0.0
 41
0.9999728109573739
 10
931.42554514301446
 20
-2027.3089619797552
 30
0.0
 41
1.0
 10
931.42422992759884
 20
-2027.3109337492633
 30
0.0
 41
1.0
 10
931.42291471218334
 20
-2027.3129055187717
 30
0.0
 41
1.0
 10
931.34736138544031
 20
-2027.4261749833458
 30
0.0
 41
0.9999972147449868
 10
931.27234357508291
 20
-2027.5397998261567
 30
0.0
 41
1.0
 10
931.26737203245693
 20
-2027.5473299146345
 30
0.0
 41
1.0
 10
931.26240048983095
 20
-2027.5548600031123
 30
0.0
 41
1.0
 10
931.17743959420795
 20
-2027.6835450228991
 30
0.0
 41
0.9999371979002926
 10
931.09538424480093
 20
-2027.8141019366813
 30
0.0
 41
1.0
 10
931.09187536044237
 20
-2027.819684864741
 30
0.0
 41
1.0
 10
931.08836647608393
 20
-2027.8252677928008
 30
0.0
 41
1.0
 10
930.99929335795446
 20
-2027.9669905627111
 30
0.0
 41
0.9998272025611138
 10
930.9155499670735
 20
-2028.1119264394515
 30
0.0
 41
1.0
 10
930.90033479504939
 20
-2028.1382595539085
 30
0.0
 41
1.0
 10
930.88511962302528
 20
-2028.1645926683652
 30
0.0
 41
1.0
 10
930.7709458880945
 20
-2028.3621947740221
 30
0.0
 41
0.9995217214838538
 10
930.6692061985384
 20
-2028.5664771018851
 30
0.0
 41
1.0
 10
930.66156263590585
 20
-2028.5818245515829
 30
0.0
 41
1.0
 10
930.6539190732733
 20
-2028.597172001281
 30
0.0
 41
1.0
 10
930.56701378068055
 20
-2028.7716684593688
 30
0.0
 41
0.9998269762607048
 10
930.48665931440758
 20
-2028.949276746094
 30
0.0
 41
1.0
 10
930.40630484813471
 20
-2029.1268850328195
 30
0.0
 41
0.9998944747388712
 10
930.33114405357196
 20
-2029.3067527584442
 30
0.0
 41
1.0
 10
930.32619038397866
 20
-2029.3186074133666
 30
0.0
 41
1.0
 10
930.32123671438546
 20
-2029.3304620682891
 30
0.0
 41
1.0
 10
930.2405896538321
 20
-2029.5234590083087
 30
0.0
 41
0.9999506734411191
 10
930.16379212493189
 20
-2029.7180198131568
 30
0.0
 41
1.0
 10
930.14919215966302
 20
-2029.7550077349579
 30
0.0
 41
1.0
 10
930.13459219439403
 20
-2029.7919956567587
 30
0.0
 41
1.0
 10
930.08699459602326
 20
-2029.9125806180259
 30
0.0
 41
0.9999912393941102
 10
930.04040815200574
 20
-2030.0335598207087
 30
0.0
 41
1.0
 10
929.99382170799208
 20
-2030.1545390233814
 30
0.0
 41
0.9999927113985381
 10
929.94816041360718
 20
-2030.2758704308583
 30
0.0
 41
1.0
 10
929.93419198220045
 20
-2030.3129874128813
 30
0.0
 41
1.0
 10
929.92022355079359
 20
-2030.3501043949043
 30
0.0
 41
1.0
 10
929.84662539360534
 20
-2030.545669766401
 30
0.0
 41
0.9999487550948588
 10
929.77700176863164
 20
-2030.7426851315886
 30
0.0
 41
1.0
 10
929.7534081586989
 20
-2030.8094484418698
 30
0.0
 41
1.0
 10
929.72981454876617
 20
-2030.8762117521508
 30
0.0
 41
1.0
 10
929.63512891439245
 20
-2031.1441455869845
 30
0.0
 41
0.9999808436941752
 10
929.54376732574656
 20
-2031.4132310182615
 30
0.0
 41
1.0
 10
929.45240573710544
 20
-2031.6823164495252
 30
0.0
 41
0.999987393289861
 10
929.36375102838861
 20
-2031.9523058045345
 30
0.0
 41
1.0
 10
929.34365867151837
 20
-2032.0134951372897
 30
0.0
 41
1.0
 10
929.32356631464825
 20
-2032.0746844700452
 30
0.0
 41
1.0
 10
929.19472689219288
 20
-2032.4670524905594
 30
0.0
 41
0.9999794883040708
 10
929.07092410722976
 20
-2032.8610386968535
 30
0.0
 41
1.0
 10
929.05977184779658
 20
-2032.8965293070769
 30
0.0
 41
1.0
 10
929.04861958836341
 20
-2032.9320199173003
 30
0.0
 41
1.0
 10
928.90606142447007
 20
-2033.3856926693738
 30
0.0
 41
0.9999982761862033
 10
928.76518898444579
 20
-2033.8398916915257
 30
0.0
 41
1.0
 10
927.17704865187318
 20
-2038.8886614225289
 30
0.0
 41
1.0
 10
925.58890831930057
 20
-2043.9374311535321
 30
0.0
 41
1.0
 10
924.64015770782419
 20
-2043.9374311535321
 30
0.0
 41
1.0
 10
923.6914070963478
 20
-2043.9374311535321
 30
0.0
 41
1.0
 10
926.92969158250094
 20
-2033.610108953586
 30
0.0
 41
1.0
 10
930.16797606865407
 20
-2023.2827867536398
 30
0.0
 41
1.0
  0
LWPOLYLINE
  5
B0
100
AcDbEntity
  8
0
370
              15
390
0
  6
Continuous
 62
               7
100
AcDbPolyline
 90
      232
 70
             128
 10
904.46443029482703
 20
-2024.367129585155
 42
0.0004370800684497
 10
904.41155312084436
 20
-2024.435796224295
 10
904.37226888962755
 20
-2024.4869033373079
 42
0.0030481992181339
 10
904.24193017247819
 20
-2024.6586250296925
 10
904.20341850075795
 20
-2024.7100118134404
 42
0.0042058245755123
 10
903.99943345008887
 20
-2024.9870175585129
 10
903.94702832758742
 20
-2025.0594504052947
 42
0.0120948898743342
 10
903.65098441083057
 20
-2025.4902000098368
 10
903.5547919117015
 20
-2025.6376807450727
 42
0.0141601263946704
 10
903.25114786478207
 20
-2026.1333500818041
 10
903.21161059735914
 20
-2026.2021940492307
 42
0.0071131081302364
 10
903.00633827411775
 20
-2026.571696848074
 42
0.006845879100507
 10
902.8114587472694
 20
-2026.9467884115606
 10
902.80464688481698
 20
-2026.9603501252736
 42
0.0064120880288087
 10
902.60650463477725
 20
-2027.3677746001827
 10
902.59896994925566
 20
-2027.3837864569136
 42
0.0058857236449226
 10
902.39621455738188
 20
-2027.8281625679533
 10
902.38803963109001
 20
-2027.8466527215826
 42
0.0053189741898271
 10
902.17933531842129
 20
-2028.3326161955035
 10
902.17058751274112
 20
-2028.3535980736967
 42
0.0047503650417075
 10
901.95461378659434
 20
-2028.8857975068963
 10
901.94534553824224
 20
-2028.9092738830143
 42
0.0042071762174689
 10
901.72079815450309
 20
-2029.4923674771142
 10
901.71104875216577
 20
-2029.5183336519538
 42
0.0036680086482839
 10
901.47659410884637
 20
-2030.1569690365054
 10
901.4663863290059
 20
-2030.1854175708295
 42
0.0032573142628723
 10
901.22075404303916
 20
-2030.8842702305828
 10
901.15210352218912
 20
-2031.0837333146633
 42
0.0026133366649855
 10
900.80365832344057
 20
-2032.1135965983078
 10
900.74040153594308
 20
-2032.3038274336911
 42
0.0020592950742294
 10
900.52653846697274
 20
-2032.955931086314
 10
900.52348667581248
 20
-2032.9653675747147
 42
0.0025609928531489
 10
900.32166617432381
 20
-2033.6005127970896
 10
900.31907480719474
 20
-2033.6088151380377
 42
0.0031362356242575
 10
900.12958402152026
 20
-2034.2295779942096
 10
900.1274529785984
 20
-2034.236719300402
 42
0.00372299180277
 10
899.95065259166654
 20
-2034.8457046023948
 10
899.94897400246259
 20
-2034.8516514925604
 42
0.0043077623706703
 10
899.78523320039506
 20
-2035.4514702243382
 42
0.004765416182484
 10
899.63240447787621
 20
-2036.0541563132524
 10
899.59793986903992
 20
-2036.1957180903903
 42
0.0112969368446222
 10
899.40207551089782
 20
-2037.0874102510068
 10
899.37406912179961
 20
-2037.2302382971122
 42
0.0130056762570154
 10
899.17323187815305
 20
-2038.4171793687572
 10
899.15269212800604
 20
-2038.5612574822339
 42
0.0138721532144755
 10
899.04898912346812
 20
-2039.4680869680599
 10
899.02969363555962
 20
-2039.6915846899922
 42
0.0071254697010132
 10
898.99634698963757
 20
-2040.1547716988323
 10
898.99138601547452
 20
-2040.240775693389
 42
0.0028881799203942
 10
898.97624772218444
 20
-2040.532517403235
 42
0.00602972971383
 10
898.96631552240876
 20
-2040.8244663393587
 10
898.96525324074184
 20
-2040.8728587112821
 42
0.0229523164155621
 10
898.97298426852763
 20
-2041.1956135575665
 10
898.97721004204789
 20
-2041.256017091582
 42
0.0123673300672682
 10
898.99628868856632
 20
-2041.4571378167575
 42
0.0128577674471531
 10
899.02548407897234
 20
-2041.6570356666828
 10
899.03260995235962
 20
-2041.6983644812813
 42
0.0285717853760276
 10
899.09710395405523
 20
-2041.9764806325943
 10
899.1107724777213
 20
-2042.02313540207
 42
0.0316283099159589
 10
899.22658305763593
 20
-2042.3421499038977
 10
899.22963174939173
 20
-2042.3491362762238
 42
0.0338984824239056
 10
899.37906346035857
 20
-2042.6367022404124
 10
899.38137218972838
 20
-2042.6404932696882
 42
0.0350228718354105
 10
899.563732480402
 20
-2042.8975452543652
 10
899.56461773217745
 20
-2042.8986243321299
 42
0.0347476747532659
 10
899.77904241941712
 20
-2043.1258093793492
 42
0.0331337701914007
 10
900.0222857451638
 20
-2043.3219380414268
 10
900.02338584367965
 20
-2043.3227107445991
 42
0.0305233319084925
 10
900.29193053925337
 20
-2043.4878389146907
 10
900.2951605837543
 20
-2043.4895629265532
 42
0.0273744481151584
 10
900.58771429532851
 20
-2043.6257010704435
 10
900.59281883046617
 20
-2043.6277446549132
 42
0.0240964406193101
 10
900.90829590611168
 20
-2043.7367283811946
 10
900.91487923532179
 20
-2043.7386531208697
 42
0.0209636179815146
 10
901.252279387974
 20
-2043.8221212688018
 10
901.25991184842303
 20
-2043.8236731818033
 42
0.0181388704690572
 10
901.61823424042097
 20
-2043.8830892750173
 10
901.62651508879969
 20
-2043.8841554588344
 42
0.0156086547589232
 10
902.00470245299334
 20
-2043.9208916454113
 10
902.04789770531295
 20
-2043.9237301478897
 42
0.0137148329023967
 10
902.37557085061451
 20
-2043.9362504031412
 10
902.42150704054177
 20
-2043.9367448362561
 42
0.0051057823880698
 10
902.65765262713273
 20
-2043.9368750906656
 42
0.0052256693315271
 10
902.89374991092029
 20
-2043.9321262662013
 10
902.9639766946608
 20
-2043.9299793001874
 42
0.0161507179050031
 10
903.33971377276714
 20
-2043.9063289298604
 10
903.35972673313506
 20
-2043.9044187345733
 42
0.0101216737833659
 10
903.7737539546315
 20
-2043.856425804207
 10
903.80780724405247
 20
-2043.8517781073981
 42
0.0245291776397245
 10
904.28459689960118
 20
-2043.7627030293224
 10
904.36942021512448
 20
-2043.7425071089767
 42
0.0143509212553781
 10
904.72605131906732
 20
-2043.6467024751971
 42
0.0156557857044647
 10
905.07626738379963
 20
-2043.5296912593765
 10
905.08376859828923
 20
-2043.5269210976242
 42
0.0170137333627067
 10
905.44036459396898
 20
-2043.3812634827536
 10
905.44746851637808
 20
-2043.3780756471892
 42
0.0183105364409802
 10
905.80681818454661
 20
-2043.2007406053638
 10
905.81376494918311
 20
-2043.1969901704929
 42
0.0194899958155422
 10
906.17224569017139
 20
-2042.9850111885994
 10
906.17925956950376
 20
-2042.9804858463071
 42
0.0204869852942638
 10
906.5332738715897
 20
-2042.7309658312274
 10
906.54053948018463
 20
-2042.7253857658729
 42
0.0212516938561046
 10
906.88652941129533
 20
-2042.4354817689759
 10
906.93304610536893
 20
-2042.3930144588842
 42
0.0215248918254255
 10
907.193072274256
 20
-2042.1342501798902
 10
907.23810200863909
 20
-2042.0854060585375
 42
0.0114578554959533
 10
907.39289416231395
 20
-2041.909583125082
 10
907.40408869829264
 20
-2041.8962643615459
 42
0.006153130513649
 10
907.53056334429493
 20
-2041.7419748282309
 42
0.0006325587121068
 10
907.65494182855639
 20
-2041.5859714524172
 10
907.67798196349827
 20
-2041.5569979318957
 42
0.004189776155366
 10
907.84643736747103
 20
-2041.3414785558341
 10
907.9048994873632
 20
-2041.2653772088488
 42
0.0092993880040007
 10
908.18151141458759
 20
-2040.891098444964
 10
908.26390590778863
 20
-2040.7751614413924
 42
0.0159321727089378
 10
908.61051239042808
 20
-2040.2529872206403
 10
908.65486852581432
 20
-2040.1813076563949
 42
0.0085547317023143
 10
908.88938029114297
 20
-2039.7874327071656
 42
0.0084601156888713
 10
909.11035646858409
 20
-2039.3858058581357
 10
909.11847194241545
 20
-2039.3704461758605
 42
0.0081429654288768
 10
909.3417212128569
 20
-2038.9307246633114
 10
909.35058137703697
 20
-2038.9125458213002
 42
0.0076574581325315
 10
909.57698888760319
 20
-2038.4293629460483
 10
909.58646852832737
 20
-2038.4082984677441
 42
0.0070682724205205
 10
909.81691343613443
 20
-2037.8762611629622
 10
909.82690372011587
 20
-2037.8522719739512
 42
0.0064559514448737
 10
910.0622369283011
 20
-2037.265959707423
 10
910.07264628646249
 20
-2037.2390247819901
 42
0.0058311413905982
 10
910.313693023224
 20
-2036.5929926876097
 10
910.3244481006127
 20
-2036.5631083464459
 42
0.0052312425818314
 10
910.57202937865327
 20
-2035.8519059326122
 10
910.58307321503344
 20
-2035.8190792205417
 42
0.0046680544796009
 10
910.8380016427667
 20
-2035.0372529047909
 10
910.87999379281052
 20
-2034.9042696674978
 42
0.0041666856443292
 10
911.08327980520642
 20
-2034.2413008924891
 10
911.1209422458619
 20
-2034.1147197848632
 42
0.0015170975156497
 10
911.24212882428321
 20
-2033.7028514333417
 42
-0.0004887993117738
 10
911.36246859737844
 20
-2033.2907330213955
 10
911.43894585490148
 20
-2033.0297756353586
 42
0.0002583378928388
 10
911.71216042495962
 20
-2032.0957189322005
 10
911.79393327458649
 20
-2031.8156196724456
 42
0.0006636169676544
 10
911.98780103455374
 20
-2031.1482667490097
 10
911.99289768891231
 20
-2031.1306351660896
 42
0.0010589131323983
 10
912.1743463898174
 20
-2030.4979038230808
 10
912.17932846030453
 20
-2030.4803909160373
 42
0.0015655524462192
 10
912.34759866748061
 20
-2029.8817742368599
 10
912.35242886789331
 20
-2029.8643820779325
 42
0.0021640440477062
 10
912.50671883988161
 20
-2029.2993550599058
 10
912.51135305931439
 20
-2029.2820903299014
 42
0.0028763871852557
 10
912.65086877736451
 20
-2028.7501223790648
 10
912.65525464153404
 20
-2028.7329984009014
 42
0.0037310511943241
 10
912.77921133336861
 20
-2028.2335508068866
 10
912.78328655366283
 20
-2028.2165905356196
 42
0.004765219777091
 10
912.89091045416615
 20
-2027.7491127673361
 10
912.89460105348985
 20
-2027.7323532121845
 42
0.0060276699302161
 10
912.98513115264313
 20
-2027.2962774170419
 10
912.9883498429316
 20
-2027.2797762027362
 42
0.0075824337758674
 10
913.06103915234769
 20
-2026.8745090383065
 10
913.0636845297272
 20
-2026.8583540908605
 42
0.0095130624606217
 10
913.11779976535922
 20
-2026.4832647377841
 10
913.12478598924145
 20
-2026.4273311796708
 42
0.0121054653227981
 10
913.15137731981974
 20
-2026.1624353511936
 10
913.15224380957943
 20
-2026.1510319082624
 42
0.0069050827385886
 10
913.16733262761693
 20
-2025.9080906814204
 10
913.16846792728552
 20
-2025.8845644243734
 42
0.0169063976699226
 10
913.17129520626577
 20
-2025.6883716970749
 10
913.17012455473457
 20
-2025.6280359357252
 42
0.0052007732891219
 10
913.16787110614155
 20
-2025.5524425455737
 42
0.0054038123293861
 10
913.14790759430423
 20
-2025.4324242495732
 10
913.14282173843219
 20
-2025.4037657629826
 42
0.0112050460465043
 10
913.10743737637461
 20
-2025.2274393246478
 10
913.08961241433303
 20
-2025.1478977379227
 42
0.0240764468009245
 10
912.99871504818668
 20
-2024.8176607024209
 10
912.98015628537314
 20
-2024.7610405374267
 42
0.0256812331836118
 10
912.83679336518389
 20
-2024.3893163311702
 10
912.83138393936235
 20
-2024.3771849961802
 42
0.0268360501220297
 10
912.66195669851254
 20
-2024.0461918621595
 10
912.65642029087837
 20
-2024.0366721918485
 42
0.0274670231729753
 10
912.46421931446423
 20
-2023.7443848169301
 10
912.45883801450043
 20
-2023.7371056693871
 42
0.0275035967106432
 10
912.24726513493977
 20
-2023.4815897790847
 10
912.2421956339748
 20
-2023.4761106914559
 42
0.0269557673518533
 10
912.01479209053366
 20
-2023.2554684054919
 10
912.01004903275123
 20
-2023.2513384510312
 42
0.0259124802209501
 10
911.77049420132028
 20
-2023.0636479238788
 10
911.76596335613533
 20
-2023.0604624215464
 42
0.0245162153005703
 10
911.51804700304353
 20
-2022.903729412438
 10
911.5135204567207
 20
-2022.901169215238
 42
0.0229282588843167
 10
911.26110089989197
 20
-2022.7733010227382
 10
911.25632040605421
 20
-2022.7711487229758
 42
0.0212984135689753
 10
911.00328245359356
 20
-2022.6699498057339
 10
910.99797816862861
 20
-2022.6680862429755
 42
0.0197555462343323
 10
910.74819983090106
 20
-2022.5912708250091
 42
0.0183511896789085
 10
910.49327110543391
 20
-2022.5336879180431
 10
910.40690590871725
 20
-2022.5174851276593
 42
0.0338057877145409
 10
910.12139855945463
 20
-2022.4836767225183
 10
910.03039315440503
 20
-2022.4790970672566
 42
0.0091990524510917
 10
909.9245460457787
 20
-2022.4757212113348
 42
0.0028333980794797
 10
909.8186321297685
 20
-2022.4748931038182
 10
909.81771667673638
 20
-2022.4748911339941
 42
-0.0023619827809623
 10
909.70997066158918
 20
-2022.4741502929151
 10
909.67356549145461
 20
-2022.4737279864526
 42
0.000882459848459
 10
909.49300950156351
 20
-2022.4719522082139
 10
909.44914806919883
 20
-2022.4715982466887
 42
0.0038132665763815
 10
909.18086517334461
 20
-2022.471479310622
 10
909.16433151852652
 20
-2022.4715980767658
 42
0.0060665569334481
 10
908.86305102693711
 20
-2022.4774183761865
 10
908.84880069490987
 20
-2022.4778666841542
 42
0.0080356953338182
 10
908.51934197856383
 20
-2022.4935344062214
 10
908.50727196348339
 20
-2022.4943029891615
 42
0.0098996399104445
 10
908.15450887883981
 20
-2022.523788218359
 10
908.14446316945782
 20
-2022.5248285145578
 42
0.0117740981370074
 10
907.7733063111034
 20
-2022.5721207620886
 10
907.76508361462652
 20
-2022.5733658786585
 42
0.0137435215132023
 10
907.38049479514609
 20
-2022.6424628522191
 10
907.37383775601802
 20
-2022.6438487484536
 42
0.0158359869390629
 10
906.98084066220588
 20
-2022.7387408369368
 10
906.9754274753484
 20
-2022.7402307778048
 42
0.0180554124025933
 10
906.5791124307417
 20
-2022.8648687940415
 10
906.57455564265263
 20
-2022.8664848303099
 42
0.0203657431287061
 10
906.18007812483506
 20
-2023.0247451718285
 10
906.17593458583394
 20
-2023.0266067932675
 42
0.0226819684657432
 10
905.78849852963049
 20
-2023.2222493719385
 10
905.78429873861216
 20
-2023.2246149638584
 42
0.0248634984601347
 10
905.4091167974334
 20
-2023.4612416098039
 10
905.36092186864551
 20
-2023.4950986516324
 42
0.0267044190893373
 10
905.08662917173046
 20
-2023.7105390274994
 42
0.0139303002199604
 10
904.83046200578792
 20
-2023.9477778684152
 10
904.82560862007074
 20
-2023.9525305312716
 42
0.0283460963442011
 10
904.58153602584412
 20
-2024.2202611917155
 10
904.54186752068699
 20
-2024.2690627691895
 42
0.0070695364819187
 10
904.46443029482703
 20
-2024.367129585155
 42
0.0070695364819187
  0
LWPOLYLINE
  5
B1
100
AcDbEntity
  8
0
370
              15
390
0
  6
Continuous
 62
               7
100
AcDbPolyline
 90
      226
 70
             128
 10
900.93560985758063
 20
-2040.0887183913392
 42
-0.0026277636659923
 10
900.93553197378048
 20
-2040.0219464656232
 10
900.93574933201262
 20
-2039.9687912481529
 42
-0.0088680296722545
 10
900.93952594830603
 20
-2039.79577546574
 10
900.94187230741818
 20
-2039.7364954402963
 42
-0.0077381705622061
 10
900.95791841818129
 20
-2039.4452349444996
 10
900.95878632935444
 20
-2039.432946710813
 42
-0.0068872530529466
 10
900.98541840910298
 20
-2039.1177249587404
 10
900.98662263328868
 20
-2039.1054839797252
 42
-0.0062130021487175
 10
901.02421635011751
 20
-2038.7666142884782
 10
901.02572025365157
 20
-2038.7544404165701
 42
-0.0056726929671614
 10
901.07464211315209
 20
-2038.3922451944684
 10
901.0764155587982
 20
-2038.3801513942115
 42
-0.005234188449274
 10
901.13702614505883
 20
-2037.9949581386902
 10
901.13904413383489
 20
-2037.9829532087012
 42
-0.0049768450165356
 10
901.21178281525943
 20
-2037.5751086412786
 10
901.23603182998306
 20
-2037.4465606582626
 42
-0.008902980562557
 10
901.37311268177791
 20
-2036.7847852108393
 10
901.40585805709634
 20
-2036.6397537803166
 42
-0.0080318257097354
 10
901.63540667143832
 20
-2035.694044148458
 10
901.6473915978853
 20
-2035.6479135132729
 42
-0.0074265721319627
 10
901.93140313673382
 20
-2034.6178489348972
 10
901.95128267985456
 20
-2034.5497148742938
 42
-0.0069711922701031
 10
902.27858725835847
 20
-2033.483447133975
 10
902.33853920546323
 20
-2033.2974257756066
 42
-0.0052070422895317
 10
902.56796443072335
 20
-2032.610153698573
 10
902.58524562285413
 20
-2032.5601264180757
 42
-0.0009167004451194
 10
902.78833751018499
 20
-2031.9756705698019
 42
-0.0025162726942387
 10
902.99543514045388
 20
-2031.392629305622
 10
903.03265975226452
 20
-2031.2894797597019
 42
-0.0028212681459427
 10
903.2808356712161
 20
-2030.6137491275629
 10
903.29066643395868
 20
-2030.5874416829076
 42
-0.0031964916824367
 10
903.52695869162915
 20
-2029.9672369207592
 10
903.53659314563367
 20
-2029.9424269306019
 42
-0.0036281836450454
 10
903.76169910672934
 20
-2029.3749862497227
 10
903.7711375168941
 20
-2029.3516888182019
 42
-0.0041269166833472
 10
903.98575521354599
 20
-2028.8342479222415
 10
904.01838816996019
 20
-2028.7573694758958
 42
-0.0047472213058099
 10
904.17543297552038
 20
-2028.396948007997
 10
904.18232705672847
 20
-2028.3815274106655
 42
-0.0025651659995937
 10
904.33068509057875
 20
-2028.0541993549166
 42
-0.0057144634995036
 10
904.48443478434774
 20
-2027.7293896815588
 10
904.51246548975405
 20
-2027.6718812991542
 42
-0.0065388068373733
 10
904.69593251749097
 20
-2027.3076488024949
 10
904.70439097326596
 20
-2027.291389223132
 42
-0.0074510843023166
 10
904.88057321914732
 20
-2026.9647009420028
 10
904.88875288967677
 20
-2026.9500601647367
 42
-0.0084648979856812
 10
905.05838674277845
 20
-2026.6581511537729
 10
905.0662428692691
 20
-2026.6451441621177
 42
-0.0095638542799244
 10
905.23007831686084
 20
-2026.3852552901435
 10
905.23755326052833
 20
-2026.3738859286946
 42
-0.0107191626807595
 10
905.39635484092014
 20
-2026.1432746941439
 10
905.40337157465683
 20
-2026.1335386017713
 42
-0.0118458573898395
 10
905.55791967316372
 20
-2025.9294664064685
 42
-0.0129184518194349
 10
905.72237229676284
 20
-2025.7333058903009
 10
905.75251706913252
 20
-2025.6991798113938
 42
-0.0217742579628025
 10
905.92912939146368
 20
-2025.5159730411485
 10
905.93987493592419
 20
-2025.5057562079455
 42
-0.0097266568653803
 10
906.10593255477977
 20
-2025.3539086335081
 42
-0.0187720905732536
 10
906.28028013066205
 20
-2025.2118397801246
 10
906.31098612134656
 20
-2025.1886806977204
 42
-0.0179428207515926
 10
906.54340684133967
 20
-2025.0261285206111
 10
906.54705916825606
 20
-2025.023764585723
 42
-0.0170047877700376
 10
906.78282280578583
 20
-2024.882304071572
 10
906.78660579453117
 20
-2024.8802057665364
 42
-0.0160190788363056
 10
907.02351434216769
 20
-2024.7585544645476
 42
-0.015110286148998
 10
907.26754612462116
 20
-2024.65187168849
 10
907.31993262682613
 20
-2024.6308315555982
 42
-0.0271945441890166
 10
907.67859518587863
 20
-2024.5089667448938
 10
907.74765998637747
 20
-2024.4896172036244
 42
-0.0237596594020455
 10
908.16345683339489
 20
-2024.3941664916445
 10
908.23151968712079
 20
-2024.3819118035185
 42
-0.0213715440555045
 10
908.51739461857062
 20
-2024.3429647720079
 10
908.57754178479718
 20
-2024.3373750573062
 42
-0.010146565580864
 10
908.74503431678284
 20
-2024.3252315140428
 10
908.75437470297982
 20
-2024.3247445990455
 42
-0.0100375910881369
 10
908.90352880354362
 20
-2024.3199687811202
 10
908.91378807322508
 20
-2024.3198463421058
 42
-0.0103625633382487
 10
909.0424960678788
 20
-2024.3209777756324
 10
909.06476171914142
 20
-2024.3216351340971
 42
-0.0115689250239197
 10
909.14881245667357
 20
-2024.3260646403426
 42
-0.0072438037416727
 10
909.23265073612185
 20
-2024.3336538400929
 10
909.24945124558553
 20
-2024.3354203828162
 42
-0.0217917313131334
 10
909.36602100889752
 20
-2024.3528402755369
 10
909.43162109946945
 20
-2024.3655868839523
 42
-0.0332943556758133
 10
909.6360132644943
 20
-2024.4196271752587
 10
909.6661858330416
 20
-2024.4297952523762
 42
-0.0184824084796592
 10
909.80469088950974
 20
-2024.4822462677637
 42
-0.0198002050700311
 10
909.93876523000858
 20
-2024.5451303279626
 10
909.94065186738601
 20
-2024.5461081148428
 42
-0.0212242342980231
 10
910.07279080978844
 20
-2024.6218708536362
 10
910.07460610533144
 20
-2024.6230166558444
 42
-0.022609060579312
 10
910.20311000655283
 20
-2024.7124962994087
 10
910.20495444829055
 20
-2024.7139085523963
 42
-0.02384570522412
 10
910.32813652958453
 20
-2024.8179044482597
 10
910.33008925814249
 20
-2024.8197193260248
 42
-0.024816056415166
 10
910.44629076544288
 20
-2024.9389939272332
 10
910.44839439884527
 20
-2024.941379260938
 42
-0.0254109591458245
 10
910.55599961671032
 20
-2025.0766676469009
 10
910.55824763862529
 20
-2025.0798091953029
 42
-0.0255528488282472
 10
910.65569431742233
 20
-2025.2318362495371
 10
910.65802541733854
 20
-2025.2359178611448
 42
-0.0252146793218026
 10
910.74380644334815
 20
-2025.4054201071424
 10
910.74610868250534
 20
-2025.4106021890545
 42
-0.0244265635948236
 10
910.8187633762675
 20
-2025.5983487611034
 10
910.82800977773525
 20
-2025.6262141794393
 42
-0.0231319612896511
 10
910.87393255672725
 20
-2025.7895152262408
 42
-0.0112130424359967
 10
910.90856857926633
 20
-2025.9557188264339
 10
910.90977110437791
 20
-2025.9622154133167
 42
-0.0210527881231991
 10
910.93545757974903
 20
-2026.1432710587601
 10
910.93896817457062
 20
-2026.1786766073051
 42
-0.0190029892420004
 10
910.9544096481153
 20
-2026.4322124535795
 10
910.95521962455928
 20
-2026.4676880679465
 42
-0.0137974553661297
 10
910.95367077172364
 20
-2026.7927194746815
 10
910.95282531676798
 20
-2026.8188382192768
 42
-0.0081336634215038
 10
910.93796598154563
 20
-2027.1241856868719
 42
-0.0073526923570941
 10
910.91365744817062
 20
-2027.4289339311611
 10
910.91239602438827
 20
-2027.4422706058231
 42
-0.0066886138695595
 10
910.87666043834076
 20
-2027.7728566493288
 10
910.87500334887181
 20
-2027.7864782683118
 42
-0.0061359187353311
 10
910.82715274682118
 20
-2028.1432422484102
 10
910.82511524574807
 20
-2028.1571370512411
 42
-0.0056698610067243
 10
910.76446491498314
 20
-2028.5404156200668
 10
910.76205948165796
 20
-2028.5545747393098
 42
-0.005272107727572
 10
910.68792728085918
 20
-2028.964702078983
 10
910.68516413201655
 20
-2028.9791187143737
 42
-0.0049289272177193
 10
910.5968700139174
 20
-2029.4164272254923
 10
910.59375751923403
 20
-2029.4310960783118
 42
-0.0047415956711966
 10
910.49051952770128
 20
-2029.8958928357242
 10
910.45575131734199
 20
-2030.0456999311057
 42
-0.00844044709037
 10
910.2657348737672
 20
-2030.8059239556478
 10
910.25960818578449
 20
-2030.8287880797902
 42
-0.003963594025808
 10
910.03815450150478
 20
-2031.6297769440228
 10
910.02477770632095
 20
-2031.6767085606295
 42
-0.0072475040835068
 10
909.75733081845635
 20
-2032.5659282770246
 10
909.68711849163867
 20
-2032.787668626966
 42
-0.0051345458830356
 10
909.40035911957159
 20
-2033.6619938148028
 10
909.37883285278758
 20
-2033.7254200819814
 42
-0.0019150016600728
 10
909.12329944593739
 20
-2034.4689692021589
 10
909.11683184155549
 20
-2034.4875566670391
 42
-0.0021524362752784
 10
908.86835379047727
 20
-2035.1918824887885
 10
908.85914336977282
 20
-2035.2176360671124
 42
-0.0024331286821241
 10
908.62288811074484
 20
-2035.8682353752081
 10
908.61384015819647
 20
-2035.8927786815566
 42
-0.002744972179032
 10
908.38922558735896
 20
-2036.4919085604868
 10
908.38033557998483
 20
-2036.5152311502916
 42
-0.0031083229770923
 10
908.16679309335677
 20
-2037.0651551879187
 10
908.15805696168263
 20
-2037.0872449037729
 42
-0.0035311343282227
 10
907.95501577608934
 20
-2037.5902280295065
 10
907.94643043693713
 20
-2037.6110707530279
 42
-0.0040245640949067
 10
907.75331863314716
 20
-2038.0693800756094
 10
907.74488251954881
 20
-2038.0889594436705
 42
-0.0046015135853498
 10
907.56112622638034
 20
-2038.5048644733238
 10
907.55284004855878
 20
-2038.5231616127612
 42
-0.0052768638269316
 10
907.37786252959654
 20
-2038.8989344970462
 10
907.36973031896855
 20
-2038.9159278355914
 42
-0.0060672675644078
 10
907.20295070620364
 20
-2039.2538434587036
 10
907.19498122572122
 20
-2039.2695087177026
 42
-0.0069904648867602
 10
907.03581283172059
 20
-2039.5718445243645
 10
907.02802143211386
 20
-2039.5861550735842
 42
-0.008063702277349
 10
906.87586957176393
 20
-2039.8551903767448
 10
906.86828053913621
 20
-2039.8681182423395
 42
-0.0093006455671551
 10
906.72253986260114
 20
-2040.1061326408487
 10
906.71518919585685
 20
-2040.1176506100228
 42
-0.010706077805472
 10
906.5752406524191
 20
-2040.326920927401
 10
906.56817888413389
 20
-2040.337006469975
 42
-0.0122723111408059
 10
906.43338516594133
 20
-2040.5197997994558
 10
906.43305894239234
 20
-2040.5202201872589
 42
-0.0141836319625435
 10
906.28947733941322
 20
-2040.694789945095
 10
906.28252958376231
 20
-2040.7027649453585
 42
-0.0175957477209163
 10
906.14262341572658
 20
-2040.8523858337646
 42
-0.0080466359669745
 10
905.9951596506944
 20
-2040.9947083619177
 10
905.94912510617883
 20
-2041.037728800007
 42
-0.026960026039663
 10
905.69584486019789
 20
-2041.2500520585147
 10
905.62927772389901
 20
-2041.3000034731401
 42
-0.017836283975224
 10
905.38933323424317
 20
-2041.4670213993925
 10
905.38208826323989
 20
-2041.4716899115992
 42
-0.0174650732647543
 10
905.14575206580139
 20
-2041.6125508765565
 42
-0.0169240130169867
 10
904.90028581995
 20
-2041.7368431363309
 10
904.85429966438585
 20
-2041.7582050919011
 42
-0.0318883036837369
 10
904.50394880876127
 20
-2041.8945434014126
 10
904.43558327360688
 20
-2041.9162440218849
 42
-0.0284435909905878
 10
904.05953314731016
 20
-2042.0124614573613
 10
904.02437498681104
 20
-2042.0193550531899
 42
-0.0243909341010983
 10
903.71093152589265
 20
-2042.0650760842198
 10
903.660650799123
 20
-2042.0699216311211
 42
-0.0196639292935075
 10
903.4450552215942
 20
-2042.0821699166349
 10
903.39323115042134
 20
-2042.0830731773717
 42
-0.010050151068052
 10
903.28080786876649
 20
-2042.0827727790186
 10
903.2491480073943
 20
-2042.0820517071327
 42
-0.0019752031094284
 10
903.20005567074111
 20
-2042.0807395469237
 10
903.19729536751413
 20
-2042.0806548550972
 42
0.0065378751985034
 10
903.15371879276415
 20
-2042.0798879638826
 42
-0.0167974694665671
 10
903.1101879698324
 20
-2042.0782280653564
 10
903.10610863057025
 20
-2042.0779350544615
 42
-0.0081283276265853
 10
903.05454883283107
 20
-2042.0733880608234
 10
903.04280925895318
 20
-2042.0721601432451
 42
-0.012670344019224
 10
902.9680909631644
 20
-2042.0624253521744
 10
902.94530309548293
 20
-2042.0588670962584
 42
-0.0117852088430567
 10
902.82576410964714
 20
-2042.0373041011005
 10
902.77038365788758
 20
-2042.0259605608667
 42
-0.0251774592296394
 10
902.54353961888205
 20
-2041.9674625514344
 10
902.4988204290255
 20
-2041.9534957320975
 42
-0.0146525199891624
 10
902.31242744149017
 20
-2041.8892292049004
 42
-0.0166929435856852
 10
902.13044978536777
 20
-2041.8134220718478
 10
902.12579315409027
 20
-2041.8112971712317
 42
-0.0191684358431058
 10
901.94060952283724
 20
-2041.7180610874398
 10
901.93727693708411
 20
-2041.7162198398885
 42
-0.0221181781820494
 10
901.75396663318554
 20
-2041.6040863415203
 10
901.75161682917349
 20
-2041.6025020435268
 42
-0.025498468538858
 10
901.57532667878706
 20
-2041.4700908935561
 10
901.55284453108652
 20
-2041.451338584621
 42
-0.0292492648805124
 10
901.4280755922432
 20
-2041.3342457849776
 42
-0.0159048957496272
 10
901.31423559479367
 20
-2041.2062257933794
 10
901.31291680421373
 20
-2041.2046441803586
 42
-0.0343813379570308
 10
901.2102795425875
 20
-2041.0627728545894
 10
901.17878801122629
 20
-2041.0122694624945
 42
-0.0369117275701645
 10
901.09289550932931
 20
-2040.8487922215465
 42
-0.0191751379910042
 10
901.02570212377213
 20
-2040.6763876155399
 10
901.02393880001284
 20
-2040.6712942708657
 42
-0.0378178042223759
 10
900.97414408122893
 20
-2040.4823534947857
 10
900.96814878549776
 20
-2040.4497928765843
 42
-0.0184846046472642
 10
900.94743158620395
 20
-2040.3080400560425
 42
-0.0179866351308719
 10
900.9370985811305
 20
-2040.1651492429648
 10
900.93704213868455
 20
-2040.1635915563488
 42
-0.0085497186109229
 10
900.93560985758063
 20
-2040.0887183913392
 42
-0.0085497186109229
  0
ENDBLK
  5
B2
100
AcDbEntity
  8
template
390
0
100
AcDbBlockEnd
  0
BLOCK
  5
B3
100
AcDbEntity
  8
notes
390
0
100
AcDbBlockBegin
  2
*D8
 70
               1
 10
0.0
 20
0.0
 30
0.0
  3
*D8
  1

  0
LINE
  5
B4
100
AcDbEntity
  8
0
370
              -2
390
0
  6
Continuous
 62
               0
100
AcDbLine
 10
-206.00048473908549
 20
349.99979449999978
 30
0.0
 11
116.02947665792095
 21
349.99979449999978
 31
0.0
  0
LINE
  5
B5
100
AcDbEntity
  8
0
370
              -2
390
0
  6
Continuous
 62
               0
100
AcDbLine
 10
41.999515260914578
 20
880.0
 30
0.0
 11
116.02947665792095
 21
880.0
 31
0.0
  0
LINE
  5
B6
100
AcDbEntity
  8
0
370
              -2
390
0
  6
Continuous
 62
               0
100
AcDbLine
 10
116.02947665792095
 20
349.99979449999978
 30
0.0
 11
116.02947665792095
 21
880.0
 31
0.0
  0
CIRCLE
  5
B7
102
{ACAD_REACTORS
330
B8
102
}
100
AcDbEntity
  8
0
370
              -2
390
0
  6
Continuous
 62
               0
100
AcDbCircle
 10
116.02947665792095
 20
349.99979449999978
 30
0.0
 40
1.9998779296875
  0
HATCH
  5
B8
100
AcDbEntity
  8
0
370
              -2
390
0
  6
Continuous
 62
               0
100
AcDbHatch
 10
0.0
 20
0.0
 30
0.0
210
0.0
220
0.0
230
1.0
  2
SOLID
 70
               1
 71
               1
 91
        1
 92
        1
 93
        1
 72
               2
 10
116.02947665792095
 20
349.99979449999978
 40
1.9998779296875
 50
0.0
 51
360.0
 73
               0
 97
        1
330
B7
 75
               0
 76
               1
 98
        1
 10
0.0
 20
0.0
  0
CIRCLE
  5
B9
102
{ACAD_REACTORS
330
BA
102
}
100
AcDbEntity
  8
0
370
              -2
390
0
  6
Continuous
 62
               0
100
AcDbCircle
 10
116.02947665792095
 20
880.0
 30
0.0
 40
1.9998779296875
  0
HATCH
  5
BA
100
AcDbEntity
  8
0
370
              -2
390
0
  6
Continuous
 62
               0
100
AcDbHatch
 10
0.0
 20
0.0
 30
0.0
210
0.0
220
0.0
230
1.0
  2
SOLID
 70
               1
 71
               1
 91
        1
 92
        1
 93
        1
 72
               2
 10
116.02947665792095
 20
880.0
 40
1.9998779296875
 50
0.0
 51
360.0
 73
               0
 97
        1
330
B9
 75
               0
 76
               1
 98
        1
 10
0.0
 20
0.0
  0
MTEXT
  5
BB
100
AcDbEntity
  8
0
390
0
 62
               0
100
AcDbMText
 10
84.756351657920945
 20
591.1873955678243
 30
0.0
 40
21.828125
 41
0.0
 71
               1
 72
               1
  1
530
  7
MS UI Gothic
 11
0.0
 21
1.0
 31
0.0
 73
               1
 44
0.8762322015334064
  0
POINT
  5
BC
100
AcDbEntity
  8
Defpoints
370
               0
390
0
 62
               0
100
AcDbPoint
 10
16.999515260914578
 20
880.0
 30
0.0
  0
POINT
  5
BD
100
AcDbEntity
  8
Defpoints
370
               0
390
0
 62
               0
100
AcDbPoint
 10
-231.00048473908549
 20
349.99979449999978
 30
0.0
  0
POINT
  5
BE
100
AcDbEntity
  8
Defpoints
370
               0
390
0
 62
               0
100
AcDbPoint
 10
116.02947665792095
 20
349.99979449999978
 30
0.0
  0
ENDBLK
  5
BF
100
AcDbEntity
  8
notes
390
0
100
AcDbBlockEnd
  0
BLOCK
  5
C0
100
AcDbEntity
  8
notes
390
0
100
AcDbBlockBegin
  2
*D9
 70
               1
 10
0.0
 20
0.0
 30
0.0
  3
*D9
  1

  0
LINE
  5
C1
100
AcDbEntity
  8
0
370
              -2
390
0
  6
Continuous
 62
               0
100
AcDbLine
 10
-458.97051040651019
 20
829.3131934999999
 30
0.0
 11
-458.97051040651019
 21
979.99999999999989
 31
0.0
  0
LINE
  5
C2
100
AcDbEntity
  8
0
370
              -2
390
0
  6
Continuous
 62
               0
100
AcDbLine
 10
-358.97051040651019
 20
836.25000749999992
 30
0.0
 11
-358.97051040651019
 21
979.99999999999989
 31
0.0
  0
LINE
  5
C3
100
AcDbEntity
  8
0
370
              -2
390
0
  6
Continuous
 62
               0
100
AcDbLine
 10
-458.97051040651019
 20
979.99999999999989
 30
0.0
 11
-358.97051040651019
 21
979.99999999999989
 31
0.0
  0
CIRCLE
  5
C4
102
{ACAD_REACTORS
330
C5
102
}
100
AcDbEntity
  8
0
370
              -2
390
0
  6
Continuous
 62
               0
100
AcDbCircle
 10
-458.97051040651019
 20
979.99999999999989
 30
0.0
 40
1.9998779296875
  0
HATCH
  5
C5
100
AcDbEntity
  8
0
370
              -2
390
0
  6
Continuous
 62
               0
100
AcDbHatch
 10
0.0
 20
0.0
 30
0.0
210
0.0
220
0.0
230
1.0
  2
SOLID
 70
               1
 71
               1
 91
        1
 92
        1
 93
        1
 72
               2
 10
-458.97051040651019
 20
979.99999999999989
 40
1.9998779296875
 50
0.0
 51
360.0
 73
               0
 97
        1
330
C4
 75
               0
 76
               1
 98
        1
 10
0.0
 20
0.0
  0
CIRCLE
  5
C6
102
{ACAD_REACTORS
330
C7
102
}
100
AcDbEntity
  8
0
370
              -2
390
0
  6
Continuous
 62
               0
100
AcDbCircle
 10
-358.97051040651019
 20
979.99999999999989
 30
0.0
 40
1.9998779296875
  0
HATCH
  5
C7
100
AcDbEntity
  8
0
370
              -2
390
0
  6
Continuous
 62
               0
100
AcDbHatch
 10
0.0
 20
0.0
 30
0.0
210
0.0
220
0.0
230
1.0
  2
SOLID
 70
               1
 71
               1
 91
        1
 92
        1
 93
        1
 72
               2
 10
-358.97051040651019
 20
979.99999999999989
 40
1.9998779296875
 50
0.0
 51
360.0
 73
               0
 97
        1
330
C6
 75
               0
 76
               1
 98
        1
 10
0.0
 20
0.0
  0
MTEXT
  5
C8
100
AcDbEntity
  8
0
390
0
 62
               0
100
AcDbMText
 10
-432.78301208868572
 20
1011.2731249999999
 30
0.0
 40
21.828125
 41
0.0
 71
               1
 72
               1
  1
100
  7
MS UI Gothic
 73
               1
 44
0.8762322015334064
  0
POINT
  5
C9
100
AcDbEntity
  8
Defpoints
370
               0
390
0
 62
               0
100
AcDbPoint
 10
-358.97051040651019
 20
811.25000749999992
 30
0.0
  0
POINT
  5
CA
100
AcDbEntity
  8
Defpoints
370
               0
390
0
 62
               0
100
AcDbPoint
 10
-458.97051040651019
 20
804.3131934999999
 30
0.0
  0
POINT
  5
CB
100
AcDbEntity
  8
Defpoints
370
               0
390
0
 62
               0
100
AcDbPoint
 10
-458.97051040651019
 20
979.99999999999989
 30
0.0
  0
ENDBLK
  5
CC
100
AcDbEntity
  8
notes
390
0
100
AcDbBlockEnd
  0
BLOCK
  5
CD
100
AcDbEntity
  8
notes
390
0
100
AcDbBlockBegin
  2
*D10
 70
               1
 10
0.0
 20
0.0
 30
0.0
  3
*D10
  1

  0
LINE
  5
CE
100
AcDbEntity
  8
0
370
              -2
390
0
  6
Continuous
 62
               0
100
AcDbLine
 10
-358.97051040651019
 20
836.25000749999992
 30
0.0
 11
-358.97051040651019
 21
979.99999999999989
 31
0.0
  0
LINE
  5
CF
100
AcDbEntity
  8
0
370
              -2
390
0
  6
Continuous
 62
               0
100
AcDbLine
 10
-258.97051040651053
 20
829.3131934999999
 30
0.0
 11
-258.97051040651053
 21
979.99999999999989
 31
0.0
  0
LINE
  5
D0
100
AcDbEntity
  8
0
370
              -2
390
0
  6
Continuous
 62
               0
100
AcDbLine
 10
-358.97051040651019
 20
979.99999999999989
 30
0.0
 11
-258.97051040651053
 21
979.99999999999989
 31
0.0
  0
CIRCLE
  5
D1
102
{ACAD_REACTORS
330
D2
102
}
100
AcDbEntity
  8
0
370
              -2
390
0
  6
Continuous
 62
               0
100
AcDbCircle
 10
-358.97051040651019
 20
979.99999999999989
 30
0.0
 40
1.9998779296875
  0
HATCH
  5
D2
100
AcDbEntity
  8
0
370
              -2
390
0
  6
Continuous
 62
               0
100
AcDbHatch
 10
0.0
 20
0.0
 30
0.0
210
0.0
220
0.0
230
1.0
  2
SOLID
 70
               1
 71
               1
 91
        1
 92
        1
 93
        1
 72
               2
 10
-358.97051040651019
 20
979.99999999999989
 40
1.9998779296875
 50
0.0
 51
360.0
 73
               0
 97
        1
330
D1
 75
               0
 76
               1
 98
        1
 10
0.0
 20
0.0
  0
CIRCLE
  5
D3
102
{ACAD_REACTORS
330
D4
102
}
100
AcDbEntity
  8
0
370
              -2
390
0
  6
Continuous
 62
               0
100
AcDbCircle
 10
-258.97051040651053
 20
979.99999999999989
 30
0.0
 40
1.9998779296875
  0
HATCH
  5
D4
100
AcDbEntity
  8
0
370
              -2
390
0
  6
Continuous
 62
               0
100
AcDbHatch
 10
0.0
 20
0.0
 30
0.0
210
0.0
220
0.0
230
1.0
  2
SOLID
 70
               1
 71
               1
 91
        1
 92
        1
 93
        1
 72
               2
 10
-258.97051040651053
 20
979.99999999999989
 40
1.9998779296875
 50
0.0
 51
360.0
 73
               0
 97
        1
330
D3
 75
               0
 76
               1
 98
        1
 10
0.0
 20
0.0
  0
MTEXT
  5
D5
100
AcDbEntity
  8
0
390
0
 62
               0
100
AcDbMText
 10
-332.78301208868589
 20
1011.2731249999999
 30
0.0
 40
21.828125
 41
0.0
 71
               1
 72
               1
  1
100
  7
MS UI Gothic
 73
               1
 44
0.8762322015334064
  0
POINT
  5
D6
100
AcDbEntity
  8
Defpoints
370
               0
390
0
 62
               0
100
AcDbPoint
 10
-258.97051040651053
 20
804.3131934999999
 30
0.0
  0
POINT
  5
D7
100
AcDbEntity
  8
Defpoints
370
               0
390
0
 62
               0
100
AcDbPoint
 10
-358.97051040651019
 20
811.25000749999992
 30
0.0
  0
POINT
  5
D8
100
AcDbEntity
  8
Defpoints
370
               0
390
0
 62
               0
100
AcDbPoint
 10
-358.97051040651019
 20
979.99999999999989
 30
0.0
  0
ENDBLK
  5
D9
100
AcDbEntity
  8
notes
390
0
100
AcDbBlockEnd
  0
BLOCK
  5
DA
100
AcDbEntity
  8
notes
390
0
100
AcDbBlockBegin
  2
*D11
 70
               1
 10
0.0
 20
0.0
 30
0.0
  3
*D11
  1

  0
LINE
  5
DB
100
AcDbEntity
  8
0
370
              -2
390
0
  6
Continuous
 62
               0
100
AcDbLine
 10
-733.97051740651114
 20
899.00000749999992
 30
0.0
 11
-733.97051740651114
 21
1030.0000004695294
 31
0.0
  0
LINE
  5
DC
100
AcDbEntity
  8
0
370
              -2
390
0
  6
Continuous
 62
               0
100
AcDbLine
 10
16.029467593470102
 20
899.00000821095387
 30
0.0
 11
16.029467593470102
 21
1030.0000004695294
 31
0.0
  0
LINE
  5
DD
100
AcDbEntity
  8
0
370
              -2
390
0
  6
Continuous
 62
               0
100
AcDbLine
 10
-733.97051740651114
 20
1030.0000004695294
 30
0.0
 11
16.029467593470102
 21
1030.0000004695294
 31
0.0
  0
CIRCLE
  5
DE
102
{ACAD_REACTORS
330
DF
102
}
100
AcDbEntity
  8
0
370
              -2
390
0
  6
Continuous
 62
               0
100
AcDbCircle
 10
-733.97051740651114
 20
1030.0000004695294
 30
0.0
 40
1.9998779296875
  0
HATCH
  5
DF
100
AcDbEntity
  8
0
370
              -2
390
0
  6
Continuous
 62
               0
100
AcDbHatch
 10
0.0
 20
0.0
 30
0.0
210
0.0
220
0.0
230
1.0
  2
SOLID
 70
               1
 71
               1
 91
        1
 92
        1
 93
        1
 72
               2
 10
-733.97051740651114
 20
1030.0000004695294
 40
1.9998779296875
 50
0.0
 51
360.0
 73
               0
 97
        1
330
DE
 75
               0
 76
               1
 98
        1
 10
0.0
 20
0.0
  0
CIRCLE
  5
E0
102
{ACAD_REACTORS
330
E1
102
}
100
AcDbEntity
  8
0
370
              -2
390
0
  6
Continuous
 62
               0
100
AcDbCircle
 10
16.029467593470102
 20
1030.0000004695294
 30
0.0
 40
1.9998779296875
  0
HATCH
  5
E1
100
AcDbEntity
  8
0
370
              -2
390
0
  6
Continuous
 62
               0
100
AcDbHatch
 10
0.0
 20
0.0
 30
0.0
210
0.0
220
0.0
230
1.0
  2
SOLID
 70
               1
 71
               1
 91
        1
 92
        1
 93
        1
 72
               2
 10
16.029467593470102
 20
1030.0000004695294
 40
1.9998779296875
 50
0.0
 51
360.0
 73
               0
 97
        1
330
E0
 75
               0
 76
               1
 98
        1
 10
0.0
 20
0.0
  0
MTEXT
  5
E2
100
AcDbEntity
  8
0
390
0
 62
               0
100
AcDbMText
 10
-382.78302658869603
 20
1061.2731254695293
 30
0.0
 40
21.828125
 41
0.0
 71
               1
 72
               1
  1
750
  7
MS UI Gothic
 73
               1
 44
0.8762322015334064
  0
POINT
  5
E3
100
AcDbEntity
  8
Defpoints
370
               0
390
0
 62
               0
100
AcDbPoint
 10
16.029467593470102
 20
874.00000821095387
 30
0.0
  0
POINT
  5
E4
100
AcDbEntity
  8
Defpoints
370
               0
390
0
 62
               0
100
AcDbPoint
 10
-733.97051740651114
 20
874.00000749999992
 30
0.0
  0
POINT
  5
E5
100
AcDbEntity
  8
Defpoints
370
               0
390
0
 62
               0
100
AcDbPoint
 10
-733.97051740651114
 20
1030.0000004695294
 30
0.0
  0
ENDBLK
  5
E6
100
AcDbEntity
  8
notes
390
0
100
AcDbBlockEnd
  0
BLOCK
  5
E7
100
AcDbEntity
  8
notes
390
0
100
AcDbBlockBegin
  2
*D12
 70
               1
 10
0.0
 20
0.0
 30
0.0
  3
*D12
  1

  0
LINE
  5
E8
100
AcDbEntity
  8
0
370
              -2
390
0
  6
Continuous
 62
               0
100
AcDbLine
 10
-760.00048473908555
 20
399.67515929260719
 30
0.0
 11
-833.9705374537873
 21
399.67515929260719
 31
0.0
  0
LINE
  5
E9
100
AcDbEntity
  8
0
370
              -2
390
0
  6
Continuous
 62
               0
100
AcDbLine
 10
-760.00048473908555
 20
749.67515929260719
 30
0.0
 11
-833.9705374537873
 21
749.67515929260719
 31
0.0
  0
LINE
  5
EA
100
AcDbEntity
  8
0
370
              -2
390
0
  6
Continuous
 62
               0
100
AcDbLine
 10
-833.9705374537873
 20
399.67515929260719
 30
0.0
 11
-833.9705374537873
 21
749.67515929260719
 31
0.0
  0
CIRCLE
  5
EB
102
{ACAD_REACTORS
330
EC
102
}
100
AcDbEntity
  8
0
370
              -2
390
0
  6
Continuous
 62
               0
100
AcDbCircle
 10
-833.9705374537873
 20
399.67515929260719
 30
0.0
 40
1.9998779296875
  0
HATCH
  5
EC
100
AcDbEntity
  8
0
370
              -2
390
0
  6
Continuous
 62
               0
100
AcDbHatch
 10
0.0
 20
0.0
 30
0.0
210
0.0
220
0.0
230
1.0
  2
SOLID
 70
               1
 71
               1
 91
        1
 92
        1
 93
        1
 72
               2
 10
-833.9705374537873
 20
399.67515929260719
 40
1.9998779296875
 50
0.0
 51
360.0
 73
               0
 97
        1
330
EB
 75
               0
 76
               1
 98
        1
 10
0.0
 20
0.0
  0
CIRCLE
  5
ED
102
{ACAD_REACTORS
330
EE
102
}
100
AcDbEntity
  8
0
370
              -2
390
0
  6
Continuous
 62
               0
100
AcDbCircle
 10
-833.9705374537873
 20
749.67515929260719
 30
0.0
 40
1.9998779296875
  0
HATCH
  5
EE
100
AcDbEntity
  8
0
370
              -2
390
0
  6
Continuous
 62
               0
100
AcDbHatch
 10
0.0
 20
0.0
 30
0.0
210
0.0
220
0.0
230
1.0
  2
SOLID
 70
               1
 71
               1
 91
        1
 92
        1
 93
        1
 72
               2
 10
-833.9705374537873
 20
749.67515929260719
 40
1.9998779296875
 50
0.0
 51
360.0
 73
               0
 97
        1
330
ED
 75
               0
 76
               1
 98
        1
 10
0.0
 20
0.0
  0
MTEXT
  5
EF
100
AcDbEntity
  8
0
390
0
 62
               0
100
AcDbMText
 10
-865.24366245378724
 20
546.37446529709803
 30
0.0
 40
21.828125
 41
0.0
 71
               1
 72
               1
  1
350
  7
MS UI Gothic
 11
0.0
 21
1.0
 31
0.0
 73
               1
 44
0.8762322015334064
  0
POINT
  5
F0
100
AcDbEntity
  8
Defpoints
370
               0
390
0
 62
               0
100
AcDbPoint
 10
-735.00048473908555
 20
749.67515929260719
 30
0.0
  0
POINT
  5
F1
100
AcDbEntity
  8
Defpoints
370
               0
390
0
 62
               0
100
AcDbPoint
 10
-735.00048473908555
 20
399.67515929260719
 30
0.0
  0
POINT
  5
F2
100
AcDbEntity
  8
Defpoints
370
               0
390
0
 62
               0
100
AcDbPoint
 10
-833.9705374537873
 20
399.67515929260719
 30
0.0
  0
ENDBLK
  5
F3
100
AcDbEntity
  8
notes
390
0
100
AcDbBlockEnd
  0
BLOCK
  5
F4
100
AcDbEntity
  8
notes
390
0
100
AcDbBlockBegin
  2
*D13
 70
               1
 10
0.0
 20
0.0
 30
0.0
  3
*D13
  1

  0
LINE
  5
F5
100
AcDbEntity
  8
0
370
              -2
390
0
  6
Continuous
 62
               0
100
AcDbLine
 10
-758.9705260635867
 20
749.72450029259767
 30
0.0
 11
-833.9705374537873
 21
749.72450029259767
 31
0.0
  0
LINE
  5
F6
100
AcDbEntity
  8
0
370
              -2
390
0
  6
Continuous
 62
               0
100
AcDbLine
 10
-754.70384265765915
 20
879.72450029259767
 30
0.0
 11
-833.9705374537873
 21
879.72450029259767
 31
0.0
  0
LINE
  5
F7
100
AcDbEntity
  8
0
370
              -2
390
0
  6
Continuous
 62
               0
100
AcDbLine
 10
-833.9705374537873
 20
749.72450029259767
 30
0.0
 11
-833.9705374537873
 21
879.72450029259767
 31
0.0
  0
CIRCLE
  5
F8
102
{ACAD_REACTORS
330
F9
102
}
100
AcDbEntity
  8
0
370
              -2
390
0
  6
Continuous
 62
               0
100
AcDbCircle
 10
-833.9705374537873
 20
749.72450029259767
 30
0.0
 40
1.9998779296875
  0
HATCH
  5
F9
100
AcDbEntity
  8
0
370
              -2
390
0
  6
Continuous
 62
               0
100
AcDbHatch
 10
0.0
 20
0.0
 30
0.0
210
0.0
220
0.0
230
1.0
  2
SOLID
 70
               1
 71
               1
 91
        1
 92
        1
 93
        1
 72
               2
 10
-833.9705374537873
 20
749.72450029259767
 40
1.9998779296875
 50
0.0
 51
360.0
 73
               0
 97
        1
330
F8
 75
               0
 76
               1
 98
        1
 10
0.0
 20
0.0
  0
CIRCLE
  5
FA
102
{ACAD_REACTORS
330
FB
102
}
100
AcDbEntity
  8
0
370
              -2
390
0
  6
Continuous
 62
               0
100
AcDbCircle
 10
-833.9705374537873
 20
879.72450029259767
 30
0.0
 40
1.9998779296875
  0
HATCH
  5
FB
100
AcDbEntity
  8
0
370
              -2
390
0
  6
Continuous
 62
               0
100
AcDbHatch
 10
0.0
 20
0.0
 30
0.0
210
0.0
220
0.0
230
1.0
  2
SOLID
 70
               1
 71
               1
 91
        1
 92
        1
 93
        1
 72
               2
 10
-833.9705374537873
 20
879.72450029259767
 40
1.9998779296875
 50
0.0
 51
360.0
 73
               0
 97
        1
330
FA
 75
               0
 76
               1
 98
        1
 10
0.0
 20
0.0
  0
MTEXT
  5
FC
100
AcDbEntity
  8
0
390
0
 62
               0
100
AcDbMText
 10
-865.24366245378724
 20
790.91199861042219
 30
0.0
 40
21.828125
 41
0.0
 71
               1
 72
               1
  1
130
  7
MS UI Gothic
 11
0.0
 21
1.0
 31
0.0
 73
               1
 44
0.8762322015334064
  0
POINT
  5
FD
100
AcDbEntity
  8
Defpoints
370
               0
390
0
 62
               0
100
AcDbPoint
 10
-729.70384265765915
 20
879.72450029259767
 30
0.0
  0
POINT
  5
FE
100
AcDbEntity
  8
Defpoints
370
               0
390
0
 62
               0
100
AcDbPoint
 10
-733.9705260635867
 20
749.72450029259767
 30
0.0
  0
POINT
  5
FF
100
AcDbEntity
  8
Defpoints
370
               0
390
0
 62
               0
100
AcDbPoint
 10
-833.9705374537873
 20
749.72450029259767
 30
0.0
  0
ENDBLK
  5
100
100
AcDbEntity
  8
notes
390
0
100
AcDbBlockEnd
  0
BLOCK
  5
101
100
AcDbEntity
  8
notes
390
0
100
AcDbBlockBegin
  2
*D14
 70
               1
 10
0.0
 20
0.0
 30
0.0
  3
*D14
  1

  0
LINE
  5
102
100
AcDbEntity
  8
0
370
              -2
390
0
  6
Continuous
 62
               0
100
AcDbLine
 10
-499.39231790676098
 20
-425.50702344314175
 30
0.0
 11
-499.39231790676098
 21
-301.02167013713483
 31
0.0
  0
LINE
  5
103
100
AcDbEntity
  8
0
370
              -2
390
0
  6
Continuous
 62
               0
100
AcDbLine
 10
-219.39231790676115
 20
-424.02961999951697
 30
0.0
 11
-219.39231790676115
 21
-301.02167013713483
 31
0.0
  0
LINE
  5
104
100
AcDbEntity
  8
0
370
              -2
390
0
  6
Continuous
 62
               0
100
AcDbLine
 10
-499.39231790676098
 20
-301.02167013713483
 30
0.0
 11
-219.39231790676115
 21
-301.02167013713483
 31
0.0
  0
CIRCLE
  5
105
102
{ACAD_REACTORS
330
106
102
}
100
AcDbEntity
  8
0
370
              -2
390
0
  6
Continuous
 62
               0
100
AcDbCircle
 10
-499.39231790676098
 20
-301.02167013713483
 30
0.0
 40
1.9998779296875
  0
HATCH
  5
106
100
AcDbEntity
  8
0
370
              -2
390
0
  6
Continuous
 62
               0
100
AcDbHatch
 10
0.0
 20
0.0
 30
0.0
210
0.0
220
0.0
230
1.0
  2
SOLID
 70
               1
 71
               1
 91
        1
 92
        1
 93
        1
 72
               2
 10
-499.39231790676098
 20
-301.02167013713483
 40
1.9998779296875
 50
0.0
 51
360.0
 73
               0
 97
        1
330
105
 75
               0
 76
               1
 98
        1
 10
0.0
 20
0.0
  0
CIRCLE
  5
107
102
{ACAD_REACTORS
330
108
102
}
100
AcDbEntity
  8
0
370
              -2
390
0
  6
Continuous
 62
               0
100
AcDbCircle
 10
-219.39231790676115
 20
-301.02167013713483
 30
0.0
 40
1.9998779296875
  0
HATCH
  5
108
100
AcDbEntity
  8
0
370
              -2
390
0
  6
Continuous
 62
               0
100
AcDbHatch
 10
0.0
 20
0.0
 30
0.0
210
0.0
220
0.0
230
1.0
  2
SOLID
 70
               1
 71
               1
 91
        1
 92
        1
 93
        1
 72
               2
 10
-219.39231790676115
 20
-301.02167013713483
 40
1.9998779296875
 50
0.0
 51
360.0
 73
               0
 97
        1
330
107
 75
               0
 76
               1
 98
        1
 10
0.0
 20
0.0
  0
MTEXT
  5
109
100
AcDbEntity
  8
0
390
0
 62
               0
100
AcDbMText
 10
-383.20481958893663
 20
-269.74854513713478
 30
0.0
 40
21.828125
 41
0.0
 71
               1
 72
               1
  1
280
  7
MS UI Gothic
 73
               1
 44
0.8762322015334064
  0
POINT
  5
10A
100
AcDbEntity
  8
Defpoints
370
               0
390
0
 62
               0
100
AcDbPoint
 10
-219.39231790676115
 20
-449.02961999951697
 30
0.0
  0
POINT
  5
10B
100
AcDbEntity
  8
Defpoints
370
               0
390
0
 62
               0
100
AcDbPoint
 10
-499.39231790676098
 20
-450.50702344314175
 30
0.0
  0
POINT
  5
10C
100
AcDbEntity
  8
Defpoints
370
               0
390
0
 62
               0
100
AcDbPoint
 10
-499.39231790676098
 20
-301.02167013713483
 30
0.0
  0
ENDBLK
  5
10D
100
AcDbEntity
  8
notes
390
0
100
AcDbBlockEnd
  0
BLOCK
  5
10E
100
AcDbEntity
  8
notes
390
0
100
AcDbBlockBegin
  2
*D15
 70
               1
 10
0.0
 20
0.0
 30
0.0
  3
*D15
  1

  0
LINE
  5
10F
100
AcDbEntity
  8
0
370
              -2
390
0
  6
Continuous
 62
               0
100
AcDbLine
 10
-534.00048473908555
 20
-450.50702344314175
 30
0.0
 11
-833.97054840651094
 21
-450.50702344314175
 31
0.0
  0
LINE
  5
110
100
AcDbEntity
  8
0
370
              -2
390
0
  6
Continuous
 62
               0
100
AcDbLine
 10
-534.00048473908555
 20
-400.50700171815618
 30
0.0
 11
-833.97054840651094
 21
-400.50700171815618
 31
0.0
  0
LINE
  5
111
100
AcDbEntity
  8
0
370
              -2
390
0
  6
Continuous
 62
               0
100
AcDbLine
 10
-833.97054840651094
 20
-450.50702344314175
 30
0.0
 11
-833.97054840651094
 21
-400.50700171815618
 31
0.0
  0
CIRCLE
  5
112
102
{ACAD_REACTORS
330
113
102
}
100
AcDbEntity
  8
0
370
              -2
390
0
  6
Continuous
 62
               0
100
AcDbCircle
 10
-833.97054840651094
 20
-450.50702344314175
 30
0.0
 40
1.9998779296875
  0
HATCH
  5
113
100
AcDbEntity
  8
0
370
              -2
390
0
  6
Continuous
 62
               0
100
AcDbHatch
 10
0.0
 20
0.0
 30
0.0
210
0.0
220
0.0
230
1.0
  2
SOLID
 70
               1
 71
               1
 91
        1
 92
        1
 93
        1
 72
               2
 10
-833.97054840651094
 20
-450.50702344314175
 40
1.9998779296875
 50
0.0
 51
360.0
 73
               0
 97
        1
330
112
 75
               0
 76
               1
 98
        1
 10
0.0
 20
0.0
  0
CIRCLE
  5
114
102
{ACAD_REACTORS
330
115
102
}
100
AcDbEntity
  8
0
370
              -2
390
0
  6
Continuous
 62
               0
100
AcDbCircle
 10
-833.97054840651094
 20
-400.50700171815618
 30
0.0
 40
1.9998779296875
  0
HATCH
  5
115
100
AcDbEntity
  8
0
370
              -2
390
0
  6
Continuous
 62
               0
100
AcDbHatch
 10
0.0
 20
0.0
 30
0.0
210
0.0
220
0.0
230
1.0
  2
SOLID
 70
               1
 71
               1
 91
        1
 92
        1
 93
        1
 72
               2
 10
-833.97054840651094
 20
-400.50700171815618
 40
1.9998779296875
 50
0.0
 51
360.0
 73
               0
 97
        1
330
114
 75
               0
 76
               1
 98
        1
 10
0.0
 20
0.0
  0
MTEXT
  5
116
100
AcDbEntity
  8
0
390
0
 62
               0
100
AcDbMText
 10
-865.24367340651088
 20
-441.38201258064885
 30
0.0
 40
21.828125
 41
0.0
 71
               1
 72
               1
  1
50
  7
MS UI Gothic
 11
0.0
 21
1.0
 31
0.0
 73
               1
 44
0.8762322015334064
  0
POINT
  5
117
100
AcDbEntity
  8
Defpoints
370
               0
390
0
 62
               0
100
AcDbPoint
 10
-509.00048473908549
 20
-400.50700171815618
 30
0.0
  0
POINT
  5
118
100
AcDbEntity
  8
Defpoints
370
               0
390
0
 62
               0
100
AcDbPoint
 10
-509.00048473908549
 20
-450.50702344314175
 30
0.0
  0
POINT
  5
119
100
AcDbEntity
  8
Defpoints
370
               0
390
0
 62
               0
100
AcDbPoint
 10
-833.97054840651094
 20
-450.50702344314175
 30
0.0
  0
ENDBLK
  5
11A
100
AcDbEntity
  8
notes
390
0
100
AcDbBlockEnd
  0
BLOCK
  5
11B
100
AcDbEntity
  8
notes
390
0
100
AcDbBlockBegin
  2
*D16
 70
               1
 10
0.0
 20
0.0
 30
0.0
  3
*D16
  1

  0
LINE
  5
11C
100
AcDbEntity
  8
0
370
              -2
390
0
  6
Continuous
 62
               0
100
AcDbLine
 10
-142.53006419887583
 20
-400.48701786033428
 30
0.0
 11
114.45076778132994
 21
-400.48701786033428
 31
0.0
  0
LINE
  5
11D
100
AcDbEntity
  8
0
370
              -2
390
0
  6
Continuous
 62
               0
100
AcDbLine
 10
-126.61991075776172
 20
-570.48701786033428
 30
0.0
 11
114.45076778132994
 21
-570.48701786033428
 31
0.0
  0
LINE
  5
11E
100
AcDbEntity
  8
0
370
              -2
390
0
  6
Continuous
 62
               0
100
AcDbLine
 10
114.45076778132994
 20
-400.48701786033428
 30
0.0
 11
114.45076778132994
 21
-570.48701786033428
 31
0.0
  0
CIRCLE
  5
11F
102
{ACAD_REACTORS
330
120
102
}
100
AcDbEntity
  8
0
370
              -2
390
0
  6
Continuous
 62
               0
100
AcDbCircle
 10
114.45076778132994
 20
-400.48701786033428
 30
0.0
 40
1.9998779296875
  0
HATCH
  5
120
100
AcDbEntity
  8
0
370
              -2
390
0
  6
Continuous
 62
               0
100
AcDbHatch
 10
0.0
 20
0.0
 30
0.0
210
0.0
220
0.0
230
1.0
  2
SOLID
 70
               1
 71
               1
 91
        1
 92
        1
 93
        1
 72
               2
 10
114.45076778132994
 20
-400.48701786033428
 40
1.9998779296875
 50
0.0
 51
360.0
 73
               0
 97
        1
330
11F
 75
               0
 76
               1
 98
        1
 10
0.0
 20
0.0
  0
CIRCLE
  5
121
102
{ACAD_REACTORS
330
122
102
}
100
AcDbEntity
  8
0
370
              -2
390
0
  6
Continuous
 62
               0
100
AcDbCircle
 10
114.45076778132994
 20
-570.48701786033428
 30
0.0
 40
1.9998779296875
  0
HATCH
  5
122
100
AcDbEntity
  8
0
370
              -2
390
0
  6
Continuous
 62
               0
100
AcDbHatch
 10
0.0
 20
0.0
 30
0.0
210
0.0
220
0.0
230
1.0
  2
SOLID
 70
               1
 71
               1
 91
        1
 92
        1
 93
        1
 72
               2
 10
114.45076778132994
 20
-570.48701786033428
 40
1.9998779296875
 50
0.0
 51
360.0
 73
               0
 97
        1
330
121
 75
               0
 76
               1
 98
        1
 10
0.0
 20
0.0
  0
MTEXT
  5
123
100
AcDbEntity
  8
0
390
0
 62
               0
100
AcDbMText
 10
83.177642781329936
 20
-509.29951954250976
 30
0.0
 40
21.828125
 41
0.0
 71
               1
 72
               1
  1
170
  7
MS UI Gothic
 11
0.0
 21
1.0
 31
0.0
 73
               1
 44
0.8762322015334064
  0
POINT
  5
124
100
AcDbEntity
  8
Defpoints
370
               0
390
0
 62
               0
100
AcDbPoint
 10
-151.61991075776172
 20
-570.48701786033428
 30
0.0
  0
POINT
  5
125
100
AcDbEntity
  8
Defpoints
370
               0
390
0
 62
               0
100
AcDbPoint
 10
-167.53006419887583
 20
-400.48701786033428
 30
0.0
  0
POINT
  5
126
100
AcDbEntity
  8
Defpoints
370
               0
390
0
 62
               0
100
AcDbPoint
 10
114.45076778132994
 20
-400.48701786033428
 30
0.0
  0
ENDBLK
  5
127
100
AcDbEntity
  8
notes
390
0
100
AcDbBlockEnd
  0
BLOCK
  5
128
100
AcDbEntity
  8
notes
390
0
100
AcDbBlockBegin
  2
*D17
 70
               1
 10
0.0
 20
0.0
 30
0.0
  3
*D17
  1

  0
LINE
  5
129
100
AcDbEntity
  8
0
370
              -2
390
0
  6
Continuous
 62
               0
100
AcDbLine
 10
848.98783185029083
 20
-595.63811271815632
 30
0.0
 11
848.98783185029083
 21
-670.48962529958737
 31
0.0
  0
LINE
  5
12A
100
AcDbEntity
  8
0
370
              -2
390
0
  6
Continuous
 62
               0
100
AcDbLine
 10
598.98751185028868
 20
-595.48962529958737
 30
0.0
 11
598.98751185028868
 21
-670.48962529958737
 31
0.0
  0
LINE
  5
12B
100
AcDbEntity
  8
0
370
              -2
390
0
  6
Continuous
 62
               0
100
AcDbLine
 10
848.98783185029083
 20
-670.48962529958737
 30
0.0
 11
598.98751185028868
 21
-670.48962529958737
 31
0.0
  0
CIRCLE
  5
12C
102
{ACAD_REACTORS
330
12D
102
}
100
AcDbEntity
  8
0
370
              -2
390
0
  6
Continuous
 62
               0
100
AcDbCircle
 10
848.98783185029083
 20
-670.48962529958737
 30
0.0
 40
1.9998779296875
  0
HATCH
  5
12D
100
AcDbEntity
  8
0
370
              -2
390
0
  6
Continuous
 62
               0
100
AcDbHatch
 10
0.0
 20
0.0
 30
0.0
210
0.0
220
0.0
230
1.0
  2
SOLID
 70
               1
 71
               1
 91
        1
 92
        1
 93
        1
 72
               2
 10
848.98783185029083
 20
-670.48962529958737
 40
1.9998779296875
 50
0.0
 51
360.0
 73
               0
 97
        1
330
12C
 75
               0
 76
               1
 98
        1
 10
0.0
 20
0.0
  0
CIRCLE
  5
12E
102
{ACAD_REACTORS
330
12F
102
}
100
AcDbEntity
  8
0
370
              -2
390
0
  6
Continuous
 62
               0
100
AcDbCircle
 10
598.98751185028868
 20
-670.48962529958737
 30
0.0
 40
1.9998779296875
  0
HATCH
  5
12F
100
AcDbEntity
  8
0
370
              -2
390
0
  6
Continuous
 62
               0
100
AcDbHatch
 10
0.0
 20
0.0
 30
0.0
210
0.0
220
0.0
230
1.0
  2
SOLID
 70
               1
 71
               1
 91
        1
 92
        1
 93
        1
 72
               2
 10
598.98751185028868
 20
-670.48962529958737
 40
1.9998779296875
 50
0.0
 51
360.0
 73
               0
 97
        1
330
12E
 75
               0
 76
               1
 98
        1
 10
0.0
 20
0.0
  0
MTEXT
  5
130
100
AcDbEntity
  8
0
390
0
 62
               0
100
AcDbMText
 10
700.17517016811416
 20
-639.21650029958744
 30
0.0
 40
21.828125
 41
0.0
 71
               1
 72
               1
  1
250
  7
MS UI Gothic
 73
               1
 44
0.8762322015334064
  0
POINT
  5
131
100
AcDbEntity
  8
Defpoints
370
               0
390
0
 62
               0
100
AcDbPoint
 10
598.98751185028868
 20
-570.48962529958737
 30
0.0
  0
POINT
  5
132
100
AcDbEntity
  8
Defpoints
370
               0
390
0
 62
               0
100
AcDbPoint
 10
848.98783185029083
 20
-570.63811271815632
 30
0.0
  0
POINT
  5
133
100
AcDbEntity
  8
Defpoints
370
               0
390
0
 62
               0
100
AcDbPoint
 10
848.98783185029083
 20
-670.48962529958737
 30
0.0
  0
ENDBLK
  5
134
100
AcDbEntity
  8
notes
390
0
100
AcDbBlockEnd
  0
BLOCK
  5
135
100
AcDbEntity
  8
notes
390
0
100
AcDbBlockBegin
  2
*D18
 70
               1
 10
0.0
 20
0.0
 30
0.0
  3
*D18
  1

  0
LINE
  5
136
100
AcDbEntity
  8
0
370
              -2
390
0
  6
Continuous
 62
               0
100
AcDbLine
 10
848.98783185029083
 20
-375.50700171815618
 30
0.0
 11
848.98783185029083
 21
-301.02167013713472
 31
0.0
  0
LINE
  5
137
100
AcDbEntity
  8
0
370
              -2
390
0
  6
Continuous
 62
               0
100
AcDbLine
 10
768.98783185029083
 20
-375.50700171815618
 30
0.0
 11
768.98783185029083
 21
-301.02167013713472
 31
0.0
  0
LINE
  5
138
100
AcDbEntity
  8
0
370
              -2
390
0
  6
Continuous
 62
               0
100
AcDbLine
 10
848.98783185029083
 20
-301.02167013713472
 30
0.0
 11
768.98783185029083
 21
-301.02167013713472
 31
0.0
  0
CIRCLE
  5
139
102
{ACAD_REACTORS
330
13A
102
}
100
AcDbEntity
  8
0
370
              -2
390
0
  6
Continuous
 62
               0
100
AcDbCircle
 10
848.98783185029083
 20
-301.02167013713472
 30
0.0
 40
1.9998779296875
  0
HATCH
  5
13A
100
AcDbEntity
  8
0
370
              -2
390
0
  6
Continuous
 62
               0
100
AcDbHatch
 10
0.0
 20
0.0
 30
0.0
210
0.0
220
0.0
230
1.0
  2
SOLID
 70
               1
 71
               1
 91
        1
 92
        1
 93
        1
 72
               2
 10
848.98783185029083
 20
-301.02167013713472
 40
1.9998779296875
 50
0.0
 51
360.0
 73
               0
 97
        1
330
139
 75
               0
 76
               1
 98
        1
 10
0.0
 20
0.0
  0
CIRCLE
  5
13B
102
{ACAD_REACTORS
330
13C
102
}
100
AcDbEntity
  8
0
370
              -2
390
0
  6
Continuous
 62
               0
100
AcDbCircle
 10
768.98783185029083
 20
-301.02167013713472
 30
0.0
 40
1.9998779296875
  0
HATCH
  5
13C
100
AcDbEntity
  8
0
370
              -2
390
0
  6
Continuous
 62
               0
100
AcDbHatch
 10
0.0
 20
0.0
 30
0.0
210
0.0
220
0.0
230
1.0
  2
SOLID
 70
               1
 71
               1
 91
        1
 92
        1
 93
        1
 72
               2
 10
768.98783185029083
 20
-301.02167013713472
 40
1.9998779296875
 50
0.0
 51
360.0
 73
               0
 97
        1
330
13B
 75
               0
 76
               1
 98
        1
 10
0.0
 20
0.0
  0
MTEXT
  5
13D
100
AcDbEntity
  8
0
390
0
 62
               0
100
AcDbMText
 10
793.11283185029083
 20
-269.74854513713467
 30
0.0
 40
21.828125
 41
0.0
 71
               1
 72
               1
  1
80
  7
MS UI Gothic
 73
               1
 44
0.8762322015334064
  0
POINT
  5
13E
100
AcDbEntity
  8
Defpoints
370
               0
390
0
 62
               0
100
AcDbPoint
 10
768.98783185029083
 20
-400.50700171815618
 30
0.0
  0
POINT
  5
13F
100
AcDbEntity
  8
Defpoints
370
               0
390
0
 62
               0
100
AcDbPoint
 10
848.98783185029083
 20
-400.50700171815618
 30
0.0
  0
POINT
  5
140
100
AcDbEntity
  8
Defpoints
370
               0
390
0
 62
               0
100
AcDbPoint
 10
848.98783185029083
 20
-301.02167013713472
 30
0.0
  0
ENDBLK
  5
141
100
AcDbEntity
  8
notes
390
0
100
AcDbBlockEnd
  0
BLOCK
  5
142
100
AcDbEntity
  8
notes
390
0
100
AcDbBlockBegin
  2
*D19
 70
               1
 10
0.0
 20
0.0
 30
0.0
  3
*D19
  1

  0
LINE
  5
143
100
AcDbEntity
  8
0
370
              -2
390
0
  6
Continuous
 62
               0
100
AcDbLine
 10
-658.97051240651126
 20
354.43291347615821
 30
0.0
 11
-658.97051240651126
 21
249.99979449999984
 31
0.0
  0
LINE
  5
144
100
AcDbEntity
  8
0
370
              -2
390
0
  6
Continuous
 62
               0
100
AcDbLine
 10
-58.970522373287537
 20
354.43291062158733
 30
0.0
 11
-58.970522373287537
 21
249.99979449999984
 31
0.0
  0
LINE
  5
145
100
AcDbEntity
  8
0
370
              -2
390
0
  6
Continuous
 62
               0
100
AcDbLine
 10
-658.97051240651126
 20
249.99979449999984
 30
0.0
 11
-58.970522373287537
 21
249.99979449999984
 31
0.0
  0
CIRCLE
  5
146
102
{ACAD_REACTORS
330
147
102
}
100
AcDbEntity
  8
0
370
              -2
390
0
  6
Continuous
 62
               0
100
AcDbCircle
 10
-658.97051240651126
 20
249.99979449999984
 30
0.0
 40
1.9998779296875
  0
HATCH
  5
147
100
AcDbEntity
  8
0
370
              -2
390
0
  6
Continuous
 62
               0
100
AcDbHatch
 10
0.0
 20
0.0
 30
0.0
210
0.0
220
0.0
230
1.0
  2
SOLID
 70
               1
 71
               1
 91
        1
 92
        1
 93
        1
 72
               2
 10
-658.97051240651126
 20
249.99979449999984
 40
1.9998779296875
 50
0.0
 51
360.0
 73
               0
 97
        1
330
146
 75
               0
 76
               1
 98
        1
 10
0.0
 20
0.0
  0
CIRCLE
  5
148
102
{ACAD_REACTORS
330
149
102
}
100
AcDbEntity
  8
0
370
              -2
390
0
  6
Continuous
 62
               0
100
AcDbCircle
 10
-58.970522373287537
 20
249.99979449999984
 30
0.0
 40
1.9998779296875
  0
HATCH
  5
149
100
AcDbEntity
  8
0
370
              -2
390
0
  6
Continuous
 62
               0
100
AcDbHatch
 10
0.0
 20
0.0
 30
0.0
210
0.0
220
0.0
230
1.0
  2
SOLID
 70
               1
 71
               1
 91
        1
 92
        1
 93
        1
 72
               2
 10
-58.970522373287537
 20
249.99979449999984
 40
1.9998779296875
 50
0.0
 51
360.0
 73
               0
 97
        1
330
148
 75
               0
 76
               1
 98
        1
 10
0.0
 20
0.0
  0
MTEXT
  5
14A
100
AcDbEntity
  8
0
390
0
 62
               0
100
AcDbMText
 10
-382.78301907207492
 20
281.27291949999983
 30
0.0
 40
21.828125
 41
0.0
 71
               1
 72
               1
  1
600
  7
MS UI Gothic
 73
               1
 44
0.8762322015334064
  0
POINT
  5
14B
100
AcDbEntity
  8
Defpoints
370
               0
390
0
 62
               0
100
AcDbPoint
 10
-58.970522373287537
 20
379.43291062158733
 30
0.0
  0
POINT
  5
14C
100
AcDbEntity
  8
Defpoints
370
               0
390
0
 62
               0
100
AcDbPoint
 10
-658.97051240651126
 20
379.43291347615821
 30
0.0
  0
POINT
  5
14D
100
AcDbEntity
  8
Defpoints
370
               0
390
0
 62
               0
100
AcDbPoint
 10
-658.97051240651126
 20
249.99979449999984
 30
0.0
  0
ENDBLK
  5
14E
100
AcDbEntity
  8
notes
390
0
100
AcDbBlockEnd
  0
BLOCK
  5
14F
100
AcDbEntity
  8
notes
390
0
100
AcDbBlockBegin
  2
*D20
 70
               1
 10
0.0
 20
0.0
 30
0.0
  3
*D20
  1

  0
LINE
  5
150
100
AcDbEntity
  8
0
370
              -2
390
0
  6
Continuous
 62
               0
100
AcDbLine
 10
600.46220117088114
 20
-522.60789422012306
 30
0.0
 11
559.74629720784446
 21
-522.60789422012306
 31
0.0
  0
LINE
  5
151
100
AcDbEntity
  8
0
370
              -2
390
0
  6
Continuous
 62
               0
100
AcDbLine
 10
600.46220117088114
 20
-412.00000000000011
 30
0.0
 11
559.74629720784446
 21
-412.00000000000011
 31
0.0
  0
LINE
  5
152
100
AcDbEntity
  8
0
370
              -2
390
0
  6
Continuous
 62
               0
100
AcDbLine
 10
559.74629720784446
 20
-412.00000000000011
 30
0.0
 11
559.74629720784446
 21
-264.35959555225008
 31
0.0
  0
LINE
  5
153
100
AcDbEntity
  8
0
370
              -2
390
0
  6
Continuous
 62
               0
100
AcDbLine
 10
559.74629720784446
 20
-522.60789422012306
 30
0.0
 11
559.74629720784446
 21
-412.00000000000011
 31
0.0
  0
CIRCLE
  5
154
102
{ACAD_REACTORS
330
155
102
}
100
AcDbEntity
  8
0
370
              -2
390
0
  6
Continuous
 62
               0
100
AcDbCircle
 10
559.74629720784446
 20
-522.60789422012306
 30
0.0
 40
1.9998779296875
  0
HATCH
  5
155
100
AcDbEntity
  8
0
370
              -2
390
0
  6
Continuous
 62
               0
100
AcDbHatch
 10
0.0
 20
0.0
 30
0.0
210
0.0
220
0.0
230
1.0
  2
SOLID
 70
               1
 71
               1
 91
        1
 92
        1
 93
        1
 72
               2
 10
559.74629720784446
 20
-522.60789422012306
 40
1.9998779296875
 50
0.0
 51
360.0
 73
               0
 97
        1
330
154
 75
               0
 76
               1
 98
        1
 10
0.0
 20
0.0
  0
CIRCLE
  5
156
102
{ACAD_REACTORS
330
157
102
}
100
AcDbEntity
  8
0
370
              -2
390
0
  6
Continuous
 62
               0
100
AcDbCircle
 10
559.74629720784446
 20
-412.00000000000011
 30
0.0
 40
1.9998779296875
  0
HATCH
  5
157
100
AcDbEntity
  8
0
370
              -2
390
0
  6
Continuous
 62
               0
100
AcDbHatch
 10
0.0
 20
0.0
 30
0.0
210
0.0
220
0.0
230
1.0
  2
SOLID
 70
               1
 71
               1
 91
        1
 92
        1
 93
        1
 72
               2
 10
559.74629720784446
 20
-412.00000000000011
 40
1.9998779296875
 50
0.0
 51
360.0
 73
               0
 97
        1
330
156
 75
               0
 76
               1
 98
        1
 10
0.0
 20
0.0
  0
MTEXT
  5
158
100
AcDbEntity
  8
0
390
0
 62
               0
100
AcDbMText
 10
528.47317220784453
 20
-397.3921057798774
 30
0.0
 40
21.828125
 41
0.0
 71
               1
 72
               1
  1
120（深さ）
  7
MS UI Gothic
 11
0.0
 21
1.0
 31
0.0
 73
               1
 44
0.8762322015334064
  0
POINT
  5
159
100
AcDbEntity
  8
Defpoints
370
               0
390
0
 62
               0
100
AcDbPoint
 10
625.46220117088114
 20
-412.00000000000011
 30
0.0
  0
POINT
  5
15A
100
AcDbEntity
  8
Defpoints
370
               0
390
0
 62
               0
100
AcDbPoint
 10
625.46220117088114
 20
-522.60789422012306
 30
0.0
  0
POINT
  5
15B
100
AcDbEntity
  8
Defpoints
370
               0
390
0
 62
               0
100
AcDbPoint
 10
559.74629720784446
 20
-522.60789422012306
 30
0.0
  0
ENDBLK
  5
15C
100
AcDbEntity
  8
notes
390
0
100
AcDbBlockEnd
  0
BLOCK
  5
15D
100
AcDbEntity
  8
notes
390
0
100
AcDbBlockBegin
  2
*D21
 70
               1
 10
0.0
 20
0.0
 30
0.0
  3
*D21
  1

  0
LINE
  5
15E
100
AcDbEntity
  8
0
370
              -2
390
0
  6
Continuous
 62
               0
100
AcDbLine
 10
358.98720685028843
 20
-409.0584187181563
 30
0.0
 11
218.20799688793883
 21
-409.0584187181563
 31
0.0
  0
LINE
  5
15F
100
AcDbEntity
  8
0
370
              -2
390
0
  6
Continuous
 62
               0
100
AcDbLine
 10
550.45224681810919
 20
-559.0584187181563
 30
0.0
 11
218.2079968879388
 21
-559.0584187181563
 31
0.0
  0
LINE
  5
160
100
AcDbEntity
  8
0
370
              -2
390
0
  6
Continuous
 62
               0
100
AcDbLine
 10
218.20799688793883
 20
-409.0584187181563
 30
0.0
 11
218.2079968879388
 21
-559.0584187181563
 31
0.0
  0
CIRCLE
  5
161
102
{ACAD_REACTORS
330
162
102
}
100
AcDbEntity
  8
0
370
              -2
390
0
  6
Continuous
 62
               0
100
AcDbCircle
 10
218.20799688793883
 20
-409.0584187181563
 30
0.0
 40
1.9998779296875
  0
HATCH
  5
162
100
AcDbEntity
  8
0
370
              -2
390
0
  6
Continuous
 62
               0
100
AcDbHatch
 10
0.0
 20
0.0
 30
0.0
210
0.0
220
0.0
230
1.0
  2
SOLID
 70
               1
 71
               1
 91
        1
 92
        1
 93
        1
 72
               2
 10
218.20799688793883
 20
-409.0584187181563
 40
1.9998779296875
 50
0.0
 51
360.0
 73
               0
 97
        1
330
161
 75
               0
 76
               1
 98
        1
 10
0.0
 20
0.0
  0
CIRCLE
  5
163
102
{ACAD_REACTORS
330
164
102
}
100
AcDbEntity
  8
0
370
              -2
390
0
  6
Continuous
 62
               0
100
AcDbCircle
 10
218.2079968879388
 20
-559.0584187181563
 30
0.0
 40
1.9998779296875
  0
HATCH
  5
164
100
AcDbEntity
  8
0
370
              -2
390
0
  6
Continuous
 62
               0
100
AcDbHatch
 10
0.0
 20
0.0
 30
0.0
210
0.0
220
0.0
230
1.0
  2
SOLID
 70
               1
 71
               1
 91
        1
 92
        1
 93
        1
 72
               2
 10
218.2079968879388
 20
-559.0584187181563
 40
1.9998779296875
 50
0.0
 51
360.0
 73
               0
 97
        1
330
163
 75
               0
 76
               1
 98
        1
 10
0.0
 20
0.0
  0
MTEXT
  5
165
100
AcDbEntity
  8
0
390
0
 62
               0
100
AcDbMText
 10
184.33037970043881
 20
-507.87092040033178
 30
0.0
 40
24.432617187500004
 41
0.0
 71
               1
 72
               1
  1
150
  7
ＭＳ ゴシック
 11
0.0
 21
1.0
 31
0.0
 73
               1
 44
0.7828267384257843
  0
POINT
  5
166
100
AcDbEntity
  8
Defpoints
370
               0
390
0
 62
               0
100
AcDbPoint
 10
575.45224681810919
 20
-559.0584187181563
 30
0.0
  0
POINT
  5
167
100
AcDbEntity
  8
Defpoints
370
               0
390
0
 62
               0
100
AcDbPoint
 10
383.98720685028843
 20
-409.0584187181563
 30
0.0
  0
POINT
  5
168
100
AcDbEntity
  8
Defpoints
370
               0
390
0
 62
               0
100
AcDbPoint
 10
218.20799688793883
 20
-409.0584187181563
 30
0.0
  0
ENDBLK
  5
169
100
AcDbEntity
  8
notes
390
0
100
AcDbBlockEnd
  0
BLOCK
  5
16A
100
AcDbEntity
  8
GAR70-0102
390
0
100
AcDbBlockBegin
  2
グループ-1
 70
               0
 10
0.0
 20
0.0
 30
0.0
  3
グループ-1
  1

  0
POLYLINE
  5
16B
100
AcDbEntity
  8
0
370
              15
390
0
  6
Continuous
 62
               7
100
AcDb2dPolyline
 66
               1
 10
0.0
 20
0.0
 30
0.0
 75
               5
  0
VERTEX
  5
16C
100
AcDbEntity
  8
0
370
              15
390
0
  6
Continuous
 62
               7
100
AcDbVertex
100
AcDb2dVertex
 10
-68.945342118955949
 20
153.822133114807
 30
0.0
  0
VERTEX
  5
16D
100
AcDbEntity
  8
0
370
              15
390
0
  6
Continuous
 62
               7
100
AcDbVertex
100
AcDb2dVertex
 10
-66.938259399671637
 20
153.27548474538639
 30
0.0
  0
VERTEX
  5
16E
100
AcDbEntity
  8
0
370
              15
390
0
  6
Continuous
 62
               7
100
AcDbVertex
100
AcDb2dVertex
 10
-65.055878352961003
 20
152.38818603495952
 30
0.0
  0
VERTEX
  5
16F
100
AcDbEntity
  8
0
370
              15
390
0
  6
Continuous
 62
               7
100
AcDbVertex
100
AcDb2dVertex
 10
-63.355114470716757
 20
151.18706526181165
 30
0.0
  0
VERTEX
  5
170
100
AcDbEntity
  8
0
370
              15
390
0
  6
Continuous
 62
               7
100
AcDbVertex
100
AcDb2dVertex
 10
-61.887391885752521
 20
149.70843939786812
 30
0.0
  0
VERTEX
  5
171
100
AcDbEntity
  8
0
370
              15
390
0
  6
Continuous
 62
               7
100
AcDbVertex
100
AcDb2dVertex
 10
-60.697088516679258
 20
147.99701603223218
 30
0.0
  0
VERTEX
  5
172
100
AcDbEntity
  8
0
370
              15
390
0
  6
Continuous
 62
               7
100
AcDbVertex
100
AcDb2dVertex
 10
-59.820194261435489
 20
146.10454159683002
 30
0.0
  0
VERTEX
  5
173
100
AcDbEntity
  8
0
370
              15
390
0
  6
Continuous
 62
               7
100
AcDbVertex
100
AcDb2dVertex
 10
-59.283222810202375
 20
144.08823676628208
 30
0.0
  0
VERTEX
  5
174
100
AcDbEntity
  8
0
370
              15
390
0
  6
Continuous
 62
               7
100
AcDbVertex
100
AcDb2dVertex
 10
-59.102409980022941
 20
142.00906633910085
 30
0.0
  0
SEQEND
  5
175
100
AcDbEntity
  8
0
370
              15
390
0
  6
Continuous
 62
               7
  0
POLYLINE
  5
176
100
AcDbEntity
  8
0
370
              15
390
0
  6
Continuous
 62
               7
100
AcDb2dPolyline
 66
               1
 10
0.0
 20
0.0
 30
0.0
 75
               5
  0
VERTEX
  5
177
100
AcDbEntity
  8
0
370
              15
390
0
  6
Continuous
 62
               7
100
AcDbVertex
100
AcDb2dVertex
 10
-69.069187223099703
 20
142.00906633910085
 30
0.0
  0
VERTEX
  5
178
100
AcDbEntity
  8
0
370
              15
390
0
  6
Continuous
 62
               7
100
AcDbVertex
100
AcDb2dVertex
 10
-69.099323266836876
 20
142.35559858946874
 30
0.0
  0
VERTEX
  5
179
100
AcDbEntity
  8
0
370
              15
390
0
  6
Continuous
 62
               7
100
AcDbVertex
100
AcDb2dVertex
 10
-69.188820193275347
 20
142.69165296015035
 30
0.0
  0
VERTEX
  5
17A
100
AcDbEntity
  8
0
370
              15
390
0
  6
Continuous
 62
               7
100
AcDbVertex
100
AcDb2dVertex
 10
-69.334971939627422
 20
143.00706838457791
 30
0.0
  0
VERTEX
  5
17B
100
AcDbEntity
  8
0
370
              15
390
0
  6
Continuous
 62
               7
100
AcDbVertex
100
AcDb2dVertex
 10
-69.533359406624442
 20
143.29230784313802
 30
0.0
  0
VERTEX
  5
17C
100
AcDbEntity
  8
0
370
              15
390
0
  6
Continuous
 62
               7
100
AcDbVertex
100
AcDb2dVertex
 10
-69.777984076067042
 20
143.53874672809127
 30
0.0
  0
VERTEX
  5
17D
100
AcDbEntity
  8
0
370
              15
390
0
  6
Continuous
 62
               7
100
AcDbVertex
100
AcDb2dVertex
 10
-70.061449384282213
 20
143.73893362046078
 30
0.0
  0
VERTEX
  5
17E
100
AcDbEntity
  8
0
370
              15
390
0
  6
Continuous
 62
               7
100
AcDbVertex
100
AcDb2dVertex
 10
-70.375184367408366
 20
143.88681559394365
 30
0.0
  0
VERTEX
  5
17F
100
AcDbEntity
  8
0
370
              15
390
0
  6
Continuous
 62
               7
100
AcDbVertex
100
AcDb2dVertex
 10
-70.709702816289081
 20
143.97792123347187
 30
0.0
  0
SEQEND
  5
180
100
AcDbEntity
  8
0
370
              15
390
0
  6
Continuous
 62
               7
  0
POLYLINE
  5
181
100
AcDbEntity
  8
0
370
              15
390
0
  6
Continuous
 62
               7
100
AcDb2dPolyline
 66
               1
 10
0.0
 20
0.0
 30
0.0
 75
               5
  0
VERTEX
  5
182
100
AcDbEntity
  8
0
370
              15
390
0
  6
Continuous
 62
               7
100
AcDbVertex
100
AcDb2dVertex
 10
-75.339967394723232
 20
39.093742398672362
 30
0.0
  0
VERTEX
  5
183
100
AcDbEntity
  8
0
370
              15
390
0
  6
Continuous
 62
               7
100
AcDbVertex
100
AcDb2dVertex
 10
-72.022606757539194
 20
38.161561990202586
 30
0.0
  0
VERTEX
  5
184
100
AcDbEntity
  8
0
370
              15
390
0
  6
Continuous
 62
               7
100
AcDbVertex
100
AcDb2dVertex
 10
-68.914716968777128
 20
36.670105717697652
 30
0.0
  0
VERTEX
  5
185
100
AcDbEntity
  8
0
370
              15
390
0
  6
Continuous
 62
               7
100
AcDbVertex
100
AcDb2dVertex
 10
-66.109122549553689
 20
34.663919470385167
 30
0.0
  0
VERTEX
  5
186
100
AcDbEntity
  8
0
370
              15
390
0
  6
Continuous
 62
               7
100
AcDbVertex
100
AcDb2dVertex
 10
-63.689619250720256
 20
32.202922772551801
 30
0.0
  0
VERTEX
  5
187
100
AcDbEntity
  8
0
370
              15
390
0
  6
Continuous
 62
               7
100
AcDbVertex
100
AcDb2dVertex
 10
-61.728471293442766
 20
29.360619144422799
 30
0.0
  0
VERTEX
  5
188
100
AcDbEntity
  8
0
370
              15
390
0
  6
Continuous
 62
               7
100
AcDbVertex
100
AcDb2dVertex
 10
-60.284253026345624
 20
26.221900744691652
 30
0.0
  0
VERTEX
  5
189
100
AcDbEntity
  8
0
370
              15
390
0
  6
Continuous
 62
               7
100
AcDbVertex
100
AcDb2dVertex
 10
-59.400099463262421
 20
22.880512864272191
 30
0.0
  0
VERTEX
  5
18A
100
AcDbEntity
  8
0
370
              15
390
0
  6
Continuous
 62
               7
100
AcDbVertex
100
AcDb2dVertex
 10
-59.1024179534447
 20
19.436254000198119
 30
0.0
  0
SEQEND
  5
18B
100
AcDbEntity
  8
0
370
              15
390
0
  6
Continuous
 62
               7
  0
POLYLINE
  5
18C
100
AcDbEntity
  8
0
370
              15
390
0
  6
Continuous
 62
               7
100
AcDb2dPolyline
 66
               1
 10
0.0
 20
0.0
 30
0.0
 75
               5
  0
VERTEX
  5
18D
100
AcDbEntity
  8
0
370
              15
390
0
  6
Continuous
 62
               7
100
AcDbVertex
100
AcDb2dVertex
 10
-69.069165296189709
 20
142.00906633910085
 30
0.0
  0
VERTEX
  5
18E
100
AcDbEntity
  8
0
370
              15
390
0
  6
Continuous
 62
               7
100
AcDbVertex
100
AcDb2dVertex
 10
-69.069195196521463
 20
36.760550175990033
 30
0.0
  0
SEQEND
  5
18F
100
AcDbEntity
  8
0
370
              15
390
0
  6
Continuous
 62
               7
  0
POLYLINE
  5
190
100
AcDbEntity
  8
0
370
              15
390
0
  6
Continuous
 62
               7
100
AcDb2dPolyline
 66
               1
 10
0.0
 20
0.0
 30
0.0
 75
               5
  0
VERTEX
  5
191
100
AcDbEntity
  8
0
370
              15
390
0
  6
Continuous
 62
               7
100
AcDbVertex
100
AcDb2dVertex
 10
-59.102407986668283
 20
-232.99220089055677
 30
0.0
  0
VERTEX
  5
192
100
AcDbEntity
  8
0
370
              15
390
0
  6
Continuous
 62
               7
100
AcDbVertex
100
AcDb2dVertex
 10
-59.400034958290945
 20
-236.43614153447135
 30
0.0
  0
VERTEX
  5
193
100
AcDbEntity
  8
0
370
              15
390
0
  6
Continuous
 62
               7
100
AcDbVertex
100
AcDb2dVertex
 10
-60.284026162724246
 20
-239.77723977039017
 30
0.0
  0
VERTEX
  5
194
100
AcDbEntity
  8
0
370
              15
390
0
  6
Continuous
 62
               7
100
AcDbVertex
100
AcDb2dVertex
 10
-61.727984040651421
 20
-242.91572442590484
 30
0.0
  0
VERTEX
  5
195
100
AcDbEntity
  8
0
370
              15
390
0
  6
Continuous
 62
               7
100
AcDbVertex
100
AcDb2dVertex
 10
-63.688789425793829
 20
-245.75787473270623
 30
0.0
  0
VERTEX
  5
196
100
AcDbEntity
  8
0
370
              15
390
0
  6
Continuous
 62
               7
100
AcDbVertex
100
AcDb2dVertex
 10
-66.107889160378903
 20
-248.21881899644478
 30
0.0
  0
VERTEX
  5
197
100
AcDbEntity
  8
0
370
              15
390
0
  6
Continuous
 62
               7
100
AcDbVertex
100
AcDb2dVertex
 10
-68.913044597216384
 20
-250.2250690174065
 30
0.0
  0
VERTEX
  5
198
100
AcDbEntity
  8
0
370
              15
390
0
  6
Continuous
 62
               7
100
AcDbVertex
100
AcDb2dVertex
 10
-72.020488774978247
 20
-251.71671457966784
 30
0.0
  0
VERTEX
  5
199
100
AcDbEntity
  8
0
370
              15
390
0
  6
Continuous
 62
               7
100
AcDbVertex
100
AcDb2dVertex
 10
-75.337427849569934
 20
-252.64921247735572
 30
0.0
  0
SEQEND
  5
19A
100
AcDbEntity
  8
0
370
              15
390
0
  6
Continuous
 62
               7
  0
POLYLINE
  5
19B
100
AcDbEntity
  8
0
370
              15
390
0
  6
Continuous
 62
               7
100
AcDb2dPolyline
 66
               1
 10
0.0
 20
0.0
 30
0.0
 75
               5
  0
VERTEX
  5
19C
100
AcDbEntity
  8
0
370
              15
390
0
  6
Continuous
 62
               7
100
AcDbVertex
100
AcDb2dVertex
 10
-359.10248134372137
 20
-178.37336215612783
 30
0.0
  0
VERTEX
  5
19D
100
AcDbEntity
  8
0
370
              15
390
0
  6
Continuous
 62
               7
100
AcDbVertex
100
AcDb2dVertex
 10
-321.03661533614343
 20
-179.69399348958342
 30
0.0
  0
VERTEX
  5
19E
100
AcDbEntity
  8
0
370
              15
390
0
  6
Continuous
 62
               7
100
AcDbVertex
100
AcDb2dVertex
 10
-283.10108936601944
 20
-183.11752864353372
 30
0.0
  0
VERTEX
  5
19F
100
AcDbEntity
  8
0
370
              15
390
0
  6
Continuous
 62
               7
100
AcDbVertex
100
AcDb2dVertex
 10
-245.41116695082377
 20
-188.63356552933089
 30
0.0
  0
VERTEX
  5
1A0
100
AcDbEntity
  8
0
370
              15
390
0
  6
Continuous
 62
               7
100
AcDbVertex
100
AcDb2dVertex
 10
-208.08136536479572
 20
-196.22534418918565
 30
0.0
  0
VERTEX
  5
1A1
100
AcDbEntity
  8
0
370
              15
390
0
  6
Continuous
 62
               7
100
AcDbVertex
100
AcDb2dVertex
 10
-171.22510768900298
 20
-205.86979771971767
 30
0.0
  0
VERTEX
  5
1A2
100
AcDbEntity
  8
0
370
              15
390
0
  6
Continuous
 62
               7
100
AcDbVertex
100
AcDb2dVertex
 10
-134.95437818600777
 20
-217.53762235856647
 30
0.0
  0
VERTEX
  5
1A3
100
AcDbEntity
  8
0
370
              15
390
0
  6
Continuous
 62
               7
100
AcDbVertex
100
AcDb2dVertex
 10
-99.379382046248026
 20
-231.19336652110883
 30
0.0
  0
VERTEX
  5
1A4
100
AcDbEntity
  8
0
370
              15
390
0
  6
Continuous
 62
               7
100
AcDbVertex
100
AcDb2dVertex
 10
-64.608210539960993
 20
-246.79553851675513
 30
0.0
  0
SEQEND
  5
1A5
100
AcDbEntity
  8
0
370
              15
390
0
  6
Continuous
 62
               7
  0
POLYLINE
  5
1A6
100
AcDbEntity
  8
0
370
              15
390
0
  6
Continuous
 62
               7
100
AcDb2dPolyline
 66
               1
 10
0.0
 20
0.0
 30
0.0
 75
               5
  0
VERTEX
  5
1A7
100
AcDbEntity
  8
0
370
              15
390
0
  6
Continuous
 62
               7
100
AcDbVertex
100
AcDb2dVertex
 10
-59.1024179534447
 20
-232.99219495513989
 30
0.0
  0
VERTEX
  5
1A8
100
AcDbEntity
  8
0
370
              15
390
0
  6
Continuous
 62
               7
100
AcDbVertex
100
AcDb2dVertex
 10
-59.1024179534447
 20
142.00906633910085
 30
0.0
  0
SEQEND
  5
1A9
100
AcDbEntity
  8
0
370
              15
390
0
  6
Continuous
 62
               7
  0
POLYLINE
  5
1AA
100
AcDbEntity
  8
0
370
              15
390
0
  6
Continuous
 62
               7
100
AcDb2dPolyline
 66
               1
 10
0.0
 20
0.0
 30
0.0
 75
               5
  0
VERTEX
  5
1AB
100
AcDbEntity
  8
0
370
              15
390
0
  6
Continuous
 62
               7
100
AcDbVertex
100
AcDb2dVertex
 10
-659.10240100992439
 20
142.00906633910085
 30
0.0
  0
VERTEX
  5
1AC
100
AcDbEntity
  8
0
370
              15
390
0
  6
Continuous
 62
               7
100
AcDbVertex
100
AcDb2dVertex
 10
-658.92158827016124
 20
144.08823494101352
 30
0.0
  0
VERTEX
  5
1AD
100
AcDbEntity
  8
0
370
              15
390
0
  6
Continuous
 62
               7
100
AcDbVertex
100
AcDb2dVertex
 10
-658.38461709154319
 20
146.10453795433602
 30
0.0
  0
VERTEX
  5
1AE
100
AcDbEntity
  8
0
370
              15
390
0
  6
Continuous
 62
               7
100
AcDbVertex
100
AcDb2dVertex
 10
-657.50772329504662
 20
147.99701058978076
 30
0.0
  0
VERTEX
  5
1AF
100
AcDbEntity
  8
0
370
              15
390
0
  6
Continuous
 62
               7
100
AcDbVertex
100
AcDb2dVertex
 10
-656.31742057686552
 20
149.7084321842384
 30
0.0
  0
VERTEX
  5
1B0
100
AcDbEntity
  8
0
370
              15
390
0
  6
Continuous
 62
               7
100
AcDbVertex
100
AcDb2dVertex
 10
-654.84969884224915
 20
151.187056320529
 30
0.0
  0
VERTEX
  5
1B1
100
AcDbEntity
  8
0
370
              15
390
0
  6
Continuous
 62
               7
100
AcDbVertex
100
AcDb2dVertex
 10
-653.14893601737776
 20
152.38817542825848
 30
0.0
  0
VERTEX
  5
1B2
100
AcDbEntity
  8
0
370
              15
390
0
  6
Continuous
 62
               7
100
AcDbVertex
100
AcDb2dVertex
 10
-651.26655624165983
 20
153.27547255862089
 30
0.0
  0
VERTEX
  5
1B3
100
AcDbEntity
  8
0
370
              15
390
0
  6
Continuous
 62
               7
100
AcDbVertex
100
AcDb2dVertex
 10
-649.2594750112421
 20
153.82211946098607
 30
0.0
  0
SEQEND
  5
1B4
100
AcDbEntity
  8
0
370
              15
390
0
  6
Continuous
 62
               7
  0
POLYLINE
  5
1B5
100
AcDbEntity
  8
0
370
              15
390
0
  6
Continuous
 62
               7
100
AcDb2dPolyline
 66
               1
 10
0.0
 20
0.0
 30
0.0
 75
               5
  0
VERTEX
  5
1B6
100
AcDbEntity
  8
0
370
              15
390
0
  6
Continuous
 62
               7
100
AcDbVertex
100
AcDb2dVertex
 10
-647.49514010752932
 20
143.97791816800304
 30
0.0
  0
VERTEX
  5
1B7
100
AcDbEntity
  8
0
370
              15
390
0
  6
Continuous
 62
               7
100
AcDbVertex
100
AcDb2dVertex
 10
-647.82965428030616
 20
143.88681090906107
 30
0.0
  0
VERTEX
  5
1B8
100
AcDbEntity
  8
0
370
              15
390
0
  6
Continuous
 62
               7
100
AcDbVertex
100
AcDb2dVertex
 10
-648.14338504731336
 20
143.73892867130485
 30
0.0
  0
VERTEX
  5
1B9
100
AcDbEntity
  8
0
370
              15
390
0
  6
Continuous
 62
               7
100
AcDbVertex
100
AcDb2dVertex
 10
-648.42684652962157
 20
143.5387427822244
 30
0.0
  0
VERTEX
  5
1BA
100
AcDbEntity
  8
0
370
              15
390
0
  6
Continuous
 62
               7
100
AcDbVertex
100
AcDb2dVertex
 10
-648.67146806223718
 20
143.29230600841743
 30
0.0
  0
VERTEX
  5
1BB
100
AcDbEntity
  8
0
370
              15
390
0
  6
Continuous
 62
               7
100
AcDbVertex
100
AcDb2dVertex
 10
-648.8698533344193
 20
143.00706954576845
 30
0.0
  0
VERTEX
  5
1BC
100
AcDbEntity
  8
0
370
              15
390
0
  6
Continuous
 62
               7
100
AcDbVertex
100
AcDb2dVertex
 10
-649.0160040225378
 20
142.69165772709823
 30
0.0
  0
VERTEX
  5
1BD
100
AcDbEntity
  8
0
370
              15
390
0
  6
Continuous
 62
               7
100
AcDbVertex
100
AcDb2dVertex
 10
-649.10550115377032
 20
142.35560725916105
 30
0.0
  0
VERTEX
  5
1BE
100
AcDbEntity
  8
0
370
              15
390
0
  6
Continuous
 62
               7
100
AcDbVertex
100
AcDb2dVertex
 10
-649.13563871697431
 20
142.00907887334859
 30
0.0
  0
SEQEND
  5
1BF
100
AcDbEntity
  8
0
370
              15
390
0
  6
Continuous
 62
               7
  0
POLYLINE
  5
1C0
100
AcDbEntity
  8
0
370
              15
390
0
  6
Continuous
 62
               7
100
AcDb2dPolyline
 66
               1
 10
0.0
 20
0.0
 30
0.0
 75
               5
  0
VERTEX
  5
1C1
100
AcDbEntity
  8
0
370
              15
390
0
  6
Continuous
 62
               7
100
AcDbVertex
100
AcDb2dVertex
 10
-659.10240399995689
 20
19.436248763069216
 30
0.0
  0
VERTEX
  5
1C2
100
AcDbEntity
  8
0
370
              15
390
0
  6
Continuous
 62
               7
100
AcDbVertex
100
AcDb2dVertex
 10
-658.80472310375876
 20
22.880508994086767
 30
0.0
  0
VERTEX
  5
1C3
100
AcDbEntity
  8
0
370
              15
390
0
  6
Continuous
 62
               7
100
AcDbVertex
100
AcDb2dVertex
 10
-657.92056957646787
 20
26.221898238016252
 30
0.0
  0
VERTEX
  5
1C4
100
AcDbEntity
  8
0
370
              15
390
0
  6
Continuous
 62
               7
100
AcDbVertex
100
AcDb2dVertex
 10
-656.47635079682073
 20
29.360617841627914
 30
0.0
  0
VERTEX
  5
1C5
100
AcDbEntity
  8
0
370
              15
390
0
  6
Continuous
 62
               7
100
AcDbVertex
100
AcDb2dVertex
 10
-654.51520184386868
 20
32.202922369584144
 30
0.0
  0
VERTEX
  5
1C6
100
AcDbEntity
  8
0
370
              15
390
0
  6
Continuous
 62
               7
100
AcDbVertex
100
AcDb2dVertex
 10
-652.09569716374767
 20
34.663919538092046
 30
0.0
  0
VERTEX
  5
1C7
100
AcDbEntity
  8
0
370
              15
390
0
  6
Continuous
 62
               7
100
AcDbVertex
100
AcDb2dVertex
 10
-649.29010110249123
 20
36.670105727821692
 30
0.0
  0
VERTEX
  5
1C8
100
AcDbEntity
  8
0
370
              15
390
0
  6
Continuous
 62
               7
100
AcDbVertex
100
AcDb2dVertex
 10
-646.18220955694983
 20
38.161561346877193
 30
0.0
  0
VERTEX
  5
1C9
100
AcDbEntity
  8
0
370
              15
390
0
  6
Continuous
 62
               7
100
AcDbVertex
100
AcDb2dVertex
 10
-642.86484720811222
 20
39.093740474005926
 30
0.0
  0
SEQEND
  5
1CA
100
AcDbEntity
  8
0
370
              15
390
0
  6
Continuous
 62
               7
  0
POLYLINE
  5
1CB
100
AcDbEntity
  8
0
370
              15
390
0
  6
Continuous
 62
               7
100
AcDb2dPolyline
 66
               1
 10
0.0
 20
0.0
 30
0.0
 75
               5
  0
VERTEX
  5
1CC
100
AcDbEntity
  8
0
370
              15
390
0
  6
Continuous
 62
               7
100
AcDbVertex
100
AcDb2dVertex
 10
-649.13563074359172
 20
36.76053517271805
 30
0.0
  0
VERTEX
  5
1CD
100
AcDbEntity
  8
0
370
              15
390
0
  6
Continuous
 62
               7
100
AcDbVertex
100
AcDb2dVertex
 10
-649.13563074359172
 20
142.00908334280916
 30
0.0
  0
SEQEND
  5
1CE
100
AcDbEntity
  8
0
370
              15
390
0
  6
Continuous
 62
               7
  0
POLYLINE
  5
1CF
100
AcDbEntity
  8
0
370
              15
390
0
  6
Continuous
 62
               7
100
AcDb2dPolyline
 66
               1
 10
0.0
 20
0.0
 30
0.0
 75
               5
  0
VERTEX
  5
1D0
100
AcDbEntity
  8
0
370
              15
390
0
  6
Continuous
 62
               7
100
AcDbVertex
100
AcDb2dVertex
 10
-642.86738598531736
 20
-252.64920459228068
 30
0.0
  0
VERTEX
  5
1D1
100
AcDbEntity
  8
0
370
              15
390
0
  6
Continuous
 62
               7
100
AcDbVertex
100
AcDb2dVertex
 10
-646.18432641173547
 20
-251.71670795145059
 30
0.0
  0
VERTEX
  5
1D2
100
AcDbEntity
  8
0
370
              15
390
0
  6
Continuous
 62
               7
100
AcDbVertex
100
AcDb2dVertex
 10
-649.29177193570354
 20
-250.22506297190921
 30
0.0
  0
VERTEX
  5
1D3
100
AcDbEntity
  8
0
370
              15
390
0
  6
Continuous
 62
               7
100
AcDbVertex
100
AcDb2dVertex
 10
-652.09692852820183
 20
-248.2188129115998
 30
0.0
  0
VERTEX
  5
1D4
100
AcDbEntity
  8
0
370
              15
390
0
  6
Continuous
 62
               7
100
AcDbVertex
100
AcDb2dVertex
 10
-654.51602906274593
 20
-245.75786808105926
 30
0.0
  0
VERTEX
  5
1D5
100
AcDbEntity
  8
0
370
              15
390
0
  6
Continuous
 62
               7
100
AcDbVertex
100
AcDb2dVertex
 10
-656.47683475559131
 20
-242.91571681154244
 30
0.0
  0
VERTEX
  5
1D6
100
AcDbEntity
  8
0
370
              15
390
0
  6
Continuous
 62
               7
100
AcDbVertex
100
AcDb2dVertex
 10
-657.92079234845517
 20
-239.7772309585165
 30
0.0
  0
VERTEX
  5
1D7
100
AcDbEntity
  8
0
370
              15
390
0
  6
Continuous
 62
               7
100
AcDbVertex
100
AcDb2dVertex
 10
-658.80478261632038
 20
-236.43613147222095
 30
0.0
  0
VERTEX
  5
1D8
100
AcDbEntity
  8
0
370
              15
390
0
  6
Continuous
 62
               7
100
AcDbVertex
100
AcDb2dVertex
 10
-659.10240798666769
 20
-232.99218971801002
 30
0.0
  0
SEQEND
  5
1D9
100
AcDbEntity
  8
0
370
              15
390
0
  6
Continuous
 62
               7
  0
POLYLINE
  5
1DA
100
AcDbEntity
  8
0
370
              15
390
0
  6
Continuous
 62
               7
100
AcDb2dPolyline
 66
               1
 10
0.0
 20
0.0
 30
0.0
 75
               5
  0
VERTEX
  5
1DB
100
AcDbEntity
  8
0
370
              15
390
0
  6
Continuous
 62
               7
100
AcDbVertex
100
AcDb2dVertex
 10
-659.10240798666837
 20
142.00906633910085
 30
0.0
  0
VERTEX
  5
1DC
100
AcDbEntity
  8
0
370
              15
390
0
  6
Continuous
 62
               7
100
AcDbVertex
100
AcDb2dVertex
 10
-659.10240798666837
 20
-232.99219495513989
 30
0.0
  0
SEQEND
  5
1DD
100
AcDbEntity
  8
0
370
              15
390
0
  6
Continuous
 62
               7
  0
POLYLINE
  5
1DE
100
AcDbEntity
  8
0
370
              15
390
0
  6
Continuous
 62
               7
100
AcDb2dPolyline
 66
               1
 10
0.0
 20
0.0
 30
0.0
 75
               5
  0
VERTEX
  5
1DF
100
AcDbEntity
  8
0
370
              15
390
0
  6
Continuous
 62
               7
100
AcDbVertex
100
AcDb2dVertex
 10
-75.337441277118415
 20
-252.6490289538645
 30
0.0
  0
VERTEX
  5
1E0
100
AcDbEntity
  8
0
370
              15
390
0
  6
Continuous
 62
               7
100
AcDbVertex
100
AcDb2dVertex
 10
-145.73652063173412
 20
-264.28947554119048
 30
0.0
  0
VERTEX
  5
1E1
100
AcDbEntity
  8
0
370
              15
390
0
  6
Continuous
 62
               7
100
AcDbVertex
100
AcDb2dVertex
 10
-216.59997251529785
 20
-272.62222366359276
 30
0.0
  0
VERTEX
  5
1E2
100
AcDbEntity
  8
0
370
              15
390
0
  6
Continuous
 62
               7
100
AcDbVertex
100
AcDb2dVertex
 10
-287.77356870943538
 20
-277.6291378102697
 30
0.0
  0
VERTEX
  5
1E3
100
AcDbEntity
  8
0
370
              15
390
0
  6
Continuous
 62
               7
100
AcDbVertex
100
AcDb2dVertex
 10
-359.10240599331189
 20
-279.29932086249664
 30
0.0
  0
VERTEX
  5
1E4
100
AcDbEntity
  8
0
370
              15
390
0
  6
Continuous
 62
               7
100
AcDbVertex
100
AcDb2dVertex
 10
-430.43124327718868
 20
-277.6291378102697
 30
0.0
  0
VERTEX
  5
1E5
100
AcDbEntity
  8
0
370
              15
390
0
  6
Continuous
 62
               7
100
AcDbVertex
100
AcDb2dVertex
 10
-501.60483947132718
 20
-272.62222366359276
 30
0.0
  0
VERTEX
  5
1E6
100
AcDbEntity
  8
0
370
              15
390
0
  6
Continuous
 62
               7
100
AcDbVertex
100
AcDb2dVertex
 10
-572.46829135489236
 20
-264.28947554119048
 30
0.0
  0
VERTEX
  5
1E7
100
AcDbEntity
  8
0
370
              15
390
0
  6
Continuous
 62
               7
100
AcDbVertex
100
AcDb2dVertex
 10
-642.86737070950733
 20
-252.64902895386427
 30
0.0
  0
SEQEND
  5
1E8
100
AcDbEntity
  8
0
370
              15
390
0
  6
Continuous
 62
               7
  0
POLYLINE
  5
1E9
100
AcDbEntity
  8
0
370
              15
390
0
  6
Continuous
 62
               7
100
AcDb2dPolyline
 66
               1
 10
0.0
 20
0.0
 30
0.0
 75
               5
  0
VERTEX
  5
1EA
100
AcDbEntity
  8
0
370
              15
390
0
  6
Continuous
 62
               7
100
AcDbVertex
100
AcDb2dVertex
 10
-649.25940408006034
 20
153.82217996126099
 30
0.0
  0
VERTEX
  5
1EB
100
AcDbEntity
  8
0
370
              15
390
0
  6
Continuous
 62
               7
100
AcDbVertex
100
AcDb2dVertex
 10
-577.22407507536889
 20
165.17088797866359
 30
0.0
  0
VERTEX
  5
1EC
100
AcDbEntity
  8
0
370
              15
390
0
  6
Continuous
 62
               7
100
AcDbVertex
100
AcDb2dVertex
 10
-504.75707492906747
 20
173.29318724178222
 30
0.0
  0
VERTEX
  5
1ED
100
AcDbEntity
  8
0
370
              15
390
0
  6
Continuous
 62
               7
100
AcDbVertex
100
AcDb2dVertex
 10
-432.00181861140692
 20
178.17300340912607
 30
0.0
  0
VERTEX
  5
1EE
100
AcDbEntity
  8
0
370
              15
390
0
  6
Continuous
 62
               7
100
AcDbVertex
100
AcDb2dVertex
 10
-359.10229156264472
 20
179.80067913750338
 30
0.0
  0
VERTEX
  5
1EF
100
AcDbEntity
  8
0
370
              15
390
0
  6
Continuous
 62
               7
100
AcDbVertex
100
AcDb2dVertex
 10
-286.20276474034591
 20
178.17299319427491
 30
0.0
  0
VERTEX
  5
1F0
100
AcDbEntity
  8
0
370
              15
390
0
  6
Continuous
 62
               7
100
AcDbVertex
100
AcDb2dVertex
 10
-213.44750910162549
 20
173.29316683229581
 30
0.0
  0
VERTEX
  5
1F1
100
AcDbEntity
  8
0
370
              15
390
0
  6
Continuous
 62
               7
100
AcDbVertex
100
AcDb2dVertex
 10
-140.98051008539812
 20
165.17085741493281
 30
0.0
  0
VERTEX
  5
1F2
100
AcDbEntity
  8
0
370
              15
390
0
  6
Continuous
 62
               7
100
AcDbVertex
100
AcDb2dVertex
 10
-68.945182659677215
 20
153.82213930377293
 30
0.0
  0
SEQEND
  5
1F3
100
AcDbEntity
  8
0
370
              15
390
0
  6
Continuous
 62
               7
  0
POLYLINE
  5
1F4
100
AcDbEntity
  8
0
370
              15
390
0
  6
Continuous
 62
               7
100
AcDb2dPolyline
 66
               1
 10
0.0
 20
0.0
 30
0.0
 75
               5
  0
VERTEX
  5
1F5
100
AcDbEntity
  8
0
370
              15
390
0
  6
Continuous
 62
               7
100
AcDbVertex
100
AcDb2dVertex
 10
-653.5966884050822
 20
-246.79558045900382
 30
0.0
  0
VERTEX
  5
1F6
100
AcDbEntity
  8
0
370
              15
390
0
  6
Continuous
 62
               7
100
AcDbVertex
100
AcDb2dVertex
 10
-618.82552881806191
 20
-231.19340764567551
 30
0.0
  0
VERTEX
  5
1F7
100
AcDbEntity
  8
0
370
              15
390
0
  6
Continuous
 62
               7
100
AcDbVertex
100
AcDb2dVertex
 10
-583.25054474237368
 20
-217.53766146238161
 30
0.0
  0
VERTEX
  5
1F8
100
AcDbEntity
  8
0
370
              15
390
0
  6
Continuous
 62
               7
100
AcDbVertex
100
AcDb2dVertex
 10
-546.97982735172707
 20
-205.86983358286938
 30
0.0
  0
VERTEX
  5
1F9
100
AcDbEntity
  8
0
370
              15
390
0
  6
Continuous
 62
               7
100
AcDbVertex
100
AcDb2dVertex
 10
-510.12358173871598
 20
-196.225375581972
 30
0.0
  0
VERTEX
  5
1FA
100
AcDbEntity
  8
0
370
              15
390
0
  6
Continuous
 62
               7
100
AcDbVertex
100
AcDb2dVertex
 10
-472.79379206722365
 20
-188.63359121940158
 30
0.0
  0
VERTEX
  5
1FB
100
AcDbEntity
  8
0
370
              15
390
0
  6
Continuous
 62
               7
100
AcDbVertex
100
AcDb2dVertex
 10
-435.1038813192921
 20
-183.11754740308885
 30
0.0
  0
VERTEX
  5
1FC
100
AcDbEntity
  8
0
370
              15
390
0
  6
Continuous
 62
               7
100
AcDbVertex
100
AcDb2dVertex
 10
-397.16836667027974
 20
-179.6940041025976
 30
0.0
  0
VERTEX
  5
1FD
100
AcDbEntity
  8
0
370
              15
390
0
  6
Continuous
 62
               7
100
AcDbVertex
100
AcDb2dVertex
 10
-359.10251153941965
 20
-178.37336342556631
 30
0.0
  0
SEQEND
  5
1FE
100
AcDbEntity
  8
0
370
              15
390
0
  6
Continuous
 62
               7
  0
POLYLINE
  5
1FF
100
AcDbEntity
  8
0
370
              15
390
0
  6
Continuous
 62
               7
100
AcDb2dPolyline
 66
               1
 10
0.0
 20
0.0
 30
0.0
 75
               5
  0
VERTEX
  5
200
100
AcDbEntity
  8
0
370
              15
390
0
  6
Continuous
 62
               7
100
AcDbVertex
100
AcDb2dVertex
 10
-642.8651264618336
 20
39.093709195402653
 30
0.0
  0
VERTEX
  5
201
100
AcDbEntity
  8
0
370
              15
390
0
  6
Continuous
 62
               7
100
AcDbVertex
100
AcDb2dVertex
 10
-572.465897048589
 20
50.725937887680061
 30
0.0
  0
VERTEX
  5
202
100
AcDbEntity
  8
0
370
              15
390
0
  6
Continuous
 62
               7
100
AcDbVertex
100
AcDb2dVertex
 10
-501.60294674682859
 20
59.052780659996301
 30
0.0
  0
VERTEX
  5
203
100
AcDbEntity
  8
0
370
              15
390
0
  6
Continuous
 62
               7
100
AcDbVertex
100
AcDb2dVertex
 10
-430.43028798911439
 20
64.05614008195289
 30
0.0
  0
VERTEX
  5
204
100
AcDbEntity
  8
0
370
              15
390
0
  6
Continuous
 62
               7
100
AcDbVertex
100
AcDb2dVertex
 10
-359.10260632354016
 20
65.725141930104996
 30
0.0
  0
VERTEX
  5
205
100
AcDbEntity
  8
0
370
              15
390
0
  6
Continuous
 62
               7
100
AcDbVertex
100
AcDb2dVertex
 10
-287.77492422256978
 20
64.056158821828944
 30
0.0
  0
VERTEX
  5
206
100
AcDbEntity
  8
0
370
              15
390
0
  6
Continuous
 62
               7
100
AcDbVertex
100
AcDb2dVertex
 10
-216.6022641596187
 20
59.052818099019305
 30
0.0
  0
VERTEX
  5
207
100
AcDbEntity
  8
0
370
              15
390
0
  6
Continuous
 62
               7
100
AcDbVertex
100
AcDb2dVertex
 10
-145.73931168561583
 20
50.725993944480251
 30
0.0
  0
VERTEX
  5
208
100
AcDbEntity
  8
0
370
              15
390
0
  6
Continuous
 62
               7
100
AcDbVertex
100
AcDb2dVertex
 10
-75.340079237841536
 20
39.093783748146961
 30
0.0
  0
SEQEND
  5
209
100
AcDbEntity
  8
0
370
              15
390
0
  6
Continuous
 62
               7
  0
POLYLINE
  5
20A
100
AcDbEntity
  8
0
370
              15
390
0
  6
Continuous
 62
               7
100
AcDb2dPolyline
 66
               1
 10
0.0
 20
0.0
 30
0.0
 75
               5
  0
VERTEX
  5
20B
100
AcDbEntity
  8
0
370
              15
390
0
  6
Continuous
 62
               7
100
AcDbVertex
100
AcDb2dVertex
 10
-65.823700004615404
 20
34.41538611952376
 30
0.0
  0
VERTEX
  5
20C
100
AcDbEntity
  8
0
370
              15
390
0
  6
Continuous
 62
               7
100
AcDbVertex
100
AcDb2dVertex
 10
-138.48425025789928
 20
21.325390451979729
 30
0.0
  0
VERTEX
  5
20D
100
AcDbEntity
  8
0
370
              15
390
0
  6
Continuous
 62
               7
100
AcDbVertex
100
AcDb2dVertex
 10
-211.71277884277049
 20
11.950081383979409
 30
0.0
  0
VERTEX
  5
20E
100
AcDbEntity
  8
0
370
              15
390
0
  6
Continuous
 62
               7
100
AcDbVertex
100
AcDb2dVertex
 10
-285.32084291024194
 20
6.3135848946332089
 30
0.0
  0
VERTEX
  5
20F
100
AcDbEntity
  8
0
370
              15
390
0
  6
Continuous
 62
               7
100
AcDbVertex
100
AcDb2dVertex
 10
-359.11902293257913
 20
4.4304056787267427
 30
0.0
  0
VERTEX
  5
210
100
AcDbEntity
  8
0
370
              15
390
0
  6
Continuous
 62
               7
100
AcDbVertex
100
AcDb2dVertex
 10
-432.91741014659675
 20
6.3053898210233683
 30
0.0
  0
VERTEX
  5
211
100
AcDbEntity
  8
0
370
              15
390
0
  6
Continuous
 62
               7
100
AcDbVertex
100
AcDb2dVertex
 10
-506.5260952559322
 20
11.933712325576494
 30
0.0
  0
VERTEX
  5
212
100
AcDbEntity
  8
0
370
              15
390
0
  6
Continuous
 62
               7
100
AcDbVertex
100
AcDb2dVertex
 10
-579.75565713469086
 20
21.300889532148176
 30
0.0
  0
VERTEX
  5
213
100
AcDbEntity
  8
0
370
              15
390
0
  6
Continuous
 62
               7
100
AcDbVertex
100
AcDb2dVertex
 10
-652.41765027485485
 20
34.382816387777666
 30
0.0
  0
SEQEND
  5
214
100
AcDbEntity
  8
0
370
              15
390
0
  6
Continuous
 62
               7
  0
POLYLINE
  5
215
100
AcDbEntity
  8
0
370
              15
390
0
  6
Continuous
 62
               7
100
AcDb2dPolyline
 66
               1
 10
0.0
 20
0.0
 30
0.0
 75
               5
  0
VERTEX
  5
216
100
AcDbEntity
  8
0
370
              15
390
0
  6
Continuous
 62
               7
100
AcDbVertex
100
AcDb2dVertex
 10
-70.709728211939563
 20
143.97808477395347
 30
0.0
  0
VERTEX
  5
217
100
AcDbEntity
  8
0
370
              15
390
0
  6
Continuous
 62
               7
100
AcDbVertex
100
AcDb2dVertex
 10
-142.30704126490349
 20
155.25778616347213
 30
0.0
  0
VERTEX
  5
218
100
AcDbEntity
  8
0
370
              15
390
0
  6
Continuous
 62
               7
100
AcDbVertex
100
AcDb2dVertex
 10
-214.33340065233654
 20
163.33069720707272
 30
0.0
  0
VERTEX
  5
219
100
AcDbEntity
  8
0
370
              15
390
0
  6
Continuous
 62
               7
100
AcDbVertex
100
AcDb2dVertex
 10
-286.64626344893605
 20
168.18084130444288
 30
0.0
  0
VERTEX
  5
21A
100
AcDbEntity
  8
0
370
              15
390
0
  6
Continuous
 62
               7
100
AcDbVertex
100
AcDb2dVertex
 10
-359.10251972817503
 20
169.79861983455487
 30
0.0
  0
VERTEX
  5
21B
100
AcDbEntity
  8
0
370
              15
390
0
  6
Continuous
 62
               7
100
AcDbVertex
100
AcDb2dVertex
 10
-431.55877578232821
 20
168.18083115170418
 30
0.0
  0
VERTEX
  5
21C
100
AcDbEntity
  8
0
370
              15
390
0
  6
Continuous
 62
               7
100
AcDbVertex
100
AcDb2dVertex
 10
-503.8716379041166
 20
163.33067692168754
 30
0.0
  0
VERTEX
  5
21D
100
AcDbEntity
  8
0
370
              15
390
0
  6
Continuous
 62
               7
100
AcDbVertex
100
AcDb2dVertex
 10
-575.89799616834841
 20
155.25775578558648
 30
0.0
  0
VERTEX
  5
21E
100
AcDbEntity
  8
0
370
              15
390
0
  6
Continuous
 62
               7
100
AcDbVertex
100
AcDb2dVertex
 10
-647.49530765194288
 20
143.97804436368608
 30
0.0
  0
SEQEND
  5
21F
100
AcDbEntity
  8
0
370
              15
390
0
  6
Continuous
 62
               7
  0
ENDBLK
  5
220
100
AcDbEntity
  8
GAR70-0102
390
0
100
AcDbBlockEnd
  0
BLOCK
  5
221
100
AcDbEntity
  8
GAR70-0102
390
0
100
AcDbBlockBegin
  2
グループ-2
 70
               0
 10
0.0
 20
0.0
 30
0.0
  3
グループ-2
  1

  0
POLYLINE
  5
222
100
AcDbEntity
  8
0
370
              15
390
0
  6
Continuous
 62
               7
100
AcDb2dPolyline
 66
               1
 10
0.0
 20
0.0
 30
0.0
 75
               5
  0
VERTEX
  5
223
100
AcDbEntity
  8
0
370
              15
390
0
  6
Continuous
 62
               7
100
AcDbVertex
100
AcDb2dVertex
 10
9.897587013332398
 20
201.00063413750729
 30
0.0
  0
VERTEX
  5
224
100
AcDbEntity
  8
0
370
              15
390
0
  6
Continuous
 62
               7
100
AcDbVertex
100
AcDb2dVertex
 10
-728.10241298666824
 20
201.00064913750725
 30
0.0
  0
SEQEND
  5
225
100
AcDbEntity
  8
0
370
              15
390
0
  6
Continuous
 62
               7
  0
POLYLINE
  5
226
100
AcDbEntity
  8
0
370
              15
390
0
  6
Continuous
 62
               7
100
AcDb2dPolyline
 66
               1
 10
0.0
 20
0.0
 30
0.0
 75
               5
  0
VERTEX
  5
227
100
AcDbEntity
  8
0
370
              15
390
0
  6
Continuous
 62
               7
100
AcDbVertex
100
AcDb2dVertex
 10
9.897587013332398
 20
201.00065013750725
 30
0.0
  0
VERTEX
  5
228
100
AcDbEntity
  8
0
370
              15
390
0
  6
Continuous
 62
               7
100
AcDbVertex
100
AcDb2dVertex
 10
11.068127893483179
 20
200.88536173530406
 30
0.0
  0
VERTEX
  5
229
100
AcDbEntity
  8
0
370
              15
390
0
  6
Continuous
 62
               7
100
AcDbVertex
100
AcDb2dVertex
 10
12.193685398580172
 20
200.54392701166478
 30
0.0
  0
VERTEX
  5
22A
100
AcDbEntity
  8
0
370
              15
390
0
  6
Continuous
 62
               7
100
AcDbVertex
100
AcDb2dVertex
 10
13.231004845036423
 20
199.98946715397403
 30
0.0
  0
VERTEX
  5
22B
100
AcDbEntity
  8
0
370
              15
390
0
  6
Continuous
 62
               7
100
AcDbVertex
100
AcDb2dVertex
 10
14.140222499340567
 20
199.24328981252734
 30
0.0
  0
VERTEX
  5
22C
100
AcDbEntity
  8
0
370
              15
390
0
  6
Continuous
 62
               7
100
AcDbVertex
100
AcDb2dVertex
 10
14.886397523933923
 20
198.33407025683141
 30
0.0
  0
VERTEX
  5
22D
100
AcDbEntity
  8
0
370
              15
390
0
  6
Continuous
 62
               7
100
AcDbVertex
100
AcDb2dVertex
 10
15.440854738345493
 20
197.29674939751465
 30
0.0
  0
VERTEX
  5
22E
100
AcDbEntity
  8
0
370
              15
390
0
  6
Continuous
 62
               7
100
AcDbVertex
100
AcDb2dVertex
 10
15.782286593859752
 20
196.17119102238394
 30
0.0
  0
VERTEX
  5
22F
100
AcDbEntity
  8
0
370
              15
390
0
  6
Continuous
 62
               7
100
AcDbVertex
100
AcDb2dVertex
 10
15.897572013312939
 20
195.00064984846119
 30
0.0
  0
SEQEND
  5
230
100
AcDbEntity
  8
0
370
              15
390
0
  6
Continuous
 62
               7
  0
POLYLINE
  5
231
100
AcDbEntity
  8
0
370
              15
390
0
  6
Continuous
 62
               7
100
AcDb2dPolyline
 66
               1
 10
0.0
 20
0.0
 30
0.0
 75
               5
  0
VERTEX
  5
232
100
AcDbEntity
  8
0
370
              15
390
0
  6
Continuous
 62
               7
100
AcDbVertex
100
AcDb2dVertex
 10
15.897583013315696
 20
-267.92016303162501
 30
0.0
  0
VERTEX
  5
233
100
AcDbEntity
  8
0
370
              15
390
0
  6
Continuous
 62
               7
100
AcDbVertex
100
AcDb2dVertex
 10
15.617516937696351
 20
-271.25548551769305
 30
0.0
  0
VERTEX
  5
234
100
AcDbEntity
  8
0
370
              15
390
0
  6
Continuous
 62
               7
100
AcDbVertex
100
AcDb2dVertex
 10
14.785153918294625
 20
-274.49739620380342
 30
0.0
  0
VERTEX
  5
235
100
AcDbEntity
  8
0
370
              15
390
0
  6
Continuous
 62
               7
100
AcDbVertex
100
AcDb2dVertex
 10
13.423805982764591
 20
-277.5550987549376
 30
0.0
  0
VERTEX
  5
236
100
AcDbEntity
  8
0
370
              15
390
0
  6
Continuous
 62
               7
100
AcDbVertex
100
AcDb2dVertex
 10
11.571600462547124
 20
-280.3429559614064
 30
0.0
  0
VERTEX
  5
237
100
AcDbEntity
  8
0
370
              15
390
0
  6
Continuous
 62
               7
100
AcDbVertex
100
AcDb2dVertex
 10
9.2804121590232427
 20
-282.78288818394446
 30
0.0
  0
VERTEX
  5
238
100
AcDbEntity
  8
0
370
              15
390
0
  6
Continuous
 62
               7
100
AcDbVertex
100
AcDb2dVertex
 10
6.6144104836725575
 20
-284.8065601335972
 30
0.0
  0
VERTEX
  5
239
100
AcDbEntity
  8
0
370
              15
390
0
  6
Continuous
 62
               7
100
AcDbVertex
100
AcDb2dVertex
 10
3.648262262546794
 20
-286.35729474116124
 30
0.0
  0
VERTEX
  5
23A
100
AcDbEntity
  8
0
370
              15
390
0
  6
Continuous
 62
               7
100
AcDbVertex
100
AcDb2dVertex
 10
0.4650405391921169
 20
-287.3916605143512
 30
0.0
  0
SEQEND
  5
23B
100
AcDbEntity
  8
0
370
              15
390
0
  6
Continuous
 62
               7
  0
POLYLINE
  5
23C
100
AcDbEntity
  8
0
370
              15
390
0
  6
Continuous
 62
               7
100
AcDb2dPolyline
 66
               1
 10
0.0
 20
0.0
 30
0.0
 75
               5
  0
VERTEX
  5
23D
100
AcDbEntity
  8
0
370
              15
390
0
  6
Continuous
 62
               7
100
AcDbVertex
100
AcDb2dVertex
 10
15.897587013332398
 20
-267.92015786249272
 30
0.0
  0
VERTEX
  5
23E
100
AcDbEntity
  8
0
370
              15
390
0
  6
Continuous
 62
               7
100
AcDbVertex
100
AcDb2dVertex
 10
15.897587013332398
 20
195.00064913750725
 30
0.0
  0
SEQEND
  5
23F
100
AcDbEntity
  8
0
370
              15
390
0
  6
Continuous
 62
               7
  0
POLYLINE
  5
240
100
AcDbEntity
  8
0
370
              15
390
0
  6
Continuous
 62
               7
100
AcDb2dPolyline
 66
               1
 10
0.0
 20
0.0
 30
0.0
 75
               5
  0
VERTEX
  5
241
100
AcDbEntity
  8
0
370
              15
390
0
  6
Continuous
 62
               7
100
AcDbVertex
100
AcDb2dVertex
 10
-734.10241698664686
 20
195.00064911537402
 30
0.0
  0
VERTEX
  5
242
100
AcDbEntity
  8
0
370
              15
390
0
  6
Continuous
 62
               7
100
AcDbVertex
100
AcDb2dVertex
 10
-733.9871313272555
 20
196.17119409997372
 30
0.0
  0
VERTEX
  5
243
100
AcDbEntity
  8
0
370
              15
390
0
  6
Continuous
 62
               7
100
AcDbVertex
100
AcDb2dVertex
 10
-733.64569847579662
 20
197.29675616053623
 30
0.0
  0
VERTEX
  5
244
100
AcDbEntity
  8
0
370
              15
390
0
  6
Continuous
 62
               7
100
AcDbVertex
100
AcDb2dVertex
 10
-733.09123954974268
 20
198.33408043170311
 30
0.0
  0
VERTEX
  5
245
100
AcDbEntity
  8
0
370
              15
390
0
  6
Continuous
 62
               7
100
AcDbVertex
100
AcDb2dVertex
 10
-732.34506216689044
 20
199.24330298837037
 30
0.0
  0
VERTEX
  5
246
100
AcDbEntity
  8
0
370
              15
390
0
  6
Continuous
 62
               7
100
AcDbVertex
100
AcDb2dVertex
 10
-731.43584160278397
 20
199.9894827991659
 30
0.0
  0
VERTEX
  5
247
100
AcDbEntity
  8
0
370
              15
390
0
  6
Continuous
 62
               7
100
AcDbVertex
100
AcDb2dVertex
 10
-730.39851881222228
 20
200.54394449524068
 30
0.0
  0
VERTEX
  5
248
100
AcDbEntity
  8
0
370
              15
390
0
  6
Continuous
 62
               7
100
AcDbVertex
100
AcDb2dVertex
 10
-729.27295766341024
 20
200.88538035234706
 30
0.0
  0
VERTEX
  5
249
100
AcDbEntity
  8
0
370
              15
390
0
  6
Continuous
 62
               7
100
AcDbVertex
100
AcDb2dVertex
 10
-728.10241298666824
 20
201.00066913750732
 30
0.0
  0
SEQEND
  5
24A
100
AcDbEntity
  8
0
370
              15
390
0
  6
Continuous
 62
               7
  0
POLYLINE
  5
24B
100
AcDbEntity
  8
0
370
              15
390
0
  6
Continuous
 62
               7
100
AcDb2dPolyline
 66
               1
 10
0.0
 20
0.0
 30
0.0
 75
               5
  0
VERTEX
  5
24C
100
AcDbEntity
  8
0
370
              15
390
0
  6
Continuous
 62
               7
100
AcDbVertex
100
AcDb2dVertex
 10
-718.66990114474959
 20
-287.39166377090919
 30
0.0
  0
VERTEX
  5
24D
100
AcDbEntity
  8
0
370
              15
390
0
  6
Continuous
 62
               7
100
AcDbVertex
100
AcDb2dVertex
 10
-721.85312006199445
 20
-286.35729873295145
 30
0.0
  0
VERTEX
  5
24E
100
AcDbEntity
  8
0
370
              15
390
0
  6
Continuous
 62
               7
100
AcDbVertex
100
AcDb2dVertex
 10
-724.81926591633783
 20
-284.8065658489204
 30
0.0
  0
VERTEX
  5
24F
100
AcDbEntity
  8
0
370
              15
390
0
  6
Continuous
 62
               7
100
AcDbVertex
100
AcDb2dVertex
 10
-727.48526590750328
 20
-282.78289647030152
 30
0.0
  0
VERTEX
  5
250
100
AcDbEntity
  8
0
370
              15
390
0
  6
Continuous
 62
               7
100
AcDbVertex
100
AcDb2dVertex
 10
-729.77645341568211
 20
-280.34296747354375
 30
0.0
  0
VERTEX
  5
251
100
AcDbEntity
  8
0
370
              15
390
0
  6
Continuous
 62
               7
100
AcDbVertex
100
AcDb2dVertex
 10
-731.62865918837952
 20
-277.55511391167215
 30
0.0
  0
VERTEX
  5
252
100
AcDbEntity
  8
0
370
              15
390
0
  6
Continuous
 62
               7
100
AcDbVertex
100
AcDb2dVertex
 10
-732.99000852766028
 20
-274.49741515553313
 30
0.0
  0
VERTEX
  5
253
100
AcDbEntity
  8
0
370
              15
390
0
  6
Continuous
 62
               7
100
AcDbVertex
100
AcDb2dVertex
 10
-733.82237414399685
 20
-271.25550812608355
 30
0.0
  0
VERTEX
  5
254
100
AcDbEntity
  8
0
370
              15
390
0
  6
Continuous
 62
               7
100
AcDbVertex
100
AcDb2dVertex
 10
-734.10244398666816
 20
-267.92018886249275
 30
0.0
  0
SEQEND
  5
255
100
AcDbEntity
  8
0
370
              15
390
0
  6
Continuous
 62
               7
  0
POLYLINE
  5
256
100
AcDbEntity
  8
0
370
              15
390
0
  6
Continuous
 62
               7
100
AcDb2dPolyline
 66
               1
 10
0.0
 20
0.0
 30
0.0
 75
               5
  0
VERTEX
  5
257
100
AcDbEntity
  8
0
370
              15
390
0
  6
Continuous
 62
               7
100
AcDbVertex
100
AcDb2dVertex
 10
-734.10241298666824
 20
195.00064913750725
 30
0.0
  0
VERTEX
  5
258
100
AcDbEntity
  8
0
370
              15
390
0
  6
Continuous
 62
               7
100
AcDbVertex
100
AcDb2dVertex
 10
-734.10244398666816
 20
-267.92018886249275
 30
0.0
  0
SEQEND
  5
259
100
AcDbEntity
  8
0
370
              15
390
0
  6
Continuous
 62
               7
  0
POLYLINE
  5
25A
100
AcDbEntity
  8
0
370
              15
390
0
  6
Continuous
 62
               7
100
AcDb2dPolyline
 66
               1
 10
0.0
 20
0.0
 30
0.0
 75
               5
  0
VERTEX
  5
25B
100
AcDbEntity
  8
0
370
              15
390
0
  6
Continuous
 62
               7
100
AcDbVertex
100
AcDb2dVertex
 10
0.4652566747513021
 20
-287.39183172602372
 30
0.0
  0
VERTEX
  5
25C
100
AcDbEntity
  8
0
370
              15
390
0
  6
Continuous
 62
               7
100
AcDbVertex
100
AcDb2dVertex
 10
-88.377821543213287
 20
-305.54984057285276
 30
0.0
  0
VERTEX
  5
25D
100
AcDbEntity
  8
0
370
              15
390
0
  6
Continuous
 62
               7
100
AcDbVertex
100
AcDb2dVertex
 10
-178.11890714952511
 20
-318.56304105257925
 30
0.0
  0
VERTEX
  5
25E
100
AcDbEntity
  8
0
370
              15
390
0
  6
Continuous
 62
               7
100
AcDbVertex
100
AcDb2dVertex
 10
-268.46032434174975
 20
-326.38826770906019
 30
0.0
  0
VERTEX
  5
25F
100
AcDbEntity
  8
0
370
              15
390
0
  6
Continuous
 62
               7
100
AcDbVertex
100
AcDb2dVertex
 10
-359.10240598666735
 20
-328.99956386249289
 30
0.0
  0
VERTEX
  5
260
100
AcDbEntity
  8
0
370
              15
390
0
  6
Continuous
 62
               7
100
AcDbVertex
100
AcDb2dVertex
 10
-449.74448763158534
 20
-326.38826770906019
 30
0.0
  0
VERTEX
  5
261
100
AcDbEntity
  8
0
370
              15
390
0
  6
Continuous
 62
               7
100
AcDbVertex
100
AcDb2dVertex
 10
-540.08590482381044
 20
-318.56304105257925
 30
0.0
  0
VERTEX
  5
262
100
AcDbEntity
  8
0
370
              15
390
0
  6
Continuous
 62
               7
100
AcDbVertex
100
AcDb2dVertex
 10
-629.82699043012258
 20
-305.54984057285276
 30
0.0
  0
VERTEX
  5
263
100
AcDbEntity
  8
0
370
              15
390
0
  6
Continuous
 62
               7
100
AcDbVertex
100
AcDb2dVertex
 10
-718.67006864808718
 20
-287.39183172602372
 30
0.0
  0
SEQEND
  5
264
100
AcDbEntity
  8
0
370
              15
390
0
  6
Continuous
 62
               7
  0
ENDBLK
  5
265
100
AcDbEntity
  8
GAR70-0102
390
0
100
AcDbBlockEnd
  0
BLOCK
  5
266
100
AcDbEntity
  8
GAR70-0102
390
0
100
AcDbBlockBegin
  2
グループ-3
 70
               0
 10
0.0
 20
0.0
 30
0.0
  3
グループ-3
  1

  0
LINE
  5
267
100
AcDbEntity
  8
0
370
              15
390
0
  6
STYLE_12
 62
               7
100
AcDbLine
 10
-59.001851486918127
 20
-1089.5881450342165
 30
0.0
 11
-71.200106952359334
 21
-1107.6585766007493
 31
0.0
  0
LINE
  5
268
100
AcDbEntity
  8
0
370
              15
390
0
  6
STYLE_12
 62
               7
100
AcDbLine
 10
-646.80359602147712
 20
-1107.6585766007493
 30
0.0
 11
-659.00185148691833
 21
-1089.5881450342165
 31
0.0
  0
LINE
  5
269
100
AcDbEntity
  8
0
370
              15
390
0
  6
STYLE_12
 62
               7
100
AcDbLine
 10
-608.3442892169769
 20
-1136.3643541037168
 30
0.0
 11
-646.80359602147712
 21
-1107.6585766007493
 31
0.0
  0
LINE
  5
26A
100
AcDbEntity
  8
0
370
              15
390
0
  6
STYLE_12
 62
               7
100
AcDbLine
 10
-585.29187516268837
 20
-1149.2825904328629
 30
0.0
 11
-608.3442892169769
 21
-1136.3643541037168
 31
0.0
  0
LINE
  5
26B
100
AcDbEntity
  8
0
370
              15
390
0
  6
STYLE_12
 62
               7
100
AcDbLine
 10
-517.781234003701
 20
-1178.3749848841451
 30
0.0
 11
-585.29187516268837
 21
-1149.2825904328629
 31
0.0
  0
LINE
  5
26C
100
AcDbEntity
  8
0
370
              15
390
0
  6
STYLE_12
 62
               7
100
AcDbLine
 10
-478.82089003659189
 20
-1190.5422898973648
 30
0.0
 11
-517.781234003701
 21
-1178.3749848841451
 31
0.0
  0
LINE
  5
26D
100
AcDbEntity
  8
0
370
              15
390
0
  6
STYLE_12
 62
               7
100
AcDbLine
 10
-453.17801976013152
 20
-1196.248418546711
 30
0.0
 11
-478.82089003659189
 21
-1190.5422898973648
 31
0.0
  0
LINE
  5
26E
100
AcDbEntity
  8
0
370
              15
390
0
  6
STYLE_12
 62
               7
100
AcDbLine
 10
-422.353060895753
 20
-1201.9513868786512
 30
0.0
 11
-453.17801976013152
 21
-1196.248418546711
 31
0.0
  0
LINE
  5
26F
100
AcDbEntity
  8
0
370
              15
390
0
  6
STYLE_12
 62
               7
100
AcDbLine
 10
-403.10723551935774
 20
-1201.9545471960569
 30
0.0
 11
-422.353060895753
 21
-1201.9513868786512
 31
0.0
  0
LINE
  5
270
100
AcDbEntity
  8
0
370
              15
390
0
  6
STYLE_12
 62
               7
100
AcDbLine
 10
-359.00185148691816
 20
-1204.5881450342165
 30
0.0
 11
-403.10723551935774
 21
-1201.9545471960569
 31
0.0
  0
LINE
  5
271
100
AcDbEntity
  8
0
370
              15
390
0
  6
STYLE_12
 62
               7
100
AcDbLine
 10
-314.89646745447857
 20
-1201.9545471960569
 30
0.0
 11
-359.00185148691816
 21
-1204.5881450342165
 31
0.0
  0
LINE
  5
272
100
AcDbEntity
  8
0
370
              15
390
0
  6
STYLE_12
 62
               7
100
AcDbLine
 10
-295.65064207808302
 20
-1201.9513868786512
 30
0.0
 11
-314.89646745447857
 21
-1201.9545471960569
 31
0.0
  0
LINE
  5
273
100
AcDbEntity
  8
0
370
              15
390
0
  6
STYLE_12
 62
               7
100
AcDbLine
 10
-264.82568321370462
 20
-1196.248418546711
 30
0.0
 11
-295.65064207808302
 21
-1201.9513868786512
 31
0.0
  0
LINE
  5
274
100
AcDbEntity
  8
0
370
              15
390
0
  6
STYLE_12
 62
               7
100
AcDbLine
 10
-239.18281293724436
 20
-1190.5422898973648
 30
0.0
 11
-264.82568321370462
 21
-1196.248418546711
 31
0.0
  0
LINE
  5
275
100
AcDbEntity
  8
0
370
              15
390
0
  6
STYLE_12
 62
               7
100
AcDbLine
 10
-200.22246897013582
 20
-1178.3749848841451
 30
0.0
 11
-239.18281293724436
 21
-1190.5422898973648
 31
0.0
  0
LINE
  5
276
100
AcDbEntity
  8
0
370
              15
390
0
  6
STYLE_12
 62
               7
100
AcDbLine
 10
-132.71182781114811
 20
-1149.2825904328629
 30
0.0
 11
-200.22246897013582
 21
-1178.3749848841451
 31
0.0
  0
LINE
  5
277
100
AcDbEntity
  8
0
370
              15
390
0
  6
STYLE_12
 62
               7
100
AcDbLine
 10
-109.65941375685978
 20
-1136.3643541037168
 30
0.0
 11
-132.71182781114811
 21
-1149.2825904328629
 31
0.0
  0
LINE
  5
278
100
AcDbEntity
  8
0
370
              15
390
0
  6
STYLE_12
 62
               7
100
AcDbLine
 10
-71.200106952359334
 20
-1107.6585766007493
 30
0.0
 11
-109.65941375685978
 21
-1136.3643541037168
 31
0.0
  0
ENDBLK
  5
279
100
AcDbEntity
  8
GAR70-0102
390
0
100
AcDbBlockEnd
  0
ENDSEC
  0
SECTION
  2
ENTITIES
  0
LWPOLYLINE
  5
27A
100
AcDbEntity
  8
overflow
370
              15
390
0
  6
Continuous
 62
               7
100
AcDbPolyline
 90
        4
 70
             129
 10
429.40211982406657
 20
800.20949216608165
 10
394.03514480429038
 20
800.20949216608165
 10
394.03514480429038
 20
816.41846662976354
 10
429.40211982406657
 20
816.41846662976354
  0
LWPOLYLINE
  5
27B
100
AcDbEntity
  8
overflow
370
              15
390
0
  6
Continuous
 62
               7
100
AcDbPolyline
 90
        4
 70
             129
 10
432.32023295519997
 20
773.97975477782666
 10
393.41679583585318
 20
773.97975477782666
 10
393.41679583585318
 20
787.53697980196989
 10
432.32023295519997
 20
787.53697980196989
  0
LWPOLYLINE
  5
27C
100
AcDbEntity
  8
overflow
370
              15
390
0
  6
Continuous
 62
               7
100
AcDbPolyline
 90
        4
 70
             129
 10
434.07300752434543
 20
763.95899185325402
 10
391.66402817000397
 20
763.95899185325402
 10
391.66402817000397
 20
773.97975477782666
 10
434.07300752434543
 20
773.97975477782666
  0
LINE
  5
27D
100
AcDbEntity
  8
overflow
370
              15
390
0
  6
Continuous
 62
               7
100
AcDbLine
 10
396.90331258596933
 20
800.20949216608165
 30
0.0
 11
396.90331258596933
 21
787.53697980196989
 31
0.0
  0
LINE
  5
27E
100
AcDbEntity
  8
overflow
370
              15
390
0
  6
Continuous
 62
               7
100
AcDbLine
 10
428.13213419195148
 20
800.20949216608165
 30
0.0
 11
428.13213419195148
 21
789.93164955024758
 31
0.0
  0
LINE
  5
27F
100
AcDbEntity
  8
overflow
370
              15
390
0
  6
Continuous
 62
               7
100
AcDbLine
 10
425.49227222881331
 20
763.95899185325402
 30
0.0
 11
425.49227222881331
 21
617.71853967918719
 31
0.0
  0
LINE
  5
280
100
AcDbEntity
  8
overflow
370
              15
390
0
  6
Continuous
 62
               7
100
AcDbLine
 10
429.6898906377973
 20
763.95899185325402
 30
0.0
 11
429.6898906377973
 21
622.11355094543285
 31
0.0
  0
LINE
  5
281
100
AcDbEntity
  8
overflow
370
              15
390
0
  6
Continuous
 62
               7
100
AcDbLine
 10
402.69911314451718
 20
763.95899185325402
 30
0.0
 11
402.69911314451718
 21
606.14358931300808
 31
0.0
  0
LINE
  5
282
100
AcDbEntity
  8
overflow
370
              15
390
0
  6
Continuous
 62
               7
100
AcDbLine
 10
406.89672465020504
 20
763.95899185325402
 30
0.0
 11
406.89672465020504
 21
604.51686893612634
 31
0.0
  0
LINE
  5
283
100
AcDbEntity
  8
overflow
370
              15
390
0
  6
Continuous
 62
               7
100
AcDbLine
 10
396.0733016466117
 20
763.95899185325402
 30
0.0
 11
396.0733016466117
 21
584.4468048596641
 31
0.0
  0
LWPOLYLINE
  5
284
100
AcDbEntity
  8
overflow
370
              15
390
0
  6
Continuous
 62
               7
100
AcDbPolyline
 90
        4
 70
             129
 10
432.28693835666303
 20
572.04778729232771
 10
429.6898906377973
 20
572.04778729232771
 10
429.6898906377973
 20
622.11355094543285
 10
432.28693835666303
 20
622.11355094543285
  0
LWPOLYLINE
  5
285
100
AcDbEntity
  8
overflow
370
              15
390
0
  6
Continuous
 62
               7
100
AcDbPolyline
 90
        4
 70
             129
 10
685.35457426883522
 20
646.70869359230744
 10
616.81811605581242
 20
646.70869359230744
 10
616.81811605581242
 20
648.32828286400763
 10
685.35457426883522
 20
648.32828286400763
  0
LINE
  5
286
100
AcDbEntity
  8
overflow
370
              15
390
0
  6
Continuous
 62
               7
100
AcDbLine
 10
622.01221839684013
 20
644.95473855947751
 30
0.0
 11
680.16047192780752
 21
644.95473855947751
 31
0.0
  0
LINE
  5
287
100
AcDbEntity
  8
overflow
370
              15
390
0
  6
Continuous
 62
               7
100
AcDbLine
 10
629.02568450408762
 20
635.78063042188353
 30
0.0
 11
673.14700582056003
 21
635.78063042188353
 31
0.0
  0
LWPOLYLINE
  5
288
100
AcDbEntity
  8
overflow
370
              15
390
0
  6
Continuous
 62
               7
100
AcDbPolyline
 90
        4
 70
             129
 10
686.0989636229433
 20
624.80471647994045
 10
616.07372670170389
 20
624.80471647994045
 10
616.07372670170389
 20
626.34089494871534
 10
686.0989636229433
 20
626.34089494871534
  0
LWPOLYLINE
  5
289
100
AcDbEntity
  8
overflow
370
              15
390
0
  6
Continuous
 62
               7
100
AcDbPolyline
 90
        4
 70
             129
 10
687.04075273760964
 20
622.15873992366699
 10
615.13193758703756
 20
622.15873992366699
 10
615.13193758703756
 20
624.80471647994045
 10
687.04075273760964
 20
624.80471647994045
  0
LWPOLYLINE
  5
28A
100
AcDbEntity
  8
overflow
370
              15
390
0
  6
Continuous
 62
               7
100
AcDbPolyline
 90
        4
 70
             129
 10
687.04075273760964
 20
620.67471068337352
 10
615.13193758703756
 20
620.67471068337352
 10
615.13193758703756
 20
622.15873992366699
 10
687.04075273760964
 20
622.15873992366699
  0
LWPOLYLINE
  5
28B
100
AcDbEntity
  8
overflow
370
              15
390
0
  6
Continuous
 62
               7
100
AcDbPolyline
 90
        4
 70
             129
 10
659.65280789254939
 20
626.34089494871534
 10
642.51988243209826
 20
626.34089494871534
 10
642.51988243209826
 20
632.548131972703
 10
659.65280789254939
 20
632.548131972703
  0
LWPOLYLINE
  5
28C
100
AcDbEntity
  8
overflow
370
              15
390
0
  6
Continuous
 62
               7
100
AcDbPolyline
 90
        4
 70
             129
 10
673.81529323515451
 20
528.37327765152804
 10
628.35739708949268
 20
528.37327765152804
 10
628.35739708949268
 20
541.03994431819467
 10
673.81529323515451
 20
541.03994431819467
  0
LWPOLYLINE
  5
28D
100
AcDbEntity
  8
overflow
370
              15
390
0
  6
Continuous
 62
               7
100
AcDbPolyline
 90
        4
 70
             129
 10
684.87654170302449
 20
562.37327765152781
 10
617.29614862162316
 20
562.37327765152781
 10
617.29614862162316
 20
566.37327765152781
 10
684.87654170302449
 20
566.37327765152781
  0
LWPOLYLINE
  5
28E
100
AcDbEntity
  8
overflow
370
              15
390
0
  6
Continuous
 62
               7
100
AcDbPolyline
 90
        4
 70
             129
 10
683.17256334731746
 20
554.9255688445935
 10
618.97403994590513
 20
554.9255688445935
 10
618.97403994590513
 20
559.04707841076743
 10
683.17256334731746
 20
559.04707841076743
  0
LINE
  5
28F
100
AcDbEntity
  8
overflow
370
              15
390
0
  6
Continuous
 62
               7
100
AcDbLine
 10
620.5206927641093
 20
553.70661098486119
 30
0.0
 11
628.35739708949268
 21
541.03994431819467
 31
0.0
  0
LINE
  5
290
100
AcDbEntity
  8
overflow
370
              15
390
0
  6
Continuous
 62
               7
100
AcDbLine
 10
681.62591052911284
 20
553.70661098486119
 30
0.0
 11
673.81529323515451
 21
541.03994431819467
 31
0.0
  0
LWPOLYLINE
  5
291
100
AcDbEntity
  8
overflow
370
              15
390
0
  6
Continuous
 62
               7
100
AcDbPolyline
 90
        4
 70
             129
 10
604.05880164276732
 20
531.85890806022633
 10
616.00475586737139
 20
531.85890806022633
 10
616.00475586737139
 20
560.30160756224291
 10
604.05880164276732
 20
560.30160756224291
  0
LINE
  5
292
100
AcDbEntity
  8
overflow
370
              15
390
0
  6
Continuous
 62
               7
100
AcDbLine
 10
628.06486990454277
 20
537.8723143278952
 30
0.0
 11
616.00475586737139
 21
537.8723143278952
 31
0.0
  0
LINE
  5
293
100
AcDbEntity
  8
overflow
370
              15
390
0
  6
Continuous
 62
               7
100
AcDbLine
 10
618.98708346161766
 20
554.9255688445935
 30
0.0
 11
616.00475586737139
 21
554.9255688445935
 31
0.0
  0
LWPOLYLINE
  5
294
100
AcDbEntity
  8
overflow
370
              15
390
0
  6
Continuous
 62
               7
100
AcDbPolyline
 90
        4
 70
             129
 10
651.98056711314575
 20
578.26810606299375
 10
650.19212321150144
 20
578.26810606299375
 10
650.19212321150144
 20
620.67471068337352
 10
651.98056711314575
 20
620.67471068337352
  0
LWPOLYLINE
  5
295
100
AcDbEntity
  8
overflow
370
              15
390
0
  6
Continuous
 62
               7
100
AcDbPolyline
 90
        4
 70
             129
 10
632.26486304748823
 20
606.43254749371931
 10
630.47641914584392
 20
606.43254749371931
 10
630.47641914584392
 20
620.67471068337352
 10
632.26486304748823
 20
620.67471068337352
  0
LWPOLYLINE
  5
296
100
AcDbEntity
  8
overflow
370
              15
390
0
  6
Continuous
 62
               7
100
AcDbPolyline
 90
        4
 70
             129
 10
672.63806029347006
 20
578.26810606299375
 10
670.84961639182575
 20
578.26810606299375
 10
670.84961639182575
 20
620.67471068337352
 10
672.63806029347006
 20
620.67471068337352
  0
LINE
  5
297
100
AcDbEntity
  8
overflow
370
              15
390
0
  6
Continuous
 62
               7
100
AcDbLine
 10
432.28693835666303
 20
622.11355094543285
 30
0.0
 11
614.66579940092424
 21
615.54957917667844
 31
0.0
  0
LINE
  5
298
100
AcDbEntity
  8
overflow
370
              15
390
0
  6
Continuous
 62
               7
100
AcDbLine
 10
432.28693835666303
 20
572.29587919209359
 30
0.0
 11
617.29614862162316
 21
566.41846662976218
 31
0.0
  0
LINE
  5
299
100
AcDbEntity
  8
overflow
370
              15
390
0
  6
Continuous
 62
               7
100
AcDbLine
 10
677.06220293569777
 20
607.11020222497939
 30
0.0
 11
676.80000070487995
 21
607.34104126378895
 31
0.0
  0
LINE
  5
29A
100
AcDbEntity
  8
overflow
370
              15
390
0
  6
Continuous
 62
               7
100
AcDbLine
 10
676.7904897242197
 20
607.24947668639879
 30
0.0
 11
651.98056711314575
 21
607.24947668639879
 31
0.0
  0
LINE
  5
29B
100
AcDbEntity
  8
overflow
370
              15
390
0
  6
Continuous
 62
               7
100
AcDbLine
 10
680.20428739006229
 20
597.32265381923753
 30
0.0
 11
672.63806029347006
 21
597.32265381923753
 31
0.0
  0
SPLINE
  5
29C
100
AcDbEntity
  8
overflow
370
              15
390
0
  6
Continuous
 62
               7
100
AcDbSpline
210
0.0
220
0.0
230
1.0
 70
               8
 71
               2
 72
              20
 73
              17
 74
               0
 42
0.000001
 43
0.000001
 40
0.0
 40
0.0
 40
0.0
 40
1.0
 40
1.0
 40
2.0
 40
3.0
 40
4.0
 40
5.0
 40
6.0
 40
7.0
 40
7.0
 40
8.0
 40
8.0
 40
9.0
 40
10.0
 40
10.0
 40
11.0
 40
11.0
 40
11.0
 10
432.28693790588335
 20
590.95448776684725
 30
0.0
 10
441.19979826508956
 20
590.67135468746176
 30
0.0
 10
452.58688588551689
 20
590.30962331803994
 30
0.0
 10
470.30920367297125
 20
589.74664193980914
 30
0.0
 10
512.5152648697815
 20
588.4058903074739
 30
0.0
 10
556.07615720617787
 20
587.0221000212
 30
0.0
 10
595.56982800658716
 20
585.7675123603035
 30
0.0
 10
625.63777028543063
 20
584.81234996068179
 30
0.0
 10
636.86815486531168
 20
584.4555965458826
 30
0.0
 10
638.86688885413105
 20
584.39210315696766
 30
0.0
 10
638.9950596239089
 20
584.2639960903557
 30
0.0
 10
639.12323039368675
 20
584.13588902374386
 30
0.0
 10
641.42327045886259
 20
581.62349666330351
 30
0.0
 10
647.58784073073321
 20
575.68195800096134
 30
0.0
 10
650.65214441954777
 20
574.79585824676258
 30
0.0
 10
650.84784054517286
 20
574.79585824676258
 30
0.0
 10
651.04353667079795
 20
574.79585824676258
 30
0.0
  0
SPLINE
  5
29D
100
AcDbEntity
  8
overflow
370
              15
390
0
  6
Continuous
 62
               7
100
AcDbSpline
210
0.0
220
0.0
230
1.0
 70
               8
 71
               2
 72
              16
 73
              13
 74
               0
 42
0.000001
 43
0.000001
 40
0.0
 40
0.0
 40
0.0
 40
1.0
 40
2.0
 40
3.0
 40
4.0
 40
5.0
 40
6.0
 40
7.0
 40
8.0
 40
9.0
 40
9.0
 40
10.0
 40
10.0
 40
10.0
 10
635.21389450913102
 20
566.37328046498044
 30
0.0
 10
635.33439525901531
 20
566.44621651325815
 30
0.0
 10
636.02098118743197
 20
566.86012173227471
 30
0.0
 10
637.86369765516929
 20
567.95684912323691
 30
0.0
 10
639.70163163880397
 20
569.03206784530096
 30
0.0
 10
641.69305570002098
 20
570.18514556641367
 30
0.0
 10
644.51879566109983
 20
571.77473145640226
 30
0.0
 10
647.20698731321181
 20
573.21589986414392
 30
0.0
 10
649.45729785455114
 20
574.31311285092852
 30
0.0
 10
650.57834505779738
 20
574.72292219848521
 30
0.0
 10
650.95312595260339
 20
574.79585824676258
 30
0.0
 10
650.99833131170067
 20
574.79585824676258
 30
0.0
 10
651.04353667079795
 20
574.79585824676258
 30
0.0
  0
LINE
  5
29E
100
AcDbEntity
  8
overflow
370
              15
390
0
  6
Continuous
 62
               7
100
AcDbLine
 10
680.49580645373408
 20
578.26810606299375
 30
0.0
 11
644.84343535418884
 21
578.26810606299375
 31
0.0
  0
LINE
  5
29F
100
AcDbEntity
  8
overflow
370
              15
390
0
  6
Continuous
 62
               7
100
AcDbLine
 10
680.49580645373408
 20
566.37327765152781
 30
0.0
 11
680.49580645373408
 21
588.64679800260978
 31
0.0
  0
SPLINE
  5
2A0
100
AcDbEntity
  8
overflow
370
              15
390
0
  6
Continuous
 62
               7
100
AcDbSpline
210
0.0
220
0.0
230
1.0
 70
               8
 71
               2
 72
              15
 73
              12
 74
               0
 42
0.000001
 43
0.000001
 40
0.0
 40
0.0
 40
0.0
 40
1.0
 40
1.0
 40
2.0
 40
3.0
 40
4.0
 40
5.0
 40
6.0
 40
7.0
 40
7.0
 40
8.0
 40
8.0
 40
8.0
 10
604.05879950945655
 20
560.30160431733407
 30
0.0
 10
604.02107061703032
 20
560.30160431733407
 30
0.0
 10
603.98334172460409
 20
560.30160431733407
 30
0.0
 10
603.45864219213809
 20
560.28218429217316
 30
0.0
 10
602.47440090059172
 20
560.033250959356
 30
0.0
 10
601.49040555198872
 20
559.4699052797248
 30
0.0
 10
600.69343013196794
 20
558.67357499874061
 30
0.0
 10
600.12912467178739
 20
557.68961129312333
 30
0.0
 10
599.88026358876505
 20
556.70551327669625
 30
0.0
 10
599.86118556484416
 20
556.18071483501728
 30
0.0
 10
599.86118556484416
 20
556.1429471667509
 30
0.0
 10
599.86118556484416
 20
556.10517949848463
 30
0.0
  0
SPLINE
  5
2A1
100
AcDbEntity
  8
overflow
370
              15
390
0
  6
Continuous
 62
               7
100
AcDbSpline
210
0.0
220
0.0
230
1.0
 70
               8
 71
               2
 72
              15
 73
              12
 74
               0
 42
0.000001
 43
0.000001
 40
0.0
 40
0.0
 40
0.0
 40
1.0
 40
1.0
 40
2.0
 40
3.0
 40
4.0
 40
5.0
 40
6.0
 40
7.0
 40
7.0
 40
8.0
 40
8.0
 40
8.0
 10
599.86118556484416
 20
536.05651912846531
 30
0.0
 10
599.86118556484416
 20
536.01879023603908
 30
0.0
 10
599.86118556484416
 20
535.98106134361296
 30
0.0
 10
599.88061864687143
 20
535.45636181114719
 30
0.0
 10
600.12969697181961
 20
534.4721205195998
 30
0.0
 10
600.69332147891646
 20
533.48812517099759
 30
0.0
 10
601.48996814802103
 20
532.69114975097636
 30
0.0
 10
602.47421108877688
 20
532.12684429079604
 30
0.0
 10
603.45845330028351
 20
531.87798320777381
 30
0.0
 10
603.98326417292401
 20
531.85890518385258
 30
0.0
 10
604.02103184119028
 20
531.85890518385258
 30
0.0
 10
604.05879950945655
 20
531.85890518385258
 30
0.0
  0
LINE
  5
2A2
100
AcDbEntity
  8
overflow
370
              15
390
0
  6
Continuous
 62
               7
100
AcDbLine
 10
599.86118323378332
 20
556.10517652023975
 30
0.0
 11
599.86118323378332
 21
536.05651956591396
 31
0.0
  0
LWPOLYLINE
  5
2A3
100
AcDbEntity
  8
overflow
370
              15
390
0
  6
Continuous
 62
               7
100
AcDbPolyline
 90
        4
 70
             129
 10
616.00475586737139
 20
555.47969644662135
 10
604.05880164276732
 20
555.47969644662135
 10
604.05880164276732
 20
556.46904927348373
 10
616.00475586737139
 20
556.46904927348373
  0
LWPOLYLINE
  5
2A4
100
AcDbEntity
  8
overflow
370
              15
390
0
  6
Continuous
 62
               7
100
AcDbPolyline
 90
        4
 70
             129
 10
616.00475586737139
 20
535.69264681266986
 10
604.05880164276732
 20
535.69264681266986
 10
604.05880164276732
 20
536.68199963953236
 10
616.00475586737139
 20
536.68199963953236
  0
LWPOLYLINE
  5
2A5
100
AcDbEntity
  8
overflow
370
              15
390
0
  6
Continuous
 62
               7
100
AcDbPolyline
 90
        4
 70
             129
 10
616.00475586737139
 20
545.58617508129385
 10
604.05880164276732
 20
545.58617508129385
 10
604.05880164276732
 20
546.57552790815623
 10
616.00475586737139
 20
546.57552790815623
  0
SPLINE
  5
2A6
100
AcDbEntity
  8
overflow
370
              15
390
0
  6
Continuous
 62
               7
100
AcDbSpline
210
0.0
220
0.0
230
1.0
 70
               8
 71
               2
 72
              20
 73
              17
 74
               0
 42
0.000001
 43
0.000001
 40
0.0
 40
0.0
 40
0.0
 40
1.0
 40
1.0
 40
2.0
 40
3.0
 40
4.0
 40
5.0
 40
6.0
 40
7.0
 40
8.0
 40
9.0
 40
10.0
 40
11.0
 40
12.0
 40
12.0
 40
13.0
 40
13.0
 40
13.0
 10
445.72194761683699
 20
520.18525756508143
 30
0.0
 10
445.68937406467688
 20
520.18525756508143
 30
0.0
 10
445.65680051251678
 20
520.18525756508143
 30
0.0
 10
445.07381027544801
 20
520.20982024694865
 30
0.0
 10
444.14165941514915
 20
520.54611136349934
 30
0.0
 10
443.36109540030469
 20
521.12776197775929
 30
0.0
 10
442.77914871318438
 20
521.90805439024041
 30
0.0
 10
442.44247283314866
 20
522.83949963690543
 30
0.0
 10
442.4160513039173
 20
523.48745980989452
 30
0.0
 10
442.44344406336489
 20
524.13608431524847
 30
0.0
 10
442.78013922418307
 20
525.06794280068846
 30
0.0
 10
443.36211751058084
 20
525.84815222318969
 30
0.0
 10
444.14266984852378
 20
526.42982297796175
 30
0.0
 10
445.07461144428083
 20
526.76589736319659
 30
0.0
 10
445.65680051251678
 20
526.78966205470715
 30
0.0
 10
445.68937406467688
 20
526.78966205470715
 30
0.0
 10
445.72194761683699
 20
526.78966205470715
 30
0.0
  0
LINE
  5
2A7
100
AcDbEntity
  8
overflow
370
              15
390
0
  6
Continuous
 62
               7
100
AcDbLine
 10
445.72194435095474
 20
526.78965873788911
 30
0.0
 11
599.86118323378332
 21
548.07382626210858
 31
0.0
  0
LINE
  5
2A8
100
AcDbEntity
  8
overflow
370
              15
390
0
  6
Continuous
 62
               7
100
AcDbLine
 10
445.72194435095474
 20
520.18525436211974
 30
0.0
 11
599.86118323378332
 21
541.46942188633943
 31
0.0
  0
SPLINE
  5
2A9
100
AcDbEntity
  8
overflow
370
              15
390
0
  6
Continuous
 62
               7
100
AcDbSpline
210
0.0
220
0.0
230
1.0
 70
               8
 71
               2
 72
              20
 73
              17
 74
               0
 42
0.000001
 43
0.000001
 40
0.0
 40
0.0
 40
0.0
 40
1.0
 40
1.0
 40
2.0
 40
3.0
 40
3.0
 40
4.0
 40
4.0
 40
5.0
 40
6.0
 40
7.0
 40
8.0
 40
9.0
 40
10.0
 40
11.0
 40
12.0
 40
12.0
 40
12.0
 10
650.19212262424207
 20
598.73771636597803
 30
0.0
 10
649.89562168281918
 20
598.73771636597803
 30
0.0
 10
649.59912074139629
 20
598.73771636597803
 30
0.0
 10
645.27309052050987
 20
599.13387372387285
 30
0.0
 10
637.18307609158865
 20
601.26746519249423
 30
0.0
 10
632.76162799205122
 20
601.75308448916064
 30
0.0
 10
632.45572524196791
 20
601.76391402736249
 30
0.0
 10
632.14982249188461
 20
601.77474356556445
 30
0.0
 10
629.09407098017118
 20
601.88261042191539
 30
0.0
 10
608.9352371836726
 20
602.59420952314963
 30
0.0
 10
578.24325998632685
 20
603.67762454651847
 30
0.0
 10
541.69647520969579
 20
604.96771203186472
 30
0.0
 10
503.97652428907833
 20
606.29921183213344
 30
0.0
 10
469.77843411309362
 20
607.50639129890305
 30
0.0
 10
443.74220651969557
 20
608.42546014693278
 30
0.0
 10
434.01766846612549
 20
608.76873261044489
 30
0.0
 10
432.28693835666303
 20
608.82982671949856
 30
0.0
  0
SPLINE
  5
2AA
100
AcDbEntity
  8
overflow
370
              15
390
0
  6
Continuous
 62
               7
100
AcDbSpline
210
0.0
220
0.0
230
1.0
 70
               8
 71
               2
 72
              13
 73
              10
 74
               0
 42
0.000001
 43
0.000001
 40
0.0
 40
0.0
 40
0.0
 40
1.0
 40
1.0
 40
2.0
 40
3.0
 40
4.0
 40
5.0
 40
5.0
 40
6.0
 40
6.0
 40
6.0
 10
632.26494792181211
 20
612.76999619574167
 30
0.0
 10
633.53885168265606
 20
612.32166711776244
 30
0.0
 10
634.65088457800493
 20
611.84031049197552
 30
0.0
 10
636.99147604603877
 20
610.82715771914741
 30
0.0
 10
640.12011601964923
 20
609.39861279234447
 30
0.0
 10
643.32730341420438
 20
608.13647593383155
 30
0.0
 10
647.16019140655271
 20
607.4170963741401
 30
0.0
 10
649.38827360821961
 20
607.2626332837682
 30
0.0
 10
649.79019811623084
 20
607.2560559318897
 30
0.0
 10
650.19212262424207
 20
607.24947858001121
 30
0.0
  0
SPLINE
  5
2AB
100
AcDbEntity
  8
overflow
370
              15
390
0
  6
Continuous
 62
               7
100
AcDbSpline
210
0.0
220
0.0
230
1.0
 70
               8
 71
               2
 72
              11
 73
               8
 74
               0
 42
0.000001
 43
0.000001
 40
0.0
 40
0.0
 40
0.0
 40
1.0
 40
1.0
 40
2.0
 40
3.0
 40
3.0
 40
4.0
 40
4.0
 40
4.0
 10
630.47665201438804
 20
613.35858211487459
 30
0.0
 10
629.87970458364271
 20
613.54251823779055
 30
0.0
 10
629.25259349713178
 20
613.72029987713199
 30
0.0
 10
626.19489388429292
 20
614.58713648946059
 30
0.0
 10
619.80917396973746
 20
615.34377652898218
 30
0.0
 10
616.03270138347307
 20
615.52623981506292
 30
0.0
 10
615.34925135098956
 20
615.53790811161582
 30
0.0
 10
614.66580131850606
 20
615.54957640816872
 30
0.0
  0
LINE
  5
2AC
100
AcDbEntity
  8
overflow
370
              15
390
0
  6
Continuous
 62
               7
100
AcDbLine
 10
638.86688578599933
 20
584.39210313899048
 30
0.0
 11
674.77610783469936
 21
584.39210313899048
 31
0.0
  0
SPLINE
  5
2AD
100
AcDbEntity
  8
overflow
370
              15
390
0
  6
Continuous
 62
               7
100
AcDbSpline
210
0.0
220
0.0
230
1.0
 70
               8
 71
               2
 72
              14
 73
              11
 74
               0
 42
0.000001
 43
0.000001
 40
0.0
 40
0.0
 40
0.0
 40
1.0
 40
1.0
 40
2.0
 40
3.0
 40
4.0
 40
5.0
 40
6.0
 40
6.0
 40
7.0
 40
7.0
 40
7.0
 10
674.37656239917987
 20
584.39091403120437
 30
0.0
 10
674.4399279382942
 20
584.39091403120437
 30
0.0
 10
674.50329347740853
 20
584.39091403120437
 30
0.0
 10
675.38370039347456
 20
584.35323470656817
 30
0.0
 10
677.01378448431342
 20
583.87601160566555
 30
0.0
 10
678.58494875523547
 20
582.81098792195837
 30
0.0
 10
679.76301735792958
 20
581.32781717179284
 30
0.0
 10
680.44712038467378
 20
579.52754061608243
 30
0.0
 10
680.49580357736022
 20
578.3948811461787
 30
0.0
 10
680.49580357736022
 20
578.33149331095638
 30
0.0
 10
680.49580357736022
 20
578.26810547573393
 30
0.0
  0
LINE
  5
2AE
100
AcDbEntity
  8
overflow
370
              15
390
0
  6
Continuous
 62
               7
100
AcDbLine
 10
674.45028605121252
 20
587.17228150475535
 30
0.0
 11
674.45028605121252
 21
584.39091577200952
 31
0.0
  0
SPLINE
  5
2AF
100
AcDbEntity
  8
overflow
370
              15
390
0
  6
Continuous
 62
               7
100
AcDbSpline
210
0.0
220
0.0
230
1.0
 70
               8
 71
               2
 72
              15
 73
              12
 74
               0
 42
0.000001
 43
0.000001
 40
0.0
 40
0.0
 40
0.0
 40
1.0
 40
1.0
 40
2.0
 40
3.0
 40
4.0
 40
5.0
 40
6.0
 40
7.0
 40
7.0
 40
8.0
 40
8.0
 40
8.0
 10
687.0407517788185
 20
620.67470844819161
 30
0.0
 10
687.0407517788185
 20
620.30503897651124
 30
0.0
 10
687.0407517788185
 20
619.93536950483099
 30
0.0
 10
686.79996734737597
 20
614.67698506759234
 30
0.0
 10
685.26522796094287
 20
607.20776761888908
 30
0.0
 10
683.7666689233024
 20
601.56992879421455
 30
0.0
 10
682.26863730016566
 20
596.50400145810465
 30
0.0
 10
681.05441756334585
 20
592.2547199244168
 30
0.0
 10
680.58136058780656
 20
589.87440756604292
 30
0.0
 10
680.49580357736022
 20
588.92182620660117
 30
0.0
 10
680.49580357736022
 20
588.78431067241104
 30
0.0
 10
680.49580357736022
 20
588.64679513822091
 30
0.0
  0
SPLINE
  5
2B0
100
AcDbEntity
  8
overflow
370
              15
390
0
  6
Continuous
 62
               7
100
AcDbSpline
210
0.0
220
0.0
230
1.0
 70
               8
 71
               2
 72
              10
 73
               7
 74
               0
 42
0.000001
 43
0.000001
 40
0.0
 40
0.0
 40
0.0
 40
1.0
 40
1.0
 40
2.0
 40
2.0
 40
3.0
 40
3.0
 40
3.0
 10
615.13193861773789
 20
620.67470844819161
 30
0.0
 10
615.13193861773789
 20
620.64823181986708
 30
0.0
 10
615.13193861773789
 20
620.62175519154266
 30
0.0
 10
615.14466020605414
 20
618.12594808232041
 30
0.0
 10
615.43962490900367
 20
615.58565894305036
 30
0.0
 10
615.44274636413252
 20
615.55869923238447
 30
0.0
 10
615.44586781926137
 20
615.53173952171869
 30
0.0
  0
LINE
  5
2B1
100
AcDbEntity
  8
overflow
370
              15
390
0
  6
Continuous
 62
               7
100
AcDbLine
 10
405.82175714138958
 20
595.98132261882824
 30
0.0
 11
429.6898906377973
 21
594.81122078232488
 31
0.0
  0
LINE
  5
2B2
100
AcDbEntity
  8
overflow
370
              15
390
0
  6
Continuous
 62
               7
100
AcDbLine
 10
405.83602625504847
 20
589.92391473990619
 30
0.0
 11
429.6898906377973
 21
589.92391473990619
 31
0.0
  0
SPLINE
  5
2B3
100
AcDbEntity
  8
overflow
370
              15
390
0
  6
Continuous
 62
               7
100
AcDbSpline
210
0.0
220
0.0
230
1.0
 70
               8
 71
               2
 72
              18
 73
              15
 74
               0
 42
0.000001
 43
0.000001
 40
0.0
 40
0.0
 40
0.0
 40
1.0
 40
1.0
 40
2.0
 40
3.0
 40
4.0
 40
5.0
 40
6.0
 40
7.0
 40
8.0
 40
9.0
 40
10.0
 40
10.0
 40
11.0
 40
11.0
 40
11.0
 10
399.07465745829103
 20
601.00656832244272
 30
0.0
 10
399.07465745829103
 20
600.99495205014193
 30
0.0
 10
399.07465745829103
 20
600.98333577784115
 30
0.0
 10
399.08427603916715
 20
600.76585945634076
 30
0.0
 10
399.25137030985951
 20
600.13112210415193
 30
0.0
 10
399.4963626698206
 20
599.51133120013958
 30
0.0
 10
399.87436583495872
 20
598.82422916608516
 30
0.0
 10
400.40844987148029
 20
598.11734090942036
 30
0.0
 10
401.1216732249365
 20
597.43816739873091
 30
0.0
 10
402.03709551580249
 20
596.8342120229795
 30
0.0
 10
403.17777567587217
 20
596.35297675242759
 30
0.0
 10
404.56680723369135
 20
596.0420348274979
 30
0.0
 10
405.60503886914813
 20
595.98475644718303
 30
0.0
 10
405.71339795433306
 20
595.98303964686215
 30
0.0
 10
405.82175703951799
 20
595.98132284654127
 30
0.0
  0
SPLINE
  5
2B4
100
AcDbEntity
  8
overflow
370
              15
390
0
  6
Continuous
 62
               7
100
AcDbSpline
210
0.0
220
0.0
230
1.0
 70
               8
 71
               2
 72
              17
 73
              14
 74
               0
 42
0.000001
 43
0.000001
 40
0.0
 40
0.0
 40
0.0
 40
1.0
 40
1.0
 40
2.0
 40
3.0
 40
4.0
 40
5.0
 40
6.0
 40
7.0
 40
8.0
 40
9.0
 40
9.0
 40
10.0
 40
10.0
 40
10.0
 10
399.07465745829103
 20
601.00656832244272
 30
0.0
 10
399.07465745829103
 20
601.02874281537061
 30
0.0
 10
399.07465745829103
 20
601.05091730829838
 30
0.0
 10
399.13713902987473
 20
601.44789138808937
 30
0.0
 10
399.62992011510431
 20
601.99859700283628
 30
0.0
 10
400.04417280674414
 20
602.38166255730016
 30
0.0
 10
400.51561052697997
 20
602.78560172886534
 30
0.0
 10
401.0115570685777
 20
603.2160749628805
 30
0.0
 10
401.49933074504878
 20
603.67874365385717
 30
0.0
 10
402.18003781247643
 20
604.42774279930859
 30
0.0
 10
402.65758037064523
 20
605.46415084528815
 30
0.0
 10
402.69911278497074
 20
606.05692056730254
 30
0.0
 10
402.69911278497074
 20
606.10025609370075
 30
0.0
 10
402.69911278497074
 20
606.14359162009896
 30
0.0
  0
SPLINE
  5
2B5
100
AcDbEntity
  8
overflow
370
              15
390
0
  6
Continuous
 62
               7
100
AcDbSpline
210
0.0
220
0.0
230
1.0
 70
               8
 71
               2
 72
              17
 73
              14
 74
               0
 42
0.000001
 43
0.000001
 40
0.0
 40
0.0
 40
0.0
 40
1.0
 40
1.0
 40
2.0
 40
3.0
 40
4.0
 40
5.0
 40
6.0
 40
7.0
 40
8.0
 40
9.0
 40
9.0
 40
10.0
 40
10.0
 40
10.0
 10
404.37578011128898
 20
596.10380280016591
 30
0.0
 10
404.36735218244138
 20
596.193723003983
 30
0.0
 10
404.35892425359378
 20
596.2836432078002
 30
0.0
 10
404.27954893499663
 20
597.82425824574329
 30
0.0
 10
404.6399538172688
 20
599.31467373815076
 30
0.0
 10
404.97534655030967
 20
600.17324715601228
 30
0.0
 10
405.37195648790231
 20
600.92651962870241
 30
0.0
 10
405.79096534473439
 20
601.60853564871934
 30
0.0
 10
406.1935816314197
 20
602.253316207956
 30
0.0
 10
406.54090327905107
 20
602.89497927897321
 30
0.0
 10
406.86226731823155
 20
603.73146056656662
 30
0.0
 10
406.89770775833796
 20
604.41546487637186
 30
0.0
 10
406.8972172439606
 20
604.46616622610657
 30
0.0
 10
406.89672672958324
 20
604.51686757584127
 30
0.0
  0
SPLINE
  5
2B6
100
AcDbEntity
  8
overflow
370
              15
390
0
  6
Continuous
 62
               7
100
AcDbSpline
210
0.0
220
0.0
230
1.0
 70
               8
 71
               2
 72
              17
 73
              14
 74
               0
 42
0.000001
 43
0.000001
 40
0.0
 40
0.0
 40
0.0
 40
1.0
 40
1.0
 40
2.0
 40
3.0
 40
4.0
 40
5.0
 40
6.0
 40
7.0
 40
8.0
 40
9.0
 40
9.0
 40
10.0
 40
10.0
 40
10.0
 10
399.08892696745096
 20
584.89867073215316
 30
0.0
 10
399.08892696745096
 20
584.91028700445383
 30
0.0
 10
399.08892696745096
 20
584.92190327675462
 30
0.0
 10
399.09683966178881
 20
585.21069114851684
 30
0.0
 10
399.37314856423353
 20
586.07222230391551
 30
0.0
 10
399.68176010734095
 20
586.73161445644075
 30
0.0
 10
400.13492117803088
 20
587.43454768523748
 30
0.0
 10
400.75569440463522
 20
588.13351240508587
 30
0.0
 10
401.56712649555465
 20
588.7810318262168
 30
0.0
 10
402.59232985643411
 20
589.3294938209134
 30
0.0
 10
404.16699309719223
 20
589.83780228748731
 30
0.0
 10
405.61930837830852
 20
589.92048260741308
 30
0.0
 10
405.72766746349345
 20
589.92219940773396
 30
0.0
 10
405.83602654867838
 20
589.92391620805483
 30
0.0
  0
LINE
  5
2B7
100
AcDbEntity
  8
overflow
370
              15
390
0
  6
Continuous
 62
               7
100
AcDbLine
 10
429.33790536095415
 20
576.73651311050401
 30
0.0
 11
403.7835933957719
 21
576.73651311050401
 31
0.0
  0
SPLINE
  5
2B8
100
AcDbEntity
  8
overflow
370
              15
390
0
  6
Continuous
 62
               7
100
AcDbSpline
210
0.0
220
0.0
230
1.0
 70
               8
 71
               2
 72
              14
 73
              11
 74
               0
 42
0.000001
 43
0.000001
 40
0.0
 40
0.0
 40
0.0
 40
1.0
 40
1.0
 40
2.0
 40
3.0
 40
4.0
 40
5.0
 40
6.0
 40
6.0
 40
7.0
 40
7.0
 40
7.0
 10
403.7835954811423
 20
576.73651149254374
 30
0.0
 10
403.6949065179594
 20
576.73651149254374
 30
0.0
 10
403.60621755477649
 20
576.73651149254374
 30
0.0
 10
402.72803557472042
 20
576.77707521940783
 30
0.0
 10
400.7275268035134
 20
577.24031598095473
 30
0.0
 10
398.49245794079678
 20
578.68713542506862
 30
0.0
 10
396.86548534769344
 20
580.78737877438436
 30
0.0
 10
396.13073878021368
 20
583.04013777016621
 30
0.0
 10
396.07330403160466
 20
584.27056459457219
 30
0.0
 10
396.07330403160466
 20
584.35927833120854
 30
0.0
 10
396.07330403160466
 20
584.44799206784478
 30
0.0
  0
LINE
  5
2B9
100
AcDbEntity
  8
overflow
370
              15
390
0
  6
Continuous
 62
               7
100
AcDbLine
 10
399.07465472573602
 20
601.00657032991205
 30
0.0
 11
399.07465472573602
 21
585.31367249850132
 31
0.0
  0
LINE
  5
2BA
100
AcDbEntity
  8
overflow
370
              15
390
0
  6
Continuous
 62
               7
100
AcDbLine
 10
405.83602625504847
 20
589.92391473990619
 30
0.0
 11
405.83602625504847
 21
576.73651311050401
 31
0.0
  0
SPLINE
  5
2BB
100
AcDbEntity
  8
overflow
370
              15
390
0
  6
Continuous
 62
               7
100
AcDbSpline
210
0.0
220
0.0
230
1.0
 70
               8
 71
               2
 72
              15
 73
              12
 74
               0
 42
0.000001
 43
0.000001
 40
0.0
 40
0.0
 40
0.0
 40
1.0
 40
1.0
 40
2.0
 40
3.0
 40
4.0
 40
5.0
 40
6.0
 40
7.0
 40
7.0
 40
8.0
 40
8.0
 40
8.0
 10
405.83602654867838
 20
576.73651149254374
 30
0.0
 10
405.75252175658653
 20
576.73651149254374
 30
0.0
 10
405.66901696449469
 20
576.73651149254374
 30
0.0
 10
404.5241523178949
 20
576.81654705462756
 30
0.0
 10
403.11320213356811
 20
577.46692679158446
 30
0.0
 10
401.60857010897934
 20
578.59868014294614
 30
0.0
 10
400.50996630631306
 20
580.17889553946088
 30
0.0
 10
399.62569275210961
 20
581.88421662350311
 30
0.0
 10
399.1259003848574
 20
583.88749815874917
 30
0.0
 10
399.08892696745096
 20
584.77625336409506
 30
0.0
 10
399.08892696745096
 20
584.83746204812405
 30
0.0
 10
399.08892696745096
 20
584.89867073215316
 30
0.0
  0
LINE
  5
2BC
100
AcDbEntity
  8
overflow
370
              15
390
0
  6
Continuous
 62
               7
100
AcDbLine
 10
673.14700582056003
 20
635.78063042188353
 30
0.0
 11
673.14700582056003
 21
626.34089494871534
 31
0.0
  0
LINE
  5
2BD
100
AcDbEntity
  8
overflow
370
              15
390
0
  6
Continuous
 62
               7
100
AcDbLine
 10
629.02568814936831
 20
635.78063131860722
 30
0.0
 11
629.02568450408762
 21
626.34089494871534
 31
0.0
  0
ARC
  5
2BE
100
AcDbEntity
  8
overflow
370
              15
390
0
  6
Continuous
 62
               7
100
AcDbCircle
 10
687.24296810765964
 20
632.31672489391531
 30
0.0
 40
14.515329631324567
100
AcDbArc
 50
97.475169740689509
 51
166.19384709665735
  0
ARC
  5
2BF
100
AcDbEntity
  8
overflow
370
              15
390
0
  6
Continuous
 62
               7
100
AcDbCircle
 10
614.93057019333264
 20
632.31329168836351
 30
0.0
 40
14.515329631324864
100
AcDbArc
 50
13.820111897757535
 51
82.52483025931231
  0
ARC
  5
2C0
100
AcDbEntity
  8
overflow
370
              15
390
0
  6
Continuous
 62
               7
100
AcDbCircle
 10
678.51950172501574
 20
563.51208777464467
 30
0.0
 40
6.4582385972116185
100
AcDbArc
 50
316.26162878484445
 51
349.84367424316986
  0
ARC
  5
2C1
100
AcDbEntity
  8
overflow
370
              15
390
0
  6
Continuous
 62
               7
100
AcDbCircle
 10
623.65232301272817
 20
563.51208777464467
 30
0.0
 40
6.4582385972121186
100
AcDbArc
 50
190.1563257568294
 51
223.73837121515271
  0
LINE
  5
2C2
100
AcDbEntity
  8
overflow
370
              15
390
0
  6
Continuous
 62
               7
100
AcDbLine
 10
620.5206927641093
 20
553.70661098486119
 30
0.0
 11
681.62591052911284
 21
553.70661098486119
 31
0.0
  0
ARC
  5
2C3
100
AcDbEntity
  8
overflow
370
              15
390
0
  6
Continuous
 62
               7
100
AcDbCircle
 10
415.68793349800291
 20
787.5369795832454
 30
0.0
 40
12.67251258283625
100
AcDbArc
 50
0.0000009889112621
 51
179.99999901108873
  0
ARC
  5
2C4
100
AcDbEntity
  8
overflow
370
              15
390
0
  6
Continuous
 62
               7
100
AcDbCircle
 10
415.68793349800291
 20
787.5369795832454
 30
0.0
 40
8.4000000000002064
100
AcDbArc
 50
0.0000009889113896
 51
179.99999889760159
  0
ARC
  5
2C5
100
AcDbEntity
  8
overflow
370
              15
390
0
  6
Continuous
 62
               7
100
AcDbCircle
 10
413.97867317596348
 20
782.28371994402983
 30
0.0
 40
17.900000000000329
100
AcDbArc
 50
90.86838647421493
 51
163.08442525186652
  0
DIMENSION
  5
2C6
100
AcDbEntity
  8
overflow
370
               5
390
0
  6
Continuous
 62
               7
100
AcDbDimension
  2
*D1
 10
737.04075273760964
 20
566.37327765152781
 30
0.0
 11
737.04075273760964
 21
547.37327765152793
 31
0.0
 71
               5
 72
               1
 41
1.0
 42
0.0
  3
Tform線あり
100
AcDbAlignedDimension
 13
673.81529323515451
 23
528.37327765152804
 33
0.0
 14
684.87654170302449
 24
566.37327765152781
 34
0.0
 50
90.0
100
AcDbRotatedDimension
1001
ACAD
1000
DSTYLE
1002
{
1070
             279
1070
               2
1070
             340
1005
3C
1070
             147
1040
2.5
1002
}
  0
ARC
  5
2C7
100
AcDbEntity
  8
overflow
370
              15
390
0
  6
Continuous
 62
               7
100
AcDbCircle
 10
681.36501122060281
 20
555.62834866759044
 30
0.0
 40
1.939366950941114
100
AcDbArc
 50
277.73133182190975
 51
338.75382061574464
  0
ARC
  5
2C8
100
AcDbEntity
  8
overflow
370
              15
390
0
  6
Continuous
 62
               7
100
AcDbCircle
 10
620.80543505101969
 20
555.62834866759044
 30
0.0
 40
1.9393669509414484
100
AcDbArc
 50
201.24617938425044
 51
262.26866817807695
  0
DIMENSION
  5
2C9
100
AcDbEntity
  8
overflow
370
               5
390
0
  6
Continuous
 62
               7
100
AcDbDimension
  2
*D2
 10
341.66402817000341
 20
566.37327765152781
 30
0.0
 11
341.66402817000341
 21
691.39587214064568
 31
0.0
 71
               5
 72
               1
 41
1.0
 42
0.0
  3
Tform線あり
100
AcDbAlignedDimension
 13
394.03514480429038
 23
816.41846662976354
 33
0.0
 14
617.86246651477086
 24
566.37327765152781
 34
0.0
 50
90.0
100
AcDbRotatedDimension
1001
ACAD
1000
DSTYLE
1002
{
1070
             279
1070
               2
1070
             340
1005
3C
1070
               3
1000
min.85～max.<>
1070
             147
1040
2.5
1002
}
  0
DIMENSION
  5
2CA
100
AcDbEntity
  8
overflow
370
               5
390
0
  6
Continuous
 62
               7
100
AcDbDimension
  2
*D3
 10
651.0863451623236
 20
431.99999999999989
 30
0.0
 11
523.57982340446756
 21
431.99999999999989
 31
0.0
 71
               5
 72
               1
 41
1.0
 42
0.0
  3
Tform線あり
100
AcDbAlignedDimension
 13
396.0733016466117
 23
578.42120865732011
 33
0.0
 14
651.0863451623236
 24
528.37327765152804
 34
0.0
100
AcDbRotatedDimension
1001
ACAD
1000
DSTYLE
1002
{
1070
             279
1070
               2
1070
             340
1005
3C
1070
               3
1000
min.75～max.<>
1070
             147
1040
2.5
1002
}
  0
SPLINE
  5
2CB
100
AcDbEntity
  8
overflow
370
              15
390
0
  6
Continuous
 62
               7
100
AcDbSpline
210
0.0
220
0.0
230
1.0
 70
               8
 71
               2
 72
               7
 73
               4
 74
               0
 42
0.000001
 43
0.000001
 40
0.0
 40
0.0
 40
0.0
 40
1.0
 40
2.0
 40
2.0
 40
2.0
 10
651.98056777231477
 20
598.73771636597803
 30
0.0
 10
656.71957212236248
 20
598.73771636597803
 30
0.0
 10
666.20093113703979
 20
597.32265670759557
 30
0.0
 10
670.84961538509469
 20
597.32265670759557
 30
0.0
  0
ARC
  5
2CC
100
AcDbEntity
  8
overflow
370
              15
390
0
  6
Continuous
 62
               7
100
AcDbCircle
 10
666.74702966831501
 20
598.24516029417475
 30
0.0
 40
13.488839964423335
100
AcDbArc
 50
304.82582876441359
 51
41.877347580429102
  0
LINE
  5
2CD
100
AcDbEntity
  8
overflow
370
              15
390
0
  6
Continuous
 62
               7
100
AcDbLine
 10
432.28693790588335
 20
594.62294074743431
 30
0.0
 11
638.86688578599933
 21
588.06055611957765
 31
0.0
  0
LINE
  5
2CE
100
AcDbEntity
  8
overflow
370
              15
390
0
  6
Continuous
 62
               7
100
AcDbLine
 10
638.86688578599933
 20
588.06055611957765
 30
0.0
 11
650.19212321150144
 21
588.06055611957765
 31
0.0
  0
LINE
  5
2CF
100
AcDbEntity
  8
overflow
370
              15
390
0
  6
Continuous
 62
               7
100
AcDbLine
 10
651.98056711314575
 20
588.06055611957765
 30
0.0
 11
670.84961639182575
 21
587.3146234478661
 31
0.0
  0
LINE
  5
2D0
100
AcDbEntity
  8
overflow
370
              15
390
0
  6
Continuous
 62
               7
100
AcDbLine
 10
672.63806029347006
 20
587.24392254937038
 30
0.0
 11
674.45028605121252
 21
587.17228150475535
 31
0.0
  0
DIMENSION
  5
2D1
100
AcDbEntity
  8
overflow
370
               5
390
0
  6
Continuous
 62
               7
100
AcDbDimension
  2
*D4
 10
737.04075273760964
 20
566.37327765152781
 30
0.0
 11
737.04075273760964
 21
596.35708630012164
 31
0.0
 71
               5
 72
               1
 41
1.0
 42
0.0
  3
Tform線あり
100
AcDbAlignedDimension
 13
686.0989636229433
 23
626.34089494871534
 33
0.0
 14
684.87654170302449
 24
566.37327765152781
 34
0.0
 50
90.0
100
AcDbRotatedDimension
1001
ACAD
1000
DSTYLE
1002
{
1070
             279
1070
               2
1070
             340
1005
3C
1070
             147
1040
2.5
1002
}
  0
DIMENSION
  5
2D2
100
AcDbEntity
  8
overflow
370
               5
390
0
  6
Continuous
 62
               7
100
AcDbDimension
  2
*D5
 10
737.04075273760964
 20
626.34089494871534
 30
0.0
 11
739.54075273760964
 21
658.90768406338168
 31
0.0
 70
             128
 71
               5
 72
               1
 41
1.0
 42
0.0
  3
Tform線あり
100
AcDbAlignedDimension
 13
685.35457426883522
 23
648.32828286400763
 33
0.0
 14
686.0989636229433
 24
626.34089494871534
 34
0.0
 50
90.0
100
AcDbRotatedDimension
1001
ACAD
1000
DSTYLE
1002
{
1070
             279
1070
               2
1070
             340
1005
3C
1070
             174
1070
               0
1070
             147
1040
2.5
1002
}
  0
DIMENSION
  5
2D3
100
AcDbEntity
  8
overflow
370
               5
390
0
  6
Continuous
 62
               7
100
AcDbDimension
  2
*D6
 10
628.35739708949268
 20
478.37327765152804
 30
0.0
 11
685.78608970519736
 21
480.87327765152804
 31
0.0
 70
             128
 71
               5
 72
               1
 41
1.0
 42
0.0
  1
G1 1/4
  3
Tform線あり
100
AcDbAlignedDimension
 13
673.81529323515451
 23
528.37327765152804
 33
0.0
 14
628.35739708949268
 24
528.37327765152804
 34
0.0
100
AcDbRotatedDimension
1001
ACAD
1000
DSTYLE
1002
{
1070
             279
1070
               2
1070
             340
1005
3C
1070
             174
1070
               0
1070
             147
1040
2.5
1002
}
  0
MTEXT
  5
2D4
100
AcDbEntity
  8
overflow
390
0
 62
               7
100
AcDbMText
 10
370.69233970519775
 20
952.8911496277301
 30
0.0
 40
24.432617187500004
 41
0.0
 71
               1
 72
               1
  1
インボードオーバーフロー
  7
ＭＳ ゴシック
 73
               1
 44
0.7828267384257843
  0
MTEXT
  5
2D5
100
AcDbEntity
  8
template
390
0
 62
               7
100
AcDbMText
 10
-967.99999999975921
 20
-1147.4176292337002
 30
0.0
 40
16.288411458333332
 41
0.0
 71
               1
 72
               1
  1
品名
  7
ＭＳ ゴシック
 73
               1
 44
0.7828267384257843
  0
MTEXT
  5
2D6
100
AcDbEntity
  8
template
390
0
 62
               7
100
AcDbMText
 10
-967.99999999975921
 20
-1232.4176292337002
 30
0.0
 40
16.288411458333332
 41
0.0
 71
               1
 72
               1
  1
仕様
  7
ＭＳ ゴシック
 73
               1
 44
0.7828267384257843
  0
LINE
  5
2D7
100
AcDbEntity
  8
template
370
               5
390
0
  6
Continuous
 62
               7
100
AcDbLine
 10
974.99999999975876
 20
-1224.0027073587003
 30
0.0
 11
-975.00000000024124
 21
-1224.0027073587003
 31
0.0
  0
LWPOLYLINE
  5
2D8
100
AcDbEntity
  8
template
370
               5
390
0
  6
Continuous
 62
               7
100
AcDbPolyline
 90
        5
 70
             128
 10
975.00000000024124
 20
1405.9972926412995
 10
-974.99999999975921
 20
1405.9972926412995
 10
-974.99999999975921
 20
-1394.0027073587003
 10
975.00000000024124
 20
-1394.0027073587003
 10
975.00000000024124
 20
1405.9972926412995
  0
LINE
  5
2D9
100
AcDbEntity
  8
template
370
               5
390
0
  6
Continuous
 62
               7
100
AcDbLine
 10
974.99999999975876
 20
-1139.0027073587003
 30
0.0
 11
-975.00000000024124
 21
-1139.0027073587003
 31
0.0
  0
LINE
  5
2DA
100
AcDbEntity
  8
template
370
               5
390
0
  6
Continuous
 62
               7
100
AcDbLine
 10
975.00000000024124
 20
-1309.0027073587003
 30
0.0
 11
222.00000000024124
 21
-1309.0027073587003
 31
0.0
  0
MTEXT
  5
2DB
100
AcDbEntity
  8
template
390
0
 62
               7
100
AcDbMText
 10
251.87140625250089
 20
-1338.9131018320081
 30
0.0
 40
24.432617187500004
 41
0.0
 71
               1
 72
               1
  1
大洋金物株式会社 ティーフォルム事業部
  7
ＭＳ ゴシック
 73
               1
 44
0.7828267384257843
  0
INSERT
  5
2DC
100
AcDbEntity
  8
template
390
0
 62
               7
100
AcDbBlockReference
  2
グループ
 10
0.1318955801571633
 20
678.99935836249267
 30
0.0
  0
MTEXT
  5
2DD
100
AcDbEntity
  8
template
390
0
 62
               7
100
AcDbMText
 10
784.00000000049999
 20
-1261.0000901712006
 30
0.0
 40
24.432617187500004
 41
0.0
 71
               1
 72
               1
  1
1:10
  7
ＭＳ ゴシック
 73
               1
 44
0.7828267384257843
  0
MTEXT
  5
2DE
100
AcDbEntity
  8
template
390
0
 62
               7
100
AcDbMText
 10
731.00000000049999
 20
-1232.4176292337002
 30
0.0
 40
16.288411458333332
 41
0.0
 71
               1
 72
               1
  1
縮尺
  7
ＭＳ ゴシック
 73
               1
 44
0.7828267384257843
  0
LINE
  5
2DF
100
AcDbEntity
  8
template
370
               5
390
0
  6
Continuous
 62
               7
100
AcDbLine
 10
724.00000000049999
 20
-1309.0027073587003
 30
0.0
 11
724.00000000049999
 21
-1224.0027073587003
 31
0.0
  0
MTEXT
  5
2E0
100
AcDbEntity
  8
template
390
0
 62
               7
100
AcDbMText
 10
480.00000000049999
 20
-1232.4176292337002
 30
0.0
 40
16.288411458333332
 41
0.0
 71
               1
 72
               1
  1
容量
  7
ＭＳ ゴシック
 73
               1
 44
0.7828267384257843
  0
MTEXT
  5
2E1
100
AcDbEntity
  8
template
390
0
 62
               7
100
AcDbMText
 10
533.00000000049999
 20
-1261.0000901712006
 30
0.0
 40
24.432617187500004
 41
0.0
 71
               1
 72
               1
  1
4.5L
  7
ＭＳ ゴシック
 73
               1
 44
0.7828267384257843
  0
LINE
  5
2E2
100
AcDbEntity
  8
template
370
               5
390
0
  6
Continuous
 62
               7
100
AcDbLine
 10
473.00000000049999
 20
-1309.0027073587003
 30
0.0
 11
473.00000000049999
 21
-1224.0027073587003
 31
0.0
  0
MTEXT
  5
2E3
100
AcDbEntity
  8
template
390
0
 62
               7
100
AcDbMText
 10
229.00000000049999
 20
-1147.4176292337002
 30
0.0
 40
16.288411458333332
 41
0.0
 71
               1
 72
               1
  1
品番
  7
ＭＳ ゴシック
 73
               1
 44
0.7828267384257843
  0
MTEXT
  5
2E4
100
AcDbEntity
  8
template
390
0
 62
               7
100
AcDbMText
 10
229.00000000049999
 20
-1232.4176292337002
 30
0.0
 40
16.288411458333332
 41
0.0
 71
               1
 72
               1
  1
重量
  7
ＭＳ ゴシック
 73
               1
 44
0.7828267384257843
  0
MTEXT
  5
2E5
100
AcDbEntity
  8
template
390
0
 62
               7
100
AcDbMText
 10
282.00000000049999
 20
-1176.0000901712006
 30
0.0
 40
24.432617187500004
 41
0.0
 71
               1
 72
               1
  1
GAR70-0102
  7
ＭＳ ゴシック
 73
               1
 44
0.7828267384257843
  0
MTEXT
  5
2E6
100
AcDbEntity
  8
template
390
0
 62
               7
100
AcDbMText
 10
282.00000000049999
 20
-1261.0000901712006
 30
0.0
 40
24.432617187500004
 41
0.0
 71
               1
 72
               1
  1
14.5kg
  7
ＭＳ ゴシック
 73
               1
 44
0.7828267384257843
  0
LINE
  5
2E7
100
AcDbEntity
  8
template
370
               5
390
0
  6
Continuous
 62
               7
100
AcDbLine
 10
222.00000000049999
 20
-1394.0027073587003
 30
0.0
 11
222.00000000049999
 21
-1139.0027073587003
 31
0.0
  0
MTEXT
  5
2E8
100
AcDbEntity
  8
template
390
0
 62
               7
100
AcDbMText
 10
-914.99999999975921
 20
-1176.0000901712006
 30
0.0
 40
24.432617187500004
 41
0.0
 71
               1
 72
               1
  1
洗面器 -Laufen,Mylife-
  7
ＭＳ ゴシック
 73
               1
 44
0.7828267384257843
  0
MTEXT
  5
2E9
100
AcDbEntity
  8
template
390
0
 62
               7
100
AcDbMText
 10
-914.99999999975921
 20
-1261.0000901712006
 30
0.0
 40
24.432617187500004
 41
0.0
 71
               1
 72
               1
  1
壁掛け/インボードオーバーフロー,壁取付ボルト付属/陶器/ホワイト
  7
ＭＳ ゴシック
 73
               1
 44
1.1307497332816883
  0
MTEXT
  5
2EA
100
AcDbEntity
  8
template
390
0
 62
               7
100
AcDbMText
 10
-974.99999999955594
 20
-1405.8565294155574
 30
0.0
 40
21.717881944444446
 41
0.0
 71
               1
 72
               1
  1
120224SH
  7
ＭＳ ゴシック
 73
               1
 44
0.7828267384257843
  0
MTEXT
  5
2EB
100
AcDbEntity
  8
notes
390
0
 62
               7
100
AcDbMText
 10
-702.05741577946333
 20
199.86223184978104
 30
0.0
 40
21.828125
 41
741.67412899060196
 71
               1
 72
               1
  1
＝φ30もしくはφ35の水栓取付用穴あけ加工を承ります。\P   必要な場合、ご注文の際にご指示ください。
  7
MS UI Gothic
 73
               1
 44
1.1683096020445418
  0
MTEXT
  5
2EC
100
AcDbEntity
  8
notes
390
0
 62
               7
100
AcDbMText
 10
-128.70368563002125
 20
-335.2129469162951
 30
0.0
 40
21.828125
 41
0.0
 71
               1
 72
               1
  1
壁取付ボルト穴(2ヶ所)
  7
MS UI Gothic
 73
               1
 44
0.8762322015334064
  0
LINE
  5
2ED
100
AcDbEntity
  8
notes
370
               5
390
0
  6
Continuous
 62
               7
100
AcDbLine
 10
-219.39231790676115
 20
-450.50000000000011
 30
0.0
 11
-130.28164083734117
 21
-364.56677531160165
 31
0.0
  0
CIRCLE
  5
2EE
100
AcDbEntity
  8
notes
370
               5
390
0
  6
STYLE_12
 62
               7
100
AcDbCircle
 10
-732.42528422164355
 20
186.04204436249154
 30
0.0
 40
17.500000000000075
  0
DIMENSION
  5
2EF
100
AcDbEntity
  8
notes
370
               5
390
0
  6
Continuous
 62
               7
100
AcDbDimension
  2
*D8
 10
116.02947665792095
 20
349.99979449999978
 30
0.0
 11
116.02947665792095
 21
614.99989724999989
 31
0.0
 71
               5
 72
               1
 41
1.0
 42
0.0
  3
tfrom線あり
100
AcDbAlignedDimension
 13
16.999515260914578
 23
880.0
 33
0.0
 14
-231.00048473908549
 24
349.99979449999978
 34
0.0
 50
90.0
100
AcDbRotatedDimension
1001
ACAD
1000
DSTYLE
1002
{
1070
             279
1070
               2
1070
             340
1005
3B
1070
             140
1040
21.828125
1070
             147
1040
5.0
1002
}
  0
DIMENSION
  5
2F0
100
AcDbEntity
  8
notes
370
               5
390
0
  6
Continuous
 62
               7
100
AcDbDimension
  2
*D9
 10
-458.97051040651019
 20
979.99999999999989
 30
0.0
 11
-408.97051040651019
 21
979.99999999999989
 31
0.0
 71
               5
 72
               1
 41
1.0
 42
0.0
  3
tfrom線あり
100
AcDbAlignedDimension
 13
-358.97051040651019
 23
811.25000749999992
 33
0.0
 14
-458.97051040651019
 24
804.3131934999999
 34
0.0
100
AcDbRotatedDimension
1001
ACAD
1000
DSTYLE
1002
{
1070
             279
1070
               2
1070
             340
1005
3B
1070
             140
1040
21.828125
1070
             147
1040
5.0
1002
}
  0
DIMENSION
  5
2F1
100
AcDbEntity
  8
notes
370
               5
390
0
  6
Continuous
 62
               7
100
AcDbDimension
  2
*D10
 10
-358.97051040651019
 20
979.99999999999989
 30
0.0
 11
-308.97051040651036
 21
979.99999999999989
 31
0.0
 71
               5
 72
               1
 41
1.0
 42
0.0
  3
tfrom線あり
100
AcDbAlignedDimension
 13
-258.97051040651053
 23
804.3131934999999
 33
0.0
 14
-358.97051040651019
 24
811.25000749999992
 34
0.0
100
AcDbRotatedDimension
1001
ACAD
1000
DSTYLE
1002
{
1070
             279
1070
               2
1070
             340
1005
3B
1070
             140
1040
21.828125
1070
             147
1040
5.0
1002
}
  0
DIMENSION
  5
2F2
100
AcDbEntity
  8
notes
370
               5
390
0
  6
Continuous
 62
               7
100
AcDbDimension
  2
*D11
 10
-733.97051740651114
 20
1030.0000004695294
 30
0.0
 11
-358.9705249065205
 21
1030.0000004695294
 31
0.0
 71
               5
 72
               1
 41
1.0
 42
0.0
  3
tfrom線あり
100
AcDbAlignedDimension
 13
16.029467593470102
 23
874.00000821095387
 33
0.0
 14
-733.97051740651114
 24
874.00000749999992
 34
0.0
100
AcDbRotatedDimension
1001
ACAD
1000
DSTYLE
1002
{
1070
             279
1070
               2
1070
             340
1005
3B
1070
             140
1040
21.828125
1070
             147
1040
5.0
1002
}
  0
DIMENSION
  5
2F3
100
AcDbEntity
  8
notes
370
               5
390
0
  6
Continuous
 62
               7
100
AcDbDimension
  2
*D12
 10
-833.9705374537873
 20
399.67515929260719
 30
0.0
 11
-838.9705374537873
 21
570.18696697927362
 31
0.0
 70
             128
 71
               5
 72
               1
 41
1.0
 42
0.0
  3
tfrom線あり
100
AcDbAlignedDimension
 13
-735.00048473908555
 23
749.67515929260719
 33
0.0
 14
-735.00048473908555
 24
399.67515929260719
 34
0.0
 50
90.0
100
AcDbRotatedDimension
1001
ACAD
1000
DSTYLE
1002
{
1070
             279
1070
               2
1070
             340
1005
3B
1070
             140
1040
21.828125
1070
             147
1040
5.0
1002
}
  0
DIMENSION
  5
2F4
100
AcDbEntity
  8
notes
370
               5
390
0
  6
Continuous
 62
               7
100
AcDbDimension
  2
*D13
 10
-833.9705374537873
 20
749.72450029259767
 30
0.0
 11
-833.9705374537873
 21
814.72450029259767
 31
0.0
 71
               5
 72
               1
 41
1.0
 42
0.0
  3
tfrom線あり
100
AcDbAlignedDimension
 13
-729.70384265765915
 23
879.72450029259767
 33
0.0
 14
-733.9705260635867
 24
749.72450029259767
 34
0.0
 50
90.0
100
AcDbRotatedDimension
1001
ACAD
1000
DSTYLE
1002
{
1070
             279
1070
               2
1070
             340
1005
3B
1070
             140
1040
21.828125
1070
             147
1040
5.0
1002
}
  0
DIMENSION
  5
2F5
100
AcDbEntity
  8
notes
370
               5
390
0
  6
Continuous
 62
               7
100
AcDbDimension
  2
*D14
 10
-499.39231790676098
 20
-301.02167013713483
 30
0.0
 11
-359.39231790676109
 21
-301.02167013713483
 31
0.0
 71
               5
 72
               1
 41
1.0
 42
0.0
  3
tfrom線あり
100
AcDbAlignedDimension
 13
-219.39231790676115
 23
-449.02961999951697
 33
0.0
 14
-499.39231790676098
 24
-450.50702344314175
 34
0.0
100
AcDbRotatedDimension
1001
ACAD
1000
DSTYLE
1002
{
1070
             279
1070
               2
1070
             340
1005
3B
1070
             140
1040
21.828125
1070
             147
1040
5.0
1002
}
  0
DIMENSION
  5
2F6
100
AcDbEntity
  8
notes
370
               5
390
0
  6
Continuous
 62
               7
100
AcDbDimension
  2
*D15
 10
-833.97054840651094
 20
-450.50702344314175
 30
0.0
 11
-833.97054840651094
 21
-425.50701258064885
 31
0.0
 71
               5
 72
               1
 41
1.0
 42
0.0
  3
tfrom線あり
100
AcDbAlignedDimension
 13
-509.00048473908549
 23
-400.50700171815618
 33
0.0
 14
-509.00048473908549
 24
-450.50702344314175
 34
0.0
 50
90.0
100
AcDbRotatedDimension
1001
ACAD
1000
DSTYLE
1002
{
1070
             279
1070
               2
1070
             340
1005
3B
1070
             140
1040
21.828125
1070
             147
1040
5.0
1002
}
  0
DIMENSION
  5
2F7
100
AcDbEntity
  8
notes
370
               5
390
0
  6
Continuous
 62
               7
100
AcDbDimension
  2
*D16
 10
114.45076778132994
 20
-400.48701786033428
 30
0.0
 11
114.45076778132994
 21
-485.48701786033428
 31
0.0
 71
               5
 72
               1
 41
1.0
 42
0.0
  3
tfrom線あり
100
AcDbAlignedDimension
 13
-151.61991075776172
 23
-570.48701786033428
 33
0.0
 14
-167.53006419887583
 24
-400.48701786033428
 34
0.0
 50
90.0
100
AcDbRotatedDimension
1001
ACAD
1000
DSTYLE
1002
{
1070
             279
1070
               2
1070
             340
1005
3B
1070
             140
1040
21.828125
1070
             147
1040
5.0
1002
}
  0
DIMENSION
  5
2F8
100
AcDbEntity
  8
notes
370
               5
390
0
  6
Continuous
 62
               7
100
AcDbDimension
  2
*D17
 10
848.98783185029083
 20
-670.48962529958737
 30
0.0
 11
723.98767185028964
 21
-670.48962529958737
 31
0.0
 71
               5
 72
               1
 41
1.0
 42
0.0
  3
tfrom線あり
100
AcDbAlignedDimension
 13
598.98751185028868
 23
-570.48962529958737
 33
0.0
 14
848.98783185029083
 24
-570.63811271815632
 34
0.0
100
AcDbRotatedDimension
1001
ACAD
1000
DSTYLE
1002
{
1070
             279
1070
               2
1070
             340
1005
3B
1070
             140
1040
21.828125
1070
             147
1040
5.0
1002
}
  0
DIMENSION
  5
2F9
100
AcDbEntity
  8
notes
370
               5
390
0
  6
Continuous
 62
               7
100
AcDbDimension
  2
*D18
 10
848.98783185029083
 20
-301.02167013713472
 30
0.0
 11
808.98783185029083
 21
-301.02167013713472
 31
0.0
 71
               5
 72
               1
 41
1.0
 42
0.0
  3
tfrom線あり
100
AcDbAlignedDimension
 13
768.98783185029083
 23
-400.50700171815618
 33
0.0
 14
848.98783185029083
 24
-400.50700171815618
 34
0.0
100
AcDbRotatedDimension
1001
ACAD
1000
DSTYLE
1002
{
1070
             279
1070
               2
1070
             340
1005
3B
1070
             140
1040
21.828125
1070
             147
1040
5.0
1002
}
  0
DIMENSION
  5
2FA
100
AcDbEntity
  8
notes
370
               5
390
0
  6
Continuous
 62
               7
100
AcDbDimension
  2
*D19
 10
-658.97051240651126
 20
249.99979449999984
 30
0.0
 11
-358.97051738989938
 21
249.99979449999984
 31
0.0
 71
               5
 72
               1
 41
1.0
 42
0.0
  3
tfrom線あり
100
AcDbAlignedDimension
 13
-58.970522373287537
 23
379.43291062158733
 33
0.0
 14
-658.97051240651126
 24
379.43291347615821
 34
0.0
100
AcDbRotatedDimension
1001
ACAD
1000
DSTYLE
1002
{
1070
             279
1070
               2
1070
             340
1005
3B
1070
             140
1040
21.828125
1070
             147
1040
5.0
1002
}
  0
DIMENSION
  5
2FB
100
AcDbEntity
  8
notes
370
               5
390
0
  6
Continuous
 62
               7
100
AcDbDimension
  2
*D20
 10
559.74629720784446
 20
-522.60789422012306
 30
0.0
 11
554.74629720784446
 21
-397.39210577987717
 31
0.0
 70
             128
 71
               5
 72
               1
 41
1.0
 42
0.0
  1
120（深さ）
  3
tfrom線あり
100
AcDbAlignedDimension
 13
625.46220117088114
 23
-412.00000000000011
 33
0.0
 14
625.46220117088114
 24
-522.60789422012306
 34
0.0
 50
90.0
100
AcDbRotatedDimension
1001
ACAD
1000
DSTYLE
1002
{
1070
             279
1070
               2
1070
             340
1005
3B
1070
             140
1040
21.828125
1070
             174
1070
               0
1070
             147
1040
5.0
1002
}
  0
DIMENSION
  5
2FC
100
AcDbEntity
  8
notes
370
               5
390
0
  6
Continuous
 62
               7
100
AcDbDimension
  2
*D21
 10
218.20799688793883
 20
-409.0584187181563
 30
0.0
 11
218.20799688793883
 21
-484.0584187181563
 31
0.0
 71
               5
 72
               1
 41
1.0
 42
0.0
  3
tfrom線あり
100
AcDbAlignedDimension
 13
575.45224681810919
 23
-559.0584187181563
 33
0.0
 14
383.98720685028843
 24
-409.0584187181563
 34
0.0
 50
90.0
100
AcDbRotatedDimension
1001
ACAD
1000
DSTYLE
1002
{
1070
             279
1070
               2
1070
             340
1005
3C
1070
             147
1040
5.0
1002
}
  0
POLYLINE
  5
2FD
100
AcDbEntity
  8
GAR70-0102
370
              15
390
0
  6
Continuous
 62
               7
100
AcDb3dPolyline
 66
               1
 10
0.0
 20
0.0
 30
0.0
 70
               8
  0
VERTEX
  5
2FE
100
AcDbEntity
  8
GAR70-0102
370
              15
390
0
  6
Continuous
 62
               7
100
AcDbVertex
100
AcDb3dPolylineVertex
 10
498.19022485028853
 20
-562.4989357181563
 30
0.0
 70
              32
  0
VERTEX
  5
2FF
100
AcDbEntity
  8
GAR70-0102
370
              15
390
0
  6
Continuous
 62
               7
100
AcDbVertex
100
AcDb3dPolylineVertex
 10
848.98783185029083
 20
-570.63811271815632
 30
0.0
 70
              32
  0
SEQEND
  5
300
100
AcDbEntity
  8
GAR70-0102
370
              15
390
0
  6
Continuous
 62
               7
  0
POLYLINE
  5
301
100
AcDbEntity
  8
GAR70-0102
370
              15
390
0
  6
Continuous
 62
               7
100
AcDb3dPolyline
 66
               1
 10
0.0
 20
0.0
 30
0.0
 70
               8
  0
VERTEX
  5
302
100
AcDbEntity
  8
GAR70-0102
370
              15
390
0
  6
Continuous
 62
               7
100
AcDbVertex
100
AcDb3dPolylineVertex
 10
683.85299085029101
 20
-411.34538871815641
 30
0.0
 70
              32
  0
VERTEX
  5
303
100
AcDbEntity
  8
GAR70-0102
370
              15
390
0
  6
Continuous
 62
               7
100
AcDbVertex
100
AcDb3dPolylineVertex
 10
398.79888285028841
 20
-414.61111271815628
 30
0.0
 70
              32
  0
SEQEND
  5
304
100
AcDbEntity
  8
GAR70-0102
370
              15
390
0
  6
Continuous
 62
               7
  0
POLYLINE
  5
305
100
AcDbEntity
  8
GAR70-0102
370
              15
390
0
  6
Continuous
 62
               7
100
AcDb3dPolyline
 66
               1
 10
0.0
 20
0.0
 30
0.0
 70
               8
  0
VERTEX
  5
306
100
AcDbEntity
  8
GAR70-0102
370
              15
390
0
  6
Continuous
 62
               7
100
AcDbVertex
100
AcDb3dPolylineVertex
 10
848.98783185029083
 20
-400.50700171815618
 30
0.0
 70
              32
  0
VERTEX
  5
307
100
AcDbEntity
  8
GAR70-0102
370
              15
390
0
  6
Continuous
 62
               7
100
AcDbVertex
100
AcDb3dPolylineVertex
 10
848.98783185029083
 20
-570.63811271815632
 30
0.0
 70
              32
  0
SEQEND
  5
308
100
AcDbEntity
  8
GAR70-0102
370
              15
390
0
  6
Continuous
 62
               7
  0
POLYLINE
  5
309
100
AcDbEntity
  8
GAR70-0102
370
              15
390
0
  6
Continuous
 62
               7
100
AcDb3dPolyline
 66
               1
 10
0.0
 20
0.0
 30
0.0
 70
               8
  0
VERTEX
  5
30A
100
AcDbEntity
  8
GAR70-0102
370
              15
390
0
  6
Continuous
 62
               7
100
AcDbVertex
100
AcDb3dPolylineVertex
 10
721.35430285029088
 20
-402.78085171815621
 30
0.0
 70
              32
  0
VERTEX
  5
30B
100
AcDbEntity
  8
GAR70-0102
370
              15
390
0
  6
Continuous
 62
               7
100
AcDbVertex
100
AcDb3dPolylineVertex
 10
848.98783185029083
 20
-400.50700171815618
 30
0.0
 70
              32
  0
SEQEND
  5
30C
100
AcDbEntity
  8
GAR70-0102
370
              15
390
0
  6
Continuous
 62
               7
  0
POLYLINE
  5
30D
100
AcDbEntity
  8
GAR70-0102
370
              15
390
0
  6
Continuous
 62
               7
100
AcDb3dPolyline
 66
               1
 10
0.0
 20
0.0
 30
0.0
 70
               8
  0
VERTEX
  5
30E
100
AcDbEntity
  8
GAR70-0102
370
              15
390
0
  6
Continuous
 62
               7
100
AcDbVertex
100
AcDb3dPolylineVertex
 10
848.98783185029083
 20
-411.25212671815632
 30
0.0
 70
              32
  0
VERTEX
  5
30F
100
AcDbEntity
  8
GAR70-0102
370
              15
390
0
  6
Continuous
 62
               7
100
AcDbVertex
100
AcDb3dPolylineVertex
 10
683.85298285029103
 20
-411.25212671815632
 30
0.0
 70
              32
  0
SEQEND
  5
310
100
AcDbEntity
  8
GAR70-0102
370
              15
390
0
  6
Continuous
 62
               7
  0
POLYLINE
  5
311
100
AcDbEntity
  8
GAR70-0102
370
              15
390
0
  6
Continuous
 62
               7
100
AcDb3dPolyline
 66
               1
 10
0.0
 20
0.0
 30
0.0
 70
               8
  0
VERTEX
  5
312
100
AcDbEntity
  8
GAR70-0102
370
              15
390
0
  6
Continuous
 62
               7
100
AcDbVertex
100
AcDb3dPolylineVertex
 10
683.8550161793446
 20
-411.34507468051731
 30
0.0
 70
              32
  0
VERTEX
  5
313
100
AcDbEntity
  8
GAR70-0102
370
              15
390
0
  6
Continuous
 62
               7
100
AcDbVertex
100
AcDb3dPolylineVertex
 10
688.33302753447811
 20
-410.6109086770158
 30
0.0
 70
              32
  0
VERTEX
  5
314
100
AcDbEntity
  8
GAR70-0102
370
              15
390
0
  6
Continuous
 62
               7
100
AcDbVertex
100
AcDb3dPolylineVertex
 10
692.79596039857961
 20
-409.79004591873934
 30
0.0
 70
              32
  0
VERTEX
  5
315
100
AcDbEntity
  8
GAR70-0102
370
              15
390
0
  6
Continuous
 62
               7
100
AcDbVertex
100
AcDb3dPolylineVertex
 10
697.24213643752523
 20
-408.882795099997
 30
0.0
 70
              32
  0
VERTEX
  5
316
100
AcDbEntity
  8
GAR70-0102
370
              15
390
0
  6
Continuous
 62
               7
100
AcDbVertex
100
AcDb3dPolylineVertex
 10
701.66988361877634
 20
-407.88949740226201
 30
0.0
 70
              32
  0
VERTEX
  5
317
100
AcDbEntity
  8
GAR70-0102
370
              15
390
0
  6
Continuous
 62
               7
100
AcDbVertex
100
AcDb3dPolylineVertex
 10
706.07753684016529
 20
-406.81052636586548
 30
0.0
 70
              32
  0
VERTEX
  5
318
100
AcDbEntity
  8
GAR70-0102
370
              15
390
0
  6
Continuous
 62
               7
100
AcDbVertex
100
AcDb3dPolylineVertex
 10
710.46343855607529
 20
-405.64628774952382
 30
0.0
 70
              32
  0
VERTEX
  5
319
100
AcDbEntity
  8
GAR70-0102
370
              15
390
0
  6
Continuous
 62
               7
100
AcDbVertex
100
AcDb3dPolylineVertex
 10
714.82593940077777
 20
-404.39721937774755
 30
0.0
 70
              32
  0
VERTEX
  5
31A
100
AcDbEntity
  8
GAR70-0102
370
              15
390
0
  6
Continuous
 62
               7
100
AcDbVertex
100
AcDb3dPolylineVertex
 10
719.16339880869532
 20
-403.06379097619367
 30
0.0
 70
              32
  0
SEQEND
  5
31B
100
AcDbEntity
  8
GAR70-0102
370
              15
390
0
  6
Continuous
 62
               7
  0
POLYLINE
  5
31C
100
AcDbEntity
  8
GAR70-0102
370
              15
390
0
  6
Continuous
 62
               7
100
AcDb3dPolyline
 66
               1
 10
0.0
 20
0.0
 30
0.0
 70
               8
  0
VERTEX
  5
31D
100
AcDbEntity
  8
GAR70-0102
370
              15
390
0
  6
Continuous
 62
               7
100
AcDbVertex
100
AcDb3dPolylineVertex
 10
719.16155589751679
 20
-403.06438048482471
 30
0.0
 70
              32
  0
VERTEX
  5
31E
100
AcDbEntity
  8
GAR70-0102
370
              15
390
0
  6
Continuous
 62
               7
100
AcDbVertex
100
AcDb3dPolylineVertex
 10
719.43147590040758
 20
-403.00245494665694
 30
0.0
 70
              32
  0
VERTEX
  5
31F
100
AcDbEntity
  8
GAR70-0102
370
              15
390
0
  6
Continuous
 62
               7
100
AcDbVertex
100
AcDb3dPolylineVertex
 10
719.70300715501503
 20
-402.94802739839963
 30
0.0
 70
              32
  0
VERTEX
  5
320
100
AcDbEntity
  8
GAR70-0102
370
              15
390
0
  6
Continuous
 62
               7
100
AcDbVertex
100
AcDb3dPolylineVertex
 10
719.97594141972877
 20
-402.90113958139989
 30
0.0
 70
              32
  0
VERTEX
  5
321
100
AcDbEntity
  8
GAR70-0102
370
              15
390
0
  6
Continuous
 62
               7
100
AcDbVertex
100
AcDb3dPolylineVertex
 10
720.25006937694866
 20
-402.86182745466533
 30
0.0
 70
              32
  0
VERTEX
  5
322
100
AcDbEntity
  8
GAR70-0102
370
              15
390
0
  6
Continuous
 62
               7
100
AcDbVertex
100
AcDb3dPolylineVertex
 10
720.52518079361221
 20
-402.8301211672873
 30
0.0
 70
              32
  0
VERTEX
  5
323
100
AcDbEntity
  8
GAR70-0102
370
              15
390
0
  6
Continuous
 62
               7
100
AcDbVertex
100
AcDb3dPolylineVertex
 10
720.80106468242661
 20
-402.80604503531856
 30
0.0
 70
              32
  0
VERTEX
  5
324
100
AcDbEntity
  8
GAR70-0102
370
              15
390
0
  6
Continuous
 62
               7
100
AcDbVertex
100
AcDb3dPolylineVertex
 10
721.0775094636781
 20
-402.78961752312523
 30
0.0
 70
              32
  0
VERTEX
  5
325
100
AcDbEntity
  8
GAR70-0102
370
              15
390
0
  6
Continuous
 62
               7
100
AcDbVertex
100
AcDb3dPolylineVertex
 10
721.35430312749486
 20
-402.78085122922596
 30
0.0
 70
              32
  0
SEQEND
  5
326
100
AcDbEntity
  8
GAR70-0102
370
              15
390
0
  6
Continuous
 62
               7
  0
POLYLINE
  5
327
100
AcDbEntity
  8
GAR70-0102
370
              15
390
0
  6
Continuous
 62
               7
100
AcDb3dPolyline
 66
               1
 10
0.0
 20
0.0
 30
0.0
 70
               8
  0
VERTEX
  5
328
100
AcDbEntity
  8
GAR70-0102
370
              15
390
0
  6
Continuous
 62
               7
100
AcDbVertex
100
AcDb3dPolylineVertex
 10
348.11608930271012
 20
-475.38406750670663
 30
-0.000001
 70
              32
  0
VERTEX
  5
329
100
AcDbEntity
  8
GAR70-0102
370
              15
390
0
  6
Continuous
 62
               7
100
AcDbVertex
100
AcDb3dPolylineVertex
 10
365.42184549288021
 20
-486.23416800794155
 30
-0.000001
 70
              32
  0
VERTEX
  5
32A
100
AcDbEntity
  8
GAR70-0102
370
              15
390
0
  6
Continuous
 62
               7
100
AcDbVertex
100
AcDb3dPolylineVertex
 10
382.77178161353112
 20
-497.01348128893721
 30
-0.000001
 70
              32
  0
VERTEX
  5
32B
100
AcDbEntity
  8
GAR70-0102
370
              15
390
0
  6
Continuous
 62
               7
100
AcDbVertex
100
AcDb3dPolylineVertex
 10
400.16560811929702
 20
-507.72182745852922
 30
-0.000001
 70
              32
  0
VERTEX
  5
32C
100
AcDbEntity
  8
GAR70-0102
370
              15
390
0
  6
Continuous
 62
               7
100
AcDbVertex
100
AcDb3dPolylineVertex
 10
417.60303473234598
 20
-518.3590278098917
 30
-0.000001
 70
              32
  0
VERTEX
  5
32D
100
AcDbEntity
  8
GAR70-0102
370
              15
390
0
  6
Continuous
 62
               7
100
AcDbVertex
100
AcDb3dPolylineVertex
 10
435.08377044722209
 20
-528.92490482352139
 30
-0.000001
 70
              32
  0
VERTEX
  5
32E
100
AcDbEntity
  8
GAR70-0102
370
              15
390
0
  6
Continuous
 62
               7
100
AcDbVertex
100
AcDb3dPolylineVertex
 10
452.6075235357045
 20
-539.4192821701962
 30
-0.000001
 70
              32
  0
VERTEX
  5
32F
100
AcDbEntity
  8
GAR70-0102
370
              15
390
0
  6
Continuous
 62
               7
100
AcDbVertex
100
AcDb3dPolylineVertex
 10
470.17400155167269
 20
-549.8419847139229
 30
-0.000001
 70
              32
  0
VERTEX
  5
330
100
AcDbEntity
  8
GAR70-0102
370
              15
390
0
  6
Continuous
 62
               7
100
AcDbVertex
100
AcDb3dPolylineVertex
 10
487.78291133599322
 20
-560.19283851485477
 30
-0.000001
 70
              32
  0
SEQEND
  5
331
100
AcDbEntity
  8
GAR70-0102
370
              15
390
0
  6
Continuous
 62
               7
  0
POLYLINE
  5
332
100
AcDbEntity
  8
GAR70-0102
370
              15
390
0
  6
Continuous
 62
               7
100
AcDb3dPolyline
 66
               1
 10
0.0
 20
0.0
 30
0.0
 70
               8
  0
VERTEX
  5
333
100
AcDbEntity
  8
GAR70-0102
370
              15
390
0
  6
Continuous
 62
               7
100
AcDbVertex
100
AcDb3dPolylineVertex
 10
486.83023736959257
 20
-559.63564096585094
 30
0.0
 70
              32
  0
VERTEX
  5
334
100
AcDbEntity
  8
GAR70-0102
370
              15
390
0
  6
Continuous
 62
               7
100
AcDbVertex
100
AcDb3dPolylineVertex
 10
488.13644792612462
 20
-560.33951784615795
 30
0.0
 70
              32
  0
VERTEX
  5
335
100
AcDbEntity
  8
GAR70-0102
370
              15
390
0
  6
Continuous
 62
               7
100
AcDbVertex
100
AcDb3dPolylineVertex
 10
489.48910045142128
 20
-560.94940293897082
 30
0.0
 70
              32
  0
VERTEX
  5
336
100
AcDbEntity
  8
GAR70-0102
370
              15
390
0
  6
Continuous
 62
               7
100
AcDbVertex
100
AcDb3dPolylineVertex
 10
490.88144202349935
 20
-561.46225148122369
 30
0.0
 70
              32
  0
VERTEX
  5
337
100
AcDbEntity
  8
GAR70-0102
370
              15
390
0
  6
Continuous
 62
               7
100
AcDbVertex
100
AcDb3dPolylineVertex
 10
492.30652157855269
 20
-561.87550315078568
 30
0.0
 70
              32
  0
VERTEX
  5
338
100
AcDbEntity
  8
GAR70-0102
370
              15
390
0
  6
Continuous
 62
               7
100
AcDbVertex
100
AcDb3dPolylineVertex
 10
493.75722461313347
 20
-562.18709484850058
 30
0.0
 70
              32
  0
VERTEX
  5
339
100
AcDbEntity
  8
GAR70-0102
370
              15
390
0
  6
Continuous
 62
               7
100
AcDbVertex
100
AcDb3dPolylineVertex
 10
495.22630870228039
 20
-562.39547099790968
 30
0.0
 70
              32
  0
VERTEX
  5
33A
100
AcDbEntity
  8
GAR70-0102
370
              15
390
0
  6
Continuous
 62
               7
100
AcDbVertex
100
AcDb3dPolylineVertex
 10
496.70643965627681
 20
-562.49959131124217
 30
0.0
 70
              32
  0
VERTEX
  5
33B
100
AcDbEntity
  8
GAR70-0102
370
              15
390
0
  6
Continuous
 62
               7
100
AcDbVertex
100
AcDb3dPolylineVertex
 10
498.19022813553255
 20
-562.49893598290134
 30
0.0
 70
              32
  0
SEQEND
  5
33C
100
AcDbEntity
  8
GAR70-0102
370
              15
390
0
  6
Continuous
 62
               7
  0
POLYLINE
  5
33D
100
AcDbEntity
  8
GAR70-0102
370
              15
390
0
  6
Continuous
 62
               7
100
AcDb3dPolyline
 66
               1
 10
0.0
 20
0.0
 30
0.0
 70
               8
  0
VERTEX
  5
33E
100
AcDbEntity
  8
GAR70-0102
370
              15
390
0
  6
Continuous
 62
               7
100
AcDbVertex
100
AcDb3dPolylineVertex
 10
368.98723685028853
 20
-409.05840871815633
 30
0.0
 70
              32
  0
VERTEX
  5
33F
100
AcDbEntity
  8
GAR70-0102
370
              15
390
0
  6
Continuous
 62
               7
100
AcDbVertex
100
AcDb3dPolylineVertex
 10
324.98720685028837
 20
-409.05842371815618
 30
0.0
 70
              32
  0
SEQEND
  5
340
100
AcDbEntity
  8
GAR70-0102
370
              15
390
0
  6
Continuous
 62
               7
  0
POLYLINE
  5
341
100
AcDbEntity
  8
GAR70-0102
370
              15
390
0
  6
Continuous
 62
               7
100
AcDb3dPolyline
 66
               1
 10
0.0
 20
0.0
 30
0.0
 70
               8
  0
VERTEX
  5
342
100
AcDbEntity
  8
GAR70-0102
370
              15
390
0
  6
Continuous
 62
               7
100
AcDbVertex
100
AcDb3dPolylineVertex
 10
398.79888285028841
 20
-414.61111271815628
 30
0.0
 70
              32
  0
VERTEX
  5
343
100
AcDbEntity
  8
GAR70-0102
370
              15
390
0
  6
Continuous
 62
               7
100
AcDbVertex
100
AcDb3dPolylineVertex
 10
319.00389985028841
 20
-414.61111271815628
 30
0.0
 70
              32
  0
SEQEND
  5
344
100
AcDbEntity
  8
GAR70-0102
370
              15
390
0
  6
Continuous
 62
               7
  0
POLYLINE
  5
345
100
AcDbEntity
  8
GAR70-0102
370
              15
390
0
  6
Continuous
 62
               7
100
AcDb3dPolyline
 66
               1
 10
0.0
 20
0.0
 30
0.0
 70
               8
  0
VERTEX
  5
346
100
AcDbEntity
  8
GAR70-0102
370
              15
390
0
  6
Continuous
 62
               7
100
AcDbVertex
100
AcDb3dPolylineVertex
 10
398.79883685028852
 20
-414.61113571815633
 30
0.0
 70
              32
  0
VERTEX
  5
347
100
AcDbEntity
  8
GAR70-0102
370
              15
390
0
  6
Continuous
 62
               7
100
AcDbVertex
100
AcDb3dPolylineVertex
 10
368.98723685028853
 20
-409.05840871815633
 30
0.0
 70
              32
  0
SEQEND
  5
348
100
AcDbEntity
  8
GAR70-0102
370
              15
390
0
  6
Continuous
 62
               7
  0
POLYLINE
  5
349
100
AcDbEntity
  8
GAR70-0102
370
              15
390
0
  6
Continuous
 62
               7
100
AcDb3dPolyline
 66
               1
 10
0.0
 20
0.0
 30
0.0
 70
               8
  0
VERTEX
  5
34A
100
AcDbEntity
  8
GAR70-0102
370
              15
390
0
  6
Continuous
 62
               7
100
AcDbVertex
100
AcDb3dPolylineVertex
 10
319.46294908123281
 20
-417.40014359444569
 30
0.0
 70
              32
  0
VERTEX
  5
34B
100
AcDbEntity
  8
GAR70-0102
370
              15
390
0
  6
Continuous
 62
               7
100
AcDbVertex
100
AcDb3dPolylineVertex
 10
322.51599235872908
 20
-424.41050476494604
 30
0.0
 70
              32
  0
VERTEX
  5
34C
100
AcDbEntity
  8
GAR70-0102
370
              15
390
0
  6
Continuous
 62
               7
100
AcDbVertex
100
AcDb3dPolylineVertex
 10
325.62254940667816
 20
-431.39731664898557
 30
0.0
 70
              32
  0
VERTEX
  5
34D
100
AcDbEntity
  8
GAR70-0102
370
              15
390
0
  6
Continuous
 62
               7
100
AcDbVertex
100
AcDb3dPolylineVertex
 10
328.78243859682351
 20
-438.36017075496318
 30
0.0
 70
              32
  0
VERTEX
  5
34E
100
AcDbEntity
  8
GAR70-0102
370
              15
390
0
  6
Continuous
 62
               7
100
AcDbVertex
100
AcDb3dPolylineVertex
 10
331.99547518278536
 20
-445.29865999199399
 30
0.0
 70
              32
  0
VERTEX
  5
34F
100
AcDbEntity
  8
GAR70-0102
370
              15
390
0
  6
Continuous
 62
               7
100
AcDbVertex
100
AcDb3dPolylineVertex
 10
335.26147131086435
 20
-452.21237869371282
 30
0.0
 70
              32
  0
VERTEX
  5
350
100
AcDbEntity
  8
GAR70-0102
370
              15
390
0
  6
Continuous
 62
               7
100
AcDbVertex
100
AcDb3dPolylineVertex
 10
338.5802360310235
 20
-459.10092264199068
 30
0.0
 70
              32
  0
VERTEX
  5
351
100
AcDbEntity
  8
GAR70-0102
370
              15
390
0
  6
Continuous
 62
               7
100
AcDbVertex
100
AcDb3dPolylineVertex
 10
341.95157530805085
 20
-465.96388909056748
 30
0.0
 70
              32
  0
VERTEX
  5
352
100
AcDbEntity
  8
GAR70-0102
370
              15
390
0
  6
Continuous
 62
               7
100
AcDbVertex
100
AcDb3dPolylineVertex
 10
345.37529203290745
 20
-472.8008767886007
 30
0.0
 70
              32
  0
SEQEND
  5
353
100
AcDbEntity
  8
GAR70-0102
370
              15
390
0
  6
Continuous
 62
               7
  0
POLYLINE
  5
354
100
AcDbEntity
  8
GAR70-0102
370
              15
390
0
  6
Continuous
 62
               7
100
AcDb3dPolyline
 66
               1
 10
0.0
 20
0.0
 30
0.0
 70
               8
  0
VERTEX
  5
355
100
AcDbEntity
  8
GAR70-0102
370
              15
390
0
  6
Continuous
 62
               7
100
AcDbVertex
100
AcDb3dPolylineVertex
 10
345.38591774608216
 20
-472.82182541304758
 30
0.0
 70
              32
  0
VERTEX
  5
356
100
AcDbEntity
  8
GAR70-0102
370
              15
390
0
  6
Continuous
 62
               7
100
AcDbVertex
100
AcDb3dPolylineVertex
 10
345.54837705577751
 20
-473.11786779629927
 30
0.0
 70
              32
  0
VERTEX
  5
357
100
AcDbEntity
  8
GAR70-0102
370
              15
390
0
  6
Continuous
 62
               7
100
AcDbVertex
100
AcDb3dPolylineVertex
 10
345.73044851809999
 20
-473.40226910184413
 30
0.0
 70
              32
  0
VERTEX
  5
358
100
AcDbEntity
  8
GAR70-0102
370
              15
390
0
  6
Continuous
 62
               7
100
AcDbVertex
100
AcDb3dPolylineVertex
 10
345.93130163869108
 20
-473.673732071578
 30
0.0
 70
              32
  0
VERTEX
  5
359
100
AcDbEntity
  8
GAR70-0102
370
              15
390
0
  6
Continuous
 62
               7
100
AcDbVertex
100
AcDb3dPolylineVertex
 10
346.15002025319603
 20
-473.93101846386674
 30
0.0
 70
              32
  0
VERTEX
  5
35A
100
AcDbEntity
  8
GAR70-0102
370
              15
390
0
  6
Continuous
 62
               7
100
AcDbVertex
100
AcDb3dPolylineVertex
 10
346.38560670622581
 20
-474.17295470161719
 30
0.0
 70
              32
  0
VERTEX
  5
35B
100
AcDbEntity
  8
GAR70-0102
370
              15
390
0
  6
Continuous
 62
               7
100
AcDbVertex
100
AcDb3dPolylineVertex
 10
346.63698640202659
 20
-474.39843722539024
 30
0.0
 70
              32
  0
VERTEX
  5
35C
100
AcDbEntity
  8
GAR70-0102
370
              15
390
0
  6
Continuous
 62
               7
100
AcDbVertex
100
AcDb3dPolylineVertex
 10
346.90301270610229
 20
-474.60643752713952
 30
0.0
 70
              32
  0
VERTEX
  5
35D
100
AcDbEntity
  8
GAR70-0102
370
              15
390
0
  6
Continuous
 62
               7
100
AcDbVertex
100
AcDb3dPolylineVertex
 10
347.18247217543393
 20
-474.79600684161016
 30
0.0
 70
              32
  0
SEQEND
  5
35E
100
AcDbEntity
  8
GAR70-0102
370
              15
390
0
  6
Continuous
 62
               7
  0
POLYLINE
  5
35F
100
AcDbEntity
  8
GAR70-0102
370
              15
390
0
  6
Continuous
 62
               7
100
AcDb3dPolyline
 66
               1
 10
0.0
 20
0.0
 30
0.0
 70
               8
  0
VERTEX
  5
360
100
AcDbEntity
  8
GAR70-0102
370
              15
390
0
  6
Continuous
 62
               7
100
AcDbVertex
100
AcDb3dPolylineVertex
 10
324.98720685028837
 20
-409.0584187181563
 30
0.0
 70
              32
  0
VERTEX
  5
361
100
AcDbEntity
  8
GAR70-0102
370
              15
390
0
  6
Continuous
 62
               7
100
AcDbVertex
100
AcDb3dPolylineVertex
 10
323.52048486441635
 20
-409.2404524627508
 30
0.0
 70
              32
  0
VERTEX
  5
362
100
AcDbEntity
  8
GAR70-0102
370
              15
390
0
  6
Continuous
 62
               7
100
AcDbVertex
100
AcDb3dPolylineVertex
 10
322.14276031750563
 20
-409.7755082924092
 30
0.0
 70
              32
  0
VERTEX
  5
363
100
AcDbEntity
  8
GAR70-0102
370
              15
390
0
  6
Continuous
 62
               7
100
AcDbVertex
100
AcDb3dPolylineVertex
 10
320.93763048119348
 20
-410.63112020539404
 30
0.0
 70
              32
  0
VERTEX
  5
364
100
AcDbEntity
  8
GAR70-0102
370
              15
390
0
  6
Continuous
 62
               7
100
AcDbVertex
100
AcDb3dPolylineVertex
 10
319.97821996265219
 20
-411.75537156737857
 30
0.0
 70
              32
  0
VERTEX
  5
365
100
AcDbEntity
  8
GAR70-0102
370
              15
390
0
  6
Continuous
 62
               7
100
AcDbVertex
100
AcDb3dPolylineVertex
 10
319.32274366551377
 20
-413.08004529773677
 30
0.0
 70
              32
  0
VERTEX
  5
366
100
AcDbEntity
  8
GAR70-0102
370
              15
390
0
  6
Continuous
 62
               7
100
AcDbVertex
100
AcDb3dPolylineVertex
 10
319.01097443855741
 20
-414.52476313078739
 30
0.0
 70
              32
  0
VERTEX
  5
367
100
AcDbEntity
  8
GAR70-0102
370
              15
390
0
  6
Continuous
 62
               7
100
AcDbVertex
100
AcDb3dPolylineVertex
 10
319.06182974740608
 20
-416.00186279078787
 30
0.0
 70
              32
  0
VERTEX
  5
368
100
AcDbEntity
  8
GAR70-0102
370
              15
390
0
  6
Continuous
 62
               7
100
AcDbVertex
100
AcDb3dPolylineVertex
 10
319.4722238046449
 20
-417.42171714451399
 30
0.0
 70
              32
  0
SEQEND
  5
369
100
AcDbEntity
  8
GAR70-0102
370
              15
390
0
  6
Continuous
 62
               7
  0
POLYLINE
  5
36A
100
AcDbEntity
  8
GAR70-0102
370
              15
390
0
  6
Continuous
 62
               7
100
AcDb2dPolyline
 66
               1
 10
0.0
 20
0.0
 30
0.0
 75
               5
  0
VERTEX
  5
36B
100
AcDbEntity
  8
GAR70-0102
370
              15
390
0
  6
Continuous
 62
               7
100
AcDbVertex
100
AcDb2dVertex
 10
14.704653947291845
 20
-429.51144929587656
 30
0.0
  0
VERTEX
  5
36C
100
AcDbEntity
  8
GAR70-0102
370
              15
390
0
  6
Continuous
 62
               7
100
AcDbVertex
100
AcDb2dVertex
 10
15.72255408902096
 20
-427.66275067325034
 30
0.0
  0
VERTEX
  5
36D
100
AcDbEntity
  8
GAR70-0102
370
              15
390
0
  6
Continuous
 62
               7
100
AcDbVertex
100
AcDb2dVertex
 10
16.221609753303156
 20
-425.61220178581095
 30
0.0
  0
VERTEX
  5
36E
100
AcDbEntity
  8
GAR70-0102
370
              15
390
0
  6
Continuous
 62
               7
100
AcDbVertex
100
AcDb2dVertex
 10
16.167091357119617
 20
-423.50250156058712
 30
0.0
  0
VERTEX
  5
36F
100
AcDbEntity
  8
GAR70-0102
370
              15
390
0
  6
Continuous
 62
               7
100
AcDbVertex
100
AcDb2dVertex
 10
15.56279286836174
 20
-421.4804653016846
 30
0.0
  0
VERTEX
  5
370
100
AcDbEntity
  8
GAR70-0102
370
              15
390
0
  6
Continuous
 62
               7
100
AcDbVertex
100
AcDb2dVertex
 10
14.450767781330015
 20
-419.68680772521031
 30
0.0
  0
VERTEX
  5
371
100
AcDbEntity
  8
GAR70-0102
370
              15
390
0
  6
Continuous
 62
               7
100
AcDbVertex
100
AcDb2dVertex
 10
12.908402588841696
 20
-418.24635053777558
 30
0.0
  0
VERTEX
  5
372
100
AcDbEntity
  8
GAR70-0102
370
              15
390
0
  6
Continuous
 62
               7
100
AcDbVertex
100
AcDb2dVertex
 10
11.043031409777441
 20
-417.25933601906365
 30
0.0
  0
VERTEX
  5
373
100
AcDbEntity
  8
GAR70-0102
370
              15
390
0
  6
Continuous
 62
               7
100
AcDbVertex
100
AcDb2dVertex
 10
8.9844665433680717
 20
-416.794451101459
 30
0.0
  0
SEQEND
  5
374
100
AcDbEntity
  8
GAR70-0102
370
              15
390
0
  6
Continuous
 62
               7
  0
POLYLINE
  5
375
100
AcDbEntity
  8
GAR70-0102
370
              15
390
0
  6
Continuous
 62
               7
100
AcDb2dPolyline
 66
               1
 10
0.0
 20
0.0
 30
0.0
 75
               5
  0
VERTEX
  5
376
100
AcDbEntity
  8
GAR70-0102
370
              15
390
0
  6
Continuous
 62
               7
100
AcDbVertex
100
AcDb2dVertex
 10
-154.1469596884769
 20
-570.40681531445591
 30
0.0
  0
VERTEX
  5
377
100
AcDbEntity
  8
GAR70-0102
370
              15
390
0
  6
Continuous
 62
               7
100
AcDbVertex
100
AcDb2dVertex
 10
-153.36863597914606
 20
-570.48701786033428
 30
0.0
  0
VERTEX
  5
378
100
AcDbEntity
  8
GAR70-0102
370
              15
390
0
  6
Continuous
 62
               7
100
AcDbVertex
100
AcDb2dVertex
 10
-152.58642419328527
 20
-570.50612196807208
 30
0.0
  0
VERTEX
  5
379
100
AcDbEntity
  8
GAR70-0102
370
              15
390
0
  6
Continuous
 62
               7
100
AcDbVertex
100
AcDb2dVertex
 10
-151.80511318980547
 20
-570.4640106784542
 30
0.0
  0
VERTEX
  5
37A
100
AcDbEntity
  8
GAR70-0102
370
              15
390
0
  6
Continuous
 62
               7
100
AcDbVertex
100
AcDb2dVertex
 10
-151.02948631284534
 20
-570.3609418053212
 30
0.0
  0
VERTEX
  5
37B
100
AcDbEntity
  8
GAR70-0102
370
              15
390
0
  6
Continuous
 62
               7
100
AcDbVertex
100
AcDb2dVertex
 10
-150.26429210717009
 20
-570.19754635718016
 30
0.0
  0
VERTEX
  5
37C
100
AcDbEntity
  8
GAR70-0102
370
              15
390
0
  6
Continuous
 62
               7
100
AcDbVertex
100
AcDb2dVertex
 10
-149.51421524661981
 20
-569.97482467404427
 30
0.0
  0
VERTEX
  5
37D
100
AcDbEntity
  8
GAR70-0102
370
              15
390
0
  6
Continuous
 62
               7
100
AcDbVertex
100
AcDb2dVertex
 10
-148.78384785358668
 20
-569.69414030314704
 30
0.0
  0
VERTEX
  5
37E
100
AcDbEntity
  8
GAR70-0102
370
              15
390
0
  6
Continuous
 62
               7
100
AcDbVertex
100
AcDb2dVertex
 10
-148.07766138511278
 20
-569.35721165103166
 30
0.0
  0
SEQEND
  5
37F
100
AcDbEntity
  8
GAR70-0102
370
              15
390
0
  6
Continuous
 62
               7
  0
POLYLINE
  5
380
100
AcDbEntity
  8
GAR70-0102
370
              15
390
0
  6
Continuous
 62
               7
100
AcDb2dPolyline
 66
               1
 10
0.0
 20
0.0
 30
0.0
 75
               5
  0
VERTEX
  5
381
100
AcDbEntity
  8
GAR70-0102
370
              15
390
0
  6
Continuous
 62
               7
100
AcDbVertex
100
AcDb2dVertex
 10
14.398695152634573
 20
-429.90038569411729
 30
0.0
  0
VERTEX
  5
382
100
AcDbEntity
  8
GAR70-0102
370
              15
390
0
  6
Continuous
 62
               7
100
AcDbVertex
100
AcDb2dVertex
 10
-8.0058983292824308
 20
-454.43395151610605
 30
0.0
  0
VERTEX
  5
383
100
AcDbEntity
  8
GAR70-0102
370
              15
390
0
  6
Continuous
 62
               7
100
AcDbVertex
100
AcDb2dVertex
 10
-32.417328738807981
 20
-476.97155845190775
 30
0.0
  0
VERTEX
  5
384
100
AcDbEntity
  8
GAR70-0102
370
              15
390
0
  6
Continuous
 62
               7
100
AcDbVertex
100
AcDb2dVertex
 10
-58.658430776007634
 20
-497.3496404250742
 30
0.0
  0
VERTEX
  5
385
100
AcDbEntity
  8
GAR70-0102
370
              15
390
0
  6
Continuous
 62
               7
100
AcDbVertex
100
AcDb2dVertex
 10
-86.538760348296904
 20
-515.42030405351682
 30
0.0
  0
VERTEX
  5
386
100
AcDbEntity
  8
GAR70-0102
370
              15
390
0
  6
Continuous
 62
               7
100
AcDbVertex
100
AcDb2dVertex
 10
-115.85597671332354
 20
-531.05240198175454
 30
0.0
  0
VERTEX
  5
387
100
AcDbEntity
  8
GAR70-0102
370
              15
390
0
  6
Continuous
 62
               7
100
AcDbVertex
100
AcDb2dVertex
 10
-146.39731096146573
 20
-544.13248467931692
 30
0.0
  0
VERTEX
  5
388
100
AcDbEntity
  8
GAR70-0102
370
              15
390
0
  6
Continuous
 62
               7
100
AcDbVertex
100
AcDb2dVertex
 10
-177.94111018047278
 20
-554.56562379766376
 30
0.0
  0
VERTEX
  5
389
100
AcDbEntity
  8
GAR70-0102
370
              15
390
0
  6
Continuous
 62
               7
100
AcDbVertex
100
AcDb2dVertex
 10
-210.25844609551808
 20
-562.27610111012189
 30
0.0
  0
SEQEND
  5
38A
100
AcDbEntity
  8
GAR70-0102
370
              15
390
0
  6
Continuous
 62
               7
  0
POLYLINE
  5
38B
100
AcDbEntity
  8
GAR70-0102
370
              15
390
0
  6
Continuous
 62
               7
100
AcDb2dPolyline
 66
               1
 10
0.0
 20
0.0
 30
0.0
 75
               5
  0
VERTEX
  5
38C
100
AcDbEntity
  8
GAR70-0102
370
              15
390
0
  6
Continuous
 62
               7
100
AcDbVertex
100
AcDb2dVertex
 10
-148.07863460884647
 20
-569.35771679116385
 30
0.0
  0
VERTEX
  5
38D
100
AcDbEntity
  8
GAR70-0102
370
              15
390
0
  6
Continuous
 62
               7
100
AcDbVertex
100
AcDb2dVertex
 10
-124.50325435674961
 20
-556.09376348106332
 30
0.0
  0
VERTEX
  5
38E
100
AcDbEntity
  8
GAR70-0102
370
              15
390
0
  6
Continuous
 62
               7
100
AcDbVertex
100
AcDb2dVertex
 10
-101.71250760896666
 20
-541.52280352223136
 30
0.0
  0
VERTEX
  5
38F
100
AcDbEntity
  8
GAR70-0102
370
              15
390
0
  6
Continuous
 62
               7
100
AcDbVertex
100
AcDb2dVertex
 10
-79.77877585928772
 20
-525.6911130573252
 30
0.0
  0
VERTEX
  5
390
100
AcDbEntity
  8
GAR70-0102
370
              15
390
0
  6
Continuous
 62
               7
100
AcDbVertex
100
AcDb2dVertex
 10
-58.77171879398847
 20
-508.64897220299792
 30
0.0
  0
VERTEX
  5
391
100
AcDbEntity
  8
GAR70-0102
370
              15
390
0
  6
Continuous
 62
               7
100
AcDbVertex
100
AcDb2dVertex
 10
-38.758053058528475
 20
-490.45050536447718
 30
0.0
  0
VERTEX
  5
392
100
AcDbEntity
  8
GAR70-0102
370
              15
390
0
  6
Continuous
 62
               7
100
AcDbVertex
100
AcDb2dVertex
 10
-19.801340371098689
 20
-471.15350934100945
 30
0.0
  0
VERTEX
  5
393
100
AcDbEntity
  8
GAR70-0102
370
              15
390
0
  6
Continuous
 62
               7
100
AcDbVertex
100
AcDb2dVertex
 10
-1.9617856559549267
 20
-450.81926976809029
 30
0.0
  0
VERTEX
  5
394
100
AcDbEntity
  8
GAR70-0102
370
              15
390
0
  6
Continuous
 62
               7
100
AcDbVertex
100
AcDb2dVertex
 10
14.70395416235705
 20
-429.51236647944245
 30
0.0
  0
SEQEND
  5
395
100
AcDbEntity
  8
GAR70-0102
370
              15
390
0
  6
Continuous
 62
               7
  0
POLYLINE
  5
396
100
AcDbEntity
  8
GAR70-0102
370
              15
390
0
  6
Continuous
 62
               7
100
AcDb2dPolyline
 66
               1
 10
0.0
 20
0.0
 30
0.0
 75
               5
  0
VERTEX
  5
397
100
AcDbEntity
  8
GAR70-0102
370
              15
390
0
  6
Continuous
 62
               7
100
AcDbVertex
100
AcDb2dVertex
 10
-726.36653391161303
 20
-416.77029569737681
 30
0.0
  0
VERTEX
  5
398
100
AcDbEntity
  8
GAR70-0102
370
              15
390
0
  6
Continuous
 62
               7
100
AcDbVertex
100
AcDb2dVertex
 10
-728.48653447125571
 20
-417.15622501064684
 30
0.0
  0
VERTEX
  5
399
100
AcDbEntity
  8
GAR70-0102
370
              15
390
0
  6
Continuous
 62
               7
100
AcDbVertex
100
AcDb2dVertex
 10
-730.42662485845517
 20
-418.09398462655179
 30
0.0
  0
VERTEX
  5
39A
100
AcDbEntity
  8
GAR70-0102
370
              15
390
0
  6
Continuous
 62
               7
100
AcDbVertex
100
AcDb2dVertex
 10
-732.04604743776054
 20
-419.51553811388942
 30
0.0
  0
VERTEX
  5
39B
100
AcDbEntity
  8
GAR70-0102
370
              15
390
0
  6
Continuous
 62
               7
100
AcDbVertex
100
AcDb2dVertex
 10
-733.22730969719305
 20
-421.31774877920236
 30
0.0
  0
VERTEX
  5
39C
100
AcDbEntity
  8
GAR70-0102
370
              15
390
0
  6
Continuous
 62
               7
100
AcDbVertex
100
AcDb2dVertex
 10
-733.88470857694551
 20
-423.36986245067021
 30
0.0
  0
VERTEX
  5
39D
100
AcDbEntity
  8
GAR70-0102
370
              15
390
0
  6
Continuous
 62
               7
100
AcDbVertex
100
AcDb2dVertex
 10
-733.97054840651094
 20
-425.52299396810861
 30
0.0
  0
VERTEX
  5
39E
100
AcDbEntity
  8
GAR70-0102
370
              15
390
0
  6
Continuous
 62
               7
100
AcDbVertex
100
AcDb2dVertex
 10
-733.47860132582855
 20
-427.62092911427851
 30
0.0
  0
VERTEX
  5
39F
100
AcDbEntity
  8
GAR70-0102
370
              15
390
0
  6
Continuous
 62
               7
100
AcDbVertex
100
AcDb2dVertex
 10
-732.44455912962076
 20
-429.51145828469305
 30
0.0
  0
SEQEND
  5
3A0
100
AcDbEntity
  8
GAR70-0102
370
              15
390
0
  6
Continuous
 62
               7
  0
POLYLINE
  5
3A1
100
AcDbEntity
  8
GAR70-0102
370
              15
390
0
  6
Continuous
 62
               7
100
AcDb2dPolyline
 66
               1
 10
0.0
 20
0.0
 30
0.0
 75
               5
  0
VERTEX
  5
3A2
100
AcDbEntity
  8
GAR70-0102
370
              15
390
0
  6
Continuous
 62
               7
100
AcDbVertex
100
AcDb2dVertex
 10
-569.66225459887664
 20
-569.35720945699097
 30
0.0
  0
VERTEX
  5
3A3
100
AcDbEntity
  8
GAR70-0102
370
              15
390
0
  6
Continuous
 62
               7
100
AcDbVertex
100
AcDb2dVertex
 10
-568.95606911093068
 20
-569.69413808859451
 30
0.0
  0
VERTEX
  5
3A4
100
AcDbEntity
  8
GAR70-0102
370
              15
390
0
  6
Continuous
 62
               7
100
AcDbVertex
100
AcDb2dVertex
 10
-568.22570272213443
 20
-569.97482258103457
 30
0.0
  0
VERTEX
  5
3A5
100
AcDbEntity
  8
GAR70-0102
370
              15
390
0
  6
Continuous
 62
               7
100
AcDbVertex
100
AcDb2dVertex
 10
-567.47562687316622
 20
-570.19754453095004
 30
0.0
  0
VERTEX
  5
3A6
100
AcDbEntity
  8
GAR70-0102
370
              15
390
0
  6
Continuous
 62
               7
100
AcDbVertex
100
AcDb2dVertex
 10
-566.71043366973413
 20
-570.36094039258899
 30
0.0
  0
VERTEX
  5
3A7
100
AcDbEntity
  8
GAR70-0102
370
              15
390
0
  6
Continuous
 62
               7
100
AcDbVertex
100
AcDb2dVertex
 10
-565.93480776883894
 20
-570.46400982569241
 30
0.0
  0
VERTEX
  5
3A8
100
AcDbEntity
  8
GAR70-0102
370
              15
390
0
  6
Continuous
 62
               7
100
AcDbVertex
100
AcDb2dVertex
 10
-565.15349769842237
 20
-570.50612181976669
 30
0.0
  0
VERTEX
  5
3A9
100
AcDbEntity
  8
GAR70-0102
370
              15
390
0
  6
Continuous
 62
               7
100
AcDbVertex
100
AcDb2dVertex
 10
-564.37128678598219
 20
-570.48701855724755
 30
0.0
  0
VERTEX
  5
3AA
100
AcDbEntity
  8
GAR70-0102
370
              15
390
0
  6
Continuous
 62
               7
100
AcDbVertex
100
AcDb2dVertex
 10
-563.59296387414111
 20
-570.40681699190793
 30
0.0
  0
SEQEND
  5
3AB
100
AcDbEntity
  8
GAR70-0102
370
              15
390
0
  6
Continuous
 62
               7
  0
POLYLINE
  5
3AC
100
AcDbEntity
  8
GAR70-0102
370
              15
390
0
  6
Continuous
 62
               7
100
AcDb2dPolyline
 66
               1
 10
0.0
 20
0.0
 30
0.0
 75
               5
  0
VERTEX
  5
3AD
100
AcDbEntity
  8
GAR70-0102
370
              15
390
0
  6
Continuous
 62
               7
100
AcDbVertex
100
AcDb2dVertex
 10
-732.13860696615666
 20
-429.90038569411729
 30
0.0
  0
VERTEX
  5
3AE
100
AcDbEntity
  8
GAR70-0102
370
              15
390
0
  6
Continuous
 62
               7
100
AcDbVertex
100
AcDb2dVertex
 10
-709.77677896551972
 20
-454.3909462741791
 30
0.0
  0
VERTEX
  5
3AF
100
AcDbEntity
  8
GAR70-0102
370
              15
390
0
  6
Continuous
 62
               7
100
AcDbVertex
100
AcDb2dVertex
 10
-685.41511822196753
 20
-476.89313272065249
 30
0.0
  0
VERTEX
  5
3B0
100
AcDbEntity
  8
GAR70-0102
370
              15
390
0
  6
Continuous
 62
               7
100
AcDbVertex
100
AcDb2dVertex
 10
-659.22978451442896
 20
-497.24423115981756
 30
0.0
  0
VERTEX
  5
3B1
100
AcDbEntity
  8
GAR70-0102
370
              15
390
0
  6
Continuous
 62
               7
100
AcDbVertex
100
AcDb2dVertex
 10
-631.41012464670484
 20
-515.29708228920674
 30
0.0
  0
VERTEX
  5
3B2
100
AcDbEntity
  8
GAR70-0102
370
              15
390
0
  6
Continuous
 62
               7
100
AcDbVertex
100
AcDb2dVertex
 10
-602.15730327598908
 20
-530.92114549020391
 30
0.0
  0
VERTEX
  5
3B3
100
AcDbEntity
  8
GAR70-0102
370
              15
390
0
  6
Continuous
 62
               7
100
AcDbVertex
100
AcDb2dVertex
 10
-571.68284828619494
 20
-544.00344277052739
 30
0.0
  0
VERTEX
  5
3B4
100
AcDbEntity
  8
GAR70-0102
370
              15
390
0
  6
Continuous
 62
               7
100
AcDbVertex
100
AcDb2dVertex
 10
-540.20712122452846
 20
-554.44937571092225
 30
0.0
  0
VERTEX
  5
3B5
100
AcDbEntity
  8
GAR70-0102
370
              15
390
0
  6
Continuous
 62
               7
100
AcDbVertex
100
AcDb2dVertex
 10
-507.9577238616219
 20
-562.18340950869799
 30
0.0
  0
SEQEND
  5
3B6
100
AcDbEntity
  8
GAR70-0102
370
              15
390
0
  6
Continuous
 62
               7
  0
POLYLINE
  5
3B7
100
AcDbEntity
  8
GAR70-0102
370
              15
390
0
  6
Continuous
 62
               7
100
AcDb2dPolyline
 66
               1
 10
0.0
 20
0.0
 30
0.0
 75
               5
  0
VERTEX
  5
3B8
100
AcDbEntity
  8
GAR70-0102
370
              15
390
0
  6
Continuous
 62
               7
100
AcDbVertex
100
AcDb2dVertex
 10
-732.44525355330916
 20
-429.51048557268871
 30
0.0
  0
VERTEX
  5
3B9
100
AcDbEntity
  8
GAR70-0102
370
              15
390
0
  6
Continuous
 62
               7
100
AcDbVertex
100
AcDb2dVertex
 10
-715.77961214323523
 20
-450.81747646512406
 30
0.0
  0
VERTEX
  5
3BA
100
AcDbEntity
  8
GAR70-0102
370
              15
390
0
  6
Continuous
 62
               7
100
AcDbVertex
100
AcDb2dVertex
 10
-697.94015039018564
 20
-471.15180873498241
 30
0.0
  0
VERTEX
  5
3BB
100
AcDbEntity
  8
GAR70-0102
370
              15
390
0
  6
Continuous
 62
               7
100
AcDbVertex
100
AcDb2dVertex
 10
-678.98352495854647
 20
-490.44890221415801
 30
0.0
  0
VERTEX
  5
3BC
100
AcDbEntity
  8
GAR70-0102
370
              15
390
0
  6
Continuous
 62
               7
100
AcDbVertex
100
AcDb2dVertex
 10
-658.96994053273193
 20
-508.64747091969878
 30
0.0
  0
VERTEX
  5
3BD
100
AcDbEntity
  8
GAR70-0102
370
              15
390
0
  6
Continuous
 62
               7
100
AcDbVertex
100
AcDb2dVertex
 10
-637.96295861205522
 20
-525.6897176930521
 30
0.0
  0
VERTEX
  5
3BE
100
AcDbEntity
  8
GAR70-0102
370
              15
390
0
  6
Continuous
 62
               7
100
AcDbVertex
100
AcDb2dVertex
 10
-616.02929564463034
 20
-541.52151775908771
 30
0.0
  0
VERTEX
  5
3BF
100
AcDbEntity
  8
GAR70-0102
370
              15
390
0
  6
Continuous
 62
               7
100
AcDbVertex
100
AcDb2dVertex
 10
-593.23861114141687
 20
-556.09259062193826
 30
0.0
  0
VERTEX
  5
3C0
100
AcDbEntity
  8
GAR70-0102
370
              15
390
0
  6
Continuous
 62
               7
100
AcDbVertex
100
AcDb2dVertex
 10
-569.66328644333726
 20
-569.35665975171935
 30
0.0
  0
SEQEND
  5
3C1
100
AcDbEntity
  8
GAR70-0102
370
              15
390
0
  6
Continuous
 62
               7
  0
POLYLINE
  5
3C2
100
AcDbEntity
  8
GAR70-0102
370
              15
390
0
  6
Continuous
 62
               7
100
AcDb2dPolyline
 66
               1
 10
0.0
 20
0.0
 30
0.0
 75
               5
  0
VERTEX
  5
3C3
100
AcDbEntity
  8
GAR70-0102
370
              15
390
0
  6
Continuous
 62
               7
100
AcDbVertex
100
AcDb2dVertex
 10
-726.11823357656181
 20
-416.74078782785648
 30
0.0
  0
VERTEX
  5
3C4
100
AcDbEntity
  8
GAR70-0102
370
              15
390
0
  6
Continuous
 62
               7
100
AcDbVertex
100
AcDb2dVertex
 10
-634.36996344816907
 20
-409.63264969413751
 30
0.0
  0
VERTEX
  5
3C5
100
AcDbEntity
  8
GAR70-0102
370
              15
390
0
  6
Continuous
 62
               7
100
AcDbVertex
100
AcDb2dVertex
 10
-542.48688647391327
 20
-404.55614843602882
 30
0.0
  0
VERTEX
  5
3C6
100
AcDbEntity
  8
GAR70-0102
370
              15
390
0
  6
Continuous
 62
               7
100
AcDbVertex
100
AcDb2dVertex
 10
-450.51398487519651
 20
-401.51376930229628
 30
0.0
  0
VERTEX
  5
3C7
100
AcDbEntity
  8
GAR70-0102
370
              15
390
0
  6
Continuous
 62
               7
100
AcDbVertex
100
AcDb2dVertex
 10
-358.49628484791026
 20
-400.50700171815618
 30
0.0
  0
VERTEX
  5
3C8
100
AcDbEntity
  8
GAR70-0102
370
              15
390
0
  6
Continuous
 62
               7
100
AcDbVertex
100
AcDb2dVertex
 10
-266.47883451942971
 20
-401.53633855611326
 30
0.0
  0
VERTEX
  5
3C9
100
AcDbEntity
  8
GAR70-0102
370
              15
390
0
  6
Continuous
 62
               7
100
AcDbVertex
100
AcDb2dVertex
 10
-174.50668189489323
 20
-404.60127589467277
 30
0.0
  0
VERTEX
  5
3CA
100
AcDbEntity
  8
GAR70-0102
370
              15
390
0
  6
Continuous
 62
               7
100
AcDbVertex
100
AcDb2dVertex
 10
-82.624852803521748
 20
-409.70031326503806
 30
0.0
  0
VERTEX
  5
3CB
100
AcDbEntity
  8
GAR70-0102
370
              15
390
0
  6
Continuous
 62
               7
100
AcDbVertex
100
AcDb2dVertex
 10
9.1216711441951617
 20
-416.83095438567864
 30
0.0
  0
SEQEND
  5
3CC
100
AcDbEntity
  8
GAR70-0102
370
              15
390
0
  6
Continuous
 62
               7
  0
POLYLINE
  5
3CD
100
AcDbEntity
  8
GAR70-0102
370
              15
390
0
  6
Continuous
 62
               7
100
AcDb2dPolyline
 66
               1
 10
0.0
 20
0.0
 30
0.0
 75
               5
  0
VERTEX
  5
3CE
100
AcDbEntity
  8
GAR70-0102
370
              15
390
0
  6
Continuous
 62
               7
100
AcDbVertex
100
AcDb2dVertex
 10
7.9276031316320683
 20
-416.75048794728548
 30
0.0
  0
VERTEX
  5
3CF
100
AcDbEntity
  8
GAR70-0102
370
              15
390
0
  6
Continuous
 62
               7
100
AcDbVertex
100
AcDb2dVertex
 10
-83.950844444657577
 20
-413.13750533384621
 30
0.0
  0
VERTEX
  5
3D0
100
AcDbEntity
  8
GAR70-0102
370
              15
390
0
  6
Continuous
 62
               7
100
AcDbVertex
100
AcDb2dVertex
 10
-175.86413719483966
 20
-410.55886456526889
 30
0.0
  0
VERTEX
  5
3D1
100
AcDbEntity
  8
GAR70-0102
370
              15
390
0
  6
Continuous
 62
               7
100
AcDbVertex
100
AcDb2dVertex
 10
-267.80063115715654
 20
-409.01489231458902
 30
0.0
  0
VERTEX
  5
3D2
100
AcDbEntity
  8
GAR70-0102
370
              15
390
0
  6
Continuous
 62
               7
100
AcDbVertex
100
AcDb2dVertex
 10
-359.74867943062736
 20
-408.50578417869485
 30
0.0
  0
VERTEX
  5
3D3
100
AcDbEntity
  8
GAR70-0102
370
              15
390
0
  6
Continuous
 62
               7
100
AcDbVertex
100
AcDb2dVertex
 10
-451.69663365051514
 20
-409.03160465353915
 30
0.0
  0
VERTEX
  5
3D4
100
AcDbEntity
  8
GAR70-0102
370
              15
390
0
  6
Continuous
 62
               7
100
AcDbVertex
100
AcDb2dVertex
 10
-543.63284546400359
 20
-410.59228712597917
 30
0.0
  0
VERTEX
  5
3D5
100
AcDbEntity
  8
GAR70-0102
370
              15
390
0
  6
Continuous
 62
               7
100
AcDbVertex
100
AcDb2dVertex
 10
-635.54566800585167
 20
-413.18763388220771
 30
0.0
  0
VERTEX
  5
3D6
100
AcDbEntity
  8
GAR70-0102
370
              15
390
0
  6
Continuous
 62
               7
100
AcDbVertex
100
AcDb2dVertex
 10
-727.42345737387063
 20
-416.81731613280238
 30
0.0
  0
SEQEND
  5
3D7
100
AcDbEntity
  8
GAR70-0102
370
              15
390
0
  6
Continuous
 62
               7
  0
POLYLINE
  5
3D8
100
AcDbEntity
  8
GAR70-0102
370
              15
390
0
  6
Continuous
 62
               7
100
AcDb2dPolyline
 66
               1
 10
0.0
 20
0.0
 30
0.0
 75
               5
  0
VERTEX
  5
3D9
100
AcDbEntity
  8
GAR70-0102
370
              15
390
0
  6
Continuous
 62
               7
100
AcDbVertex
100
AcDb2dVertex
 10
-154.14696390676107
 20
-570.40681544314168
 30
0.0
  0
VERTEX
  5
3DA
100
AcDbEntity
  8
GAR70-0102
370
              15
390
0
  6
Continuous
 62
               7
100
AcDbVertex
100
AcDb2dVertex
 10
-211.09563290676118
 20
-562.27609944314156
 30
0.0
  0
VERTEX
  5
3DB
100
AcDbEntity
  8
GAR70-0102
370
              15
390
0
  6
Continuous
 62
               7
100
AcDbVertex
100
AcDb2dVertex
 10
-506.64427890676103
 20
-562.27609944314156
 30
0.0
  0
VERTEX
  5
3DC
100
AcDbEntity
  8
GAR70-0102
370
              15
390
0
  6
Continuous
 62
               7
100
AcDbVertex
100
AcDb2dVertex
 10
-563.59294790676131
 20
-570.40681544314168
 30
0.0
  0
SEQEND
  5
3DD
100
AcDbEntity
  8
GAR70-0102
370
              15
390
0
  6
Continuous
 62
               7
  0
LINE
  5
3DE
100
AcDbEntity
  8
GAR70-0102
370
              15
390
0
  6
STYLE_15
 62
               7
100
AcDbLine
 10
-219.39231790676115
 20
-430.50000000000011
 30
0.0
 11
-219.39231790676115
 21
-470.50000000000011
 31
0.0
  0
INSERT
  5
3DF
100
AcDbEntity
  8
GAR70-0102
390
0
 62
               7
100
AcDbBlockReference
  2
グループ-1
 10
0.1318955801571633
 20
678.99935836249267
 30
0.0
  0
INSERT
  5
3E0
100
AcDbEntity
  8
GAR70-0102
390
0
 62
               7
100
AcDbBlockReference
  2
グループ-2
 10
0.1318955801571633
 20
678.99935836249267
 30
0.0
  0
INSERT
  5
3E1
100
AcDbEntity
  8
GAR70-0102
390
0
 62
               7
100
AcDbBlockReference
  2
グループ-3
 10
0.1318955801571633
 20
678.99935836249267
 30
0.0
  0
LINE
  5
3E2
100
AcDbEntity
  8
GAR70-0102
370
              15
390
0
  6
STYLE_12
 62
               7
100
AcDbLine
 10
489.47325810124602
 20
-522.78085171815621
 30
0.0
 11
376.35430285029116
 21
-409.21108588021445
 31
0.0
  0
LINE
  5
3E3
100
AcDbEntity
  8
GAR70-0102
370
              15
390
0
  6
STYLE_12
 62
               7
100
AcDbLine
 10
661.33044618663575
 20
-522.46473949094491
 30
0.0
 11
489.47325810124602
 21
-522.78085171815621
 31
0.0
  0
LINE
  5
3E4
100
AcDbEntity
  8
GAR70-0102
370
              15
390
0
  6
STYLE_12
 62
               7
100
AcDbLine
 10
680.04238227487917
 20
-502.72175476649829
 30
0.0
 11
660.29749755604871
 21
-522.46663948532898
 31
0.0
  0
LINE
  5
3E5
100
AcDbEntity
  8
GAR70-0102
370
              15
390
0
  6
STYLE_12
 62
               7
100
AcDbLine
 10
693.43566752019979
 20
-473.85082379829635
 30
0.0
 11
680.04238227487917
 21
-502.72175476649829
 31
0.0
  0
LINE
  5
3E6
100
AcDbEntity
  8
GAR70-0102
370
              15
390
0
  6
STYLE_12
 62
               7
100
AcDbLine
 10
707.92261261135718
 20
-434.70379875666629
 30
0.0
 11
693.43566752019979
 21
-473.85082379829635
 31
0.0
  0
LINE
  5
3E7
100
AcDbEntity
  8
GAR70-0102
370
              15
390
0
  6
STYLE_12
 62
               7
100
AcDbLine
 10
721.35430285029088
 20
-402.78085171815621
 30
0.0
 11
707.92261261135718
 21
-434.70379875666629
 31
0.0
  0
LINE
  5
3E8
100
AcDbEntity
  8
GAR70-0102
370
              15
390
0
  6
STYLE_12
 62
               7
100
AcDbLine
 10
687.76178575381914
 20
-415.13028623585126
 30
0.0
 11
661.33044618663575
 21
-522.46473949094491
 31
0.0
  0
LINE
  5
3E9
100
AcDbEntity
  8
GAR70-0102
370
              15
390
0
  6
STYLE_12
 62
               7
100
AcDbLine
 10
489.47325810124602
 20
-522.78085171815621
 30
0.0
 11
424.13353436584583
 21
-414.54308086022695
 31
0.0
  0
LINE
  5
3EA
100
AcDbEntity
  8
GAR70-0102
370
              15
390
0
  6
Continuous
 62
               7
100
AcDbLine
 10
-396.0
 20
-523.37169671774438
 30
0.0
 11
-382.85387766986702
 21
-532.06087097729085
 31
0.0
  0
LINE
  5
3EB
100
AcDbEntity
  8
GAR70-0102
370
              15
390
0
  6
Continuous
 62
               7
100
AcDbLine
 10
-334.88603414365497
 20
-532.06087097729085
 30
0.0
 11
-321.35387766986707
 21
-523.34864604698203
 31
0.0
  0
LINE
  5
3EC
100
AcDbEntity
  8
GAR70-0102
370
              15
390
0
  6
STYLE_12
 62
               7
100
AcDbLine
 10
-382.85387766986702
 20
-532.06087097729085
 30
0.0
 11
-382.85387766986702
 21
-559.0584187181563
 31
0.0
  0
LINE
  5
3ED
100
AcDbEntity
  8
GAR70-0102
370
              15
390
0
  6
STYLE_12
 62
               7
100
AcDbLine
 10
-334.9400333486339
 20
-532.10315712994918
 30
0.0
 11
-334.9400333486339
 21
-559.0584187181563
 31
0.0
  0
LINE
  5
3EE
100
AcDbEntity
  8
GAR70-0102
370
              15
390
0
  6
STYLE_12
 62
               7
100
AcDbLine
 10
-382.85387766986702
 20
-559.0584187181563
 30
0.0
 11
-334.88603414365497
 21
-559.0584187181563
 31
0.0
  0
LINE
  5
3EF
100
AcDbEntity
  8
GAR70-0102
370
              15
390
0
  6
Continuous
 62
               7
100
AcDbLine
 10
636.92009034432112
 20
-522.40312482986121
 30
0.0
 11
623.42009034432112
 21
-533.00000000000011
 31
0.0
  0
LINE
  5
3F0
100
AcDbEntity
  8
GAR70-0102
370
              15
390
0
  6
Continuous
 62
               7
100
AcDbLine
 10
575.45224681810919
 20
-533.00000000000011
 30
0.0
 11
561.92009034432112
 21
-522.40312482986121
 31
0.0
  0
LINE
  5
3F1
100
AcDbEntity
  8
GAR70-0102
370
              15
390
0
  6
STYLE_12
 62
               7
100
AcDbLine
 10
623.42009034432112
 20
-533.00000000000011
 30
0.0
 11
623.42009034432112
 21
-559.0584187181563
 31
0.0
  0
LINE
  5
3F2
100
AcDbEntity
  8
GAR70-0102
370
              15
390
0
  6
STYLE_12
 62
               7
100
AcDbLine
 10
575.45224681810919
 20
-533.00000000000011
 30
0.0
 11
575.45224681810919
 21
-559.0584187181563
 31
0.0
  0
LINE
  5
3F3
100
AcDbEntity
  8
GAR70-0102
370
              15
390
0
  6
STYLE_12
 62
               7
100
AcDbLine
 10
623.42009034432112
 20
-559.0584187181563
 30
0.0
 11
575.45224681810919
 21
-559.0584187181563
 31
0.0
  0
CIRCLE
  5
3F4
100
AcDbEntity
  8
GAR70-0102
370
              15
390
0
  6
Continuous
 62
               7
100
AcDbCircle
 10
-359.01185855234394
 20
629.95989523313369
 30
0.0
 40
35.0
  0
CIRCLE
  5
3F5
100
AcDbEntity
  8
GAR70-0102
370
              15
390
0
  6
Continuous
 62
               7
100
AcDbCircle
 10
-359.01185855234394
 20
629.95989523313369
 30
0.0
 40
23.0
  0
CIRCLE
  5
3F6
100
AcDbEntity
  8
GAR70-0102
370
              15
390
0
  6
Continuous
 62
               7
100
AcDbCircle
 10
-358.97051740651062
 20
800.0
 30
0.0
 40
17.499999999999886
  0
CIRCLE
  5
3F7
100
AcDbEntity
  8
GAR70-0102
370
              15
390
0
  6
STYLE_15
 62
               7
100
AcDbCircle
 10
-258.97051740651062
 20
798.20000000000005
 30
0.0
 40
17.500000000000028
  0
CIRCLE
  5
3F8
100
AcDbEntity
  8
GAR70-0102
370
              15
390
0
  6
STYLE_15
 62
               7
100
AcDbCircle
 10
-458.97051740651062
 20
798.20000000000005
 30
0.0
 40
17.500000000000028
  0
LINE
  5
3F9
100
AcDbEntity
  8
GAR70-0102
370
              15
390
0
  6
Continuous
 62
               7
100
AcDbLine
 10
751.48783185029083
 20
-402.00000000000011
 30
0.0
 11
751.48783185029083
 21
-417.00000000000011
 31
0.0
  0
LINE
  5
3FA
100
AcDbEntity
  8
GAR70-0102
370
              15
390
0
  6
Continuous
 62
               7
100
AcDbLine
 10
786.48783185029083
 20
-402.00000000000011
 30
0.0
 11
786.48783185029083
 21
-417.00000000000011
 31
0.0
  0
LINE
  5
3FB
100
AcDbEntity
  8
GAR70-0102
370
              15
390
0
  6
STYLE_15
 62
               7
100
AcDbLine
 10
-239.39231790676115
 20
-450.50000000000011
 30
0.0
 11
-199.39231790676115
 21
-450.50000000000011
 31
0.0
  0
CIRCLE
  5
3FC
100
AcDbEntity
  8
GAR70-0102
370
              15
390
0
  6
STYLE_15
 62
               7
100
AcDbCircle
 10
-219.39231790676115
 20
-450.50000000000011
 30
0.0
 40
10.0
  0
LINE
  5
3FD
100
AcDbEntity
  8
GAR70-0102
370
              15
390
0
  6
STYLE_15
 62
               7
100
AcDbLine
 10
-499.39231790676098
 20
-430.50000000000011
 30
0.0
 11
-499.39231790676098
 21
-470.50000000000011
 31
0.0
  0
LINE
  5
3FE
100
AcDbEntity
  8
GAR70-0102
370
              15
390
0
  6
STYLE_15
 62
               7
100
AcDbLine
 10
-519.39231790676126
 20
-450.50000000000011
 30
0.0
 11
-479.39231790676098
 21
-450.50000000000011
 31
0.0
  0
CIRCLE
  5
3FF
100
AcDbEntity
  8
GAR70-0102
370
              15
390
0
  6
STYLE_15
 62
               7
100
AcDbCircle
 10
-499.39231790676098
 20
-450.50000000000011
 30
0.0
 40
10.0
  0
ENDSEC
  0
SECTION
  2
OBJECTS
  0
DICTIONARY
  5
19
100
AcDbDictionary
280
               0
281
               1
  3
ACAD_GROUP
350
1A
  3
ACAD_MLINESTYLE
350
1B
  3
ACAD_LAYOUT
350
1E
  3
ACAD_PLOTSETTINGS
350
22
  3
ACAD_PLOTSTYLENAME
350
1F
  0
DICTIONARY
  5
1A
102
{ACAD_REACTORS
330
19
102
}
100
AcDbDictionary
280
               0
281
               1
  0
DICTIONARY
  5
1B
102
{ACAD_REACTORS
330
19
102
}
100
AcDbDictionary
280
               0
281
               1
  3
Standard
350
1C
  0
MLINESTYLE
  5
1C
102
{ACAD_REACTORS
330
1B
102
}
100
AcDbMlineStyle
  2
Standard
 70
               0
  3

 62
               0
 51
90.0
 52
90.0
 71
               2
 49
0.5
 62
             256
  6
ByLayer
 49
-0.5
 62
             256
  6
ByLayer
  0
ACDBDICTIONARYWDFLT
  5
1F
102
{ACAD_REACTORS
330
19
102
}
100
AcDbDictionary
281
               1
  3
Normal
350
1D
100
AcDbDictionaryWithDefault
340
1D
  0
ACDBPLACEHOLDER
  5
1D
102
{ACAD_REACTORS
330
1F
102
}
  0
LAYOUT
  5
20
102
{ACAD_REACTORS
330
1E
102
}
100
AcDbPlotSettings
  1

  2

  4

  6

 40
0.0
 41
0.0
 42
0.0
 43
0.0
 44
0.0
 45
0.0
 46
0.0
 47
0.0
 48
0.0
 49
0.0
140
0.0
141
0.0
142
1.0
143
1.0
 70
            1024
 72
               0
 73
               0
 74
               0
  7

 75
               0
147
1.0
148
0.0
149
0.0
100
AcDbLayout
  1
Model
 70
               0
 71
               0
 10
0.0
 20
0.0
 11
0.0
 21
0.0
 12
0.0
 22
0.0
 32
0.0
 14
0.0
 24
0.0
 34
0.0
 15
0.0
 25
0.0
 35
0.0
146
0.0
 13
0.0
 23
0.0
 33
0.0
 16
0.0
 26
0.0
 36
0.0
 17
0.0
 27
0.0
 37
0.0
 76
               0
330
A
331
0
345
0
346
0
  0
LAYOUT
  5
21
102
{ACAD_REACTORS
330
1E
102
}
100
AcDbPlotSettings
  1

  2

  4

  6

 40
0.0
 41
0.0
 42
0.0
 43
0.0
 44
0.0
 45
0.0
 46
0.0
 47
0.0
 48
0.0
 49
0.0
140
0.0
141
0.0
142
1.0
143
1.0
 70
               0
 72
               0
 73
               0
 74
               0
  7

 75
               0
147
1.0
148
0.0
149
0.0
100
AcDbLayout
  1
Layout1
 70
               0
 71
               0
 10
0.0
 20
0.0
 11
0.0
 21
0.0
 12
0.0
 22
0.0
 32
0.0
 14
0.0
 24
0.0
 34
0.0
 15
0.0
 25
0.0
 35
0.0
146
0.0
 13
0.0
 23
0.0
 33
0.0
 16
0.0
 26
0.0
 36
0.0
 17
0.0
 27
0.0
 37
0.0
 76
               0
330
B
331
0
345
0
346
0
  0
DICTIONARY
  5
1E
102
{ACAD_REACTORS
330
19
102
}
100
AcDbDictionary
280
               0
281
               1
  3
Layout1
350
21
  3
Model
350
20
  0
DICTIONARY
  5
22
102
{ACAD_REACTORS
330
19
102
}
100
AcDbDictionary
280
               0
281
               1
  0
ENDSEC
  0
EOF
