  0
SECTION
  2
HEADER
  9
$ACADVER
  1
AC1015
  9
$ACADMAINTVER
 70
               6
  9
$DWGCODEPAGE
  3
ANSI_932
  9
$INSBASE
 10
0.0
 20
0.0
 30
0.0
  9
$EXTMIN
 10
-975.00000000024124
 20
-1431.5255224711127
 30
-14.834305555555556
  9
$EXTMAX
 10
975.00000000024124
 20
1405.9972926412995
 30
14.834305555555556
  9
$LIMMIN
 10
0.0
 20
0.0
  9
$LIMMAX
 10
0.0
 20
0.0
  9
$ORTHOMODE
 70
               0
  9
$REGENMODE
 70
               1
  9
$FILLMODE
 70
               1
  9
$QTEXTMODE
 70
               0
  9
$MIRRTEXT
 70
               1
  9
$LTSCALE
 40
50.799999999999997
  9
$ATTMODE
 70
               1
  9
$TEXTSIZE
 40
0.2
  9
$TRACEWID
 40
1.0
  9
$TEXTSTYLE
  7
Standard
  9
$CLAYER
  8
GAR70-0206
  9
$CELTYPE
  6
Continuous
  9
$CECOLOR
 62
             256
  9
$CELTSCALE
 40
1.0
  9
$DISPSILH
 70
               0
  9
$DIMSCALE
 40
1.0
  9
$DIMASZ
 40
3.999755859375
  9
$DIMEXO
 40
24.999999999999996
  9
$DIMDLI
 40
0.9999999999999999
  9
$DIMRND
 40
0.0
  9
$DIMDLE
 40
0.0
  9
$DIMEXE
 40
0.0
  9
$DIMTP
 40
0.0
  9
$DIMTM
 40
0.0
  9
$DIMTXT
 40
24.432617187500004
  9
$DIMCEN
 40
0.0
  9
$DIMTSZ
 40
0.0
  9
$DIMTOL
 70
               0
  9
$DIMLIM
 70
               0
  9
$DIMTIH
 70
               0
  9
$DIMTOH
 70
               0
  9
$DIMSE1
 70
               0
  9
$DIMSE2
 70
               0
  9
$DIMTAD
 70
               1
  9
$DIMZIN
 70
              11
  9
$DIMBLK
  1
_DOT
  9
$DIMASO
 70
               1
  9
$DIMSHO
 70
               1
  9
$DIMPOST
  1
<>
  9
$DIMAPOST
  1
[]
  9
$DIMALT
 70
               0
  9
$DIMALTD
 70
               1
  9
$DIMALTF
 40
1.0
  9
$DIMLFAC
 40
1.0
  9
$DIMTOFL
 70
               0
  9
$DIMTVP
 40
0.0
  9
$DIMTIX
 70
               1
  9
$DIMSOXD
 70
               0
  9
$DIMSAH
 70
               0
  9
$DIMBLK1
  1

  9
$DIMBLK2
  1

  9
$DIMSTYLE
  2
tfrom線あり
  9
$DIMCLRD
 70
               0
  9
$DIMCLRE
 70
               0
  9
$DIMCLRT
 70
               0
  9
$DIMTFAC
 40
1.0
  9
$DIMGAP
 40
0.4999999999999999
  9
$DIMJUST
 70
               0
  9
$DIMSD1
 70
               0
  9
$DIMSD2
 70
               0
  9
$DIMTOLJ
 70
               1
  9
$DIMTZIN
 70
              11
  9
$DIMALTZ
 70
              11
  9
$DIMALTTZ
 70
              11
  9
$DIMUPT
 70
               0
  9
$DIMDEC
 70
               1
  9
$DIMTDEC
 70
               1
  9
$DIMALTU
 70
               2
  9
$DIMALTTD
 70
               2
  9
$DIMTXSTY
  7
ＭＳ ゴシック
  9
$DIMAUNIT
 70
               0
  9
$DIMADEC
 70
               2
  9
$DIMALTRND
 40
0.0
  9
$DIMAZIN
 70
               0
  9
$DIMDSEP
 70
              46
  9
$DIMATFIT
 70
               0
  9
$DIMFRAC
 70
               2
  9
$DIMLDRBLK
  1

  9
$DIMLUNIT
 70
               2
  9
$DIMLWD
 70
              -2
  9
$DIMLWE
 70
              -2
  9
$DIMTMOVE
 70
               0
  9
$LUNITS
 70
               2
  9
$LUPREC
 70
               4
  9
$SKETCHINC
 40
0.1
  9
$FILLETRAD
 40
0.0
  9
$AUNITS
 70
               0
  9
$AUPREC
 70
               0
  9
$MENU
  1
acad
  9
$ELEVATION
 40
0.0
  9
$PELEVATION
 40
0.0
  9
$THICKNESS
 40
0.0
  9
$LIMCHECK
 70
               0
  9
$CHAMFERA
 40
0.0
  9
$CHAMFERB
 40
0.0
  9
$CHAMFERC
 40
0.0
  9
$CHAMFERD
 40
0.0
  9
$SKPOLY
 70
               0
  9
$TDCREATE
 40
2456470.455011574
  9
$TDUCREATE
 40
0.000000000
  9
$TDUPDATE
 40
2456470.455011574
  9
$TDUUPDATE
 40
0.000000000
  9
$TDINDWG
 40
0.0000000000
  9
$TDUSRTIMER
 40
0.0000000000
  9
$USRTIMER
 70
               1
  9
$ANGBASE
 50
0.0
  9
$ANGDIR
 70
               0
  9
$PDMODE
 70
               1
  9
$PDSIZE
 40
-2.0
  9
$PLINEWID
 40
0.0
  9
$SPLFRAME
 70
               0
  9
$SPLINETYPE
 70
               6
  9
$SPLINESEGS
 70
               8
  9
$HANDSEED
  5
1EF
  9
$SURFTAB1
 70
               6
  9
$SURFTAB2
 70
               6
  9
$SURFTYPE
 70
               6
  9
$SURFU
 70
               6
  9
$SURFV
 70
               6
  9
$UCSBASE
  2

  9
$UCSNAME
  2

  9
$UCSORG
 10
0.0
 20
0.0
 30
0.0
  9
$UCSXDIR
 10
1.0
 20
0.0
 30
0.0
  9
$UCSYDIR
 10
0.0
 20
1.0
 30
0.0
  9
$UCSORTHOREF
  2

  9
$UCSORTHOVIEW
 70
               0
  9
$UCSORGTOP
 10
0.0
 20
0.0
 30
0.0
  9
$UCSORGBOTTOM
 10
0.0
 20
0.0
 30
0.0
  9
$UCSORGLEFT
 10
0.0
 20
0.0
 30
0.0
  9
$UCSORGRIGHT
 10
0.0
 20
0.0
 30
0.0
  9
$UCSORGFRONT
 10
0.0
 20
0.0
 30
0.0
  9
$UCSORGBACK
 10
0.0
 20
0.0
 30
0.0
  9
$PUCSBASE
  2

  9
$PUCSNAME
  2

  9
$PUCSORG
 10
0.0
 20
0.0
 30
0.0
  9
$PUCSXDIR
 10
1.0
 20
0.0
 30
0.0
  9
$PUCSYDIR
 10
0.0
 20
1.0
 30
0.0
  9
$PUCSORTHOREF
  2

  9
$PUCSORTHOVIEW
 70
               0
  9
$PUCSORGTOP
 10
0.0
 20
0.0
 30
0.0
  9
$PUCSORGBOTTOM
 10
0.0
 20
0.0
 30
0.0
  9
$PUCSORGLEFT
 10
0.0
 20
0.0
 30
0.0
  9
$PUCSORGRIGHT
 10
0.0
 20
0.0
 30
0.0
  9
$PUCSORGFRONT
 10
0.0
 20
0.0
 30
0.0
  9
$PUCSORGBACK
 10
0.0
 20
0.0
 30
0.0
  9
$USERI1
 70
               0
  9
$USERI2
 70
               0
  9
$USERI3
 70
               0
  9
$USERI4
 70
               0
  9
$USERI5
 70
               0
  9
$USERR1
 40
0.0
  9
$USERR2
 40
0.0
  9
$USERR3
 40
0.0
  9
$USERR4
 40
0.0
  9
$USERR5
 40
0.0
  9
$WORLDVIEW
 70
               1
  9
$SHADEDGE
 70
               3
  9
$SHADEDIF
 70
              70
  9
$TILEMODE
 70
               1
  9
$MAXACTVP
 70
              64
  9
$PINSBASE
 10
0.0
 20
0.0
 30
0.0
  9
$PLIMCHECK
 70
               0
  9
$PEXTMIN
 10
1.0000000000000000E+20
 20
1.0000000000000000E+20
 30
1.0000000000000000E+20
  9
$PEXTMAX
 10
-1.0000000000000000E+20
 20
-1.0000000000000000E+20
 30
-1.0000000000000000E+20
  9
$PLIMMIN
 10
0.0
 20
0.0
  9
$PLIMMAX
 10
12.0
 20
9.0
  9
$UNITMODE
 70
               0
  9
$VISRETAIN
 70
               0
  9
$PLINEGEN
 70
               1
  9
$PSLTSCALE
 70
               0
  9
$TREEDEPTH
 70
            3020
  9
$CMLSTYLE
  2
Standard
  9
$CMLJUST
 70
               0
  9
$CMLSCALE
 40
1.0
  9
$PROXYGRAPHICS
 70
               0
  9
$MEASUREMENT
 70
               1
  9
$CELWEIGHT
370
               0
  9
$ENDCAPS
280
               0
  9
$JOINSTYLE
280
               0
  9
$LWDISPLAY
290
               1
  9
$INSUNITS
 70
               4
  9
$HYPERLINKBASE
  1

  9
$STYLESHEET
  1

  9
$XEDIT
290
               1
  9
$CEPSNTYPE
380
               0
  9
$PSTYLEMODE
290
               1
  9
$FINGERPRINTGUID
  2

  9
$VERSIONGUID
  2

  9
$EXTNAMES
290
               1
  9
$PSVPSCALE
 40
0.0
  0
ENDSEC
  0
SECTION
  2
CLASSES
  0
CLASS
  1
LWPOLYLINE
  2
AcDbPolyline
  3
AutoCAD 2000
 90
        0
280
               0
281
               1
  0
CLASS
  1
IMAGE
  2
AcDbRasterImage
  3
ISM
 90
      127
280
               0
281
               1
  0
CLASS
  1
OLE2FRAME
  2
AcDbOle2Frame
  3
AutoCAD 2000
 90
        0
280
               0
281
               1
  0
CLASS
  1
HATCH
  2
AcDbHatch
  3
AutoCAD 2000
 90
        0
280
               0
281
               1
  0
CLASS
  1
DICTIONARYVAR
  2
AcDbDictionaryVar
  3
AutoCAD 2000
 90
        0
280
               0
281
               0
  0
CLASS
  1
RASTERVARIABLES
  2
AcDbRasterVariables
  3
ISM
 90
        0
280
               0
281
               0
  0
CLASS
  1
IMAGEDEF
  2
AcDbRasterImageDef
  3
ISM
 90
        0
280
               0
281
               0
  0
CLASS
  1
IMAGEDEF_REACTOR
  2
AcDbRasterImageDefReactor
  3
ISM
 90
        1
280
               0
281
               0
  0
CLASS
  1
IDBUFFER
  2
AcDbIdBuffer
  3
AutoCAD 2000
 90
        0
280
               0
281
               0
  0
CLASS
  1
SPATIAL_FILTER
  2
AcDbSpatialFilter
  3
AutoCAD 2000
 90
        0
280
               0
281
               0
  0
CLASS
  1
XRECORD
  2
AcDbXrecord
  3
AutoCAD 2000
 90
        0
280
               0
281
               0
  0
CLASS
  1
SORTENTSTABLE
  2
AcDbSortentsTable
  3
AutoCAD 2000
 90
        0
280
               0
281
               0
  0
CLASS
  1
LAYER_INDEX
  2
AcDbLayerIndex
  3
AutoCAD 2000
 90
        0
280
               0
281
               0
  0
CLASS
  1
SPATIAL_INDEX
  2
AcDbSpatialIndex
  3
AutoCAD 2000
 90
        0
280
               0
281
               0
  0
CLASS
  1
OBJECT_PTR
  2
CAseDLPNTableRecord
  3
"ASE-LPNTableRecord"
 90
        1
280
               0
281
               0
  0
CLASS
  1
LAYOUT
  2
AcDbLayout
  3
AutoCAD 2000
 90
        0
280
               0
281
               0
  0
CLASS
  1
PLOTSETTINGS
  2
AcDbPlotSettings
  3
AutoCAD 2000
 90
        0
280
               0
281
               0
  0
CLASS
  1
ACDBDICTIONARYWDFLT
  2
AcDbDictionaryWithDefault
  3
AutoCAD 2000
 90
        0
280
               0
281
               0
  0
CLASS
  1
ACDBPLACEHOLDER
  2
AcDbPlaceHolder
  3
AutoCAD 2000
 90
        0
280
               0
281
               0
  0
ENDSEC
  0
SECTION
  2
TABLES
  0
TABLE
  2
VPORT
  5
7
100
AcDbSymbolTable
 70
               1
  0
VPORT
  5
15
100
AcDbSymbolTableRecord
100
AcDbViewportTableRecord
  2
*ACTIVE
 70
               0
 10
0.0
 20
0.0
 11
1.0
 21
1.0
 12
0.0
 22
-12.764114914906713
 13
0.0
 23
0.0
 14
1.0
 24
1.0
 15
0.0
 25
0.0
 16
0.0
 26
0.0
 36
1.0
 17
0.0
 27
0.0
 37
0.0
 40
2837.522815112412
 41
0.688564
 42
50.0
 43
0.0
 44
0.0
 50
0.0
 51
0.0
 71
               0
 72
            2000
 73
               1
 74
               1
 75
               0
 76
               0
 77
               0
 78
               0
281
               0
 65
               0
110
0.0
120
0.0
130
0.0
111
1.0
121
0.0
131
0.0
112
0.0
122
1.0
132
0.0
345
0
346
0
 79
               0
146
0.0
  0
ENDTAB
  0
TABLE
  2
LTYPE
  5
4
100
AcDbSymbolTable
 70
              18
  0
LTYPE
  5
11
100
AcDbSymbolTableRecord
100
AcDbLinetypeTableRecord
  2
ByBlock
 70
              64
  3

 72
              65
 73
               0
 40
0.0
  0
LTYPE
  5
12
100
AcDbSymbolTableRecord
100
AcDbLinetypeTableRecord
  2
ByLayer
 70
              64
  3

 72
              65
 73
               0
 40
0.0
  0
LTYPE
  5
13
100
AcDbSymbolTableRecord
100
AcDbLinetypeTableRecord
  2
Continuous
 70
              64
  3
Solid line
 72
              65
 73
               0
 40
0.0
  0
LTYPE
  5
3E
100
AcDbSymbolTableRecord
100
AcDbLinetypeTableRecord
  2
STYLE_01
 70
               0
  3

 72
              65
 73
               2
 40
0.2083334645669291
 49
0.1388889763779528
 74
               0
 49
-0.0694444881889764
 74
               0
  0
LTYPE
  5
3F
100
AcDbSymbolTableRecord
100
AcDbLinetypeTableRecord
  2
STYLE_02
 70
               0
  3

 72
              65
 73
               2
 40
0.2083334645669291
 49
0.1388889763779528
 74
               0
 49
-0.0694444881889764
 74
               0
  0
LTYPE
  5
40
100
AcDbSymbolTableRecord
100
AcDbLinetypeTableRecord
  2
STYLE_03
 70
               0
  3

 72
              65
 73
               2
 40
1.25
 49
1.0416400000000001
 74
               0
 49
-0.2083599999999999
 74
               0
  0
LTYPE
  5
41
100
AcDbSymbolTableRecord
100
AcDbLinetypeTableRecord
  2
STYLE_04
 70
               0
  3

 72
              65
 73
               2
 40
1.5277099999999999
 49
1.3194249999999998
 74
               0
 49
-0.208285
 74
               0
  0
LTYPE
  5
42
100
AcDbSymbolTableRecord
100
AcDbLinetypeTableRecord
  2
STYLE_05
 70
               0
  3

 72
              65
 73
               2
 40
0.20828
 49
0.069425
 74
               0
 49
-0.138855
 74
               0
  0
LTYPE
  5
43
100
AcDbSymbolTableRecord
100
AcDbLinetypeTableRecord
  2
STYLE_06
 70
               0
  3

 72
              65
 73
               4
 40
1.0416400000000001
 49
0.625
 74
               0
 49
-0.20828
 74
               0
 49
0.06943
 74
               0
 49
-0.13893
 74
               0
  0
LTYPE
  5
44
100
AcDbSymbolTableRecord
100
AcDbLinetypeTableRecord
  2
STYLE_07
 70
               0
  3

 72
              65
 73
               6
 40
1.875
 49
0.625
 74
               0
 49
-0.20828
 74
               0
 49
0.6250000000000001
 74
               0
 49
-0.2083599999999999
 74
               0
 49
0.06943
 74
               0
 49
-0.1389299999999999
 74
               0
  0
LTYPE
  5
45
100
AcDbSymbolTableRecord
100
AcDbLinetypeTableRecord
  2
STYLE_08
 70
               0
  3

 72
              65
 73
               6
 40
1.25
 49
0.625
 74
               0
 49
-0.20828
 74
               0
 49
0.06943
 74
               0
 49
-0.13893
 74
               0
 49
0.0694299999999999
 74
               0
 49
-0.13893
 74
               0
  0
LTYPE
  5
46
100
AcDbSymbolTableRecord
100
AcDbLinetypeTableRecord
  2
STYLE_09
 70
               0
  3

 72
              65
 73
               4
 40
5.0
 49
3.75
 74
               0
 49
-0.2777849999999998
 74
               0
 49
0.6944300000000003
 74
               0
 49
-0.2777849999999998
 74
               0
  0
LTYPE
  5
47
100
AcDbSymbolTableRecord
100
AcDbLinetypeTableRecord
  2
STYLE_10
 70
               0
  3

 72
              65
 73
               6
 40
5.9375
 49
3.75
 74
               0
 49
-0.2777849999999998
 74
               0
 49
0.6944300000000003
 74
               0
 49
-0.2777849999999998
 74
               0
 49
0.625
 74
               0
 49
-0.3125
 74
               0
  0
LTYPE
  5
48
100
AcDbSymbolTableRecord
100
AcDbLinetypeTableRecord
  2
STYLE_11
 70
               0
  3

 72
              65
 73
               2
 40
0.0694444881889764
 49
0.0347222440944882
 74
               0
 49
-0.0347222440944882
 74
               0
  0
LTYPE
  5
49
100
AcDbSymbolTableRecord
100
AcDbLinetypeTableRecord
  2
STYLE_12
 70
               0
  3

 72
              65
 73
               2
 40
0.3937007874015748
 49
0.1968503937007874
 74
               0
 49
-0.1968503937007874
 74
               0
  0
LTYPE
  5
4A
100
AcDbSymbolTableRecord
100
AcDbLinetypeTableRecord
  2
STYLE_13
 70
               0
  3

 72
              65
 73
               2
 40
0.5905511811023622
 49
0.2952755905511811
 74
               0
 49
-0.2952755905511811
 74
               0
  0
LTYPE
  5
4B
100
AcDbSymbolTableRecord
100
AcDbLinetypeTableRecord
  2
STYLE_14
 70
               0
  3

 72
              65
 73
               2
 40
1.9685039370078738
 49
0.9842519685039369
 74
               0
 49
-0.9842519685039369
 74
               0
  0
LTYPE
  5
4C
100
AcDbSymbolTableRecord
100
AcDbLinetypeTableRecord
  2
STYLE_15
 70
               0
  3

 72
              65
 73
               2
 40
0.516732283464567
 49
0.344488188976378
 74
               0
 49
-0.172244094488189
 74
               0
  0
ENDTAB
  0
TABLE
  2
LAYER
  5
2
100
AcDbSymbolTable
 70
               5
  0
LAYER
  5
14
100
AcDbSymbolTableRecord
100
AcDbLayerTableRecord
  2
0
 70
               0
 62
               7
  6
Continuous
290
               1
370
              -3
390
1D
  0
LAYER
  5
4D
100
AcDbSymbolTableRecord
100
AcDbLayerTableRecord
  2
Defpoints
 70
               0
 62
               7
  6
Continuous
290
               0
370
              -3
390
1D
  0
LAYER
  5
4E
100
AcDbSymbolTableRecord
100
AcDbLayerTableRecord
  2
template
 70
               0
 62
               7
  6
Continuous
290
               1
370
              -3
390
1D
  0
LAYER
  5
4F
100
AcDbSymbolTableRecord
100
AcDbLayerTableRecord
  2
notes
 70
               0
 62
               7
  6
Continuous
290
               1
370
              -3
390
1D
  0
LAYER
  5
50
100
AcDbSymbolTableRecord
100
AcDbLayerTableRecord
  2
GAR70-0206
 70
               0
 62
               7
  6
Continuous
290
               1
370
              -3
390
1D
  0
ENDTAB
  0
TABLE
  2
STYLE
  5
3
100
AcDbSymbolTable
 70
               2
  0
STYLE
  5
17
100
AcDbSymbolTableRecord
100
AcDbTextStyleTableRecord
  2
Standard
 70
               0
 40
0.0
 41
1.0
 50
0.0
 71
               0
 42
0.0
  3
txt
  4
BIGFONT.SHX
  0
STYLE
  5
3D
100
AcDbSymbolTableRecord
100
AcDbTextStyleTableRecord
  2
ＭＳ ゴシック
 70
               0
 40
0.0
 41
1.0
 50
0.0
 71
               0
 42
0.0
  3

  4
ＭＳ ゴシック
1001
ACAD
1000
ＭＳ ゴシック
1071
        0
  0
ENDTAB
  0
TABLE
  2
VIEW
  5
5
100
AcDbSymbolTable
 70
               0
  0
ENDTAB
  0
TABLE
  2
UCS
  5
6
100
AcDbSymbolTable
 70
               0
  0
ENDTAB
  0
TABLE
  2
APPID
  5
8
100
AcDbSymbolTable
 70
               1
  0
APPID
  5
16
100
AcDbSymbolTableRecord
100
AcDbRegAppTableRecord
  2
ACAD
 70
               0
  0
ENDTAB
  0
TABLE
  2
DIMSTYLE
  5
9
100
AcDbSymbolTable
 70
               2
100
AcDbDimStyleTable
 71
               0
  0
DIMSTYLE
105
18
100
AcDbSymbolTableRecord
100
AcDbDimStyleTableRecord
  2
Standard
 70
               0
  3

  4

 40
1.0
 41
0.18
 42
0.0625
 43
0.38
 44
0.18
 45
0.0
 46
0.0
 47
0.0
 48
0.0
 71
               0
 72
               0
 73
               1
 74
               1
 75
               0
 76
               0
 77
               0
 78
               0
 79
               0
140
0.18
141
0.09
142
0.0
143
25.399999999999999
144
1.0
145
0.0
146
1.0
147
0.09
148
0.0
170
               0
171
               2
172
               0
173
               0
174
               0
175
               0
176
               0
177
               0
178
               0
179
               0
271
               4
272
               4
273
               2
274
               2
275
               0
276
               0
277
               2
278
              46
279
               0
280
               0
281
               0
282
               0
283
               1
284
               0
285
               0
286
               0
288
               0
289
               3
340
17
341
0
342
0
343
0
344
0
371
              -2
372
              -2
  0
DIMSTYLE
105
59
100
AcDbSymbolTableRecord
100
AcDbDimStyleTableRecord
  2
tfrom線あり
 70
               0
  3
<>
  4
[]
 40
1.0
 41
3.999755859375
 42
24.999999999999996
 43
0.9999999999999999
 44
0.0
 45
0.0
 46
0.0
 47
0.0
 48
0.0
 71
               0
 72
               0
 73
               0
 74
               0
 75
               0
 76
               0
 77
               1
 78
              11
 79
               0
140
24.432617187500004
141
0.0
142
0.0
143
1.0
144
1.0
145
0.0
146
1.0
147
0.4999999999999999
148
0.0
170
               0
171
               1
172
               0
173
               0
174
               1
175
               0
176
               0
177
               0
178
               0
179
               2
271
               1
272
               1
273
               2
274
               2
275
               0
276
               2
277
               2
278
              46
279
               0
280
               0
281
               0
282
               0
283
               1
284
              11
285
              11
286
              11
288
               0
289
               0
340
3D
341
51
342
51
343
0
344
0
371
              -2
372
              -2
  0
ENDTAB
  0
TABLE
  2
BLOCK_RECORD
  5
1
100
AcDbSymbolTable
 70
              27
  0
BLOCK_RECORD
  5
A
100
AcDbSymbolTableRecord
100
AcDbBlockTableRecord
  2
*MODEL_SPACE
340
20
  0
BLOCK_RECORD
  5
B
100
AcDbSymbolTableRecord
100
AcDbBlockTableRecord
  2
*PAPER_SPACE
340
21
  0
BLOCK_RECORD
  5
51
100
AcDbSymbolTableRecord
100
AcDbBlockTableRecord
  2
_DOT
340
0
  0
BLOCK_RECORD
  5
23
100
AcDbSymbolTableRecord
100
AcDbBlockTableRecord
  2
グループ
340
0
102
{BLKREFS
331
19A
102
}
  0
BLOCK_RECORD
  5
24
100
AcDbSymbolTableRecord
100
AcDbBlockTableRecord
  2
*D2
340
0
  0
BLOCK_RECORD
  5
25
100
AcDbSymbolTableRecord
100
AcDbBlockTableRecord
  2
*D3
340
0
  0
BLOCK_RECORD
  5
26
100
AcDbSymbolTableRecord
100
AcDbBlockTableRecord
  2
*D4
340
0
  0
BLOCK_RECORD
  5
27
100
AcDbSymbolTableRecord
100
AcDbBlockTableRecord
  2
*D5
340
0
  0
BLOCK_RECORD
  5
28
100
AcDbSymbolTableRecord
100
AcDbBlockTableRecord
  2
*D6
340
0
  0
BLOCK_RECORD
  5
29
100
AcDbSymbolTableRecord
100
AcDbBlockTableRecord
  2
*D7
340
0
  0
BLOCK_RECORD
  5
2A
100
AcDbSymbolTableRecord
100
AcDbBlockTableRecord
  2
*D8
340
0
  0
BLOCK_RECORD
  5
2B
100
AcDbSymbolTableRecord
100
AcDbBlockTableRecord
  2
*D9
340
0
  0
BLOCK_RECORD
  5
2C
100
AcDbSymbolTableRecord
100
AcDbBlockTableRecord
  2
*D10
340
0
  0
BLOCK_RECORD
  5
2D
100
AcDbSymbolTableRecord
100
AcDbBlockTableRecord
  2
*D11
340
0
  0
BLOCK_RECORD
  5
2E
100
AcDbSymbolTableRecord
100
AcDbBlockTableRecord
  2
*D12
340
0
  0
BLOCK_RECORD
  5
2F
100
AcDbSymbolTableRecord
100
AcDbBlockTableRecord
  2
*D13
340
0
  0
BLOCK_RECORD
  5
30
100
AcDbSymbolTableRecord
100
AcDbBlockTableRecord
  2
*D14
340
0
  0
BLOCK_RECORD
  5
31
100
AcDbSymbolTableRecord
100
AcDbBlockTableRecord
  2
*D15
340
0
  0
BLOCK_RECORD
  5
32
100
AcDbSymbolTableRecord
100
AcDbBlockTableRecord
  2
*D16
340
0
  0
BLOCK_RECORD
  5
33
100
AcDbSymbolTableRecord
100
AcDbBlockTableRecord
  2
*D17
340
0
  0
BLOCK_RECORD
  5
34
100
AcDbSymbolTableRecord
100
AcDbBlockTableRecord
  2
*D18
340
0
  0
BLOCK_RECORD
  5
35
100
AcDbSymbolTableRecord
100
AcDbBlockTableRecord
  2
*D19
340
0
  0
BLOCK_RECORD
  5
36
100
AcDbSymbolTableRecord
100
AcDbBlockTableRecord
  2
*D20
340
0
  0
BLOCK_RECORD
  5
37
100
AcDbSymbolTableRecord
100
AcDbBlockTableRecord
  2
*D21
340
0
  0
BLOCK_RECORD
  5
38
100
AcDbSymbolTableRecord
100
AcDbBlockTableRecord
  2
*D22
340
0
  0
BLOCK_RECORD
  5
39
100
AcDbSymbolTableRecord
100
AcDbBlockTableRecord
  2
*D23
340
0
  0
BLOCK_RECORD
  5
3A
100
AcDbSymbolTableRecord
100
AcDbBlockTableRecord
  2
グループ-1
340
0
102
{BLKREFS
331
1D1
102
}
  0
BLOCK_RECORD
  5
3B
100
AcDbSymbolTableRecord
100
AcDbBlockTableRecord
  2
グループ-2
340
0
102
{BLKREFS
331
1D2
102
}
  0
BLOCK_RECORD
  5
3C
100
AcDbSymbolTableRecord
100
AcDbBlockTableRecord
  2
*D26
340
0
  0
ENDTAB
  0
ENDSEC
  0
SECTION
  2
BLOCKS
  0
BLOCK
  5
D
100
AcDbEntity
  8
0
390
0
100
AcDbBlockBegin
  2
*MODEL_SPACE
 70
               0
 10
0.0
 20
0.0
 30
0.0
  3
*MODEL_SPACE
  1

  0
ENDBLK
  5
E
100
AcDbEntity
  8
0
390
0
100
AcDbBlockEnd
  0
BLOCK
  5
F
100
AcDbEntity
 67
               1
  8
0
390
0
100
AcDbBlockBegin
  2
*PAPER_SPACE
 70
               0
 10
0.0
 20
0.0
 30
0.0
  3
*PAPER_SPACE
  1

  0
ENDBLK
  5
10
100
AcDbEntity
 67
               1
  8
0
390
0
100
AcDbBlockEnd
  0
BLOCK
  5
52
100
AcDbEntity
  8
0
390
0
100
AcDbBlockBegin
  2
_DOT
 70
               0
 10
0.0
 20
0.0
 30
0.0
  3
_DOT
  1

  0
POLYLINE
  5
53
100
AcDbEntity
  8
0
370
              -2
390
0
  6
ByBlock
 62
               0
100
AcDb2dPolyline
 66
               1
 10
0.0
 20
0.0
 30
0.0
 70
               1
 40
0.5
 41
0.5
  0
VERTEX
  5
54
100
AcDbEntity
  8
0
370
              -2
390
0
  6
ByBlock
 62
               0
100
AcDbVertex
100
AcDb2dVertex
 10
-0.25
 20
0.0
 30
0.0
 42
1.0
  0
VERTEX
  5
55
100
AcDbEntity
  8
0
370
              -2
390
0
  6
ByBlock
 62
               0
100
AcDbVertex
100
AcDb2dVertex
 10
0.25
 20
0.0
 30
0.0
 42
1.0
  0
SEQEND
  5
56
100
AcDbEntity
  8
0
390
0
  0
LINE
  5
57
100
AcDbEntity
  8
0
370
              -2
390
0
  6
ByBlock
 62
               0
100
AcDbLine
 10
-0.5
 20
0.0
 30
0.0
 11
-1.0
 21
0.0
 31
0.0
  0
ENDBLK
  5
58
100
AcDbEntity
  8
0
390
0
100
AcDbBlockEnd
  0
BLOCK
  5
5A
100
AcDbEntity
  8
template
390
0
100
AcDbBlockBegin
  2
グループ
 70
               0
 10
0.0
 20
0.0
 30
0.0
  3
グループ
  1

  0
LWPOLYLINE
  5
5B
100
AcDbEntity
  8
0
370
              15
390
0
  6
Continuous
 62
               7
100
AcDbPolyline
 90
        8
 70
             129
 10
887.3298249196182
 20
-2032.8833468858847
 10
887.3298249196182
 20
-2038.8807355794606
 10
877.8286280016149
 20
-2038.8807355794606
 10
877.8286280016149
 20
-2063.3316988429697
 10
869.47325073983211
 20
-2063.3316988429697
 10
869.47325073983211
 20
-2038.8807355794606
 10
860.14029379352269
 20
-2038.8807355794606
 10
860.14029379352269
 20
-2032.8833468858847
  0
LWPOLYLINE
  5
5C
100
AcDbEntity
  8
0
370
              15
390
0
  6
Continuous
 62
               7
100
AcDbPolyline
 90
      101
 70
             128
 10
900.05811675017515
 20
-2033.6115953788212
 10
900.0734667789593
 20
-2033.6072346221363
 42
-0.0222221607812493
 10
900.36347135563119
 20
-2033.5386101568915
 10
900.37926511961814
 20
-2033.5356067337957
 42
-0.0146883565587525
 10
900.64196782484896
 20
-2033.4936035468452
 42
-0.0127458844191307
 10
900.90660679199175
 20
-2033.4660665787735
 10
900.96906187031482
 20
-2033.4611731561845
 42
-0.0198099018562526
 10
901.35991097979445
 20
-2033.4460879987878
 10
901.41172244923541
 20
-2033.4461417744528
 42
-0.0147617382760212
 10
901.90634591021228
 20
-2033.4612617996979
 10
901.97903736508567
 20
-2033.4656344065857
 42
-0.0162624549003879
 10
902.36919099454917
 20
-2033.5018672818578
 10
902.49072338581038
 20
-2033.5171538408547
 42
-0.0080020874668184
 10
902.63630241689998
 20
-2033.5378366881228
 10
902.67462188749744
 20
-2033.5439079659343
 42
-0.0053821929676989
 10
902.74310599280977
 20
-2033.5555154897554
 10
902.01670029361117
 20
-2035.7364439454693
 42
0.0108667757400898
 10
901.94938322347787
 20
-2035.7232568302491
 10
901.91191520029088
 20
-2035.716759087655
 42
0.017066320331076
 10
901.76869841337759
 20
-2035.6969294903636
 10
901.70082308069232
 20
-2035.6898823197757
 42
0.022016237527691
 10
901.42044367283586
 20
-2035.6731999590056
 10
901.34258810578513
 20
-2035.6720005917391
 42
0.0282606915787403
 10
901.00695178220701
 20
-2035.6858038687083
 10
900.96303850843844
 20
-2035.6901038587114
 42
0.0169677213681375
 10
900.71711401347579
 20
-2035.7226409082637
 42
0.0190576269863435
 10
900.47420605089712
 20
-2035.7727877803698
 10
900.46794686278486
 20
-2035.7743307544795
 42
0.0213685642849802
 10
900.21756237830527
 20
-2035.847531039585
 10
900.2120724833909
 20
-2035.8493940356434
 42
0.0237595297599529
 10
899.95857759849218
 20
-2035.949078557539
 10
899.95347552446253
 20
-2035.9513703330172
 42
0.0261857468818362
 10
899.70130474823247
 20
-2036.0809066703916
 10
899.690878559147
 20
-2036.0869721448594
 42
0.0272553062021177
 10
899.45444878390708
 20
-2036.2423443508042
 10
899.41968577039654
 20
-2036.2680054988971
 42
0.0325996893169347
 10
899.26953042674609
 20
-2036.3947533718679
 10
899.24582099762665
 20
-2036.4175714003773
 42
0.0138050960629919
 10
899.15393784141293
 20
-2036.5110210619323
 42
0.0125280103802787
 10
899.06709530858336
 20
-2036.6091843885279
 10
899.04341486367105
 20
-2036.6373428867198
 42
0.0205218024740797
 10
898.9183147881547
 20
-2036.7991362009525
 10
898.89584844767023
 20
-2036.8307959307758
 42
0.0163110129578029
 10
898.74013806842288
 20
-2037.0661263658394
 10
898.73741417236795
 20
-2037.0705501278312
 42
0.0131897341898573
 10
898.59061365146022
 20
-2037.3236822201991
 10
898.58891355609558
 20
-2037.3268004593315
 42
0.010789557606525
 10
898.45113685388503
 20
-2037.593015668966
 10
898.45040396435979
 20
-2037.594509901613
 42
0.0091371507225188
 10
898.32192401570626
 20
-2037.8690350993813
 10
898.292178384301
 20
-2037.9357416065313
 42
0.0135418326351042
 10
898.12046444522662
 20
-2038.350679391807
 10
898.0868596367917
 20
-2038.4385455340903
 42
0.0092834542416374
 10
897.91563057687426
 20
-2038.9124440323867
 10
897.89001344916335
 20
-2038.9876851021602
 42
0.0054261043577156
 10
897.78237530086358
 20
-2039.3154490752454
 10
897.76484931464267
 20
-2039.3708372376129
 42
0.0008225090817352
 10
897.69617926285616
 20
-2039.5891059956245
 10
896.7114901309227
 20
-2042.6139972888811
 10
899.94411397099657
 20
-2042.6139972888811
 10
899.43992154114312
 20
-2044.5184755872335
 10
896.1838652591598
 20
-2044.5184755872335
 10
890.35471622680598
 20
-2063.3316986532382
 10
888.52961861649567
 20
-2063.3316986532382
 10
894.3642966519966
 20
-2044.5184755872335
 10
891.95918028295625
 20
-2044.5184755872335
 10
892.4633727128097
 20
-2042.6139972888811
 10
894.89192152375972
 20
-2042.6139972888811
 10
895.75207644194836
 20
-2039.9775842881822
 42
-0.0005863560642688
 10
895.78881112011754
 20
-2039.8607578679994
 10
895.86489895381226
 20
-2039.619765568505
 42
-0.0087522378926756
 10
896.06436709727302
 20
-2039.0244894813472
 10
896.15663137269019
 20
-2038.7643493128242
 42
-0.007740095382928
 10
896.41456503181371
 20
-2038.0713446352975
 10
896.43033000339381
 20
-2038.0309137519084
 42
-0.0082369946330366
 10
896.67741447400454
 20
-2037.4268346857157
 42
-0.0085725238366124
 10
896.94466057000363
 20
-2036.8314086464366
 10
897.04629017101365
 20
-2036.6149875444457
 42
-0.0168109410596466
 10
897.33323459974486
 20
-2036.053780018339
 10
897.45907799021711
 20
-2035.8268159853176
 42
-0.00078177268614
 10
897.51336234026053
 20
-2035.7292717403107
 10
897.51349064626015
 20
-2035.7290420316058
 42
-0.0036626142170992
 10
897.568378510299
 20
-2035.6324441516056
 42
-0.008022115066857
 10
897.62550276570914
 20
-2035.5371649168471
 10
897.65620271706689
 20
-2035.4877739677304
 42
-0.0202139325575635
 10
897.78385845687478
 20
-2035.2997923670475
 10
897.83792592206123
 20
-2035.2267135028083
 42
-0.0249323791804685
 10
898.09708871578016
 20
-2034.9106682606543
 10
898.1212285299074
 20
-2034.8840539877415
 42
-0.0242132121537195
 10
898.46090927145076
 20
-2034.5441705015362
 10
898.508820844203
 20
-2034.5006613653488
 42
-0.0251017527857421
 10
898.7928025448407
 20
-2034.2676686195864
 10
898.79424802164954
 20
-2034.266599362011
 42
-0.0130868069035217
 10
899.09250867161177
 20
-2034.0578188934651
 10
899.09407049075685
 20
-2034.0567854531885
 42
-0.0290329526385022
 10
899.40518163214779
 20
-2033.8759599515606
 10
899.4350271941413
 20
-2033.8608575687174
 42
-0.0160250190045955
 10
899.70093160789861
 20
-2033.736841458508
 42
-0.0267600374790968
 10
899.97620768536081
 20
-2033.6360931379613
 10
900.00294360488817
 20
-2033.6279005791337
 42
-0.0049981587669873
 10
900.05811675017515
 20
-2033.6115953788212
 42
-0.0049981587669873
  0
LWPOLYLINE
  5
5D
100
AcDbEntity
  8
0
370
              15
390
0
  6
Continuous
 62
               7
100
AcDbPolyline
 90
      118
 70
             128
 10
919.87248431462206
 20
-2042.6879806167085
 10
921.74760623912152
 20
-2042.6879806167085
 10
920.90956733352164
 20
-2045.3695471431085
 42
-0.001058722923659
 10
920.94102314912152
 20
-2045.3326426097203
 10
920.99921723972557
 20
-2045.2646603535775
 42
-0.0071874740406103
 10
921.14959245783018
 20
-2045.0940196615411
 10
921.29131523108583
 20
-2044.9377835202354
 42
-0.0148118053514051
 10
921.7414445237971
 20
-2044.4701696742236
 10
921.82866685870317
 20
-2044.3847723533661
 42
-0.0086273358693458
 10
922.16421565970882
 20
-2044.0673967193522
 10
922.20804937594107
 20
-2044.0273470750135
 42
-0.0103138323114514
 10
922.46607307816817
 20
-2043.8011839376809
 10
922.5118474845026
 20
-2043.7627018904145
 42
-0.0060206748564689
 10
922.68469554860746
 20
-2043.6209072396664
 10
922.68672667947521
 20
-2043.6192815340496
 42
-0.006706902730094
 10
922.85901949415597
 20
-2043.4851309002402
 10
922.86156826008346
 20
-2043.4832007303637
 42
-0.0076184352052367
 10
923.03247352595326
 20
-2043.3578258551211
 42
-0.0089652861677115
 10
923.20743448869109
 20
-2043.2381925947861
 10
923.24378620883977
 20
-2043.2142813813007
 42
-0.0156916245932747
 10
923.43974570599289
 20
-2043.0940188948312
 42
-0.0023299011074369
 10
923.64000774990461
 20
-2042.9808409553282
 10
923.65539188235255
 20
-2042.9722409602255
 42
-0.0107669341487399
 10
923.88962870745399
 20
-2042.8478408268759
 10
923.91189350852869
 20
-2042.836624076926
 42
-0.0078058045891346
 10
924.19548362649698
 20
-2042.6992626212802
 10
924.20539071419057
 20
-2042.6946534934191
 42
-0.0181829330471529
 10
924.51570011880528
 20
-2042.5637897523238
 10
924.56975556137252
 20
-2042.5432746323802
 42
-0.0208411536031556
 10
924.91884052882324
 20
-2042.4271841698869
 10
924.93319662894498
 20
-2042.423065724935
 42
-0.0222799817143986
 10
925.2619164228679
 20
-2042.3444241587931
 10
925.27080538610369
 20
-2042.3427121482082
 42
-0.0215509523883155
 10
925.58727635438481
 20
-2042.2957964596735
 10
925.62975831543588
 20
-2042.2913589328825
 42
-0.0182545924870488
 10
925.86386709473891
 20
-2042.2755151074919
 10
925.90326811109503
 20
-2042.2742905624125
 42
-0.0072962856532212
 10
926.05919099077596
 20
-2042.2717212338905
 10
926.08829066133535
 20
-2042.2716663984868
 42
-0.0059227516327159
 10
926.18604016049289
 20
-2042.2726401102773
 10
926.21528237795576
 20
-2042.2732778768802
 42
-0.001183311190461
 10
926.25453366169722
 20
-2042.2742268811905
 10
925.45914706609005
 20
-2044.8129608262896
 42
0.0143932051573961
 10
925.43274568374443
 20
-2044.8027618562462
 10
925.42547371132218
 20
-2044.800190637387
 42
0.0234388603511453
 10
925.38364284539091
 20
-2044.7875714016718
 10
925.37496118247736
 20
-2044.7853904396666
 42
0.0199162742994971
 10
925.3146723483959
 20
-2044.7727737043313
 10
925.29385841059116
 20
-2044.769276504903
 42
0.0293643550662536
 10
925.19078355183137
 20
-2044.7581264592498
 10
925.16609837111173
 20
-2044.7569148422313
 42
0.0214606686862185
 10
925.01295745516131
 20
-2044.7559762818137
 10
925.00358554434126
 20
-2044.756321193358
 42
0.0167564054175386
 10
924.83206535323404
 20
-2044.768398235726
 10
924.82360556047388
 20
-2044.7692795761532
 42
0.0137677553237331
 10
924.63625224721216
 20
-2044.7940288846962
 10
924.62890050770125
 20
-2044.7952068046648
 42
0.0118497261492243
 10
924.4284027435898
 20
-2044.832224154856
 10
924.42225273635268
 20
-2044.833511017574
 42
0.0106421143885047
 10
924.2113718490707
 20
-2044.8823433931479
 10
924.20646304067861
 20
-2044.8835907358339
 42
0.0099746379697998
 10
923.98800457152345
 20
-2044.9437652641464
 10
923.92645653134582
 20
-2044.9620471427793
 42
0.0191613675859014
 10
923.5904720688327
 20
-2045.0760245230654
 10
923.50241229608457
 20
-2045.1097114333904
 42
0.0205274080143915
 10
923.11710552418413
 20
-2045.2755398412169
 10
923.05945624220612
 20
-2045.3032078057875
 42
0.0181256912196811
 10
922.80117930153517
 20
-2045.4388916247672
 10
922.74822391822545
 20
-2045.4692092379794
 42
0.0140709242406663
 10
922.6032689835929
 20
-2045.5577039114162
 10
922.57702011496895
 20
-2045.5747607301353
 42
0.0086667884404821
 10
922.48809395343187
 20
-2045.6347633980145
 42
0.0036408192031767
 10
922.40066071537501
 20
-2045.6969442558236
 10
922.36543384092988
 20
-2045.7223852017196
 42
0.0052260781277991
 10
922.20920514353327
 20
-2045.8377175883581
 10
922.19299828727912
 20
-2045.8499456989721
 42
0.0050024435893586
 10
922.00699494422645
 20
-2045.9932282672294
 10
921.99167678770516
 20
-2046.0052742896801
 42
0.0136138710283743
 10
921.78123551938006
 20
-2046.1802407945934
 10
921.74756764358631
 20
-2046.2098197673076
 42
0.0172815186912273
 10
921.48316410192911
 20
-2046.4588164399256
 10
921.48060175608111
 20
-2046.4614022570781
 42
0.0189403857994361
 10
921.23001995750087
 20
-2046.7342075218837
 10
921.19738846396672
 20
-2046.7725514533786
 42
0.0185044199502373
 10
921.00543202498602
 20
-2047.0158000345023
 42
0.0088565243897102
 10
920.82697191836235
 20
-2047.2693164546454
 10
920.81779393870909
 20
-2047.2828578344124
 42
0.0157195347233847
 10
920.63457333237113
 20
-2047.5723800437345
 10
920.58849039044742
 20
-2047.6505322407431
 42
0.0095451879780891
 10
920.42340484030649
 20
-2047.9431268831054
 10
920.41225692137675
 20
-2047.9637975552375
 42
0.010035170625577
 10
920.2802131722176
 20
-2048.2208531157285
 42
0.0086935915426427
 10
920.15788202043086
 20
-2048.4826862611162
 10
920.15456127900904
 20
-2048.4901285841042
 42
0.0072580174860721
 10
920.03421482706653
 20
-2048.7707205756815
 10
920.0309531937578
 20
-2048.7786406017053
 42
0.0060005122621099
 10
919.91175252540802
 20
-2049.0782502723287
 10
919.90854154707347
 20
-2049.086611800215
 42
0.0049017786975529
 10
919.78964138821448
 20
-2049.4055407808241
 10
919.78647558182558
 20
-2049.4142937180504
 42
0.0039415167601526
 10
919.66703930376764
 20
-2049.7528357804672
 10
919.66390820111678
 20
-2049.7619389813394
 42
0.0031035838768161
 10
919.54310341541611
 20
-2050.1203788431353
 10
919.53999337089328
 20
-2050.1297994644874
 42
0.0025070747143934
 10
919.41709201959077
 20
-2050.5084466813914
 10
919.37979812315257
 20
-2050.6253383466847
 42
0.0029081910284119
 10
919.18777982533447
 20
-2051.2395020049998
 10
919.14697665682468
 20
-2051.3727252472522
 42
0.0009266453733613
 10
918.87855928251668
 20
-2052.2549497071536
 10
918.85767180989319
 20
-2052.3240615863328
 42
-0.0005809993665591
 10
918.58033512927818
 20
-2053.2378696930505
 10
918.51405333100627
 20
-2053.4553546252068
 42
-0.0012018708167917
 10
918.36706902157607
 20
-2053.9335172897308
 10
918.31474917002254
 20
-2054.1022764305576
 42
-0.0002691059606135
 10
918.27117968884193
 20
-2054.2425440509387
 10
915.43822379055268
 20
-2063.3316986532382
 10
913.62023489857415
 20
-2063.3316986532382
 10
919.87248431462206
 20
-2042.6879806167085
  0
SPLINE
  5
5E
100
AcDbEntity
  8
0
370
              15
390
0
  6
Continuous
 62
               7
100
AcDbSpline
210
0.0
220
0.0
230
1.0
 70
              13
 71
               2
 72
             782
 73
             779
 74
               0
 42
0.000001
 43
0.000001
 40
0.0
 40
0.0
 40
0.0
 40
1.0
 40
1.0
 40
2.0
 40
2.0
 40
3.0
 40
3.0
 40
4.0
 40
4.0
 40
5.0
 40
5.0
 40
6.0
 40
6.0
 40
7.0
 40
7.0
 40
8.0
 40
8.0
 40
9.0
 40
9.0
 40
10.0
 40
10.0
 40
11.0
 40
11.0
 40
12.0
 40
12.0
 40
13.0
 40
13.0
 40
14.0
 40
14.0
 40
15.0
 40
15.0
 40
16.0
 40
16.0
 40
17.0
 40
17.0
 40
18.0
 40
18.0
 40
19.0
 40
19.0
 40
20.0
 40
20.0
 40
21.0
 40
21.0
 40
22.0
 40
22.0
 40
23.0
 40
23.0
 40
24.0
 40
24.0
 40
25.0
 40
25.0
 40
26.0
 40
26.0
 40
27.0
 40
27.0
 40
28.0
 40
28.0
 40
29.0
 40
29.0
 40
30.0
 40
30.0
 40
31.0
 40
31.0
 40
32.0
 40
32.0
 40
33.0
 40
33.0
 40
34.0
 40
34.0
 40
35.0
 40
35.0
 40
36.0
 40
36.0
 40
37.0
 40
37.0
 40
38.0
 40
38.0
 40
39.0
 40
39.0
 40
40.0
 40
40.0
 40
41.0
 40
41.0
 40
42.0
 40
42.0
 40
43.0
 40
43.0
 40
44.0
 40
44.0
 40
45.0
 40
45.0
 40
46.0
 40
46.0
 40
47.0
 40
47.0
 40
48.0
 40
48.0
 40
49.0
 40
49.0
 40
50.0
 40
50.0
 40
51.0
 40
51.0
 40
52.0
 40
52.0
 40
53.0
 40
53.0
 40
54.0
 40
54.0
 40
55.0
 40
55.0
 40
56.0
 40
56.0
 40
57.0
 40
57.0
 40
58.0
 40
58.0
 40
59.0
 40
59.0
 40
60.0
 40
60.0
 40
61.0
 40
61.0
 40
62.0
 40
62.0
 40
63.0
 40
63.0
 40
64.0
 40
64.0
 40
65.0
 40
65.0
 40
66.0
 40
66.0
 40
67.0
 40
67.0
 40
68.0
 40
68.0
 40
69.0
 40
69.0
 40
70.0
 40
70.0
 40
71.0
 40
71.0
 40
72.0
 40
72.0
 40
73.0
 40
73.0
 40
74.0
 40
74.0
 40
75.0
 40
75.0
 40
76.0
 40
76.0
 40
77.0
 40
77.0
 40
78.0
 40
78.0
 40
79.0
 40
79.0
 40
80.0
 40
80.0
 40
81.0
 40
81.0
 40
82.0
 40
82.0
 40
83.0
 40
83.0
 40
84.0
 40
84.0
 40
85.0
 40
85.0
 40
86.0
 40
86.0
 40
87.0
 40
87.0
 40
88.0
 40
88.0
 40
89.0
 40
89.0
 40
90.0
 40
90.0
 40
91.0
 40
91.0
 40
92.0
 40
92.0
 40
93.0
 40
93.0
 40
94.0
 40
94.0
 40
95.0
 40
95.0
 40
96.0
 40
96.0
 40
97.0
 40
97.0
 40
98.0
 40
98.0
 40
99.0
 40
99.0
 40
100.0
 40
100.0
 40
101.0
 40
101.0
 40
102.0
 40
102.0
 40
103.0
 40
103.0
 40
104.0
 40
104.0
 40
105.0
 40
105.0
 40
106.0
 40
106.0
 40
107.0
 40
107.0
 40
108.0
 40
108.0
 40
109.0
 40
109.0
 40
110.0
 40
110.0
 40
111.0
 40
111.0
 40
112.0
 40
112.0
 40
113.0
 40
113.0
 40
114.0
 40
114.0
 40
115.0
 40
115.0
 40
116.0
 40
116.0
 40
117.0
 40
117.0
 40
118.0
 40
118.0
 40
119.0
 40
119.0
 40
120.0
 40
120.0
 40
121.0
 40
121.0
 40
122.0
 40
122.0
 40
123.0
 40
123.0
 40
124.0
 40
124.0
 40
125.0
 40
125.0
 40
126.0
 40
126.0
 40
127.0
 40
127.0
 40
128.0
 40
128.0
 40
129.0
 40
129.0
 40
130.0
 40
130.0
 40
131.0
 40
131.0
 40
132.0
 40
132.0
 40
133.0
 40
133.0
 40
134.0
 40
134.0
 40
135.0
 40
135.0
 40
136.0
 40
136.0
 40
137.0
 40
137.0
 40
138.0
 40
138.0
 40
139.0
 40
139.0
 40
140.0
 40
140.0
 40
141.0
 40
141.0
 40
142.0
 40
142.0
 40
143.0
 40
143.0
 40
144.0
 40
144.0
 40
145.0
 40
145.0
 40
146.0
 40
146.0
 40
147.0
 40
147.0
 40
148.0
 40
148.0
 40
149.0
 40
149.0
 40
150.0
 40
150.0
 40
151.0
 40
151.0
 40
152.0
 40
152.0
 40
153.0
 40
153.0
 40
154.0
 40
154.0
 40
155.0
 40
155.0
 40
156.0
 40
156.0
 40
157.0
 40
157.0
 40
158.0
 40
158.0
 40
159.0
 40
159.0
 40
160.0
 40
160.0
 40
161.0
 40
161.0
 40
162.0
 40
162.0
 40
163.0
 40
163.0
 40
164.0
 40
164.0
 40
165.0
 40
165.0
 40
166.0
 40
166.0
 40
167.0
 40
167.0
 40
168.0
 40
168.0
 40
169.0
 40
169.0
 40
170.0
 40
170.0
 40
171.0
 40
171.0
 40
172.0
 40
172.0
 40
173.0
 40
173.0
 40
174.0
 40
174.0
 40
175.0
 40
175.0
 40
176.0
 40
176.0
 40
177.0
 40
177.0
 40
178.0
 40
178.0
 40
179.0
 40
179.0
 40
180.0
 40
180.0
 40
181.0
 40
181.0
 40
182.0
 40
182.0
 40
183.0
 40
183.0
 40
184.0
 40
184.0
 40
185.0
 40
185.0
 40
186.0
 40
186.0
 40
187.0
 40
187.0
 40
188.0
 40
188.0
 40
189.0
 40
189.0
 40
190.0
 40
190.0
 40
191.0
 40
191.0
 40
192.0
 40
192.0
 40
193.0
 40
193.0
 40
194.0
 40
194.0
 40
195.0
 40
195.0
 40
196.0
 40
196.0
 40
197.0
 40
197.0
 40
198.0
 40
198.0
 40
199.0
 40
199.0
 40
200.0
 40
200.0
 40
201.0
 40
201.0
 40
202.0
 40
202.0
 40
203.0
 40
203.0
 40
204.0
 40
204.0
 40
205.0
 40
205.0
 40
206.0
 40
206.0
 40
207.0
 40
207.0
 40
208.0
 40
208.0
 40
209.0
 40
209.0
 40
210.0
 40
210.0
 40
211.0
 40
211.0
 40
212.0
 40
212.0
 40
213.0
 40
213.0
 40
214.0
 40
214.0
 40
215.0
 40
215.0
 40
216.0
 40
216.0
 40
217.0
 40
217.0
 40
218.0
 40
218.0
 40
219.0
 40
219.0
 40
220.0
 40
220.0
 40
221.0
 40
221.0
 40
222.0
 40
222.0
 40
223.0
 40
223.0
 40
224.0
 40
224.0
 40
225.0
 40
225.0
 40
226.0
 40
226.0
 40
227.0
 40
227.0
 40
228.0
 40
228.0
 40
229.0
 40
229.0
 40
230.0
 40
230.0
 40
231.0
 40
231.0
 40
232.0
 40
232.0
 40
233.0
 40
233.0
 40
234.0
 40
234.0
 40
235.0
 40
235.0
 40
236.0
 40
236.0
 40
237.0
 40
237.0
 40
238.0
 40
238.0
 40
239.0
 40
239.0
 40
240.0
 40
240.0
 40
241.0
 40
241.0
 40
242.0
 40
242.0
 40
243.0
 40
243.0
 40
244.0
 40
244.0
 40
245.0
 40
245.0
 40
246.0
 40
246.0
 40
247.0
 40
247.0
 40
248.0
 40
248.0
 40
249.0
 40
249.0
 40
250.0
 40
250.0
 40
251.0
 40
251.0
 40
252.0
 40
252.0
 40
253.0
 40
253.0
 40
254.0
 40
254.0
 40
255.0
 40
255.0
 40
256.0
 40
256.0
 40
257.0
 40
257.0
 40
258.0
 40
258.0
 40
259.0
 40
259.0
 40
260.0
 40
260.0
 40
261.0
 40
261.0
 40
262.0
 40
262.0
 40
263.0
 40
263.0
 40
264.0
 40
264.0
 40
265.0
 40
265.0
 40
266.0
 40
266.0
 40
267.0
 40
267.0
 40
268.0
 40
268.0
 40
269.0
 40
269.0
 40
270.0
 40
270.0
 40
271.0
 40
271.0
 40
272.0
 40
272.0
 40
273.0
 40
273.0
 40
274.0
 40
274.0
 40
275.0
 40
275.0
 40
276.0
 40
276.0
 40
277.0
 40
277.0
 40
278.0
 40
278.0
 40
279.0
 40
279.0
 40
280.0
 40
280.0
 40
281.0
 40
281.0
 40
282.0
 40
282.0
 40
283.0
 40
283.0
 40
284.0
 40
284.0
 40
285.0
 40
285.0
 40
286.0
 40
286.0
 40
287.0
 40
287.0
 40
288.0
 40
288.0
 40
289.0
 40
289.0
 40
290.0
 40
290.0
 40
291.0
 40
291.0
 40
292.0
 40
292.0
 40
293.0
 40
293.0
 40
294.0
 40
294.0
 40
295.0
 40
295.0
 40
296.0
 40
296.0
 40
297.0
 40
297.0
 40
298.0
 40
298.0
 40
299.0
 40
299.0
 40
300.0
 40
300.0
 40
301.0
 40
301.0
 40
302.0
 40
302.0
 40
303.0
 40
303.0
 40
304.0
 40
304.0
 40
305.0
 40
305.0
 40
306.0
 40
306.0
 40
307.0
 40
307.0
 40
308.0
 40
308.0
 40
309.0
 40
309.0
 40
310.0
 40
310.0
 40
311.0
 40
311.0
 40
312.0
 40
312.0
 40
313.0
 40
313.0
 40
314.0
 40
314.0
 40
315.0
 40
315.0
 40
316.0
 40
316.0
 40
317.0
 40
317.0
 40
318.0
 40
318.0
 40
319.0
 40
319.0
 40
320.0
 40
320.0
 40
321.0
 40
321.0
 40
322.0
 40
322.0
 40
323.0
 40
323.0
 40
324.0
 40
324.0
 40
325.0
 40
325.0
 40
326.0
 40
326.0
 40
327.0
 40
327.0
 40
328.0
 40
328.0
 40
329.0
 40
329.0
 40
330.0
 40
330.0
 40
331.0
 40
331.0
 40
332.0
 40
332.0
 40
333.0
 40
333.0
 40
334.0
 40
334.0
 40
335.0
 40
335.0
 40
336.0
 40
336.0
 40
337.0
 40
337.0
 40
338.0
 40
338.0
 40
339.0
 40
339.0
 40
340.0
 40
340.0
 40
341.0
 40
341.0
 40
342.0
 40
342.0
 40
343.0
 40
343.0
 40
344.0
 40
344.0
 40
345.0
 40
345.0
 40
346.0
 40
346.0
 40
347.0
 40
347.0
 40
348.0
 40
348.0
 40
349.0
 40
349.0
 40
350.0
 40
350.0
 40
351.0
 40
351.0
 40
352.0
 40
352.0
 40
353.0
 40
353.0
 40
354.0
 40
354.0
 40
355.0
 40
355.0
 40
356.0
 40
356.0
 40
357.0
 40
357.0
 40
358.0
 40
358.0
 40
359.0
 40
359.0
 40
360.0
 40
360.0
 40
361.0
 40
361.0
 40
362.0
 40
362.0
 40
363.0
 40
363.0
 40
364.0
 40
364.0
 40
365.0
 40
365.0
 40
366.0
 40
366.0
 40
367.0
 40
367.0
 40
368.0
 40
368.0
 40
369.0
 40
369.0
 40
370.0
 40
370.0
 40
371.0
 40
371.0
 40
372.0
 40
372.0
 40
373.0
 40
373.0
 40
374.0
 40
374.0
 40
375.0
 40
375.0
 40
376.0
 40
376.0
 40
377.0
 40
377.0
 40
378.0
 40
378.0
 40
379.0
 40
379.0
 40
380.0
 40
380.0
 40
381.0
 40
381.0
 40
382.0
 40
382.0
 40
383.0
 40
383.0
 40
384.0
 40
384.0
 40
385.0
 40
385.0
 40
386.0
 40
386.0
 40
387.0
 40
387.0
 40
388.0
 40
388.0
 40
389.0
 40
389.0
 40
389.0
 10
930.20118876535469
 20
-2042.6770542533461
 30
0.0
 41
1.0
 10
931.01961287407516
 20
-2042.6770542533461
 30
0.0
 41
1.0
 10
931.83803698279564
 20
-2042.6770542533461
 30
0.0
 41
1.0
 10
931.42428324727894
 20
-2044.0196805175958
 30
0.0
 41
1.0
 10
931.01052951176212
 20
-2045.3623067818455
 30
0.0
 41
1.0
 10
931.02886900694375
 20
-2045.3336060089127
 30
0.0
 41
0.9999957264353733
 10
931.04737600377132
 20
-2045.3050129587671
 30
0.0
 41
1.0
 10
931.07780532790343
 20
-2045.2580000803994
 30
0.0
 41
1.0
 10
931.10823465203543
 20
-2045.2109872020317
 30
0.0
 41
1.0
 10
931.18760029713815
 20
-2045.0883683951326
 30
0.0
 41
0.9995394069080502
 10
931.2742586886892
 20
-2044.9707903333924
 30
0.0
 41
1.0
 10
931.31001555095145
 20
-2044.9222754407956
 30
0.0
 41
1.0
 10
931.34577241321381
 20
-2044.8737605481986
 30
0.0
 41
1.0
 10
931.47949908103158
 20
-2044.6923202730723
 30
0.0
 41
0.9994460617142966
 10
931.62499956231909
 20
-2044.5201778754231
 30
0.0
 41
1.0
 10
931.62938774329291
 20
-2044.5149861950417
 30
0.0
 41
1.0
 10
931.63377592426684
 20
-2044.5097945146606
 30
0.0
 41
1.0
 10
931.77050004360501
 20
-2044.3480354777757
 30
0.0
 41
0.9994359394934063
 10
931.91777427395846
 20
-2044.195819276609
 30
0.0
 41
1.0
 10
931.920157627913
 20
-2044.1933559462345
 30
0.0
 41
1.0
 10
931.92254098186754
 20
-2044.1908926158601
 30
0.0
 41
1.0
 10
932.06504850431054
 20
-2044.0436030754438
 30
0.0
 41
0.9995293688568043
 10
932.21632018529203
 20
-2043.9053298632803
 30
0.0
 41
1.0
 10
932.23561394455191
 20
-2043.8876939776321
 30
0.0
 41
1.0
 10
932.25490770381191
 20
-2043.870058091984
 30
0.0
 41
1.0
 10
932.36759186627035
 20
-2043.7670566511192
 30
0.0
 41
0.9997087614802365
 10
932.48511475522923
 20
-2043.6696123703182
 30
0.0
 41
1.0
 10
932.50428082840131
 20
-2043.6537207918132
 30
0.0
 41
1.0
 10
932.52344690157349
 20
-2043.6378292133079
 30
0.0
 41
1.0
 10
932.60263764417789
 20
-2043.5721680895253
 30
0.0
 41
0.9999595338696447
 10
932.68299691503944
 20
-2043.5079423588654
 30
0.0
 41
1.0
 10
932.76335618588587
 20
-2043.4437166282171
 30
0.0
 41
0.9999749417502443
 10
932.84461672023019
 20
-2043.38063507427
 30
0.0
 41
1.0
 10
932.86560286641975
 20
-2043.3643437869473
 30
0.0
 41
1.0
 10
932.88658901260942
 20
-2043.3480524996248
 30
0.0
 41
1.0
 10
932.97115689788939
 20
-2043.2824034898013
 30
0.0
 41
0.9999792037127101
 10
933.05656449764047
 20
-2043.2178507081712
 30
0.0
 41
1.0
 10
933.07738932351481
 20
-2043.2021108859417
 30
0.0
 41
1.0
 10
933.09821414938904
 20
-2043.1863710637119
 30
0.0
 41
1.0
 10
933.14197209734675
 20
-2043.1532979265755
 30
0.0
 41
0.9999993374036059
 10
933.18565378355311
 20
-2043.1201241311037
 30
0.0
 41
1.0
 10
933.22933546968613
 20
-2043.0869503356869
 30
0.0
 41
0.99991609538174
 10
933.27386188059609
 20
-2043.0549192704959
 30
0.0
 41
1.0
 10
933.30668376802555
 20
-2043.0313081149038
 30
0.0
 41
1.0
 10
933.3395056554549
 20
-2043.0076969593115
 30
0.0
 41
1.0
 10
933.44967584121412
 20
-2042.9284435829431
 30
0.0
 41
0.9980964527232098
 10
933.56876483471535
 20
-2042.8633561100869
 30
0.0
 41
1.0
 10
933.60579744164284
 20
-2042.8431161304941
 30
0.0
 41
1.0
 10
933.6428300485702
 20
-2042.8228761509013
 30
0.0
 41
1.0
 10
933.82215706184331
 20
-2042.7248659002003
 30
0.0
 41
0.9984572810573088
 10
934.01124562820223
 20
-2042.6473436388537
 30
0.0
 41
1.0
 10
934.01489189759934
 20
-2042.6458487465152
 30
0.0
 41
1.0
 10
934.01853816699645
 20
-2042.6443538541769
 30
0.0
 41
1.0
 10
934.2003341945624
 20
-2042.569821377507
 30
0.0
 41
0.998783852803421
 10
934.38858685312039
 20
-2042.5135557373417
 30
0.0
 41
1.0
 10
934.39282480231736
 20
-2042.5122890836519
 30
0.0
 41
1.0
 10
934.39706275151423
 20
-2042.5110224299624
 30
0.0
 41
1.0
 10
934.57683951167826
 20
-2042.4572900971762
 30
0.0
 41
0.9990652816207066
 10
934.76058544339548
 20
-2042.4192864176339
 30
0.0
 41
1.0
 10
934.76577384442407
 20
-2042.418213314528
 30
0.0
 41
1.0
 10
934.77096224545278
 20
-2042.4171402114221
 30
0.0
 41
1.0
 10
934.94433137510828
 20
-2042.3812827380923
 30
0.0
 41
0.9992909934269839
 10
935.11990714156968
 20
-2042.3585723056253
 30
0.0
 41
1.0
 10
935.29548290802973
 20
-2042.3358618731588
 30
0.0
 41
0.9994553539448906
 10
935.47217434112406
 20
-2042.3247825689523
 30
0.0
 41
1.0
 10
935.50760874891728
 20
-2042.3225606809046
 30
0.0
 41
1.0
 10
935.5430431567105
 20
-2042.320338792857
 30
0.0
 41
1.0
 10
935.70926892328112
 20
-2042.3099157304453
 30
0.0
 41
0.9990928098292942
 10
935.87577871518442
 20
-2042.3136753716799
 30
0.0
 41
1.0
 10
935.91434055045897
 20
-2042.3145460632129
 30
0.0
 41
1.0
 10
935.95290238573352
 20
-2042.3154167547459
 30
0.0
 41
1.0
 10
936.04228850708967
 20
-2042.3174350129145
 30
0.0
 41
0.9998382089205871
 10
936.13154418987324
 20
-2042.3226671394423
 30
0.0
 41
1.0
 10
936.13197409609256
 20
-2042.3226923403445
 30
0.0
 41
1.0
 10
936.13240400231189
 20
-2042.3227175412467
 30
0.0
 41
1.0
 10
936.22079987265886
 20
-2042.3278992659705
 30
0.0
 41
0.9997558016758975
 10
936.30888044986023
 20
-2042.3369817813368
 30
0.0
 41
1.0
 10
936.30935658828821
 20
-2042.3370308788192
 30
0.0
 41
1.0
 10
936.30983272671631
 20
-2042.3370799763015
 30
0.0
 41
1.0
 10
936.39696102705909
 20
-2042.3460642967032
 30
0.0
 41
0.9996565144180981
 10
936.4834988804032
 20
-2042.3596016033925
 30
0.0
 41
1.0
 10
936.48396480578299
 20
-2042.3596744891242
 30
0.0
 41
1.0
 10
936.48443073116266
 20
-2042.3597473748559
 30
0.0
 41
1.0
 10
936.57003673374754
 20
-2042.3731389100819
 30
0.0
 41
0.9995321806867775
 10
936.65466381407316
 20
-2042.3917393985107
 30
0.0
 41
1.0
 10
936.65505300864402
 20
-2042.3918249409762
 30
0.0
 41
1.0
 10
936.65544220321499
 20
-2042.391910483442
 30
0.0
 41
1.0
 10
936.73929089440026
 20
-2042.4103398869397
 30
0.0
 41
0.9993819199219894
 10
936.82163742859734
 20
-2042.4346152702005
 30
0.0
 41
1.0
 10
936.82187586209761
 20
-2042.4346855593105
 30
0.0
 41
1.0
 10
936.82211429559788
 20
-2042.4347558484205
 30
0.0
 41
1.0
 10
936.90398396279625
 20
-2042.4588906534623
 30
0.0
 41
0.9992088568506558
 10
936.9836764817818
 20
-2042.4894558892556
 30
0.0
 41
1.0
 10
937.06335747266075
 20
-2042.520015489989
 30
0.0
 41
0.9990226101773277
 10
937.14002814256799
 20
-2042.5574929216036
 30
0.0
 41
1.0
 10
937.21668728436782
 20
-2042.5949647181578
 30
0.0
 41
0.9988424273972636
 10
937.28939091158054
 20
-2042.6396294934111
 30
0.0
 41
1.0
 10
937.2896586199588
 20
-2042.6397939574827
 30
0.0
 41
1.0
 10
937.28992632833706
 20
-2042.6399584215542
 30
0.0
 41
1.0
 10
937.3631653723088
 20
-2042.6849521249524
 30
0.0
 41
0.9986928844491867
 10
937.43142823901985
 20
-2042.7371878592328
 30
0.0
 41
1.0
 10
937.43200953124153
 20
-2042.7376326724598
 30
0.0
 41
1.0
 10
937.43259082346322
 20
-2042.738077485687
 30
0.0
 41
1.0
 10
937.50201627461888
 20
-2042.7912028464227
 30
0.0
 41
0.9986007262278811
 10
937.5654424443868
 20
-2042.8513636161174
 30
0.0
 41
1.0
 10
937.5663368598432
 20
-2042.8522119839517
 30
0.0
 41
1.0
 10
937.56723127529972
 20
-2042.8530603517861
 30
0.0
 41
1.0
 10
937.63244627598067
 20
-2042.9149178571497
 30
0.0
 41
0.9985581491381947
 10
937.6906538876824
 20
-2042.9834103474213
 30
0.0
 41
1.0
 10
937.69991234127826
 20
-2042.9943047051231
 30
0.0
 41
1.0
 10
937.70917079487413
 20
-2043.0051990628249
 30
0.0
 41
1.0
 10
937.78589531376781
 20
-2043.0954802685005
 30
0.0
 41
0.9970460233520883
 10
937.8478872149276
 20
-2043.196447352683
 30
0.0
 41
1.0
 10
937.86235658000692
 20
-2043.2200138117641
 30
0.0
 41
1.0
 10
937.87682594508635
 20
-2043.2435802708451
 30
0.0
 41
1.0
 10
937.91656264509811
 20
-2043.3082999948756
 30
0.0
 41
0.9988468816636006
 10
937.9499090158497
 20
-2043.3765324473036
 30
0.0
 41
1.0
 10
937.95694503834204
 20
-2043.3909293684428
 30
0.0
 41
1.0
 10
937.96398106083439
 20
-2043.4053262895818
 30
0.0
 41
1.0
 10
937.98325538660174
 20
-2043.4447648997325
 30
0.0
 41
0.9998431189998037
 10
938.00112071409626
 20
-2043.484861454172
 30
0.0
 41
1.0
 10
938.01898604159123
 20
-2043.5249580086129
 30
0.0
 41
0.9999989989904253
 10
938.03696476501796
 20
-2043.565003846207
 30
0.0
 41
1.0
 10
938.04313707660981
 20
-2043.5787520630142
 30
0.0
 41
1.0
 10
938.04930938820166
 20
-2043.5925002798217
 30
0.0
 41
1.0
 10
938.07963273481107
 20
-2043.660042551028
 30
0.0
 41
0.9998790356320469
 10
938.10784061494815
 20
-2043.7284953029634
 30
0.0
 41
1.0
 10
938.11467579623388
 20
-2043.7450824043945
 30
0.0
 41
1.0
 10
938.12151097751962
 20
-2043.7616695058255
 30
0.0
 41
1.0
 10
938.14506863989959
 20
-2043.8188374607096
 30
0.0
 41
0.999822757456033
 10
938.16645738828834
 20
-2043.8768517689859
 30
0.0
 41
1.0
 10
938.18784613667776
 20
-2043.9348660772632
 30
0.0
 41
0.9996797971041291
 10
938.20627242163687
 20
-2043.9938881963815
 30
0.0
 41
1.0
 10
938.21017622436239
 20
-2044.0063926545504
 30
0.0
 41
1.0
 10
938.2140800270879
 20
-2044.0188971127193
 30
0.0
 41
1.0
 10
938.24031391749861
 20
-2044.1029281481765
 30
0.0
 41
0.9979274938733908
 10
938.2555384409776
 20
-2044.1896325068367
 30
0.0
 41
1.0
 10
938.25776212823882
 20
-2044.202296507658
 30
0.0
 41
1.0
 10
938.25998581550004
 20
-2044.2149605084794
 30
0.0
 41
1.0
 10
938.2709157551983
 20
-2044.2772070157705
 30
0.0
 41
0.999498598213776
 10
938.27788392037496
 20
-2044.34002051691
 30
0.0
 41
1.0
 10
938.28485208555173
 20
-2044.4028340180473
 30
0.0
 41
0.9996372611200876
 10
938.28842795131948
 20
-2044.4659315967297
 30
0.0
 41
1.0
 10
938.28859652880897
 20
-2044.4689062138141
 30
0.0
 41
1.0
 10
938.28876510629834
 20
-2044.4718808308987
 30
0.0
 41
1.0
 10
938.29267812704461
 20
-2044.540927643744
 30
0.0
 41
0.9997730630736029
 10
938.29364644053271
 20
-2044.6100784677769
 30
0.0
 41
1.0
 10
938.29370354695084
 20
-2044.6141566469198
 30
0.0
 41
1.0
 10
938.29376065336896
 20
-2044.6182348260627
 30
0.0
 41
1.0
 10
938.29484317969332
 20
-2044.6955420083868
 30
0.0
 41
0.9998772614071849
 10
938.29350309296149
 20
-2044.7728451549501
 30
0.0
 41
1.0
 10
938.29341382976281
 20
-2044.7779943187825
 30
0.0
 41
1.0
 10
938.29332456656402
 20
-2044.7831434826148
 30
0.0
 41
1.0
 10
938.29180595343428
 20
-2044.8707449568626
 30
0.0
 41
0.9999415567326142
 10
938.28839364318821
 20
-2044.9582931185405
 30
0.0
 41
1.0
 10
938.28815232251327
 20
-2044.9644845782695
 30
0.0
 41
1.0
 10
938.28791100183821
 20
-2044.9706760379988
 30
0.0
 41
1.0
 10
938.28401605024203
 20
-2045.0706071191421
 30
0.0
 41
0.9999716810425758
 10
938.27861746712392
 20
-2045.1704682573618
 30
0.0
 41
1.0
 10
938.2754046683342
 20
-2045.2298975070364
 30
0.0
 41
1.0
 10
938.27219186954449
 20
-2045.289326756711
 30
0.0
 41
1.0
 10
938.26411796039224
 20
-2045.4386751579823
 30
0.0
 41
0.9999819129906459
 10
938.25424816877626
 20
-2045.5879156356843
 30
0.0
 41
1.0
 10
938.24437837715971
 20
-2045.7371561133957
 30
0.0
 41
1.0
 10
938.24193905659581
 20
-2045.774349159245
 30
0.0
 41
1.0
 10
938.26463729039938
 20
-2045.7356081619619
 30
0.0
 41
0.9999982128123308
 10
938.28748184916265
 20
-2045.6969532679907
 30
0.0
 41
1.0
 10
938.31439140905729
 20
-2045.6514200539189
 30
0.0
 41
1.0
 10
938.34130096895194
 20
-2045.605886839847
 30
0.0
 41
1.0
 10
938.41796464747847
 20
-2045.4761655177763
 30
0.0
 41
0.9998609190057327
 10
938.49891196034207
 20
-2045.3490731358443
 30
0.0
 41
1.0
 10
938.52856028182214
 20
-2045.3025234028896
 30
0.0
 41
1.0
 10
938.55820860330232
 20
-2045.2559736699347
 30
0.0
 41
1.0
 10
938.64048082354043
 20
-2045.1268010999379
 30
0.0
 41
0.9999067609733798
 10
938.7262498330042
 20
-2044.9999234104971
 30
0.0
 41
1.0
 10
938.72865453620591
 20
-2044.9963661444413
 30
0.0
 41
1.0
 10
938.73105923940761
 20
-2044.9928088783852
 30
0.0
 41
1.0
 10
938.81201884246673
 20
-2044.8730457210579
 30
0.0
 41
0.9998784952147676
 10
938.89667245214957
 20
-2044.7558645043473
 30
0.0
 41
1.0
 10
938.98132606183606
 20
-2044.6386832876319
 30
0.0
 41
0.999853296828206
 10
939.06994368266362
 20
-2044.524470379155
 30
0.0
 41
1.0
 10
939.08990547164933
 20
-2044.4987430581418
 30
0.0
 41
1.0
 10
939.10986726063504
 20
-2044.4730157371287
 30
0.0
 41
1.0
 10
939.22835131039358
 20
-2044.3203101261604
 30
0.0
 41
0.999155197579511
 10
939.35897576001821
 20
-2044.1778505640757
 30
0.0
 41
1.0
 10
939.36248537599852
 20
-2044.1740229624506
 30
0.0
 41
1.0
 10
939.36599499197882
 20
-2044.1701953608258
 30
0.0
 41
1.0
 10
939.48960020964205
 20
-2044.0353910019917
 30
0.0
 41
0.9997418144181151
 10
939.61920234934223
 20
-2043.9063415913797
 30
0.0
 41
1.0
 10
939.74880448904241
 20
-2043.7772921807677
 30
0.0
 41
0.9989238204633527
 10
939.88980703729123
 20
-2043.6608072187305
 30
0.0
 41
1.0
 10
939.93505471543119
 20
-2043.6234272271213
 30
0.0
 41
1.0
 10
939.98030239357115
 20
-2043.5860472355123
 30
0.0
 41
1.0
 10
940.12054245079264
 20
-2043.4701921822211
 30
0.0
 41
0.9990825084096484
 10
940.27018238339838
 20
-2043.3667631843869
 30
0.0
 41
1.0
 10
940.28022774745614
 20
-2043.3598199713067
 30
0.0
 41
1.0
 10
940.2902731115139
 20
-2043.3528767582266
 30
0.0
 41
1.0
 10
940.41982231600196
 20
-2043.2633341865542
 30
0.0
 41
0.9998164899826804
 10
940.5527065193786
 20
-2043.1788199450375
 30
0.0
 41
1.0
 10
940.5645520799128
 20
-2043.1712861785068
 30
0.0
 41
1.0
 10
940.57639764044711
 20
-2043.1637524119758
 30
0.0
 41
1.0
 10
940.68559072276366
 20
-2043.0943057035163
 30
0.0
 41
0.9997473449131563
 10
940.79779468000424
 20
-2043.0298367457056
 30
0.0
 41
1.0
 10
940.90999863724869
 20
-2042.9653677878925
 30
0.0
 41
0.9999327861141923
 10
941.02366724800845
 20
-2042.9035177962132
 30
0.0
 41
1.0
 10
941.02421925057354
 20
-2042.9032174375316
 30
0.0
 41
1.0
 10
941.02477125313862
 20
-2042.9029170788501
 30
0.0
 41
1.0
 10
941.13954386902219
 20
-2042.8404663698111
 30
0.0
 41
0.999695642048278
 10
941.25725719486081
 20
-2042.783752902837
 30
0.0
 41
1.0
 10
941.28769759975944
 20
-2042.7690869261041
 30
0.0
 41
1.0
 10
941.31813800465818
 20
-2042.7544209493713
 30
0.0
 41
1.0
 10
941.42111511139774
 20
-2042.7048072909301
 30
0.0
 41
0.9998070570178058
 10
941.52596150033389
 20
-2042.6592767040311
 30
0.0
 41
1.0
 10
941.6308078892697
 20
-2042.6137461171322
 30
0.0
 41
0.999782743614795
 10
941.73746082587604
 20
-2042.5726249458216
 30
0.0
 41
1.0
 10
941.75668367551179
 20
-2042.5652133721876
 30
0.0
 41
1.0
 10
941.77590652514755
 20
-2042.5578017985536
 30
0.0
 41
1.0
 10
941.92100516101812
 20
-2042.5018574799774
 30
0.0
 41
0.9988031841976108
 10
942.07087552361997
 20
-2042.4603574158107
 30
0.0
 41
1.0
 10
942.09579277198486
 20
-2042.4534576700034
 30
0.0
 41
1.0
 10
942.12071002034986
 20
-2042.446557924196
 30
0.0
 41
1.0
 10
942.28798004599787
 20
-2042.4002397817885
 30
0.0
 41
0.9984748040549484
 10
942.45933695464748
 20
-2042.3726455495237
 30
0.0
 41
1.0
 10
942.4640760908967
 20
-2042.3718823890101
 30
0.0
 41
1.0
 10
942.46881522714591
 20
-2042.3711192284966
 30
0.0
 41
1.0
 10
942.6306938632971
 20
-2042.3450513172588
 30
0.0
 41
0.9984436495480359
 10
942.79446860702114
 20
-2042.3371733634401
 30
0.0
 41
1.0
 10
942.81616581515425
 20
-2042.3361296762405
 30
0.0
 41
1.0
 10
942.83786302328735
 20
-2042.3350859890406
 30
0.0
 41
1.0
 10
942.95824335074758
 20
-2042.3292954096214
 30
0.0
 41
0.9987954789335726
 10
943.07861159565573
 20
-2042.3353319373637
 30
0.0
 41
1.0
 10
943.09857638815129
 20
-2042.3363331817022
 30
0.0
 41
1.0
 10
943.11854118064673
 20
-2042.337334426041
 30
0.0
 41
1.0
 10
943.19897984056661
 20
-2042.3413684651061
 30
0.0
 41
0.9997941595878842
 10
943.27918861865999
 20
-2042.348662531027
 30
0.0
 41
1.0
 10
943.35939739675814
 20
-2042.3559565969485
 30
0.0
 41
0.9998589466238392
 10
943.43931594361641
 20
-2042.365940451399
 30
0.0
 41
1.0
 10
943.47172214542115
 20
-2042.3699888083179
 30
0.0
 41
1.0
 10
943.5041283472259
 20
-2042.3740371652366
 30
0.0
 41
1.0
 10
943.64885929769491
 20
-2042.3921177335246
 30
0.0
 41
0.9993495063249318
 10
943.79191054145872
 20
-2042.4205834432657
 30
0.0
 41
1.0
 10
943.8248442386157
 20
-2042.4271369064816
 30
0.0
 41
1.0
 10
943.85777793577267
 20
-2042.4336903696974
 30
0.0
 41
1.0
 10
943.96707175897393
 20
-2042.4554387038324
 30
0.0
 41
0.9996788715561182
 10
944.07512333092802
 20
-2042.4826965031948
 30
0.0
 41
1.0
 10
944.0771863334669
 20
-2042.4832169297679
 30
0.0
 41
1.0
 10
944.07924933600589
 20
-2042.4837373563407
 30
0.0
 41
1.0
 10
944.18317490288439
 20
-2042.5099543025578
 30
0.0
 41
0.9995480654492169
 10
944.28533713811385
 20
-2042.5423692591821
 30
0.0
 41
1.0
 10
944.2870267802441
 20
-2042.5429053640964
 30
0.0
 41
1.0
 10
944.28871642237448
 20
-2042.5434414690108
 30
0.0
 41
1.0
 10
944.38749937334421
 20
-2042.5747842158071
 30
0.0
 41
0.9993867959456383
 10
944.48384653178584
 20
-2042.6129635850964
 30
0.0
 41
1.0
 10
944.4850894808709
 20
-2042.6134561269928
 30
0.0
 41
1.0
 10
944.48633242995595
 20
-2042.6139486688892
 30
0.0
 41
1.0
 10
944.58019369022861
 20
-2042.6511429543862
 30
0.0
 41
0.9992050256521627
 10
944.67079336526172
 20
-2042.6956968536249
 30
0.0
 41
1.0
 10
944.67152804797377
 20
-2042.6960581460855
 30
0.0
 41
1.0
 10
944.67226273068582
 20
-2042.6964194385462
 30
0.0
 41
1.0
 10
944.76139304029448
 20
-2042.7402507528632
 30
0.0
 41
0.9990222350741348
 10
944.84630310168882
 20
-2042.7917840205619
 30
0.0
 41
1.0
 10
944.84648698697163
 20
-2042.7918956234666
 30
0.0
 41
1.0
 10
944.84667087225444
 20
-2042.7920072263717
 30
0.0
 41
1.0
 10
944.93121316308259
 20
-2042.8433172882603
 30
0.0
 41
0.9988642743805423
 10
945.01048769770136
 20
-2042.9024414757855
 30
0.0
 41
1.0
 10
945.08976223232025
 20
-2042.9615656633107
 30
0.0
 41
0.9987681233310974
 10
945.16278601659656
 20
-2043.0282563547116
 30
0.0
 41
1.0
 10
945.16311494456238
 20
-2043.0285567559258
 30
0.0
 41
1.0
 10
945.16344387252821
 20
-2043.02885715714
 30
0.0
 41
1.0
 10
945.23712551273695
 20
-2043.0961486509702
 30
0.0
 41
0.9987496570899253
 10
945.30371931806405
 20
-2043.1704614650569
 30
0.0
 41
1.0
 10
945.30449148782395
 20
-2043.1713231384142
 30
0.0
 41
1.0
 10
945.30526365758396
 20
-2043.1721848117716
 30
0.0
 41
1.0
 10
945.37340180243132
 20
-2043.2482209725731
 30
0.0
 41
0.9988147669826991
 10
945.43382405665579
 20
-2043.3305219794147
 30
0.0
 41
1.0
 10
945.43494338273422
 20
-2043.332046610768
 30
0.0
 41
1.0
 10
945.43606270881253
 20
-2043.3335712421215
 30
0.0
 41
1.0
 10
945.49872361519363
 20
-2043.4189215116699
 30
0.0
 41
0.9989452636215759
 10
945.55329052815432
 20
-2043.5096602008268
 30
0.0
 41
1.0
 10
945.55463925423999
 20
-2043.5119029818529
 30
0.0
 41
1.0
 10
945.55598798032565
 20
-2043.5141457628793
 30
0.0
 41
1.0
 10
945.61325234545825
 20
-2043.6093700140893
 30
0.0
 41
0.9991046436070989
 10
945.66226155877985
 20
-2043.7090944471145
 30
0.0
 41
1.0
 10
945.66372542036993
 20
-2043.7120731271871
 30
0.0
 41
1.0
 10
945.66518928196001
 20
-2043.7150518072599
 30
0.0
 41
1.0
 10
945.717126218462
 20
-2043.8207336004311
 30
0.0
 41
0.9992763831101469
 10
945.76087934701684
 20
-2043.9300576623859
 30
0.0
 41
1.0
 10
945.7623586166801
 20
-2043.9337538499196
 30
0.0
 41
1.0
 10
945.76383788634348
 20
-2043.9374500374533
 30
0.0
 41
1.0
 10
945.81054955422439
 20
-2044.0541664744742
 30
0.0
 41
0.9994163472883632
 10
945.84918258541427
 20
-2044.1738000629387
 30
0.0
 41
1.0
 10
945.8504207376609
 20
-2044.1776342067208
 30
0.0
 41
1.0
 10
945.85165888990741
 20
-2044.1814683505029
 30
0.0
 41
1.0
 10
945.89154245092527
 20
-2044.3049744119828
 30
0.0
 41
0.9997268055891219
 10
945.92561050683776
 20
-2044.4302094439352
 30
0.0
 41
1.0
 10
945.92654068710772
 20
-2044.4336288100453
 30
0.0
 41
1.0
 10
945.92747086737768
 20
-2044.4370481761555
 30
0.0
 41
1.0
 10
945.9596785627499
 20
-2044.5554444758866
 30
0.0
 41
0.9996701319000272
 10
945.98576417952017
 20
-2044.6753384291492
 30
0.0
 41
1.0
 10
946.01184979629068
 20
-2044.7952323824134
 30
0.0
 41
0.9995785451109753
 10
946.03093337363066
 20
-2044.9164381434462
 30
0.0
 41
1.0
 10
946.0351531558041
 20
-2044.9432392982092
 30
0.0
 41
1.0
 10
946.03937293797753
 20
-2044.9700404529722
 30
0.0
 41
1.0
 10
946.06594791391638
 20
-2045.1388264266755
 30
0.0
 41
0.9979925101216569
 10
946.07097349984281
 20
-2045.3096177547691
 30
0.0
 41
1.0
 10
946.07179831226745
 20
-2045.3376484782484
 30
0.0
 41
1.0
 10
946.07262312469209
 20
-2045.3656792017277
 30
0.0
 41
1.0
 10
946.07599908576935
 20
-2045.4804090828584
 30
0.0
 41
0.9995314902262856
 10
946.07234889363065
 20
-2045.5951305666126
 30
0.0
 41
1.0
 10
946.06869870149217
 20
-2045.7098520503644
 30
0.0
 41
0.9996245486943957
 10
946.05876960636169
 20
-2045.8242013214849
 30
0.0
 41
1.0
 10
946.05860655836727
 20
-2045.8260790776221
 30
0.0
 41
1.0
 10
946.05844351037285
 20
-2045.8279568337591
 30
0.0
 41
1.0
 10
946.04818831925377
 20
-2045.94606161715
 30
0.0
 41
0.9997286095000835
 10
946.03244299568314
 20
-2046.06356052604
 30
0.0
 41
1.0
 10
946.03204950303223
 20
-2046.0664969507461
 30
0.0
 41
1.0
 10
946.03165601038131
 20
-2046.069433375452
 30
0.0
 41
1.0
 10
946.01512370150908
 20
-2046.192805133752
 30
0.0
 41
0.9998265533969567
 10
945.99400824277609
 20
-2046.3154756085414
 30
0.0
 41
1.0
 10
945.99333170063915
 20
-2046.3194059870477
 30
0.0
 41
1.0
 10
945.9926551585022
 20
-2046.323336365554
 30
0.0
 41
1.0
 10
945.97018661549646
 20
-2046.4538675973513
 30
0.0
 41
0.9999022530849889
 10
945.94407715088653
 20
-2046.5837195659899
 30
0.0
 41
1.0
 10
945.94309850972058
 20
-2046.5885867083803
 30
0.0
 41
1.0
 10
945.94211986855464
 20
-2046.5934538507704
 30
0.0
 41
1.0
 10
945.91405312161169
 20
-2046.7330401041938
 30
0.0
 41
0.9999524761932899
 10
945.88327015277741
 20
-2046.8720525973561
 30
0.0
 41
1.0
 10
945.88199404560282
 20
-2046.8778153566545
 30
0.0
 41
1.0
 10
945.88071793842823
 20
-2046.8835781159528
 30
0.0
 41
1.0
 10
945.84738275524342
 20
-2047.0341161277192
 30
0.0
 41
0.9999813588723401
 10
945.81221175444364
 20
-2047.1842358403915
 30
0.0
 41
1.0
 10
945.81065782898872
 20
-2047.1908684308071
 30
0.0
 41
1.0
 10
945.8091039035337
 20
-2047.1975010212227
 30
0.0
 41
1.0
 10
945.77082505182807
 20
-2047.3608859147103
 30
0.0
 41
0.9999955237681619
 10
945.73156917385779
 20
-2047.5240388182733
 30
0.0
 41
1.0
 10
945.71928753821658
 20
-2047.5750830088245
 30
0.0
 41
1.0
 10
945.70700590257547
 20
-2047.626127199376
 30
0.0
 41
1.0
 10
945.6431867533347
 20
-2047.8913684839945
 30
0.0
 41
0.9999993604119498
 10
945.57876780615857
 20
-2048.1564647347113
 30
0.0
 41
1.0
 10
945.57404897061133
 20
-2048.1758836427525
 30
0.0
 41
1.0
 10
945.56933013506421
 20
-2048.1953025507933
 30
0.0
 41
1.0
 10
945.49547351680428
 20
-2048.4992366175497
 30
0.0
 41
0.9999659914726614
 10
945.41661392091669
 20
-2048.8019111641183
 30
0.0
 41
1.0
 10
945.41166123198695
 20
-2048.8209203012975
 30
0.0
 41
1.0
 10
945.40670854305722
 20
-2048.8399294384762
 30
0.0
 41
1.0
 10
945.31794356930641
 20
-2049.1806222594146
 30
0.0
 41
0.9999441976029008
 10
945.22200053634242
 20
-2049.5193636847152
 30
0.0
 41
1.0
 10
945.20530001791985
 20
-2049.5783273972324
 30
0.0
 41
1.0
 10
945.18859949949729
 20
-2049.6372911097496
 30
0.0
 41
1.0
 10
945.05925542968021
 20
-2050.0939599601129
 30
0.0
 41
0.9999625120733662
 10
944.92202266235381
 20
-2050.5483204941183
 30
0.0
 41
1.0
 10
944.88623271926929
 20
-2050.6668165207502
 30
0.0
 41
1.0
 10
944.85044277618476
 20
-2050.7853125473825
 30
0.0
 41
1.0
 10
944.77592257214815
 20
-2051.0320396254692
 30
0.0
 41
0.9999793386316105
 10
944.69823654901461
 20
-2051.2777882646924
 30
0.0
 41
1.0
 10
944.62055052587709
 20
-2051.5235369039287
 30
0.0
 41
1.0
 10
944.6097709670064
 20
-2051.5575548083034
 30
0.0
 41
1.0
 10
942.7593979137373
 20
-2057.4446267307708
 30
0.0
 41
1.0
 10
940.90902486046809
 20
-2063.3316986532382
 30
0.0
 41
1.0
 10
939.94776817044453
 20
-2063.3316986532382
 30
0.0
 41
1.0
 10
938.98651148042097
 20
-2063.3316986532382
 30
0.0
 41
1.0
 10
940.60545625909936
 20
-2058.183670151449
 30
0.0
 41
1.0
 10
942.22440103777785
 20
-2053.0356416496597
 30
0.0
 41
1.0
 10
942.26956686095616
 20
-2052.8916104273771
 30
0.0
 41
1.0
 10
942.31473268413447
 20
-2052.7475792050946
 30
0.0
 41
1.0
 10
942.48503710149419
 20
-2052.2044881759412
 30
0.0
 41
0.9999911657876554
 10
942.65076991316937
 20
-2051.6599846445934
 30
0.0
 41
1.0
 10
942.68046585666309
 20
-2051.5624207045648
 30
0.0
 41
1.0
 10
942.71016180015681
 20
-2051.4648567645368
 30
0.0
 41
1.0
 10
942.8165027248416
 20
-2051.1154811132574
 30
0.0
 41
0.9999952428120876
 10
942.92068631417465
 20
-2050.7654560888805
 30
0.0
 41
1.0
 10
942.92574578450444
 20
-2050.7484578146141
 30
0.0
 41
1.0
 10
942.93080525483435
 20
-2050.7314595403477
 30
0.0
 41
1.0
 10
943.02486990350258
 20
-2050.4154310645208
 30
0.0
 41
0.9999931687515002
 10
943.1165957413732
 20
-2050.0987158512603
 30
0.0
 41
1.0
 10
943.12153100583373
 20
-2050.0816751419861
 30
0.0
 41
1.0
 10
943.12646627029426
 20
-2050.0646344327115
 30
0.0
 41
1.0
 10
943.20832157924428
 20
-2049.782000637998
 30
0.0
 41
0.9999893840803145
 10
943.2875688057037
 20
-2049.498624508743
 30
0.0
 41
1.0
 10
943.36681603215209
 20
-2049.2152483795262
 30
0.0
 41
0.9999833980082311
 10
943.44279227289428
 20
-2048.9309777964982
 30
0.0
 41
1.0
 10
943.45179620962256
 20
-2048.8972889179972
 30
0.0
 41
1.0
 10
943.46080014635083
 20
-2048.8636000394963
 30
0.0
 41
1.0
 10
943.52976469521536
 20
-2048.605564207206
 30
0.0
 41
0.9999233658063844
 10
943.59231966643404
 20
-2048.34590004849
 30
0.0
 41
1.0
 10
943.6548746376543
 20
-2048.0862358897675
 30
0.0
 41
1.0
 10
943.69435805651187
 20
-2047.9224292253416
 30
0.0
 41
1.0
 10
943.69933666048769
 20
-2047.9017742634769
 30
0.0
 41
1.0
 10
943.70431526446362
 20
-2047.8811193016122
 30
0.0
 41
1.0
 10
943.73384147536865
 20
-2047.7586225609184
 30
0.0
 41
0.9999868670852483
 10
943.76211055936562
 20
-2047.63582961527
 30
0.0
 41
1.0
 10
943.76600804652526
 20
-2047.618900027845
 30
0.0
 41
1.0
 10
943.76990553368478
 20
-2047.60197044042
 30
0.0
 41
1.0
 10
943.79037964336305
 20
-2047.5130366696194
 30
0.0
 41
0.9999778173345045
 10
943.8096672414772
 20
-2047.4238380523941
 30
0.0
 41
1.0
 10
943.82895483959237
 20
-2047.3346394351647
 30
0.0
 41
0.9999602692862903
 10
943.8466491982266
 20
-2047.2451111467215
 30
0.0
 41
1.0
 10
943.84985303030271
 20
-2047.2289006918436
 30
0.0
 41
1.0
 10
943.85305686237871
 20
-2047.212690236966
 30
0.0
 41
1.0
 10
943.87715888516448
 20
-2047.0907410387688
 30
0.0
 41
0.9995617985320855
 10
943.89400223238317
 20
-2046.9675792910641
 30
0.0
 41
1.0
 10
943.89646672228946
 20
-2046.9495584736974
 30
0.0
 41
1.0
 10
943.89893121219586
 20
-2046.9315376563309
 30
0.0
 41
1.0
 10
943.9192144732441
 20
-2046.7832226066314
 30
0.0
 41
0.9991121410639435
 10
943.92693982683249
 20
-2046.6337265078237
 30
0.0
 41
1.0
 10
943.92785861685695
 20
-2046.61594667125
 30
0.0
 41
1.0
 10
943.92877740688141
 20
-2046.5981668346762
 30
0.0
 41
1.0
 10
943.93466518042067
 20
-2046.4842304090198
 30
0.0
 41
0.998979249490605
 10
943.93024608830342
 20
-2046.3702275731189
 30
0.0
 41
1.0
 10
943.92959811643482
 20
-2046.3535113271919
 30
0.0
 41
1.0
 10
943.9289501445661
 20
-2046.3367950812649
 30
0.0
 41
1.0
 10
943.92582699618629
 20
-2046.2562247372234
 30
0.0
 41
0.9997820295393933
 10
943.91934299881041
 20
-2046.1758550154766
 30
0.0
 41
1.0
 10
943.91285900143475
 20
-2046.0954852937321
 30
0.0
 41
0.9998335105973789
 10
943.90344680592284
 20
-2046.0154056772813
 30
0.0
 41
1.0
 10
943.90185188124656
 20
-2046.0018359467988
 30
0.0
 41
1.0
 10
943.90025695657027
 20
-2045.9882662163163
 30
0.0
 41
1.0
 10
943.88765491170625
 20
-2045.8810471389024
 30
0.0
 41
0.9996876457879211
 10
943.86971099890764
 20
-2045.7745917111849
 30
0.0
 41
1.0
 10
943.86747933576225
 20
-2045.7613519759425
 30
0.0
 41
1.0
 10
943.86524767261687
 20
-2045.7481122407
 30
0.0
 41
1.0
 10
943.8514518511962
 20
-2045.6662660967438
 30
0.0
 41
0.9995547496495173
 10
943.83279852930332
 20
-2045.5853885995512
 30
0.0
 41
1.0
 10
943.83242457243182
 20
-2045.5837671888451
 30
0.0
 41
1.0
 10
943.83205061556043
 20
-2045.582145778139
 30
0.0
 41
1.0
 10
943.81414520741021
 20
-2045.5045111023576
 30
0.0
 41
0.9994899427175161
 10
943.79132029873131
 20
-2045.4281778195254
 30
0.0
 41
1.0
 10
943.79086177199076
 20
-2045.4266443697377
 30
0.0
 41
1.0
 10
943.79040324525022
 20
-2045.4251109199499
 30
0.0
 41
1.0
 10
943.76849539005229
 20
-2045.3518445366922
 30
0.0
 41
0.9993784877590963
 10
943.74147975494543
 20
-2045.2803038315321
 30
0.0
 41
1.0
 10
943.7409480639692
 20
-2045.2788958488134
 30
0.0
 41
1.0
 10
943.74041637299297
 20
-2045.2774878660946
 30
0.0
 41
1.0
 10
943.71446411983936
 20
-2045.2087631263744
 30
0.0
 41
0.9992430832255325
 10
943.68324758467952
 20
-2045.1422639743048
 30
0.0
 41
1.0
 10
943.68266546862299
 20
-2045.1410239191878
 30
0.0
 41
1.0
 10
943.68208335256645
 20
-2045.1397838640705
 30
0.0
 41
1.0
 10
943.65203104952013
 20
-2045.0757648222368
 30
0.0
 41
0.9990789632799143
 10
943.61660042274343
 20
-2045.0145582104869
 30
0.0
 41
1.0
 10
943.61600471656152
 20
-2045.0135291246279
 30
0.0
 41
1.0
 10
943.61540901037949
 20
-2045.0125000387686
 30
0.0
 41
1.0
 10
943.58116979596718
 20
-2044.9533515987382
 30
0.0
 41
0.9988874801121211
 10
943.54151051993472
 20
-2044.8976918863195
 30
0.0
 41
1.0
 10
943.54095499387074
 20
-2044.8969122346452
 30
0.0
 41
1.0
 10
943.54039946780676
 20
-2044.8961325829707
 30
0.0
 41
1.0
 10
943.50185124390282
 20
-2044.8420321739018
 30
0.0
 41
0.9986762060693722
 10
943.45794877262642
 20
-2044.7921784594623
 30
0.0
 41
1.0
 10
943.45750481229436
 20
-2044.7916743176459
 30
0.0
 41
1.0
 10
943.4570608519623
 20
-2044.7911701758294
 30
0.0
 41
1.0
 10
943.41404630135037
 20
-2044.7423247450233
 30
0.0
 41
0.9984621642488658
 10
943.36588874457243
 20
-2044.6985414445521
 30
0.0
 41
1.0
 10
943.36564211005566
 20
-2044.6983172123882
 30
0.0
 41
1.0
 10
943.36539547553878
 20
-2044.6980929802246
 30
0.0
 41
1.0
 10
943.31773118779506
 20
-2044.6547581440811
 30
0.0
 41
0.9982724693850391
 10
943.26531255595319
 20
-2044.6173137935634
 30
0.0
 41
1.0
 10
943.21289392411109
 20
-2044.579869443045
 30
0.0
 41
0.9981399180156725
 10
943.15630786071642
 20
-2044.5490829236012
 30
0.0
 41
1.0
 10
943.15626219863896
 20
-2044.5490580804444
 30
0.0
 41
1.0
 10
943.15621653656149
 20
-2044.5490332372879
 30
0.0
 41
1.0
 10
943.09953914901098
 20
-2044.5181970315298
 30
0.0
 41
0.998092708683609
 10
943.03949379794403
 20
-2044.4945802226773
 30
0.0
 41
1.0
 10
943.03905362823275
 20
-2044.4944070968024
 30
0.0
 41
1.0
 10
943.03861345852147
 20
-2044.4942339709276
 30
0.0
 41
1.0
 10
942.97768776803252
 20
-2044.4702709103253
 30
0.0
 41
0.9981411356562467
 10
942.91429924663419
 20
-2044.45389826882
 30
0.0
 41
1.0
 10
942.91341712993176
 20
-2044.4536704266143
 30
0.0
 41
1.0
 10
942.91253501322944
 20
-2044.4534425844085
 30
0.0
 41
1.0
 10
942.84738225842659
 20
-2044.4366142584918
 30
0.0
 41
0.9983031812935083
 10
942.78071482943096
 20
-2044.4274748973155
 30
0.0
 41
1.0
 10
942.77184380402866
 20
-2044.4262587786443
 30
0.0
 41
1.0
 10
942.76297277862636
 20
-2044.4250426599733
 30
0.0
 41
1.0
 10
942.70862313612133
 20
-2044.4175919299821
 30
0.0
 41
0.9983887708264848
 10
942.65377928682767
 20
-2044.4163472563487
 30
0.0
 41
1.0
 10
942.64571588160197
 20
-2044.4161642584736
 30
0.0
 41
1.0
 10
942.63765247637627
 20
-2044.4159812605985
 30
0.0
 41
1.0
 10
942.59893543752651
 20
-2044.4151025827152
 30
0.0
 41
0.9998869563079713
 10
942.56020948433218
 20
-2044.4153884520751
 30
0.0
 41
1.0
 10
942.5214835311989
 20
-2044.4156743214344
 30
0.0
 41
0.9999972320164788
 10
942.48275935205777
 20
-2044.4161424209622
 30
0.0
 41
1.0
 10
942.46340633540831
 20
-2044.4163763610522
 30
0.0
 41
1.0
 10
942.44405331875873
 20
-2044.4166103011426
 30
0.0
 41
1.0
 10
942.36662310638587
 20
-2044.4175462808505
 30
0.0
 41
0.999730494508651
 10
942.28931980014613
 20
-2044.422075374637
 30
0.0
 41
1.0
 10
942.28027015844395
 20
-2044.4226055806266
 30
0.0
 41
1.0
 10
942.27122051674189
 20
-2044.4231357866165
 30
0.0
 41
1.0
 10
942.17581792709836
 20
-2044.4287252923821
 30
0.0
 41
0.9997888306416133
 10
942.08072559125856
 20
-2044.4382302568708
 30
0.0
 41
1.0
 10
942.07200452968311
 20
-2044.4391019715031
 30
0.0
 41
1.0
 10
942.06328346810767
 20
-2044.4399736861355
 30
0.0
 41
1.0
 10
941.95074900911914
 20
-2044.451222079889
 30
0.0
 41
0.998417023819112
 10
941.84018986176761
 20
-2044.4750381618248
 30
0.0
 41
1.0
 10
941.80380873078047
 20
-2044.4828751976311
 30
0.0
 41
1.0
 10
941.76742759979334
 20
-2044.4907122334375
 30
0.0
 41
1.0
 10
941.65223653137298
 20
-2044.5155260999468
 30
0.0
 41
0.9976592854198381
 10
941.54150836496888
 20
-2044.5558247770937
 30
0.0
 41
1.0
 10
941.43078019856273
 20
-2044.5961234542413
 30
0.0
 41
0.9993255074352333
 10
941.32330839977215
 20
-2044.6444403527337
 30
0.0
 41
1.0
 10
941.31868322084938
 20
-2044.6465197289331
 30
0.0
 41
1.0
 10
941.3140580419265
 20
-2044.6485991051327
 30
0.0
 41
1.0
 10
941.19733588528834
 20
-2044.701074756025
 30
0.0
 41
0.9976475078275092
 10
941.08888854097745
 20
-2044.769022745684
 30
0.0
 41
1.0
 10
941.07054614684239
 20
-2044.7805152244987
 30
0.0
 41
1.0
 10
941.05220375270744
 20
-2044.7920077033132
 30
0.0
 41
1.0
 10
940.96800156115705
 20
-2044.8447648240806
 30
0.0
 41
0.9995131336406754
 10
940.88725384619954
 20
-2044.9026710360338
 30
0.0
 41
1.0
 10
940.80650613124305
 20
-2044.9605772479863
 30
0.0
 41
0.9995810107605909
 10
940.72924448351466
 20
-2045.023058930452
 30
0.0
 41
1.0
 10
940.72627445230387
 20
-2045.025460801917
 30
0.0
 41
1.0
 10
940.72330442109319
 20
-2045.0278626733821
 30
0.0
 41
1.0
 10
940.64010271094219
 20
-2045.0951480987787
 30
0.0
 41
0.9996617837955119
 10
940.56051202380468
 20
-2045.1666685543407
 30
0.0
 41
1.0
 10
940.54838127293044
 20
-2045.1775692873289
 30
0.0
 41
1.0
 10
940.53625052205621
 20
-2045.188470020317
 30
0.0
 41
1.0
 10
940.46797499465777
 20
-2045.2498226357911
 30
0.0
 41
0.9997267750052312
 10
940.4026414863738
 20
-2045.3142991723166
 30
0.0
 41
1.0
 10
940.3373079780788
 20
-2045.378775708853
 30
0.0
 41
0.9999667288965096
 10
940.27303503492044
 20
-2045.4443095157596
 30
0.0
 41
1.0
 10
940.20420758715682
 20
-2045.5144871745065
 30
0.0
 41
1.0
 10
940.13538013939319
 20
-2045.5846648332531
 30
0.0
 41
1.0
 10
939.9334523006944
 20
-2045.7905539576657
 30
0.0
 41
0.9988205335174748
 10
939.75244668371352
 20
-2046.0150581897285
 30
0.0
 41
1.0
 10
939.72180671881051
 20
-2046.0530614401564
 30
0.0
 41
1.0
 10
939.69116675390751
 20
-2046.0910646905843
 30
0.0
 41
1.0
 10
939.44888120712017
 20
-2046.3915754235029
 30
0.0
 41
0.999707782675514
 10
939.2214032560164
 20
-2046.7034452177168
 30
0.0
 41
1.0
 10
939.2196798408844
 20
-2046.7058080010984
 30
0.0
 41
1.0
 10
939.21795642575239
 20
-2046.7081707844802
 30
0.0
 41
1.0
 10
938.98703164438678
 20
-2047.024766145455
 30
0.0
 41
0.9989147567079025
 10
938.78656814150247
 20
-2047.3614756066411
 30
0.0
 41
1.0
 10
938.76182699619596
 20
-2047.4030321871928
 30
0.0
 41
1.0
 10
938.73708585088946
 20
-2047.4445887677443
 30
0.0
 41
1.0
 10
938.58187455225254
 20
-2047.7052901521961
 30
0.0
 41
0.999747659818142
 10
938.43852956474188
 20
-2047.9726999007803
 30
0.0
 41
1.0
 10
938.29518457723123
 20
-2048.2401096493645
 30
0.0
 41
0.9996258967110673
 10
938.16667632530027
 20
-2048.5149575859878
 30
0.0
 41
1.0
 10
938.1534764158514
 20
-2048.5431889860815
 30
0.0
 41
1.0
 10
938.14027650640264
 20
-2048.5714203861753
 30
0.0
 41
1.0
 10
938.00006778540239
 20
-2048.8712927841293
 30
0.0
 41
0.9998735413944595
 10
937.86946643868077
 20
-2049.1754723835993
 30
0.0
 41
1.0
 10
937.86602361061796
 20
-2049.1834909690697
 30
0.0
 41
1.0
 10
937.86258078255503
 20
-2049.1915095545396
 30
0.0
 41
1.0
 10
937.73886509196018
 20
-2049.4796519830675
 30
0.0
 41
0.9999377418860833
 10
937.62161028978562
 20
-2049.7704834507422
 30
0.0
 41
1.0
 10
937.50435548761129
 20
-2050.0613149184155
 30
0.0
 41
0.9999508299504062
 10
937.39289154423261
 20
-2050.354414595241
 30
0.0
 41
1.0
 10
937.38981077557037
 20
-2050.3625156212038
 30
0.0
 41
1.0
 10
937.38673000690824
 20
-2050.370616647167
 30
0.0
 41
1.0
 10
937.2691045262095
 20
-2050.6799183759058
 30
0.0
 41
0.9999609228426787
 10
937.15696592332984
 20
-2050.9912513919371
 30
0.0
 41
1.0
 10
937.15400991298122
 20
-2050.9994582323438
 30
0.0
 41
1.0
 10
937.15105390263261
 20
-2051.0076650727506
 30
0.0
 41
1.0
 10
937.03300327905913
 20
-2051.3354117695853
 30
0.0
 41
0.9999674607408194
 10
936.92025575299419
 20
-2051.6650203895711
 30
0.0
 41
1.0
 10
936.86885736242925
 20
-2051.8152795852702
 30
0.0
 41
1.0
 10
936.81745897186431
 20
-2051.9655387809694
 30
0.0
 41
1.0
 10
936.70144836510576
 20
-2052.3046867634748
 30
0.0
 41
0.9999287532309823
 10
936.59356696113764
 20
-2052.6465075024425
 30
0.0
 41
1.0
 10
936.54708970498871
 20
-2052.7937700468447
 30
0.0
 41
1.0
 10
936.50061244883977
 20
-2052.9410325912463
 30
0.0
 41
1.0
 10
936.48568555715156
 20
-2052.9883282414667
 30
0.0
 41
0.9999998224900542
 10
936.47081504843641
 20
-2053.0356416496597
 30
0.0
 41
1.0
 10
934.85015891164096
 20
-2058.183670151449
 30
0.0
 41
1.0
 10
933.22950277484551
 20
-2063.3316986532382
 30
0.0
 41
1.0
 10
932.32419433095458
 20
-2063.3316986532382
 30
0.0
 41
1.0
 10
931.41888588706365
 20
-2063.3316986532382
 30
0.0
 41
1.0
 10
933.2709702984497
 20
-2057.4446267307708
 30
0.0
 41
1.0
 10
935.12305470983574
 20
-2051.5575548083034
 30
0.0
 41
1.0
 10
935.13317646813846
 20
-2051.5255115948539
 30
0.0
 41
1.0
 10
935.2057841369882
 20
-2051.2952120530281
 30
0.0
 41
1.0
 10
935.27839180584112
 20
-2051.0649125111922
 30
0.0
 41
0.9999825681971918
 10
935.34827484506081
 20
-2050.8337716160995
 30
0.0
 41
1.0
 10
935.39656590721336
 20
-2050.6740470326308
 30
0.0
 41
1.0
 10
935.4448569693659
 20
-2050.5143224491621
 30
0.0
 41
1.0
 10
935.54200932268463
 20
-2050.1929872273813
 30
0.0
 41
0.9999672528959892
 10
935.63394812831029
 20
-2049.8701216817872
 30
0.0
 41
1.0
 10
935.63673701197786
 20
-2049.8603278364048
 30
0.0
 41
1.0
 10
935.63952589564542
 20
-2049.8505339910225
 30
0.0
 41
1.0
 10
935.72588693393232
 20
-2049.5472561362049
 30
0.0
 41
0.9999899749133419
 10
935.80952854346833
 20
-2049.2432170477487
 30
0.0
 41
1.0
 10
935.81963446248915
 20
-2049.206481810058
 30
0.0
 41
1.0
 10
935.82974038151008
 20
-2049.1697465723673
 30
0.0
 41
1.0
 10
935.89317015300708
 20
-2048.939177959282
 30
0.0
 41
0.9999214200502328
 10
935.95079958138081
 20
-2048.7070916170869
 30
0.0
 41
1.0
 10
935.96356543355864
 20
-2048.655680731702
 30
0.0
 41
1.0
 10
935.97633128573648
 20
-2048.604269846317
 30
0.0
 41
1.0
 10
936.00842900975272
 20
-2048.4750052748996
 30
0.0
 41
0.9999828681669607
 10
936.0390112617539
 20
-2048.34537380041
 30
0.0
 41
1.0
 10
936.06959351374803
 20
-2048.2157423259473
 30
0.0
 41
0.9999389844477922
 10
936.09730450253846
 20
-2048.0854668700426
 30
0.0
 41
1.0
 10
936.10444224625871
 20
-2048.0519107662049
 30
0.0
 41
1.0
 10
936.11157998997896
 20
-2048.0183546623675
 30
0.0
 41
1.0
 10
936.15356646620876
 20
-2047.8209669987916
 30
0.0
 41
0.9998933699439737
 10
936.18977073061114
 20
-2047.6224373910325
 30
0.0
 41
1.0
 10
936.19114355582735
 20
-2047.6149093703366
 30
0.0
 41
1.0
 10
936.19251638104356
 20
-2047.6073813496407
 30
0.0
 41
1.0
 10
936.23146629587927
 20
-2047.393795700485
 30
0.0
 41
0.9996850305193614
 10
936.25964997213771
 20
-2047.1785246950487
 30
0.0
 41
1.0
 10
936.26164500550681
 20
-2047.1632863409282
 30
0.0
 41
1.0
 10
936.26364003887591
 20
-2047.1480479868078
 30
0.0
 41
1.0
 10
936.29104790133465
 20
-2046.9387027596547
 30
0.0
 41
0.9994697936707017
 10
936.30477246055443
 20
-2046.7280175643232
 30
0.0
 41
1.0
 10
936.30524952980397
 20
-2046.7206940921137
 30
0.0
 41
1.0
 10
936.30572659905351
 20
-2046.7133706199045
 30
0.0
 41
1.0
 10
936.31849701977387
 20
-2046.5173323689944
 30
0.0
 41
0.9991804893137077
 10
936.31536870350124
 20
-2046.3209035190189
 30
0.0
 41
1.0
 10
936.31528482467911
 20
-2046.315636717608
 30
0.0
 41
1.0
 10
936.3152009458571
 20
-2046.3103699161968
 30
0.0
 41
1.0
 10
936.3122403872286
 20
-2046.1244746690484
 30
0.0
 41
0.9988448329321595
 10
936.29144884160473
 20
-2045.9397220792121
 30
0.0
 41
1.0
 10
936.28985476790172
 20
-2045.9255572234408
 30
0.0
 41
1.0
 10
936.2882606941987
 20
-2045.9113923676696
 30
0.0
 41
1.0
 10
936.27065729598098
 20
-2045.7549694893789
 30
0.0
 41
0.9985503209458641
 10
936.23634102368146
 20
-2045.6013453052894
 30
0.0
 41
1.0
 10
936.22875503161049
 20
-2045.56738497789
 30
0.0
 41
1.0
 10
936.22116903953952
 20
-2045.5334246504908
 30
0.0
 41
1.0
 10
936.20202475138194
 20
-2045.4477211212011
 30
0.0
 41
0.9991036781371324
 10
936.17569988973059
 20
-2045.3639440338752
 30
0.0
 41
1.0
 10
936.1717176642735
 20
-2045.3512708713613
 30
0.0
 41
1.0
 10
936.16773543881652
 20
-2045.3385977088474
 30
0.0
 41
1.0
 10
936.14937502807732
 20
-2045.280166946543
 30
0.0
 41
0.999887450436887
 10
936.12926982040108
 20
-2045.2223133443269
 30
0.0
 41
1.0
 10
936.10916461272268
 20
-2045.1644597421036
 30
0.0
 41
0.9994041637543678
 10
936.08511599978704
 20
-2045.1081310382108
 30
0.0
 41
1.0
 10
936.08091921556343
 20
-2045.0983009737299
 30
0.0
 41
1.0
 10
936.07672243133982
 20
-2045.0884709092491
 30
0.0
 41
1.0
 10
936.04884360034544
 20
-2045.023170743282
 30
0.0
 41
0.9991846840701874
 10
936.01578724365265
 20
-2044.9603327120026
 30
0.0
 41
1.0
 10
936.01465063725777
 20
-2044.958172095548
 30
0.0
 41
1.0
 10
936.01351403086278
 20
-2044.9560114790936
 30
0.0
 41
1.0
 10
935.98273088695964
 20
-2044.8974946807227
 30
0.0
 41
0.9989253167923785
 10
935.94666146290456
 20
-2044.8420797523322
 30
0.0
 41
1.0
 10
935.94560733822982
 20
-2044.8404602575692
 30
0.0
 41
1.0
 10
935.94455321355508
 20
-2044.8388407628061
 30
0.0
 41
1.0
 10
935.91059203884936
 20
-2044.7866648239412
 30
0.0
 41
0.9986467172835423
 10
935.87139488621233
 20
-2044.7382987903125
 30
0.0
 41
1.0
 10
935.87052075751183
 20
-2044.7372201880344
 30
0.0
 41
1.0
 10
935.86964662881132
 20
-2044.7361415857565
 30
0.0
 41
1.0
 10
935.83219773357496
 20
-2044.6899327566828
 30
0.0
 41
0.9984001104267417
 10
935.78977100305769
 20
-2044.6482476493138
 30
0.0
 41
1.0
 10
935.78918386494865
 20
-2044.647670774433
 30
0.0
 41
1.0
 10
935.78859672683973
 20
-2044.6470938995521
 30
0.0
 41
1.0
 10
935.74734427254054
 20
-2044.6065625419451
 30
0.0
 41
0.9982442159082607
 10
935.701588171205
 20
-2044.5711939806849
 30
0.0
 41
1.0
 10
935.70137337574306
 20
-2044.5710279480418
 30
0.0
 41
1.0
 10
935.70115858028123
 20
-2044.5708619153984
 30
0.0
 41
1.0
 10
935.65583206986878
 20
-2044.5358254194243
 30
0.0
 41
0.9982450060836134
 10
935.60668109079757
 20
-2044.5063936363913
 30
0.0
 41
1.0
 10
935.55753011172715
 20
-2044.4769618533585
 30
0.0
 41
0.9983922639635341
 10
935.50536380556275
 20
-2044.4532822187043
 30
0.0
 41
1.0
 10
935.50513692823733
 20
-2044.4531792332225
 30
0.0
 41
1.0
 10
935.50491005091203
 20
-2044.4530762477407
 30
0.0
 41
1.0
 10
935.45228999009794
 20
-2044.4291906421236
 30
0.0
 41
0.9986517147149796
 10
935.3974770172307
 20
-2044.4108895230022
 30
0.0
 41
1.0
 10
935.39679909580263
 20
-2044.4106631765708
 30
0.0
 41
1.0
 10
935.39612117437468
 20
-2044.4104368301391
 30
0.0
 41
1.0
 10
935.33995235864995
 20
-2044.391683018154
 30
0.0
 41
0.9989435598955825
 10
935.28229897149731
 20
-2044.3781653159194
 30
0.0
 41
1.0
 10
935.28121885191672
 20
-2044.3779120656668
 30
0.0
 41
1.0
 10
935.28013873233613
 20
-2044.377658815414
 30
0.0
 41
1.0
 10
935.22032510602071
 20
-2044.3636346126732
 30
0.0
 41
0.9992249241239335
 10
935.15959359712269
 20
-2044.3543592699582
 30
0.0
 41
1.0
 10
935.15817990883238
 20
-2044.3541433615505
 30
0.0
 41
1.0
 10
935.15676622054195
 20
-2044.3539274531427
 30
0.0
 41
1.0
 10
935.09320733506172
 20
-2044.3442202936114
 30
0.0
 41
0.9994396597833568
 10
935.02914139852408
 20
-2044.3387873712657
 30
0.0
 41
1.0
 10
935.01000073104706
 20
-2044.3371642035472
 30
0.0
 41
1.0
 10
934.99086006356993
 20
-2044.3355410358286
 30
0.0
 41
1.0
 10
934.8885127920787
 20
-2044.3268617780459
 30
0.0
 41
0.9987693403121778
 10
934.78580916849307
 20
-2044.3283648414983
 30
0.0
 41
1.0
 10
934.77555483426306
 20
-2044.3285149132726
 30
0.0
 41
1.0
 10
934.76530050003305
 20
-2044.3286649850468
 30
0.0
 41
1.0
 10
934.65574473385573
 20
-2044.3302683293341
 30
0.0
 41
0.9989753644965964
 10
934.54678273384047
 20
-2044.3417713362592
 30
0.0
 41
1.0
 10
934.43782073382192
 20
-2044.3532743431847
 30
0.0
 41
0.9983190067305936
 10
934.33092192285471
 20
-2044.3773093349721
 30
0.0
 41
1.0
 10
934.32202097125014
 20
-2044.3793106135345
 30
0.0
 41
1.0
 10
934.31312001964557
 20
-2044.3813118920966
 30
0.0
 41
1.0
 10
934.18841930546932
 20
-2044.4093494410081
 30
0.0
 41
0.9985539388303643
 10
934.0674495517934
 20
-2044.4506131170529
 30
0.0
 41
1.0
 10
934.06510412083094
 20
-2044.4514131608694
 30
0.0
 41
1.0
 10
934.06275868986859
 20
-2044.4522132046859
 30
0.0
 41
1.0
 10
933.93709807427103
 20
-2044.495076968363
 30
0.0
 41
0.9988468746494028
 10
933.81612773197162
 20
-2044.5497950534248
 30
0.0
 41
1.0
 10
933.81294490998198
 20
-2044.551234727985
 30
0.0
 41
1.0
 10
933.80976208799234
 20
-2044.5526744025456
 30
0.0
 41
1.0
 10
933.68242610171433
 20
-2044.6102718367281
 30
0.0
 41
0.9991322885919178
 10
933.56032551765679
 20
-2044.6782671689102
 30
0.0
 41
1.0
 10
933.54272350661574
 20
-2044.6880693708986
 30
0.0
 41
1.0
 10
933.52512149557469
 20
-2044.6978715728867
 30
0.0
 41
1.0
 10
933.4229448145162
 20
-2044.7547716886681
 30
0.0
 41
0.9993860037849828
 10
933.3250038104394
 20
-2044.8186877042585
 30
0.0
 41
1.0
 10
933.31938549758615
 20
-2044.8223541989541
 30
0.0
 41
1.0
 10
933.3137671847328
 20
-2044.8260206936498
 30
0.0
 41
1.0
 10
933.22706280636498
 20
-2044.8826037198478
 30
0.0
 41
0.9998821494953316
 10
933.14213643055314
 20
-2044.9418219499239
 30
0.0
 41
1.0
 10
933.05721005474447
 20
-2045.0010401799975
 30
0.0
 41
0.9997976482745102
 10
932.97473442434182
 20
-2045.0636265880385
 30
0.0
 41
1.0
 10
932.96009815953437
 20
-2045.0747332778201
 30
0.0
 41
1.0
 10
932.94546189472692
 20
-2045.0858399676019
 30
0.0
 41
1.0
 10
932.83371373471505
 20
-2045.170639755202
 30
0.0
 41
0.9998091630799466
 10
932.72536345668902
 20
-2045.2597401059022
 30
0.0
 41
1.0
 10
932.71235770421004
 20
-2045.2704352063497
 30
0.0
 41
1.0
 10
932.69935195173116
 20
-2045.281130306797
 30
0.0
 41
1.0
 10
932.56499016874648
 20
-2045.3916208583923
 30
0.0
 41
0.9995035112316929
 10
932.43785429098273
 20
-2045.5103546754078
 30
0.0
 41
1.0
 10
932.42820698059404
 20
-2045.5193644215669
 30
0.0
 41
1.0
 10
932.41855967020547
 20
-2045.5283741677263
 30
0.0
 41
1.0
 10
932.29513660744306
 20
-2045.6436405394793
 30
0.0
 41
0.9994630424298734
 10
932.1795282016617
 20
-2045.766743282712
 30
0.0
 41
1.0
 10
932.17584536289019
 20
-2045.7706648622252
 30
0.0
 41
1.0
 10
932.17216252411856
 20
-2045.7745864417384
 30
0.0
 41
1.0
 10
932.06391979587772
 20
-2045.889846025947
 30
0.0
 41
0.9995160693749345
 10
931.96305376634575
 20
-2046.0116134438199
 30
0.0
 41
1.0
 10
931.96112004626343
 20
-2046.0139478680301
 30
0.0
 41
1.0
 10
931.959186326181
 20
-2046.0162822922402
 30
0.0
 41
1.0
 10
931.86218773681276
 20
-2046.1333808616937
 30
0.0
 41
0.9996561470514268
 10
931.77146151814793
 20
-2046.2554036241415
 30
0.0
 41
1.0
 10
931.7653038522451
 20
-2046.2636854131852
 30
0.0
 41
1.0
 10
931.75914618634215
 20
-2046.2719672022286
 30
0.0
 41
1.0
 10
931.68073529948072
 20
-2046.3774263865923
 30
0.0
 41
0.9998349055173117
 10
931.60620801754976
 20
-2046.4856649702542
 30
0.0
 41
1.0
 10
931.53168073561108
 20
-2046.593903553927
 30
0.0
 41
0.999972810956673
 10
931.45875783970303
 20
-2046.7032294794792
 30
0.0
 41
1.0
 10
931.45744262429344
 20
-2046.7052012489785
 30
0.0
 41
1.0
 10
931.45612740888396
 20
-2046.7071730184778
 30
0.0
 41
1.0
 10
931.3805740821839
 20
-2046.8204424829876
 30
0.0
 41
0.9999972147351975
 10
931.30555627181946
 20
-2046.9340673258087
 30
0.0
 41
1.0
 10
931.30058472917551
 20
-2046.9415974143135
 30
0.0
 41
1.0
 10
931.29561318653157
 20
-2046.9491275028186
 30
0.0
 41
1.0
 10
931.2106522909146
 20
-2047.0778125225961
 30
0.0
 41
0.999937197900899
 10
931.12859694150893
 20
-2047.2083694363757
 30
0.0
 41
1.0
 10
931.12508805714674
 20
-2047.2139523644414
 30
0.0
 41
1.0
 10
931.12157917278455
 20
-2047.2195352925071
 30
0.0
 41
1.0
 10
931.03250605465928
 20
-2047.3612580624103
 30
0.0
 41
0.9998272025610184
 10
930.94876266378014
 20
-2047.5061939391474
 30
0.0
 41
1.0
 10
930.93354749175296
 20
-2047.5325270536096
 30
0.0
 41
1.0
 10
930.91833231972578
 20
-2047.5588601680715
 30
0.0
 41
1.0
 10
930.80415858479762
 20
-2047.7564622737239
 30
0.0
 41
0.9995217214838565
 10
930.70241889524198
 20
-2047.9607446015855
 30
0.0
 41
1.0
 10
930.69477533260397
 20
-2047.9760920512945
 30
0.0
 41
1.0
 10
930.68713176996596
 20
-2047.9914395010032
 30
0.0
 41
1.0
 10
930.60022647737696
 20
-2048.1659359590831
 30
0.0
 41
0.9998269762608494
 10
930.51987201110819
 20
-2048.3435442458003
 30
0.0
 41
1.0
 10
930.43951754483066
 20
-2048.5211525325353
 30
0.0
 41
0.9998944747387725
 10
930.36435675026416
 20
-2048.70102025817
 30
0.0
 41
1.0
 10
930.35940308067734
 20
-2048.712874913077
 30
0.0
 41
1.0
 10
930.3544494110904
 20
-2048.7247295679845
 30
0.0
 41
1.0
 10
930.27380235053693
 20
-2048.9177265080048
 30
0.0
 41
0.9999506734412138
 10
930.19700482163239
 20
-2049.1122873128634
 30
0.0
 41
1.0
 10
930.18240485637625
 20
-2049.1492752346317
 30
0.0
 41
1.0
 10
930.16780489112023
 20
-2049.1862631563999
 30
0.0
 41
1.0
 10
930.1202072927365
 20
-2049.3068481177002
 30
0.0
 41
0.9999912393936488
 10
930.07362084870624
 20
-2049.427827320415
 30
0.0
 41
1.0
 10
930.02703440466814
 20
-2049.5488065231511
 30
0.0
 41
0.9999927113966349
 10
929.98137311027949
 20
-2049.6701379306396
 30
0.0
 41
1.0
 10
929.96740467888685
 20
-2049.7072549126251
 30
0.0
 41
1.0
 10
929.95343624749421
 20
-2049.7443718946106
 30
0.0
 41
1.0
 10
929.87983809030334
 20
-2049.9399372661137
 30
0.0
 41
0.9999487550949958
 10
929.81021446533475
 20
-2050.1369526312874
 30
0.0
 41
1.0
 10
929.78662085539872
 20
-2050.2037159415777
 30
0.0
 41
1.0
 10
929.76302724546258
 20
-2050.2704792518684
 30
0.0
 41
1.0
 10
929.66834161109102
 20
-2050.5384130866964
 30
0.0
 41
0.9999808436926885
 10
929.57698002244706
 20
-2050.8074985179678
 30
0.0
 41
1.0
 10
929.48561843380935
 20
-2051.0765839492205
 30
0.0
 41
0.9999873932916096
 10
929.39696372509479
 20
-2051.346573304224
 30
0.0
 41
1.0
 10
929.37687136822183
 20
-2051.4077626369881
 30
0.0
 41
1.0
 10
929.35677901134886
 20
-2051.4689519697517
 30
0.0
 41
1.0
 10
929.2279395888886
 20
-2051.8613199902811
 30
0.0
 41
0.9999794883030319
 10
929.10413680393128
 20
-2052.2553061965573
 30
0.0
 41
1.0
 10
929.09298454450777
 20
-2052.2907968067493
 30
0.0
 41
1.0
 10
929.08183228508437
 20
-2052.3262874169418
 30
0.0
 41
1.0
 10
928.93927412118092
 20
-2052.7799601690476
 30
0.0
 41
0.9999982761782074
 10
928.79840168114629
 20
-2053.2341591912318
 30
0.0
 41
1.0
 10
927.21026134857368
 20
-2058.282928922235
 30
0.0
 41
1.0
 10
925.62212101600107
 20
-2063.3316986532382
 30
0.0
 41
1.0
 10
924.67337040452469
 20
-2063.3316986532382
 30
0.0
 41
1.0
 10
923.7246197930483
 20
-2063.3316986532382
 30
0.0
 41
1.0
 10
926.96290427920144
 20
-2053.004376453292
 30
0.0
 41
1.0
 10
930.20118876535469
 20
-2042.6770542533461
 30
0.0
 41
1.0
  0
LWPOLYLINE
  5
5F
100
AcDbEntity
  8
0
370
              15
390
0
  6
Continuous
 62
               7
100
AcDbPolyline
 90
      232
 70
             128
 10
904.49764299152764
 20
-2043.7613970848613
 42
0.0004370800676083
 10
904.44476581760205
 20
-2043.830063723927
 10
904.40548158632816
 20
-2043.881170837014
 42
0.0030481992174123
 10
904.27514286918745
 20
-2044.052892529387
 10
904.23663119745856
 20
-2044.1042793131464
 42
0.0042058245756113
 10
904.0326461467879
 20
-2044.3812850582212
 10
903.98024102428803
 20
-2044.4537179050008
 42
0.0120948898740804
 10
903.68419710753085
 20
-2044.8844675095436
 10
903.58800460840735
 20
-2045.0319482447708
 42
0.0141601263946341
 10
903.28436056148269
 20
-2045.5276175815102
 10
903.24482329405532
 20
-2045.5964615489445
 42
0.0071131081305057
 10
903.03955097081825
 20
-2045.9659643477801
 42
0.0068458791001836
 10
902.84467144397763
 20
-2046.3410559112513
 10
902.83785958151748
 20
-2046.3546176249797
 42
0.0064120880288509
 10
902.63971733147946
 20
-2046.7620420998855
 10
902.63218264595616
 20
-2046.7780539566199
 42
0.0058857236449226
 10
902.42942725408238
 20
-2047.2224300676596
 10
902.42125232779051
 20
-2047.2409202212889
 42
0.0053189741895244
 10
902.21254801511691
 20
-2047.7268836952212
 10
902.20380020944162
 20
-2047.747865573403
 42
0.0047503650420245
 10
901.98782648328677
 20
-2048.2800650066233
 10
901.97855823494274
 20
-2048.3035413827206
 42
0.0042071762167679
 10
901.75401085122348
 20
-2048.8866349767677
 10
901.74426144886638
 20
-2048.9126011516601
 42
0.0036680086489215
 10
901.5098068055438
 20
-2049.5512365362206
 10
901.49959902570652
 20
-2049.5796850705356
 42
0.0032573142629895
 10
901.25396673973921
 20
-2050.2785377302907
 10
901.18531621889838
 20
-2050.4780008143443
 42
0.0026133366649961
 10
900.83687102014119
 20
-2051.5078640980137
 10
900.77361423264608
 20
-2051.6980949333897
 42
0.0020592950742597
 10
900.55975116367335
 20
-2052.3501985860203
 10
900.55669937248933
 20
-2052.3596350744947
 42
0.0025609928542273
 10
900.35487887102443
 20
-2052.9947802967954
 10
900.35228750389103
 20
-2053.0030826377574
 42
0.0031362356241203
 10
900.16279671822076
 20
-2053.6238454939157
 10
900.16066567528514
 20
-2053.6309868001545
 42
0.0037229918029135
 10
899.98386528836704
 20
-2054.2399721021011
 10
899.9821866991598
 20
-2054.2459189922783
 42
0.0043077623710585
 10
899.81844589709556
 20
-2054.8457377240443
 42
0.0047654161822802
 10
899.6656171745791
 20
-2055.4484238129485
 10
899.63115256574042
 20
-2055.5899855900966
 42
0.0112969368445184
 10
899.43528820759559
 20
-2056.4816777507272
 10
899.40728181850022
 20
-2056.6245057968185
 42
0.0130056762572295
 10
899.20644457485355
 20
-2057.8114468684635
 10
899.18590482470711
 20
-2057.9555249819359
 42
0.0138721532144205
 10
899.08220182016862
 20
-2058.8623544677662
 10
899.06290633226058
 20
-2059.0858521896926
 42
0.0071254697009109
 10
899.02955968633819
 20
-2059.5490391985386
 10
899.02459871217434
 20
-2059.6350431931078
 42
0.0028881799202164
 10
899.00946041888506
 20
-2059.9267849029411
 42
0.0060297297140625
 10
898.99952821910938
 20
-2060.2187338390631
 10
898.99846593744235
 20
-2060.2671262109898
 42
0.022952316415015
 10
899.00619696522813
 20
-2060.5898810572726
 10
899.01042273874862
 20
-2060.6502845912896
 42
0.0123673300677999
 10
899.02950138526683
 20
-2060.8514053164636
 42
0.012857767447516
 10
899.05869677567375
 20
-2061.0513031663941
 10
899.06582264906012
 20
-2061.0926319809878
 42
0.0285717853768475
 10
899.13031665075584
 20
-2061.3707481323008
 10
899.14398517442226
 20
-2061.4174029017781
 42
0.0316283099152014
 10
899.25979575433644
 20
-2061.7364174036038
 10
899.262844446092
 20
-2061.7434037759294
 42
0.0338984824242036
 10
899.41227615705918
 20
-2062.0309697401185
 10
899.41458488642866
 20
-2062.0347607693939
 42
0.0350228718352654
 10
899.59694517710261
 20
-2062.2918127540715
 10
899.59783042887727
 20
-2062.2928918318353
 42
0.0347476747517024
 10
899.81225511611774
 20
-2062.5200768790555
 42
0.0331337701903506
 10
900.05549844186453
 20
-2062.7162055411331
 10
900.05659854038026
 20
-2062.7169782443052
 42
0.0305233319080971
 10
900.32514323595365
 20
-2062.8821064143967
 10
900.3283732804548
 20
-2062.8838304262595
 42
0.0273744481160563
 10
900.62092699203083
 20
-2063.0199685701505
 10
900.62603152716667
 20
-2063.0220121546195
 42
0.0240964406192394
 10
900.94150860280922
 20
-2063.1309958808997
 10
900.94809193202241
 20
-2063.1329206205755
 42
0.0209636179817792
 10
901.28549208468064
 20
-2063.2163887685092
 10
901.29312454512365
 20
-2063.2179406815094
 42
0.0181388704688162
 10
901.65144693711909
 20
-2063.2773567747231
 10
901.65972778550031
 20
-2063.2784229585404
 42
0.0156086547581961
 10
902.03791514968805
 20
-2063.3151591451174
 10
902.08111040200822
 20
-2063.3179976475958
 42
0.0137148329013694
 10
902.40878354731501
 20
-2063.3305179028475
 10
902.45471973728229
 20
-2063.3310123359629
 42
0.0051057823893583
 10
902.69086532383324
 20
-2063.3311425903721
 42
0.0052256693299321
 10
902.92696260760169
 20
-2063.3263937659081
 10
902.9971893913613
 20
-2063.3242467998934
 42
0.016150717904718
 10
903.37292646946753
 20
-2063.3005964295667
 10
903.39293942983568
 20
-2063.2986862342796
 42
0.0101216737830607
 10
903.80696665131711
 20
-2063.2506933039149
 10
903.84101994075309
 20
-2063.246045607104
 42
0.0245291776401725
 10
904.31780959630987
 20
-2063.1569705290267
 10
904.40263291182373
 20
-2063.136774608683
 42
0.0143509212551018
 10
904.75926401576783
 20
-2063.0409699749034
 42
0.01565578570401
 10
905.109480080494
 20
-2062.9239587590846
 10
905.11698129498973
 20
-2062.92118859733
 42
0.0170137333628659
 10
905.47357729067357
 20
-2062.7755309824579
 10
905.48068121307858
 20
-2062.7723431468953
 42
0.0183105364408219
 10
905.84003088124337
 20
-2062.5950081050719
 10
905.84697764588361
 20
-2062.591257670199
 42
0.0194899958150876
 10
906.20545838686417
 20
-2062.3792786883105
 10
906.21247226620426
 20
-2062.3747533460132
 42
0.0204869852950638
 10
906.56648656829987
 20
-2062.1252333309262
 10
906.57375217688525
 20
-2062.119653265579
 42
0.0212516938556783
 10
906.91974210799515
 20
-2061.8297492686829
 10
906.96625880207216
 20
-2061.7872819585882
 42
0.0215248918251962
 10
907.22628497095661
 20
-2061.528517679596
 10
907.27131470534312
 20
-2061.4796735582399
 42
0.0114578554957248
 10
907.42610685901445
 20
-2061.3038506247881
 10
907.43730139501235
 20
-2061.2905318612293
 42
0.0061531305145874
 10
907.56377604099555
 20
-2061.136242327937
 42
0.0006325587114047
 10
907.68815452507886
 20
-2060.980238952347
 10
907.71119466019877
 20
-2060.9512654316018
 42
0.0041897761551142
 10
907.87965006417687
 20
-2060.7357460555331
 10
907.9381121840637
 20
-2060.6596447085549
 42
0.0092993880039052
 10
908.21472411129548
 20
-2060.28536594466
 10
908.29711860448469
 20
-2060.1694289411048
 42
0.0159321727086557
 10
908.6437250871287
 20
-2059.6472547203466
 10
908.68808122252233
 20
-2059.5755751560891
 42
0.0085547317024782
 10
908.92259298784347
 20
-2059.1817002068719
 42
0.0084601156885628
 10
909.14356916529107
 20
-2058.7800733578297
 10
909.15168463911596
 20
-2058.7647136755668
 42
0.0081429654281804
 10
909.37493390955228
 20
-2058.3249921630281
 10
909.38379407373748
 20
-2058.3068133210063
 42
0.0076574581327979
 10
909.61020158430415
 20
-2057.8236304457537
 10
909.61968122502788
 20
-2057.8025659674504
 42
0.0070682724199746
 10
909.85012613283436
 20
-2057.2705286626697
 10
909.86011641681637
 20
-2057.2465394736573
 42
0.0064559514448672
 10
910.09544962500161
 20
-2056.6602272071291
 10
910.10585898316299
 20
-2056.6332922816964
 42
0.0058311413908791
 10
910.34690571992439
 20
-2055.9872601873162
 10
910.35766079731332
 20
-2055.957375846152
 42
0.0052312425820025
 10
910.60524207535457
 20
-2055.2461734323165
 10
910.61628591173394
 20
-2055.213346720248
 42
0.0046680544795474
 10
910.87121433946152
 20
-2054.4315204045151
 10
910.91320648950841
 20
-2054.2985371672125
 42
0.0041666856443758
 10
911.11649250190703
 20
-2053.6355683921956
 10
911.15415494257797
 20
-2053.5089872845183
 42
0.0015170975152152
 10
911.27534152098383
 20
-2053.097118933048
 42
-0.0004887993110214
 10
911.39568129420877
 20
-2052.6850005206584
 10
911.47215855160198
 20
-2052.4240431350649
 42
0.0002583378925971
 10
911.74537312171799
 20
-2051.489986431709
 10
911.8271459712463
 20
-2051.2098871722915
 42
0.0006636169674034
 10
912.02101373125424
 20
-2050.542534248716
 10
912.02611038560212
 20
-2050.524902665833
 42
0.00105891313211
 10
912.2075590865179
 20
-2049.8921713227869
 10
912.21254115700617
 20
-2049.8746584157398
 42
0.001565552446268
 10
912.38081136418123
 20
-2049.2760417365662
 10
912.38564156459017
 20
-2049.2586495776522
 42
0.002164044047533
 10
912.53993153658212
 20
-2048.6936225596119
 10
912.54456575601444
 20
-2048.6763578296091
 42
0.0028763871856224
 10
912.68408147406512
 20
-2048.1443898787711
 10
912.68846733823477
 20
-2048.1272659006072
 42
0.0037310511948597
 10
912.81242403006922
 20
-2047.6278183065929
 10
912.81649925036061
 20
-2047.6108580353375
 42
0.0047652197768624
 10
912.92412315086665
 20
-2047.1433802670422
 10
912.92781375018876
 20
-2047.1266207118979
 42
0.006027669930109
 10
913.01834384934364
 20
-2046.690544916748
 10
913.02156253963108
 20
-2046.6740437024478
 42
0.0075824337753091
 10
913.09425184904831
 20
-2046.2687765380126
 10
913.09689722642929
 20
-2046.2526215905573
 42
0.0095130624613171
 10
913.15101246205973
 20
-2045.8775322374904
 10
913.15799868594115
 20
-2045.8215986793839
 42
0.0121054653225939
 10
913.18459001652025
 20
-2045.5567028508999
 10
913.18545650627959
 20
-2045.5452994079737
 42
0.0069050827376619
 10
913.20054532431755
 20
-2045.3023581811267
 10
913.20168062398625
 20
-2045.2788319240774
 42
0.0169063976709145
 10
913.20450790296627
 20
-2045.0826391967812
 10
913.20333725143496
 20
-2045.0223034354294
 42
0.0052007732904482
 10
913.20108380284205
 20
-2044.9467100452798
 42
0.0054038123300346
 10
913.18112029100257
 20
-2044.8266917492665
 10
913.17603443513281
 20
-2044.7980332626887
 42
0.0112050460471152
 10
913.1406500730734
 20
-2044.6217068243459
 10
913.12282511103353
 20
-2044.542165237629
 42
0.0240764468009652
 10
913.03192774488775
 20
-2044.2119282021288
 10
913.01336898207433
 20
-2044.1553080371348
 42
0.0256812331834389
 10
912.8700060618844
 20
-2043.7835838308765
 10
912.86459663606263
 20
-2043.771452495886
 42
0.0268360501217816
 10
912.69516939521316
 20
-2043.4404593618658
 10
912.68963298757853
 20
-2043.4309396915542
 42
0.027467023172954
 10
912.49743201116485
 20
-2043.1386523166361
 10
912.49205071120127
 20
-2043.1313731690934
 42
0.0275035967100169
 10
912.28047783164038
 20
-2042.8758572787908
 10
912.27540833067303
 20
-2042.8703781911595
 42
0.026955767352627
 10
912.04800478723428
 20
-2042.6497359051982
 10
912.04326172945116
 20
-2042.645605950737
 42
0.0259124802208862
 10
911.80370689802089
 20
-2042.4579154235848
 10
911.79917605283686
 20
-2042.4547299212531
 42
0.0245162153004222
 10
911.55125969974415
 20
-2042.2979969121443
 10
911.54673315341972
 20
-2042.2954367149434
 42
0.0229282588844204
 10
911.29431359659259
 20
-2042.1675685224445
 10
911.28953310275574
 20
-2042.1654162226826
 42
0.0212984135702926
 10
911.03649515029406
 20
-2042.0642173054403
 10
911.03119086532854
 20
-2042.0623537426816
 42
0.0197555462342525
 10
910.78141252760156
 20
-2041.9855383247154
 42
0.0183511896796211
 10
910.52648380213338
 20
-2041.927955417749
 10
910.44011860541809
 20
-2041.9117526273653
 42
0.0338057877142611
 10
910.15461125615514
 20
-2041.8779442222244
 10
910.0636058511019
 20
-2041.8733645669624
 42
0.0091990524500232
 10
909.9577587424792
 20
-2041.8699887110411
 42
0.0028333980784315
 10
909.8518448264972
 20
-2041.8691606035245
 10
909.85092937343688
 20
-2041.8691586337004
 42
-0.0023619827792319
 10
909.74318335830878
 20
-2041.8684177926216
 10
909.70677818815511
 20
-2041.8679954861586
 42
0.0008824598471066
 10
909.52622219838292
 20
-2041.8662197079211
 10
909.48236076589933
 20
-2041.8658657463948
 42
0.0038132665763906
 10
909.21407787002852
 20
-2041.8657468103281
 10
909.19754421522703
 20
-2041.8658655764718
 42
0.0060665569334584
 10
908.89626372363762
 20
-2041.8716858758926
 10
908.88201339161037
 20
-2041.8721341838602
 42
0.0080356953336972
 10
908.55255467526774
 20
-2041.8878019059273
 10
908.54048466018389
 20
-2041.8885704888676
 42
0.0098996399106745
 10
908.18772157553417
 20
-2041.9180557180657
 10
908.17767586615832
 20
-2041.9190960142639
 42
0.0117740981369768
 10
907.80651900780902
 20
-2041.966388261794
 10
907.79829631132702
 20
-2041.9676333783646
 42
0.0137435215140719
 10
907.4137074918325
 20
-2042.0367303519283
 10
907.40705045271852
 20
-2042.0381162481599
 42
0.0158359869385199
 10
907.01405335891957
 20
-2042.1330083366395
 10
907.0086401720489
 20
-2042.1344982775111
 42
0.018055412402628
 10
906.61232512744084
 20
-2042.2591362937483
 10
906.60776833935313
 20
-2042.2607523300162
 42
0.0203657431281839
 10
906.2132908215433
 20
-2042.4190126715309
 10
906.20914728253445
 20
-2042.4208742929736
 42
0.022681968465723
 10
905.8217112263286
 20
-2042.6165168716461
 10
905.81751143531267
 20
-2042.6188824635647
 42
0.0248634984609254
 10
905.44232949412765
 20
-2042.8555091095143
 10
905.39413456534726
 20
-2042.8893661513375
 42
0.0267044190886042
 10
905.11984186843097
 20
-2043.1048065272057
 42
0.0139303002203069
 10
904.86367470248422
 20
-2043.3420453681254
 10
904.85882131677124
 20
-2043.3467980309777
 42
0.0283460963442403
 10
904.61474872254507
 20
-2043.6145286914214
 10
904.57508021738749
 20
-2043.6633302688958
 42
0.0070695364819276
 10
904.49764299152764
 20
-2043.7613970848613
 42
0.0070695364819276
  0
LWPOLYLINE
  5
60
100
AcDbEntity
  8
0
370
              15
390
0
  6
Continuous
 62
               7
100
AcDbPolyline
 90
      226
 70
             128
 10
900.96882255428125
 20
-2059.4829858910452
 42
-0.0026277636629846
 10
900.9687446704811
 20
-2059.4162139653349
 10
900.96896202871324
 20
-2059.3630587478592
 42
-0.0088680296723147
 10
900.97273864500619
 20
-2059.1900429654584
 10
900.97508500411868
 20
-2059.1307629400026
 42
-0.0077381705618877
 10
900.99113111488191
 20
-2058.8395024442034
 10
900.99199902605494
 20
-2058.8272142105188
 42
-0.0068872530533275
 10
901.01863110580325
 20
-2058.5119924584487
 10
901.01983532998918
 20
-2058.4997514794313
 42
-0.0062130021492179
 10
901.05742904681802
 20
-2058.1608817881843
 10
901.05893295035207
 20
-2058.1487079162766
 42
-0.0056726929663197
 10
901.10785480985305
 20
-2057.7865126941724
 10
901.10962825549882
 20
-2057.7744188939178
 42
-0.0052341884491056
 10
901.1702388417591
 20
-2057.3892256383979
 10
901.17225683053539
 20
-2057.3772207084075
 42
-0.0049768450169692
 10
901.24499551196129
 20
-2056.9693761409771
 10
901.26924452668356
 20
-2056.8408281579686
 42
-0.008902980562688
 10
901.40632537847546
 20
-2056.1790527105591
 10
901.43907075379684
 20
-2056.0340212800229
 42
-0.0080318257100966
 10
901.66861936813916
 20
-2055.0883116481632
 10
901.68060429458581
 20
-2055.0421810129792
 42
-0.007426572131759
 10
901.96461583343364
 20
-2054.012116434606
 10
901.98449537654994
 20
-2053.9439823740177
 42
-0.0069711922703569
 10
902.31179995505909
 20
-2052.8777146336815
 10
902.37175190216271
 20
-2052.6916932753165
 42
-0.0052070422893851
 10
902.60117712742385
 20
-2052.0044211982795
 10
902.61845831957874
 20
-2051.9543939177124
 42
-0.0009167004447258
 10
902.8215502068856
 20
-2051.369938069508
 42
-0.0025162726941945
 10
903.02864783714688
 20
-2050.786896805349
 10
903.06587244896457
 20
-2050.6837472594098
 42
-0.0028212681456918
 10
903.31404836791671
 20
-2050.0080166272692
 10
903.32387913065872
 20
-2049.9817091826158
 42
-0.0031964916826712
 10
903.56017138832965
 20
-2049.3615044204653
 10
903.56980584233827
 20
-2049.336694430297
 42
-0.0036281836451372
 10
903.79491180342984
 20
-2048.7692537494286
 10
903.80435021358198
 20
-2048.7459563179386
 42
-0.0041269166835321
 10
904.01896791024649
 20
-2048.2285154219476
 10
904.05160086666467
 20
-2048.1516369755927
 42
-0.0047472213058406
 10
904.20864567222088
 20
-2047.7912155077033
 10
904.21553975343363
 20
-2047.7757949103611
 42
-0.0025651659995152
 10
904.36389778727926
 20
-2047.4484668546229
 42
-0.005714463498917
 10
904.51764748105336
 20
-2047.1236571812547
 10
904.54567818645251
 20
-2047.0661487988646
 42
-0.0065388068373903
 10
904.72914521419159
 20
-2046.7019163022012
 10
904.73760366996441
 20
-2046.6856567228426
 42
-0.007451084302489
 10
904.91378591584794
 20
-2046.3589684417088
 10
904.92196558638329
 20
-2046.3443276644323
 42
-0.0084648979854517
 10
905.09159943947907
 20
-2046.052418653479
 10
905.09945556596801
 20
-2046.0394116618268
 42
-0.0095638542802945
 10
905.26329101356134
 20
-2045.7795227898496
 10
905.27076595723383
 20
-2045.7681534283929
 42
-0.0107191626805509
 10
905.42956753762064
 20
-2045.5375421938502
 10
905.43658427134994
 20
-2045.5278061014878
 42
-0.0118458573902322
 10
905.59113236986423
 20
-2045.3237339061748
 42
-0.0129184518188114
 10
905.75558499346869
 20
-2045.1275733900009
 10
905.78572976583212
 20
-2045.093447311101
 42
-0.0217742579630821
 10
905.96234208816418
 20
-2044.9102405408548
 10
905.97308763262947
 20
-2044.9000237076473
 42
-0.0097266568647487
 10
906.13914525148039
 20
-2044.7481761332144
 42
-0.0187720905712015
 10
906.31349282737642
 20
-2044.6061072798204
 10
906.34419881803865
 20
-2044.5829481974331
 42
-0.017942820752278
 10
906.57661953804018
 20
-2044.4203960203174
 10
906.58027186496452
 20
-2044.4180320854241
 42
-0.0170047877689387
 10
906.81603550248633
 20
-2044.2765715712781
 10
906.81981849123542
 20
-2044.2744732662404
 42
-0.0160190788362054
 10
907.05672703886819
 20
-2044.1528219642537
 42
-0.0151102861490214
 10
907.30075882131598
 20
-2044.0461391881988
 10
907.35314532352663
 20
-2044.0250990553045
 42
-0.0271945441883294
 10
907.71180788259051
 20
-2043.9032342445969
 10
907.78087268306854
 20
-2043.8838847033335
 42
-0.0237596594026555
 10
908.19666953009551
 20
-2043.7884339913508
 10
908.26473238382891
 20
-2043.7761793032234
 42
-0.0213715440553005
 10
908.55060731527124
 20
-2043.737232271714
 10
908.61075448148472
 20
-2043.7316425570134
 42
-0.0101465655821797
 10
908.77824701348334
 20
-2043.7194990137491
 10
908.78758739968032
 20
-2043.7190120987518
 42
-0.0100375910881584
 10
908.93674150024412
 20
-2043.7142362808265
 10
908.94700076993308
 20
-2043.7141138418119
 42
-0.0103625633371266
 10
909.0757087645793
 20
-2043.7152452753387
 10
909.09797441584635
 20
-2043.7159026338036
 42
-0.0115689250239239
 10
909.18202515337418
 20
-2043.7203321400489
 42
-0.0072438037447329
 10
909.26586343280678
 20
-2043.7279213397974
 10
909.28266394228615
 20
-2043.7296878825223
 42
-0.0217917313128444
 10
909.39923370560155
 20
-2043.7471077752436
 10
909.46483379616791
 20
-2043.759854383658
 42
-0.0332943556754926
 10
909.6692259611948
 20
-2043.813894674965
 10
909.69939852974585
 20
-2043.8240627520838
 42
-0.018482408480331
 10
909.83790358621036
 20
-2043.87651376747
 42
-0.0198002050698377
 10
909.97197792671034
 20
-2043.9393978276696
 10
909.97386456408663
 20
-2043.9403756145491
 42
-0.0212242342981561
 10
910.10600350648372
 20
-2044.0161383533391
 10
910.10781880203194
 20
-2044.0172841555504
 42
-0.0226090605784687
 10
910.23632270325572
 20
-2044.1067637991164
 10
910.23816714499117
 20
-2044.1081760521024
 42
-0.0238457052230575
 10
910.36134922628491
 20
-2044.2121719479655
 10
910.36330195484311
 20
-2044.2139868257309
 42
-0.0248160564147097
 10
910.47950346214532
 20
-2044.3332614269414
 10
910.48160709554577
 20
-2044.3356467606441
 42
-0.0254109591455332
 10
910.58921231341299
 20
-2044.4709351466101
 10
910.59146033532579
 20
-2044.474076695009
 42
-0.0255528488284906
 10
910.68890701412295
 20
-2044.6261037492434
 10
910.69123811403915
 20
-2044.6301853608511
 42
-0.0252146793221314
 10
910.77701914004842
 20
-2044.7996876068485
 10
910.77932137920584
 20
-2044.8048696887608
 42
-0.024426563594872
 10
910.85197607296777
 20
-2044.9926162608087
 10
910.86122247443507
 20
-2045.0204816791431
 42
-0.0231319612896063
 10
910.90714525342776
 20
-2045.1837827259469
 42
-0.0112130424360828
 10
910.94178127596592
 20
-2045.3499863261345
 10
910.94298380107853
 20
-2045.3564829130228
 42
-0.0210527881230961
 10
910.96867027644907
 20
-2045.5375385584625
 10
910.97218087127112
 20
-2045.5729441070114
 42
-0.01900298924189
 10
910.98762234481592
 20
-2045.826479953289
 10
910.98843232125978
 20
-2045.8619555676528
 42
-0.0137974553662857
 10
910.98688346842448
 20
-2046.1869869743782
 10
910.98603801346894
 20
-2046.2131057189699
 42
-0.0081336634218213
 10
910.97117867824613
 20
-2046.5184531865782
 42
-0.007352692357095
 10
910.94687014487135
 20
-2046.8232014308653
 10
910.94560872108877
 20
-2046.8365381055294
 42
-0.0066886138695554
 10
910.9098731350432
 20
-2047.1671241490183
 10
910.90821604557232
 20
-2047.1807457680179
 42
-0.0061359187357066
 10
910.86036544352089
 20
-2047.5375097481217
 10
910.85832794244857
 20
-2047.5514045509472
 42
-0.0056698610060964
 10
910.79767761168057
 20
-2047.9346831197911
 10
910.79527217835857
 20
-2047.9488422390159
 42
-0.0052721077281775
 10
910.72113997756048
 20
-2048.3589695786854
 10
910.71837682871717
 20
-2048.3733862140798
 42
-0.0049289272184049
 10
910.63008271061688
 20
-2048.8106947252036
 10
910.62697021593453
 20
-2048.8253635780184
 42
-0.0047415956710839
 10
910.52373222440519
 20
-2049.2901603354162
 10
910.48896401404249
 20
-2049.439967430812
 42
-0.0084404470898174
 10
910.29894757046827
 20
-2050.2001914553521
 10
910.29282088248499
 20
-2050.2230555794963
 42
-0.0039635940258588
 10
910.0713671982063
 20
-2051.0240444437254
 10
910.05799040302145
 20
-2051.0709760603359
 42
-0.0072475040834742
 10
909.79054351515936
 20
-2051.9601957767231
 10
909.7203311883386
 20
-2052.1819361266744
 42
-0.0051345458829627
 10
909.43357181627209
 20
-2053.0562613145094
 10
909.41204554949638
 20
-2053.1196875816631
 42
-0.001915001660004
 10
909.15651214263789
 20
-2053.8632367018654
 10
909.15004453825975
 20
-2053.881824166735
 42
-0.002152436275359
 10
908.90156648717789
 20
-2054.586149988495
 10
908.8923560664814
 20
-2054.6119035667966
 42
-0.0024331286818988
 10
908.65610080744545
 20
-2055.2625028749144
 10
908.6470528548939
 20
-2055.2870461812718
 42
-0.0027449721783015
 10
908.42243828405947
 20
-2055.8861760601931
 10
908.41354827667351
 20
-2055.909498650029
 42
-0.003108322976773
 10
908.20000579005728
 20
-2056.4594226876252
 10
908.1912696583712
 20
-2056.4815124035094
 42
-0.0035311343286374
 10
907.98822847278984
 20
-2056.9844955292128
 10
907.97964313365458
 20
-2057.005338252693
 42
-0.004024564095086
 10
907.78653132984778
 20
-2057.4636475753155
 10
907.77809521623431
 20
-2057.4832269434114
 42
-0.0046015135852126
 10
907.59433892308095
 20
-2057.8991319730299
 10
907.5860527452495
 20
-2057.9174291124891
 42
-0.0052768638268816
 10
907.41107522629704
 20
-2058.293201996752
 10
907.4029430156736
 20
-2058.310195335288
 42
-0.0060672675646103
 10
907.23616340290414
 20
-2058.6481109584097
 10
907.22819392242559
 20
-2058.6637762174014
 42
-0.0069904648874284
 10
907.06902552842121
 20
-2058.9661120240708
 10
907.061234128808
 20
-2058.9804225733023
 42
-0.0080637022767069
 10
906.90908226846454
 20
-2059.2494578764508
 10
906.90149323583432
 20
-2059.2623857420499
 42
-0.0093006455660326
 10
906.75575255930175
 20
-2059.500400140555
 10
906.74840189255906
 20
-2059.5119181097266
 42
-0.0107060778054525
 10
906.6084533491196
 20
-2059.7211884271073
 10
906.60139158084155
 20
-2059.7312739696708
 42
-0.0122723111405972
 10
906.46659786264195
 20
-2059.9140672991621
 10
906.46627163908454
 20
-2059.9144876869759
 42
-0.0141836319633107
 10
906.32269003611373
 20
-2060.0890574448013
 10
906.31574228046395
 20
-2060.0970324450636
 42
-0.01759574771963
 10
906.17583611242708
 20
-2060.2466533334709
 42
-0.0080466359666347
 10
906.02837234740025
 20
-2060.3889758616192
 10
905.98233780287944
 20
-2060.4319962997133
 42
-0.0269600260397673
 10
905.72905755689646
 20
-2060.6443195582224
 10
905.66249042059894
 20
-2060.6942709728464
 42
-0.0178362839757089
 10
905.42254593094367
 20
-2060.8612888990983
 10
905.41530095994506
 20
-2060.8659574113021
 42
-0.0174650732662536
 10
905.17896476250189
 20
-2061.0068183762623
 42
-0.0169240130174612
 10
904.93349851664277
 20
-2061.1311106360404
 10
904.88751236108646
 20
-2061.152472591607
 42
-0.0318883036843196
 10
904.53716150546643
 20
-2061.2888109011174
 10
904.4687959702942
 20
-2061.3105115215949
 42
-0.0284435909897219
 10
904.09274584401066
 20
-2061.4067289570676
 10
904.05758768351359
 20
-2061.413622552896
 42
-0.0243909341015609
 10
903.74414422259315
 20
-2061.4593435839261
 10
903.69386349582851
 20
-2061.464189130827
 42
-0.0196639292933831
 10
903.4782679182947
 20
-2061.476437416341
 10
903.42644384714049
 20
-2061.4773406770778
 42
-0.0100501510672708
 10
903.31402056546699
 20
-2061.4770402787249
 10
903.2823607041264
 20
-2061.4763192068399
 42
-0.0019752031156254
 10
903.23326836744161
 20
-2061.4750070466298
 10
903.23050806423794
 20
-2061.4749223548042
 42
0.0065378751946777
 10
903.18693148946477
 20
-2061.4741554635884
 42
-0.0167974694652155
 10
903.14340066653619
 20
-2061.4724955650631
 10
903.13932132727086
 20
-2061.4722025541678
 42
-0.0081283276299155
 10
903.08776152952669
 20
-2061.4676555605292
 10
903.07602195565369
 20
-2061.4664276429517
 42
-0.0126703440178453
 10
903.00130365986035
 20
-2061.4566928518802
 10
902.97851579218354
 20
-2061.4531345959649
 42
-0.0117852088446426
 10
902.85897680635435
 20
-2061.4315716008082
 10
902.80359635458808
 20
-2061.4202280605732
 42
-0.0251774592304603
 10
902.57675231557846
 20
-2061.3617300511391
 10
902.53203312572998
 20
-2061.3477632318049
 42
-0.0146525199892273
 10
902.34564013819067
 20
-2061.2834967046065
 42
-0.0166929435872811
 10
902.16366248206555
 20
-2061.2076895715527
 10
902.15900585079089
 20
-2061.2055646709382
 42
-0.0191684358444442
 10
901.97382221954445
 20
-2061.1123285871495
 10
901.97048963378461
 20
-2061.1104873395948
 42
-0.0221181781816144
 10
901.78717932988445
 20
-2060.9983538412253
 10
901.78482952587399
 20
-2060.9967695432329
 42
-0.0254984685376859
 10
901.60853937548814
 20
-2060.864358393263
 10
901.58605722778691
 20
-2060.8456060843273
 42
-0.0292492648819486
 10
901.46128828894371
 20
-2060.7285132846841
 42
-0.0159048957509766
 10
901.34744829149417
 20
-2060.6004932930855
 10
901.34612950091423
 20
-2060.5989116800647
 42
-0.0343813379561686
 10
901.24349223928812
 20
-2060.4570403542953
 10
901.21200070792747
 20
-2060.4065369622017
 42
-0.0369117275705204
 10
901.12610820602993
 20
-2060.2430597212528
 42
-0.0191751379904272
 10
901.05891482047309
 20
-2060.0706551152471
 10
901.05715149671346
 20
-2060.065561770572
 42
-0.0378178042225562
 10
901.00735677792909
 20
-2059.8766209944902
 10
901.00136148219917
 20
-2059.8440603762947
 42
-0.018484604648225
 10
900.98064428290445
 20
-2059.7023075557486
 42
-0.0179866351291986
 10
900.97031127783089
 20
-2059.5594167426689
 10
900.97025483538505
 20
-2059.5578590560553
 42
-0.0085497186139258
 10
900.96882255428125
 20
-2059.4829858910452
 42
-0.0085497186139258
  0
ENDBLK
  5
61
100
AcDbEntity
  8
template
390
0
100
AcDbBlockEnd
  0
BLOCK
  5
62
100
AcDbEntity
  8
notes
390
0
100
AcDbBlockBegin
  2
*D2
 70
               1
 10
0.0
 20
0.0
 30
0.0
  3
*D2
  1

  0
LINE
  5
63
100
AcDbEntity
  8
0
370
              -2
390
0
  6
Continuous
 62
               0
100
AcDbLine
 10
-761.47093831120299
 20
786.85895989008975
 30
0.0
 11
-761.47093831120299
 21
967.85895989008975
 31
0.0
  0
LINE
  5
64
100
AcDbEntity
  8
0
370
              -2
390
0
  6
Continuous
 62
               0
100
AcDbLine
 10
-181.47093831120287
 20
786.85895989008975
 30
0.0
 11
-181.47093831120287
 21
967.85895989008975
 31
0.0
  0
LINE
  5
65
100
AcDbEntity
  8
0
370
              -2
390
0
  6
Continuous
 62
               0
100
AcDbLine
 10
-761.47093831120299
 20
967.85895989008975
 30
0.0
 11
-181.47093831120287
 21
967.85895989008975
 31
0.0
  0
CIRCLE
  5
66
102
{ACAD_REACTORS
330
67
102
}
100
AcDbEntity
  8
0
370
              -2
390
0
  6
Continuous
 62
               0
100
AcDbCircle
 10
-761.47093831120299
 20
967.85895989008975
 30
0.0
 40
1.9998779296875
  0
HATCH
  5
67
100
AcDbEntity
  8
0
370
              -2
390
0
  6
Continuous
 62
               0
100
AcDbHatch
 10
0.0
 20
0.0
 30
0.0
210
0.0
220
0.0
230
1.0
  2
SOLID
 70
               1
 71
               1
 91
        1
 92
        1
 93
        1
 72
               2
 10
-761.47093831120299
 20
967.85895989008975
 40
1.9998779296875
 50
0.0
 51
360.0
 73
               0
 97
        1
330
66
 75
               0
 76
               1
 98
        1
 10
0.0
 20
0.0
  0
CIRCLE
  5
68
102
{ACAD_REACTORS
330
69
102
}
100
AcDbEntity
  8
0
370
              -2
390
0
  6
Continuous
 62
               0
100
AcDbCircle
 10
-181.47093831120287
 20
967.85895989008975
 30
0.0
 40
1.9998779296875
  0
HATCH
  5
69
100
AcDbEntity
  8
0
370
              -2
390
0
  6
Continuous
 62
               0
100
AcDbHatch
 10
0.0
 20
0.0
 30
0.0
210
0.0
220
0.0
230
1.0
  2
SOLID
 70
               1
 71
               1
 91
        1
 92
        1
 93
        1
 72
               2
 10
-181.47093831120287
 20
967.85895989008975
 40
1.9998779296875
 50
0.0
 51
360.0
 73
               0
 97
        1
330
68
 75
               0
 76
               1
 98
        1
 10
0.0
 20
0.0
  0
MTEXT
  5
6A
100
AcDbEntity
  8
0
390
0
 62
               0
100
AcDbMText
 10
-495.28343999337847
 20
1001.7365770775898
 30
0.0
 40
24.432617187500004
 41
0.0
 71
               1
 72
               1
  1
580
  7
ＭＳ ゴシック
 73
               1
 44
0.7828267384257843
  0
POINT
  5
6B
100
AcDbEntity
  8
Defpoints
370
               0
390
0
 62
               0
100
AcDbPoint
 10
-181.47093831120287
 20
761.85895989008975
 30
0.0
  0
POINT
  5
6C
100
AcDbEntity
  8
Defpoints
370
               0
390
0
 62
               0
100
AcDbPoint
 10
-761.47093831120299
 20
761.85895989008975
 30
0.0
  0
POINT
  5
6D
100
AcDbEntity
  8
Defpoints
370
               0
390
0
 62
               0
100
AcDbPoint
 10
-761.47093831120299
 20
967.85895989008975
 30
0.0
  0
ENDBLK
  5
6E
100
AcDbEntity
  8
notes
390
0
100
AcDbBlockEnd
  0
BLOCK
  5
6F
100
AcDbEntity
  8
notes
390
0
100
AcDbBlockBegin
  2
*D3
 70
               1
 10
0.0
 20
0.0
 30
0.0
  3
*D3
  1

  0
LINE
  5
70
100
AcDbEntity
  8
0
370
              -2
390
0
  6
Continuous
 62
               0
100
AcDbLine
 10
-757.43846697352183
 20
815.13515745417533
 30
0.0
 11
-861.47093831120299
 21
815.13515745417533
 31
0.0
  0
LINE
  5
71
100
AcDbEntity
  8
0
370
              -2
390
0
  6
Continuous
 62
               0
100
AcDbLine
 10
-757.43846697352183
 20
440.53008230354885
 30
0.0
 11
-861.47093831120299
 21
440.53008230354885
 31
0.0
  0
LINE
  5
72
100
AcDbEntity
  8
0
370
              -2
390
0
  6
Continuous
 62
               0
100
AcDbLine
 10
-861.47093831120299
 20
815.13515745417533
 30
0.0
 11
-861.47093831120299
 21
440.53008230354885
 31
0.0
  0
CIRCLE
  5
73
102
{ACAD_REACTORS
330
74
102
}
100
AcDbEntity
  8
0
370
              -2
390
0
  6
Continuous
 62
               0
100
AcDbCircle
 10
-861.47093831120299
 20
815.13515745417533
 30
0.0
 40
1.9998779296875
  0
HATCH
  5
74
100
AcDbEntity
  8
0
370
              -2
390
0
  6
Continuous
 62
               0
100
AcDbHatch
 10
0.0
 20
0.0
 30
0.0
210
0.0
220
0.0
230
1.0
  2
SOLID
 70
               1
 71
               1
 91
        1
 92
        1
 93
        1
 72
               2
 10
-861.47093831120299
 20
815.13515745417533
 40
1.9998779296875
 50
0.0
 51
360.0
 73
               0
 97
        1
330
73
 75
               0
 76
               1
 98
        1
 10
0.0
 20
0.0
  0
CIRCLE
  5
75
102
{ACAD_REACTORS
330
76
102
}
100
AcDbEntity
  8
0
370
              -2
390
0
  6
Continuous
 62
               0
100
AcDbCircle
 10
-861.47093831120299
 20
440.53008230354885
 30
0.0
 40
1.9998779296875
  0
HATCH
  5
76
100
AcDbEntity
  8
0
370
              -2
390
0
  6
Continuous
 62
               0
100
AcDbHatch
 10
0.0
 20
0.0
 30
0.0
210
0.0
220
0.0
230
1.0
  2
SOLID
 70
               1
 71
               1
 91
        1
 92
        1
 93
        1
 72
               2
 10
-861.47093831120299
 20
440.53008230354885
 40
1.9998779296875
 50
0.0
 51
360.0
 73
               0
 97
        1
330
75
 75
               0
 76
               1
 98
        1
 10
0.0
 20
0.0
  0
MTEXT
  5
77
100
AcDbEntity
  8
0
390
0
 62
               0
100
AcDbMText
 10
-895.34855549870304
 20
604.02011819668655
 30
0.0
 40
24.432617187500004
 41
0.0
 71
               1
 72
               1
  1
380
  7
ＭＳ ゴシック
 11
0.0
 21
1.0
 31
0.0
 73
               1
 44
0.7828267384257843
  0
POINT
  5
78
100
AcDbEntity
  8
Defpoints
370
               0
390
0
 62
               0
100
AcDbPoint
 10
-732.43846697352183
 20
440.53008230354885
 30
0.0
  0
POINT
  5
79
100
AcDbEntity
  8
Defpoints
370
               0
390
0
 62
               0
100
AcDbPoint
 10
-732.43846697352183
 20
815.13515745417533
 30
0.0
  0
POINT
  5
7A
100
AcDbEntity
  8
Defpoints
370
               0
390
0
 62
               0
100
AcDbPoint
 10
-861.47093831120299
 20
815.13515745417533
 30
0.0
  0
ENDBLK
  5
7B
100
AcDbEntity
  8
notes
390
0
100
AcDbBlockEnd
  0
BLOCK
  5
7C
100
AcDbEntity
  8
notes
390
0
100
AcDbBlockBegin
  2
*D4
 70
               1
 10
0.0
 20
0.0
 30
0.0
  3
*D4
  1

  0
LINE
  5
7D
100
AcDbEntity
  8
0
370
              -2
390
0
  6
Continuous
 62
               0
100
AcDbLine
 10
-264.09629359199255
 20
867.85895989008986
 30
0.0
 11
-27.830838850554557
 21
867.85895989008986
 31
0.0
  0
LINE
  5
7E
100
AcDbEntity
  8
0
370
              -2
390
0
  6
Continuous
 62
               0
100
AcDbLine
 10
-259.20800945646783
 20
387.85895989008964
 30
0.0
 11
-27.830838850554557
 21
387.85895989008964
 31
0.0
  0
LINE
  5
7F
100
AcDbEntity
  8
0
370
              -2
390
0
  6
Continuous
 62
               0
100
AcDbLine
 10
-27.830838850554557
 20
867.85895989008986
 30
0.0
 11
-27.830838850554557
 21
387.85895989008964
 31
0.0
  0
CIRCLE
  5
80
102
{ACAD_REACTORS
330
81
102
}
100
AcDbEntity
  8
0
370
              -2
390
0
  6
Continuous
 62
               0
100
AcDbCircle
 10
-27.830838850554557
 20
867.85895989008986
 30
0.0
 40
1.9998779296875
  0
HATCH
  5
81
100
AcDbEntity
  8
0
370
              -2
390
0
  6
Continuous
 62
               0
100
AcDbHatch
 10
0.0
 20
0.0
 30
0.0
210
0.0
220
0.0
230
1.0
  2
SOLID
 70
               1
 71
               1
 91
        1
 92
        1
 93
        1
 72
               2
 10
-27.830838850554557
 20
867.85895989008986
 40
1.9998779296875
 50
0.0
 51
360.0
 73
               0
 97
        1
330
80
 75
               0
 76
               1
 98
        1
 10
0.0
 20
0.0
  0
CIRCLE
  5
82
102
{ACAD_REACTORS
330
83
102
}
100
AcDbEntity
  8
0
370
              -2
390
0
  6
Continuous
 62
               0
100
AcDbCircle
 10
-27.830838850554557
 20
387.85895989008964
 30
0.0
 40
1.9998779296875
  0
HATCH
  5
83
100
AcDbEntity
  8
0
370
              -2
390
0
  6
Continuous
 62
               0
100
AcDbHatch
 10
0.0
 20
0.0
 30
0.0
210
0.0
220
0.0
230
1.0
  2
SOLID
 70
               1
 71
               1
 91
        1
 92
        1
 93
        1
 72
               2
 10
-27.830838850554557
 20
387.85895989008964
 40
1.9998779296875
 50
0.0
 51
360.0
 73
               0
 97
        1
330
82
 75
               0
 76
               1
 98
        1
 10
0.0
 20
0.0
  0
MTEXT
  5
84
100
AcDbEntity
  8
0
390
0
 62
               0
100
AcDbMText
 10
-61.708456038054564
 20
604.04645820791416
 30
0.0
 40
24.432617187500004
 41
0.0
 71
               1
 72
               1
  1
480
  7
ＭＳ ゴシック
 11
0.0
 21
1.0
 31
0.0
 73
               1
 44
0.7828267384257843
  0
POINT
  5
85
100
AcDbEntity
  8
Defpoints
370
               0
390
0
 62
               0
100
AcDbPoint
 10
-284.20800945646783
 20
387.85895989008964
 30
0.0
  0
POINT
  5
86
100
AcDbEntity
  8
Defpoints
370
               0
390
0
 62
               0
100
AcDbPoint
 10
-289.09629359199255
 20
867.85895989008986
 30
0.0
  0
POINT
  5
87
100
AcDbEntity
  8
Defpoints
370
               0
390
0
 62
               0
100
AcDbPoint
 10
-27.830838850554557
 20
867.85895989008986
 30
0.0
  0
ENDBLK
  5
88
100
AcDbEntity
  8
notes
390
0
100
AcDbBlockEnd
  0
BLOCK
  5
89
100
AcDbEntity
  8
notes
390
0
100
AcDbBlockBegin
  2
*D5
 70
               1
 10
0.0
 20
0.0
 30
0.0
  3
*D5
  1

  0
LINE
  5
8A
100
AcDbEntity
  8
0
370
              -2
390
0
  6
Continuous
 62
               0
100
AcDbLine
 10
-289.45742640332321
 20
-333.75020663320561
 30
0.0
 11
-289.45742640332321
 21
-283.79710961762578
 31
0.0
  0
LINE
  5
8B
100
AcDbEntity
  8
0
370
              -2
390
0
  6
Continuous
 62
               0
100
AcDbLine
 10
-179.45742640332313
 20
-365.07348338516067
 30
0.0
 11
-179.45742640332313
 21
-283.79710961762578
 31
0.0
  0
LINE
  5
8C
100
AcDbEntity
  8
0
370
              -2
390
0
  6
Continuous
 62
               0
100
AcDbLine
 10
-289.45742640332321
 20
-283.79710961762578
 30
0.0
 11
-179.45742640332313
 21
-283.79710961762578
 31
0.0
  0
CIRCLE
  5
8D
102
{ACAD_REACTORS
330
8E
102
}
100
AcDbEntity
  8
0
370
              -2
390
0
  6
Continuous
 62
               0
100
AcDbCircle
 10
-289.45742640332321
 20
-283.79710961762578
 30
0.0
 40
1.9998779296875
  0
HATCH
  5
8E
100
AcDbEntity
  8
0
370
              -2
390
0
  6
Continuous
 62
               0
100
AcDbHatch
 10
0.0
 20
0.0
 30
0.0
210
0.0
220
0.0
230
1.0
  2
SOLID
 70
               1
 71
               1
 91
        1
 92
        1
 93
        1
 72
               2
 10
-289.45742640332321
 20
-283.79710961762578
 40
1.9998779296875
 50
0.0
 51
360.0
 73
               0
 97
        1
330
8D
 75
               0
 76
               1
 98
        1
 10
0.0
 20
0.0
  0
CIRCLE
  5
8F
102
{ACAD_REACTORS
330
90
102
}
100
AcDbEntity
  8
0
370
              -2
390
0
  6
Continuous
 62
               0
100
AcDbCircle
 10
-179.45742640332313
 20
-283.79710961762578
 30
0.0
 40
1.9998779296875
  0
HATCH
  5
90
100
AcDbEntity
  8
0
370
              -2
390
0
  6
Continuous
 62
               0
100
AcDbHatch
 10
0.0
 20
0.0
 30
0.0
210
0.0
220
0.0
230
1.0
  2
SOLID
 70
               1
 71
               1
 91
        1
 92
        1
 93
        1
 72
               2
 10
-179.45742640332313
 20
-283.79710961762578
 40
1.9998779296875
 50
0.0
 51
360.0
 73
               0
 97
        1
330
8F
 75
               0
 76
               1
 98
        1
 10
0.0
 20
0.0
  0
MTEXT
  5
91
100
AcDbEntity
  8
0
390
0
 62
               0
100
AcDbMText
 10
-258.26992808549869
 20
-249.91949243012573
 30
0.0
 40
24.432617187500004
 41
0.0
 71
               1
 72
               1
  1
110
  7
ＭＳ ゴシック
 73
               1
 44
0.7828267384257843
  0
POINT
  5
92
100
AcDbEntity
  8
Defpoints
370
               0
390
0
 62
               0
100
AcDbPoint
 10
-179.45742640332313
 20
-390.07348338516067
 30
0.0
  0
POINT
  5
93
100
AcDbEntity
  8
Defpoints
370
               0
390
0
 62
               0
100
AcDbPoint
 10
-289.45742640332321
 20
-358.75020663320561
 30
0.0
  0
POINT
  5
94
100
AcDbEntity
  8
Defpoints
370
               0
390
0
 62
               0
100
AcDbPoint
 10
-289.45742640332321
 20
-283.79710961762578
 30
0.0
  0
ENDBLK
  5
95
100
AcDbEntity
  8
notes
390
0
100
AcDbBlockEnd
  0
BLOCK
  5
96
100
AcDbEntity
  8
notes
390
0
100
AcDbBlockBegin
  2
*D6
 70
               1
 10
0.0
 20
0.0
 30
0.0
  3
*D6
  1

  0
LINE
  5
97
100
AcDbEntity
  8
0
370
              -2
390
0
  6
Continuous
 62
               0
100
AcDbLine
 10
-230.27643267274593
 20
-566.17679478118316
 30
0.0
 11
-230.27643267274593
 21
-693.79721231376107
 31
0.0
  0
LINE
  5
98
100
AcDbEntity
  8
0
370
              -2
390
0
  6
Continuous
 62
               0
100
AcDbLine
 10
-645.27643267274584
 20
-566.42220997649792
 30
0.0
 11
-645.27643267274584
 21
-693.79721231376107
 31
0.0
  0
LINE
  5
99
100
AcDbEntity
  8
0
370
              -2
390
0
  6
Continuous
 62
               0
100
AcDbLine
 10
-230.27643267274593
 20
-693.79721231376107
 30
0.0
 11
-645.27643267274584
 21
-693.79721231376107
 31
0.0
  0
CIRCLE
  5
9A
102
{ACAD_REACTORS
330
9B
102
}
100
AcDbEntity
  8
0
370
              -2
390
0
  6
Continuous
 62
               0
100
AcDbCircle
 10
-230.27643267274593
 20
-693.79721231376107
 30
0.0
 40
1.9998779296875
  0
HATCH
  5
9B
100
AcDbEntity
  8
0
370
              -2
390
0
  6
Continuous
 62
               0
100
AcDbHatch
 10
0.0
 20
0.0
 30
0.0
210
0.0
220
0.0
230
1.0
  2
SOLID
 70
               1
 71
               1
 91
        1
 92
        1
 93
        1
 72
               2
 10
-230.27643267274593
 20
-693.79721231376107
 40
1.9998779296875
 50
0.0
 51
360.0
 73
               0
 97
        1
330
9A
 75
               0
 76
               1
 98
        1
 10
0.0
 20
0.0
  0
CIRCLE
  5
9C
102
{ACAD_REACTORS
330
9D
102
}
100
AcDbEntity
  8
0
370
              -2
390
0
  6
Continuous
 62
               0
100
AcDbCircle
 10
-645.27643267274584
 20
-693.79721231376107
 30
0.0
 40
1.9998779296875
  0
HATCH
  5
9D
100
AcDbEntity
  8
0
370
              -2
390
0
  6
Continuous
 62
               0
100
AcDbHatch
 10
0.0
 20
0.0
 30
0.0
210
0.0
220
0.0
230
1.0
  2
SOLID
 70
               1
 71
               1
 91
        1
 92
        1
 93
        1
 72
               2
 10
-645.27643267274584
 20
-693.79721231376107
 40
1.9998779296875
 50
0.0
 51
360.0
 73
               0
 97
        1
330
9C
 75
               0
 76
               1
 98
        1
 10
0.0
 20
0.0
  0
MTEXT
  5
9E
100
AcDbEntity
  8
0
390
0
 62
               0
100
AcDbMText
 10
-461.58893435492143
 20
-659.91959512626113
 30
0.0
 40
24.432617187500004
 41
0.0
 71
               1
 72
               1
  1
415
  7
ＭＳ ゴシック
 73
               1
 44
0.7828267384257843
  0
POINT
  5
9F
100
AcDbEntity
  8
Defpoints
370
               0
390
0
 62
               0
100
AcDbPoint
 10
-645.27643267274584
 20
-541.42220997649792
 30
0.0
  0
POINT
  5
A0
100
AcDbEntity
  8
Defpoints
370
               0
390
0
 62
               0
100
AcDbPoint
 10
-230.27643267274593
 20
-541.17679478118316
 30
0.0
  0
POINT
  5
A1
100
AcDbEntity
  8
Defpoints
370
               0
390
0
 62
               0
100
AcDbPoint
 10
-230.27643267274593
 20
-693.79721231376107
 30
0.0
  0
ENDBLK
  5
A2
100
AcDbEntity
  8
notes
390
0
100
AcDbBlockEnd
  0
BLOCK
  5
A3
100
AcDbEntity
  8
notes
390
0
100
AcDbBlockBegin
  2
*D7
 70
               1
 10
0.0
 20
0.0
 30
0.0
  3
*D7
  1

  0
LINE
  5
A4
100
AcDbEntity
  8
0
370
              -2
390
0
  6
Continuous
 62
               0
100
AcDbLine
 10
-163.87213040340072
 20
-383.81415503582434
 30
0.0
 11
-78.523161256265411
 21
-383.81415503582434
 31
0.0
  0
LINE
  5
A5
100
AcDbEntity
  8
0
370
              -2
390
0
  6
Continuous
 62
               0
100
AcDbLine
 10
-211.01414498740877
 20
-543.7910444006684
 30
0.0
 11
-78.523161256265411
 21
-543.7910444006684
 31
0.0
  0
LINE
  5
A6
100
AcDbEntity
  8
0
370
              -2
390
0
  6
Continuous
 62
               0
100
AcDbLine
 10
-78.523161256265411
 20
-383.81415503582434
 30
0.0
 11
-78.523161256265411
 21
-543.7910444006684
 31
0.0
  0
CIRCLE
  5
A7
102
{ACAD_REACTORS
330
A8
102
}
100
AcDbEntity
  8
0
370
              -2
390
0
  6
Continuous
 62
               0
100
AcDbCircle
 10
-78.523161256265411
 20
-383.81415503582434
 30
0.0
 40
1.9998779296875
  0
HATCH
  5
A8
100
AcDbEntity
  8
0
370
              -2
390
0
  6
Continuous
 62
               0
100
AcDbHatch
 10
0.0
 20
0.0
 30
0.0
210
0.0
220
0.0
230
1.0
  2
SOLID
 70
               1
 71
               1
 91
        1
 92
        1
 93
        1
 72
               2
 10
-78.523161256265411
 20
-383.81415503582434
 40
1.9998779296875
 50
0.0
 51
360.0
 73
               0
 97
        1
330
A7
 75
               0
 76
               1
 98
        1
 10
0.0
 20
0.0
  0
CIRCLE
  5
A9
102
{ACAD_REACTORS
330
AA
102
}
100
AcDbEntity
  8
0
370
              -2
390
0
  6
Continuous
 62
               0
100
AcDbCircle
 10
-78.523161256265411
 20
-543.7910444006684
 30
0.0
 40
1.9998779296875
  0
HATCH
  5
AA
100
AcDbEntity
  8
0
370
              -2
390
0
  6
Continuous
 62
               0
100
AcDbHatch
 10
0.0
 20
0.0
 30
0.0
210
0.0
220
0.0
230
1.0
  2
SOLID
 70
               1
 71
               1
 91
        1
 92
        1
 93
        1
 72
               2
 10
-78.523161256265411
 20
-543.7910444006684
 40
1.9998779296875
 50
0.0
 51
360.0
 73
               0
 97
        1
330
A9
 75
               0
 76
               1
 98
        1
 10
0.0
 20
0.0
  0
MTEXT
  5
AB
100
AcDbEntity
  8
0
390
0
 62
               0
100
AcDbMText
 10
-112.40077844376542
 20
-487.61510140042174
 30
0.0
 40
24.432617187500004
 41
0.0
 71
               1
 72
               1
  1
160
  7
ＭＳ ゴシック
 11
0.0
 21
1.0
 31
0.0
 73
               1
 44
0.7828267384257843
  0
POINT
  5
AC
100
AcDbEntity
  8
Defpoints
370
               0
390
0
 62
               0
100
AcDbPoint
 10
-236.01414498740877
 20
-543.7910444006684
 30
0.0
  0
POINT
  5
AD
100
AcDbEntity
  8
Defpoints
370
               0
390
0
 62
               0
100
AcDbPoint
 10
-188.87213040340072
 20
-383.81415503582434
 30
0.0
  0
POINT
  5
AE
100
AcDbEntity
  8
Defpoints
370
               0
390
0
 62
               0
100
AcDbPoint
 10
-78.523161256265411
 20
-383.81415503582434
 30
0.0
  0
ENDBLK
  5
AF
100
AcDbEntity
  8
notes
390
0
100
AcDbBlockEnd
  0
BLOCK
  5
B0
100
AcDbEntity
  8
notes
390
0
100
AcDbBlockBegin
  2
*D8
 70
               1
 10
0.0
 20
0.0
 30
0.0
  3
*D8
  1

  0
LINE
  5
B1
100
AcDbEntity
  8
0
370
              -2
390
0
  6
Continuous
 62
               0
100
AcDbLine
 10
690.69030124695462
 20
-383.7958509370701
 30
0.0
 11
773.59718127949748
 21
-383.7958509370701
 31
0.0
  0
LINE
  5
B2
100
AcDbEntity
  8
0
370
              -2
390
0
  6
Continuous
 62
               0
100
AcDbLine
 10
690.69030124695462
 20
-458.7958509370701
 30
0.0
 11
773.59718127949748
 21
-458.7958509370701
 31
0.0
  0
LINE
  5
B3
100
AcDbEntity
  8
0
370
              -2
390
0
  6
Continuous
 62
               0
100
AcDbLine
 10
773.59718127949748
 20
-383.7958509370701
 30
0.0
 11
773.59718127949748
 21
-458.7958509370701
 31
0.0
  0
CIRCLE
  5
B4
102
{ACAD_REACTORS
330
B5
102
}
100
AcDbEntity
  8
0
370
              -2
390
0
  6
Continuous
 62
               0
100
AcDbCircle
 10
773.59718127949748
 20
-383.7958509370701
 30
0.0
 40
1.9998779296875
  0
HATCH
  5
B5
100
AcDbEntity
  8
0
370
              -2
390
0
  6
Continuous
 62
               0
100
AcDbHatch
 10
0.0
 20
0.0
 30
0.0
210
0.0
220
0.0
230
1.0
  2
SOLID
 70
               1
 71
               1
 91
        1
 92
        1
 93
        1
 72
               2
 10
773.59718127949748
 20
-383.7958509370701
 40
1.9998779296875
 50
0.0
 51
360.0
 73
               0
 97
        1
330
B4
 75
               0
 76
               1
 98
        1
 10
0.0
 20
0.0
  0
CIRCLE
  5
B6
102
{ACAD_REACTORS
330
B7
102
}
100
AcDbEntity
  8
0
370
              -2
390
0
  6
Continuous
 62
               0
100
AcDbCircle
 10
773.59718127949748
 20
-458.7958509370701
 30
0.0
 40
1.9998779296875
  0
HATCH
  5
B7
100
AcDbEntity
  8
0
370
              -2
390
0
  6
Continuous
 62
               0
100
AcDbHatch
 10
0.0
 20
0.0
 30
0.0
210
0.0
220
0.0
230
1.0
  2
SOLID
 70
               1
 71
               1
 91
        1
 92
        1
 93
        1
 72
               2
 10
773.59718127949748
 20
-458.7958509370701
 40
1.9998779296875
 50
0.0
 51
360.0
 73
               0
 97
        1
330
B6
 75
               0
 76
               1
 98
        1
 10
0.0
 20
0.0
  0
MTEXT
  5
B8
100
AcDbEntity
  8
0
390
0
 62
               0
100
AcDbMText
 10
739.71956409199743
 20
-437.1708509370701
 30
0.0
 40
24.432617187500004
 41
0.0
 71
               1
 72
               1
  1
75
  7
ＭＳ ゴシック
 11
0.0
 21
1.0
 31
0.0
 73
               1
 44
0.7828267384257843
  0
POINT
  5
B9
100
AcDbEntity
  8
Defpoints
370
               0
390
0
 62
               0
100
AcDbPoint
 10
665.69030124695462
 20
-458.7958509370701
 30
0.0
  0
POINT
  5
BA
100
AcDbEntity
  8
Defpoints
370
               0
390
0
 62
               0
100
AcDbPoint
 10
665.69030124695462
 20
-383.7958509370701
 30
0.0
  0
POINT
  5
BB
100
AcDbEntity
  8
Defpoints
370
               0
390
0
 62
               0
100
AcDbPoint
 10
773.59718127949748
 20
-383.7958509370701
 30
0.0
  0
ENDBLK
  5
BC
100
AcDbEntity
  8
notes
390
0
100
AcDbBlockEnd
  0
BLOCK
  5
BD
100
AcDbEntity
  8
notes
390
0
100
AcDbBlockBegin
  2
*D9
 70
               1
 10
0.0
 20
0.0
 30
0.0
  3
*D9
  1

  0
LINE
  5
BE
100
AcDbEntity
  8
0
370
              -2
390
0
  6
Continuous
 62
               0
100
AcDbLine
 10
714.74753940585049
 20
-458.7958509370701
 30
0.0
 11
773.59718127949748
 21
-458.7958509370701
 31
0.0
  0
LINE
  5
BF
100
AcDbEntity
  8
0
370
              -2
390
0
  6
Continuous
 62
               0
100
AcDbLine
 10
665.67276652473231
 20
-543.7958509370701
 30
0.0
 11
773.59718127949748
 21
-543.7958509370701
 31
0.0
  0
LINE
  5
C0
100
AcDbEntity
  8
0
370
              -2
390
0
  6
Continuous
 62
               0
100
AcDbLine
 10
773.59718127949748
 20
-458.7958509370701
 30
0.0
 11
773.59718127949748
 21
-543.7958509370701
 31
0.0
  0
CIRCLE
  5
C1
102
{ACAD_REACTORS
330
C2
102
}
100
AcDbEntity
  8
0
370
              -2
390
0
  6
Continuous
 62
               0
100
AcDbCircle
 10
773.59718127949748
 20
-458.7958509370701
 30
0.0
 40
1.9998779296875
  0
HATCH
  5
C2
100
AcDbEntity
  8
0
370
              -2
390
0
  6
Continuous
 62
               0
100
AcDbHatch
 10
0.0
 20
0.0
 30
0.0
210
0.0
220
0.0
230
1.0
  2
SOLID
 70
               1
 71
               1
 91
        1
 92
        1
 93
        1
 72
               2
 10
773.59718127949748
 20
-458.7958509370701
 40
1.9998779296875
 50
0.0
 51
360.0
 73
               0
 97
        1
330
C1
 75
               0
 76
               1
 98
        1
 10
0.0
 20
0.0
  0
CIRCLE
  5
C3
102
{ACAD_REACTORS
330
C4
102
}
100
AcDbEntity
  8
0
370
              -2
390
0
  6
Continuous
 62
               0
100
AcDbCircle
 10
773.59718127949748
 20
-543.7958509370701
 30
0.0
 40
1.9998779296875
  0
HATCH
  5
C4
100
AcDbEntity
  8
0
370
              -2
390
0
  6
Continuous
 62
               0
100
AcDbHatch
 10
0.0
 20
0.0
 30
0.0
210
0.0
220
0.0
230
1.0
  2
SOLID
 70
               1
 71
               1
 91
        1
 92
        1
 93
        1
 72
               2
 10
773.59718127949748
 20
-543.7958509370701
 40
1.9998779296875
 50
0.0
 51
360.0
 73
               0
 97
        1
330
C3
 75
               0
 76
               1
 98
        1
 10
0.0
 20
0.0
  0
MTEXT
  5
C5
100
AcDbEntity
  8
0
390
0
 62
               0
100
AcDbMText
 10
739.71956409199743
 20
-517.1708509370701
 30
0.0
 40
24.432617187500004
 41
0.0
 71
               1
 72
               1
  1
85
  7
ＭＳ ゴシック
 11
0.0
 21
1.0
 31
0.0
 73
               1
 44
0.7828267384257843
  0
POINT
  5
C6
100
AcDbEntity
  8
Defpoints
370
               0
390
0
 62
               0
100
AcDbPoint
 10
640.67276652473231
 20
-543.7958509370701
 30
0.0
  0
POINT
  5
C7
100
AcDbEntity
  8
Defpoints
370
               0
390
0
 62
               0
100
AcDbPoint
 10
689.74753940585049
 20
-458.7958509370701
 30
0.0
  0
POINT
  5
C8
100
AcDbEntity
  8
Defpoints
370
               0
390
0
 62
               0
100
AcDbPoint
 10
773.59718127949748
 20
-458.7958509370701
 30
0.0
  0
ENDBLK
  5
C9
100
AcDbEntity
  8
notes
390
0
100
AcDbBlockEnd
  0
BLOCK
  5
CA
100
AcDbEntity
  8
notes
390
0
100
AcDbBlockBegin
  2
*D10
 70
               1
 10
0.0
 20
0.0
 30
0.0
  3
*D10
  1

  0
LINE
  5
CB
100
AcDbEntity
  8
0
370
              -2
390
0
  6
Continuous
 62
               0
100
AcDbLine
 10
-181.41202072393889
 20
-416.46436410525439
 30
0.0
 11
-181.41202072393889
 21
-643.79721231376129
 31
0.0
  0
LINE
  5
CC
100
AcDbEntity
  8
0
370
              -2
390
0
  6
Continuous
 62
               0
100
AcDbLine
 10
-521.45175122060346
 20
-568.79721231376107
 30
0.0
 11
-521.45175122060346
 21
-643.79721231376129
 31
0.0
  0
LINE
  5
CD
100
AcDbEntity
  8
0
370
              -2
390
0
  6
Continuous
 62
               0
100
AcDbLine
 10
-181.41202072393889
 20
-643.79721231376129
 30
0.0
 11
-521.45175122060346
 21
-643.79721231376129
 31
0.0
  0
CIRCLE
  5
CE
102
{ACAD_REACTORS
330
CF
102
}
100
AcDbEntity
  8
0
370
              -2
390
0
  6
Continuous
 62
               0
100
AcDbCircle
 10
-181.41202072393889
 20
-643.79721231376129
 30
0.0
 40
1.9998779296875
  0
HATCH
  5
CF
100
AcDbEntity
  8
0
370
              -2
390
0
  6
Continuous
 62
               0
100
AcDbHatch
 10
0.0
 20
0.0
 30
0.0
210
0.0
220
0.0
230
1.0
  2
SOLID
 70
               1
 71
               1
 91
        1
 92
        1
 93
        1
 72
               2
 10
-181.41202072393889
 20
-643.79721231376129
 40
1.9998779296875
 50
0.0
 51
360.0
 73
               0
 97
        1
330
CE
 75
               0
 76
               1
 98
        1
 10
0.0
 20
0.0
  0
CIRCLE
  5
D0
102
{ACAD_REACTORS
330
D1
102
}
100
AcDbEntity
  8
0
370
              -2
390
0
  6
Continuous
 62
               0
100
AcDbCircle
 10
-521.45175122060346
 20
-643.79721231376129
 30
0.0
 40
1.9998779296875
  0
HATCH
  5
D1
100
AcDbEntity
  8
0
370
              -2
390
0
  6
Continuous
 62
               0
100
AcDbHatch
 10
0.0
 20
0.0
 30
0.0
210
0.0
220
0.0
230
1.0
  2
SOLID
 70
               1
 71
               1
 91
        1
 92
        1
 93
        1
 72
               2
 10
-521.45175122060346
 20
-643.79721231376129
 40
1.9998779296875
 50
0.0
 51
360.0
 73
               0
 97
        1
330
D0
 75
               0
 76
               1
 98
        1
 10
0.0
 20
0.0
  0
MTEXT
  5
D2
100
AcDbEntity
  8
0
390
0
 62
               0
100
AcDbMText
 10
-375.24438765444677
 20
-609.91959512626136
 30
0.0
 40
24.432617187500004
 41
0.0
 71
               1
 72
               1
  1
340
  7
ＭＳ ゴシック
 73
               1
 44
0.7828267384257843
  0
POINT
  5
D3
100
AcDbEntity
  8
Defpoints
370
               0
390
0
 62
               0
100
AcDbPoint
 10
-521.45175122060346
 20
-543.79721231376107
 30
0.0
  0
POINT
  5
D4
100
AcDbEntity
  8
Defpoints
370
               0
390
0
 62
               0
100
AcDbPoint
 10
-181.41202072393889
 20
-391.46436410525439
 30
0.0
  0
POINT
  5
D5
100
AcDbEntity
  8
Defpoints
370
               0
390
0
 62
               0
100
AcDbPoint
 10
-181.41202072393889
 20
-643.79721231376129
 30
0.0
  0
ENDBLK
  5
D6
100
AcDbEntity
  8
notes
390
0
100
AcDbBlockEnd
  0
BLOCK
  5
D7
100
AcDbEntity
  8
notes
390
0
100
AcDbBlockBegin
  2
*D11
 70
               1
 10
0.0
 20
0.0
 30
0.0
  3
*D11
  1

  0
LINE
  5
D8
100
AcDbEntity
  8
0
370
              -2
390
0
  6
Continuous
 62
               0
100
AcDbLine
 10
393.67276652473231
 20
-383.7958509370701
 30
0.0
 11
95.107717636386184
 21
-383.7958509370701
 31
0.0
  0
LINE
  5
D9
100
AcDbEntity
  8
0
370
              -2
390
0
  6
Continuous
 62
               0
100
AcDbLine
 10
376.74637763584337
 20
-513.79997420095924
 30
0.0
 11
95.107717636386184
 21
-513.79997420095924
 31
0.0
  0
LINE
  5
DA
100
AcDbEntity
  8
0
370
              -2
390
0
  6
Continuous
 62
               0
100
AcDbLine
 10
95.107717636386184
 20
-383.7958509370701
 30
0.0
 11
95.107717636386184
 21
-513.79997420095924
 31
0.0
  0
CIRCLE
  5
DB
102
{ACAD_REACTORS
330
DC
102
}
100
AcDbEntity
  8
0
370
              -2
390
0
  6
Continuous
 62
               0
100
AcDbCircle
 10
95.107717636386184
 20
-383.7958509370701
 30
0.0
 40
1.9998779296875
  0
HATCH
  5
DC
100
AcDbEntity
  8
0
370
              -2
390
0
  6
Continuous
 62
               0
100
AcDbHatch
 10
0.0
 20
0.0
 30
0.0
210
0.0
220
0.0
230
1.0
  2
SOLID
 70
               1
 71
               1
 91
        1
 92
        1
 93
        1
 72
               2
 10
95.107717636386184
 20
-383.7958509370701
 40
1.9998779296875
 50
0.0
 51
360.0
 73
               0
 97
        1
330
DB
 75
               0
 76
               1
 98
        1
 10
0.0
 20
0.0
  0
CIRCLE
  5
DD
102
{ACAD_REACTORS
330
DE
102
}
100
AcDbEntity
  8
0
370
              -2
390
0
  6
Continuous
 62
               0
100
AcDbCircle
 10
95.107717636386184
 20
-513.79997420095924
 30
0.0
 40
1.9998779296875
  0
HATCH
  5
DE
100
AcDbEntity
  8
0
370
              -2
390
0
  6
Continuous
 62
               0
100
AcDbHatch
 10
0.0
 20
0.0
 30
0.0
210
0.0
220
0.0
230
1.0
  2
SOLID
 70
               1
 71
               1
 91
        1
 92
        1
 93
        1
 72
               2
 10
95.107717636386184
 20
-513.79997420095924
 40
1.9998779296875
 50
0.0
 51
360.0
 73
               0
 97
        1
330
DD
 75
               0
 76
               1
 98
        1
 10
0.0
 20
0.0
  0
MTEXT
  5
DF
100
AcDbEntity
  8
0
390
0
 62
               0
100
AcDbMText
 10
61.230100448886176
 20
-472.61041425119015
 30
0.0
 40
24.432617187500004
 41
0.0
 71
               1
 72
               1
  1
130
  7
ＭＳ ゴシック
 11
0.0
 21
1.0
 31
0.0
 73
               1
 44
0.7828267384257843
  0
POINT
  5
E0
100
AcDbEntity
  8
Defpoints
370
               0
390
0
 62
               0
100
AcDbPoint
 10
401.74637763584337
 20
-513.79997420095924
 30
0.0
  0
POINT
  5
E1
100
AcDbEntity
  8
Defpoints
370
               0
390
0
 62
               0
100
AcDbPoint
 10
418.67276652473231
 20
-383.7958509370701
 30
0.0
  0
POINT
  5
E2
100
AcDbEntity
  8
Defpoints
370
               0
390
0
 62
               0
100
AcDbPoint
 10
95.107717636386184
 20
-383.7958509370701
 30
0.0
  0
ENDBLK
  5
E3
100
AcDbEntity
  8
notes
390
0
100
AcDbBlockEnd
  0
BLOCK
  5
E4
100
AcDbEntity
  8
notes
390
0
100
AcDbBlockBegin
  2
*D12
 70
               1
 10
0.0
 20
0.0
 30
0.0
  3
*D12
  1

  0
LINE
  5
E5
100
AcDbEntity
  8
0
370
              -2
390
0
  6
Continuous
 62
               0
100
AcDbLine
 10
144.1970292038977
 20
602.43533723366897
 30
0.0
 11
144.1970292038977
 21
293.3062098446452
 31
0.0
  0
LINE
  5
E6
100
AcDbEntity
  8
0
370
              -2
390
0
  6
Continuous
 62
               0
100
AcDbLine
 10
704.19702920389773
 20
602.43533723366897
 30
0.0
 11
704.19702920389773
 21
293.3062098446452
 31
0.0
  0
LINE
  5
E7
100
AcDbEntity
  8
0
370
              -2
390
0
  6
Continuous
 62
               0
100
AcDbLine
 10
144.1970292038977
 20
293.3062098446452
 30
0.0
 11
704.19702920389773
 21
293.3062098446452
 31
0.0
  0
CIRCLE
  5
E8
102
{ACAD_REACTORS
330
E9
102
}
100
AcDbEntity
  8
0
370
              -2
390
0
  6
Continuous
 62
               0
100
AcDbCircle
 10
144.1970292038977
 20
293.3062098446452
 30
0.0
 40
1.9998779296875
  0
HATCH
  5
E9
100
AcDbEntity
  8
0
370
              -2
390
0
  6
Continuous
 62
               0
100
AcDbHatch
 10
0.0
 20
0.0
 30
0.0
210
0.0
220
0.0
230
1.0
  2
SOLID
 70
               1
 71
               1
 91
        1
 92
        1
 93
        1
 72
               2
 10
144.1970292038977
 20
293.3062098446452
 40
1.9998779296875
 50
0.0
 51
360.0
 73
               0
 97
        1
330
E8
 75
               0
 76
               1
 98
        1
 10
0.0
 20
0.0
  0
CIRCLE
  5
EA
102
{ACAD_REACTORS
330
EB
102
}
100
AcDbEntity
  8
0
370
              -2
390
0
  6
Continuous
 62
               0
100
AcDbCircle
 10
704.19702920389773
 20
293.3062098446452
 30
0.0
 40
1.9998779296875
  0
HATCH
  5
EB
100
AcDbEntity
  8
0
370
              -2
390
0
  6
Continuous
 62
               0
100
AcDbHatch
 10
0.0
 20
0.0
 30
0.0
210
0.0
220
0.0
230
1.0
  2
SOLID
 70
               1
 71
               1
 91
        1
 92
        1
 93
        1
 72
               2
 10
704.19702920389773
 20
293.3062098446452
 40
1.9998779296875
 50
0.0
 51
360.0
 73
               0
 97
        1
330
EA
 75
               0
 76
               1
 98
        1
 10
0.0
 20
0.0
  0
MTEXT
  5
EC
100
AcDbEntity
  8
0
390
0
 62
               0
100
AcDbMText
 10
400.38452752172213
 20
327.18382703214519
 30
0.0
 40
24.432617187500004
 41
0.0
 71
               1
 72
               1
  1
560
  7
ＭＳ ゴシック
 73
               1
 44
0.7828267384257843
  0
POINT
  5
ED
100
AcDbEntity
  8
Defpoints
370
               0
390
0
 62
               0
100
AcDbPoint
 10
704.19702920389773
 20
627.43533723366897
 30
0.0
  0
POINT
  5
EE
100
AcDbEntity
  8
Defpoints
370
               0
390
0
 62
               0
100
AcDbPoint
 10
144.1970292038977
 20
627.43533723366897
 30
0.0
  0
POINT
  5
EF
100
AcDbEntity
  8
Defpoints
370
               0
390
0
 62
               0
100
AcDbPoint
 10
144.1970292038977
 20
293.3062098446452
 30
0.0
  0
ENDBLK
  5
F0
100
AcDbEntity
  8
notes
390
0
100
AcDbBlockEnd
  0
BLOCK
  5
F1
100
AcDbEntity
  8
notes
390
0
100
AcDbBlockBegin
  2
*D13
 70
               1
 10
0.0
 20
0.0
 30
0.0
  3
*D13
  1

  0
LINE
  5
F2
100
AcDbEntity
  8
0
370
              -2
390
0
  6
Continuous
 62
               0
100
AcDbLine
 10
478.50017479743167
 20
857.88371487155791
 30
0.0
 11
802.08795313407609
 21
857.88371487155791
 31
0.0
  0
LINE
  5
F3
100
AcDbEntity
  8
0
370
              -2
390
0
  6
Continuous
 62
               0
100
AcDbLine
 10
478.50017479743167
 20
397.88371487155769
 30
0.0
 11
802.08795313407609
 21
397.88371487155769
 31
0.0
  0
LINE
  5
F4
100
AcDbEntity
  8
0
370
              -2
390
0
  6
Continuous
 62
               0
100
AcDbLine
 10
802.08795313407609
 20
857.88371487155791
 30
0.0
 11
802.08795313407609
 21
397.88371487155769
 31
0.0
  0
CIRCLE
  5
F5
102
{ACAD_REACTORS
330
F6
102
}
100
AcDbEntity
  8
0
370
              -2
390
0
  6
Continuous
 62
               0
100
AcDbCircle
 10
802.08795313407609
 20
857.88371487155791
 30
0.0
 40
1.9998779296875
  0
HATCH
  5
F6
100
AcDbEntity
  8
0
370
              -2
390
0
  6
Continuous
 62
               0
100
AcDbHatch
 10
0.0
 20
0.0
 30
0.0
210
0.0
220
0.0
230
1.0
  2
SOLID
 70
               1
 71
               1
 91
        1
 92
        1
 93
        1
 72
               2
 10
802.08795313407609
 20
857.88371487155791
 40
1.9998779296875
 50
0.0
 51
360.0
 73
               0
 97
        1
330
F5
 75
               0
 76
               1
 98
        1
 10
0.0
 20
0.0
  0
CIRCLE
  5
F7
102
{ACAD_REACTORS
330
F8
102
}
100
AcDbEntity
  8
0
370
              -2
390
0
  6
Continuous
 62
               0
100
AcDbCircle
 10
802.08795313407609
 20
397.88371487155769
 30
0.0
 40
1.9998779296875
  0
HATCH
  5
F8
100
AcDbEntity
  8
0
370
              -2
390
0
  6
Continuous
 62
               0
100
AcDbHatch
 10
0.0
 20
0.0
 30
0.0
210
0.0
220
0.0
230
1.0
  2
SOLID
 70
               1
 71
               1
 91
        1
 92
        1
 93
        1
 72
               2
 10
802.08795313407609
 20
397.88371487155769
 40
1.9998779296875
 50
0.0
 51
360.0
 73
               0
 97
        1
330
F7
 75
               0
 76
               1
 98
        1
 10
0.0
 20
0.0
  0
MTEXT
  5
F9
100
AcDbEntity
  8
0
390
0
 62
               0
100
AcDbMText
 10
768.21033594657604
 20
604.07121318938221
 30
0.0
 40
24.432617187500004
 41
0.0
 71
               1
 72
               1
  1
460
  7
ＭＳ ゴシック
 11
0.0
 21
1.0
 31
0.0
 73
               1
 44
0.7828267384257843
  0
POINT
  5
FA
100
AcDbEntity
  8
Defpoints
370
               0
390
0
 62
               0
100
AcDbPoint
 10
453.50017479743167
 20
397.88371487155769
 30
0.0
  0
POINT
  5
FB
100
AcDbEntity
  8
Defpoints
370
               0
390
0
 62
               0
100
AcDbPoint
 10
453.50017479743167
 20
857.88371487155791
 30
0.0
  0
POINT
  5
FC
100
AcDbEntity
  8
Defpoints
370
               0
390
0
 62
               0
100
AcDbPoint
 10
802.08795313407609
 20
857.88371487155791
 30
0.0
  0
ENDBLK
  5
FD
100
AcDbEntity
  8
notes
390
0
100
AcDbBlockEnd
  0
BLOCK
  5
FE
100
AcDbEntity
  8
notes
390
0
100
AcDbBlockBegin
  2
*D14
 70
               1
 10
0.0
 20
0.0
 30
0.0
  3
*D14
  1

  0
LINE
  5
FF
100
AcDbEntity
  8
0
370
              -2
390
0
  6
Continuous
 62
               0
100
AcDbLine
 10
-266.56396932378823
 20
547.85363350076966
 30
0.0
 11
-82.440671062704638
 21
547.85363350076966
 31
0.0
  0
LINE
  5
100
100
AcDbEntity
  8
0
370
              -2
390
0
  6
Continuous
 62
               0
100
AcDbLine
 10
-266.56396932378823
 20
627.85363350076966
 30
0.0
 11
-82.440671062704638
 21
627.85363350076966
 31
0.0
  0
LINE
  5
101
100
AcDbEntity
  8
0
370
              -2
390
0
  6
Continuous
 62
               0
100
AcDbLine
 10
-82.440671062704638
 20
547.85363350076966
 30
0.0
 11
-82.440671062704638
 21
627.85363350076966
 31
0.0
  0
CIRCLE
  5
102
102
{ACAD_REACTORS
330
103
102
}
100
AcDbEntity
  8
0
370
              -2
390
0
  6
Continuous
 62
               0
100
AcDbCircle
 10
-82.440671062704638
 20
547.85363350076966
 30
0.0
 40
1.9998779296875
  0
HATCH
  5
103
100
AcDbEntity
  8
0
370
              -2
390
0
  6
Continuous
 62
               0
100
AcDbHatch
 10
0.0
 20
0.0
 30
0.0
210
0.0
220
0.0
230
1.0
  2
SOLID
 70
               1
 71
               1
 91
        1
 92
        1
 93
        1
 72
               2
 10
-82.440671062704638
 20
547.85363350076966
 40
1.9998779296875
 50
0.0
 51
360.0
 73
               0
 97
        1
330
102
 75
               0
 76
               1
 98
        1
 10
0.0
 20
0.0
  0
CIRCLE
  5
104
102
{ACAD_REACTORS
330
105
102
}
100
AcDbEntity
  8
0
370
              -2
390
0
  6
Continuous
 62
               0
100
AcDbCircle
 10
-82.440671062704638
 20
627.85363350076966
 30
0.0
 40
1.9998779296875
  0
HATCH
  5
105
100
AcDbEntity
  8
0
370
              -2
390
0
  6
Continuous
 62
               0
100
AcDbHatch
 10
0.0
 20
0.0
 30
0.0
210
0.0
220
0.0
230
1.0
  2
SOLID
 70
               1
 71
               1
 91
        1
 92
        1
 93
        1
 72
               2
 10
-82.440671062704638
 20
627.85363350076966
 40
1.9998779296875
 50
0.0
 51
360.0
 73
               0
 97
        1
330
104
 75
               0
 76
               1
 98
        1
 10
0.0
 20
0.0
  0
MTEXT
  5
106
100
AcDbEntity
  8
0
390
0
 62
               0
100
AcDbMText
 10
-116.31828825020465
 20
571.97863350076966
 30
0.0
 40
24.432617187500004
 41
0.0
 71
               1
 72
               1
  1
80
  7
ＭＳ ゴシック
 11
0.0
 21
1.0
 31
0.0
 73
               1
 44
0.7828267384257843
  0
POINT
  5
107
100
AcDbEntity
  8
Defpoints
370
               0
390
0
 62
               0
100
AcDbPoint
 10
-291.56396932378823
 20
627.85363350076966
 30
0.0
  0
POINT
  5
108
100
AcDbEntity
  8
Defpoints
370
               0
390
0
 62
               0
100
AcDbPoint
 10
-291.56396932378823
 20
547.85363350076966
 30
0.0
  0
POINT
  5
109
100
AcDbEntity
  8
Defpoints
370
               0
390
0
 62
               0
100
AcDbPoint
 10
-82.440671062704638
 20
547.85363350076966
 30
0.0
  0
ENDBLK
  5
10A
100
AcDbEntity
  8
notes
390
0
100
AcDbBlockEnd
  0
BLOCK
  5
10B
100
AcDbEntity
  8
notes
390
0
100
AcDbBlockBegin
  2
*D15
 70
               1
 10
0.0
 20
0.0
 30
0.0
  3
*D15
  1

  0
LINE
  5
10C
100
AcDbEntity
  8
0
370
              -2
390
0
  6
Continuous
 62
               0
100
AcDbLine
 10
-266.56396932378823
 20
627.85363350076966
 30
0.0
 11
-82.440671062704638
 21
627.85363350076966
 31
0.0
  0
LINE
  5
10D
100
AcDbEntity
  8
0
370
              -2
390
0
  6
Continuous
 62
               0
100
AcDbLine
 10
-266.56396932378823
 20
707.85363350076955
 30
0.0
 11
-82.440671062704638
 21
707.85363350076955
 31
0.0
  0
LINE
  5
10E
100
AcDbEntity
  8
0
370
              -2
390
0
  6
Continuous
 62
               0
100
AcDbLine
 10
-82.440671062704638
 20
627.85363350076966
 30
0.0
 11
-82.440671062704638
 21
707.85363350076955
 31
0.0
  0
CIRCLE
  5
10F
102
{ACAD_REACTORS
330
110
102
}
100
AcDbEntity
  8
0
370
              -2
390
0
  6
Continuous
 62
               0
100
AcDbCircle
 10
-82.440671062704638
 20
627.85363350076966
 30
0.0
 40
1.9998779296875
  0
HATCH
  5
110
100
AcDbEntity
  8
0
370
              -2
390
0
  6
Continuous
 62
               0
100
AcDbHatch
 10
0.0
 20
0.0
 30
0.0
210
0.0
220
0.0
230
1.0
  2
SOLID
 70
               1
 71
               1
 91
        1
 92
        1
 93
        1
 72
               2
 10
-82.440671062704638
 20
627.85363350076966
 40
1.9998779296875
 50
0.0
 51
360.0
 73
               0
 97
        1
330
10F
 75
               0
 76
               1
 98
        1
 10
0.0
 20
0.0
  0
CIRCLE
  5
111
102
{ACAD_REACTORS
330
112
102
}
100
AcDbEntity
  8
0
370
              -2
390
0
  6
Continuous
 62
               0
100
AcDbCircle
 10
-82.440671062704638
 20
707.85363350076955
 30
0.0
 40
1.9998779296875
  0
HATCH
  5
112
100
AcDbEntity
  8
0
370
              -2
390
0
  6
Continuous
 62
               0
100
AcDbHatch
 10
0.0
 20
0.0
 30
0.0
210
0.0
220
0.0
230
1.0
  2
SOLID
 70
               1
 71
               1
 91
        1
 92
        1
 93
        1
 72
               2
 10
-82.440671062704638
 20
707.85363350076955
 40
1.9998779296875
 50
0.0
 51
360.0
 73
               0
 97
        1
330
111
 75
               0
 76
               1
 98
        1
 10
0.0
 20
0.0
  0
MTEXT
  5
113
100
AcDbEntity
  8
0
390
0
 62
               0
100
AcDbMText
 10
-116.31828825020465
 20
651.97863350076955
 30
0.0
 40
24.432617187500004
 41
0.0
 71
               1
 72
               1
  1
80
  7
ＭＳ ゴシック
 11
0.0
 21
1.0
 31
0.0
 73
               1
 44
0.7828267384257843
  0
POINT
  5
114
100
AcDbEntity
  8
Defpoints
370
               0
390
0
 62
               0
100
AcDbPoint
 10
-291.56396932378823
 20
707.85363350076955
 30
0.0
  0
POINT
  5
115
100
AcDbEntity
  8
Defpoints
370
               0
390
0
 62
               0
100
AcDbPoint
 10
-291.56396932378823
 20
627.85363350076966
 30
0.0
  0
POINT
  5
116
100
AcDbEntity
  8
Defpoints
370
               0
390
0
 62
               0
100
AcDbPoint
 10
-82.440671062704638
 20
627.85363350076966
 30
0.0
  0
ENDBLK
  5
117
100
AcDbEntity
  8
notes
390
0
100
AcDbBlockEnd
  0
BLOCK
  5
118
100
AcDbEntity
  8
notes
390
0
100
AcDbBlockBegin
  2
*D16
 70
               1
 10
0.0
 20
0.0
 30
0.0
  3
*D16
  1

  0
LINE
  5
119
100
AcDbEntity
  8
0
370
              -2
390
0
  6
Continuous
 62
               0
100
AcDbLine
 10
-181.56408461747174
 20
479.20289038237473
 30
0.0
 11
-181.56408461747174
 21
288.30620984464525
 31
0.0
  0
LINE
  5
11A
100
AcDbEntity
  8
0
370
              -2
390
0
  6
Continuous
 62
               0
100
AcDbLine
 10
-331.56408461747162
 20
365.59857870812402
 30
0.0
 11
-331.56408461747162
 21
288.30620984464525
 31
0.0
  0
LINE
  5
11B
100
AcDbEntity
  8
0
370
              -2
390
0
  6
Continuous
 62
               0
100
AcDbLine
 10
-181.56408461747174
 20
288.30620984464525
 30
0.0
 11
-331.56408461747162
 21
288.30620984464525
 31
0.0
  0
CIRCLE
  5
11C
102
{ACAD_REACTORS
330
11D
102
}
100
AcDbEntity
  8
0
370
              -2
390
0
  6
Continuous
 62
               0
100
AcDbCircle
 10
-181.56408461747174
 20
288.30620984464525
 30
0.0
 40
1.9998779296875
  0
HATCH
  5
11D
100
AcDbEntity
  8
0
370
              -2
390
0
  6
Continuous
 62
               0
100
AcDbHatch
 10
0.0
 20
0.0
 30
0.0
210
0.0
220
0.0
230
1.0
  2
SOLID
 70
               1
 71
               1
 91
        1
 92
        1
 93
        1
 72
               2
 10
-181.56408461747174
 20
288.30620984464525
 40
1.9998779296875
 50
0.0
 51
360.0
 73
               0
 97
        1
330
11C
 75
               0
 76
               1
 98
        1
 10
0.0
 20
0.0
  0
CIRCLE
  5
11E
102
{ACAD_REACTORS
330
11F
102
}
100
AcDbEntity
  8
0
370
              -2
390
0
  6
Continuous
 62
               0
100
AcDbCircle
 10
-331.56408461747162
 20
288.30620984464525
 30
0.0
 40
1.9998779296875
  0
HATCH
  5
11F
100
AcDbEntity
  8
0
370
              -2
390
0
  6
Continuous
 62
               0
100
AcDbHatch
 10
0.0
 20
0.0
 30
0.0
210
0.0
220
0.0
230
1.0
  2
SOLID
 70
               1
 71
               1
 91
        1
 92
        1
 93
        1
 72
               2
 10
-331.56408461747162
 20
288.30620984464525
 40
1.9998779296875
 50
0.0
 51
360.0
 73
               0
 97
        1
330
11E
 75
               0
 76
               1
 98
        1
 10
0.0
 20
0.0
  0
MTEXT
  5
120
100
AcDbEntity
  8
0
390
0
 62
               0
100
AcDbMText
 10
-280.37658629964722
 20
322.18382703214525
 30
0.0
 40
24.432617187500004
 41
0.0
 71
               1
 72
               1
  1
150
  7
ＭＳ ゴシック
 73
               1
 44
0.7828267384257843
  0
POINT
  5
121
100
AcDbEntity
  8
Defpoints
370
               0
390
0
 62
               0
100
AcDbPoint
 10
-331.56408461747162
 20
390.59857870812402
 30
0.0
  0
POINT
  5
122
100
AcDbEntity
  8
Defpoints
370
               0
390
0
 62
               0
100
AcDbPoint
 10
-181.56408461747174
 20
504.20289038237473
 30
0.0
  0
POINT
  5
123
100
AcDbEntity
  8
Defpoints
370
               0
390
0
 62
               0
100
AcDbPoint
 10
-181.56408461747174
 20
288.30620984464525
 30
0.0
  0
ENDBLK
  5
124
100
AcDbEntity
  8
notes
390
0
100
AcDbBlockEnd
  0
BLOCK
  5
125
100
AcDbEntity
  8
notes
390
0
100
AcDbBlockBegin
  2
*D17
 70
               1
 10
0.0
 20
0.0
 30
0.0
  3
*D17
  1

  0
LINE
  5
126
100
AcDbEntity
  8
0
370
              -2
390
0
  6
Continuous
 62
               0
100
AcDbLine
 10
421.73400729743196
 20
735.00765655985651
 30
0.0
 11
193.67276652473237
 21
735.00765655985651
 31
0.0
  0
LINE
  5
127
100
AcDbEntity
  8
0
370
              -2
390
0
  6
Continuous
 62
               0
100
AcDbLine
 10
421.73400729743196
 20
520.00765655985651
 30
0.0
 11
193.67276652473237
 21
520.00765655985651
 31
0.0
  0
LINE
  5
128
100
AcDbEntity
  8
0
370
              -2
390
0
  6
Continuous
 62
               0
100
AcDbLine
 10
193.67276652473237
 20
735.00765655985651
 30
0.0
 11
193.67276652473237
 21
520.00765655985651
 31
0.0
  0
CIRCLE
  5
129
102
{ACAD_REACTORS
330
12A
102
}
100
AcDbEntity
  8
0
370
              -2
390
0
  6
Continuous
 62
               0
100
AcDbCircle
 10
193.67276652473237
 20
735.00765655985651
 30
0.0
 40
1.9998779296875
  0
HATCH
  5
12A
100
AcDbEntity
  8
0
370
              -2
390
0
  6
Continuous
 62
               0
100
AcDbHatch
 10
0.0
 20
0.0
 30
0.0
210
0.0
220
0.0
230
1.0
  2
SOLID
 70
               1
 71
               1
 91
        1
 92
        1
 93
        1
 72
               2
 10
193.67276652473237
 20
735.00765655985651
 40
1.9998779296875
 50
0.0
 51
360.0
 73
               0
 97
        1
330
129
 75
               0
 76
               1
 98
        1
 10
0.0
 20
0.0
  0
CIRCLE
  5
12B
102
{ACAD_REACTORS
330
12C
102
}
100
AcDbEntity
  8
0
370
              -2
390
0
  6
Continuous
 62
               0
100
AcDbCircle
 10
193.67276652473237
 20
520.00765655985651
 30
0.0
 40
1.9998779296875
  0
HATCH
  5
12C
100
AcDbEntity
  8
0
370
              -2
390
0
  6
Continuous
 62
               0
100
AcDbHatch
 10
0.0
 20
0.0
 30
0.0
210
0.0
220
0.0
230
1.0
  2
SOLID
 70
               1
 71
               1
 91
        1
 92
        1
 93
        1
 72
               2
 10
193.67276652473237
 20
520.00765655985651
 40
1.9998779296875
 50
0.0
 51
360.0
 73
               0
 97
        1
330
12B
 75
               0
 76
               1
 98
        1
 10
0.0
 20
0.0
  0
MTEXT
  5
12D
100
AcDbEntity
  8
0
390
0
 62
               0
100
AcDbMText
 10
159.79514933723235
 20
603.69515487768103
 30
0.0
 40
24.432617187500004
 41
0.0
 71
               1
 72
               1
  1
215
  7
ＭＳ ゴシック
 11
0.0
 21
1.0
 31
0.0
 73
               1
 44
0.7828267384257843
  0
POINT
  5
12E
100
AcDbEntity
  8
Defpoints
370
               0
390
0
 62
               0
100
AcDbPoint
 10
446.73400729743196
 20
520.00765655985651
 30
0.0
  0
POINT
  5
12F
100
AcDbEntity
  8
Defpoints
370
               0
390
0
 62
               0
100
AcDbPoint
 10
446.73400729743196
 20
735.00765655985651
 30
0.0
  0
POINT
  5
130
100
AcDbEntity
  8
Defpoints
370
               0
390
0
 62
               0
100
AcDbPoint
 10
193.67276652473237
 20
735.00765655985651
 30
0.0
  0
ENDBLK
  5
131
100
AcDbEntity
  8
notes
390
0
100
AcDbBlockEnd
  0
BLOCK
  5
132
100
AcDbEntity
  8
notes
390
0
100
AcDbBlockBegin
  2
*D18
 70
               1
 10
0.0
 20
0.0
 30
0.0
  3
*D18
  1

  0
LINE
  5
133
100
AcDbEntity
  8
0
370
              -2
390
0
  6
Continuous
 62
               0
100
AcDbLine
 10
-331.56408461747162
 20
365.59857870812402
 30
0.0
 11
-331.56408461747162
 21
288.30620984464508
 31
0.0
  0
LINE
  5
134
100
AcDbEntity
  8
0
370
              -2
390
0
  6
Continuous
 62
               0
100
AcDbLine
 10
-711.56408461747185
 20
392.81481354560594
 30
0.0
 11
-711.56408461747185
 21
288.30620984464508
 31
0.0
  0
LINE
  5
135
100
AcDbEntity
  8
0
370
              -2
390
0
  6
Continuous
 62
               0
100
AcDbLine
 10
-331.56408461747162
 20
288.30620984464508
 30
0.0
 11
-711.56408461747185
 21
288.30620984464508
 31
0.0
  0
CIRCLE
  5
136
102
{ACAD_REACTORS
330
137
102
}
100
AcDbEntity
  8
0
370
              -2
390
0
  6
Continuous
 62
               0
100
AcDbCircle
 10
-331.56408461747162
 20
288.30620984464508
 30
0.0
 40
1.9998779296875
  0
HATCH
  5
137
100
AcDbEntity
  8
0
370
              -2
390
0
  6
Continuous
 62
               0
100
AcDbHatch
 10
0.0
 20
0.0
 30
0.0
210
0.0
220
0.0
230
1.0
  2
SOLID
 70
               1
 71
               1
 91
        1
 92
        1
 93
        1
 72
               2
 10
-331.56408461747162
 20
288.30620984464508
 40
1.9998779296875
 50
0.0
 51
360.0
 73
               0
 97
        1
330
136
 75
               0
 76
               1
 98
        1
 10
0.0
 20
0.0
  0
CIRCLE
  5
138
102
{ACAD_REACTORS
330
139
102
}
100
AcDbEntity
  8
0
370
              -2
390
0
  6
Continuous
 62
               0
100
AcDbCircle
 10
-711.56408461747185
 20
288.30620984464508
 30
0.0
 40
1.9998779296875
  0
HATCH
  5
139
100
AcDbEntity
  8
0
370
              -2
390
0
  6
Continuous
 62
               0
100
AcDbHatch
 10
0.0
 20
0.0
 30
0.0
210
0.0
220
0.0
230
1.0
  2
SOLID
 70
               1
 71
               1
 91
        1
 92
        1
 93
        1
 72
               2
 10
-711.56408461747185
 20
288.30620984464508
 40
1.9998779296875
 50
0.0
 51
360.0
 73
               0
 97
        1
330
138
 75
               0
 76
               1
 98
        1
 10
0.0
 20
0.0
  0
MTEXT
  5
13A
100
AcDbEntity
  8
0
390
0
 62
               0
100
AcDbMText
 10
-545.37658629964722
 20
322.18382703214508
 30
0.0
 40
24.432617187500004
 41
0.0
 71
               1
 72
               1
  1
380
  7
ＭＳ ゴシック
 73
               1
 44
0.7828267384257843
  0
POINT
  5
13B
100
AcDbEntity
  8
Defpoints
370
               0
390
0
 62
               0
100
AcDbPoint
 10
-711.56408461747185
 20
417.81481354560594
 30
0.0
  0
POINT
  5
13C
100
AcDbEntity
  8
Defpoints
370
               0
390
0
 62
               0
100
AcDbPoint
 10
-331.56408461747162
 20
390.59857870812402
 30
0.0
  0
POINT
  5
13D
100
AcDbEntity
  8
Defpoints
370
               0
390
0
 62
               0
100
AcDbPoint
 10
-331.56408461747162
 20
288.30620984464508
 30
0.0
  0
ENDBLK
  5
13E
100
AcDbEntity
  8
notes
390
0
100
AcDbBlockEnd
  0
BLOCK
  5
13F
100
AcDbEntity
  8
notes
390
0
100
AcDbBlockBegin
  2
*D19
 70
               1
 10
0.0
 20
0.0
 30
0.0
  3
*D19
  1

  0
LINE
  5
140
100
AcDbEntity
  8
0
370
              -2
390
0
  6
Continuous
 62
               0
100
AcDbLine
 10
455.12293940881432
 20
515.2941630699188
 30
0.0
 11
562.0
 21
208.0
 31
0.0
  0
CIRCLE
  5
141
102
{ACAD_REACTORS
330
142
102
}
100
AcDbEntity
  8
0
370
              -2
390
0
  6
Continuous
 62
               0
100
AcDbCircle
 10
455.12293940881432
 20
515.2941630699188
 30
0.0
 40
1.9998779296875
  0
HATCH
  5
142
100
AcDbEntity
  8
0
370
              -2
390
0
  6
Continuous
 62
               0
100
AcDbHatch
 10
0.0
 20
0.0
 30
0.0
210
0.0
220
0.0
230
1.0
  2
SOLID
 70
               1
 71
               1
 91
        1
 92
        1
 93
        1
 72
               2
 10
455.12293940881432
 20
515.2941630699188
 40
1.9998779296875
 50
0.0
 51
360.0
 73
               0
 97
        1
330
141
 75
               0
 76
               1
 98
        1
 10
0.0
 20
0.0
  0
LINE
  5
143
100
AcDbEntity
  8
0
370
              -2
390
0
  6
Continuous
 62
               0
100
AcDbLine
 10
562.0
 20
208.0
 30
0.0
 11
851.875
 21
208.0
 31
0.0
  0
MTEXT
  5
144
100
AcDbEntity
  8
0
390
0
 62
               0
100
AcDbMText
 10
582.0
 20
241.87761718749999
 30
0.0
 40
24.432617187500004
 41
0.0
 71
               1
 72
               1
  1
固定金具用穴2ヶ所
  7
ＭＳ ゴシック
 73
               1
 44
0.7828267384257843
  0
POINT
  5
145
100
AcDbEntity
  8
Defpoints
370
               0
390
0
 62
               0
100
AcDbPoint
 10
451.83794882922814
 20
524.73920604979412
 30
0.0
  0
POINT
  5
146
100
AcDbEntity
  8
Defpoints
370
               0
390
0
 62
               0
100
AcDbPoint
 10
455.12293940881432
 20
515.2941630699188
 30
0.0
  0
ENDBLK
  5
147
100
AcDbEntity
  8
notes
390
0
100
AcDbBlockEnd
  0
BLOCK
  5
148
100
AcDbEntity
  8
notes
390
0
100
AcDbBlockBegin
  2
*D20
 70
               1
 10
0.0
 20
0.0
 30
0.0
  3
*D20
  1

  0
LINE
  5
149
100
AcDbEntity
  8
0
370
              -2
390
0
  6
Continuous
 62
               0
100
AcDbLine
 10
662.0
 20
756.0
 30
0.0
 11
662.0
 21
898.0
 31
0.0
  0
LINE
  5
14A
100
AcDbEntity
  8
0
370
              -2
390
0
  6
Continuous
 62
               0
100
AcDbLine
 10
712.0
 20
756.0
 30
0.0
 11
712.0
 21
898.0
 31
0.0
  0
LINE
  5
14B
100
AcDbEntity
  8
0
370
              -2
390
0
  6
Continuous
 62
               0
100
AcDbLine
 10
662.0
 20
898.0
 30
0.0
 11
712.0
 21
898.0
 31
0.0
  0
CIRCLE
  5
14C
102
{ACAD_REACTORS
330
14D
102
}
100
AcDbEntity
  8
0
370
              -2
390
0
  6
Continuous
 62
               0
100
AcDbCircle
 10
662.0
 20
898.0
 30
0.0
 40
1.9998779296875
  0
HATCH
  5
14D
100
AcDbEntity
  8
0
370
              -2
390
0
  6
Continuous
 62
               0
100
AcDbHatch
 10
0.0
 20
0.0
 30
0.0
210
0.0
220
0.0
230
1.0
  2
SOLID
 70
               1
 71
               1
 91
        1
 92
        1
 93
        1
 72
               2
 10
662.0
 20
898.0
 40
1.9998779296875
 50
0.0
 51
360.0
 73
               0
 97
        1
330
14C
 75
               0
 76
               1
 98
        1
 10
0.0
 20
0.0
  0
CIRCLE
  5
14E
102
{ACAD_REACTORS
330
14F
102
}
100
AcDbEntity
  8
0
370
              -2
390
0
  6
Continuous
 62
               0
100
AcDbCircle
 10
712.0
 20
898.0
 30
0.0
 40
1.9998779296875
  0
HATCH
  5
14F
100
AcDbEntity
  8
0
370
              -2
390
0
  6
Continuous
 62
               0
100
AcDbHatch
 10
0.0
 20
0.0
 30
0.0
210
0.0
220
0.0
230
1.0
  2
SOLID
 70
               1
 71
               1
 91
        1
 92
        1
 93
        1
 72
               2
 10
712.0
 20
898.0
 40
1.9998779296875
 50
0.0
 51
360.0
 73
               0
 97
        1
330
14E
 75
               0
 76
               1
 98
        1
 10
0.0
 20
0.0
  0
MTEXT
  5
150
100
AcDbEntity
  8
0
390
0
 62
               0
100
AcDbMText
 10
676.92499999999961
 20
931.87761718749994
 30
0.0
 40
24.432617187500004
 41
0.0
 71
               1
 72
               1
  1
50
  7
ＭＳ ゴシック
 73
               1
 44
0.7828267384257843
  0
POINT
  5
151
100
AcDbEntity
  8
Defpoints
370
               0
390
0
 62
               0
100
AcDbPoint
 10
712.0
 20
731.0
 30
0.0
  0
POINT
  5
152
100
AcDbEntity
  8
Defpoints
370
               0
390
0
 62
               0
100
AcDbPoint
 10
662.0
 20
731.0
 30
0.0
  0
POINT
  5
153
100
AcDbEntity
  8
Defpoints
370
               0
390
0
 62
               0
100
AcDbPoint
 10
662.0
 20
898.0
 30
0.0
  0
ENDBLK
  5
154
100
AcDbEntity
  8
notes
390
0
100
AcDbBlockEnd
  0
BLOCK
  5
155
100
AcDbEntity
  8
notes
390
0
100
AcDbBlockBegin
  2
*D21
 70
               1
 10
0.0
 20
0.0
 30
0.0
  3
*D21
  1

  0
LINE
  5
156
100
AcDbEntity
  8
0
370
              -2
390
0
  6
Continuous
 62
               0
100
AcDbLine
 10
332.0
 20
760.00765655985651
 30
0.0
 11
332.0
 21
898.0
 31
0.0
  0
LINE
  5
157
100
AcDbEntity
  8
0
370
              -2
390
0
  6
Continuous
 62
               0
100
AcDbLine
 10
662.0
 20
760.00765655985651
 30
0.0
 11
662.0
 21
898.0
 31
0.0
  0
LINE
  5
158
100
AcDbEntity
  8
0
370
              -2
390
0
  6
Continuous
 62
               0
100
AcDbLine
 10
332.0
 20
898.0
 30
0.0
 11
662.0
 21
898.0
 31
0.0
  0
CIRCLE
  5
159
102
{ACAD_REACTORS
330
15A
102
}
100
AcDbEntity
  8
0
370
              -2
390
0
  6
Continuous
 62
               0
100
AcDbCircle
 10
332.0
 20
898.0
 30
0.0
 40
1.9998779296875
  0
HATCH
  5
15A
100
AcDbEntity
  8
0
370
              -2
390
0
  6
Continuous
 62
               0
100
AcDbHatch
 10
0.0
 20
0.0
 30
0.0
210
0.0
220
0.0
230
1.0
  2
SOLID
 70
               1
 71
               1
 91
        1
 92
        1
 93
        1
 72
               2
 10
332.0
 20
898.0
 40
1.9998779296875
 50
0.0
 51
360.0
 73
               0
 97
        1
330
159
 75
               0
 76
               1
 98
        1
 10
0.0
 20
0.0
  0
CIRCLE
  5
15B
102
{ACAD_REACTORS
330
15C
102
}
100
AcDbEntity
  8
0
370
              -2
390
0
  6
Continuous
 62
               0
100
AcDbCircle
 10
662.0
 20
898.0
 30
0.0
 40
1.9998779296875
  0
HATCH
  5
15C
100
AcDbEntity
  8
0
370
              -2
390
0
  6
Continuous
 62
               0
100
AcDbHatch
 10
0.0
 20
0.0
 30
0.0
210
0.0
220
0.0
230
1.0
  2
SOLID
 70
               1
 71
               1
 91
        1
 92
        1
 93
        1
 72
               2
 10
662.0
 20
898.0
 40
1.9998779296875
 50
0.0
 51
360.0
 73
               0
 97
        1
330
15B
 75
               0
 76
               1
 98
        1
 10
0.0
 20
0.0
  0
MTEXT
  5
15D
100
AcDbEntity
  8
0
390
0
 62
               0
100
AcDbMText
 10
473.18749831782441
 20
931.87761718749994
 30
0.0
 40
24.432617187500004
 41
0.0
 71
               1
 72
               1
  1
330
  7
ＭＳ ゴシック
 73
               1
 44
0.7828267384257843
  0
POINT
  5
15E
100
AcDbEntity
  8
Defpoints
370
               0
390
0
 62
               0
100
AcDbPoint
 10
662.0
 20
735.00765655985651
 30
0.0
  0
POINT
  5
15F
100
AcDbEntity
  8
Defpoints
370
               0
390
0
 62
               0
100
AcDbPoint
 10
332.0
 20
735.00765655985651
 30
0.0
  0
POINT
  5
160
100
AcDbEntity
  8
Defpoints
370
               0
390
0
 62
               0
100
AcDbPoint
 10
332.0
 20
898.0
 30
0.0
  0
ENDBLK
  5
161
100
AcDbEntity
  8
notes
390
0
100
AcDbBlockEnd
  0
BLOCK
  5
162
100
AcDbEntity
  8
notes
390
0
100
AcDbBlockBegin
  2
*D22
 70
               1
 10
0.0
 20
0.0
 30
0.0
  3
*D22
  1

  0
LINE
  5
163
100
AcDbEntity
  8
0
370
              -2
390
0
  6
Continuous
 62
               0
100
AcDbLine
 10
307.0
 20
748.82328308352783
 30
0.0
 11
98.875
 21
748.82328308352783
 31
0.0
  0
LINE
  5
164
100
AcDbEntity
  8
0
370
              -2
390
0
  6
Continuous
 62
               0
100
AcDbLine
 10
307.0
 20
498.82328308352788
 30
0.0
 11
98.875
 21
498.82328308352788
 31
0.0
  0
LINE
  5
165
100
AcDbEntity
  8
0
370
              -2
390
0
  6
Continuous
 62
               0
100
AcDbLine
 10
98.875
 20
748.82328308352783
 30
0.0
 11
98.875
 21
498.82328308352788
 31
0.0
  0
CIRCLE
  5
166
102
{ACAD_REACTORS
330
167
102
}
100
AcDbEntity
  8
0
370
              -2
390
0
  6
Continuous
 62
               0
100
AcDbCircle
 10
98.875
 20
748.82328308352783
 30
0.0
 40
1.9998779296875
  0
HATCH
  5
167
100
AcDbEntity
  8
0
370
              -2
390
0
  6
Continuous
 62
               0
100
AcDbHatch
 10
0.0
 20
0.0
 30
0.0
210
0.0
220
0.0
230
1.0
  2
SOLID
 70
               1
 71
               1
 91
        1
 92
        1
 93
        1
 72
               2
 10
98.875
 20
748.82328308352783
 40
1.9998779296875
 50
0.0
 51
360.0
 73
               0
 97
        1
330
166
 75
               0
 76
               1
 98
        1
 10
0.0
 20
0.0
  0
CIRCLE
  5
168
102
{ACAD_REACTORS
330
169
102
}
100
AcDbEntity
  8
0
370
              -2
390
0
  6
Continuous
 62
               0
100
AcDbCircle
 10
98.875
 20
498.82328308352788
 30
0.0
 40
1.9998779296875
  0
HATCH
  5
169
100
AcDbEntity
  8
0
370
              -2
390
0
  6
Continuous
 62
               0
100
AcDbHatch
 10
0.0
 20
0.0
 30
0.0
210
0.0
220
0.0
230
1.0
  2
SOLID
 70
               1
 71
               1
 91
        1
 92
        1
 93
        1
 72
               2
 10
98.875
 20
498.82328308352788
 40
1.9998779296875
 50
0.0
 51
360.0
 73
               0
 97
        1
330
168
 75
               0
 76
               1
 98
        1
 10
0.0
 20
0.0
  0
MTEXT
  5
16A
100
AcDbEntity
  8
0
390
0
 62
               0
100
AcDbMText
 10
64.997382812499993
 20
596.18749831782452
 30
0.0
 40
24.432617187500004
 41
0.0
 71
               1
 72
               1
  1
250
  7
ＭＳ ゴシック
 11
0.0
 21
1.0
 31
0.0
 73
               1
 44
0.7828267384257843
  0
POINT
  5
16B
100
AcDbEntity
  8
Defpoints
370
               0
390
0
 62
               0
100
AcDbPoint
 10
332.0
 20
498.82328308352788
 30
0.0
  0
POINT
  5
16C
100
AcDbEntity
  8
Defpoints
370
               0
390
0
 62
               0
100
AcDbPoint
 10
332.0
 20
748.82328308352783
 30
0.0
  0
POINT
  5
16D
100
AcDbEntity
  8
Defpoints
370
               0
390
0
 62
               0
100
AcDbPoint
 10
98.875
 20
748.82328308352783
 30
0.0
  0
ENDBLK
  5
16E
100
AcDbEntity
  8
notes
390
0
100
AcDbBlockEnd
  0
BLOCK
  5
16F
100
AcDbEntity
  8
notes
390
0
100
AcDbBlockBegin
  2
*D23
 70
               1
 10
0.0
 20
0.0
 30
0.0
  3
*D23
  1

  0
LINE
  5
170
100
AcDbEntity
  8
0
370
              -2
390
0
  6
Continuous
 62
               0
100
AcDbLine
 10
-477.51666049839537
 20
-383.7959536332055
 30
0.0
 11
-500.0
 21
-383.7959536332055
 31
0.0
  0
LINE
  5
171
100
AcDbEntity
  8
0
370
              -2
390
0
  6
Continuous
 62
               0
100
AcDbLine
 10
-477.51666049839537
 20
-498.7959536332055
 30
0.0
 11
-500.0
 21
-498.7959536332055
 31
0.0
  0
LINE
  5
172
100
AcDbEntity
  8
0
370
              -2
390
0
  6
Continuous
 62
               0
100
AcDbLine
 10
-500.0
 20
-383.7959536332055
 30
0.0
 11
-500.0
 21
-227.9209536332055
 31
0.0
  0
LINE
  5
173
100
AcDbEntity
  8
0
370
              -2
390
0
  6
Continuous
 62
               0
100
AcDbLine
 10
-500.0
 20
-383.7959536332055
 30
0.0
 11
-500.0
 21
-498.7959536332055
 31
0.0
  0
CIRCLE
  5
174
102
{ACAD_REACTORS
330
175
102
}
100
AcDbEntity
  8
0
370
              -2
390
0
  6
Continuous
 62
               0
100
AcDbCircle
 10
-500.0
 20
-383.7959536332055
 30
0.0
 40
1.9998779296875
  0
HATCH
  5
175
100
AcDbEntity
  8
0
370
              -2
390
0
  6
Continuous
 62
               0
100
AcDbHatch
 10
0.0
 20
0.0
 30
0.0
210
0.0
220
0.0
230
1.0
  2
SOLID
 70
               1
 71
               1
 91
        1
 92
        1
 93
        1
 72
               2
 10
-500.0
 20
-383.7959536332055
 40
1.9998779296875
 50
0.0
 51
360.0
 73
               0
 97
        1
330
174
 75
               0
 76
               1
 98
        1
 10
0.0
 20
0.0
  0
CIRCLE
  5
176
102
{ACAD_REACTORS
330
177
102
}
100
AcDbEntity
  8
0
370
              -2
390
0
  6
Continuous
 62
               0
100
AcDbCircle
 10
-500.0
 20
-498.7959536332055
 30
0.0
 40
1.9998779296875
  0
HATCH
  5
177
100
AcDbEntity
  8
0
370
              -2
390
0
  6
Continuous
 62
               0
100
AcDbHatch
 10
0.0
 20
0.0
 30
0.0
210
0.0
220
0.0
230
1.0
  2
SOLID
 70
               1
 71
               1
 91
        1
 92
        1
 93
        1
 72
               2
 10
-500.0
 20
-498.7959536332055
 40
1.9998779296875
 50
0.0
 51
360.0
 73
               0
 97
        1
330
176
 75
               0
 76
               1
 98
        1
 10
0.0
 20
0.0
  0
MTEXT
  5
178
100
AcDbEntity
  8
0
390
0
 62
               0
100
AcDbMText
 10
-533.87761718750005
 20
-370.7959536332055
 30
0.0
 40
24.432617187500004
 41
0.0
 71
               1
 72
               1
  1
115(深さ)
  7
ＭＳ ゴシック
 11
0.0
 21
1.0
 31
0.0
 73
               1
 44
0.7828267384257843
  0
POINT
  5
179
100
AcDbEntity
  8
Defpoints
370
               0
390
0
 62
               0
100
AcDbPoint
 10
-502.51666049839537
 20
-498.7959536332055
 30
0.0
  0
POINT
  5
17A
100
AcDbEntity
  8
Defpoints
370
               0
390
0
 62
               0
100
AcDbPoint
 10
-502.51666049839537
 20
-383.7959536332055
 30
0.0
  0
POINT
  5
17B
100
AcDbEntity
  8
Defpoints
370
               0
390
0
 62
               0
100
AcDbPoint
 10
-500.0
 20
-383.7959536332055
 30
0.0
  0
ENDBLK
  5
17C
100
AcDbEntity
  8
notes
390
0
100
AcDbBlockEnd
  0
BLOCK
  5
17D
100
AcDbEntity
  8
GAR70-0206
390
0
100
AcDbBlockBegin
  2
グループ-1
 70
               0
 10
0.0
 20
0.0
 30
0.0
  3
グループ-1
  1

  0
SPLINE
  5
17E
100
AcDbEntity
  8
0
370
              15
390
0
  6
Continuous
 62
               7
100
AcDbSpline
210
0.0
220
0.0
230
1.0
 70
              12
 71
               2
 72
             226
 73
             223
 74
               0
 42
0.000001
 43
0.000001
 40
0.0
 40
0.0
 40
0.0
 40
1.0
 40
1.0
 40
2.0
 40
2.0
 40
3.0
 40
3.0
 40
4.0
 40
4.0
 40
5.0
 40
5.0
 40
6.0
 40
6.0
 40
7.0
 40
7.0
 40
8.0
 40
8.0
 40
9.0
 40
9.0
 40
10.0
 40
10.0
 40
11.0
 40
11.0
 40
12.0
 40
12.0
 40
13.0
 40
13.0
 40
14.0
 40
14.0
 40
15.0
 40
15.0
 40
16.0
 40
16.0
 40
17.0
 40
17.0
 40
18.0
 40
18.0
 40
19.0
 40
19.0
 40
20.0
 40
20.0
 40
21.0
 40
21.0
 40
22.0
 40
22.0
 40
23.0
 40
23.0
 40
24.0
 40
24.0
 40
25.0
 40
25.0
 40
26.0
 40
26.0
 40
27.0
 40
27.0
 40
28.0
 40
28.0
 40
29.0
 40
29.0
 40
30.0
 40
30.0
 40
31.0
 40
31.0
 40
32.0
 40
32.0
 40
33.0
 40
33.0
 40
34.0
 40
34.0
 40
35.0
 40
35.0
 40
36.0
 40
36.0
 40
37.0
 40
37.0
 40
38.0
 40
38.0
 40
39.0
 40
39.0
 40
40.0
 40
40.0
 40
41.0
 40
41.0
 40
42.0
 40
42.0
 40
43.0
 40
43.0
 40
44.0
 40
44.0
 40
45.0
 40
45.0
 40
46.0
 40
46.0
 40
47.0
 40
47.0
 40
48.0
 40
48.0
 40
49.0
 40
49.0
 40
50.0
 40
50.0
 40
51.0
 40
51.0
 40
52.0
 40
52.0
 40
53.0
 40
53.0
 40
54.0
 40
54.0
 40
55.0
 40
55.0
 40
56.0
 40
56.0
 40
57.0
 40
57.0
 40
58.0
 40
58.0
 40
59.0
 40
59.0
 40
60.0
 40
60.0
 40
61.0
 40
61.0
 40
62.0
 40
62.0
 40
63.0
 40
63.0
 40
64.0
 40
64.0
 40
65.0
 40
65.0
 40
66.0
 40
66.0
 40
67.0
 40
67.0
 40
68.0
 40
68.0
 40
69.0
 40
69.0
 40
70.0
 40
70.0
 40
71.0
 40
71.0
 40
72.0
 40
72.0
 40
73.0
 40
73.0
 40
74.0
 40
74.0
 40
75.0
 40
75.0
 40
76.0
 40
76.0
 40
77.0
 40
77.0
 40
78.0
 40
78.0
 40
79.0
 40
79.0
 40
80.0
 40
80.0
 40
81.0
 40
81.0
 40
82.0
 40
82.0
 40
83.0
 40
83.0
 40
84.0
 40
84.0
 40
85.0
 40
85.0
 40
86.0
 40
86.0
 40
87.0
 40
87.0
 40
88.0
 40
88.0
 40
89.0
 40
89.0
 40
90.0
 40
90.0
 40
91.0
 40
91.0
 40
92.0
 40
92.0
 40
93.0
 40
93.0
 40
94.0
 40
94.0
 40
95.0
 40
95.0
 40
96.0
 40
96.0
 40
97.0
 40
97.0
 40
98.0
 40
98.0
 40
99.0
 40
99.0
 40
100.0
 40
100.0
 40
101.0
 40
101.0
 40
102.0
 40
102.0
 40
103.0
 40
103.0
 40
104.0
 40
104.0
 40
105.0
 40
105.0
 40
106.0
 40
106.0
 40
107.0
 40
107.0
 40
108.0
 40
108.0
 40
109.0
 40
109.0
 40
110.0
 40
110.0
 40
111.0
 40
111.0
 40
111.0
 10
-641.70434066292137
 20
-1241.3640152592934
 30
0.0
 41
1.0
 10
-641.737113870543
 20
-1241.4464671049341
 30
0.0
 41
1.0
 10
-641.76988707816474
 20
-1241.5289189505747
 30
0.0
 41
1.0
 10
-641.79659907068094
 20
-1241.596121804477
 30
0.0
 41
0.5664108240814709
 10
-641.72428708920302
 20
-1241.5969770538773
 30
0.0
 41
1.0
 10
-641.65197510772475
 20
-1241.5978323032771
 30
0.0
 41
0.8840880471162903
 10
-641.61195400786278
 20
-1241.6580657298996
 30
0.0
 41
1.0
 10
-641.57482942254546
 20
-1241.7139397811702
 30
0.0
 41
1.0
 10
-641.53770483722826
 20
-1241.7698138324406
 30
0.0
 41
1.0
 10
-641.42343456673166
 20
-1241.9417953616041
 30
0.0
 41
0.9727618268483838
 10
-641.24388357050054
 20
-1242.0437599674488
 30
0.0
 41
1.0
 10
-641.18647751055573
 20
-1242.0763600999917
 30
0.0
 41
1.0
 10
-641.12907145061104
 20
-1242.1089602325346
 30
0.0
 41
1.0
 10
-641.01187520817928
 20
-1242.1755144088793
 30
0.0
 41
0.9737128800373045
 10
-640.87731773655605
 20
-1242.1831762924196
 30
0.0
 41
1.0
 10
-640.82531780243607
 20
-1242.186137238657
 30
0.0
 41
1.0
 10
-640.77331786831598
 20
-1242.1890981848946
 30
0.0
 41
1.0
 10
-640.74276026493192
 20
-1242.1908381759599
 30
0.0
 41
0.9995956115279309
 10
-640.71215316292137
 20
-1242.1908381759599
 30
0.0
 41
1.0
 10
-438.47953597542141
 20
-1242.1908381759599
 30
0.0
 41
1.0
 10
-236.24691878792143
 20
-1242.1908381759599
 30
0.0
 41
1.0
 10
-236.21689075631195
 20
-1242.1908381759599
 30
0.0
 41
0.9995619260008659
 10
-236.18691533117689
 20
-1242.1890615020156
 30
0.0
 41
1.0
 10
-236.14987160102112
 20
-1242.1868658824415
 30
0.0
 41
1.0
 10
-236.11282787086537
 20
-1242.1846702628673
 30
0.0
 41
1.0
 10
-236.00876498542024
 20
-1242.1785023497748
 30
0.0
 41
0.9850044406943189
 10
-235.91299359682884
 20
-1242.13733235577
 30
0.0
 41
1.0
 10
-235.86590674523387
 20
-1242.1170907635119
 30
0.0
 41
1.0
 10
-235.81881989363893
 20
-1242.0968491712538
 30
0.0
 41
1.0
 10
-235.62887480185711
 20
-1242.015195992733
 30
0.0
 41
0.9742990396987903
 10
-235.4940465647478
 20
-1241.8584550410565
 30
0.0
 41
1.0
 10
-235.45991764125054
 20
-1241.8187793762006
 30
0.0
 41
1.0
 10
-235.42578871775328
 20
-1241.7791037113448
 30
0.0
 41
1.0
 10
-235.31924424529441
 20
-1241.6552432918429
 30
0.0
 41
0.9697592685494429
 10
-235.28402409048832
 20
-1241.4957043661032
 30
0.0
 41
1.0
 10
-235.24880393567787
 20
-1241.3361654403443
 30
0.0
 41
0.9999963846724943
 10
-235.21272629758099
 20
-1241.1768182340493
 30
0.0
 41
1.0
 10
-235.20663201343203
 20
-1241.1499010852356
 30
0.0
 41
1.0
 10
-235.20053772928307
 20
-1241.1229839364219
 30
0.0
 41
1.0
 10
-235.15227152288389
 20
-1240.9098024324803
 30
0.0
 41
0.9845557048275955
 10
-235.03347281319637
 20
-1240.7263280558509
 30
0.0
 41
1.0
 10
-234.96641035514904
 20
-1240.6227558645548
 30
0.0
 41
1.0
 10
-234.89934789710168
 20
-1240.5191836732588
 30
0.0
 41
1.0
 10
-234.7150905223663
 20
-1240.2346140255086
 30
0.0
 41
0.9751324136726223
 10
-234.42593567577279
 20
-1240.0576390576271
 30
0.0
 41
1.0
 10
-234.37915473186803
 20
-1240.0290071458935
 30
0.0
 41
1.0
 10
-234.33237378796329
 20
-1240.0003752341599
 30
0.0
 41
1.0
 10
-234.13678082917926
 20
-1239.8806640897456
 30
0.0
 41
0.993526367310876
 10
-233.91921354862831
 20
-1239.8081944957312
 30
0.0
 41
1.0
 10
-233.88582913127135
 20
-1239.7970744634995
 30
0.0
 41
1.0
 10
-233.85244471391437
 20
-1239.785954431268
 30
0.0
 41
1.0
 10
-233.70164626807744
 20
-1239.7357249017168
 30
0.0
 41
0.992336126744004
 10
-233.54313453509067
 20
-1239.7240113449832
 30
0.0
 41
1.0
 10
-233.53914993326768
 20
-1239.7237168944803
 30
0.0
 41
1.0
 10
-233.53516533144469
 20
-1239.7234224439771
 30
0.0
 41
1.0
 10
-233.38462280205593
 20
-1239.7122977882461
 30
0.0
 41
0.9999996506971588
 10
-233.23406188704143
 20
-1239.7014247951943
 30
0.0
 41
1.0
 10
-233.08350097197908
 20
-1239.6905518021392
 30
0.0
 41
0.9746982496890709
 10
-232.95272288449908
 20
-1239.6151601384258
 30
0.0
 41
1.0
 10
-232.91391922035092
 20
-1239.5927903909042
 30
0.0
 41
1.0
 10
-232.87511555620273
 20
-1239.5704206433822
 30
0.0
 41
1.0
 10
-232.71332205161676
 20
-1239.4771490431942
 30
0.0
 41
0.977339647503196
 10
-232.6046197233571
 20
-1239.3252920928799
 30
0.0
 41
1.0
 10
-232.57780955646805
 20
-1239.2878383396221
 30
0.0
 41
1.0
 10
-232.550999389579
 20
-1239.2503845863644
 30
0.0
 41
1.0
 10
-232.49591739509765
 20
-1239.1734351425659
 30
0.0
 41
0.9874152055515704
 10
-232.46762344066423
 20
-1239.0831317918
 30
0.0
 41
1.0
 10
-232.45758160017772
 20
-1239.0510821238779
 30
0.0
 41
1.0
 10
-232.44753975969121
 20
-1239.0190324559558
 30
0.0
 41
1.0
 10
-232.43932948623063
 20
-1238.992828441033
 30
0.0
 41
0.9996537784160468
 10
-232.43250906569915
 20
-1238.9662288009599
 30
0.0
 41
1.0
 10
-228.3865889268103
 20
-1223.9152956412377
 30
0.0
 41
1.0
 10
-224.34066878792143
 20
-1208.8643624815156
 30
0.0
 41
1.0
 10
-224.33551076719979
 20
-1208.8440742666771
 30
0.0
 41
0.9999938109752539
 10
-224.33021011742952
 20
-1208.8238228481973
 30
0.0
 41
1.0
 10
-224.30258942074778
 20
-1208.7182964860606
 30
0.0
 41
1.0
 10
-224.27496872406601
 20
-1208.6127701239238
 30
0.0
 41
1.0
 10
-224.21442572470377
 20
-1208.3814629338553
 30
0.0
 41
0.9997112526645905
 10
-224.14283951299058
 20
-1208.1533316443686
 30
0.0
 41
1.0
 10
-224.1101728622084
 20
-1208.0492294019423
 30
0.0
 41
1.0
 10
-224.0775062114262
 20
-1207.9451271595158
 30
0.0
 41
1.0
 10
-224.07125234505253
 20
-1207.9251973075798
 30
0.0
 41
0.9999987652095292
 10
-224.06506114903254
 20
-1207.9052478981821
 30
0.0
 41
1.0
 10
-224.0705733018103
 20
-1207.9052478981821
 30
0.0
 41
1.0
 10
-224.07608545458805
 20
-1207.9052478981821
 30
0.0
 41
1.0
 10
-223.75670853549161
 20
-1206.8368805913969
 30
0.0
 41
1.0000000241803222
 10
-223.43724704214256
 20
-1205.7685384968222
 30
0.0
 41
1.0
 10
-221.77935110844786
 20
-1200.2242082684493
 30
0.0
 41
1.0
 10
-220.12145517475315
 20
-1194.6798780400763
 30
0.0
 41
1.0
 10
-216.48613885493012
 20
-1182.5226654442918
 30
0.0
 41
0.9999999461053437
 10
-212.84283361959103
 20
-1170.3678446151339
 30
0.0
 41
1.0
 10
-209.1994654150615
 20
-1158.2128137077075
 30
0.0
 41
1.0
 10
-208.87908024625474
 20
-1157.1438329676266
 30
0.0
 41
1.0
 10
-197.81343354486583
 20
-1157.1438329676266
 30
0.0
 41
1.0
 10
-186.74778684347692
 20
-1157.1438329676266
 30
0.0
 41
1.0
 10
-186.64845965382676
 20
-1157.1438329676266
 30
0.0
 41
0.9994589558520258
 10
-186.5493473676037
 20
-1157.1373026289371
 30
0.0
 41
1.0
 10
-186.47623971459569
 20
-1157.1324856909655
 30
0.0
 41
1.0
 10
-186.40313206158766
 20
-1157.1276687529942
 30
0.0
 41
1.0
 10
-186.15780446934812
 20
-1157.1115045383617
 30
0.0
 41
0.9915093137747156
 10
-185.9249416593901
 20
-1157.0326260172858
 30
0.0
 41
1.0
 10
-185.85500048663772
 20
-1157.008934573083
 30
0.0
 41
1.0
 10
-185.78505931388537
 20
-1156.9852431288803
 30
0.0
 41
1.0
 10
-185.42438387997765
 20
-1156.8630701429054
 30
0.0
 41
0.9920000244118311
 10
-185.10580276230937
 20
-1156.6544578743508
 30
0.0
 41
1.0
 10
-185.1053682737722
 20
-1156.6541733639565
 30
0.0
 41
1.0
 10
-185.10493378523503
 20
-1156.6538888535622
 30
0.0
 41
1.0
 10
-184.78722164464097
 20
-1156.445845605796
 30
0.0
 41
0.9922977574296845
 10
-184.53040615343778
 20
-1156.1660799883587
 30
0.0
 41
1.0
 10
-184.27359066223514
 20
-1155.8863143709214
 30
0.0
 41
0.9920185424261769
 10
-184.09493084188745
 20
-1155.5511969798251
 30
0.0
 41
1.0
 10
-184.03648413092409
 20
-1155.4415667940448
 30
0.0
 41
1.0
 10
-183.97803741996074
 20
-1155.3319366082644
 30
0.0
 41
1.0
 10
-183.81627750859019
 20
-1155.0285188651089
 30
0.0
 41
0.9811469343996394
 10
-183.78166923084046
 20
-1154.6864211262987
 30
0.0
 41
1.0
 10
-183.76939465701847
 20
-1154.5650887681927
 30
0.0
 41
1.0
 10
-183.75712008319647
 20
-1154.443756410087
 30
0.0
 41
1.0
 10
-183.74706095309054
 20
-1154.3443233874882
 30
0.0
 41
0.9994419149632334
 10
-183.74366357958817
 20
-1154.2444406065156
 30
0.0
 41
1.0
 10
-182.62745264208817
 20
-1122.3566367870712
 30
0.0
 41
1.0
 10
-181.51124170458817
 20
-1090.4688329676269
 30
0.0
 41
1.0
 10
-181.51127682163084
 20
-1090.3307161949697
 30
0.0
 41
0.9999997309997392
 10
-181.51110934531982
 20
-1090.1925995192573
 30
0.0
 41
1.0
 10
-181.51090647635766
 20
-1090.0252947433553
 30
0.0
 41
1.0
 10
-181.51070360739547
 20
-1089.8579899674532
 30
0.0
 41
1.0
 10
-181.51013039316032
 20
-1089.3852637400107
 30
0.0
 41
0.9948779463079255
 10
-181.60464901395554
 20
-1088.9220827332663
 30
0.0
 41
1.0
 10
-181.65107089412777
 20
-1088.6945959903128
 30
0.0
 41
1.0
 10
-181.6974927743
 20
-1088.4671092473595
 30
0.0
 41
1.0
 10
-181.88485515543977
 20
-1087.5489547547079
 30
0.0
 41
0.9912953259009417
 10
-182.30538075807419
 20
-1086.7115357724938
 30
0.0
 41
1.0
 10
-182.33177974999376
 20
-1086.6589658057514
 30
0.0
 41
1.0
 10
-182.35817874191335
 20
-1086.6063958390093
 30
0.0
 41
1.0
 10
-182.8217797459094
 20
-1085.6831981110054
 30
0.0
 41
0.9917758139654332
 10
-183.50456406783812
 20
-1084.9079397633388
 30
0.0
 41
1.0
 10
-183.59051603245717
 20
-1084.8103467520041
 30
0.0
 41
1.0
 10
-183.67646799707626
 20
-1084.7127537406691
 30
0.0
 41
1.0
 10
-184.18734838976712
 20
-1084.1326814156721
 30
0.0
 41
0.991922617895863
 10
-184.82775842658825
 20
-1083.6998331020552
 30
0.0
 41
1.0
 10
-185.46816846341019
 20
-1083.2669847884376
 30
0.0
 41
0.9978988229085064
 10
-186.15917362894791
 20
-1082.9205825091972
 30
0.0
 41
1.0
 10
-186.16493879206374
 20
-1082.9176924213323
 30
0.0
 41
1.0
 10
-186.17070395517956
 20
-1082.9148023334674
 30
0.0
 41
1.0
 10
-186.8732394469493
 20
-1082.5626198784969
 30
0.0
 41
0.991363938200288
 10
-187.64318344960751
 20
-1082.4052196511911
 30
0.0
 41
1.0
 10
-187.83910018003075
 20
-1082.3651682477187
 30
0.0
 41
1.0
 10
-188.03501691045403
 20
-1082.3251168442462
 30
0.0
 41
1.0
 10
-188.43264896654748
 20
-1082.2438286261458
 30
0.0
 41
0.997730510227925
 10
-188.83759746251758
 20
-1082.2167040607751
 30
0.0
 41
1.0
 10
-188.90420537468802
 20
-1082.212242479399
 30
0.0
 41
1.0
 10
-188.97081328685846
 20
-1082.207780898023
 30
0.0
 41
1.0
 10
-189.24254595848811
 20
-1082.1895794954044
 30
0.0
 41
0.9994408877295185
 10
-189.51488753792145
 20
-1082.1895794954044
 30
0.0
 41
1.0
 10
-471.50835541986589
 20
-1082.1895794954044
 30
0.0
 41
1.0
 10
-753.5018233018103
 20
-1082.1895794954044
 30
0.0
 41
1.0
 10
-753.5079975660052
 20
-1082.1895794954044
 30
0.0
 41
0.9999903855875941
 10
-753.51417159275354
 20
-1082.1895253469108
 30
0.0
 41
1.0
 10
-753.546080951352
 20
-1082.1892454900581
 30
0.0
 41
1.0
 10
-753.57799030995034
 20
-1082.1889656332055
 30
0.0
 41
1.0
 10
-753.64797476861611
 20
-1082.1883518436716
 30
0.0
 41
0.9996289344640873
 10
-753.7178887975715
 20
-1082.1915502413226
 30
0.0
 41
1.0
 10
-753.74975371170103
 20
-1082.1930081899345
 30
0.0
 41
1.0
 10
-753.78161862583067
 20
-1082.1944661385467
 30
0.0
 41
1.0
 10
-753.78779454124424
 20
-1082.1947487116386
 30
0.0
 41
0.999988052893252
 10
-753.79396739903257
 20
-1082.1950916481824
 30
0.0
 41
1.0
 10
-754.06569154078431
 20
-1082.2049416483208
 30
0.0
 41
0.999441633785549
 10
-754.33615109940604
 20
-1082.2329176892083
 30
0.0
 41
1.0
 10
-754.53508856863004
 20
-1082.2534955634064
 30
0.0
 41
1.0
 10
-754.73402603785394
 20
-1082.2740734376048
 30
0.0
 41
1.0
 10
-755.40236053492492
 20
-1082.3432052268886
 30
0.0
 41
0.9911115051781807
 10
-756.02880845236189
 20
-1082.5861315758168
 30
0.0
 41
1.0
 10
-756.21707397954083
 20
-1082.6591378958533
 30
0.0
 41
1.0
 10
-756.40533950671977
 20
-1082.7321442158898
 30
0.0
 41
1.0
 10
-757.37118926176197
 20
-1083.1066850964239
 30
0.0
 41
0.9915960083935809
 10
-758.20861100710363
 20
-1083.7164977241503
 30
0.0
 41
1.0
 10
-758.31560763747518
 20
-1083.7944129403334
 30
0.0
 41
1.0
 10
-758.42260426784674
 20
-1083.8723281565165
 30
0.0
 41
1.0
 10
-759.04603275244551
 20
-1084.3263103518766
 30
0.0
 41
0.99195892702875
 10
-759.5355015735895
 20
-1084.9222828195639
 30
0.0
 41
1.0
 10
-760.02497039473315
 20
-1085.5182552872507
 30
0.0
 41
0.9979530202296795
 10
-760.43436518648173
 20
-1086.1718291649429
 30
0.0
 41
1.0
 10
-760.43616758450048
 20
-1086.174706583723
 30
0.0
 41
1.0
 10
-760.43796998251912
 20
-1086.177584002503
 30
0.0
 41
1.0
 10
-760.85096957030498
 20
-1086.8369127177548
 30
0.0
 41
0.9915930752555748
 10
-761.08094554570323
 20
-1087.5801448921166
 30
0.0
 41
1.0
 10
-761.17907336416965
 20
-1087.8972725910335
 30
0.0
 41
1.0
 10
-761.27720118263608
 20
-1088.2144002899504
 30
0.0
 41
1.0
 10
-761.47556349208048
 20
-1088.8554639936895
 30
0.0
 41
0.991111739408312
 10
-761.49785677006389
 20
-1089.5261452054554
 30
0.0
 41
1.0
 10
-761.50448262298914
 20
-1089.7254804074021
 30
0.0
 41
1.0
 10
-761.51110847591451
 20
-1089.9248156093488
 30
0.0
 41
1.0
 10
-761.52015004804741
 20
-1090.1968264172228
 30
0.0
 41
0.999440222487324
 10
-761.51098128792137
 20
-1090.4688329676269
 30
0.0
 41
1.0
 10
-760.39477035042137
 20
-1122.3566367870712
 30
0.0
 41
1.0
 10
-759.27855941292137
 20
-1154.2444406065156
 30
0.0
 41
1.0
 10
-759.27516231146353
 20
-1154.3443153893775
 30
0.0
 41
0.9994504693999914
 10
-759.26515510761294
 20
-1154.4437456082271
 30
0.0
 41
1.0
 10
-759.25287205468476
 20
-1154.5657883545373
 30
0.0
 41
1.0
 10
-759.24058900175669
 20
-1154.6878311008475
 30
0.0
 41
1.0
 10
-759.20601569204996
 20
-1155.0313468123204
 30
0.0
 41
0.9813389246429578
 10
-759.04435771307897
 20
-1155.3364124701848
 30
0.0
 41
1.0
 10
-758.98725098949296
 20
-1155.44417888116
 30
0.0
 41
1.0
 10
-758.93014426590696
 20
-1155.5519452921355
 30
0.0
 41
1.0
 10
-758.75260439459385
 20
-1155.8869817560578
 30
0.0
 41
0.9919892673252145
 10
-758.49676363007654
 20
-1156.1668305389292
 30
0.0
 41
1.0
 10
-758.2409228655597
 20
-1156.4466793217998
 30
0.0
 41
0.9921693109603335
 10
-757.92370544315884
 20
-1156.6543881203334
 30
0.0
 41
1.0
 10
-757.92306076466298
 20
-1156.6548102453062
 30
0.0
 41
1.0
 10
-757.922416086167
 20
-1156.655232370279
 30
0.0
 41
1.0
 10
-757.60390930677431
 20
-1156.8637854187584
 30
0.0
 41
0.9918904195221084
 10
-757.2431098482291
 20
-1156.9852954729213
 30
0.0
 41
1.0
 10
-757.17235616953872
 20
-1157.0091238992845
 30
0.0
 41
1.0
 10
-757.10160249084845
 20
-1157.032952325648
 30
0.0
 41
1.0
 10
-756.86754286832979
 20
-1157.111778933438
 30
0.0
 41
0.9915676655484106
 10
-756.62108663344782
 20
-1157.1278059505323
 30
0.0
 41
1.0
 10
-756.54785004809219
 20
-1157.1325685162105
 30
0.0
 41
1.0
 10
-756.47461346273656
 20
-1157.1373310818885
 30
0.0
 41
1.0
 10
-756.37463039856482
 20
-1157.1438329676266
 30
0.0
 41
0.999472921270931
 10
-756.27443614903257
 20
-1157.1438329676266
 30
0.0
 41
1.0
 10
-742.28734847542137
 20
-1157.1438329676266
 30
0.0
 41
1.0
 10
-728.30026080181028
 20
-1157.1438329676266
 30
0.0
 41
1.0
 10
-695.91636323236582
 20
-1179.1070057106822
 30
0.0
 41
1.0
 10
-663.53246566292137
 20
-1201.0701784537378
 30
0.0
 41
1.0
  0
LINE
  5
17F
100
AcDbEntity
  8
0
370
              15
390
0
  6
Continuous
 62
               7
100
AcDbLine
 10
-728.3002611040605
 20
-1157.1438324954045
 30
0.0
 11
-208.87908010406036
 21
-1157.1438324954045
 31
0.0
  0
LWPOLYLINE
  5
180
100
AcDbEntity
  8
0
370
              15
390
0
  6
Continuous
 62
               7
100
AcDbPolyline
 90
       30
 70
             128
 10
-663.53246566292137
 20
-1201.0701784537378
 42
-0.0026512958794585
 10
-663.2274324358807
 20
-1201.2795360776499
 10
-662.84845990394354
 20
-1201.5426084584719
 42
-0.0158484458495681
 10
-661.81100488487493
 20
-1202.3126206831259
 10
-661.4488600156069
 20
-1202.5996451173801
 42
-0.0105234384192499
 10
-660.31679187019893
 20
-1203.5363420880969
 10
-660.31565231965828
 20
-1203.5373261009101
 42
-0.0104911659439207
 10
-659.22617475945856
 20
-1204.5187464798155
 10
-659.22530931873666
 20
-1204.5195596158476
 42
-0.010463881234974
 10
-658.17960113808317
 20
-1205.5441027476263
 10
-658.17898289734785
 20
-1205.5447343672968
 42
-0.0104416180760676
 10
-657.17822032001664
 20
-1206.6108024286575
 42
-0.0104289141305286
 10
-656.22318327154517
 20
-1207.7172350008652
 42
-0.0104162486904343
 10
-655.31563480646605
 20
-1208.8617999731587
 42
-0.0104091224815369
 10
-654.45672554634234
 20
-1210.0428885757756
 42
-0.0104087491972075
 10
-653.64761437081779
 20
-1211.2588804122381
 42
-0.0104141919490072
 10
-652.8894497477379
 20
-1212.5081709017625
 42
-0.0104315290341732
 10
-652.18375750814403
 20
-1213.7884356119678
 10
-652.18337948858493
 20
-1213.7891565932964
 42
-0.0104507501841001
 10
-651.53102972627198
 20
-1215.0992243447681
 10
-651.53055513138384
 20
-1215.1002295593348
 42
-0.0104751711331479
 10
-650.9326812522927
 20
-1216.4384713550869
 10
-650.93212818730012
 20
-1216.4397823732434
 42
-0.0105041857086921
 10
-650.38986293673008
 20
-1217.8045666092114
 10
-650.38925052227864
 20
-1217.8062075888565
 42
-0.0105370585981609
 10
-649.90372530003651
 20
-1219.1959003026482
 10
-649.90307480251408
 20
-1219.1978963079143
 42
-0.0105722331733398
 10
-649.47541804014872
 20
-1220.610857768695
 10
-649.47512330651216
 20
-1220.6119114057983
 42
-0.0026480729935116
 10
-649.37725732958813
 20
-1220.9690499815156
 42
-0.0026480729935116
  0
LINE
  5
181
100
AcDbEntity
  8
0
370
              15
390
0
  6
Continuous
 62
               7
100
AcDbLine
 10
-644.57742442403753
 20
-1239.7420088564231
 30
0.0
 11
-649.3772571040605
 21
-1220.9690494954043
 31
0.0
  0
LWPOLYLINE
  5
182
100
AcDbEntity
  8
0
370
              15
390
0
  6
STYLE_12
 62
               7
100
AcDbPolyline
 90
       82
 70
             128
 10
-483.72052989903233
 20
-1197.1930951204045
 42
0.0048109401555289
 10
-483.83544152384593
 20
-1197.2928530225674
 10
-483.9771567261983
 20
-1197.4182912482825
 42
0.0286498074348209
 10
-484.35313130317473
 20
-1197.7915921892572
 10
-484.47990830594819
 20
-1197.9327767875045
 42
0.0189482892781132
 10
-484.86335613825679
 20
-1198.3938019909531
 42
0.0188578074390989
 10
-485.21088922554867
 20
-1198.8824758614373
 10
-485.29290545552493
 20
-1199.0075293582534
 42
0.0373789959341197
 10
-485.72576652776866
 20
-1199.7891548865437
 10
-485.78819526652723
 20
-1199.9249085188644
 42
0.0186475013564065
 10
-486.01712525774326
 20
-1200.4759727976609
 42
0.0186656572363001
 10
-486.20433699246905
 20
-1201.0425692869812
 10
-486.24645657909309
 20
-1201.1880610445719
 42
0.0374349930942771
 10
-486.4308902932209
 20
-1202.066460272822
 10
-486.44112692125321
 20
-1202.1434861621838
 42
0.0326040724646246
 10
-486.51157715036879
 20
-1203.1943639143622
 10
-486.52057008149905
 20
-1208.3208748334623
 42
0.0004385498546855
 10
-486.52070351014345
 20
-1208.4729996342935
 10
-486.52070351014345
 20
-1209.1895794954044
 42
-0.0087682376276593
 10
-486.5225858235753
 20
-1209.2969082880227
 10
-486.52536549352862
 20
-1209.3761317726298
 42
-0.0352711240321912
 10
-486.55331944998892
 20
-1209.6399001316049
 10
-486.56747437251835
 20
-1209.7194484232184
 42
-0.0348310031120149
 10
-486.66743205288333
 20
-1210.1180029585682
 10
-486.66821843495063
 20
-1210.1204132945572
 42
-0.034229414234451
 10
-486.82019559660341
 20
-1210.4967590644817
 10
-486.8208559676433
 20
-1210.4981183884956
 42
-0.0336607300433403
 10
-487.02087782096504
 20
-1210.8478480897343
 10
-487.02125328196098
 20
-1210.8484127242664
 42
-0.0332718326380684
 10
-487.26533680782364
 20
-1211.1672719058658
 42
-0.0331100293232964
 10
-487.54944356547986
 20
-1211.4510119599968
 42
-0.0332340280710176
 10
-487.86854467458704
 20
-1211.6946596165703
 10
-487.86906686524765
 20
-1211.6950059864589
 42
-0.0336039644283128
 10
-488.2188530282678
 20
-1211.8945779200985
 10
-488.22013203672782
 20
-1211.8951978099287
 42
-0.0341538158930713
 10
-488.59626856263844
 20
-1212.0467515425876
 10
-488.59856813740964
 20
-1212.047500201083
 42
-0.0347547838046885
 10
-488.99660161543574
 20
-1212.1471276556115
 10
-489.07594052791887
 20
-1212.1612191743609
 42
-0.035177639873219
 10
-489.3388670652771
 20
-1212.1890486274617
 10
-489.41782728059502
 20
-1212.1918233304359
 42
-0.0087817421258635
 10
-489.52482677403231
 20
-1212.1937027592935
 10
-553.59257851014343
 20
-1212.1937027592935
 42
-0.0087666406485599
 10
-553.69957811700317
 20
-1212.1918265608942
 10
-553.77860771071778
 20
-1212.1890541992987
 42
-0.0352143042176874
 10
-554.04166992992828
 20
-1212.1612069702669
 10
-554.12096294124387
 20
-1212.1471165635696
 42
-0.0347517628793767
 10
-554.51898168749858
 20
-1212.0474589423895
 10
-554.52127987301878
 20
-1212.0467105480741
 42
-0.0341498244272836
 10
-554.89740257156586
 20
-1211.8951335178481
 10
-554.8986851864762
 20
-1211.8945117881387
 42
-0.0335978901631195
 10
-555.24845168538286
 20
-1211.6949297820438
 10
-555.24896191339235
 20
-1211.694591322175
 42
-0.0332373209859689
 10
-555.56806592439193
 20
-1211.4509210581166
 42
-0.0331053838395543
 10
-555.85216018333631
 20
-1211.1671681118064
 42
-0.0332686743772153
 10
-556.09622109020347
 20
-1210.8483111085332
 10
-556.09660439333743
 20
-1210.8477346367426
 42
-0.0336669957682743
 10
-556.29661571536224
 20
-1210.4979846876929
 10
-556.29727421170765
 20
-1210.4966290151117
 42
-0.0342335157047543
 10
-556.44922724871458
 20
-1210.1202688976873
 10
-556.45001384052625
 20
-1210.117857292807
 42
-0.0348338259059979
 10
-556.54994043797467
 20
-1209.7192878765295
 10
-556.56409630214921
 20
-1209.6396937669087
 42
-0.0352320770466645
 10
-556.59203317928132
 20
-1209.3760618523424
 10
-556.59481580327565
 20
-1209.2969081595754
 42
-0.0087852821503275
 10
-556.59670177403234
 20
-1209.1895794954044
 10
-556.59670177403234
 20
-1208.4729996342935
 42
0.0003218513765756
 10
-556.59679969721844
 20
-1208.3208747979756
 10
-556.60349532727844
 20
-1203.1200064188183
 42
0.0233204255196166
 10
-556.63243350132416
 20
-1202.5165811578518
 42
0.0188465621408412
 10
-556.7121201053784
 20
-1201.9175110366957
 10
-556.7375221173354
 20
-1201.7694670970009
 42
0.0374716798401032
 10
-556.95468825178955
 20
-1200.9002823731546
 10
-556.95492573285162
 20
-1200.8995651410914
 42
0.0187445070378078
 10
-557.26833865641936
 20
-1200.059866596845
 42
0.0375145363329776
 10
-557.67320923775833
 20
-1199.2622496119097
 42
0.0189075288346871
 10
-558.16636669072852
 20
-1198.513615961803
 10
-558.16811886312939
 20
-1198.5111632224373
 42
0.0380445505631387
 10
-558.74574420558861
 20
-1197.8202942397795
 10
-558.85158782812869
 20
-1197.7116654073848
 42
0.0192206043296805
 10
-559.29227930420097
 20
-1197.2928537638015
 42
0.0048128631616153
 10
-559.40789969069897
 20
-1197.1930951204045
 42
0.0048128631616153
  0
LWPOLYLINE
  5
183
100
AcDbEntity
  8
0
370
              15
390
0
  6
Continuous
 62
               7
100
AcDbPolyline
 90
       32
 70
             128
 10
-644.65805128546822
 20
-1239.5731477825652
 10
-644.6866328973606
 20
-1239.3751622599689
 10
-644.6811207445827
 20
-1239.4578445516354
 42
0.0162919079369641
 10
-644.67360203006388
 20
-1239.499942914932
 10
-644.65805128546822
 20
-1239.5731477825652
 42
0.1186263623839386
 10
-644.57742442403753
 20
-1239.7420088564231
 10
-644.51752599523149
 20
-1239.8158358386968
 42
0.1159881336354501
 10
-644.28833836057947
 20
-1239.9930631143407
 10
-644.22131917207878
 20
-1240.0235802300556
 42
0.0913510596880908
 10
-644.07788696423847
 20
-1240.0594562790993
 10
-644.02461150124645
 20
-1240.0628117492788
 42
0.0157263767117885
 10
-643.98107734180496
 20
-1240.064181357191
 10
-643.75507907791609
 20
-1240.0531570516355
 42
-0.013790097655647
 10
-643.64257898951507
 20
-1240.056260416203
 10
-643.55946077265901
 20
-1240.060849613742
 42
-0.0551530493842329
 10
-643.28586145676854
 20
-1240.1065064935242
 10
-643.20811487057426
 20
-1240.1284884051606
 42
-0.0549337619826013
 10
-642.80221540518585
 20
-1240.2931110160205
 10
-642.70689854451507
 20
-1240.344573129089
 42
-0.1064897171055515
 10
-642.21844574389331
 20
-1240.7620737618518
 10
-642.07281626921042
 20
-1240.9530936320214
 42
-0.0869958683516016
 10
-641.88757650968842
 20
-1241.3108061719763
 10
-641.85477147399729
 20
-1241.4152749200466
 42
0.0034735480840364
 10
-641.79659907068117
 20
-1241.5961218044772
 42
0.0862376244492677
 10
-641.70847608530551
 20
-1241.7612516398726
 10
-641.68506246078618
 20
-1241.7912793872974
 42
0.1067309871011214
 10
-641.48541023996881
 20
-1241.9580425664335
 10
-641.40861807644376
 20
-1241.9983364379564
 42
0.1074963286595345
 10
-641.24388357050054
 20
-1242.0437599674488
 10
-641.17631646854989
 20
-1242.0474718968026
 42
0.0137213023072366
 10
-641.13680650847164
 20
-1242.048556357191
 10
-641.40861807644376
 20
-1241.9983364379564
  0
ENDBLK
  5
184
100
AcDbEntity
  8
GAR70-0206
390
0
100
AcDbBlockEnd
  0
BLOCK
  5
185
100
AcDbEntity
  8
GAR70-0206
390
0
100
AcDbBlockBegin
  2
グループ-2
 70
               0
 10
0.0
 20
0.0
 30
0.0
  3
グループ-2
  1

  0
LWPOLYLINE
  5
186
100
AcDbEntity
  8
0
370
              15
390
0
  6
STYLE_01
 62
               7
100
AcDbPolyline
 90
       81
 70
             128
 10
395.84339787738696
 20
-1202.3929924242693
 42
-0.0048182466418814
 10
395.9583166543884
 20
-1202.4927594803139
 10
396.15672517947348
 20
-1202.6683897481776
 42
-0.0379864709510237
 10
396.63035824995217
 20
-1203.1565600753452
 10
396.70403224078291
 20
-1203.2450390009494
 42
-0.0188696899821443
 10
397.25246543516494
 20
-1203.9566497902567
 10
397.25310446971224
 20
-1203.9575470368948
 42
-0.0373815876469997
 10
397.71610655543589
 20
-1204.7227321788364
 42
-0.0186651522225648
 10
398.09152351354709
 20
-1205.5368514276261
 42
-0.0373212357092931
 10
398.37315032554125
 20
-1206.3862914805275
 10
398.37328389671865
 20
-1206.3868245126541
 42
-0.0188029924397845
 10
398.55863545491195
 20
-1207.2653540651229
 10
398.57829875497259
 20
-1207.3796789542425
 42
-0.0378205014817734
 10
398.64256967224605
 20
-1208.0561596954728
 10
398.64762952915788
 20
-1208.3207855751091
 42
-0.0047796524515963
 10
398.64908364127575
 20
-1208.4728969381581
 10
398.64908364127575
 20
-1209.189476799269
 42
0.0087309682136053
 10
398.65095794786464
 20
-1209.2968053145612
 10
398.65372555931629
 20
-1209.3760220877523
 42
0.0351411689117094
 10
398.68157068129051
 20
-1209.6397919779238
 10
398.69567578319794
 20
-1209.7193685547377
 42
0.0347319049460887
 10
398.79525382723057
 20
-1210.1178719742616
 10
398.7960544555142
 20
-1210.1203348615629
 42
0.0341677609622905
 10
398.94749038393627
 20
-1210.4966265335056
 10
398.94817323547602
 20
-1210.4980368311192
 42
0.0336378015482275
 10
399.14753937724748
 20
-1210.8477196884946
 10
399.14794029974314
 20
-1210.8483244504228
 42
0.0332846787760225
 10
399.39130402721344
 20
-1211.1671515780695
 42
0.0331440264930389
 10
399.67469958156329
 20
-1211.4509014611733
 42
0.0332983444529649
 10
399.99312437392842
 20
-1211.6945630589896
 10
399.99363833401435
 20
-1211.6949046528848
 42
0.0336789371585049
 10
400.34279399832548
 20
-1211.894474772869
 10
400.34408830454328
 20
-1211.8951030734167
 42
0.0342271552795296
 10
400.71967625737244
 20
-1212.0466439350052
 10
400.72202038950377
 20
-1212.0474079559822
 42
0.0348126558632526
 10
401.1196262687252
 20
-1212.1470190657658
 10
401.19895633522282
 20
-1212.1611171157754
 42
0.0352045147983535
 10
401.46178883483168
 20
-1212.1889486623604
 10
401.54071043219858
 20
-1212.1917213479596
 42
0.0087796528473715
 10
401.64769475238683
 20
-1212.1936000631581
 10
465.64930065516467
 20
-1212.1936000631581
 42
0.0087630303054051
 10
465.75628510013553
 20
-1212.1917249032963
 10
465.8352761531749
 20
-1212.1889550357639
 42
0.0352428932956723
 10
466.09824446355253
 20
-1212.1611064018728
 10
466.17752890592141
 20
-1212.1470093573917
 42
0.0348098836454742
 10
466.57512019601018
 20
-1212.0473675485061
 10
466.57746303609559
 20
-1212.0466037522826
 42
0.0342231925279094
 10
466.95303696096244
 20
-1211.8950389200345
 10
466.95433491546345
 20
-1211.8944087523646
 42
0.0336727493311416
 10
467.30347058118451
 20
-1211.6948280285606
 10
467.30397272194011
 20
-1211.6944942646714
 42
0.0333017946835373
 10
467.62239970176444
 20
-1211.4508097366709
 42
0.0331540494687837
 10
467.90578204191087
 20
-1211.1670468846592
 42
0.0332813574139917
 10
468.14912266125754
 20
-1210.8482222616628
 10
468.14953143713217
 20
-1210.8476056061299
 42
0.0336439168838904
 10
468.34888684118948
 20
-1210.4979029046806
 10
468.34956780126043
 20
-1210.4964962990596
 42
0.0341716787318449
 10
468.50097968268443
 20
-1210.120190898316
 10
468.50178052474064
 20
-1210.11772672097
 42
0.0347344743119875
 10
468.60132800535155
 20
-1209.7192090593967
 10
468.61543410567037
 20
-1209.6395871327957
 42
0.0351020646074975
 10
468.64326289916806
 20
-1209.375952694862
 10
468.64603367753841
 20
-1209.2968051822866
 42
0.0087485944525223
 10
468.64791176627574
 20
-1209.189476799269
 10
468.64791176627574
 20
-1208.4728969381581
 42
-0.0047912387686886
 10
468.64936940281024
 20
-1208.3207856425804
 10
468.65444613945266
 20
-1208.0559191764214
 42
-0.0378208226553177
 10
468.71879429372973
 20
-1207.3789632892535
 10
468.73830529749029
 20
-1207.2655562026739
 42
-0.0188050186997309
 10
468.92381494891958
 20
-1206.3865022256398
 10
468.92408084924972
 20
-1206.3854413685849
 42
-0.0373202171911681
 10
469.20558318473479
 20
-1205.5365293608827
 42
-0.018663008140934
 10
469.58105783523945
 20
-1204.7224349374837
 42
-0.0373871206926791
 10
470.04438238013643
 20
-1203.9568105716971
 10
470.04470460082888
 20
-1203.9563582150677
 42
-0.0188648633715283
 10
470.59284364991885
 20
-1203.2452108707009
 10
470.59528874846637
 20
-1203.2422746991292
 42
-0.0379877464345869
 10
471.22449703303789
 20
-1202.5938170051311
 10
471.33860102314873
 20
-1202.4928230922101
 10
471.33867617865633
 20
-1202.4927565717599
 42
-0.0048054850406291
 10
471.45359753016453
 20
-1202.3929924242693
 42
-0.0048054850406291
  0
SPLINE
  5
187
100
AcDbEntity
  8
0
370
              15
390
0
  6
Continuous
 62
               7
100
AcDbSpline
210
0.0
220
0.0
230
1.0
 70
              13
 71
               2
 72
             318
 73
             315
 74
               0
 42
0.000001
 43
0.000001
 40
0.0
 40
0.0
 40
0.0
 40
1.0
 40
1.0
 40
2.0
 40
2.0
 40
3.0
 40
3.0
 40
4.0
 40
4.0
 40
5.0
 40
5.0
 40
6.0
 40
6.0
 40
7.0
 40
7.0
 40
8.0
 40
8.0
 40
9.0
 40
9.0
 40
10.0
 40
10.0
 40
11.0
 40
11.0
 40
12.0
 40
12.0
 40
13.0
 40
13.0
 40
14.0
 40
14.0
 40
15.0
 40
15.0
 40
16.0
 40
16.0
 40
17.0
 40
17.0
 40
18.0
 40
18.0
 40
19.0
 40
19.0
 40
20.0
 40
20.0
 40
21.0
 40
21.0
 40
22.0
 40
22.0
 40
23.0
 40
23.0
 40
24.0
 40
24.0
 40
25.0
 40
25.0
 40
26.0
 40
26.0
 40
27.0
 40
27.0
 40
28.0
 40
28.0
 40
29.0
 40
29.0
 40
30.0
 40
30.0
 40
31.0
 40
31.0
 40
32.0
 40
32.0
 40
33.0
 40
33.0
 40
34.0
 40
34.0
 40
35.0
 40
35.0
 40
36.0
 40
36.0
 40
37.0
 40
37.0
 40
38.0
 40
38.0
 40
39.0
 40
39.0
 40
40.0
 40
40.0
 40
41.0
 40
41.0
 40
42.0
 40
42.0
 40
43.0
 40
43.0
 40
44.0
 40
44.0
 40
45.0
 40
45.0
 40
46.0
 40
46.0
 40
47.0
 40
47.0
 40
48.0
 40
48.0
 40
49.0
 40
49.0
 40
50.0
 40
50.0
 40
51.0
 40
51.0
 40
52.0
 40
52.0
 40
53.0
 40
53.0
 40
54.0
 40
54.0
 40
55.0
 40
55.0
 40
56.0
 40
56.0
 40
57.0
 40
57.0
 40
58.0
 40
58.0
 40
59.0
 40
59.0
 40
60.0
 40
60.0
 40
61.0
 40
61.0
 40
62.0
 40
62.0
 40
63.0
 40
63.0
 40
64.0
 40
64.0
 40
65.0
 40
65.0
 40
66.0
 40
66.0
 40
67.0
 40
67.0
 40
68.0
 40
68.0
 40
69.0
 40
69.0
 40
70.0
 40
70.0
 40
71.0
 40
71.0
 40
72.0
 40
72.0
 40
73.0
 40
73.0
 40
74.0
 40
74.0
 40
75.0
 40
75.0
 40
76.0
 40
76.0
 40
77.0
 40
77.0
 40
78.0
 40
78.0
 40
79.0
 40
79.0
 40
80.0
 40
80.0
 40
81.0
 40
81.0
 40
82.0
 40
82.0
 40
83.0
 40
83.0
 40
84.0
 40
84.0
 40
85.0
 40
85.0
 40
86.0
 40
86.0
 40
87.0
 40
87.0
 40
88.0
 40
88.0
 40
89.0
 40
89.0
 40
90.0
 40
90.0
 40
91.0
 40
91.0
 40
92.0
 40
92.0
 40
93.0
 40
93.0
 40
94.0
 40
94.0
 40
95.0
 40
95.0
 40
96.0
 40
96.0
 40
97.0
 40
97.0
 40
98.0
 40
98.0
 40
99.0
 40
99.0
 40
100.0
 40
100.0
 40
101.0
 40
101.0
 40
102.0
 40
102.0
 40
103.0
 40
103.0
 40
104.0
 40
104.0
 40
105.0
 40
105.0
 40
106.0
 40
106.0
 40
107.0
 40
107.0
 40
108.0
 40
108.0
 40
109.0
 40
109.0
 40
110.0
 40
110.0
 40
111.0
 40
111.0
 40
112.0
 40
112.0
 40
113.0
 40
113.0
 40
114.0
 40
114.0
 40
115.0
 40
115.0
 40
116.0
 40
116.0
 40
117.0
 40
117.0
 40
118.0
 40
118.0
 40
119.0
 40
119.0
 40
120.0
 40
120.0
 40
121.0
 40
121.0
 40
122.0
 40
122.0
 40
123.0
 40
123.0
 40
124.0
 40
124.0
 40
125.0
 40
125.0
 40
126.0
 40
126.0
 40
127.0
 40
127.0
 40
128.0
 40
128.0
 40
129.0
 40
129.0
 40
130.0
 40
130.0
 40
131.0
 40
131.0
 40
132.0
 40
132.0
 40
133.0
 40
133.0
 40
134.0
 40
134.0
 40
135.0
 40
135.0
 40
136.0
 40
136.0
 40
137.0
 40
137.0
 40
138.0
 40
138.0
 40
139.0
 40
139.0
 40
140.0
 40
140.0
 40
141.0
 40
141.0
 40
142.0
 40
142.0
 40
143.0
 40
143.0
 40
144.0
 40
144.0
 40
145.0
 40
145.0
 40
146.0
 40
146.0
 40
147.0
 40
147.0
 40
148.0
 40
148.0
 40
149.0
 40
149.0
 40
150.0
 40
150.0
 40
151.0
 40
151.0
 40
152.0
 40
152.0
 40
153.0
 40
153.0
 40
154.0
 40
154.0
 40
155.0
 40
155.0
 40
156.0
 40
156.0
 40
157.0
 40
157.0
 40
157.0
 10
433.50793780794248
 20
-1242.1907354798245
 30
0.0
 41
1.0
 10
500.38137530794245
 20
-1242.1907354798245
 30
0.0
 41
1.0
 10
567.25481280794247
 20
-1242.1907354798245
 30
0.0
 41
1.0
 10
567.28237357183139
 20
-1242.1907354798245
 30
0.0
 41
1.0
 10
567.30993433572019
 20
-1242.1907354798245
 30
0.0
 41
1.0
 10
567.33819373587266
 20
-1242.1907354798245
 30
0.0
 41
0.9995590522458088
 10
567.36640330333819
 20
-1242.1890579815733
 30
0.0
 41
1.0
 10
567.42915906124244
 20
-1242.1853261741194
 30
0.0
 41
1.0
 10
567.49191481914681
 20
-1242.1815943666654
 30
0.0
 41
1.0
 10
567.64563590241937
 20
-1242.1724532535063
 30
0.0
 41
0.9639077294799698
 10
567.77287318307776
 20
-1242.0857099206044
 30
0.0
 41
1.0
 10
567.83445462278689
 20
-1242.0437271047376
 30
0.0
 41
1.0
 10
567.89603606249602
 20
-1242.0017442888709
 30
0.0
 41
1.0
 10
568.05221444368203
 20
-1241.8952705160805
 30
0.0
 41
0.9788146960451475
 10
568.15262135350531
 20
-1241.7351243219271
 30
0.0
 41
1.0
 10
568.170456702612
 20
-1241.7066774422665
 30
0.0
 41
1.0
 10
568.1882920517188
 20
-1241.6782305626057
 30
0.0
 41
1.0
 10
568.25302826332847
 20
-1241.5749781277736
 30
0.0
 41
0.9863248646955227
 10
568.28067836289654
 20
-1241.4562881349934
 30
0.0
 41
1.0
 10
568.30832846246244
 20
-1241.3375981422223
 30
0.0
 41
0.9999746245531435
 10
568.33428472221499
 20
-1241.2185262522846
 30
0.0
 41
1.0
 10
568.33707684812134
 20
-1241.2057176384174
 30
0.0
 41
1.0
 10
568.33986897402758
 20
-1241.1929090245503
 30
0.0
 41
1.0
 10
568.37140948559022
 20
-1241.0482199068883
 30
0.0
 41
0.9937610110912666
 10
568.43423846852704
 20
-1240.914121944403
 30
0.0
 41
1.0
 10
568.47026444567871
 20
-1240.8372305177591
 30
0.0
 41
1.0
 10
568.50629042283038
 20
-1240.7603390911154
 30
0.0
 41
1.0
 10
568.64117136007042
 20
-1240.4724582753427
 30
0.0
 41
0.9785178949171424
 10
568.88073686543669
 20
-1240.263468802021
 30
0.0
 41
1.0
 10
568.95852867175404
 20
-1240.195605657007
 30
0.0
 41
1.0
 10
569.03632047807127
 20
-1240.1277425119931
 30
0.0
 41
1.0
 10
569.27433535894227
 20
-1239.9201057551074
 30
0.0
 41
0.9784374524917072
 10
569.57596525447389
 20
-1239.8263853600617
 30
0.0
 41
1.0
 10
569.65693096781899
 20
-1239.8012282428385
 30
0.0
 41
1.0
 10
569.7378966811641
 20
-1239.7760711256155
 30
0.0
 41
1.0
 10
569.87759515000573
 20
-1239.7326649650158
 30
0.0
 41
0.993374516341342
 10
570.0235141509047
 20
-1239.722301464094
 30
0.0
 41
1.0
 10
570.16943315193407
 20
-1239.7119379631629
 30
0.0
 41
0.9999997351344885
 10
570.3153369127217
 20
-1239.7013620667167
 30
0.0
 41
1.0
 10
570.32486428910613
 20
-1239.7006714707684
 30
0.0
 41
1.0
 10
570.33439166549056
 20
-1239.6999808748201
 30
0.0
 41
1.0
 10
570.49935017917744
 20
-1239.688023786468
 30
0.0
 41
0.9681343561086823
 10
570.63781963891734
 20
-1239.5975777145854
 30
0.0
 41
1.0
 10
570.68282729475845
 20
-1239.5681794221164
 30
0.0
 41
1.0
 10
570.72783495059957
 20
-1239.5387811296471
 30
0.0
 41
1.0
 10
570.87352820699834
 20
-1239.4436165874743
 30
0.0
 41
0.9816609861116804
 10
570.97301399373032
 20
-1239.3008391617889
 30
0.0
 41
1.0
 10
570.99753929943154
 20
-1239.2656415709853
 30
0.0
 41
1.0
 10
571.02206460513264
 20
-1239.2304439801815
 30
0.0
 41
1.0
 10
571.07249978046241
 20
-1239.158061736103
 30
0.0
 41
0.9897926265323043
 10
571.1004656855622
 20
-1239.0743909268544
 30
0.0
 41
1.0
 10
571.110398408641
 20
-1239.0446733484291
 30
0.0
 41
1.0
 10
571.12033113171981
 20
-1239.0149557700038
 30
0.0
 41
1.0
 10
571.12843159066165
 20
-1238.9907201176075
 30
0.0
 41
0.9997161497592291
 10
571.13536836349783
 20
-1238.9661261048245
 30
0.0
 41
1.0
 10
573.78946992599788
 20
-1229.085592250658
 30
0.0
 41
1.0
 10
576.44357148849792
 20
-1219.2050583964913
 30
0.0
 41
1.0
 10
576.55244706998587
 20
-1218.7993936934558
 30
0.0
 41
0.9999261502833974
 10
576.67114980131987
 20
-1218.3964949405422
 30
0.0
 41
1.0
 10
576.8784651362547
 20
-1217.6928288246377
 30
0.0
 41
1.0
 10
577.08578047118954
 20
-1216.9891627087331
 30
0.0
 41
1.0
 10
577.61911387239365
 20
-1215.1789317240098
 30
0.0
 41
0.9954597865693032
 10
578.48582550256378
 20
-1213.5025690887128
 30
0.0
 41
1.0
 10
578.82180078457986
 20
-1212.8527377151051
 30
0.0
 41
1.0
 10
579.15777606659606
 20
-1212.2029063414975
 30
0.0
 41
1.0
 10
579.92237838392487
 20
-1210.7240398869421
 30
0.0
 41
0.9988721274331136
 10
580.82381173389399
 20
-1209.3243682791554
 30
0.0
 41
1.0
 10
581.725245083863
 20
-1207.924696671369
 30
0.0
 41
0.9988782282531498
 10
582.75504385849547
 20
-1206.616576960547
 30
0.0
 41
1.0
 10
582.75559256234055
 20
-1206.6158799599943
 30
0.0
 41
1.0
 10
582.75614126618575
 20
-1206.6151829594414
 30
0.0
 41
1.0
 10
583.78703744850895
 20
-1205.3056692475129
 30
0.0
 41
0.9988757355846937
 10
584.93731650011625
 20
-1204.0996712359488
 30
0.0
 41
1.0
 10
585.15467150642098
 20
-1203.8717876584456
 30
0.0
 41
1.0
 10
585.37202651272571
 20
-1203.6439040809425
 30
0.0
 41
1.0
 10
586.095115577191
 20
-1202.8857889325266
 30
0.0
 41
0.9988693513898083
 10
586.8869358195758
 20
-1202.1997735703396
 30
0.0
 41
1.0
 10
587.12417705513121
 20
-1201.9942330657864
 30
0.0
 41
1.0
 10
587.36141829068674
 20
-1201.7886925612329
 30
0.0
 41
1.0
 10
587.67875606196321
 20
-1201.5137582081506
 30
0.0
 41
0.9999289935212267
 10
588.00255586349783
 20
-1201.2464646464914
 30
0.0
 41
1.0
 10
587.99704371072005
 20
-1201.2464646464914
 30
0.0
 41
1.0
 10
587.99153155794227
 20
-1201.2464646464914
 30
0.0
 41
1.0
 10
589.09086780026041
 20
-1200.3457282658728
 30
0.0
 41
1.0000000069664567
 10
590.19028507589258
 20
-1199.4450907943644
 30
0.0
 41
1.0
 10
596.08373889847303
 20
-1194.617201086915
 30
0.0
 41
1.0
 10
601.9771927210536
 20
-1189.7893113794653
 30
0.0
 41
1.0
 10
614.86351867586427
 20
-1179.2328936459953
 30
0.0
 41
0.9999988621486399
 10
627.71793603952665
 20
-1168.6376444173115
 30
0.0
 41
1.0
 10
633.59679417314169
 20
-1163.7919975620043
 30
0.0
 41
1.0
 10
639.47565230675684
 20
-1158.9463507066971
 30
0.0
 41
1.0
 10
640.57235442717729
 20
-1158.0423943498276
 30
0.0
 41
0.999999995288493
 10
641.66887530794247
 20
-1157.1382181187137
 30
0.0
 41
1.0
 10
655.01379718294243
 20
-1157.1382181187137
 30
0.0
 41
1.0
 10
668.35871905794238
 20
-1157.1382181187137
 30
0.0
 41
1.0
 10
668.45136876665867
 20
-1157.1382181187137
 30
0.0
 41
0.9995355833299513
 10
668.54384640306364
 20
-1157.1325740696275
 30
0.0
 41
1.0
 10
668.65737178410495
 20
-1157.1256454450645
 30
0.0
 41
1.0
 10
668.77089716514615
 20
-1157.1187168205017
 30
0.0
 41
1.0
 10
669.09042556363318
 20
-1157.0992155222898
 30
0.0
 41
0.9842473899663514
 10
669.38319200768876
 20
-1156.9697299736495
 30
0.0
 41
1.0
 10
669.48707923741244
 20
-1156.9237824437646
 30
0.0
 41
1.0
 10
669.59096646713624
 20
-1156.87783491388
 30
0.0
 41
1.0
 10
669.91224763304717
 20
-1156.735737795578
 30
0.0
 41
0.9932634531926176
 10
670.19219064190384
 20
-1156.5234995087608
 30
0.0
 41
1.0
 10
670.19244189890662
 20
-1156.5233090187176
 30
0.0
 41
1.0
 10
670.19269315590941
 20
-1156.5231185286746
 30
0.0
 41
1.0
 10
670.47213365076107
 20
-1156.3112612219431
 30
0.0
 41
0.9934088050616163
 10
670.69598277221621
 20
-1156.0413314544069
 30
0.0
 41
1.0
 10
670.91983189367181
 20
-1155.7714016868701
 30
0.0
 41
0.9931028503076723
 10
671.07466658410726
 20
-1155.4567642332561
 30
0.0
 41
1.0
 10
671.12514116526631
 20
-1155.354195528249
 30
0.0
 41
1.0
 10
671.17561574642548
 20
-1155.2516268232421
 30
0.0
 41
1.0
 10
671.31554938993349
 20
-1154.9672695829852
 30
0.0
 41
0.9837166160625986
 10
671.34589417138136
 20
-1154.6518022171444
 30
0.0
 41
1.0
 10
671.35665973672712
 20
-1154.5398823291318
 30
0.0
 41
1.0
 10
671.367425302073
 20
-1154.4279624411192
 30
0.0
 41
1.0
 10
671.37623895282934
 20
-1154.3363348513039
 30
0.0
 41
0.9995229659368694
 10
671.37937878016453
 20
-1154.2443379103802
 30
0.0
 41
1.0
 10
672.49283364127564
 20
-1122.3537780145471
 30
0.0
 41
1.0
 10
673.60628850238675
 20
-1090.4632181187137
 30
0.0
 41
1.0
 10
673.60625626446824
 20
-1090.3254159062635
 30
0.0
 41
0.9999997596542902
 10
673.60641508002129
 20
-1090.1876137815591
 30
0.0
 41
1.0
 10
673.60659064982246
 20
-1090.035274220359
 30
0.0
 41
1.0
 10
673.60676621962375
 20
-1089.8829346591592
 30
0.0
 41
1.0
 10
673.60727617477914
 20
-1089.4404534120267
 30
0.0
 41
0.9956120048090696
 10
673.52532806167608
 20
-1089.0056265259229
 30
0.0
 41
1.0
 10
673.48605306509239
 20
-1088.7972285064989
 30
0.0
 41
1.0
 10
673.44677806850859
 20
-1088.5888304870746
 30
0.0
 41
1.0
 10
673.28627996223815
 20
-1087.7372075621245
 30
0.0
 41
0.9924968439505748
 10
672.92388703275708
 20
-1086.9500019898117
 30
0.0
 41
1.0
 10
672.90084089798927
 20
-1086.8999401805609
 30
0.0
 41
1.0
 10
672.87779476322146
 20
-1086.8498783713101
 30
0.0
 41
1.0
 10
672.47904187193399
 20
-1085.9836901196616
 30
0.0
 41
0.9929091836782655
 10
671.88708218378429
 20
-1085.2361142484542
 30
0.0
 41
1.0
 10
671.29510167830767
 20
-1084.4885120873976
 30
0.0
 41
0.9931099187154807
 10
670.5453695589664
 20
-1083.899231458741
 30
0.0
 41
1.0
 10
670.45295748289709
 20
-1083.8265954301005
 30
0.0
 41
1.0
 10
670.3605454068279
 20
-1083.7539594014602
 30
0.0
 41
1.0
 10
669.79561662229776
 20
-1083.3099245402343
 30
0.0
 41
0.9929776295690207
 10
669.14217778758166
 20
-1083.0110446666076
 30
0.0
 41
1.0
 10
668.4887389528659
 20
-1082.712164792981
 30
0.0
 41
0.9981501155640483
 10
667.80385566909752
 20
-1082.4948024752048
 30
0.0
 41
1.0
 10
667.73952575447856
 20
-1082.474386004727
 30
0.0
 41
1.0
 10
667.67519583985973
 20
-1082.4539695342489
 30
0.0
 41
1.0
 10
667.08317909870436
 20
-1082.2660803944941
 30
0.0
 41
0.992468847745044
 10
666.46324432556639
 20
-1082.2277785968815
 30
0.0
 41
1.0
 10
666.27888302924498
 20
-1082.2163880936137
 30
0.0
 41
1.0
 10
666.09452173292368
 20
-1082.2049975903458
 30
0.0
 41
1.0
 10
665.84330955242808
 20
-1082.189476799269
 30
0.0
 41
0.9995240969256962
 10
665.59161836349801
 20
-1082.189476799269
 30
0.0
 41
1.0
 10
549.58285100238686
 20
-1082.189476799269
 30
0.0
 41
1.0
 10
433.57408364127576
 20
-1082.189476799269
 30
0.0
 41
1.0
 10
317.58460881488691
 20
-1082.189476799269
 30
0.0
 41
1.0
 10
201.59513398849805
 20
-1082.189476799269
 30
0.0
 41
1.0
 10
201.34314599670506
 20
-1082.189476799269
 30
0.0
 41
0.9995271018855806
 10
201.09163455079141
 20
-1082.2049668148354
 30
0.0
 41
1.0
 10
201.02994098596596
 20
-1082.208766380601
 30
0.0
 41
1.0
 10
200.96824742114052
 20
-1082.2125659463663
 30
0.0
 41
1.0
 10
200.59334884557461
 20
-1082.2356550934637
 30
0.0
 41
0.9980819166520766
 10
200.22417713874742
 20
-1082.3048959885566
 30
0.0
 41
1.0
 10
200.04616785241751
 20
-1082.3382829521088
 30
0.0
 41
1.0
 10
199.86815856608757
 20
-1082.3716699156607
 30
0.0
 41
1.0
 10
199.14296828660059
 20
-1082.5076847378577
 30
0.0
 41
0.9926137912919408
 10
198.47188262123842
 20
-1082.8143523153171
 30
0.0
 41
1.0
 10
198.36257132035672
 20
-1082.8643045547415
 30
0.0
 41
1.0
 10
198.25326001947502
 20
-1082.9142567941656
 30
0.0
 41
1.0
 10
197.38548785764968
 20
-1083.3108046574109
 30
0.0
 41
0.9929566487181974
 10
196.63538045584346
 20
-1083.9003957177556
 30
0.0
 41
1.0
 10
195.88544762724243
 20
-1084.4898495620148
 30
0.0
 41
0.9931075354168297
 10
195.29334265798175
 20
-1085.2376909805666
 30
0.0
 41
1.0
 10
195.22032140054571
 20
-1085.329928685233
 30
0.0
 41
1.0
 10
195.14730014310967
 20
-1085.4221663898991
 30
0.0
 41
1.0
 10
194.70141226192641
 20
-1085.9853951830332
 30
0.0
 41
0.9929186699819662
 10
194.4009807393067
 20
-1086.6379161223281
 30
0.0
 41
1.0
 10
194.35231911982649
 20
-1086.7436065151801
 30
0.0
 41
1.0
 10
194.30365750034628
 20
-1086.8492969080323
 30
0.0
 41
1.0
 10
194.10054921668731
 20
-1087.2904370616227
 30
0.0
 41
0.9981497221186821
 10
193.95248972300135
 20
-1087.7529692186995
 30
0.0
 41
1.0
 10
193.80443022931533
 20
-1088.2155013757763
 30
0.0
 41
0.9981478627795143
 10
193.71363827825326
 20
-1088.6925909183378
 30
0.0
 41
1.0
 10
193.68021948648484
 20
-1088.8681985123064
 30
0.0
 41
1.0
 10
193.64680069471643
 20
-1089.043806106275
 30
0.0
 41
1.0
 10
193.57113410434599
 20
-1089.441415570162
 30
0.0
 41
0.9953007389064128
 10
193.57352727592712
 20
-1089.8461537465187
 30
0.0
 41
1.0
 10
193.57453507815791
 20
-1090.0165953647511
 30
0.0
 41
1.0
 10
193.5755428803887
 20
-1090.1870369829837
 30
0.0
 41
1.0
 10
193.57592044750828
 20
-1090.2508919228753
 30
0.0
 41
0.9995209653854225
 10
193.58024788927429
 20
-1090.314601177723
 30
0.0
 41
1.0
 10
193.58105992861528
 20
-1090.3265561442183
 30
0.0
 41
1.0
 10
193.58187196795626
 20
-1090.3385111107136
 30
0.0
 41
1.0
 10
193.58457533104024
 20
-1090.3783104325735
 30
0.0
 41
0.9996842134916608
 10
193.58527566671358
 20
-1090.4181953134439
 30
0.0
 41
1.0
 10
193.58558073328521
 20
-1090.4355691876171
 30
0.0
 41
1.0
 10
193.58588579985684
 20
-1090.4529430617902
 30
0.0
 41
1.0
 10
193.58597600238696
 20
-1090.4580801943159
 30
0.0
 41
0.9999614686817884
 10
193.58597600238696
 20
-1090.4632181187137
 30
0.0
 41
1.0
 10
194.69943086349804
 20
-1122.3537780145471
 30
0.0
 41
1.0
 10
195.81288572460915
 20
-1154.2443379103802
 30
0.0
 41
1.0
 10
195.81602547436029
 20
-1154.3363325780899
 30
0.0
 41
0.9995197120574243
 10
195.82485818108213
 20
-1154.4279560478346
 30
0.0
 41
1.0
 10
195.83570696006856
 20
-1154.5404926466967
 30
0.0
 41
1.0
 10
195.84655573905499
 20
-1154.6530292455591
 30
0.0
 41
1.0
 10
195.87708600374958
 20
-1154.9697259130269
 30
0.0
 41
0.9838059071265286
 10
196.01734374839535
 20
-1155.2553071472041
 30
0.0
 41
1.0
 10
196.06701473992362
 20
-1155.3564431172663
 30
0.0
 41
1.0
 10
196.11668573145189
 20
-1155.4575790873282
 30
0.0
 41
1.0
 10
196.27104358432467
 20
-1155.7718697971902
 30
0.0
 41
0.9931538545793262
 10
196.49411305962167
 20
-1156.0417679376806
 30
0.0
 41
1.0
 10
196.71727631886986
 20
-1156.3117795500568
 30
0.0
 41
0.9934002227169917
 10
196.99609936054571
 20
-1156.5238310120344
 30
0.0
 41
1.0
 10
197.27501618617336
 20
-1156.7359959458984
 30
0.0
 41
0.9932066416045655
 10
197.59542089048992
 20
-1156.877944458505
 30
0.0
 41
1.0
 10
197.70036426191507
 20
-1156.9244373947229
 30
0.0
 41
1.0
 10
197.80530763334022
 20
-1156.9709303309407
 30
0.0
 41
1.0
 10
198.09583516112212
 20
-1157.0996423937922
 30
0.0
 41
0.984172747526827
 10
198.41301179627064
 20
-1157.118930256253
 30
0.0
 41
1.0
 10
198.52551888427081
 20
-1157.1257719368773
 30
0.0
 41
1.0
 10
198.63802597227098
 20
-1157.1326136175019
 30
0.0
 41
1.0
 10
198.7301884314175
 20
-1157.1382181187137
 30
0.0
 41
0.9995389229603279
 10
198.82252114127581
 20
-1157.1382181187137
 30
0.0
 41
1.0
 10
212.17019909266477
 20
-1157.1382181187137
 30
0.0
 41
1.0
 10
225.51787704405373
 20
-1157.1382181187137
 30
0.0
 41
1.0
 10
226.61468543718667
 20
-1158.0423735405955
 30
0.0
 41
1.0000000070607997
 10
227.71162963251172
 20
-1158.9463641680732
 30
0.0
 41
1.0
 10
233.59047788499834
 20
-1163.7911172040594
 30
0.0
 41
1.0
 10
239.46932613748498
 20
-1168.6358702400457
 30
0.0
 41
1.0
 10
252.32387665479914
 20
-1179.2292926197886
 30
0.0
 41
0.9999990665734678
 10
265.20732719259911
 20
-1189.7875485832315
 30
0.0
 41
1.0
 10
278.09068754033598
 20
-1200.3457302211336
 30
0.0
 41
1.0
 10
279.18970864127584
 20
-1201.2464646464914
 30
0.0
 41
1.0
 10
279.17868433572028
 20
-1201.2464646464914
 30
0.0
 41
1.0
 10
279.16766003016477
 20
-1201.2464646464914
 30
0.0
 41
1.0
 10
279.49177383450331
 20
-1201.5137553646628
 30
0.0
 41
0.9999279474771788
 10
279.8093774907004
 20
-1201.7887499168835
 30
0.0
 41
1.0
 10
280.36413888362983
 20
-1202.2690855737978
 30
0.0
 41
1.0
 10
280.91890027655933
 20
-1202.7494212307122
 30
0.0
 41
1.0
 10
282.34602671861711
 20
-1203.985087096763
 30
0.0
 41
0.9955117174214289
 10
283.51475620476361
 20
-1205.4675281250513
 30
0.0
 41
1.0
 10
283.96796658575067
 20
-1206.0423896915518
 30
0.0
 41
1.0
 10
284.42117696673779
 20
-1206.6172512580522
 30
0.0
 41
1.0
 10
285.4523031938578
 20
-1207.9251534223649
 30
0.0
 41
0.9988761934660291
 10
286.3549583919098
 20
-1209.3248115810209
 30
0.0
 41
1.0
 10
287.25761358996181
 20
-1210.7244697396768
 30
0.0
 41
0.998875536335904
 10
288.02364603868176
 20
-1212.203328642742
 30
0.0
 41
1.0
 10
288.02403857700335
 20
-1212.2040864550158
 30
0.0
 41
1.0
 10
288.024431115325
 20
-1212.2048442672894
 30
0.0
 41
1.0
 10
288.79124864068763
 20
-1213.6852187949005
 30
0.0
 41
0.9988668420139036
 10
289.4138430960088
 20
-1215.2317937214443
 30
0.0
 41
1.0
 10
289.53151231618699
 20
-1215.524093570886
 30
0.0
 41
1.0
 10
289.64918153636523
 20
-1215.8163934203276
 30
0.0
 41
1.0
 10
290.04061524079867
 20
-1216.7887463661443
 30
0.0
 41
0.998854334939617
 10
290.33730057844969
 20
-1217.7940664179839
 30
0.0
 41
1.0
 10
290.42618769289533
 20
-1218.0952609401327
 30
0.0
 41
1.0
 10
290.51507480734097
 20
-1218.3964554622814
 30
0.0
 41
1.0
 10
290.63398591609922
 20
-1218.7993864698178
 30
0.0
 41
0.9999278158593211
 10
290.74318086349808
 20
-1219.2050583964913
 30
0.0
 41
1.0
 10
293.39177027322023
 20
-1229.085592250658
 30
0.0
 41
1.0
 10
296.04035968294244
 20
-1238.9661261048245
 30
0.0
 41
1.0
 10
296.04761171665274
 20
-1238.9907199582765
 30
0.0
 41
0.9997461736392506
 10
296.05596429225653
 20
-1239.0149621549861
 30
0.0
 41
1.0
 10
296.07454556631876
 20
-1239.0688917357877
 30
0.0
 41
1.0
 10
296.09312684038093
 20
-1239.1228213165894
 30
0.0
 41
1.0
 10
296.13864196410924
 20
-1239.254922674902
 30
0.0
 41
0.9730175435118361
 10
296.23862587289176
 20
-1239.3525219235707
 30
0.0
 41
1.0
 10
296.28719470538113
 20
-1239.3999323680853
 30
0.0
 41
1.0
 10
296.33576353787043
 20
-1239.4473428125998
 30
0.0
 41
1.0
 10
296.45922831642207
 20
-1239.5678629019865
 30
0.0
 41
0.9812289831570641
 10
296.61912101544897
 20
-1239.632693205753
 30
0.0
 41
1.0
 10
296.64622638042863
 20
-1239.6436833826406
 30
0.0
 41
1.0
 10
296.67333174540829
 20
-1239.6546735595282
 30
0.0
 41
1.0
 10
296.77901371447609
 20
-1239.6975235095197
 30
0.0
 41
0.987079962942458
 10
296.89282345349886
 20
-1239.7047443199933
 30
0.0
 41
1.0
 10
297.00663319252556
 20
-1239.7119651304672
 30
0.0
 41
0.9999840079384368
 10
297.12035397915599
 20
-1239.7204727440737
 30
0.0
 41
1.0
 10
297.16358342097078
 20
-1239.7237068000304
 30
0.0
 41
1.0
 10
297.20681286278563
 20
-1239.7269408559869
 30
0.0
 41
1.0
 10
297.40699253304945
 20
-1239.741916581507
 30
0.0
 41
0.9865340231025205
 10
297.59162956394368
 20
-1239.8206905592176
 30
0.0
 41
1.0
 10
297.62107039251987
 20
-1239.8332512636593
 30
0.0
 41
1.0
 10
297.65051122109611
 20
-1239.8458119681009
 30
0.0
 41
1.0
 10
297.89402990914249
 20
-1239.9497073546945
 30
0.0
 41
0.9944476617637508
 10
298.1104103165793
 20
-1240.1022692177564
 30
0.0
 41
1.0
 10
298.13061586824858
 20
-1240.116515408728
 30
0.0
 41
1.0
 10
298.15082141991786
 20
-1240.1307615996998
 30
0.0
 41
1.0
 10
298.40761293069312
 20
-1240.3118158447051
 30
0.0
 41
0.979051718178385
 10
298.57092742763541
 20
-1240.5802388219799
 30
0.0
 41
1.0
 10
298.62966160434149
 20
-1240.6767740523142
 30
0.0
 41
1.0
 10
298.68839578104757
 20
-1240.7733092826484
 30
0.0
 41
1.0
 10
298.79282076456968
 20
-1240.9449417188605
 30
0.0
 41
0.986350946180438
 10
298.83583406080959
 20
-1241.1411867867985
 30
0.0
 41
1.0
 10
298.84132324666945
 20
-1241.166230802165
 30
0.0
 41
1.0
 10
298.8468124325293
 20
-1241.1912748175314
 30
0.0
 41
1.0
 10
298.87884735705131
 20
-1241.3374318547453
 30
0.0
 41
0.9999906015449741
 10
298.91214840204532
 20
-1241.4833056231571
 30
0.0
 41
1.0
 10
298.94544944704114
 20
-1241.6291793915775
 30
0.0
 41
0.9761394603736858
 10
299.03744987487664
 20
-1241.7471795491583
 30
0.0
 41
1.0
 10
299.05801353631648
 20
-1241.7735545927035
 30
0.0
 41
1.0
 10
299.07857719775632
 20
-1241.7999296362486
 30
0.0
 41
1.0
 10
299.21170494847172
 20
-1241.9706798809198
 30
0.0
 41
0.9783787329312355
 10
299.40254608362068
 20
-1242.072945736418
 30
0.0
 41
1.0
 10
299.44465501338181
 20
-1242.0955106080992
 30
0.0
 41
1.0
 10
299.48676394314293
 20
-1242.1180754797804
 30
0.0
 41
1.0
 10
299.59595690059558
 20
-1242.1765886048443
 30
0.0
 41
0.9764615027821743
 10
299.71963735274574
 20
-1242.1836620423344
 30
0.0
 41
1.0
 10
299.76750637962539
 20
-1242.1863997309783
 30
0.0
 41
1.0
 10
299.81537540650504
 20
-1242.1891374196225
 30
0.0
 41
1.0
 10
299.84331780489651
 20
-1242.1907354798245
 30
0.0
 41
0.999592062406259
 10
299.87130586349804
 20
-1242.1907354798245
 30
0.0
 41
1.0
 10
299.89886662738689
 20
-1242.1907354798245
 30
0.0
 41
1.0
 10
299.92642739127575
 20
-1242.1907354798245
 30
0.0
 41
1.0
 10
366.78608450933132
 20
-1242.1907354798245
 30
0.0
 41
1.0
 10
433.64574162738683
 20
-1242.1907354798245
 30
0.0
 41
1.0
 10
433.57683971766465
 20
-1242.1907354798245
 30
0.0
 41
1.0
 10
433.50793780794248
 20
-1242.1907354798245
 30
0.0
 41
1.0
  0
LWPOLYLINE
  5
188
100
AcDbEntity
  8
0
370
              15
390
0
  6
Continuous
 62
               7
100
AcDbPolyline
 90
        4
 70
             128
 10
641.66887502002828
 20
-1157.1382177992691
 10
433.50793802002835
 20
-1157.1382177992691
 10
433.64574202002837
 20
-1157.1382177992691
 10
225.51787702002846
 20
-1157.1382177992691
  0
ENDBLK
  5
189
100
AcDbEntity
  8
GAR70-0206
390
0
100
AcDbBlockEnd
  0
BLOCK
  5
18A
100
AcDbEntity
  8
GAR70-0206
390
0
100
AcDbBlockBegin
  2
*D26
 70
               1
 10
0.0
 20
0.0
 30
0.0
  3
*D26
  1

  0
LINE
  5
18B
100
AcDbEntity
  8
0
370
              -2
390
0
  6
Continuous
 62
               0
100
AcDbLine
 10
-287.77521487845479
 20
724.93857832810704
 30
0.0
 11
-280.0
 21
760.0
 31
0.0
  0
CIRCLE
  5
18C
102
{ACAD_REACTORS
330
18D
102
}
100
AcDbEntity
  8
0
370
              -2
390
0
  6
Continuous
 62
               0
100
AcDbCircle
 10
-287.77521487845479
 20
724.93857832810704
 30
0.0
 40
1.9998779296875
  0
HATCH
  5
18D
100
AcDbEntity
  8
0
370
              -2
390
0
  6
Continuous
 62
               0
100
AcDbHatch
 10
0.0
 20
0.0
 30
0.0
210
0.0
220
0.0
230
1.0
  2
SOLID
 70
               1
 71
               1
 91
        1
 92
        1
 93
        1
 72
               2
 10
-287.77521487845479
 20
724.93857832810704
 40
1.9998779296875
 50
0.0
 51
360.0
 73
               0
 97
        1
330
18C
 75
               0
 76
               1
 98
        1
 10
0.0
 20
0.0
  0
LINE
  5
18E
100
AcDbEntity
  8
0
370
              -2
390
0
  6
Continuous
 62
               0
100
AcDbLine
 10
-280.0
 20
760.0
 30
0.0
 11
-196.49999999999997
 21
760.0
 31
0.0
  0
MTEXT
  5
18F
100
AcDbEntity
  8
0
390
0
 62
               0
100
AcDbMText
 10
-260.0
 20
793.87761718750005
 30
0.0
 40
24.432617187500004
 41
0.0
 71
               1
 72
               1
  1
φ35
  7
ＭＳ ゴシック
 73
               1
 44
0.7828267384257843
  0
POINT
  5
190
100
AcDbEntity
  8
Defpoints
370
               0
390
0
 62
               0
100
AcDbPoint
 10
-295.35272376912178
 20
690.76868867343183
 30
0.0
  0
POINT
  5
191
100
AcDbEntity
  8
Defpoints
370
               0
390
0
 62
               0
100
AcDbPoint
 10
-287.77521487845479
 20
724.93857832810704
 30
0.0
  0
ENDBLK
  5
192
100
AcDbEntity
  8
GAR70-0206
390
0
100
AcDbBlockEnd
  0
ENDSEC
  0
SECTION
  2
ENTITIES
  0
MTEXT
  5
193
100
AcDbEntity
  8
template
390
0
 62
               7
100
AcDbMText
 10
-967.99999999975921
 20
-1147.4176292337004
 30
0.0
 40
16.288411458333332
 41
0.0
 71
               1
 72
               1
  1
品名
  7
ＭＳ ゴシック
 73
               1
 44
0.7828267384257843
  0
MTEXT
  5
194
100
AcDbEntity
  8
template
390
0
 62
               7
100
AcDbMText
 10
-967.99999999975921
 20
-1232.4176292337004
 30
0.0
 40
16.288411458333332
 41
0.0
 71
               1
 72
               1
  1
仕様
  7
ＭＳ ゴシック
 73
               1
 44
0.7828267384257843
  0
LINE
  5
195
100
AcDbEntity
  8
template
370
               5
390
0
  6
Continuous
 62
               7
100
AcDbLine
 10
974.99999999975876
 20
-1224.0027073587005
 30
0.0
 11
-975.00000000024124
 21
-1224.0027073587005
 31
0.0
  0
LWPOLYLINE
  5
196
100
AcDbEntity
  8
template
370
               5
390
0
  6
Continuous
 62
               7
100
AcDbPolyline
 90
        5
 70
             128
 10
975.00000000024124
 20
1405.9972926412995
 10
-974.99999999975921
 20
1405.9972926412995
 10
-974.99999999975921
 20
-1394.0027073587007
 10
975.00000000024124
 20
-1394.0027073587007
 10
975.00000000024124
 20
1405.9972926412995
  0
LINE
  5
197
100
AcDbEntity
  8
template
370
               5
390
0
  6
Continuous
 62
               7
100
AcDbLine
 10
974.99999999975876
 20
-1139.0027073587005
 30
0.0
 11
-975.00000000024124
 21
-1139.0027073587005
 31
0.0
  0
LINE
  5
198
100
AcDbEntity
  8
template
370
               5
390
0
  6
Continuous
 62
               7
100
AcDbLine
 10
975.00000000024124
 20
-1309.0027073587005
 30
0.0
 11
222.00000000024124
 21
-1309.0027073587005
 31
0.0
  0
MTEXT
  5
199
100
AcDbEntity
  8
template
390
0
 62
               7
100
AcDbMText
 10
251.87140625250089
 20
-1338.9131018320081
 30
0.0
 40
24.432617187500004
 41
0.0
 71
               1
 72
               1
  1
大洋金物株式会社 ティーフォルム事業部
  7
ＭＳ ゴシック
 73
               1
 44
0.7828267384257843
  0
INSERT
  5
19A
100
AcDbEntity
  8
template
390
0
 62
               7
100
AcDbBlockReference
  2
グループ
 10
0.0986828834565756
 20
698.39362586219886
 30
0.0
  0
MTEXT
  5
19B
100
AcDbEntity
  8
template
390
0
 62
               7
100
AcDbMText
 10
784.00000000049999
 20
-1261.0000901712006
 30
0.0
 40
24.432617187500004
 41
0.0
 71
               1
 72
               1
  1
1:10
  7
ＭＳ ゴシック
 73
               1
 44
0.7828267384257843
  0
MTEXT
  5
19C
100
AcDbEntity
  8
template
390
0
 62
               7
100
AcDbMText
 10
731.00000000049999
 20
-1232.4176292337004
 30
0.0
 40
16.288411458333332
 41
0.0
 71
               1
 72
               1
  1
縮尺
  7
ＭＳ ゴシック
 73
               1
 44
0.7828267384257843
  0
LINE
  5
19D
100
AcDbEntity
  8
template
370
               5
390
0
  6
Continuous
 62
               7
100
AcDbLine
 10
724.00000000049999
 20
-1309.0027073587005
 30
0.0
 11
724.00000000049999
 21
-1224.0027073587005
 31
0.0
  0
MTEXT
  5
19E
100
AcDbEntity
  8
template
390
0
 62
               7
100
AcDbMText
 10
480.00000000049999
 20
-1232.4176292337004
 30
0.0
 40
16.288411458333332
 41
0.0
 71
               1
 72
               1
  1
容量
  7
ＭＳ ゴシック
 73
               1
 44
0.7828267384257843
  0
MTEXT
  5
19F
100
AcDbEntity
  8
template
390
0
 62
               7
100
AcDbMText
 10
533.00000000049999
 20
-1261.0000901712006
 30
0.0
 40
24.432617187500004
 41
0.0
 71
               1
 72
               1
  1
11.5L
  7
ＭＳ ゴシック
 73
               1
 44
0.7828267384257843
  0
LINE
  5
1A0
100
AcDbEntity
  8
template
370
               5
390
0
  6
Continuous
 62
               7
100
AcDbLine
 10
473.00000000049999
 20
-1309.0027073587005
 30
0.0
 11
473.00000000049999
 21
-1224.0027073587005
 31
0.0
  0
MTEXT
  5
1A1
100
AcDbEntity
  8
template
390
0
 62
               7
100
AcDbMText
 10
229.00000000049999
 20
-1147.4176292337004
 30
0.0
 40
16.288411458333332
 41
0.0
 71
               1
 72
               1
  1
品番
  7
ＭＳ ゴシック
 73
               1
 44
0.7828267384257843
  0
MTEXT
  5
1A2
100
AcDbEntity
  8
template
390
0
 62
               7
100
AcDbMText
 10
229.00000000049999
 20
-1232.4176292337004
 30
0.0
 40
16.288411458333332
 41
0.0
 71
               1
 72
               1
  1
重量
  7
ＭＳ ゴシック
 73
               1
 44
0.7828267384257843
  0
MTEXT
  5
1A3
100
AcDbEntity
  8
template
390
0
 62
               7
100
AcDbMText
 10
282.00000000049999
 20
-1176.0000901712006
 30
0.0
 40
24.432617187500004
 41
0.0
 71
               1
 72
               1
  1
GAR70-0206
  7
ＭＳ ゴシック
 73
               1
 44
0.7828267384257843
  0
MTEXT
  5
1A4
100
AcDbEntity
  8
template
390
0
 62
               7
100
AcDbMText
 10
282.00000000049999
 20
-1261.0000901712006
 30
0.0
 40
24.432617187500004
 41
0.0
 71
               1
 72
               1
  1
15kg
  7
ＭＳ ゴシック
 73
               1
 44
0.7828267384257843
  0
LINE
  5
1A5
100
AcDbEntity
  8
template
370
               5
390
0
  6
Continuous
 62
               7
100
AcDbLine
 10
222.00000000049999
 20
-1394.0027073587007
 30
0.0
 11
222.00000000049999
 21
-1139.0027073587005
 31
0.0
  0
MTEXT
  5
1A6
100
AcDbEntity
  8
template
390
0
 62
               7
100
AcDbMText
 10
-914.99999999975921
 20
-1176.0000901712003
 30
0.0
 40
24.432617187500004
 41
0.0
 71
               1
 72
               1
  1
洗面器 -Laufen,Palomba-
  7
ＭＳ ゴシック
 73
               1
 44
0.7828267384257843
  0
MTEXT
  5
1A7
100
AcDbEntity
  8
template
390
0
 62
               7
100
AcDbMText
 10
-914.99999999975921
 20
-1261.0000901712003
 30
0.0
 40
24.432617187500004
 41
0.0
 71
               1
 72
               1
  1
カウンタートップ,半埋め込み/オーバーフローなし/カウンタ ー固定金具,\P型紙付属/陶器/ホワイト
  7
ＭＳ ゴシック
 73
               1
 44
1.1307497332816883
  0
MTEXT
  5
1A8
100
AcDbEntity
  8
template
390
0
 62
               7
100
AcDbMText
 10
-974.99999999955594
 20
-1405.8565294155574
 30
0.0
 40
21.717881944444446
 41
0.0
 71
               1
 72
               1
  1
100710SH
  7
ＭＳ ゴシック
 73
               1
 44
0.7828267384257843
  0
DIMENSION
  5
1A9
100
AcDbEntity
  8
notes
370
               5
390
0
  6
Continuous
 62
               7
100
AcDbDimension
  2
*D2
 10
-761.47093831120299
 20
967.85895989008975
 30
0.0
 11
-471.47093831120299
 21
967.85895989008975
 31
0.0
 71
               5
 72
               1
 41
1.0
 42
0.0
  3
tfrom線あり
100
AcDbAlignedDimension
 13
-181.47093831120287
 23
761.85895989008975
 33
0.0
 14
-761.47093831120299
 24
761.85895989008975
 34
0.0
100
AcDbRotatedDimension
1001
ACAD
1000
DSTYLE
1002
{
1070
             279
1070
               2
1070
             340
1005
3D
1070
             147
1040
5.0
1002
}
  0
DIMENSION
  5
1AA
100
AcDbEntity
  8
notes
370
               5
390
0
  6
Continuous
 62
               7
100
AcDbDimension
  2
*D3
 10
-861.47093831120299
 20
815.13515745417533
 30
0.0
 11
-861.47093831120299
 21
627.83261987886203
 31
0.0
 71
               5
 72
               1
 41
1.0
 42
0.0
  1
380
  3
tfrom線あり
100
AcDbAlignedDimension
 13
-732.43846697352183
 23
440.53008230354885
 33
0.0
 14
-732.43846697352183
 24
815.13515745417533
 34
0.0
 50
90.0
100
AcDbRotatedDimension
1001
ACAD
1000
DSTYLE
1002
{
1070
             279
1070
               2
1070
             340
1005
3D
1070
             147
1040
5.0
1002
}
  0
DIMENSION
  5
1AB
100
AcDbEntity
  8
notes
370
               5
390
0
  6
Continuous
 62
               7
100
AcDbDimension
  2
*D4
 10
-27.830838850554557
 20
867.85895989008986
 30
0.0
 11
-27.830838850554557
 21
627.85895989008975
 31
0.0
 71
               5
 72
               1
 41
1.0
 42
0.0
  3
tfrom線あり
100
AcDbAlignedDimension
 13
-284.20800945646783
 23
387.85895989008964
 33
0.0
 14
-289.09629359199255
 24
867.85895989008986
 34
0.0
 50
90.0
100
AcDbRotatedDimension
1001
ACAD
1000
DSTYLE
1002
{
1070
             279
1070
               2
1070
             340
1005
3D
1070
             147
1040
5.0
1002
}
  0
DIMENSION
  5
1AC
100
AcDbEntity
  8
notes
370
               5
390
0
  6
Continuous
 62
               7
100
AcDbDimension
  2
*D5
 10
-289.45742640332321
 20
-283.79710961762578
 30
0.0
 11
-234.45742640332315
 21
-283.79710961762578
 31
0.0
 71
               5
 72
               1
 41
1.0
 42
0.0
  3
tfrom線あり
100
AcDbAlignedDimension
 13
-179.45742640332313
 23
-390.07348338516067
 33
0.0
 14
-289.45742640332321
 24
-358.75020663320561
 34
0.0
100
AcDbRotatedDimension
1001
ACAD
1000
DSTYLE
1002
{
1070
             279
1070
               2
1070
             340
1005
3D
1070
             147
1040
5.0
1002
}
  0
DIMENSION
  5
1AD
100
AcDbEntity
  8
notes
370
               5
390
0
  6
Continuous
 62
               7
100
AcDbDimension
  2
*D6
 10
-230.27643267274593
 20
-693.79721231376107
 30
0.0
 11
-437.77643267274584
 21
-693.79721231376107
 31
0.0
 71
               5
 72
               1
 41
1.0
 42
0.0
  3
tfrom線あり
100
AcDbAlignedDimension
 13
-645.27643267274584
 23
-541.42220997649792
 33
0.0
 14
-230.27643267274593
 24
-541.17679478118316
 34
0.0
100
AcDbRotatedDimension
1001
ACAD
1000
DSTYLE
1002
{
1070
             279
1070
               2
1070
             340
1005
3D
1070
             147
1040
5.0
1002
}
  0
DIMENSION
  5
1AE
100
AcDbEntity
  8
notes
370
               5
390
0
  6
Continuous
 62
               7
100
AcDbDimension
  2
*D7
 10
-78.523161256265411
 20
-383.81415503582434
 30
0.0
 11
-78.523161256265411
 21
-463.80259971824626
 31
0.0
 71
               5
 72
               1
 41
1.0
 42
0.0
  3
tfrom線あり
100
AcDbAlignedDimension
 13
-236.01414498740877
 23
-543.7910444006684
 33
0.0
 14
-188.87213040340072
 24
-383.81415503582434
 34
0.0
 50
90.0
100
AcDbRotatedDimension
1001
ACAD
1000
DSTYLE
1002
{
1070
             279
1070
               2
1070
             340
1005
3D
1070
             147
1040
5.0
1002
}
  0
DIMENSION
  5
1AF
100
AcDbEntity
  8
notes
370
               5
390
0
  6
Continuous
 62
               7
100
AcDbDimension
  2
*D8
 10
773.59718127949748
 20
-383.7958509370701
 30
0.0
 11
773.59718127949748
 21
-421.2958509370701
 31
0.0
 71
               5
 72
               1
 41
1.0
 42
0.0
  3
tfrom線あり
100
AcDbAlignedDimension
 13
665.69030124695462
 23
-458.7958509370701
 33
0.0
 14
665.69030124695462
 24
-383.7958509370701
 34
0.0
 50
90.0
100
AcDbRotatedDimension
1001
ACAD
1000
DSTYLE
1002
{
1070
             279
1070
               2
1070
             340
1005
3D
1070
             147
1040
5.0
1002
}
  0
DIMENSION
  5
1B0
100
AcDbEntity
  8
notes
370
               5
390
0
  6
Continuous
 62
               7
100
AcDbDimension
  2
*D9
 10
773.59718127949748
 20
-458.7958509370701
 30
0.0
 11
773.59718127949748
 21
-501.2958509370701
 31
0.0
 71
               5
 72
               1
 41
1.0
 42
0.0
  3
tfrom線あり
100
AcDbAlignedDimension
 13
640.67276652473231
 23
-543.7958509370701
 33
0.0
 14
689.74753940585049
 24
-458.7958509370701
 34
0.0
 50
90.0
100
AcDbRotatedDimension
1001
ACAD
1000
DSTYLE
1002
{
1070
             279
1070
               2
1070
             340
1005
3D
1070
             147
1040
5.0
1002
}
  0
MTEXT
  5
1B1
100
AcDbEntity
  8
notes
390
0
 62
               7
100
AcDbMText
 10
-859.07481013912627
 20
-812.57334060505241
 30
0.0
 40
24.432617187500004
 41
0.0
 71
               1
 72
               1
  1
半埋込置きカウンター面
  7
ＭＳ ゴシック
 73
               1
 44
0.7828267384257843
  0
MTEXT
  5
1B2
100
AcDbEntity
  8
notes
390
0
 62
               7
100
AcDbMText
 10
-812.07481013912627
 20
-746.57334060505241
 30
0.0
 40
24.432617187500004
 41
0.0
 71
               1
 72
               1
  1
カウンタートップ置きカウンター面
  7
ＭＳ ゴシック
 73
               1
 44
0.7828267384257843
  0
LINE
  5
1B3
100
AcDbEntity
  8
notes
370
               5
390
0
  6
Continuous
 62
               7
100
AcDbLine
 10
-687.63314347245966
 20
-543.79710961762567
 30
0.0
 11
-814.33314347245948
 21
-543.79710961762567
 31
0.0
  0
LINE
  5
1B4
100
AcDbEntity
  8
notes
370
               5
390
0
  6
Continuous
 62
               7
100
AcDbLine
 10
-787.63314347245966
 20
-458.73418008833369
 30
0.0
 11
-864.33314347245948
 21
-458.73418008833369
 31
0.0
  0
LINE
  5
1B5
100
AcDbEntity
  8
notes
370
               5
390
0
  6
Continuous
 62
               7
100
AcDbLine
 10
-839.33314347245948
 20
-458.73418008833369
 30
0.0
 11
-839.33314347245948
 21
-809.79710961762567
 31
0.0
  0
LINE
  5
1B6
100
AcDbEntity
  8
notes
370
               5
390
0
  6
Continuous
 62
               7
100
AcDbLine
 10
-789.33314347245948
 20
-543.79710961762567
 30
0.0
 11
-789.33314347245948
 21
-743.79710961762567
 31
0.0
  0
DIMENSION
  5
1B7
100
AcDbEntity
  8
notes
370
               5
390
0
  6
Continuous
 62
               7
100
AcDbDimension
  2
*D10
 10
-181.41202072393889
 20
-643.79721231376129
 30
0.0
 11
-351.43188597227117
 21
-643.79721231376129
 31
0.0
 71
               5
 72
               1
 41
1.0
 42
0.0
  3
tfrom線あり
100
AcDbAlignedDimension
 13
-521.45175122060346
 23
-543.79721231376107
 33
0.0
 14
-181.41202072393889
 24
-391.46436410525439
 34
0.0
100
AcDbRotatedDimension
1001
ACAD
1000
DSTYLE
1002
{
1070
             279
1070
               2
1070
             340
1005
3D
1070
             147
1040
5.0
1002
}
  0
DIMENSION
  5
1B8
100
AcDbEntity
  8
notes
370
               5
390
0
  6
Continuous
 62
               7
100
AcDbDimension
  2
*D11
 10
95.107717636386184
 20
-383.7958509370701
 30
0.0
 11
95.107717636386184
 21
-448.79791256901467
 31
0.0
 71
               5
 72
               1
 41
1.0
 42
0.0
  3
tfrom線あり
100
AcDbAlignedDimension
 13
401.74637763584337
 23
-513.79997420095924
 33
0.0
 14
418.67276652473231
 24
-383.7958509370701
 34
0.0
 50
90.0
100
AcDbRotatedDimension
1001
ACAD
1000
DSTYLE
1002
{
1070
             279
1070
               2
1070
             340
1005
3D
1070
             147
1040
5.0
1002
}
  0
DIMENSION
  5
1B9
100
AcDbEntity
  8
notes
370
               5
390
0
  6
Continuous
 62
               7
100
AcDbDimension
  2
*D12
 10
144.1970292038977
 20
293.3062098446452
 30
0.0
 11
424.19702920389773
 21
293.3062098446452
 31
0.0
 71
               5
 72
               1
 41
1.0
 42
0.0
  3
tfrom線あり
100
AcDbAlignedDimension
 13
704.19702920389773
 23
627.43533723366897
 33
0.0
 14
144.1970292038977
 24
627.43533723366897
 34
0.0
100
AcDbRotatedDimension
1001
ACAD
1000
DSTYLE
1002
{
1070
             279
1070
               2
1070
             340
1005
3D
1070
             147
1040
5.0
1002
}
  0
DIMENSION
  5
1BA
100
AcDbEntity
  8
notes
370
               5
390
0
  6
Continuous
 62
               7
100
AcDbDimension
  2
*D13
 10
802.08795313407609
 20
857.88371487155791
 30
0.0
 11
802.08795313407609
 21
627.8837148715578
 31
0.0
 71
               5
 72
               1
 41
1.0
 42
0.0
  3
tfrom線あり
100
AcDbAlignedDimension
 13
453.50017479743167
 23
397.88371487155769
 33
0.0
 14
453.50017479743167
 24
857.88371487155791
 34
0.0
 50
90.0
100
AcDbRotatedDimension
1001
ACAD
1000
DSTYLE
1002
{
1070
             279
1070
               2
1070
             340
1005
3D
1070
             147
1040
5.0
1002
}
  0
DIMENSION
  5
1BB
100
AcDbEntity
  8
notes
370
               5
390
0
  6
Continuous
 62
               7
100
AcDbDimension
  2
*D14
 10
-82.440671062704638
 20
547.85363350076966
 30
0.0
 11
-82.440671062704638
 21
587.85363350076966
 31
0.0
 71
               5
 72
               1
 41
1.0
 42
0.0
  3
tfrom線あり
100
AcDbAlignedDimension
 13
-291.56396932378823
 23
627.85363350076966
 33
0.0
 14
-291.56396932378823
 24
547.85363350076966
 34
0.0
 50
90.0
100
AcDbRotatedDimension
1001
ACAD
1000
DSTYLE
1002
{
1070
             279
1070
               2
1070
             340
1005
3D
1070
             147
1040
5.0
1002
}
  0
DIMENSION
  5
1BC
100
AcDbEntity
  8
notes
370
               5
390
0
  6
Continuous
 62
               7
100
AcDbDimension
  2
*D15
 10
-82.440671062704638
 20
627.85363350076966
 30
0.0
 11
-82.440671062704638
 21
667.85363350076955
 31
0.0
 71
               5
 72
               1
 41
1.0
 42
0.0
  3
tfrom線あり
100
AcDbAlignedDimension
 13
-291.56396932378823
 23
707.85363350076955
 33
0.0
 14
-291.56396932378823
 24
627.85363350076966
 34
0.0
 50
90.0
100
AcDbRotatedDimension
1001
ACAD
1000
DSTYLE
1002
{
1070
             279
1070
               2
1070
             340
1005
3D
1070
             147
1040
5.0
1002
}
  0
MTEXT
  5
1BD
100
AcDbEntity
  8
notes
390
0
 62
               7
100
AcDbMText
 10
50.357270715944999
 20
128.28069033930444
 30
0.0
 40
24.432617187500004
 41
900.0
 71
               1
 72
               1
  1
※陶器製品には寸法公差があります。\P  洗面器の収め方をご確認の上、必ず現物を合わせて\P  固定金具の穴あけ、カウンターの切込を行ってください。
  7
ＭＳ ゴシック
 73
               1
 44
1.0437689845677123
  0
MTEXT
  5
1BE
100
AcDbEntity
  8
notes
390
0
 62
               7
100
AcDbMText
 10
328.67994094857534
 20
1199.5555382884224
 30
0.0
 40
24.432617187500004
 41
0.0
 71
               1
 72
               1
  1
カウンター切込寸法
  7
ＭＳ ゴシック
 73
               1
 44
0.7828267384257843
  0
MTEXT
  5
1BF
100
AcDbEntity
  8
notes
390
0
 62
               7
100
AcDbMText
 10
246.76785615400135
 20
1087.6374477604361
 30
0.0
 40
24.432617187500004
 41
0.0
 71
               1
 72
               1
  1
半埋込置き
  7
ＭＳ ゴシック
 73
               1
 44
0.7828267384257843
  0
LINE
  5
1C0
100
AcDbEntity
  8
notes
370
               5
390
0
  6
Continuous
 62
               7
100
AcDbLine
 10
265.17276652473242
 20
854.57538114688737
 30
0.0
 11
265.17276652473242
 21
1040.0
 31
0.0
  0
MTEXT
  5
1C1
100
AcDbEntity
  8
notes
390
0
 62
               7
100
AcDbMText
 10
-852.54776805320034
 20
128.28069033930444
 30
0.0
 40
24.432617187500004
 41
850.22614232540479
 71
               1
 72
               1
  1
＝φ30もしくはφ35の水栓取付用穴あけ加工を承ります。\P   必要な場合、ご注文の際にご指示ください。
  7
ＭＳ ゴシック
 73
               1
 44
1.0437689845677123
  0
CIRCLE
  5
1C2
100
AcDbEntity
  8
notes
370
               5
390
0
  6
STYLE_12
 62
               7
100
AcDbCircle
 10
-882.91563649538045
 20
115.34071877985855
 30
0.0
 40
17.500000000000075
  0
DIMENSION
  5
1C3
100
AcDbEntity
  8
notes
370
               5
390
0
  6
Continuous
 62
               7
100
AcDbDimension
  2
*D16
 10
-181.56408461747174
 20
288.30620984464525
 30
0.0
 11
-256.56408461747162
 21
288.30620984464525
 31
0.0
 71
               5
 72
               1
 41
1.0
 42
0.0
  3
tfrom線あり
100
AcDbAlignedDimension
 13
-331.56408461747162
 23
390.59857870812402
 33
0.0
 14
-181.56408461747174
 24
504.20289038237473
 34
0.0
100
AcDbRotatedDimension
1001
ACAD
1000
DSTYLE
1002
{
1070
             279
1070
               2
1070
             340
1005
3D
1070
             147
1040
5.0
1002
}
  0
DIMENSION
  5
1C4
100
AcDbEntity
  8
notes
370
               5
390
0
  6
Continuous
 62
               7
100
AcDbDimension
  2
*D17
 10
193.67276652473237
 20
735.00765655985651
 30
0.0
 11
193.67276652473237
 21
627.50765655985651
 31
0.0
 71
               5
 72
               1
 41
1.0
 42
0.0
  3
tfrom線あり
100
AcDbAlignedDimension
 13
446.73400729743196
 23
520.00765655985651
 33
0.0
 14
446.73400729743196
 24
735.00765655985651
 34
0.0
 50
90.0
100
AcDbRotatedDimension
1001
ACAD
1000
DSTYLE
1002
{
1070
             279
1070
               2
1070
             340
1005
3D
1070
             147
1040
5.0
1002
}
  0
DIMENSION
  5
1C5
100
AcDbEntity
  8
notes
370
               5
390
0
  6
Continuous
 62
               7
100
AcDbDimension
  2
*D18
 10
-331.56408461747162
 20
288.30620984464508
 30
0.0
 11
-521.56408461747174
 21
288.30620984464508
 31
0.0
 71
               5
 72
               1
 41
1.0
 42
0.0
  3
tfrom線あり
100
AcDbAlignedDimension
 13
-711.56408461747185
 23
417.81481354560594
 33
0.0
 14
-331.56408461747162
 24
390.59857870812402
 34
0.0
100
AcDbRotatedDimension
1001
ACAD
1000
DSTYLE
1002
{
1070
             279
1070
               2
1070
             340
1005
3D
1070
             147
1040
5.0
1002
}
  0
MTEXT
  5
1C6
100
AcDbEntity
  8
notes
390
0
 62
               7
100
AcDbMText
 10
335.98044411902106
 20
1011.0026171874999
 30
0.0
 40
24.432617187500004
 41
0.0
 71
               1
 72
               1
  1
カウンタートップ置き
  7
ＭＳ ゴシック
 73
               1
 44
0.7828267384257843
  0
LINE
  5
1C7
100
AcDbEntity
  8
notes
370
               5
390
0
  6
Continuous
 62
               7
100
AcDbLine
 10
358.98044411902129
 20
968.0
 30
0.0
 11
358.98044411902129
 21
695.20289038237468
 31
0.0
  0
DIMENSION
  5
1C8
100
AcDbEntity
  8
notes
370
               5
390
0
  6
Continuous
 62
               7
100
AcDbDimension
  2
*D19
 10
451.83794882922814
 20
524.73920604979412
 30
0.0
 11
582.00000000000136
 21
208.00000000000051
 31
0.0
 70
               3
 71
               5
 72
               1
 41
1.0
 42
0.0
  1
固定金具用穴2ヶ所
  3
tfrom線あり
100
AcDbDiametricDimension
 15
455.12293940881432
 25
515.2941630699188
 35
0.0
 40
325.34967148816025
1001
ACAD
1000
DSTYLE
1002
{
1070
             289
1070
               0
1070
             342
1005
51
1070
             340
1005
3D
1070
              73
1070
               1
1070
              74
1070
               1
1070
              75
1070
               1
1070
              76
1070
               1
1070
             174
1070
               0
1070
             147
1040
5.0
1002
}
  0
DIMENSION
  5
1C9
100
AcDbEntity
  8
notes
370
               5
390
0
  6
Continuous
 62
               7
100
AcDbDimension
  2
*D20
 10
662.0
 20
898.0
 30
0.0
 11
692.79999999999961
 21
903.0
 31
0.0
 70
             128
 71
               5
 72
               1
 41
1.0
 42
0.0
  3
tfrom線あり
100
AcDbAlignedDimension
 13
712.0
 23
731.0
 33
0.0
 14
662.0
 24
731.0
 34
0.0
100
AcDbRotatedDimension
1001
ACAD
1000
DSTYLE
1002
{
1070
             279
1070
               2
1070
             340
1005
3D
1070
             147
1040
5.0
1002
}
  0
DIMENSION
  5
1CA
100
AcDbEntity
  8
notes
370
               5
390
0
  6
Continuous
 62
               7
100
AcDbDimension
  2
*D21
 10
332.0
 20
898.0
 30
0.0
 11
497.0
 21
898.0
 31
0.0
 71
               5
 72
               1
 41
1.0
 42
0.0
  3
tfrom線あり
100
AcDbAlignedDimension
 13
662.0
 23
735.00765655985651
 33
0.0
 14
332.0
 24
735.00765655985651
 34
0.0
100
AcDbRotatedDimension
1001
ACAD
1000
DSTYLE
1002
{
1070
             279
1070
               2
1070
             340
1005
3D
1070
             147
1040
5.0
1002
}
  0
DIMENSION
  5
1CB
100
AcDbEntity
  8
notes
370
               5
390
0
  6
Continuous
 62
               7
100
AcDbDimension
  2
*D22
 10
98.875
 20
748.82328308352783
 30
0.0
 11
93.875
 21
620.0
 31
0.0
 70
             128
 71
               5
 72
               1
 41
1.0
 42
0.0
  3
tfrom線あり
100
AcDbAlignedDimension
 13
332.0
 23
498.82328308352788
 33
0.0
 14
332.0
 24
748.82328308352783
 34
0.0
 50
90.0
100
AcDbRotatedDimension
1001
ACAD
1000
DSTYLE
1002
{
1070
             279
1070
               2
1070
             340
1005
3D
1070
             147
1040
5.0
1002
}
  0
DIMENSION
  5
1CC
100
AcDbEntity
  8
notes
370
               5
390
0
  6
Continuous
 62
               7
100
AcDbDimension
  2
*D23
 10
-500.0
 20
-383.7959536332055
 30
0.0
 11
-495.0
 21
-370.7959536332055
 31
0.0
 70
             128
 71
               5
 72
               1
 41
1.0
 42
0.0
  3
tfrom線あり
100
AcDbAlignedDimension
 13
-502.51666049839537
 23
-498.7959536332055
 33
0.0
 14
-502.51666049839537
 24
-383.7959536332055
 34
0.0
 50
90.0
100
AcDbRotatedDimension
1001
ACAD
1000
DSTYLE
1002
{
1070
             279
1070
               2
1070
             340
1005
3D
1070
               3
1000
<>(深さ)
1070
             174
1070
               0
1070
             147
1040
5.0
1002
}
  0
LWPOLYLINE
  5
1CD
100
AcDbEntity
  8
GAR70-0206
370
              15
390
0
  6
Continuous
 62
               7
100
AcDbPolyline
 90
      180
 70
             128
 10
-330.9276133540925
 20
627.74457366086904
 42
-0.0002813666156287
 10
-330.93856828171238
 20
623.02533130695394
 10
-330.96238230680308
 20
614.76823832149353
 42
-0.0025113693284336
 10
-331.13026732681737
 20
593.53565940923545
 10
-331.43528144526294
 20
569.94644727837976
 42
-0.0050581280160386
 10
-332.25063771927148
 20
534.57271649572181
 10
-332.75902002596013
 20
519.24800348652843
 42
-0.00043215836992
 10
-332.91954660685542
 20
514.53208603199892
 10
-333.00254382572052
 20
512.39199508081902
 42
-0.006909687730585
 10
-333.09857839005133
 20
510.41108216362079
 10
-333.19030811365985
 20
508.9396811521575
 42
-0.0274119950035508
 10
-333.76551479898205
 20
504.04885225253599
 10
-334.02050900871825
 20
502.57994595834941
 42
-0.0268725472556676
 10
-335.7499382298721
 20
495.04501222474477
 10
-335.75776513823268
 20
495.01772616562505
 42
-0.0262728988641261
 10
-338.25832729590968
 20
487.76186484956452
 10
-338.26494256342085
 20
487.74551225550533
 42
-0.0256984045863057
 10
-341.49000202793468
 20
480.81970822624919
 10
-341.49463011871467
 20
480.81097230364838
 42
-0.0252097931576446
 10
-345.3968687080212
 20
474.2653818012277
 10
-345.39934617416804
 20
474.26166559938463
 42
-0.0248489491030799
 10
-349.93100237350063
 20
468.14573481355939
 42
-0.0246515786697437
 10
-355.04495581494427
 20
462.50743863498667
 42
-0.0246092706998253
 10
-360.6912318789058
 20
457.3974432750004
 42
-0.0247672628814938
 10
-366.81621856945048
 20
452.86705159861651
 10
-366.82214683491316
 20
452.86310522555721
 42
-0.0250726942223928
 10
-373.37951320667355
 20
448.95743386246119
 10
-373.39052614462969
 20
448.95160129072974
 42
-0.0255130202226059
 10
-380.33101520437094
 20
445.71766965261418
 10
-380.34925569353516
 20
445.71027767813553
 42
-0.0260453576440076
 10
-387.62245626950937
 20
443.19506183796483
 10
-387.65106499217757
 20
443.18680841730105
 42
-0.0266131060645513
 10
-395.20581407829479
 20
441.43660481580008
 10
-396.67995066262677
 20
441.17681659786592
 42
-0.0271251463663181
 10
-401.58259549817626
 20
440.5846511118508
 10
-403.0572769679103
 20
440.4872314835664
 42
-0.0068376009174727
 10
-405.0441298006466
 20
440.38324289320485
 10
-407.34038618924842
 20
440.29383961587098
 42
-0.0003317319223456
 10
-412.16570567770816
 20
440.10731959166861
 10
-430.00415240391897
 20
439.42963696273154
 42
-0.0064775210909016
 10
-470.51962323630937
 20
438.41585476364827
 10
-495.18042077232167
 20
438.11838131101217
 42
-0.0060223197657527
 10
-546.59198139924206
 20
438.11748028319187
 10
-553.25543414181266
 20
438.19762528133231
 42
-0.0032727933702168
 10
-591.33547023635219
 20
438.90494928131642
 10
-599.57357887840953
 20
439.11191840454546
 42
-0.0031616139903317
 10
-621.16847303831537
 20
439.79111381118884
 10
-629.55089149767184
 20
440.10782229917061
 42
-0.0003821354883693
 10
-634.37651182082834
 20
440.29383961587098
 10
-636.35737877774272
 20
440.36647977870473
 42
-0.0067526378423463
 10
-638.3400584885544
 20
440.47292170371168
 10
-640.78640854323271
 20
440.6374155928475
 42
-0.0400409743152526
 10
-647.57957145802106
 20
441.64450647714648
 10
-649.98389745053043
 20
442.20041212102456
 42
-0.0261688227445352
 10
-657.36620858101469
 20
444.31957988773496
 10
-657.39274335488835
 20
444.32872416295697
 42
-0.0256621640644748
 10
-664.46458929956668
 20
447.17943785813918
 10
-664.48123593382195
 20
447.18716311540828
 42
-0.0252134996994502
 10
-671.19489610900439
 20
450.72438831747553
 10
-671.2044721241848
 20
450.73006781980473
 42
-0.0248509364084769
 10
-677.51269472352499
 20
454.90842333847354
 10
-677.51683242514355
 20
454.91147015803648
 42
-0.0246152003122875
 10
-683.37378608861275
 20
459.68597125013815
 42
-0.0245192663698782
 10
-688.73371710735341
 20
465.01141827860084
 42
-0.0245757123012683
 10
-693.54536211758762
 20
470.83593838521779
 10
-693.5476443451505
 20
470.83899526371022
 42
-0.0247782548471151
 10
-697.76616682136262
 20
477.1154549387611
 10
-697.77096709425587
 20
477.1234228250446
 42
-0.0251118731495899
 10
-701.35207541360899
 20
483.80497211945914
 10
-701.35894564333364
 20
483.81949769933669
 42
-0.0255438952861434
 10
-704.25817959104859
 20
490.85828048328801
 10
-704.26652559622084
 20
490.88190126734662
 42
-0.0260298890419082
 10
-706.43985462003786
 20
498.22935752249657
 10
-706.66837133147237
 20
499.18151022211327
 42
-0.0265000036727543
 10
-707.73105177463481
 20
504.93777383667361
 10
-707.91881783809947
 20
506.37880469334243
 42
-0.0134104277490577
 10
-708.22183732846702
 20
509.31749694966339
 10
-708.25901095658935
 20
509.80612470655524
 42
-0.0067177257852883
 10
-708.38236530889583
 20
511.77734754914854
 10
-708.52069400700418
 20
514.6829540624999
 42
-0.0006355332624506
 10
-708.72911787423845
 20
519.39082528720337
 10
-709.08339322439622
 20
527.63019418494264
 42
-0.0042921696638091
 10
-709.81245137919552
 20
548.82332672375856
 10
-710.08602902786424
 20
559.42359449288574
 42
-0.003607552389796
 10
-710.69912677742593
 20
592.40374801940902
 10
-710.79291589104434
 20
600.65026742489169
 42
-0.0022596393659495
 10
-710.90594450561343
 20
617.14231657297967
 10
-710.91969335321494
 20
623.03262461786028
 42
-0.0003266557649601
 10
-710.92761335409284
 20
627.74457366086904
 10
-710.92761335409284
 20
627.87309087203653
 42
-0.0003142237729854
 10
-710.91981051090727
 20
632.58504018537644
 10
-710.90635451759738
 20
638.47537462247783
 42
-0.0022608156986007
 10
-710.79410687024756
 20
654.96748036100337
 10
-710.70068834952031
 20
663.21406466267126
 42
-0.0036231880844786
 10
-710.0880410615506
 20
696.19439192843538
 10
-709.8142757062717
 20
706.79473224072649
 42
-0.0043072658788524
 10
-709.08421391023228
 20
727.98761204492951
 10
-708.72930126301276
 20
736.22684713813817
 42
-0.0006160574926897
 10
-708.52069400700418
 20
740.93471047040543
 10
-708.38236530889583
 20
743.85149239342377
 42
-0.0067195942308765
 10
-708.25901021378706
 20
745.82215716408496
 10
-708.22183575302506
 20
746.31065530644264
 42
-0.0134177721883844
 10
-707.91879288398502
 20
749.24852470984786
 10
-707.73088613266714
 20
750.69005994373174
 42
-0.0265103815411354
 10
-706.66775295709397
 20
756.44645825453711
 10
-706.43941935861096
 20
757.39745983172213
 42
-0.026031477380398
 10
-704.26584245796175
 20
764.74316694649349
 10
-704.25753084046266
 20
764.76668299748223
 42
-0.02554449060845
 10
-701.35811994749838
 20
771.8038937706533
 10
-701.35129638326111
 20
771.81831690457636
 42
-0.0251127197184061
 10
-697.77004841517714
 20
778.4984734824061
 10
-697.76526294943642
 20
778.50641490881208
 42
-0.024778074878756
 10
-693.54669924436917
 20
784.7815211706943
 42
-0.0245908328023026
 10
-688.73269435165298
 20
790.60786265112279
 42
-0.0245170364992975
 10
-683.3727063992493
 20
795.9320740277393
 42
-0.0246177590600926
 10
-677.51586576759121
 20
800.70519643021782
 10
-677.51158158663145
 20
800.70835020492484
 42
-0.024857325556468
 10
-671.20323250226897
 20
804.88542943541734
 10
-671.19366793320182
 20
804.89110004654083
 42
-0.0252203654258086
 10
-664.4799400428285
 20
808.42684834596525
 10
-664.46324361000995
 20
808.43459285652773
 42
-0.0256709734079313
 10
-657.39129142125887
 20
811.28364207198922
 10
-657.3647168925944
 20
811.29279334959733
 42
-0.0261609414891059
 10
-649.98237588355073
 20
813.4102953784793
 10
-649.02361478138096
 20
813.63177537701222
 42
-0.026613487362181
 10
-643.23457971116363
 20
814.6482217417946
 10
-641.78729661442594
 20
814.82360823875911
 42
-0.0134550802561054
 10
-638.83121113307516
 20
815.10136724911763
 10
-638.3400570625472
 20
815.13421445447761
 42
-0.0067346678615434
 10
-636.35737877774272
 20
815.24000934453386
 10
-634.37651182082834
 20
815.32382491703436
 42
-0.0003859189462585
 10
-629.55089476288595
 20
815.51050296299445
 10
-621.16844950371967
 20
815.8282968290913
 42
-0.0031967685309052
 10
-599.57344717913531
 20
816.50876815389734
 10
-591.33537934598007
 20
816.71564194651467
 42
-0.0032883064602827
 10
-553.25524947299846
 20
817.42135001571444
 10
-546.59143218126974
 20
817.50100959092174
 42
-0.0059987159246689
 10
-495.17905353064862
 20
817.49875712262588
 10
-470.51847541102609
 20
817.2018022902123
 42
-0.0064833774383237
 10
-430.00376580358591
 20
816.18841242206395
 10
-412.16571397769746
 20
815.51070005665167
 42
-0.0003671885357423
 10
-407.34038618924842
 20
815.32382491703436
 10
-405.0441298006466
 20
815.22883393486711
 42
-0.0068442662484719
 10
-403.05728691949025
 20
815.12568286517876
 10
-401.58187942906443
 20
815.02881807324457
 42
-0.0271573600708267
 10
-396.67773788310444
 20
814.43817551003781
 10
-395.20411444040167
 20
814.17890015345859
 42
-0.0266334501386909
 10
-387.64951874312419
 20
812.43062154413803
 10
-387.62092857401638
 20
812.4223795680897
 42
-0.0260634018489904
 10
-380.34783384311027
 20
809.9085084717932
 10
-380.32967672567895
 20
809.90115291742836
 42
-0.0255291130942351
 10
-373.38921141357162
 20
806.66801308223205
 10
-373.37825004641149
 20
806.66220866878086
 42
-0.0250849872072643
 10
-366.82094652553712
 20
802.7568918150713
 10
-366.81524567988515
 20
802.75309692407518
 42
-0.024778861672099
 10
-360.69006353409372
 20
798.22244638543179
 42
-0.0246379116333757
 10
-355.04384075030237
 20
793.111983142089
 42
-0.0246541106093923
 10
-349.92995961171596
 20
787.47292433314965
 42
-0.0248524707365206
 10
-345.39835849231793
 20
781.35596391461786
 10
-345.39583974220034
 20
781.35218502231544
 42
-0.0252101201345104
 10
-341.49373186352739
 20
774.80541430674668
 10
-341.48904860921186
 20
774.79657223453569
 42
-0.025697655944046
 10
-338.26413374787842
 20
767.86939200605434
 10
-338.25749407878448
 20
767.8529747628404
 42
-0.0262710174536656
 10
-335.75713819362102
 20
760.59564049862695
 10
-335.74930418913311
 20
760.5683210255122
 42
-0.0268699842376656
 10
-334.02015884434979
 20
753.03189194077402
 10
-333.76513685298198
 20
751.56218089900301
 42
-0.027397403350704
 10
-333.19024426242868
 20
746.67213579484212
 10
-333.09857239474331
 20
745.201293336699
 42
-0.0069070426180171
 10
-333.00254382572052
 20
743.22008174725306
 10
-332.91954660685542
 20
741.0911662057398
 42
-0.0004560834229033
 10
-332.75924643417159
 20
736.37454599862235
 10
-332.25235012008523
 20
721.04797665264357
 42
-0.0050195750843165
 10
-331.43773450540436
 20
685.66989327845886
 10
-331.13145319694547
 20
662.0800180932016
 42
-0.0025172877176769
 10
-330.96269578573754
 20
640.84857090152752
 10
-330.93863754251061
 20
632.59174774628787
 42
-0.0002887194753641
 10
-330.9276133540925
 20
627.87309087203653
 10
-330.9276133540925
 20
627.74457366086904
  0
LWPOLYLINE
  5
1CE
100
AcDbEntity
  8
GAR70-0206
370
              15
390
0
  6
Continuous
 62
               7
100
AcDbPolyline
 90
      187
 70
             128
 10
-181.56396932378823
 20
627.81157694217256
 42
-0.0004149644879473
 10
-181.5683629370983
 20
622.5176148307346
 10
-181.59692219589007
 20
605.31178455323288
 42
-0.0058099972998867
 10
-182.12415140000991
 20
565.61229214049399
 10
-182.61843807769421
 20
545.76519382813001
 42
-0.0018368782452242
 10
-183.07225951489545
 20
529.88682755642617
 10
-183.17648803315757
 20
526.65576433046499
 42
0.0003613342801394
 10
-183.47338211025126
 20
517.24097718969324
 10
-183.50965611987749
 20
516.06368909814944
 42
-0.006161964556773
 10
-183.81416764117992
 20
509.00701650529879
 42
-0.012854211029666
 10
-184.3866193261477
 20
501.96881609494528
 10
-184.47641173307599
 20
501.13176227420138
 42
-0.0231374536861863
 10
-185.80925768528886
 20
492.49588384307299
 10
-186.09939828334626
 20
491.06012662048056
 42
-0.0231043052344068
 10
-188.86550796576535
 20
480.02469310592397
 10
-188.88125047323894
 20
479.97228294670384
 42
-0.0228648980814513
 10
-192.61253336388842
 20
469.34027616136223
 10
-192.62754713190924
 20
469.30303739024515
 42
-0.0226304510174134
 10
-197.27608103776177
 20
459.12673285121042
 10
-197.2887932722501
 20
459.10193764809657
 42
-0.0224176006316567
 10
-202.80644351785196
 20
449.43323750508256
 10
-202.81578854610606
 20
449.41844404600533
 42
-0.0222464339706805
 10
-209.15397151689785
 20
440.30898373777757
 10
-209.15873388693231
 20
440.30274991760581
 42
-0.0221394812304325
 10
-216.26944746857461
 20
431.80291024527105
 42
-0.0220947996137132
 10
-224.10350034439696
 20
423.96421946942547
 42
-0.0221298507638684
 10
-232.59946519360398
 20
416.84788127773407
 10
-232.60648645419772
 20
416.84251029694155
 42
-0.0222315090194422
 10
-241.71390469072526
 20
410.49678679451773
 10
-241.72930835360373
 20
410.48704136971264
 42
-0.0223942812253532
 10
-251.39748641627372
 20
404.9602116261579
 10
-251.42292662160418
 20
404.94714345156603
 42
-0.0226008316435029
 10
-261.60037069839257
 20
400.28769093419692
 10
-261.63816403314797
 20
400.27241383861553
 42
-0.0228304025116518
 10
-272.27295550162637
 20
396.52852601254256
 10
-272.32581112465289
 20
396.51258963210228
 42
-0.0230996965582167
 10
-283.36583628722883
 20
393.73299018564745
 10
-284.80309351083201
 20
393.44095965164843
 42
-0.022963490064726
 10
-293.44201084178144
 20
392.0951863870111
 42
-0.0132440120234192
 10
-302.16178437666213
 20
391.37739192839513
 10
-303.80737109850918
 20
391.28572638804457
 42
-0.0066889170117315
 10
-315.84414509244402
 20
390.77664410941509
 10
-321.99929585064319
 20
390.59876561327064
 42
-0.0000950729061237
 10
-346.35331502917018
 20
389.89959032670021
 10
-349.42674055131261
 20
389.81194076719316
 42
-0.0019879433204266
 10
-379.93071993175431
 20
389.063378019808
 10
-387.55655457330465
 20
388.90657613707526
 42
-0.0034278407132405
 10
-433.31947901260185
 20
388.27943018519875
 10
-463.83368177947648
 20
388.07047406888586
 42
-0.0068503746057239
 10
-540.10575368377863
 20
388.59316030781213
 10
-562.98472919705489
 20
389.06346602170476
 42
-0.0019892958776364
 10
-593.4887106703286
 20
389.8119377722586
 10
-596.56207983134448
 20
389.89958486965475
 42
-0.0000955473023857
 10
-620.91621149493267
 20
390.59877973808966
 10
-627.071258663153
 20
390.77666521815962
 42
-0.0066873502182492
 10
-639.10835331324677
 20
391.28574280474868
 10
-640.75294007378284
 20
391.37734497694476
 42
-0.0131935862778205
 10
-649.47512747552537
 20
392.0944118882818
 42
-0.0230521324023776
 10
-658.116306973885
 20
393.44027978160022
 10
-659.55294817031415
 20
393.73240665504903
 42
-0.0230681390286721
 10
-670.59290205522291
 20
396.51298588657903
 10
-670.64586347308114
 20
396.52895543051039
 42
-0.0228301510769735
 10
-681.28049532829584
 20
400.27304286964522
 10
-681.31836307112235
 20
400.28835096370295
 42
-0.0226018490735282
 10
-691.4954760763369
 20
404.94793421723938
 10
-691.52094240912822
 20
404.96101661661646
 42
-0.0223959387624562
 10
-701.18869795486034
 20
410.48796757906609
 10
-701.20417103404054
 20
410.49775760596197
 42
-0.022232123840574
 10
-710.31099499201025
 20
416.84351106553726
 10
-710.31788699891331
 20
416.84878354449444
 42
-0.0221327025357162
 10
-718.81345553250105
 20
423.96536445197455
 42
-0.0220971737926786
 10
-726.64690417471354
 20
431.80417349540994
 42
-0.0221378874070335
 10
-733.75688821939013
 20
440.30392099398551
 10
-733.76176919779368
 20
440.3103106253763
 42
-0.0222464969233278
 10
-740.09948349059209
 20
449.41991530181457
 10
-740.10881858455332
 20
449.43469441661483
 42
-0.0224156803307797
 10
-745.62600748940235
 20
459.10344825926717
 10
-745.63874817463523
 20
459.12830107030317
 42
-0.0226278899375643
 10
-750.28696061547055
 20
469.30469420607022
 10
-750.30198764371369
 20
469.34196847909675
 42
-0.0228618386166161
 10
-754.03308483189676
 20
479.9740650995065
 10
-754.04883458350923
 20
480.02650167422769
 42
-0.0231234722812192
 10
-756.81440148623506
 20
491.06212758319793
 10
-757.1045691243927
 20
492.49867491594887
 42
-0.0230607784261148
 10
-758.43770802995186
 20
501.13275340400691
 10
-758.52758548414329
 20
501.96888255631353
 42
-0.012885263338422
 10
-759.10113421391657
 20
509.00700500471936
 42
-0.0061962888605053
 10
-759.40582286988172
 20
516.06368658322822
 10
-759.44204518748916
 20
517.24096623732362
 42
0.0003780649793911
 10
-759.73884345373006
 20
526.65575872878674
 10
-759.75773254507271
 20
527.24089412114165
 42
-0.0010394147061994
 10
-760.07742232200667
 20
537.82639756047581
 10
-760.52385594863972
 20
553.70234877789176
 42
-0.0057926534430921
 10
-761.22379754879148
 20
596.04852854362184
 10
-761.42005246662131
 20
635.75698892882042
 42
-0.0082569113249867
 10
-760.74627744419604
 20
693.98355451212672
 10
-760.07727181461462
 20
717.79842712615618
 42
-0.0010466882197489
 10
-759.75774085026285
 20
728.38345122221972
 10
-759.73884821344893
 20
728.96867968367121
 42
0.0003769694172367
 10
-759.44204173160711
 20
738.38280173149849
 10
-759.40581917692111
 20
739.55988591467303
 42
-0.0061948560580899
 10
-759.10112533007407
 20
746.61628815622282
 42
-0.0128461531300513
 10
-758.52815151695404
 20
753.65419173544467
 10
-758.43829144933943
 20
754.49139478241648
 42
-0.0231313715941089
 10
-757.10501466495498
 20
763.1272669449595
 10
-756.81481617397185
 20
764.56303940260648
 42
-0.0230985525528539
 10
-754.04841779262529
 20
775.59844645016346
 10
-754.03266526462539
 20
775.65088736583709
 42
-0.0228602564805805
 10
-750.30134263656487
 20
786.28285757804304
 10
-750.28631378755153
 20
786.32013427875393
 42
-0.0226269687731163
 10
-745.6379436133758
 20
796.49639909805114
 10
-745.62521233674283
 20
796.52123259268717
 42
-0.0224152951984717
 10
-740.10788297687191
 20
806.18989614291627
 10
-740.09851772560216
 20
806.20472253552123
 42
-0.0222452589445378
 10
-733.76076508502592
 20
815.31415432845495
 10
-733.75598537600479
 20
815.3204112691933
 42
-0.0221393281433162
 10
-726.64576285962539
 20
823.82023419208087
 42
-0.0220955536968728
 10
-718.81220291007935
 20
831.65893234688292
 42
-0.0221312583880786
 10
-710.31670923756337
 20
838.77527502350222
 10
-710.30968467426896
 20
838.78064880684894
 42
-0.0222333620451942
 10
-701.20268755304357
 20
845.12636424379821
 10
-701.18726168643002
 20
845.13612409182838
 42
-0.0223963229641254
 10
-691.51941538487449
 20
850.66293487726011
 10
-691.49392973544741
 20
850.67602669282996
 42
-0.0226027750039666
 10
-681.31668785378349
 20
855.3354523901628
 10
-681.27882257091574
 20
855.35075863328075
 42
-0.0228319450646865
 10
-670.64406229864926
 20
859.09461602631802
 10
-670.59110640636231
 20
859.11058236657618
 42
-0.0231005088592387
 10
-659.55089851151843
 20
861.89015345279358
 10
-658.11354011838318
 20
862.18219263191327
 42
-0.02296342857265
 10
-649.4741240909085
 20
863.52797424817686
 42
-0.0132424718004674
 10
-640.75385384803519
 20
864.24576892424034
 10
-639.10835975329678
 20
864.33742674215455
 42
-0.0067036173247495
 10
-627.07126636595012
 20
864.84614929202166
 10
-620.91621332581008
 20
865.02365318958084
 42
-0.0000882568528275
 10
-596.56206977546492
 20
865.7216933061884
 10
-593.4887037985477
 20
865.80923939642821
 42
-0.0019864577356971
 10
-562.98473474545312
 20
866.55688268455583
 10
-555.35888974255181
 20
866.71347769163572
 42
-0.0034233254514139
 10
-509.59597212600954
 20
867.33979443197745
 10
-479.0817787399709
 20
867.54847328417122
 42
-0.0068412972530269
 10
-402.80970976734511
 20
867.02647888443676
 10
-379.93071797318828
 20
866.55679595275785
 42
-0.0019879690350594
 10
-349.42674742310658
 20
865.80923640113019
 10
-346.35332508638157
 20
865.72168785056579
 42
-0.0000877823989195
 10
-321.99929401983729
 20
865.0236673123818
 10
-315.84413738895705
 20
864.84617040632781
 42
-0.0067051841166036
 10
-303.8073646585093
 20
864.3374431574448
 10
-302.16269653954078
 20
864.24582368179529
 42
-0.0131934192269014
 10
-293.44100763136419
 20
863.52873270950295
 42
-0.0230523865623852
 10
-284.80032721658256
 20
862.18287544968598
 10
-283.36378681968029
 20
861.890756971271
 42
-0.0230672870027403
 10
-272.32401595567399
 20
859.11014885861186
 10
-272.27115483594287
 20
859.09420928766622
 42
-0.0228286066271777
 10
-261.6364917826802
 20
855.35009178778705
 10
-261.59869601908622
 20
855.33481285702078
 42
-0.0225999057072612
 10
-251.42138070491663
 20
850.67520315909724
 10
-251.39595985039048
 20
850.66214442006162
 42
-0.0223938969678802
 10
-241.72787232799334
 20
845.13517482255452
 10
-241.71242146288631
 20
845.12539922778649
 42
-0.0222302734336907
 10
-232.60517616020664
 20
838.77963794172035
 10
-232.59828751991282
 20
838.77436830931879
 42
-0.0221312906846319
 10
-224.1022474074864
 20
831.65779203313889
 42
-0.0220964834363486
 10
-216.26830544349733
 20
823.81899041934798
 42
-0.0221380420715162
 10
-209.15783004474292
 20
815.31922603958765
 10
-209.1529664184601
 20
815.31285955552596
 42
-0.0222476743999769
 10
-202.81482161747559
 20
806.20322621179946
 10
-202.80550673369734
 20
806.18848000831156
 42
-0.0224179880084395
 10
-197.28799684724967
 20
796.51968930772955
 10
-197.27527520303832
 20
796.49487478786239
 42
-0.0226313749062926
 10
-192.62689905912691
 20
786.31844161451966
 10
-192.61188711276654
 20
786.28120527328804
 42
-0.0228664857698178
 10
-188.88082989955191
 20
775.64907171461073
 10
-188.86509017870893
 20
775.59666592565407
 42
-0.0231293262364043
 10
-186.09981464697685
 20
764.56101280131566
 10
-185.80970564565709
 20
763.12448095865852
 42
-0.0230666033366035
 10
-184.47699697311268
 20
754.49039675622942
 10
-184.38715692888542
 20
753.65414020592982
 42
-0.0128936796536471
 10
-183.81417648715407
 20
746.61627614003396
 42
-0.0061605322041278
 10
-183.50965973996827
 20
739.55988185193974
 10
-183.47338537817564
 20
738.38278509815802
 42
0.0002826892288426
 10
-183.17794292472655
 20
728.96861222643292
 10
-182.44067106270458
 20
705.89185446663316
 42
-0.0076188772196175
 10
-181.60076186933992
 20
655.60362976267993
 10
-181.56784166861786
 20
633.10016099703273
 42
-0.0003657233807966
 10
-181.56396932378823
 20
627.80607191896183
 10
-181.56396932378823
 20
627.81157694217256
  0
LWPOLYLINE
  5
1CF
100
AcDbEntity
  8
GAR70-0206
370
              15
390
0
  6
Continuous
 62
               7
100
AcDbPolyline
 90
      143
 70
             128
 10
-521.42914738724755
 20
590.36090403859703
 42
0.0054498329430899
 10
-520.59590103807557
 20
590.36998641515652
 10
-519.97794930646717
 20
590.38345935079735
 42
0.0219137604675807
 10
-517.91484325797376
 20
590.51903424083696
 10
-517.29012109260543
 20
590.5876781882032
 42
0.0217982800560596
 10
-514.09915289026435
 20
591.07983921416655
 10
-514.08084293974889
 20
591.08348642750389
 42
0.0216152017963979
 10
-510.980750902213
 20
591.84161527277479
 10
-510.96691489732268
 20
591.84563985725686
 42
0.0214012089995328
 10
-507.97064030351237
 20
592.85810697189584
 10
-507.96055581421501
 20
592.86200281906724
 42
0.0211806211010536
 10
-505.08099410275474
 20
594.11702136185966
 10
-505.07400161127225
 20
594.12042821709974
 42
0.0209757397720219
 10
-502.32396596764545
 20
595.60608845461536
 10
-502.31949805372892
 20
595.60875003512137
 42
0.0208051087856007
 10
-499.71169890350325
 20
597.31306403751387
 10
-499.70929433713582
 20
597.31478237661531
 42
0.0206829000859413
 10
-497.25633360862719
 20
599.22572988888294
 42
0.0206125771156835
 10
-494.97001592159552
 20
601.33189200257436
 42
0.0206241133355522
 10
-492.86490319511267
 20
603.6193773485063
 42
0.0206782483129373
 10
-490.95497164119433
 20
606.0735053004887
 10
-490.95316964015774
 20
606.0760294952114
 42
0.0207973804713165
 10
-489.24974275829402
 20
608.68511199704983
 10
-489.24701051182046
 20
608.68970321464849
 42
0.0209650575339256
 10
-487.76210913188083
 20
611.44114190931316
 10
-487.75864559136778
 20
611.44825807283519
 42
0.0211668627803229
 10
-486.50425782679224
 20
614.32934526863767
 10
-486.50031926272231
 20
614.33955097074988
 42
0.0213855772146817
 10
-485.48835969700497
 20
617.33747876377652
 10
-485.48430654785238
 20
617.35142794767319
 42
0.0215936735773207
 10
-484.72654819381353
 20
620.45329743115155
 10
-484.72288338171109
 20
620.47171514041918
 42
0.021788527777253
 10
-484.23102223187607
 20
623.66460492314377
 10
-484.22843216068998
 20
623.68821234349593
 42
0.0218519230842748
 10
-484.01361470661209
 20
626.95915384202976
 10
-484.01304938225883
 20
626.98498315856602
 42
0.021874141739124
 10
-484.08519579798553
 20
630.28516328323667
 10
-484.08679614801827
 20
630.30952416281445
 42
0.0218505843525663
 10
-484.44153241341337
 20
633.54231494104795
 10
-484.44475158621879
 20
633.56319256829033
 42
0.0216950980928292
 10
-485.07106501688838
 20
636.71152963782333
 10
-485.07498759859016
 20
636.72757577779191
 42
0.0214948704943685
 10
-485.9613466540568
 20
639.77850994798598
 10
-485.96538277180639
 20
639.79045994910325
 42
0.0212762414560501
 10
-487.10007585888798
 20
642.73106628214873
 10
-487.10379943929922
 20
642.73961448876287
 42
0.0210628219621602
 10
-488.47497031624073
 20
645.55703144042172
 10
-488.47807644439501
 20
645.56278465331491
 42
0.0208755920312136
 10
-490.07377668718402
 20
648.24425666566754
 10
-490.07605997306075
 20
648.24775281255893
 42
0.0207292561439637
 10
-491.88424964113585
 20
650.78058403056718
 10
-491.88544935434436
 20
650.78212523431205
 42
0.0206403753224847
 10
-493.8942432298004
 20
653.15391710280653
 42
0.0206068476060856
 10
-496.09157015802725
 20
655.35209468761286
 42
0.0206419884284242
 10
-498.46247874339383
 20
657.36169559175391
 10
-498.46397370614739
 20
657.36286021897672
 42
0.020735508219784
 10
-500.99592358714256
 20
659.17182041694855
 10
-501.32354643341387
 20
659.38595172727241
 42
0.0208836170344938
 10
-503.33907278951074
 20
660.58628003683157
 42
0.0105111411008639
 10
-505.42729808980607
 20
661.65848454268303
 10
-505.43315806782107
 20
661.66133934139418
 42
0.0211764974675935
 10
-507.5955766917798
 20
662.60372333823909
 10
-507.97086941163923
 20
662.74869729062436
 42
0.0214007830779408
 10
-510.96715638587773
 20
663.76109866028366
 10
-510.98099608157361
 20
663.76512401669606
 42
0.0216121856994799
 10
-514.08109772573778
 20
664.52320899771883
 10
-514.09941265027828
 20
664.52685704881787
 42
0.0218072552233707
 10
-517.29039919809316
 20
665.01893603600058
 10
-517.31391784696257
 20
665.02151919999585
 42
0.0218812262088354
 10
-520.58282195549361
 20
665.23640119632864
 10
-520.60842586544175
 20
665.23696163430168
 42
0.021871899242207
 10
-523.90996569326921
 20
665.16480637144309
 10
-523.93424015215305
 20
665.16321196206377
 42
0.02185013343732
 10
-527.16855808066362
 20
664.80834643458729
 10
-527.18960607983263
 20
664.8051012633598
 42
0.0216998621069723
 10
-530.33910861988716
 20
664.17856607353667
 10
-530.35529525717311
 20
664.17460903588051
 42
0.0215031362691115
 10
-533.40706985003749
 20
663.28792982157006
 10
-533.41912921963251
 20
663.28385623403392
 42
0.0212870173855833
 10
-536.36028646332625
 20
662.14874433402485
 10
-536.36891336241933
 20
662.14498562779647
 42
0.0210750982263776
 10
-539.18662599179834
 20
660.77329752742094
 10
-539.19242922986257
 20
660.77016340414423
 42
0.0208883843163136
 10
-541.87397477661477
 20
659.17384842536455
 10
-541.87749541602534
 20
659.17154822556233
 42
0.0207415839095583
 10
-544.41021049064364
 20
657.36264817302037
 10
-544.41175501507973
 20
657.36144529910644
 42
0.0206515288490669
 10
-546.78327191365224
 20
655.35184803831021
 42
0.0206158900253643
 10
-548.98103386922276
 20
653.15364105114304
 42
0.0206481169953181
 10
-550.99008955569229
 20
650.78181520825717
 10
-550.99127671508381
 20
650.78029026298918
 42
0.0207383186398574
 10
-552.79961552586531
 20
648.24737662415612
 10
-553.0136990780311
 20
647.91957774255559
 42
0.0208820835622299
 10
-554.21353343881663
 20
645.90329866419472
 42
0.0105094033026302
 10
-555.28521099466775
 20
643.81435977102512
 10
-555.28811936496595
 20
643.80838474461189
 42
0.0211693046308774
 10
-556.2300689734567
 20
641.64506921056943
 10
-556.37496848761771
 20
641.2696271581334
 42
0.0213891271991358
 10
-557.38680194803214
 20
638.27222452195201
 10
-557.39084332543553
 20
638.25831627832702
 42
0.0215960021702763
 10
-558.1484649818716
 20
635.15705440755698
 10
-558.15212190317686
 20
635.13867624986062
 42
0.0217885804080893
 10
-558.64387227839154
 20
631.9464803337105
 10
-558.64645798178594
 20
631.92291244262651
 42
0.0218540622921333
 10
-558.86120592651855
 20
628.65275076607406
 10
-558.8617686434394
 20
628.62702900382681
 42
0.0218628266835084
 10
-558.7896514504157
 20
625.32625621852435
 10
-558.78805572237388
 20
625.30195254605121
 42
0.0218412942379425
 10
-558.43341694797175
 20
622.06844091834228
 10
-558.43019101561231
 20
622.04750937217216
 42
0.0216897549721246
 10
-557.80402329355752
 20
618.89853540366596
 10
-557.80009047526323
 20
618.88244083749555
 42
0.0214931240694878
 10
-556.91389011054525
 20
615.83094366971011
 10
-556.90984239515819
 20
615.81895534169212
 42
0.0212778773903009
 10
-555.7752867990439
 20
612.8778506038982
 10
-555.77155346917164
 20
612.86927780665974
 42
0.0210674682486318
 10
-554.40046387916675
 20
610.05141882756516
 10
-554.39735379241529
 20
610.04565723837311
 42
0.0208827452617708
 10
-552.80164308593498
 20
607.36379257923352
 10
-552.79936594580613
 20
607.36030548345036
 42
0.0207382953664262
 10
-550.99103837344433
 20
604.82712526606065
 10
-550.98985936319252
 20
604.82561062379932
 42
0.0206506393214131
 10
-548.98076429067748
 20
602.4535088210788
 42
0.0206178993770493
 10
-546.78297704560441
 20
600.25509988353963
 10
-546.49732508897728
 20
599.99200797043648
 42
0.0206518247877358
 10
-544.71784909398684
 20
598.48399234122303
 42
0.0103585701439966
 10
-542.84714142862742
 20
597.08826679748961
 10
-542.84476856683887
 20
597.086571784032
 42
0.0208086677174167
 10
-540.88715126539273
 20
595.80772219354276
 10
-540.21521864313081
 20
595.40762816512324
 42
0.0209799010422605
 10
-538.14512008332815
 20
594.28985189583352
 42
0.0105667330759902
 10
-536.00726578934393
 20
593.30416011818693
 10
-536.00007541482807
 20
593.30102738450012
 42
0.0212854227346335
 10
-533.79069145731307
 20
592.44835343197769
 10
-533.03795958526041
 20
592.19408774567012
 42
0.0214978008326484
 10
-530.73285008386745
 20
591.524330734253
 42
0.0108384643879552
 10
-528.38766255570636
 20
591.00457155355048
 10
-528.37267655732649
 20
591.00158945387523
 42
0.0217806999756981
 10
-525.97011604582895
 20
590.63141708239471
 10
-525.54818796237146
 20
590.58510834722563
 42
0.0218809206665568
 10
-522.27623272384642
 20
590.37028245143097
 10
-522.26341111002125
 20
590.37000279624317
 42
0.0054509907680514
 10
-521.42914738724755
 20
590.36090403859703
 42
0.0054509907680514
  0
LWPOLYLINE
  5
1D0
100
AcDbEntity
  8
GAR70-0206
370
              15
390
0
  6
Continuous
 62
               7
100
AcDbPolyline
 90
      141
 70
             128
 10
-521.42914738724755
 20
604.81270393188049
 42
0.0057712088557023
 10
-520.88912610813202
 20
604.81893729067065
 10
-520.48882212121862
 20
604.82817978156015
 42
0.0232048659241483
 10
-519.15258323045612
 20
604.92117938019692
 10
-518.74805532411733
 20
604.96827005918465
 42
0.0230645808859906
 10
-516.68537458020728
 20
605.30539626873872
 10
-516.67342780345791
 20
605.30791927980067
 42
0.022846898381498
 10
-514.67391370104883
 20
605.82661295206515
 10
-514.66511836066604
 20
605.8293288621021
 42
0.0225969356954996
 10
-512.73818971098456
 20
606.52113367714765
 10
-512.73199367985615
 20
606.52367966941597
 42
0.0223448714364211
 10
-510.88702690976675
 20
607.38001463428054
 10
-510.88294188189241
 20
607.38213738935838
 42
0.0221184697107515
 10
-509.12923215254602
 20
608.39433584570509
 10
-509.12682644640938
 20
608.3958700243021
 42
0.0219375783103138
 10
-507.47361629624015
 20
609.55518662569216
 10
-507.47263925309994
 20
609.55593779012293
 42
0.0218238424589342
 10
-505.92894560883224
 20
610.85373260185315
 10
-505.74282645974984
 20
611.02460504697092
 42
0.021773737876366
 10
-504.67466168525493
 20
612.09460367171732
 42
0.0108977803529206
 10
-503.67792679013439
 20
613.23286721576244
 10
-503.6772753137833
 20
613.23364475318374
 42
0.0218502007856796
 10
-502.75659368869071
 20
614.43544372327119
 10
-502.61070108104548
 20
614.64417363957159
 42
0.0219891593850754
 10
-501.52589642888665
 20
616.35141678103594
 10
-501.52392744083045
 20
616.35483915277848
 42
0.0221829421938738
 10
-500.59034535976923
 20
618.15809758793705
 10
-500.58789185443754
 20
618.16340018521396
 42
0.0224144353361783
 10
-499.8142146268442
 20
620.05340391146876
 10
-499.81148465871001
 20
620.06103102851205
 42
0.022660558866538
 10
-499.20632734605795
 20
622.02842999554218
 10
-499.20362079345148
 20
622.03889452043109
 42
0.0228877915894508
 10
-498.77548031530671
 20
624.07427168585582
 10
-498.77322065751093
 20
624.08813633983527
 42
0.023083984170463
 10
-498.53050416235362
 20
626.18206316715066
 10
-498.52936656771396
 20
626.19846669857247
 42
0.0230714944956324
 10
-498.47990792966334
 20
628.33869567540444
 10
-498.48031153442378
 20
628.35621784529837
 42
0.0231136592869307
 10
-498.62736941156902
 20
630.47643340894979
 10
-498.62921424707133
 20
630.49233936000815
 42
0.0229900136959502
 10
-498.96569731943737
 20
632.55846161392083
 10
-498.96826624004518
 20
632.57066909238119
 42
0.0227838307831077
 10
-499.48596440377241
 20
634.57329415997356
 10
-499.48875577273952
 20
634.58236505900595
 42
0.0225459551742775
 10
-500.17923299918641
 20
636.51209500990649
 10
-500.18188436100706
 20
636.51856907140211
 42
0.0223067131621785
 10
-501.03658182233039
 20
638.36605016231442
 10
-501.03884012650792
 20
638.37041016047078
 42
0.0220927448594998
 10
-502.0491098757492
 20
640.12636022762115
 10
-502.05079469462498
 20
640.12901049406889
 42
0.0219255115656249
 10
-503.20793830162336
 20
641.78423263023672
 10
-503.20890282621758
 20
641.78549103426633
 42
0.021820593216768
 10
-504.50420996668367
 20
643.33087435777156
 42
0.021785896090576
 10
-505.92908735058575
 20
644.75748562544402
 42
0.0218290579420762
 10
-507.47271079620759
 20
646.05445668676316
 10
-507.47374917828847
 20
646.05525451264862
 42
0.021942421837093
 10
-509.12696726739512
 20
647.21381124104323
 10
-509.12938601465578
 20
647.21535264731403
 42
0.0221181129229654
 10
-510.88307330904615
 20
648.22679154573143
 10
-510.88719486874743
 20
648.22893161636796
 42
0.0223401596524511
 10
-512.7321383651016
 20
649.08456235321148
 10
-512.73837275244034
 20
649.08712192150313
 42
0.0225882048630896
 10
-514.66527498727316
 20
649.77830300608639
 10
-514.67410942297033
 20
649.78102842466001
 42
0.0228299421593461
 10
-516.67359452418532
 20
650.29922151591188
 10
-516.68557912185133
 20
650.30175004607054
 42
0.0230572369403691
 10
-518.74824310409576
 20
650.63848707047077
 10
-518.76393457006884
 20
650.64031102923104
 42
0.0231430812003002
 10
-520.88033531353813
 20
650.78751414713383
 10
-520.89762445797714
 20
650.78791470074725
 42
0.0231514251741815
 10
-523.03529453954161
 20
650.73845986442473
 10
-523.05155095013822
 20
650.73732944020389
 42
0.023116936902491
 10
-525.14317703211009
 20
650.49434647187604
 10
-525.15696189769278
 20
650.49209532638895
 42
0.0229345911919019
 10
-527.19011087550416
 20
650.06355100633539
 10
-527.2004702508242
 20
650.0608660731873
 42
0.0227024864153664
 10
-529.16571444286274
 20
649.45510578536926
 10
-529.1732093823473
 20
649.45241744328371
 42
0.0224537470648422
 10
-531.06114717737739
 20
648.67793064452303
 10
-531.06629725833966
 20
648.67554252111199
 42
0.0222174146407037
 10
-532.86758710027289
 20
647.74092711232583
 10
-532.87084194583474
 20
647.73905031484196
 42
0.0220178066722141
 10
-534.57622292372071
 20
646.65297504501439
 10
-534.57794748461708
 20
646.65176687756059
 42
0.0218735701564981
 10
-536.17824640910385
 20
645.42293200817608
 42
0.021790555976583
 10
-537.6648455275016
 20
644.05963465582431
 42
0.0218038504285085
 10
-539.02719862068966
 20
642.57190155807757
 42
0.0218669643092159
 10
-540.2551493557645
 20
640.97042438351423
 10
-540.25646955224988
 20
640.96853714110284
 42
0.0220066737136574
 10
-541.34183105057389
 20
639.26176314191605
 10
-541.34380390375611
 20
639.25833660306932
 42
0.0222016413124594
 10
-542.27785899670494
 20
637.45542042138993
 10
-542.2803261133231
 20
637.45009186066079
 42
0.0224330484058914
 10
-543.05438922505982
 20
635.56027631505958
 10
-543.05713890211791
 20
635.55259831066428
 42
0.0226773878923431
 10
-543.66259346738718
 20
633.58520569464747
 10
-543.66532141578568
 20
633.57466302484363
 42
0.0229025177009575
 10
-544.09366643157364
 20
631.53908002868991
 10
-544.09594388201288
 20
631.52511028814945
 42
0.0230904107573452
 10
-544.33878342425805
 20
629.43073664356064
 10
-544.3399223748961
 20
629.41431848924833
 42
0.0230811585666771
 10
-544.38939526773027
 20
627.27360302338843
 10
-544.38899420152188
 20
627.256204598978
 42
0.0231330680324146
 10
-544.24185416705916
 20
625.13654588873726
 10
-544.24002522673709
 20
625.12079013248012
 42
0.0230008099538729
 10
-543.90333987238853
 20
623.05495045037185
 10
-543.90079812607735
 20
623.04288040976746
 42
0.0227886537306875
 10
-543.38279427764894
 20
621.04029856651209
 10
-543.38003864281586
 20
621.03134881889741
 42
0.0225455506026102
 10
-542.68916111380952
 20
619.10145623018502
 10
-542.68655009234817
 20
619.09508351209399
 42
0.0223019308005002
 10
-541.83136864778089
 20
617.24726800738426
 10
-541.82915373177013
 20
617.24299321299031
 42
0.0220851437897747
 10
-540.81832143231361
 20
615.48656121499619
 10
-540.81666838319597
 20
615.4839615366684
 42
0.0219147273792435
 10
-539.65891479735888
 20
613.82816752696158
 10
-539.65802055085953
 20
613.8270009678746
 42
0.0218118271536628
 10
-538.36196821029739
 20
612.28087361700659
 10
-538.19120848718717
 20
612.09433076651612
 42
0.0217736454212038
 10
-537.122581620152
 20
611.02441244492036
 42
0.0109028104847978
 10
-535.98556371016366
 20
610.02584833015658
 10
-535.98488370486461
 20
610.02527690262775
 42
0.0218654037374795
 10
-534.78437289670705
 20
609.10289068068846
 10
-534.37013196663031
 20
608.8125030553432
 42
0.0220175827728588
 10
-533.08831762928639
 20
607.99563703409069
 42
0.0110838753973345
 10
-531.75431242880381
 20
607.26481882393796
 10
-531.75073730156782
 20
607.26296204912501
 42
0.0223313436247309
 10
-530.36464598444991
 20
606.61994326812476
 10
-530.3624939038516
 20
606.61905938904624
 42
0.0112686252123876
 10
-528.93095496868079
 20
606.06847734921098
 10
-528.92476997502422
 20
606.0662572052355
 42
0.0227025501492231
 10
-527.44775107327689
 20
605.61060070072881
 10
-527.44408179982679
 20
605.60964876992705
 42
0.0114607287005211
 10
-525.93086866943645
 20
605.25387678501761
 10
-525.92113387714085
 20
605.25182227343464
 42
0.0230319810155989
 10
-524.36860551373184
 20
604.99818443684455
 10
-524.10691014473002
 20
604.96772154305233
 42
0.0115806104491003
 10
-523.04112647441389
 20
604.8686134033187
 42
0.0116052139985308
 10
-521.97189565394865
 20
604.8190140733858
 10
-521.96944244654696
 20
604.81895728316033
 42
0.0057859669772553
 10
-521.42914738724755
 20
604.81270393188049
 42
0.0057859669772553
  0
INSERT
  5
1D1
100
AcDbEntity
  8
GAR70-0206
390
0
 62
               7
100
AcDbBlockReference
  2
グループ-1
 10
0.0986828834565756
 20
698.39362586219886
 30
0.0
  0
INSERT
  5
1D2
100
AcDbEntity
  8
GAR70-0206
390
0
 62
               7
100
AcDbBlockReference
  2
グループ-2
 10
0.0986828834565756
 20
698.39362586219886
 30
0.0
  0
LWPOLYLINE
  5
1D3
100
AcDbEntity
  8
GAR70-0206
370
               5
390
0
  6
STYLE_12
 62
               7
100
AcDbPolyline
 90
      187
 70
             128
 10
714.18875858746253
 20
627.81157694217256
 42
-0.0004149644879473
 10
714.18436497415246
 20
622.5176148307055
 10
714.15580571536066
 20
605.31178455323288
 42
-0.0058099972998903
 10
713.62857651124136
 20
565.61229214051036
 10
713.13428983355664
 20
545.76519382813365
 42
-0.001836878245228
 10
712.68046839635531
 20
529.88682755642617
 10
712.57623987809268
 20
526.65576433044862
 42
0.0003613342801394
 10
712.27934580099964
 20
517.24097718969324
 10
712.24307179137327
 20
516.06368909814398
 42
-0.0061619645567696
 10
711.93856027007087
 20
509.00701650529879
 42
-0.0128542110296633
 10
711.36610858510278
 20
501.9688160949421
 10
711.27631617817485
 20
501.13176227420138
 42
-0.0231374536861857
 10
709.94347022596162
 20
492.49588384307123
 10
709.65332962790444
 20
491.06012662047976
 42
-0.0231043052344059
 10
706.88721994548564
 20
480.02469310592397
 10
706.87147743801154
 20
479.97228294670208
 42
-0.0228648980814476
 10
703.14019454736263
 20
469.34027616136223
 10
703.12518077934192
 20
469.30303739024532
 42
-0.0226304510174064
 10
698.47664687348936
 20
459.12673285121042
 10
698.46393463900108
 20
459.10193764809657
 42
-0.022417600631657
 10
692.94628439339931
 20
449.43323750508256
 10
692.93693936514524
 20
449.41844404600533
 42
-0.0222464339706783
 10
686.59875639435336
 20
440.30898373777757
 10
686.59399402431893
 20
440.30274991760581
 42
-0.0221394812304287
 10
679.48328044267669
 20
431.80291024527105
 42
-0.0220947996137207
 10
671.64922756685451
 20
423.96421946942547
 42
-0.0221298507638653
 10
663.15326271764809
 20
416.84788127773436
 10
663.14624145705397
 20
416.84251029694155
 42
-0.0222315090194506
 10
654.03882322052823
 20
410.49678679451875
 10
654.02341955764803
 20
410.48704136971264
 42
-0.0223942812253547
 10
644.35524149497746
 20
404.96021162615756
 10
644.32980128964778
 20
404.94714345156603
 42
-0.0226008316434958
 10
634.15235721285933
 20
400.28769093419686
 10
634.11456387810404
 20
400.27241383861553
 42
-0.0228304025116555
 10
623.4797724096278
 20
396.52852601254307
 10
623.42691678659935
 20
396.51258963210228
 42
-0.0230996965582161
 10
612.38689162402352
 20
393.7329901856474
 10
610.94963440041965
 20
393.44095965164826
 42
-0.0229634900647178
 10
602.31071706947114
 20
392.0951863870111
 42
-0.0132440120234124
 10
593.59094353458852
 20
391.37739192839501
 10
591.94535681274351
 20
391.28572638804457
 42
-0.0066889170117274
 10
579.90858281880753
 20
390.77664410941503
 10
573.75343206060984
 20
390.59876561327064
 42
-0.0000950729060507
 10
549.39941288229647
 20
389.89959032670629
 10
546.32598735994111
 20
389.81194076719316
 42
-0.0019879433204336
 10
515.82200797950543
 20
389.06337801980811
 10
508.19617333794997
 20
388.90657613707526
 42
-0.0034278407132426
 10
462.43324889865107
 20
388.27943018519875
 10
431.91904613178053
 20
388.07047406888591
 42
-0.0068503746057249
 10
355.64697422747906
 20
388.59316030781213
 10
332.76799871418586
 20
389.06346602170515
 42
-0.0019892958776329
 10
302.26401724092864
 20
389.8119377722586
 10
299.19064807968584
 20
389.89958486966123
 42
-0.000095547302531
 10
274.83651641632389
 20
390.59877973808966
 10
268.6814692481056
 20
390.77666521815951
 42
-0.0066873502182461
 10
256.64437459800934
 20
391.28574280474868
 10
254.99978783747281
 20
391.37734497694481
 42
-0.0131935862778278
 10
246.27760043573048
 20
392.0944118882818
 42
-0.0230521324023713
 10
237.6364209373711
 20
393.44027978160011
 10
236.19977974094206
 20
393.73240665504892
 42
-0.0230681390286703
 10
225.1598258560322
 20
396.51298588657903
 10
225.1068644381738
 20
396.52895543051045
 42
-0.0228301510769695
 10
214.47223258295887
 20
400.27304286964522
 10
214.4343648401308
 20
400.28835096370358
 42
-0.0226018490735193
 10
204.25725183491747
 20
404.94793421723938
 10
204.23178550212774
 20
404.96101661661567
 42
-0.0223959387624618
 10
194.56402995639374
 20
410.48796757906609
 10
194.54855687721354
 20
410.49775760596197
 42
-0.0222321238405671
 10
185.44173291924358
 20
416.84351106553726
 10
185.43484091234066
 20
416.84878354449432
 42
-0.0221327025357146
 10
176.93927237875252
 20
423.96536445197455
 42
-0.0220971737926767
 10
169.10582373653978
 20
431.80417349540994
 42
-0.0221378874070323
 10
161.9958396918619
 20
440.30392099398694
 10
161.99095871345943
 20
440.3103106253763
 42
-0.0222464969233318
 10
155.653244420661
 20
449.41991530181451
 10
155.64390932669968
 20
449.43469441661483
 42
-0.0224156803307759
 10
150.12672042185002
 20
459.10344825926825
 10
150.11397973661767
 20
459.12830107030317
 42
-0.0226278899375612
 10
145.46576729578146
 20
469.3046942060721
 10
145.45074026753915
 20
469.34196847909675
 42
-0.0228618386166118
 10
141.71964307935536
 20
479.97406509950878
 10
141.70389332774357
 20
480.02650167422769
 42
-0.0231234722812234
 10
138.93832642501766
 20
491.06212758319782
 10
138.64815878686005
 20
492.49867491594841
 42
-0.0230607784261145
 10
137.3150198813008
 20
501.13275340400691
 10
137.2251424271092
 20
501.96888255631535
 42
-0.012885263338422
 10
136.65159369733607
 20
509.00700500471936
 42
-0.0061962888605075
 10
136.34690504137089
 20
516.06368658323186
 10
136.31068272376353
 20
517.24096623732362
 42
0.0003780649794094
 10
136.01388445752357
 20
526.65575872875854
 10
135.99499536617998
 20
527.24089412114165
 42
-0.0010394147061994
 10
135.67530558924565
 20
537.82639756048673
 10
135.22887196261289
 20
553.70234877789176
 42
-0.0057926534430921
 10
134.52893036246118
 20
596.04852854362366
 10
134.33267544463132
 20
635.75698892882042
 42
-0.0082569113249884
 10
135.00645046705662
 20
693.98355451212672
 10
135.67545609663821
 20
717.79842712616346
 42
-0.0010466882197423
 10
135.99498706098979
 20
728.38345122221972
 10
136.01387969780225
 20
728.96867968362574
 42
0.0003769694172551
 10
136.31068617964553
 20
738.38280173149849
 10
136.34690873433169
 20
739.55988591467576
 42
-0.0061948560580944
 10
136.65160258117857
 20
746.61628815622282
 42
-0.0128461531300567
 10
137.22457639429837
 20
753.6541917354424
 10
137.31443646191329
 20
754.49139478241648
 42
-0.023131371594117
 10
138.64771324629757
 20
763.12726694495882
 10
138.93791173728061
 20
764.56303940260523
 42
-0.0230985525528638
 10
141.70431011862752
 20
775.59844645016346
 10
141.72006264662753
 20
775.65088736583732
 42
-0.022860256480585
 10
145.45138527468802
 20
786.28285757804304
 10
145.46641412370121
 20
786.32013427875359
 42
-0.0226269687731203
 10
150.11478429787709
 20
796.49639909805114
 10
150.12751557451011
 20
796.52123259268728
 42
-0.022415295198463
 10
155.64484493438104
 20
806.18989614291627
 10
155.65421018565178
 20
806.20472253552293
 42
-0.0222452589445288
 10
161.99196282622714
 20
815.31415432845495
 10
161.99674253524782
 20
815.32041126919273
 42
-0.0221393281433137
 10
169.10696505162787
 20
823.82023419208087
 42
-0.0220955536968706
 10
176.94052500117417
 20
831.65893234688292
 42
-0.0221312583880724
 10
185.43601867369105
 20
838.77527502350267
 10
185.44304323698492
 20
838.78064880684894
 42
-0.0222333620451933
 10
194.55004035821105
 20
845.12636424379866
 10
194.56546622482401
 20
845.13612409182838
 42
-0.0223963229641279
 10
204.23331252637954
 20
850.66293487725989
 10
204.25879817580702
 20
850.67602669282996
 42
-0.022602775003966
 10
214.43604005747119
 20
855.3354523901628
 10
214.47390534033892
 20
855.35075863328075
 42
-0.0228319450646856
 10
225.10866561260525
 20
859.09461602631779
 10
225.16162150489285
 20
859.11058236657618
 42
-0.0231005088592378
 10
236.20182939973841
 20
861.89015345279381
 10
237.63918779287218
 20
862.18219263191327
 42
-0.0229634285726479
 10
246.27860382034734
 20
863.52797424817686
 42
-0.0132424718004768
 10
254.99887406322026
 20
864.24576892424034
 10
256.64436815795943
 20
864.33742674215455
 42
-0.0067036173247475
 10
268.68146154530643
 20
864.84614929202166
 10
274.83651458544648
 20
865.02365318958084
 42
-0.0000882568525916
 10
299.19065813575799
 20
865.72169330618738
 10
302.26402411270965
 20
865.80923939642821
 42
-0.0019864577357041
 10
332.76799316580139
 20
866.55688268455583
 10
340.39383816870588
 20
866.71347769163572
 42
-0.0034233254514179
 10
386.15675578524485
 20
867.33979443197745
 10
416.67094917128679
 20
867.54847328417122
 42
-0.0068412972530279
 10
492.94301814391008
 20
867.02647888443676
 10
515.82200993806953
 20
866.55679595275774
 42
-0.0019879690350664
 10
546.32598048814702
 20
865.80923640113019
 10
549.39940282487191
 20
865.72168785056579
 42
-0.0000877823989986
 10
573.75343389141563
 20
865.0236673123818
 10
579.90859052229644
 20
864.84617040632781
 42
-0.0067051841165964
 10
591.94536325274339
 20
864.3374431574448
 10
593.59003137171101
 20
864.24582368179529
 42
-0.0131934192269003
 10
602.31172027988839
 20
863.52873270950295
 42
-0.023052386562381
 10
610.95240069467093
 20
862.18287544968575
 10
612.38894109157184
 20
861.89075697127112
 42
-0.0230672870027475
 10
623.42871195557814
 20
859.11014885861186
 10
623.48157307530926
 20
859.09420928766622
 42
-0.0228286066271738
 10
634.11623612857193
 20
855.35009178778705
 10
634.15403189216556
 20
855.33481285702101
 42
-0.0225999057072544
 10
644.33134720633529
 20
850.67520315909724
 10
644.3567680608619
 20
850.6621444200614
 42
-0.0223938969678802
 10
654.02485558325839
 20
845.13517482255452
 10
654.04030644836564
 20
845.12539922778637
 42
-0.0222302734336863
 10
663.14755175104506
 20
838.77963794172035
 10
663.15444039133968
 20
838.77436830931822
 42
-0.0221312906846297
 10
671.65048050376504
 20
831.65779203313889
 42
-0.022096483436353
 10
679.48442246775403
 20
823.81899041934798
 42
-0.0221380420715103
 10
686.59489786650875
 20
815.31922603958719
 10
686.59976149279123
 20
815.31285955552596
 42
-0.0222476743999787
 10
692.93790629377463
 20
806.20322621180117
 10
692.94722117755396
 20
806.18848000831156
 42
-0.0224179880084432
 10
698.46473106400094
 20
796.51968930773057
 10
698.47745270821281
 20
796.49487478786239
 42
-0.0226313749062859
 10
703.12582885212453
 20
786.31844161451863
 10
703.14084079848453
 20
786.28120527328804
 42
-0.0228664857698108
 10
706.8718980116995
 20
775.64907171460936
 10
706.88763773254209
 20
775.59666592565407
 42
-0.0231293262364007
 10
709.65291326427428
 20
764.56101280131429
 10
709.94302226559387
 20
763.12448095865807
 42
-0.023066603336605
 10
711.27573093813817
 20
754.49039675622942
 10
711.36557098236517
 20
753.65414020593255
 42
-0.0128936796536444
 10
711.93855142409677
 20
746.61627614003396
 42
-0.0061605322041356
 10
712.24306817128263
 20
739.55988185193519
 10
712.27934253307512
 20
738.38278509815802
 42
0.000282689228818
 10
712.57478498652586
 20
728.96861222638381
 10
713.31205684854638
 20
705.89185446662771
 42
-0.0076188772196166
 10
714.15196604191078
 20
655.60362976267993
 10
714.18488624263296
 20
633.10016099694542
 42
-0.0003657233807966
 10
714.18875858746253
 20
627.80607191896183
 10
714.18875858746253
 20
627.81157694217256
  0
LWPOLYLINE
  5
1D4
100
AcDbEntity
  8
GAR70-0206
370
               5
390
0
  6
STYLE_12
 62
               7
100
AcDbPolyline
 90
      141
 70
             128
 10
374.32358052400991
 20
604.81270393188049
 42
0.0057712088557456
 10
374.86360180312636
 20
604.81893729067065
 10
375.26390579003885
 20
604.82817978156015
 42
0.0232048659241531
 10
376.60014468080135
 20
604.92117938019692
 10
377.00467258714025
 20
604.96827005918476
 42
0.0230645808859637
 10
379.06735333105007
 20
605.30539626873872
 10
379.07930010779887
 20
605.30791927980044
 42
0.0228468983815129
 10
381.07881421020863
 20
605.82661295206515
 10
381.08760955059165
 20
605.82932886210222
 42
0.0225969356954857
 10
383.01453820027302
 20
606.52113367714765
 10
383.02073423140064
 20
606.52367966941563
 42
0.0223448714364009
 10
384.86570100149083
 20
607.38001463428054
 10
384.86978602936495
 20
607.38213738935826
 42
0.0221184697107327
 10
386.62349575871156
 20
608.39433584570509
 10
386.62590146484922
 20
608.39587002430278
 42
0.0219375783103322
 10
388.27911161501743
 20
609.55518662569216
 10
388.28008865815752
 20
609.55593779012281
 42
0.021823842458924
 10
389.82378230242534
 20
610.85373260185315
 10
390.00990145150865
 20
611.02460504697171
 42
0.0217737378764005
 10
391.07806622600265
 20
612.09460367171732
 42
0.0108977803529378
 10
392.07480112112432
 20
613.23286721576369
 10
392.07545259747428
 20
613.23364475318374
 42
0.0218502007856783
 10
392.99613422256766
 20
614.43544372327244
 10
393.1420268302121
 20
614.64417363957159
 42
0.0219891593850875
 10
394.22683148237081
 20
616.35141678103582
 10
394.22880047042713
 20
616.35483915277848
 42
0.0221829421938512
 10
395.16238255148789
 20
618.15809758793603
 10
395.16483605682004
 20
618.16340018521396
 42
0.0224144353361709
 10
395.93851328441326
 20
620.05340391146854
 10
395.94124325254757
 20
620.06103102851205
 42
0.0226605588665267
 10
396.54640056519941
 20
622.02842999554127
 10
396.5491071178061
 20
622.03889452043109
 42
0.0228877915894435
 10
396.97724759595064
 20
624.07427168585491
 10
396.97950725374665
 20
624.08813633983527
 42
0.0230839841704507
 10
397.22222374890396
 20
626.18206316714975
 10
397.22336134354362
 20
626.19846669857247
 42
0.0230714944955987
 10
397.27281998159424
 20
628.3386956754008
 10
397.27241637683392
 20
628.35621784529474
 42
0.0231136592868979
 10
397.12535849968856
 20
630.47643340894979
 10
397.12351366418625
 20
630.49233936000815
 42
0.0229900136959505
 10
396.78703059182021
 20
632.55846161392083
 10
396.78446167121206
 20
632.57066909238267
 42
0.0227838307831342
 10
396.26676350748517
 20
634.57329415997356
 10
396.26397213851794
 20
634.58236505900641
 42
0.0225459551742895
 10
395.57349491207117
 20
636.51209500990649
 10
395.5708435502504
 20
636.51856907140234
 42
0.0223067131621732
 10
394.71614608892719
 20
638.36605016231442
 10
394.71388778474943
 20
638.37041016047135
 42
0.0220927448594966
 10
393.70361803550838
 20
640.12636022762115
 10
393.70193321663203
 20
640.1290104940698
 42
0.0219255115656344
 10
392.54478960963422
 20
641.78423263023672
 10
392.54382508504045
 20
641.78549103426576
 42
0.0218205932167676
 10
391.2485179445739
 20
643.33087435777156
 42
0.0217858960905747
 10
389.82364056067195
 20
644.75748562544402
 42
0.0218290579420756
 10
388.28001711504885
 20
646.05445668676407
 10
388.27897873296911
 20
646.05525451264862
 42
0.0219424218370794
 10
386.62576064386406
 20
647.21381124104221
 10
386.6233418966018
 20
647.21535264731403
 42
0.0221181129229874
 10
384.8696546022104
 20
648.22679154573188
 10
384.86553304251015
 20
648.22893161636796
 42
0.022340159652439
 10
383.02058954615632
 20
649.08456235321125
 10
383.01435515881712
 20
649.08712192150313
 42
0.0225882048630816
 10
381.0874529239843
 20
649.77830300608639
 10
381.07861848828713
 20
649.78102842466001
 42
0.0228299421593385
 10
379.07913338707169
 20
650.299221515912
 10
379.06714878940613
 20
650.30175004607054
 42
0.023057236940341
 10
377.00448480716159
 20
650.63848707047089
 10
376.98879334118863
 20
650.64031102923104
 42
0.0231430812002936
 10
374.87239259771945
 20
650.78751414713383
 10
374.85510345328032
 20
650.78791470074725
 42
0.0231514251742041
 10
372.71743337171574
 20
650.73845986442473
 10
372.70117696111913
 20
650.73732944020389
 42
0.0231169369025024
 10
370.60955087914738
 20
650.49434647187604
 10
370.59576601356514
 20
650.49209532638906
 42
0.0229345911918716
 10
368.56261703575319
 20
650.06355100633539
 10
368.55225766043304
 20
650.0608660731873
 42
0.0227024864153783
 10
366.58701346839484
 20
649.45510578536926
 10
366.57951852891028
 20
649.45241744328371
 42
0.0224537470648728
 10
364.69158073388007
 20
648.67793064452303
 10
364.68643065291735
 20
648.67554252111177
 42
0.0222174146406956
 10
362.88514081098458
 20
647.74092711232583
 10
362.88188596542432
 20
647.73905031484287
 42
0.0220178066722069
 10
361.17650498753676
 20
646.65297504501439
 10
361.17478042663936
 20
646.65176687756002
 42
0.0218735701565287
 10
359.57448150215362
 20
645.42293200817608
 42
0.0217905559765834
 10
358.08788238375587
 20
644.05963465582431
 42
0.0218038504284989
 10
356.72552929056781
 20
642.57190155807757
 42
0.0218669643092664
 10
355.49757855549319
 20
640.97042438351446
 10
355.49625835900758
 20
640.96853714110284
 42
0.0220066737136388
 10
354.41089686068358
 20
639.26176314191605
 10
354.40892400750135
 20
639.25833660306932
 42
0.0222016413124312
 10
353.47486891455264
 20
637.45542042139016
 10
353.47240179793437
 20
637.45009186066079
 42
0.0224330484058601
 10
352.69833868619742
 20
635.56027631505913
 10
352.69558900913955
 20
635.55259831066428
 42
0.0226773878923293
 10
352.09013444387017
 20
633.58520569464724
 10
352.08740649547167
 20
633.57466302484363
 42
0.0229025177009444
 10
351.65906147968371
 20
631.53908002868945
 10
351.65678402924459
 20
631.52511028814945
 42
0.0230904107573675
 10
351.41394448699941
 20
629.43073664356064
 10
351.41280553636136
 20
629.41431848924833
 42
0.0230811585666545
 10
351.36333264352709
 20
627.27360302339025
 10
351.36373370973547
 20
627.256204598978
 42
0.0231330680323894
 10
351.51087374419831
 20
625.13654588873726
 10
351.51270268452015
 20
625.1207901324824
 42
0.0230008099538596
 10
351.84938803886894
 20
623.05495045037185
 10
351.85192978518035
 20
623.0428804097661
 42
0.022788653730685
 10
352.36993363360853
 20
621.04029856651209
 10
352.3726892684416
 20
621.0313488188973
 42
0.0225455506025979
 10
353.06356679744795
 20
619.10145623018502
 10
353.06617781890952
 20
619.09508351209365
 42
0.0223019308005417
 10
353.92135926347657
 20
617.24726800738426
 10
353.92357417948733
 20
617.24299321299031
 42
0.02208514378977
 10
354.93440647894386
 20
615.48656121499619
 10
354.93605952806126
 20
615.48396153666863
 42
0.021914727379246
 10
356.0938131138987
 20
613.82816752696158
 10
356.09470736039907
 20
613.82700096787335
 42
0.0218118271536711
 10
357.39075970096007
 20
612.28087361700659
 10
357.56151942406893
 20
612.0943307665176
 42
0.0217736454212032
 10
358.63014629110546
 20
611.02441244492036
 42
0.0109028104848054
 10
359.76716420109392
 20
610.02584833015658
 10
359.76784420639285
 20
610.02527690262775
 42
0.0218654037374856
 10
360.96835501454848
 20
609.10289068068982
 10
361.38259594462875
 20
608.81250305534206
 42
0.0220175827729109
 10
362.66441028197107
 20
607.99563703409069
 42
0.0110838753973063
 10
363.9984154824507
 20
607.26481882393944
 10
364.00199060968964
 20
607.26296204912501
 42
0.0223313436247453
 10
365.3880819268079
 20
606.61994326812464
 10
365.39023400740598
 20
606.61905938904624
 42
0.0112686252124092
 10
366.82177294257667
 20
606.06847734921098
 10
366.82795793623313
 20
606.0662572052355
 42
0.0227025501492102
 10
368.3049768379808
 20
605.6106007007287
 10
368.30864611143068
 20
605.60964876992705
 42
0.0114607287004641
 10
369.82185924182033
 20
605.25387678501772
 10
369.83159403411662
 20
605.25182227343464
 42
0.0230319810156228
 10
371.38412239752608
 20
604.99818443684455
 10
371.64581776652778
 20
604.96772154305222
 42
0.0115806104490793
 10
372.71160143684358
 20
604.8686134033187
 42
0.0116052139985248
 10
373.78083225730859
 20
604.8190140733858
 10
373.7832854647105
 20
604.81895728316033
 42
0.0057859669772577
 10
374.32358052400991
 20
604.81270393188049
 42
0.0057859669772577
  0
CIRCLE
  5
1D5
100
AcDbEntity
  8
GAR70-0206
370
               5
390
0
  6
STYLE_12
 62
               7
100
AcDbCircle
 10
604.18875858746424
 20
627.85363350076966
 30
0.0
 40
17.499999999999904
  0
LWPOLYLINE
  5
1D6
100
AcDbEntity
  8
GAR70-0206
370
              15
390
0
  6
Continuous
 62
               7
100
AcDbPolyline
 90
      183
 70
             128
 10
704.18875858746344
 20
627.81148208638933
 42
-0.0004180751608377
 10
704.18451647814857
 20
622.73810178218503
 10
704.15694202129612
 20
606.24918104698872
 42
-0.0058535319972232
 10
703.6478953504876
 20
568.20392246559788
 10
703.17065142793399
 20
549.18372229539682
 42
-0.0018506251222624
 10
702.73247840294619
 20
533.96693059171571
 10
702.63184387106173
 20
530.87049190913149
 42
0.0003640374897588
 10
702.34518762122332
 20
521.84799065693005
 10
702.31016611711561
 20
520.71981027797256
 42
-0.0062079790221573
 10
702.01615331549908
 20
513.95711166771855
 42
-0.0129492570168137
 10
701.46346406915825
 20
507.21237987955845
 10
701.37674522677185
 20
506.40999302958357
 42
-0.023302560500605
 10
700.09003473279279
 20
498.13480365102674
 10
699.81008009615618
 20
496.7597592141434
 42
-0.0232566479094051
 10
697.13899714003742
 20
486.18238507665109
 10
697.12446911502332
 20
486.13437806080469
 42
-0.0229982071999179
 10
693.52117951426351
 20
475.94315217144606
 10
693.50772024293394
 20
475.91001741759504
 42
-0.0227409001910789
 10
689.01844382914442
 20
466.15517316588392
 10
689.00758865097885
 20
466.13415768695268
 42
-0.0225023755503168
 10
683.67878350354022
 20
456.86557345917811
 10
683.67154788659354
 20
456.85420448594408
 42
-0.0223036592362037
 10
677.55013578032344
 20
448.12149693217742
 42
-0.0221765309478254
 10
670.68002106835979
 20
439.96984316852536
 42
-0.0220869961051166
 10
663.11610794687624
 20
432.45776450833989
 42
-0.0221003208921104
 10
654.9158672397225
 20
425.64003586368068
 10
654.90632825465491
 20
425.63279321804282
 42
-0.0221735916650915
 10
646.11577067646135
 20
419.55324053584781
 10
646.09808642074586
 20
419.54213549611512
 42
-0.0223092061234491
 10
636.76603801601311
 20
414.24698948663541
 10
636.738730851642
 20
414.2330666578913
 42
-0.0224905617674349
 10
626.9147791883496
 20
409.76877952700704
 10
626.87574300601364
 20
409.75311744548043
 42
-0.0226977772313047
 10
616.60988044341798
 20
406.16588690597962
 10
616.55663546938831
 20
406.14995258090522
 42
-0.0229482655720906
 10
605.89904807344817
 20
403.48652215203003
 10
604.51046084702409
 20
403.20647994657099
 42
-0.0228008097096185
 10
596.1685805700921
 20
401.9166078043595
 42
-0.0131468158719269
 10
587.74975967595799
 20
401.22873642026366
 10
586.16064652911359
 20
401.14087530534988
 42
-0.0066393284309013
 10
574.53903106413532
 20
400.65300758092133
 10
568.59602952705347
 20
400.48253789619156
 42
-0.0000943666703886
 10
545.08180601462414
 20
399.81249496704766
 10
542.11435878158022
 20
399.72849741870067
 42
-0.001973169796866
 10
512.66228333984725
 20
399.0111256548181
 10
505.29936593276102
 20
398.86085631483769
 42
-0.0034023460100015
 10
461.11453490765462
 20
398.2598418625488
 10
431.65238199380178
 20
398.05959113615268
 42
-0.0067994140203297
 10
358.01048403299558
 20
398.56049947846043
 10
335.92039610527308
 20
399.01120999021418
 42
-0.0019745122983364
 10
306.46831866667083
 20
399.72849454855498
 10
303.5009258416793
 20
399.81248973764986
 42
-0.0000948375428688
 10
279.98659373256953
 20
400.4825514324765
 10
274.04369223709637
 20
400.65302780961173
 42
-0.0066377732382799
 10
262.42176714936932
 20
401.14089103802473
 10
260.83362078414996
 20
401.2286913519045
 42
-0.013096756592863
 10
252.41246795820348
 20
401.91586557641062
 42
-0.0228888223940653
 10
244.06840017746271
 20
403.20582921008133
 10
242.68041293615238
 20
403.48596282758751
 42
-0.0229169281544208
 10
232.02289250194306
 20
406.15033232477873
 10
231.96954531843932
 20
406.16629850277161
 42
-0.0226975317685976
 10
221.70383692794118
 20
409.75372026688387
 10
221.66472876502732
 20
409.76941217222043
 42
-0.0224915800413855
 10
211.84109689534947
 20
414.23382447499489
 10
211.81376432001508
 20
414.24776111582202
 42
-0.0223108654587667
 10
202.48212404711961
 20
419.54302311341218
 10
202.46437279708016
 20
419.55417100250111
 42
-0.0221742150495263
 10
193.67438897676769
 20
425.63375228794706
 10
193.66497450125513
 20
425.64090090186545
 42
-0.0221031817576266
 10
185.46511673077629
 20
432.45886178328283
 42
-0.0221039628367024
 10
177.90178700726051
 20
439.97105378324181
 42
-0.0221576376339833
 10
171.03226215738982
 20
448.12276853279292
 42
-0.0223037355208654
 10
164.91130276097763
 20
456.85561439848476
 10
164.90407654258729
 20
456.86696966606314
 42
-0.0225004591389993
 10
159.57571713147559
 20
466.13560500137311
 10
159.56483417974948
 20
466.1566760425145
 42
-0.022738334220325
 10
155.0758683831337
 20
475.91160479444488
 10
155.06239607167362
 20
475.94477397594164
 42
-0.0229951338579211
 10
151.45928591565996
 20
486.13608557266497
 10
151.44475075049169
 20
486.18411828794217
 42
-0.0232759493736644
 10
148.77419178406552
 20
496.76167796442064
 10
148.49421173335779
 20
498.13747577526209
 42
-0.0232253324741773
 10
147.20721776771933
 20
506.41094286231385
 10
147.12041666615323
 20
507.21244447569649
 42
-0.0129805338583511
 10
146.56666834871893
 20
513.95710064632999
 42
-0.0062425594005587
 10
146.27248451259905
 20
520.71980820047543
 10
146.23751292595924
 20
521.84798016090906
 42
0.0003808933581018
 10
145.95094918784676
 20
530.87048639871341
 10
145.93271133932683
 20
531.43124438290135
 42
-0.0010471920433398
 10
145.62404507650541
 20
541.57569475500372
 10
145.19300598415865
 20
556.79013842895358
 42
-0.0058360496991204
 10
144.51719971903611
 20
597.37201096194099
 10
144.32771359328547
 20
635.42567480026537
 42
-0.0083187819195949
 10
144.9782541953457
 20
691.226293924262
 10
145.62419039249846
 20
714.04887054108099
 42
-0.0010545199931669
 10
145.93270332052251
 20
724.19286160476781
 10
145.95094459195442
 20
724.75370877080695
 42
0.0003797895987381
 10
146.23751626267287
 20
733.77557250949326
 10
146.27248807828695
 20
734.90355715529461
 42
-0.006241115880654
 10
146.56667692622202
 20
741.6659969998542
 42
-0.0129411371488794
 10
147.11987027704404
 20
748.41044426768258
 10
147.20665446624173
 20
749.21297418328982
 42
-0.0232964299458141
 10
148.49378089504174
 20
757.4881575153629
 10
148.77379145845913
 20
758.86321686865483
 42
-0.0232508532303321
 10
151.44515316927621
 20
769.44056536488063
 10
151.45969096883175
 20
769.48860229480488
 42
-0.0229935376443708
 10
155.06301883719667
 20
779.67979269576517
 10
155.07649287219945
 20
779.71296426198614
 42
-0.0227374040363377
 10
159.56561099751718
 20
789.46776998577297
 10
159.57648482213861
 20
789.48882253876207
 42
-0.0225000682071877
 10
164.90497988793479
 20
798.75737132043537
 10
164.91223528696889
 20
798.76877208365147
 42
-0.0223024906921905
 10
171.03323164557932
 20
807.50145208157653
 42
-0.0221764466970681
 10
177.90288896665592
 20
815.65311195088475
 42
-0.0220877601949485
 10
185.46632615932134
 20
823.16519768257012
 42
-0.0221017355951706
 10
193.66611187527826
 20
829.98293047054824
 10
193.67565411113861
 20
829.99017595670421
 42
-0.0221754464038743
 10
202.46580493621002
 20
836.0697207416589
 10
202.48351078905222
 20
836.08083977147612
 42
-0.0223112439247143
 10
211.81523866567176
 20
841.37596747543239
 10
211.84258991413932
 20
841.38991309743597
 42
-0.0224924970160187
 10
221.66634615813277
 20
845.85417444269592
 10
221.70545200403225
 20
845.86986454036787
 42
-0.0226993104987861
 10
231.97128431047898
 20
849.45706588555868
 10
232.02462623187748
 20
849.47302895144276
 42
-0.0229490715389232
 10
242.68239000989286
 20
852.13643220623044
 10
244.07107496090362
 20
852.41648269807615
 42
-0.0228007478471555
 10
252.41343674335084
 20
853.70636283797671
 42
-0.013145286797049
 10
260.83273724888966
 20
854.3942344326075
 10
262.42176093139005
 20
854.48208814470547
 42
-0.0066539195241465
 10
274.04368463092635
 20
854.96961113074804
 10
279.98659196482583
 20
855.13972182348903
 42
-0.00008760124548
 10
303.50093569945238
 20
855.80867688541264
 10
306.46832530149391
 20
855.89257527171776
 42
-0.0019716952090336
 10
335.92039085602164
 20
856.60906589000547
 10
343.28331818314552
 20
856.75913697129158
 42
-0.0033978643040744
 10
387.46814278305487
 20
857.35935676418285
 10
416.9302862059775
 20
857.55934177470931
 42
-0.0067904041699052
 10
490.57218160748107
 20
857.05909644772589
 10
512.66228517442471
 20
856.60898277171384
 42
-0.0019731952732862
 10
542.11435214674452
 20
855.89257240122367
 10
545.08179615565803
 20
855.80867165737561
 42
-0.0000871303163616
 10
568.59603129472816
 20
855.13973535783998
 10
574.53903867096165
 20
854.96963136477041
 42
-0.0066554747151354
 10
586.16065274704454
 20
854.48210387602535
 10
587.74887767058624
 20
854.39428697729613
 42
-0.0130965910019542
 10
596.16954918704664
 20
853.70708969674774
 42
-0.0228890755392331
 10
604.51313509426973
 20
852.41713624626811
 10
605.90102495974679
 20
852.13701067712566
 42
-0.0229160827293248
 10
616.55836873598855
 20
849.47261350631038
 10
616.61161894388295
 20
849.45667608192673
 42
-0.0226959966084123
 10
626.87735759267218
 20
845.8692254801033
 10
626.91639606183935
 20
845.85356160617266
 42
-0.0224896447777969
 10
636.74022346085758
 20
841.38912387760877
 10
636.76751191904282
 20
841.37521004875475
 42
-0.0223088275914579
 10
646.09947292823176
 20
836.07993005508865
 10
646.11720257150455
 20
836.06879616453944
 42
-0.022172362913501
 10
654.90759336609472
 20
829.9892072109559
 10
654.91700452866246
 20
829.98206148018232
 42
-0.022101762821656
 10
663.11731767906576
 20
823.16410488189865
 42
-0.022103261495992
 10
670.68112371326197
 20
815.65192000201569
 42
-0.0221578400611224
 10
677.55110622019447
 20
807.5002112575196
 42
-0.0223049065197527
 10
683.67248153634853
 20
798.76733768993836
 10
683.67968798479296
 20
798.75601419143914
 42
-0.0225027687366986
 10
689.00835757024777
 20
789.48734315558863
 10
689.01922187646369
 20
789.46630918850872
 42
-0.0227418331170496
 10
693.5083459340002
 20
779.7113416037331
 10
693.52180348086381
 20
779.67820923704164
 42
-0.0229998090056766
 10
697.12487513992176
 20
769.48686180157483
 10
697.13940052064368
 20
769.43885902889247
 42
-0.0232818460391317
 10
699.80967815274369
 20
758.86127298802955
 10
700.08960155612817
 20
757.4854903522604
 42
-0.0232312039942465
 10
701.37618016742613
 20
749.21201774152712
 10
701.46294512858378
 20
748.41039410715052
 42
-0.0129890148022929
 10
702.0161447745586
 20
741.66598548433979
 42
-0.0062065359554486
 10
702.31016262178287
 20
734.90355359446141
 10
702.34518446598599
 20
733.77555656920867
 42
0.0002848041212023
 10
702.63043917116795
 20
724.75364330689933
 10
703.34229387979769
 20
702.63823027341084
 42
-0.0076759513275009
 10
704.15323475037906
 20
654.44553270604217
 10
704.18501977182609
 20
632.87970843139669
 42
-0.0003684649316737
 10
704.18875858746344
 20
627.80620643914574
 10
704.18875858746344
 20
627.81148208638933
  0
SPLINE
  5
1D7
100
AcDbEntity
  8
GAR70-0206
370
              15
390
0
  6
STYLE_12
 62
               7
100
AcDbSpline
210
0.0
220
0.0
230
1.0
 70
               8
 71
               2
 72
               6
 73
               3
 74
               0
 42
0.000001
 43
0.000001
 40
0.0
 40
0.0
 40
0.0
 40
1.0
 40
1.0
 40
1.0
 10
-711.56408461747185
 20
-383.7959536332055
 30
0.0
 10
-708.32494354610731
 20
-488.45887386273398
 30
0.0
 10
-557.57452635430184
 20
-498.7959536332055
 30
0.0
  0
CIRCLE
  5
1D8
100
AcDbEntity
  8
GAR70-0206
370
              15
390
0
  6
Continuous
 62
               7
100
AcDbCircle
 10
-291.56396932378823
 20
707.85363350076966
 30
0.0
 40
17.499999999999957
  0
CIRCLE
  5
1D9
100
AcDbEntity
  8
GAR70-0206
370
              15
390
0
  6
STYLE_12
 62
               7
100
AcDbCircle
 10
-291.56396932378823
 20
547.85363350076977
 30
0.0
 40
17.499999999999961
  0
CIRCLE
  5
1DA
100
AcDbEntity
  8
GAR70-0206
370
               5
390
0
  6
STYLE_12
 62
               7
100
AcDbCircle
 10
604.18875858746424
 20
707.85363350076966
 30
0.0
 40
17.499999999999901
  0
CIRCLE
  5
1DB
100
AcDbEntity
  8
GAR70-0206
370
               5
390
0
  6
STYLE_12
 62
               7
100
AcDbCircle
 10
604.18875858746424
 20
547.85363350076977
 30
0.0
 40
17.499999999999904
  0
LINE
  5
1DC
100
AcDbEntity
  8
GAR70-0206
370
              15
390
0
  6
STYLE_12
 62
               7
100
AcDbLine
 10
433.48044411902129
 20
520.01668455985646
 30
0.0
 11
473.48044411902129
 21
520.01668455985646
 31
0.0
  0
LINE
  5
1DD
100
AcDbEntity
  8
GAR70-0206
370
              15
390
0
  6
STYLE_12
 62
               7
100
AcDbLine
 10
453.48044411902129
 20
500.01668455985651
 30
0.0
 11
453.48044411902129
 21
540.01668455985657
 31
0.0
  0
CIRCLE
  5
1DE
100
AcDbEntity
  8
GAR70-0206
370
              15
390
0
  6
STYLE_12
 62
               7
100
AcDbCircle
 10
453.48044411902129
 20
520.01668455985646
 30
0.0
 40
5.0
  0
LINE
  5
1DF
100
AcDbEntity
  8
GAR70-0206
370
              15
390
0
  6
STYLE_12
 62
               7
100
AcDbLine
 10
433.48044411902129
 20
735.01668455985646
 30
0.0
 11
473.48044411902129
 21
735.01668455985646
 31
0.0
  0
LINE
  5
1E0
100
AcDbEntity
  8
GAR70-0206
370
              15
390
0
  6
STYLE_12
 62
               7
100
AcDbLine
 10
453.48044411902129
 20
715.01668455985646
 30
0.0
 11
453.48044411902129
 21
755.01668455985657
 31
0.0
  0
CIRCLE
  5
1E1
100
AcDbEntity
  8
GAR70-0206
370
              15
390
0
  6
STYLE_12
 62
               7
100
AcDbCircle
 10
453.48044411902129
 20
735.01668455985646
 30
0.0
 40
5.0
  0
LINE
  5
1E2
100
AcDbEntity
  8
GAR70-0206
370
              15
390
0
  6
Continuous
 62
               7
100
AcDbLine
 10
-306.95546724455392
 20
-383.7959536332055
 30
0.0
 11
-306.95546724455392
 21
-398.7959536332055
 31
0.0
  0
LINE
  5
1E3
100
AcDbEntity
  8
GAR70-0206
370
              15
390
0
  6
Continuous
 62
               7
100
AcDbLine
 10
-271.95546724455392
 20
-383.7959536332055
 30
0.0
 11
-271.95546724455392
 21
-398.7959536332055
 31
0.0
  0
LWPOLYLINE
  5
1E4
100
AcDbEntity
  8
GAR70-0206
370
              15
390
0
  6
STYLE_12
 62
               7
100
AcDbPolyline
 90
        8
 70
             128
 10
-483.62184701557578
 20
-498.79946925820559
 10
-425.57417651594687
 20
-497.44480001162606
 42
0.1195017692486926
 10
-386.03488700237051
 20
-486.87531909198515
 10
-378.75112054515569
 20
-482.90483904014036
 42
0.0717010593824623
 10
-358.52316125626544
 20
-467.77365812541575
 42
0.1426883269318713
 10
-346.73389816440238
 20
-446.29245242709908
 10
-338.2621492587499
 20
-408.13404511703084
 42
-0.0250496849292716
 10
-331.56408461747162
 20
-383.7959536332055
 42
-0.0250496849292716
  0
SPLINE
  5
1E5
100
AcDbEntity
  8
GAR70-0206
370
              15
390
0
  6
STYLE_12
 62
               7
100
AcDbSpline
210
0.0
220
0.0
230
1.0
 70
               8
 71
               2
 72
               6
 73
               3
 74
               0
 42
0.000001
 43
0.000001
 40
0.0
 40
0.0
 40
0.0
 40
1.0
 40
1.0
 40
1.0
 10
244.39024208055932
 20
-383.7958509370701
 30
0.0
 10
253.98044411902143
 20
-493.79710961762567
 30
0.0
 10
393.63118533404838
 20
-503.16203578764134
 30
0.0
  0
SPLINE
  5
1E6
100
AcDbEntity
  8
GAR70-0206
370
              15
390
0
  6
STYLE_12
 62
               7
100
AcDbSpline
210
0.0
220
0.0
230
1.0
 70
               8
 71
               2
 72
               6
 73
               3
 74
               0
 42
0.000001
 43
0.000001
 40
0.0
 40
0.0
 40
0.0
 40
1.0
 40
1.0
 40
1.0
 10
623.09860772641116
 20
-383.7958509370701
 30
0.0
 10
613.50840568794899
 20
-493.79710961762567
 30
0.0
 10
473.85766447292144
 20
-503.16203578764134
 30
0.0
  0
POLYLINE
  5
1E7
100
AcDbEntity
  8
GAR70-0206
370
              15
390
0
  6
Continuous
 62
               7
100
AcDb2dPolyline
 66
               1
 10
0.0
 20
0.0
 30
0.0
 70
               1
 75
               5
  0
VERTEX
  5
1E8
100
AcDbEntity
  8
GAR70-0206
370
              15
390
0
  6
Continuous
 62
               7
100
AcDbVertex
100
AcDb2dVertex
 10
332.0
 20
748.82328308352783
 30
0.0
  0
VERTEX
  5
1E9
100
AcDbEntity
  8
GAR70-0206
370
              15
390
0
  6
Continuous
 62
               7
100
AcDbVertex
100
AcDb2dVertex
 10
662.0
 20
748.82328308352783
 30
0.0
  0
VERTEX
  5
1EA
100
AcDbEntity
  8
GAR70-0206
370
              15
390
0
  6
Continuous
 62
               7
100
AcDbVertex
100
AcDb2dVertex
 10
662.0
 20
498.82328308352788
 30
0.0
  0
VERTEX
  5
1EB
100
AcDbEntity
  8
GAR70-0206
370
              15
390
0
  6
Continuous
 62
               7
100
AcDbVertex
100
AcDb2dVertex
 10
332.0
 20
498.82328308352788
 30
0.0
  0
SEQEND
  5
1EC
100
AcDbEntity
  8
GAR70-0206
370
              15
390
0
  6
Continuous
 62
               7
  0
CIRCLE
  5
1ED
100
AcDbEntity
  8
GAR70-0206
370
              15
390
0
  6
STYLE_12
 62
               7
100
AcDbCircle
 10
-291.56396932378823
 20
628.0
 30
0.0
 40
17.499999999999961
  0
DIMENSION
  5
1EE
100
AcDbEntity
  8
GAR70-0206
370
               5
390
0
  6
Continuous
 62
               7
100
AcDbDimension
  2
*D26
 10
-295.35272376912178
 20
690.76868867343183
 30
0.0
 11
-260.0
 21
760.0
 31
0.0
 70
               3
 71
               5
 72
               1
 41
1.0
 42
0.0
  3
tfrom線あり
100
AcDbDiametricDimension
 15
-287.77521487845479
 25
724.93857832810704
 35
0.0
 40
35.913190558072529
1001
ACAD
1000
DSTYLE
1002
{
1070
             289
1070
               0
1070
             342
1005
51
1070
             340
1005
3D
1070
              73
1070
               1
1070
              74
1070
               1
1070
              75
1070
               1
1070
              76
1070
               1
1070
               3
1000

1070
             174
1070
               0
1070
             147
1040
5.0
1002
}
  0
ENDSEC
  0
SECTION
  2
OBJECTS
  0
DICTIONARY
  5
19
100
AcDbDictionary
280
               0
281
               1
  3
ACAD_GROUP
350
1A
  3
ACAD_MLINESTYLE
350
1B
  3
ACAD_LAYOUT
350
1E
  3
ACAD_PLOTSETTINGS
350
22
  3
ACAD_PLOTSTYLENAME
350
1F
  0
DICTIONARY
  5
1A
102
{ACAD_REACTORS
330
19
102
}
100
AcDbDictionary
280
               0
281
               1
  0
DICTIONARY
  5
1B
102
{ACAD_REACTORS
330
19
102
}
100
AcDbDictionary
280
               0
281
               1
  3
Standard
350
1C
  0
MLINESTYLE
  5
1C
102
{ACAD_REACTORS
330
1B
102
}
100
AcDbMlineStyle
  2
Standard
 70
               0
  3

 62
               0
 51
90.0
 52
90.0
 71
               2
 49
0.5
 62
             256
  6
ByLayer
 49
-0.5
 62
             256
  6
ByLayer
  0
ACDBDICTIONARYWDFLT
  5
1F
102
{ACAD_REACTORS
330
19
102
}
100
AcDbDictionary
281
               1
  3
Normal
350
1D
100
AcDbDictionaryWithDefault
340
1D
  0
ACDBPLACEHOLDER
  5
1D
102
{ACAD_REACTORS
330
1F
102
}
  0
LAYOUT
  5
20
102
{ACAD_REACTORS
330
1E
102
}
100
AcDbPlotSettings
  1

  2

  4

  6

 40
0.0
 41
0.0
 42
0.0
 43
0.0
 44
0.0
 45
0.0
 46
0.0
 47
0.0
 48
0.0
 49
0.0
140
0.0
141
0.0
142
1.0
143
1.0
 70
            1024
 72
               0
 73
               0
 74
               0
  7

 75
               0
147
1.0
148
0.0
149
0.0
100
AcDbLayout
  1
Model
 70
               0
 71
               0
 10
0.0
 20
0.0
 11
0.0
 21
0.0
 12
0.0
 22
0.0
 32
0.0
 14
0.0
 24
0.0
 34
0.0
 15
0.0
 25
0.0
 35
0.0
146
0.0
 13
0.0
 23
0.0
 33
0.0
 16
0.0
 26
0.0
 36
0.0
 17
0.0
 27
0.0
 37
0.0
 76
               0
330
A
331
0
345
0
346
0
  0
LAYOUT
  5
21
102
{ACAD_REACTORS
330
1E
102
}
100
AcDbPlotSettings
  1

  2

  4

  6

 40
0.0
 41
0.0
 42
0.0
 43
0.0
 44
0.0
 45
0.0
 46
0.0
 47
0.0
 48
0.0
 49
0.0
140
0.0
141
0.0
142
1.0
143
1.0
 70
               0
 72
               0
 73
               0
 74
               0
  7

 75
               0
147
1.0
148
0.0
149
0.0
100
AcDbLayout
  1
Layout1
 70
               0
 71
               0
 10
0.0
 20
0.0
 11
0.0
 21
0.0
 12
0.0
 22
0.0
 32
0.0
 14
0.0
 24
0.0
 34
0.0
 15
0.0
 25
0.0
 35
0.0
146
0.0
 13
0.0
 23
0.0
 33
0.0
 16
0.0
 26
0.0
 36
0.0
 17
0.0
 27
0.0
 37
0.0
 76
               0
330
B
331
0
345
0
346
0
  0
DICTIONARY
  5
1E
102
{ACAD_REACTORS
330
19
102
}
100
AcDbDictionary
280
               0
281
               1
  3
Layout1
350
21
  3
Model
350
20
  0
DICTIONARY
  5
22
102
{ACAD_REACTORS
330
19
102
}
100
AcDbDictionary
280
               0
281
               1
  0
ENDSEC
  0
EOF
