  0
SECTION
  2
HEADER
  9
$ACADVER
  1
AC1015
  9
$ACADMAINTVER
 70
               6
  9
$DWGCODEPAGE
  3
ANSI_932
  9
$INSBASE
 10
0.0
 20
0.0
 30
0.0
  9
$EXTMIN
 10
-975.00000000024124
 20
-1418.7614075562067
 30
-14.834305555555554
  9
$EXTMAX
 10
975.0000000002417
 20
1418.7614075562067
 30
14.834305555555554
  9
$LIMMIN
 10
0.0
 20
0.0
  9
$LIMMAX
 10
0.0
 20
0.0
  9
$ORTHOMODE
 70
               0
  9
$REGENMODE
 70
               1
  9
$FILLMODE
 70
               1
  9
$QTEXTMODE
 70
               0
  9
$MIRRTEXT
 70
               1
  9
$LTSCALE
 40
50.799999999999997
  9
$ATTMODE
 70
               1
  9
$TEXTSIZE
 40
0.2
  9
$TRACEWID
 40
1.0
  9
$TEXTSTYLE
  7
Standard
  9
$CLAYER
  8
GAR70-0601
  9
$CELTYPE
  6
Continuous
  9
$CECOLOR
 62
             256
  9
$CELTSCALE
 40
1.0
  9
$DISPSILH
 70
               0
  9
$DIMSCALE
 40
1.0
  9
$DIMASZ
 40
3.999755859375
  9
$DIMEXO
 40
24.999999999999996
  9
$DIMDLI
 40
0.9999999999999999
  9
$DIMRND
 40
0.0
  9
$DIMDLE
 40
0.0
  9
$DIMEXE
 40
0.0
  9
$DIMTP
 40
0.0
  9
$DIMTM
 40
0.0
  9
$DIMTXT
 40
24.432617187500004
  9
$DIMCEN
 40
0.0
  9
$DIMTSZ
 40
0.0
  9
$DIMTOL
 70
               0
  9
$DIMLIM
 70
               0
  9
$DIMTIH
 70
               0
  9
$DIMTOH
 70
               0
  9
$DIMSE1
 70
               0
  9
$DIMSE2
 70
               0
  9
$DIMTAD
 70
               1
  9
$DIMZIN
 70
              11
  9
$DIMBLK
  1
_DOT
  9
$DIMASO
 70
               1
  9
$DIMSHO
 70
               1
  9
$DIMPOST
  1
<>
  9
$DIMAPOST
  1
[]
  9
$DIMALT
 70
               0
  9
$DIMALTD
 70
               1
  9
$DIMALTF
 40
1.0
  9
$DIMLFAC
 40
1.0
  9
$DIMTOFL
 70
               0
  9
$DIMTVP
 40
0.0
  9
$DIMTIX
 70
               1
  9
$DIMSOXD
 70
               0
  9
$DIMSAH
 70
               0
  9
$DIMBLK1
  1

  9
$DIMBLK2
  1

  9
$DIMSTYLE
  2
tfrom線あり
  9
$DIMCLRD
 70
               0
  9
$DIMCLRE
 70
               0
  9
$DIMCLRT
 70
               0
  9
$DIMTFAC
 40
1.0
  9
$DIMGAP
 40
0.4999999999999999
  9
$DIMJUST
 70
               0
  9
$DIMSD1
 70
               0
  9
$DIMSD2
 70
               0
  9
$DIMTOLJ
 70
               1
  9
$DIMTZIN
 70
              11
  9
$DIMALTZ
 70
              11
  9
$DIMALTTZ
 70
              11
  9
$DIMUPT
 70
               0
  9
$DIMDEC
 70
               1
  9
$DIMTDEC
 70
               1
  9
$DIMALTU
 70
               2
  9
$DIMALTTD
 70
               2
  9
$DIMTXSTY
  7
ＭＳ ゴシック
  9
$DIMAUNIT
 70
               0
  9
$DIMADEC
 70
               2
  9
$DIMALTRND
 40
0.0
  9
$DIMAZIN
 70
               0
  9
$DIMDSEP
 70
              46
  9
$DIMATFIT
 70
               0
  9
$DIMFRAC
 70
               2
  9
$DIMLDRBLK
  1

  9
$DIMLUNIT
 70
               2
  9
$DIMLWD
 70
              -2
  9
$DIMLWE
 70
              -2
  9
$DIMTMOVE
 70
               0
  9
$LUNITS
 70
               2
  9
$LUPREC
 70
               4
  9
$SKETCHINC
 40
0.1
  9
$FILLETRAD
 40
0.0
  9
$AUNITS
 70
               0
  9
$AUPREC
 70
               0
  9
$MENU
  1
acad
  9
$ELEVATION
 40
0.0
  9
$PELEVATION
 40
0.0
  9
$THICKNESS
 40
0.0
  9
$LIMCHECK
 70
               0
  9
$CHAMFERA
 40
0.0
  9
$CHAMFERB
 40
0.0
  9
$CHAMFERC
 40
0.0
  9
$CHAMFERD
 40
0.0
  9
$SKPOLY
 70
               0
  9
$TDCREATE
 40
2456470.443657408
  9
$TDUCREATE
 40
0.000000000
  9
$TDUPDATE
 40
2456470.443657408
  9
$TDUUPDATE
 40
0.000000000
  9
$TDINDWG
 40
0.0000000000
  9
$TDUSRTIMER
 40
0.0000000000
  9
$USRTIMER
 70
               1
  9
$ANGBASE
 50
0.0
  9
$ANGDIR
 70
               0
  9
$PDMODE
 70
               1
  9
$PDSIZE
 40
-2.0
  9
$PLINEWID
 40
0.0
  9
$SPLFRAME
 70
               0
  9
$SPLINETYPE
 70
               6
  9
$SPLINESEGS
 70
               8
  9
$HANDSEED
  5
217
  9
$SURFTAB1
 70
               6
  9
$SURFTAB2
 70
               6
  9
$SURFTYPE
 70
               6
  9
$SURFU
 70
               6
  9
$SURFV
 70
               6
  9
$UCSBASE
  2

  9
$UCSNAME
  2

  9
$UCSORG
 10
0.0
 20
0.0
 30
0.0
  9
$UCSXDIR
 10
1.0
 20
0.0
 30
0.0
  9
$UCSYDIR
 10
0.0
 20
1.0
 30
0.0
  9
$UCSORTHOREF
  2

  9
$UCSORTHOVIEW
 70
               0
  9
$UCSORGTOP
 10
0.0
 20
0.0
 30
0.0
  9
$UCSORGBOTTOM
 10
0.0
 20
0.0
 30
0.0
  9
$UCSORGLEFT
 10
0.0
 20
0.0
 30
0.0
  9
$UCSORGRIGHT
 10
0.0
 20
0.0
 30
0.0
  9
$UCSORGFRONT
 10
0.0
 20
0.0
 30
0.0
  9
$UCSORGBACK
 10
0.0
 20
0.0
 30
0.0
  9
$PUCSBASE
  2

  9
$PUCSNAME
  2

  9
$PUCSORG
 10
0.0
 20
0.0
 30
0.0
  9
$PUCSXDIR
 10
1.0
 20
0.0
 30
0.0
  9
$PUCSYDIR
 10
0.0
 20
1.0
 30
0.0
  9
$PUCSORTHOREF
  2

  9
$PUCSORTHOVIEW
 70
               0
  9
$PUCSORGTOP
 10
0.0
 20
0.0
 30
0.0
  9
$PUCSORGBOTTOM
 10
0.0
 20
0.0
 30
0.0
  9
$PUCSORGLEFT
 10
0.0
 20
0.0
 30
0.0
  9
$PUCSORGRIGHT
 10
0.0
 20
0.0
 30
0.0
  9
$PUCSORGFRONT
 10
0.0
 20
0.0
 30
0.0
  9
$PUCSORGBACK
 10
0.0
 20
0.0
 30
0.0
  9
$USERI1
 70
               0
  9
$USERI2
 70
               0
  9
$USERI3
 70
               0
  9
$USERI4
 70
               0
  9
$USERI5
 70
               0
  9
$USERR1
 40
0.0
  9
$USERR2
 40
0.0
  9
$USERR3
 40
0.0
  9
$USERR4
 40
0.0
  9
$USERR5
 40
0.0
  9
$WORLDVIEW
 70
               1
  9
$SHADEDGE
 70
               3
  9
$SHADEDIF
 70
              70
  9
$TILEMODE
 70
               1
  9
$MAXACTVP
 70
              64
  9
$PINSBASE
 10
0.0
 20
0.0
 30
0.0
  9
$PLIMCHECK
 70
               0
  9
$PEXTMIN
 10
1.0000000000000000E+20
 20
1.0000000000000000E+20
 30
1.0000000000000000E+20
  9
$PEXTMAX
 10
-1.0000000000000000E+20
 20
-1.0000000000000000E+20
 30
-1.0000000000000000E+20
  9
$PLIMMIN
 10
0.0
 20
0.0
  9
$PLIMMAX
 10
12.0
 20
9.0
  9
$UNITMODE
 70
               0
  9
$VISRETAIN
 70
               0
  9
$PLINEGEN
 70
               1
  9
$PSLTSCALE
 70
               0
  9
$TREEDEPTH
 70
            3020
  9
$CMLSTYLE
  2
Standard
  9
$CMLJUST
 70
               0
  9
$CMLSCALE
 40
1.0
  9
$PROXYGRAPHICS
 70
               0
  9
$MEASUREMENT
 70
               1
  9
$CELWEIGHT
370
               0
  9
$ENDCAPS
280
               0
  9
$JOINSTYLE
280
               0
  9
$LWDISPLAY
290
               1
  9
$INSUNITS
 70
               4
  9
$HYPERLINKBASE
  1

  9
$STYLESHEET
  1

  9
$XEDIT
290
               1
  9
$CEPSNTYPE
380
               0
  9
$PSTYLEMODE
290
               1
  9
$FINGERPRINTGUID
  2

  9
$VERSIONGUID
  2

  9
$EXTNAMES
290
               1
  9
$PSVPSCALE
 40
0.0
  0
ENDSEC
  0
SECTION
  2
CLASSES
  0
CLASS
  1
LWPOLYLINE
  2
AcDbPolyline
  3
AutoCAD 2000
 90
        0
280
               0
281
               1
  0
CLASS
  1
IMAGE
  2
AcDbRasterImage
  3
ISM
 90
      127
280
               0
281
               1
  0
CLASS
  1
OLE2FRAME
  2
AcDbOle2Frame
  3
AutoCAD 2000
 90
        0
280
               0
281
               1
  0
CLASS
  1
HATCH
  2
AcDbHatch
  3
AutoCAD 2000
 90
        0
280
               0
281
               1
  0
CLASS
  1
DICTIONARYVAR
  2
AcDbDictionaryVar
  3
AutoCAD 2000
 90
        0
280
               0
281
               0
  0
CLASS
  1
RASTERVARIABLES
  2
AcDbRasterVariables
  3
ISM
 90
        0
280
               0
281
               0
  0
CLASS
  1
IMAGEDEF
  2
AcDbRasterImageDef
  3
ISM
 90
        0
280
               0
281
               0
  0
CLASS
  1
IMAGEDEF_REACTOR
  2
AcDbRasterImageDefReactor
  3
ISM
 90
        1
280
               0
281
               0
  0
CLASS
  1
IDBUFFER
  2
AcDbIdBuffer
  3
AutoCAD 2000
 90
        0
280
               0
281
               0
  0
CLASS
  1
SPATIAL_FILTER
  2
AcDbSpatialFilter
  3
AutoCAD 2000
 90
        0
280
               0
281
               0
  0
CLASS
  1
XRECORD
  2
AcDbXrecord
  3
AutoCAD 2000
 90
        0
280
               0
281
               0
  0
CLASS
  1
SORTENTSTABLE
  2
AcDbSortentsTable
  3
AutoCAD 2000
 90
        0
280
               0
281
               0
  0
CLASS
  1
LAYER_INDEX
  2
AcDbLayerIndex
  3
AutoCAD 2000
 90
        0
280
               0
281
               0
  0
CLASS
  1
SPATIAL_INDEX
  2
AcDbSpatialIndex
  3
AutoCAD 2000
 90
        0
280
               0
281
               0
  0
CLASS
  1
OBJECT_PTR
  2
CAseDLPNTableRecord
  3
"ASE-LPNTableRecord"
 90
        1
280
               0
281
               0
  0
CLASS
  1
LAYOUT
  2
AcDbLayout
  3
AutoCAD 2000
 90
        0
280
               0
281
               0
  0
CLASS
  1
PLOTSETTINGS
  2
AcDbPlotSettings
  3
AutoCAD 2000
 90
        0
280
               0
281
               0
  0
CLASS
  1
ACDBDICTIONARYWDFLT
  2
AcDbDictionaryWithDefault
  3
AutoCAD 2000
 90
        0
280
               0
281
               0
  0
CLASS
  1
ACDBPLACEHOLDER
  2
AcDbPlaceHolder
  3
AutoCAD 2000
 90
        0
280
               0
281
               0
  0
ENDSEC
  0
SECTION
  2
TABLES
  0
TABLE
  2
VPORT
  5
7
100
AcDbSymbolTable
 70
               1
  0
VPORT
  5
15
100
AcDbSymbolTableRecord
100
AcDbViewportTableRecord
  2
*ACTIVE
 70
               0
 10
0.0
 20
0.0
 11
1.0
 21
1.0
 12
0.0000000000002274
 22
0.0
 13
0.0
 23
0.0
 14
1.0
 24
1.0
 15
0.0
 25
0.0
 16
0.0
 26
0.0
 36
1.0
 17
0.0
 27
0.0
 37
0.0
 40
2837.5228151124134
 41
0.688564
 42
50.0
 43
0.0
 44
0.0
 50
0.0
 51
0.0
 71
               0
 72
            2000
 73
               1
 74
               1
 75
               0
 76
               0
 77
               0
 78
               0
281
               0
 65
               0
110
0.0
120
0.0
130
0.0
111
1.0
121
0.0
131
0.0
112
0.0
122
1.0
132
0.0
345
0
346
0
 79
               0
146
0.0
  0
ENDTAB
  0
TABLE
  2
LTYPE
  5
4
100
AcDbSymbolTable
 70
              17
  0
LTYPE
  5
11
100
AcDbSymbolTableRecord
100
AcDbLinetypeTableRecord
  2
ByBlock
 70
              64
  3

 72
              65
 73
               0
 40
0.0
  0
LTYPE
  5
12
100
AcDbSymbolTableRecord
100
AcDbLinetypeTableRecord
  2
ByLayer
 70
              64
  3

 72
              65
 73
               0
 40
0.0
  0
LTYPE
  5
13
100
AcDbSymbolTableRecord
100
AcDbLinetypeTableRecord
  2
Continuous
 70
              64
  3
Solid line
 72
              65
 73
               0
 40
0.0
  0
LTYPE
  5
3F
100
AcDbSymbolTableRecord
100
AcDbLinetypeTableRecord
  2
STYLE_01
 70
               0
  3

 72
              65
 73
               2
 40
0.2083334645669292
 49
0.1388889763779528
 74
               0
 49
-0.0694444881889764
 74
               0
  0
LTYPE
  5
40
100
AcDbSymbolTableRecord
100
AcDbLinetypeTableRecord
  2
STYLE_02
 70
               0
  3

 72
              65
 73
               2
 40
0.6944250000000001
 49
0.48607
 74
               0
 49
-0.2083550000000001
 74
               0
  0
LTYPE
  5
41
100
AcDbSymbolTableRecord
100
AcDbLinetypeTableRecord
  2
STYLE_03
 70
               0
  3

 72
              65
 73
               2
 40
1.25
 49
1.0416400000000001
 74
               0
 49
-0.2083599999999999
 74
               0
  0
LTYPE
  5
42
100
AcDbSymbolTableRecord
100
AcDbLinetypeTableRecord
  2
STYLE_04
 70
               0
  3

 72
              65
 73
               2
 40
1.5277099999999999
 49
1.3194249999999998
 74
               0
 49
-0.208285
 74
               0
  0
LTYPE
  5
43
100
AcDbSymbolTableRecord
100
AcDbLinetypeTableRecord
  2
STYLE_05
 70
               0
  3

 72
              65
 73
               2
 40
0.20828
 49
0.069425
 74
               0
 49
-0.138855
 74
               0
  0
LTYPE
  5
44
100
AcDbSymbolTableRecord
100
AcDbLinetypeTableRecord
  2
STYLE_06
 70
               0
  3

 72
              65
 73
               4
 40
1.0416400000000001
 49
0.625
 74
               0
 49
-0.20828
 74
               0
 49
0.06943
 74
               0
 49
-0.13893
 74
               0
  0
LTYPE
  5
45
100
AcDbSymbolTableRecord
100
AcDbLinetypeTableRecord
  2
STYLE_07
 70
               0
  3

 72
              65
 73
               6
 40
1.875
 49
0.625
 74
               0
 49
-0.20828
 74
               0
 49
0.6250000000000001
 74
               0
 49
-0.2083599999999999
 74
               0
 49
0.06943
 74
               0
 49
-0.1389299999999999
 74
               0
  0
LTYPE
  5
46
100
AcDbSymbolTableRecord
100
AcDbLinetypeTableRecord
  2
STYLE_08
 70
               0
  3

 72
              65
 73
               6
 40
1.25
 49
0.625
 74
               0
 49
-0.20828
 74
               0
 49
0.06943
 74
               0
 49
-0.13893
 74
               0
 49
0.0694299999999999
 74
               0
 49
-0.13893
 74
               0
  0
LTYPE
  5
47
100
AcDbSymbolTableRecord
100
AcDbLinetypeTableRecord
  2
STYLE_09
 70
               0
  3

 72
              65
 73
               4
 40
5.0
 49
3.75
 74
               0
 49
-0.2777849999999998
 74
               0
 49
0.6944300000000003
 74
               0
 49
-0.2777849999999998
 74
               0
  0
LTYPE
  5
48
100
AcDbSymbolTableRecord
100
AcDbLinetypeTableRecord
  2
STYLE_10
 70
               0
  3

 72
              65
 73
               6
 40
5.9375
 49
3.75
 74
               0
 49
-0.2777849999999998
 74
               0
 49
0.6944300000000003
 74
               0
 49
-0.2777849999999998
 74
               0
 49
0.625
 74
               0
 49
-0.3125
 74
               0
  0
LTYPE
  5
49
100
AcDbSymbolTableRecord
100
AcDbLinetypeTableRecord
  2
STYLE_11
 70
               0
  3

 72
              65
 73
               2
 40
0.0694444881889764
 49
0.0347222440944882
 74
               0
 49
-0.0347222440944882
 74
               0
  0
LTYPE
  5
4A
100
AcDbSymbolTableRecord
100
AcDbLinetypeTableRecord
  2
STYLE_12
 70
               0
  3

 72
              65
 73
               2
 40
0.3937007874015748
 49
0.1968503937007874
 74
               0
 49
-0.1968503937007874
 74
               0
  0
LTYPE
  5
4B
100
AcDbSymbolTableRecord
100
AcDbLinetypeTableRecord
  2
STYLE_13
 70
               0
  3

 72
              65
 73
               2
 40
0.5905511811023622
 49
0.2952755905511811
 74
               0
 49
-0.2952755905511811
 74
               0
  0
LTYPE
  5
4C
100
AcDbSymbolTableRecord
100
AcDbLinetypeTableRecord
  2
STYLE_14
 70
               0
  3

 72
              65
 73
               2
 40
1.9685039370078738
 49
0.9842519685039369
 74
               0
 49
-0.9842519685039369
 74
               0
  0
ENDTAB
  0
TABLE
  2
LAYER
  5
2
100
AcDbSymbolTable
 70
               5
  0
LAYER
  5
14
100
AcDbSymbolTableRecord
100
AcDbLayerTableRecord
  2
0
 70
               0
 62
               7
  6
Continuous
290
               1
370
              -3
390
1D
  0
LAYER
  5
4D
100
AcDbSymbolTableRecord
100
AcDbLayerTableRecord
  2
Defpoints
 70
               0
 62
               7
  6
Continuous
290
               0
370
              -3
390
1D
  0
LAYER
  5
4E
100
AcDbSymbolTableRecord
100
AcDbLayerTableRecord
  2
template
 70
               0
 62
               7
  6
Continuous
290
               1
370
              -3
390
1D
  0
LAYER
  5
4F
100
AcDbSymbolTableRecord
100
AcDbLayerTableRecord
  2
notes
 70
               0
 62
               7
  6
Continuous
290
               1
370
              -3
390
1D
  0
LAYER
  5
50
100
AcDbSymbolTableRecord
100
AcDbLayerTableRecord
  2
GAR70-0601
 70
               0
 62
               7
  6
Continuous
290
               1
370
              -3
390
1D
  0
ENDTAB
  0
TABLE
  2
STYLE
  5
3
100
AcDbSymbolTable
 70
               3
  0
STYLE
  5
17
100
AcDbSymbolTableRecord
100
AcDbTextStyleTableRecord
  2
Standard
 70
               0
 40
0.0
 41
1.0
 50
0.0
 71
               0
 42
0.0
  3
txt
  4
BIGFONT.SHX
  0
STYLE
  5
3D
100
AcDbSymbolTableRecord
100
AcDbTextStyleTableRecord
  2
MS UI Gothic
 70
               0
 40
0.0
 41
1.0
 50
0.0
 71
               0
 42
0.0
  3

  4
MS UI Gothic
1001
ACAD
1000
MS UI Gothic
1071
        0
  0
STYLE
  5
3E
100
AcDbSymbolTableRecord
100
AcDbTextStyleTableRecord
  2
ＭＳ ゴシック
 70
               0
 40
0.0
 41
1.0
 50
0.0
 71
               0
 42
0.0
  3

  4
ＭＳ ゴシック
1001
ACAD
1000
ＭＳ ゴシック
1071
        0
  0
ENDTAB
  0
TABLE
  2
VIEW
  5
5
100
AcDbSymbolTable
 70
               0
  0
ENDTAB
  0
TABLE
  2
UCS
  5
6
100
AcDbSymbolTable
 70
               0
  0
ENDTAB
  0
TABLE
  2
APPID
  5
8
100
AcDbSymbolTable
 70
               1
  0
APPID
  5
16
100
AcDbSymbolTableRecord
100
AcDbRegAppTableRecord
  2
ACAD
 70
               0
  0
ENDTAB
  0
TABLE
  2
DIMSTYLE
  5
9
100
AcDbSymbolTable
 70
               2
100
AcDbDimStyleTable
 71
               0
  0
DIMSTYLE
105
18
100
AcDbSymbolTableRecord
100
AcDbDimStyleTableRecord
  2
Standard
 70
               0
  3

  4

 40
1.0
 41
0.18
 42
0.0625
 43
0.38
 44
0.18
 45
0.0
 46
0.0
 47
0.0
 48
0.0
 71
               0
 72
               0
 73
               1
 74
               1
 75
               0
 76
               0
 77
               0
 78
               0
 79
               0
140
0.18
141
0.09
142
0.0
143
25.399999999999999
144
1.0
145
0.0
146
1.0
147
0.09
148
0.0
170
               0
171
               2
172
               0
173
               0
174
               0
175
               0
176
               0
177
               0
178
               0
179
               0
271
               4
272
               4
273
               2
274
               2
275
               0
276
               0
277
               2
278
              46
279
               0
280
               0
281
               0
282
               0
283
               1
284
               0
285
               0
286
               0
288
               0
289
               3
340
17
341
0
342
0
343
0
344
0
371
              -2
372
              -2
  0
DIMSTYLE
105
59
100
AcDbSymbolTableRecord
100
AcDbDimStyleTableRecord
  2
tfrom線あり
 70
               0
  3
<>
  4
[]
 40
1.0
 41
3.999755859375
 42
24.999999999999996
 43
0.9999999999999999
 44
0.0
 45
0.0
 46
0.0
 47
0.0
 48
0.0
 71
               0
 72
               0
 73
               0
 74
               0
 75
               0
 76
               0
 77
               1
 78
              11
 79
               0
140
24.432617187500004
141
0.0
142
0.0
143
1.0
144
1.0
145
0.0
146
1.0
147
0.4999999999999999
148
0.0
170
               0
171
               1
172
               0
173
               0
174
               1
175
               0
176
               0
177
               0
178
               0
179
               2
271
               1
272
               1
273
               2
274
               2
275
               0
276
               2
277
               2
278
              46
279
               0
280
               0
281
               0
282
               0
283
               1
284
              11
285
              11
286
              11
288
               0
289
               0
340
3E
341
51
342
51
343
0
344
0
371
              -2
372
              -2
  0
ENDTAB
  0
TABLE
  2
BLOCK_RECORD
  5
1
100
AcDbSymbolTable
 70
              27
  0
BLOCK_RECORD
  5
A
100
AcDbSymbolTableRecord
100
AcDbBlockTableRecord
  2
*MODEL_SPACE
340
20
  0
BLOCK_RECORD
  5
B
100
AcDbSymbolTableRecord
100
AcDbBlockTableRecord
  2
*PAPER_SPACE
340
21
  0
BLOCK_RECORD
  5
51
100
AcDbSymbolTableRecord
100
AcDbBlockTableRecord
  2
_DOT
340
0
  0
BLOCK_RECORD
  5
23
100
AcDbSymbolTableRecord
100
AcDbBlockTableRecord
  2
グループ
340
0
102
{BLKREFS
331
6A
102
}
  0
BLOCK_RECORD
  5
24
100
AcDbSymbolTableRecord
100
AcDbBlockTableRecord
  2
グループ-1
340
0
102
{BLKREFS
331
18A
102
}
  0
BLOCK_RECORD
  5
25
100
AcDbSymbolTableRecord
100
AcDbBlockTableRecord
  2
*D3
340
0
  0
BLOCK_RECORD
  5
26
100
AcDbSymbolTableRecord
100
AcDbBlockTableRecord
  2
*D4
340
0
  0
BLOCK_RECORD
  5
27
100
AcDbSymbolTableRecord
100
AcDbBlockTableRecord
  2
*D5
340
0
  0
BLOCK_RECORD
  5
28
100
AcDbSymbolTableRecord
100
AcDbBlockTableRecord
  2
*D6
340
0
  0
BLOCK_RECORD
  5
29
100
AcDbSymbolTableRecord
100
AcDbBlockTableRecord
  2
*D7
340
0
  0
BLOCK_RECORD
  5
2A
100
AcDbSymbolTableRecord
100
AcDbBlockTableRecord
  2
*D8
340
0
  0
BLOCK_RECORD
  5
2B
100
AcDbSymbolTableRecord
100
AcDbBlockTableRecord
  2
*D9
340
0
  0
BLOCK_RECORD
  5
2C
100
AcDbSymbolTableRecord
100
AcDbBlockTableRecord
  2
*D10
340
0
  0
BLOCK_RECORD
  5
2D
100
AcDbSymbolTableRecord
100
AcDbBlockTableRecord
  2
*D11
340
0
  0
BLOCK_RECORD
  5
2E
100
AcDbSymbolTableRecord
100
AcDbBlockTableRecord
  2
*D12
340
0
  0
BLOCK_RECORD
  5
2F
100
AcDbSymbolTableRecord
100
AcDbBlockTableRecord
  2
*D13
340
0
  0
BLOCK_RECORD
  5
30
100
AcDbSymbolTableRecord
100
AcDbBlockTableRecord
  2
*D14
340
0
  0
BLOCK_RECORD
  5
31
100
AcDbSymbolTableRecord
100
AcDbBlockTableRecord
  2
*D15
340
0
  0
BLOCK_RECORD
  5
32
100
AcDbSymbolTableRecord
100
AcDbBlockTableRecord
  2
壁取付ボルト説明
340
0
102
{BLKREFS
331
19A
102
}
  0
BLOCK_RECORD
  5
33
100
AcDbSymbolTableRecord
100
AcDbBlockTableRecord
  2
*D17
340
0
  0
BLOCK_RECORD
  5
34
100
AcDbSymbolTableRecord
100
AcDbBlockTableRecord
  2
*D18
340
0
  0
BLOCK_RECORD
  5
35
100
AcDbSymbolTableRecord
100
AcDbBlockTableRecord
  2
*D19
340
0
  0
BLOCK_RECORD
  5
36
100
AcDbSymbolTableRecord
100
AcDbBlockTableRecord
  2
グループ-2
340
0
102
{BLKREFS
331
152
102
}
  0
BLOCK_RECORD
  5
37
100
AcDbSymbolTableRecord
100
AcDbBlockTableRecord
  2
シンボル-1
340
0
102
{BLKREFS
331
1E4
331
1E5
102
}
  0
BLOCK_RECORD
  5
38
100
AcDbSymbolTableRecord
100
AcDbBlockTableRecord
  2
グループ-3
340
0
102
{BLKREFS
331
20F
102
}
  0
BLOCK_RECORD
  5
39
100
AcDbSymbolTableRecord
100
AcDbBlockTableRecord
  2
グループ-4
340
0
102
{BLKREFS
331
212
102
}
  0
BLOCK_RECORD
  5
3A
100
AcDbSymbolTableRecord
100
AcDbBlockTableRecord
  2
グループ-5
340
0
102
{BLKREFS
331
176
102
}
  0
BLOCK_RECORD
  5
3B
100
AcDbSymbolTableRecord
100
AcDbBlockTableRecord
  2
グループ-6
340
0
102
{BLKREFS
331
215
102
}
  0
BLOCK_RECORD
  5
3C
100
AcDbSymbolTableRecord
100
AcDbBlockTableRecord
  2
グループ-7
340
0
102
{BLKREFS
331
216
102
}
  0
ENDTAB
  0
ENDSEC
  0
SECTION
  2
BLOCKS
  0
BLOCK
  5
D
100
AcDbEntity
  8
0
390
0
100
AcDbBlockBegin
  2
*MODEL_SPACE
 70
               0
 10
0.0
 20
0.0
 30
0.0
  3
*MODEL_SPACE
  1

  0
ENDBLK
  5
E
100
AcDbEntity
  8
0
390
0
100
AcDbBlockEnd
  0
BLOCK
  5
F
100
AcDbEntity
 67
               1
  8
0
390
0
100
AcDbBlockBegin
  2
*PAPER_SPACE
 70
               0
 10
0.0
 20
0.0
 30
0.0
  3
*PAPER_SPACE
  1

  0
ENDBLK
  5
10
100
AcDbEntity
 67
               1
  8
0
390
0
100
AcDbBlockEnd
  0
BLOCK
  5
52
100
AcDbEntity
  8
0
390
0
100
AcDbBlockBegin
  2
_DOT
 70
               0
 10
0.0
 20
0.0
 30
0.0
  3
_DOT
  1

  0
POLYLINE
  5
53
100
AcDbEntity
  8
0
370
              -2
390
0
  6
ByBlock
 62
               0
100
AcDb2dPolyline
 66
               1
 10
0.0
 20
0.0
 30
0.0
 70
               1
 40
0.5
 41
0.5
  0
VERTEX
  5
54
100
AcDbEntity
  8
0
370
              -2
390
0
  6
ByBlock
 62
               0
100
AcDbVertex
100
AcDb2dVertex
 10
-0.25
 20
0.0
 30
0.0
 42
1.0
  0
VERTEX
  5
55
100
AcDbEntity
  8
0
370
              -2
390
0
  6
ByBlock
 62
               0
100
AcDbVertex
100
AcDb2dVertex
 10
0.25
 20
0.0
 30
0.0
 42
1.0
  0
SEQEND
  5
56
100
AcDbEntity
  8
0
390
0
  0
LINE
  5
57
100
AcDbEntity
  8
0
370
              -2
390
0
  6
ByBlock
 62
               0
100
AcDbLine
 10
-0.5
 20
0.0
 30
0.0
 11
-1.0
 21
0.0
 31
0.0
  0
ENDBLK
  5
58
100
AcDbEntity
  8
0
390
0
100
AcDbBlockEnd
  0
BLOCK
  5
5A
100
AcDbEntity
  8
template
390
0
100
AcDbBlockBegin
  2
グループ
 70
               0
 10
0.0
 20
0.0
 30
0.0
  3
グループ
  1

  0
LWPOLYLINE
  5
5B
100
AcDbEntity
  8
0
370
              15
390
0
  6
Continuous
 62
               7
100
AcDbPolyline
 90
        8
 70
             129
 10
581.42885842909664
 20
-1890.0135251435524
 10
581.42885842909664
 20
-1896.0109138371283
 10
571.92766151109345
 20
-1896.0109138371283
 10
571.92766151109345
 20
-1920.4618771006369
 10
563.572284249311
 20
-1920.4618771006369
 10
563.572284249311
 20
-1896.0109138371283
 10
554.23932730300157
 20
-1896.0109138371283
 10
554.23932730300157
 20
-1890.0135251435524
  0
LWPOLYLINE
  5
5C
100
AcDbEntity
  8
0
370
              15
390
0
  6
Continuous
 62
               7
100
AcDbPolyline
 90
      101
 70
             128
 10
594.15715025965392
 20
-1890.7417736364889
 10
594.17250028844046
 20
-1890.7374128798033
 42
-0.0222221607812046
 10
594.46250486510962
 20
-1890.6687884145592
 10
594.47829862910044
 20
-1890.6657849914627
 42
-0.0146883565587379
 10
594.74100133432739
 20
-1890.6237818045129
 42
-0.0127458844184813
 10
595.00564030147768
 20
-1890.5962448364405
 10
595.06809537979325
 20
-1890.5913514138522
 42
-0.0198099018563684
 10
595.45894448927061
 20
-1890.5762662564555
 10
595.51075595871407
 20
-1890.5763200321205
 42
-0.0147617382765542
 10
596.00537941968503
 20
-1890.5914400573652
 10
596.07807087456638
 20
-1890.5958126642531
 42
-0.0162624549000461
 10
596.4682245040276
 20
-1890.6320455395253
 10
596.58975689528404
 20
-1890.6473320985215
 42
-0.0080020874670621
 10
596.73533592637841
 20
-1890.6680149457902
 10
596.77365539696962
 20
-1890.6740862236006
 42
-0.0053821929667203
 10
596.84213950228832
 20
-1890.6856937474229
 10
596.11573380308937
 20
-1892.8666222031368
 42
0.0108667757404533
 10
596.04841673295402
 20
-1892.8534350879161
 10
596.01094870976931
 20
-1892.8469373453224
 42
0.0170663203311179
 10
595.86773192285511
 20
-1892.8271077480308
 10
595.79985659017075
 20
-1892.8200605774432
 42
0.0220162375275782
 10
595.51947718231429
 20
-1892.8033782166731
 10
595.44162161526208
 20
-1892.8021788494066
 42
0.028260691578875
 10
595.10598529168556
 20
-1892.8159821263757
 10
595.06207201791551
 20
-1892.8202821163793
 42
0.0169677213683582
 10
594.816147522954
 20
-1892.8528191659314
 42
0.0190576269869961
 10
594.57323956037158
 20
-1892.9029660380381
 10
594.56698037226306
 20
-1892.9045090121469
 42
0.02136856428438
 10
594.31659588778678
 20
-1892.9777092972513
 10
594.31110599286922
 20
-1892.9795722933109
 42
0.0237595297595978
 10
594.05761110796709
 20
-1893.0792568152081
 10
594.05250903394108
 20
-1893.0815485906846
 42
0.0261857468814018
 10
593.80033825771397
 20
-1893.2110849280575
 10
593.78991206862236
 20
-1893.2171504025284
 42
0.0272553062021177
 10
593.55348229338551
 20
-1893.3725226084719
 10
593.51871927987906
 20
-1893.3981837565618
 42
0.0325996893175009
 10
593.36856393622475
 20
-1893.5249316295353
 10
593.3448545070986
 20
-1893.5477496580511
 42
0.013805096064586
 10
593.25297135089158
 20
-1893.6411993196
 42
0.012528010379525
 10
593.16612881806168
 20
-1893.7393626461958
 10
593.14244837314982
 20
-1893.7675211443875
 42
0.0205218024737424
 10
593.01734829763427
 20
-1893.9293144586193
 10
592.99488195714912
 20
-1893.9609741884435
 42
0.0163110129576428
 10
592.83917157789904
 20
-1894.1963046235107
 10
592.83644768184649
 20
-1894.2007283854989
 42
0.0131897341904032
 10
592.68964716093899
 20
-1894.4538604778659
 10
592.68794706557401
 20
-1894.4569787169989
 42
0.0107895576055908
 10
592.55017036336562
 20
-1894.7231939266292
 10
592.54943747383822
 20
-1894.7246881592805
 42
0.0091371507225651
 10
592.42095752518833
 20
-1894.9992133570411
 10
592.39121189377965
 20
-1895.065919864199
 42
0.0135418326345099
 10
592.2194979547063
 20
-1895.4808576494722
 10
592.18589314627354
 20
-1895.5687237917496
 42
0.0092834542413922
 10
592.0146640863527
 20
-1896.0426222900544
 10
591.98904695863484
 20
-1896.1178633598486
 42
0.0054261043582656
 10
591.88140881034224
 20
-1896.4456273329129
 10
591.86388282417397
 20
-1896.501015495114
 42
0.0008225090803432
 10
591.79521277233425
 20
-1896.719284253292
 10
590.81052364040124
 20
-1899.7441755465486
 10
594.043147480475
 20
-1899.7441755465486
 10
593.53895505062201
 20
-1901.648653844901
 10
590.28289876863846
 20
-1901.648653844901
 10
584.45374973628486
 20
-1920.4618769109059
 10
582.62865212597399
 20
-1920.4618769109059
 10
588.46333016147537
 20
-1901.648653844901
 10
586.05821379243434
 20
-1901.648653844901
 10
586.56240622228825
 20
-1899.7441755465486
 10
588.99095503323815
 20
-1899.7441755465486
 10
589.85110995142668
 20
-1897.1077625458499
 42
-0.0005863560635115
 10
589.88784462960518
 20
-1896.9909361256371
 10
589.9639324632908
 20
-1896.7499438261727
 42
-0.0087522378925678
 10
590.16340060674736
 20
-1896.1546677390279
 10
590.255664882161
 20
-1895.8945275705141
 42
-0.0077400953829451
 10
590.51359854129214
 20
-1895.2015228929649
 10
590.52936351287326
 20
-1895.1610920095732
 42
-0.0082369946332152
 10
590.77644798348274
 20
-1894.5570129433831
 42
-0.0085725238366383
 10
591.0436940794832
 20
-1893.9615869041018
 10
591.14532368049595
 20
-1893.7451658021057
 42
-0.0168109410594263
 10
591.43226810922351
 20
-1893.1839582760067
 10
591.55811149964734
 20
-1892.9569942430724
 42
-0.0007817726857317
 10
591.61239584973919
 20
-1892.8594499979781
 10
591.61252415574279
 20
-1892.8592202892662
 42
-0.003662614216563
 10
591.66741201977766
 20
-1892.762622409273
 42
-0.0080221150673173
 10
591.72453627518291
 20
-1892.6673431745226
 10
591.75523622654555
 20
-1892.6179522253981
 42
-0.0202139325573826
 10
591.8828919663539
 20
-1892.4299706247145
 10
591.93695943153989
 20
-1892.3568917604759
 42
-0.0249323791798201
 10
592.19612222525757
 20
-1892.040846518323
 10
592.22026203938594
 20
-1892.0142322454089
 42
-0.0242132121542179
 10
592.55994278093033
 20
-1891.6743487592028
 10
592.60785435367848
 20
-1891.6308396230188
 42
-0.0251017527857432
 10
592.89183605431936
 20
-1891.3978468772541
 10
592.89328153112922
 20
-1891.396777619678
 42
-0.0130868069037281
 10
593.19154218109043
 20
-1891.1879971511325
 10
593.19310400023357
 20
-1891.1869637108573
 42
-0.0290329526394638
 10
593.50421514162645
 20
-1891.0061382092283
 10
593.53406070360677
 20
-1890.9910358263917
 42
-0.0160250190049444
 10
593.79996511737727
 20
-1890.8670197161755
 42
-0.0267600374786389
 10
594.07524119484799
 20
-1890.7662713956263
 10
594.10197711436695
 20
-1890.7580788368011
 42
-0.0049981587710693
 10
594.15715025965392
 20
-1890.7417736364889
 42
-0.0049981587710693
  0
LWPOLYLINE
  5
5D
100
AcDbEntity
  8
0
370
              15
390
0
  6
Continuous
 62
               7
100
AcDbPolyline
 90
      118
 70
             128
 10
613.97151782410083
 20
-1899.8181588743762
 10
615.84663974860041
 20
-1899.8181588743762
 10
615.00860084300029
 20
-1902.499725400776
 42
-0.001058722925599
 10
615.0400566586037
 20
-1902.4628208673832
 10
615.098250749204
 20
-1902.3948386112452
 42
-0.007187474039777
 10
615.24862596729588
 20
-1902.2241979192233
 10
615.3903487405646
 20
-1902.0679617779028
 42
-0.0148118053513591
 10
615.84047803327667
 20
-1901.6003479318902
 10
615.9277003681749
 20
-1901.5149506110404
 42
-0.0086273358694697
 10
616.26324916918702
 20
-1901.1975749770199
 10
616.30708288542257
 20
-1901.157525332678
 42
-0.0103138323112367
 10
616.56510658764637
 20
-1900.9313621953486
 10
616.61088099395761
 20
-1900.8928801481018
 42
-0.0060206748572861
 10
616.78372905808601
 20
-1900.7510854973339
 10
616.78576018897127
 20
-1900.7494597917032
 42
-0.0067069027296615
 10
616.95805300363463
 20
-1900.6153091579076
 10
616.96060176956667
 20
-1900.6133789880278
 42
-0.0076184352039176
 10
617.1315070354317
 20
-1900.4880041127885
 42
-0.0089652861681125
 10
617.30646799817009
 20
-1900.3683708524534
 10
617.34281971831217
 20
-1900.3444596389725
 42
-0.0156916245926948
 10
617.53877921547155
 20
-1900.2241971524986
 42
-0.0023299011063707
 10
617.73904125943284
 20
-1900.1110192129677
 10
617.75442539183086
 20
-1900.1024192178929
 42
-0.0107669341488734
 10
617.98866221692879
 20
-1899.9780190845449
 10
618.0109270180069
 20
-1899.9668023345935
 42
-0.0078058045898629
 10
618.29451713595085
 20
-1899.8294408789591
 10
618.30442422366878
 20
-1899.8248317510865
 42
-0.0181829330473069
 10
618.61473362828542
 20
-1899.6939680099906
 10
618.66878907085493
 20
-1899.6734528900461
 42
-0.0208411536032019
 10
619.01787403830167
 20
-1899.5573624275544
 10
619.03223013842626
 20
-1899.5532439826018
 42
-0.0222799817136038
 10
619.36094993234656
 20
-1899.4746024164606
 10
619.36983889558837
 20
-1899.4728904058745
 42
-0.0215509523883094
 10
619.68630986386324
 20
-1899.4259747173412
 10
619.72879182491033
 20
-1899.4215371905505
 42
-0.0182545924869
 10
619.96290060421734
 20
-1899.4056933651596
 10
620.00230162056164
 20
-1899.4044688200804
 42
-0.0072962856533335
 10
620.15822450025416
 20
-1899.4018994915582
 10
620.18732417082742
 20
-1899.4018446561545
 42
-0.0059227516308727
 10
620.2850736699711
 20
-1899.4028183679447
 10
620.31431588745238
 20
-1899.4034561345482
 42
-0.0011833111905783
 10
620.35356717117565
 20
-1899.404405138858
 10
619.55818057556871
 20
-1901.943139083957
 42
0.0143932051485689
 10
619.53177919321422
 20
-1901.9329401139107
 10
619.52450722080039
 20
-1901.9303688950545
 42
0.0234388603516704
 10
619.48267635486775
 20
-1901.9177496593388
 10
619.4739946919558
 20
-1901.915568697334
 42
0.0199162742989193
 10
619.41370585787251
 20
-1901.9029519619983
 10
619.39289192006981
 20
-1901.8994547625705
 42
0.0293643550665652
 10
619.28981706131253
 20
-1901.8883047169174
 10
619.26513188059016
 20
-1901.8870930998987
 42
0.0214606686869234
 10
619.11199096463793
 20
-1901.8861545394814
 10
619.10261905381958
 20
-1901.8864994510257
 42
0.0167564054176845
 10
618.93109886270986
 20
-1901.8985764933939
 10
618.92263906995231
 20
-1901.8994578338209
 42
0.0137677553246969
 10
618.73528575668297
 20
-1901.9242071423648
 10
618.7279340171799
 20
-1901.9253850623322
 42
0.011849726148492
 10
618.52743625307664
 20
-1901.9624024125217
 10
618.52128624583111
 20
-1901.9636892752414
 42
0.0106421143887839
 10
618.31040535855584
 20
-1902.0125216508138
 10
618.30549655015693
 20
-1902.0137689935013
 42
0.0099746379703739
 10
618.08703808099256
 20
-1902.0739435218168
 10
618.02549004082448
 20
-1902.0922254004468
 42
0.0191613675863569
 10
617.68950557830419
 20
-1902.2062027807356
 10
617.60144580556153
 20
-1902.2398896910588
 42
0.0205274080144619
 10
617.21613903366278
 20
-1902.4057180988846
 10
617.15848975168797
 20
-1902.4333860634533
 42
0.018125691218819
 10
616.90021281101372
 20
-1902.5690698824346
 10
616.84725742769751
 20
-1902.5993874956507
 42
0.0140709242411895
 10
616.70230249307133
 20
-1902.6878821690837
 10
616.67605362445249
 20
-1902.7049389877993
 42
0.0086667884399039
 10
616.5871274629103
 20
-1902.7649416556819
 42
0.0036408192023304
 10
616.49969422487436
 20
-1902.8271225134763
 10
616.46446735040854
 20
-1902.8525634593871
 42
0.0052260781276026
 10
616.30823865301477
 20
-1902.9678958460233
 10
616.29203179675778
 20
-1902.9801239566395
 42
0.0050024435896527
 10
616.10602845369976
 20
-1903.1234065249012
 10
616.0907102971837
 20
-1903.1354525473475
 42
0.0136138710284223
 10
615.88026902885713
 20
-1903.3104190522622
 10
615.84660115306497
 20
-1903.3399980249751
 42
0.0172815186912338
 10
615.58219761140333
 20
-1903.5889946975976
 10
615.57963526555977
 20
-1903.5915805147456
 42
0.0189403857992541
 10
615.32905346698226
 20
-1903.8643857795475
 10
615.29642197344265
 20
-1903.902729711049
 42
0.0185044199512741
 10
615.10446553446445
 20
-1904.14597829217
 42
0.0088565243894382
 10
614.92600542783941
 20
-1904.3994947123153
 10
614.91682744818763
 20
-1904.4130360920801
 42
0.0157195347232155
 10
614.73360684185093
 20
-1904.7025583014001
 10
614.68752389992403
 20
-1904.7807104984142
 42
0.0095451879779255
 10
614.52243834978526
 20
-1905.0733051407731
 10
614.51129043085484
 20
-1905.0939758129066
 42
0.0100351706251882
 10
614.37924668169626
 20
-1905.3510313733959
 42
0.0086935915424343
 10
614.25691552989986
 20
-1905.6128645188053
 10
614.25359478848759
 20
-1905.6203068417722
 42
0.0072580174864632
 10
614.13324833654269
 20
-1905.9008988333549
 10
614.12998670323623
 20
-1905.908818859373
 42
0.0060005122617907
 10
614.01078603489384
 20
-1906.2084285299775
 10
614.00757505655201
 20
-1906.2167900578829
 42
0.0049017786978049
 10
613.88867489769075
 20
-1906.5357190384982
 10
613.88550909130436
 20
-1906.5444719757177
 42
0.0039415167603287
 10
613.76607281324675
 20
-1906.8830140381335
 10
613.76294171059544
 20
-1906.8921172390069
 42
0.0031035838761923
 10
613.64213692491194
 20
-1907.2505571007505
 10
613.6390268803716
 20
-1907.2599777221553
 42
0.0025070747156915
 10
613.51612552905613
 20
-1907.6386249390994
 10
613.47883163263077
 20
-1907.7555166043524
 42
0.0029081910283618
 10
613.28681333481632
 20
-1908.3696802626564
 10
613.24601016630322
 20
-1908.5029035049199
 42
0.0009266453733538
 10
612.97759279197771
 20
-1909.3851279648795
 10
612.95670531934184
 20
-1909.4542398440997
 42
-0.0005809993665352
 10
612.67936863875684
 20
-1910.3680479507182
 10
612.61308684047924
 20
-1910.5855328828929
 42
-0.0012018708166011
 10
612.46610253105473
 20
-1911.0636955473985
 10
612.41378267949631
 20
-1911.2324546882417
 42
-0.0002691059618254
 10
612.37021319832047
 20
-1911.3727223086064
 10
609.53725730003089
 20
-1920.4618769109059
 10
607.71926840805236
 20
-1920.4618769109059
 10
613.97151782410083
 20
-1899.8181588743762
  0
SPLINE
  5
5E
100
AcDbEntity
  8
0
370
              15
390
0
  6
Continuous
 62
               7
100
AcDbSpline
210
0.0
220
0.0
230
1.0
 70
              13
 71
               2
 72
             782
 73
             779
 74
               0
 42
0.000001
 43
0.000001
 40
0.0
 40
0.0
 40
0.0
 40
1.0
 40
1.0
 40
2.0
 40
2.0
 40
3.0
 40
3.0
 40
4.0
 40
4.0
 40
5.0
 40
5.0
 40
6.0
 40
6.0
 40
7.0
 40
7.0
 40
8.0
 40
8.0
 40
9.0
 40
9.0
 40
10.0
 40
10.0
 40
11.0
 40
11.0
 40
12.0
 40
12.0
 40
13.0
 40
13.0
 40
14.0
 40
14.0
 40
15.0
 40
15.0
 40
16.0
 40
16.0
 40
17.0
 40
17.0
 40
18.0
 40
18.0
 40
19.0
 40
19.0
 40
20.0
 40
20.0
 40
21.0
 40
21.0
 40
22.0
 40
22.0
 40
23.0
 40
23.0
 40
24.0
 40
24.0
 40
25.0
 40
25.0
 40
26.0
 40
26.0
 40
27.0
 40
27.0
 40
28.0
 40
28.0
 40
29.0
 40
29.0
 40
30.0
 40
30.0
 40
31.0
 40
31.0
 40
32.0
 40
32.0
 40
33.0
 40
33.0
 40
34.0
 40
34.0
 40
35.0
 40
35.0
 40
36.0
 40
36.0
 40
37.0
 40
37.0
 40
38.0
 40
38.0
 40
39.0
 40
39.0
 40
40.0
 40
40.0
 40
41.0
 40
41.0
 40
42.0
 40
42.0
 40
43.0
 40
43.0
 40
44.0
 40
44.0
 40
45.0
 40
45.0
 40
46.0
 40
46.0
 40
47.0
 40
47.0
 40
48.0
 40
48.0
 40
49.0
 40
49.0
 40
50.0
 40
50.0
 40
51.0
 40
51.0
 40
52.0
 40
52.0
 40
53.0
 40
53.0
 40
54.0
 40
54.0
 40
55.0
 40
55.0
 40
56.0
 40
56.0
 40
57.0
 40
57.0
 40
58.0
 40
58.0
 40
59.0
 40
59.0
 40
60.0
 40
60.0
 40
61.0
 40
61.0
 40
62.0
 40
62.0
 40
63.0
 40
63.0
 40
64.0
 40
64.0
 40
65.0
 40
65.0
 40
66.0
 40
66.0
 40
67.0
 40
67.0
 40
68.0
 40
68.0
 40
69.0
 40
69.0
 40
70.0
 40
70.0
 40
71.0
 40
71.0
 40
72.0
 40
72.0
 40
73.0
 40
73.0
 40
74.0
 40
74.0
 40
75.0
 40
75.0
 40
76.0
 40
76.0
 40
77.0
 40
77.0
 40
78.0
 40
78.0
 40
79.0
 40
79.0
 40
80.0
 40
80.0
 40
81.0
 40
81.0
 40
82.0
 40
82.0
 40
83.0
 40
83.0
 40
84.0
 40
84.0
 40
85.0
 40
85.0
 40
86.0
 40
86.0
 40
87.0
 40
87.0
 40
88.0
 40
88.0
 40
89.0
 40
89.0
 40
90.0
 40
90.0
 40
91.0
 40
91.0
 40
92.0
 40
92.0
 40
93.0
 40
93.0
 40
94.0
 40
94.0
 40
95.0
 40
95.0
 40
96.0
 40
96.0
 40
97.0
 40
97.0
 40
98.0
 40
98.0
 40
99.0
 40
99.0
 40
100.0
 40
100.0
 40
101.0
 40
101.0
 40
102.0
 40
102.0
 40
103.0
 40
103.0
 40
104.0
 40
104.0
 40
105.0
 40
105.0
 40
106.0
 40
106.0
 40
107.0
 40
107.0
 40
108.0
 40
108.0
 40
109.0
 40
109.0
 40
110.0
 40
110.0
 40
111.0
 40
111.0
 40
112.0
 40
112.0
 40
113.0
 40
113.0
 40
114.0
 40
114.0
 40
115.0
 40
115.0
 40
116.0
 40
116.0
 40
117.0
 40
117.0
 40
118.0
 40
118.0
 40
119.0
 40
119.0
 40
120.0
 40
120.0
 40
121.0
 40
121.0
 40
122.0
 40
122.0
 40
123.0
 40
123.0
 40
124.0
 40
124.0
 40
125.0
 40
125.0
 40
126.0
 40
126.0
 40
127.0
 40
127.0
 40
128.0
 40
128.0
 40
129.0
 40
129.0
 40
130.0
 40
130.0
 40
131.0
 40
131.0
 40
132.0
 40
132.0
 40
133.0
 40
133.0
 40
134.0
 40
134.0
 40
135.0
 40
135.0
 40
136.0
 40
136.0
 40
137.0
 40
137.0
 40
138.0
 40
138.0
 40
139.0
 40
139.0
 40
140.0
 40
140.0
 40
141.0
 40
141.0
 40
142.0
 40
142.0
 40
143.0
 40
143.0
 40
144.0
 40
144.0
 40
145.0
 40
145.0
 40
146.0
 40
146.0
 40
147.0
 40
147.0
 40
148.0
 40
148.0
 40
149.0
 40
149.0
 40
150.0
 40
150.0
 40
151.0
 40
151.0
 40
152.0
 40
152.0
 40
153.0
 40
153.0
 40
154.0
 40
154.0
 40
155.0
 40
155.0
 40
156.0
 40
156.0
 40
157.0
 40
157.0
 40
158.0
 40
158.0
 40
159.0
 40
159.0
 40
160.0
 40
160.0
 40
161.0
 40
161.0
 40
162.0
 40
162.0
 40
163.0
 40
163.0
 40
164.0
 40
164.0
 40
165.0
 40
165.0
 40
166.0
 40
166.0
 40
167.0
 40
167.0
 40
168.0
 40
168.0
 40
169.0
 40
169.0
 40
170.0
 40
170.0
 40
171.0
 40
171.0
 40
172.0
 40
172.0
 40
173.0
 40
173.0
 40
174.0
 40
174.0
 40
175.0
 40
175.0
 40
176.0
 40
176.0
 40
177.0
 40
177.0
 40
178.0
 40
178.0
 40
179.0
 40
179.0
 40
180.0
 40
180.0
 40
181.0
 40
181.0
 40
182.0
 40
182.0
 40
183.0
 40
183.0
 40
184.0
 40
184.0
 40
185.0
 40
185.0
 40
186.0
 40
186.0
 40
187.0
 40
187.0
 40
188.0
 40
188.0
 40
189.0
 40
189.0
 40
190.0
 40
190.0
 40
191.0
 40
191.0
 40
192.0
 40
192.0
 40
193.0
 40
193.0
 40
194.0
 40
194.0
 40
195.0
 40
195.0
 40
196.0
 40
196.0
 40
197.0
 40
197.0
 40
198.0
 40
198.0
 40
199.0
 40
199.0
 40
200.0
 40
200.0
 40
201.0
 40
201.0
 40
202.0
 40
202.0
 40
203.0
 40
203.0
 40
204.0
 40
204.0
 40
205.0
 40
205.0
 40
206.0
 40
206.0
 40
207.0
 40
207.0
 40
208.0
 40
208.0
 40
209.0
 40
209.0
 40
210.0
 40
210.0
 40
211.0
 40
211.0
 40
212.0
 40
212.0
 40
213.0
 40
213.0
 40
214.0
 40
214.0
 40
215.0
 40
215.0
 40
216.0
 40
216.0
 40
217.0
 40
217.0
 40
218.0
 40
218.0
 40
219.0
 40
219.0
 40
220.0
 40
220.0
 40
221.0
 40
221.0
 40
222.0
 40
222.0
 40
223.0
 40
223.0
 40
224.0
 40
224.0
 40
225.0
 40
225.0
 40
226.0
 40
226.0
 40
227.0
 40
227.0
 40
228.0
 40
228.0
 40
229.0
 40
229.0
 40
230.0
 40
230.0
 40
231.0
 40
231.0
 40
232.0
 40
232.0
 40
233.0
 40
233.0
 40
234.0
 40
234.0
 40
235.0
 40
235.0
 40
236.0
 40
236.0
 40
237.0
 40
237.0
 40
238.0
 40
238.0
 40
239.0
 40
239.0
 40
240.0
 40
240.0
 40
241.0
 40
241.0
 40
242.0
 40
242.0
 40
243.0
 40
243.0
 40
244.0
 40
244.0
 40
245.0
 40
245.0
 40
246.0
 40
246.0
 40
247.0
 40
247.0
 40
248.0
 40
248.0
 40
249.0
 40
249.0
 40
250.0
 40
250.0
 40
251.0
 40
251.0
 40
252.0
 40
252.0
 40
253.0
 40
253.0
 40
254.0
 40
254.0
 40
255.0
 40
255.0
 40
256.0
 40
256.0
 40
257.0
 40
257.0
 40
258.0
 40
258.0
 40
259.0
 40
259.0
 40
260.0
 40
260.0
 40
261.0
 40
261.0
 40
262.0
 40
262.0
 40
263.0
 40
263.0
 40
264.0
 40
264.0
 40
265.0
 40
265.0
 40
266.0
 40
266.0
 40
267.0
 40
267.0
 40
268.0
 40
268.0
 40
269.0
 40
269.0
 40
270.0
 40
270.0
 40
271.0
 40
271.0
 40
272.0
 40
272.0
 40
273.0
 40
273.0
 40
274.0
 40
274.0
 40
275.0
 40
275.0
 40
276.0
 40
276.0
 40
277.0
 40
277.0
 40
278.0
 40
278.0
 40
279.0
 40
279.0
 40
280.0
 40
280.0
 40
281.0
 40
281.0
 40
282.0
 40
282.0
 40
283.0
 40
283.0
 40
284.0
 40
284.0
 40
285.0
 40
285.0
 40
286.0
 40
286.0
 40
287.0
 40
287.0
 40
288.0
 40
288.0
 40
289.0
 40
289.0
 40
290.0
 40
290.0
 40
291.0
 40
291.0
 40
292.0
 40
292.0
 40
293.0
 40
293.0
 40
294.0
 40
294.0
 40
295.0
 40
295.0
 40
296.0
 40
296.0
 40
297.0
 40
297.0
 40
298.0
 40
298.0
 40
299.0
 40
299.0
 40
300.0
 40
300.0
 40
301.0
 40
301.0
 40
302.0
 40
302.0
 40
303.0
 40
303.0
 40
304.0
 40
304.0
 40
305.0
 40
305.0
 40
306.0
 40
306.0
 40
307.0
 40
307.0
 40
308.0
 40
308.0
 40
309.0
 40
309.0
 40
310.0
 40
310.0
 40
311.0
 40
311.0
 40
312.0
 40
312.0
 40
313.0
 40
313.0
 40
314.0
 40
314.0
 40
315.0
 40
315.0
 40
316.0
 40
316.0
 40
317.0
 40
317.0
 40
318.0
 40
318.0
 40
319.0
 40
319.0
 40
320.0
 40
320.0
 40
321.0
 40
321.0
 40
322.0
 40
322.0
 40
323.0
 40
323.0
 40
324.0
 40
324.0
 40
325.0
 40
325.0
 40
326.0
 40
326.0
 40
327.0
 40
327.0
 40
328.0
 40
328.0
 40
329.0
 40
329.0
 40
330.0
 40
330.0
 40
331.0
 40
331.0
 40
332.0
 40
332.0
 40
333.0
 40
333.0
 40
334.0
 40
334.0
 40
335.0
 40
335.0
 40
336.0
 40
336.0
 40
337.0
 40
337.0
 40
338.0
 40
338.0
 40
339.0
 40
339.0
 40
340.0
 40
340.0
 40
341.0
 40
341.0
 40
342.0
 40
342.0
 40
343.0
 40
343.0
 40
344.0
 40
344.0
 40
345.0
 40
345.0
 40
346.0
 40
346.0
 40
347.0
 40
347.0
 40
348.0
 40
348.0
 40
349.0
 40
349.0
 40
350.0
 40
350.0
 40
351.0
 40
351.0
 40
352.0
 40
352.0
 40
353.0
 40
353.0
 40
354.0
 40
354.0
 40
355.0
 40
355.0
 40
356.0
 40
356.0
 40
357.0
 40
357.0
 40
358.0
 40
358.0
 40
359.0
 40
359.0
 40
360.0
 40
360.0
 40
361.0
 40
361.0
 40
362.0
 40
362.0
 40
363.0
 40
363.0
 40
364.0
 40
364.0
 40
365.0
 40
365.0
 40
366.0
 40
366.0
 40
367.0
 40
367.0
 40
368.0
 40
368.0
 40
369.0
 40
369.0
 40
370.0
 40
370.0
 40
371.0
 40
371.0
 40
372.0
 40
372.0
 40
373.0
 40
373.0
 40
374.0
 40
374.0
 40
375.0
 40
375.0
 40
376.0
 40
376.0
 40
377.0
 40
377.0
 40
378.0
 40
378.0
 40
379.0
 40
379.0
 40
380.0
 40
380.0
 40
381.0
 40
381.0
 40
382.0
 40
382.0
 40
383.0
 40
383.0
 40
384.0
 40
384.0
 40
385.0
 40
385.0
 40
386.0
 40
386.0
 40
387.0
 40
387.0
 40
388.0
 40
388.0
 40
389.0
 40
389.0
 40
389.0
 10
624.30022227483323
 20
-1899.8072325110136
 30
0.0
 41
1.0
 10
625.11864638355382
 20
-1899.8072325110136
 30
0.0
 41
1.0
 10
625.93707049227442
 20
-1899.8072325110136
 30
0.0
 41
1.0
 10
625.52331675675759
 20
-1901.1498587752633
 30
0.0
 41
1.0
 10
625.10956302124077
 20
-1902.492485039513
 30
0.0
 41
1.0
 10
625.12790251642286
 20
-1902.4637842665795
 30
0.0
 41
0.9999957264410295
 10
625.14640951326828
 20
-1902.4351912164061
 30
0.0
 41
1.0
 10
625.17683883739096
 20
-1902.3881783380527
 30
0.0
 41
1.0
 10
625.20726816151364
 20
-1902.3411654596994
 30
0.0
 41
1.0
 10
625.28663380661897
 20
-1902.2185466527969
 30
0.0
 41
0.9995394069081175
 10
625.37329219816877
 20
-1902.1009685910581
 30
0.0
 41
1.0
 10
625.40904906042965
 20
-1902.0524536984631
 30
0.0
 41
1.0
 10
625.44480592269065
 20
-1902.0039388058681
 30
0.0
 41
1.0
 10
625.57853259050876
 20
-1901.8224985307411
 30
0.0
 41
0.999446061714341
 10
625.72403307179729
 20
-1901.6503561330908
 30
0.0
 41
1.0
 10
625.72842125277316
 20
-1901.6451644527074
 30
0.0
 41
1.0
 10
625.73280943374891
 20
-1901.6399727723237
 30
0.0
 41
1.0
 10
625.86953355308526
 20
-1901.4782137354409
 30
0.0
 41
0.9994359394933954
 10
626.01680778343689
 20
-1901.3259975342764
 30
0.0
 41
1.0
 10
626.019191137392
 20
-1901.3235342039015
 30
0.0
 41
1.0
 10
626.02157449134722
 20
-1901.3210708735264
 30
0.0
 41
1.0
 10
626.16408201379079
 20
-1901.1737813331097
 30
0.0
 41
0.9995293688567863
 10
626.31535369477069
 20
-1901.0355081209477
 30
0.0
 41
1.0
 10
626.33464745403194
 20
-1901.0178722352985
 30
0.0
 41
1.0
 10
626.3539412132933
 20
-1901.000236349649
 30
0.0
 41
1.0
 10
626.46662537575276
 20
-1900.8972349087837
 30
0.0
 41
0.9997087614802445
 10
626.58414826470789
 20
-1900.7997906279859
 30
0.0
 41
1.0
 10
626.6033143378811
 20
-1900.7838990494797
 30
0.0
 41
1.0
 10
626.62248041105431
 20
-1900.7680074709738
 30
0.0
 41
1.0
 10
626.70167115366075
 20
-1900.7023463471899
 30
0.0
 41
0.9999595338694788
 10
626.78203042451787
 20
-1900.6381206165329
 30
0.0
 41
1.0
 10
626.86238969537521
 20
-1900.5738948858757
 30
0.0
 41
0.9999749417497663
 10
626.94365022972283
 20
-1900.5108133319263
 30
0.0
 41
1.0
 10
626.96463637587931
 20
-1900.4945220446293
 30
0.0
 41
1.0
 10
626.98562252203567
 20
-1900.4782307573325
 30
0.0
 41
1.0
 10
627.07019040734565
 20
-1900.4125817474853
 30
0.0
 41
0.9999792037125691
 10
627.1555980071189
 20
-1900.3480289658389
 30
0.0
 41
1.0
 10
627.17642283303144
 20
-1900.3322891435805
 30
0.0
 41
1.0
 10
627.19724765894387
 20
-1900.3165493213219
 30
0.0
 41
1.0
 10
627.24100560690727
 20
-1900.2834761841809
 30
0.0
 41
0.9999993374019471
 10
627.28468729303177
 20
-1900.2503023887714
 30
0.0
 41
1.0
 10
627.32836897917196
 20
-1900.2171285933498
 30
0.0
 41
0.9999160953815006
 10
627.37289539009282
 20
-1900.1850975281504
 30
0.0
 41
1.0
 10
627.40571727751308
 20
-1900.1614863725649
 30
0.0
 41
1.0
 10
627.43853916493345
 20
-1900.1378752169792
 30
0.0
 41
1.0
 10
627.54870935069175
 20
-1900.0586218406111
 30
0.0
 41
0.9980964527230865
 10
627.66779834419333
 20
-1899.9935343677546
 30
0.0
 41
1.0
 10
627.70483095112138
 20
-1899.9732943881615
 30
0.0
 41
1.0
 10
627.74186355804943
 20
-1899.9530544085685
 30
0.0
 41
1.0
 10
627.92119057132265
 20
-1899.8550441578675
 30
0.0
 41
0.9984572810572976
 10
628.11027913768066
 20
-1899.7775218965214
 30
0.0
 41
1.0
 10
628.11392540707402
 20
-1899.7760270041845
 30
0.0
 41
1.0
 10
628.11757167646738
 20
-1899.7745321118475
 30
0.0
 41
1.0
 10
628.29936770403708
 20
-1899.6999996351758
 30
0.0
 41
0.9987838528033742
 10
628.48762036259905
 20
-1899.6437339950091
 30
0.0
 41
1.0
 10
628.49185831180034
 20
-1899.642467341318
 30
0.0
 41
1.0
 10
628.49609626100153
 20
-1899.6412006876271
 30
0.0
 41
1.0
 10
628.67587302116056
 20
-1899.5874683548429
 30
0.0
 41
0.9990652816207518
 10
628.85961895287392
 20
-1899.5494646753014
 30
0.0
 41
1.0
 10
628.86480735390307
 20
-1899.5483915721952
 30
0.0
 41
1.0
 10
628.86999575493223
 20
-1899.5473184690893
 30
0.0
 41
1.0
 10
629.04336488458739
 20
-1899.5114609957595
 30
0.0
 41
0.9992909934270037
 10
629.21894065104789
 20
-1899.4887505632928
 30
0.0
 41
1.0
 10
629.39451641750907
 20
-1899.4660401308261
 30
0.0
 41
0.9994553539449119
 10
629.57120785060545
 20
-1899.4549608266195
 30
0.0
 41
1.0
 10
629.60664225839719
 20
-1899.4527389385721
 30
0.0
 41
1.0
 10
629.64207666618893
 20
-1899.4505170505245
 30
0.0
 41
1.0
 10
629.80830243275955
 20
-1899.4400939881127
 30
0.0
 41
0.9990928098292939
 10
629.97481222466286
 20
-1899.4438536293474
 30
0.0
 41
1.0
 10
630.01337405993661
 20
-1899.4447243208804
 30
0.0
 41
1.0
 10
630.05193589521036
 20
-1899.4455950124134
 30
0.0
 41
1.0
 10
630.1413220165673
 20
-1899.447613270582
 30
0.0
 41
0.9998382089204806
 10
630.23057769935167
 20
-1899.45284539711
 30
0.0
 41
1.0
 10
630.23100760556827
 20
-1899.4528705980119
 30
0.0
 41
1.0
 10
630.23143751178486
 20
-1899.4528957989141
 30
0.0
 41
1.0
 10
630.31983338213456
 20
-1899.4580775236375
 30
0.0
 41
0.9997558016757856
 10
630.40791395933866
 20
-1899.4671600390045
 30
0.0
 41
1.0
 10
630.40839009776948
 20
-1899.4672091364873
 30
0.0
 41
1.0
 10
630.40886623620031
 20
-1899.4672582339699
 30
0.0
 41
1.0
 10
630.49599453654059
 20
-1899.4762425543713
 30
0.0
 41
0.9996565144182209
 10
630.58253238988164
 20
-1899.48977986106
 30
0.0
 41
1.0
 10
630.58299831526017
 20
-1899.4898527467915
 30
0.0
 41
1.0
 10
630.5834642406387
 20
-1899.489925632523
 30
0.0
 41
1.0
 10
630.6690702432245
 20
-1899.5033171677492
 30
0.0
 41
0.9995321806867403
 10
630.75369732355148
 20
-1899.5219176561782
 30
0.0
 41
1.0
 10
630.75408651812154
 20
-1899.5220031986437
 30
0.0
 41
1.0
 10
630.75447571269149
 20
-1899.5220887411092
 30
0.0
 41
1.0
 10
630.83832440387789
 20
-1899.5405181446069
 30
0.0
 41
0.9993819199218648
 10
630.92067093807555
 20
-1899.5647935278682
 30
0.0
 41
1.0
 10
630.920909371574
 20
-1899.5648638169778
 30
0.0
 41
1.0
 10
630.92114780507256
 20
-1899.5649341060873
 30
0.0
 41
1.0
 10
631.00301747227275
 20
-1899.5890689111293
 30
0.0
 41
0.999208856850629
 10
631.08270999126034
 20
-1899.6196341469233
 30
0.0
 41
1.0
 10
631.16239098213953
 20
-1899.6501937476562
 30
0.0
 41
0.9990226101771698
 10
631.23906165204653
 20
-1899.6876711792711
 30
0.0
 41
1.0
 10
631.31572079384443
 20
-1899.7251429758246
 30
0.0
 41
0.9988424273973927
 10
631.38842442105624
 20
-1899.769807751077
 30
0.0
 41
1.0
 10
631.38869212943587
 20
-1899.7699722151494
 30
0.0
 41
1.0
 10
631.38895983781549
 20
-1899.7701366792219
 30
0.0
 41
1.0
 10
631.46219888178621
 20
-1899.8151303826187
 30
0.0
 41
0.9986928844488847
 10
631.53046174849658
 20
-1899.8673661168993
 30
0.0
 41
1.0
 10
631.53104304071917
 20
-1899.867810930127
 30
0.0
 41
1.0
 10
631.53162433294165
 20
-1899.8682557433547
 30
0.0
 41
1.0
 10
631.60104978409618
 20
-1899.9213811040897
 30
0.0
 41
0.9986007262279896
 10
631.66447595386342
 20
-1899.9815418737835
 30
0.0
 41
1.0
 10
631.66537036932073
 20
-1899.9823902416188
 30
0.0
 41
1.0
 10
631.66626478477792
 20
-1899.9832386094538
 30
0.0
 41
1.0
 10
631.73147978545933
 20
-1900.0450961148174
 30
0.0
 41
0.9985581491380492
 10
631.78968739716004
 20
-1900.1135886050879
 30
0.0
 41
1.0
 10
631.79894585075635
 20
-1900.1244829627904
 30
0.0
 41
1.0
 10
631.80820430435278
 20
-1900.1353773204926
 30
0.0
 41
1.0
 10
631.88492882324613
 20
-1900.2256585261675
 30
0.0
 41
0.9970460233519939
 10
631.94692072440614
 20
-1900.3266256103504
 30
0.0
 41
1.0
 10
631.96139008948512
 20
-1900.3501920694309
 30
0.0
 41
1.0
 10
631.9758594545641
 20
-1900.3737585285114
 30
0.0
 41
1.0
 10
632.01559615457677
 20
-1900.438478252544
 30
0.0
 41
0.9988468816637728
 10
632.04894252532813
 20
-1900.5067107049711
 30
0.0
 41
1.0
 10
632.05597854781945
 20
-1900.5211076261082
 30
0.0
 41
1.0
 10
632.06301457031088
 20
-1900.5355045472454
 30
0.0
 41
1.0
 10
632.08228889607824
 20
-1900.5749431573952
 30
0.0
 41
0.9998431189997883
 10
632.10015422357492
 20
-1900.6150397118395
 30
0.0
 41
1.0
 10
632.11801955106148
 20
-1900.6551362662613
 30
0.0
 41
0.9999989989722333
 10
632.13599827447888
 20
-1900.6951821038349
 30
0.0
 41
1.0
 10
632.1421705860796
 20
-1900.7089303206621
 30
0.0
 41
1.0
 10
632.14834289768032
 20
-1900.7226785374894
 30
0.0
 41
1.0
 10
632.1786662442903
 20
-1900.7902208086975
 30
0.0
 41
0.9998790356321575
 10
632.20687412442794
 20
-1900.8586735606343
 30
0.0
 41
1.0
 10
632.213709305713
 20
-1900.8752606620637
 30
0.0
 41
1.0
 10
632.22054448699805
 20
-1900.8918477634929
 30
0.0
 41
1.0
 10
632.24410214937768
 20
-1900.949015718377
 30
0.0
 41
0.9998227574561548
 10
632.26549089776654
 20
-1901.0070300266534
 30
0.0
 41
1.0
 10
632.28687964615585
 20
-1901.0650443349309
 30
0.0
 41
0.9996797971041559
 10
632.30530593111484
 20
-1901.1240664540485
 30
0.0
 41
1.0
 10
632.30920973384048
 20
-1901.1365709122176
 30
0.0
 41
1.0
 10
632.31311353656611
 20
-1901.1490753703868
 30
0.0
 41
1.0
 10
632.33934742697659
 20
-1901.233106405843
 30
0.0
 41
0.9979274938734618
 10
632.35457195045581
 20
-1901.3198107645023
 30
0.0
 41
1.0
 10
632.35679563771737
 20
-1901.3324747653253
 30
0.0
 41
1.0
 10
632.35901932497893
 20
-1901.3451387661482
 30
0.0
 41
1.0
 10
632.3699492646773
 20
-1901.4073852734389
 30
0.0
 41
0.9994985982136861
 10
632.37691742985362
 20
-1901.4701987745777
 30
0.0
 41
1.0
 10
632.38388559503005
 20
-1901.5330122757175
 30
0.0
 41
0.9996372611202579
 10
632.38746146079814
 20
-1901.5961098544024
 30
0.0
 41
1.0
 10
632.3876300382874
 20
-1901.5990844714843
 30
0.0
 41
1.0
 10
632.38779861577677
 20
-1901.6020590885662
 30
0.0
 41
1.0
 10
632.39171163652338
 20
-1901.6711059014167
 30
0.0
 41
0.9997730630735562
 10
632.39267995001148
 20
-1901.7402567254499
 30
0.0
 41
1.0
 10
632.3927370564295
 20
-1901.74433490459
 30
0.0
 41
1.0
 10
632.39279416284762
 20
-1901.7484130837302
 30
0.0
 41
1.0
 10
632.39387668917186
 20
-1901.8257202660534
 30
0.0
 41
0.9998772614070383
 10
632.3925366024398
 20
-1901.903023412623
 30
0.0
 41
1.0
 10
632.39244733924113
 20
-1901.9081725764527
 30
0.0
 41
1.0
 10
632.39235807604246
 20
-1901.9133217402823
 30
0.0
 41
1.0
 10
632.39083946291305
 20
-1902.0009232145148
 30
0.0
 41
0.9999415567326367
 10
632.38742715266721
 20
-1902.088471376188
 30
0.0
 41
1.0
 10
632.38718583199181
 20
-1902.094662835927
 30
0.0
 41
1.0
 10
632.38694451131641
 20
-1902.1008542956663
 30
0.0
 41
1.0
 10
632.38304955972012
 20
-1902.2007853768118
 30
0.0
 41
0.9999716810426752
 10
632.3776509766019
 20
-1902.3006465150347
 30
0.0
 41
1.0
 10
632.37443817781309
 20
-1902.360075764693
 30
0.0
 41
1.0
 10
632.37122537902439
 20
-1902.4195050143512
 30
0.0
 41
1.0
 10
632.36315146987101
 20
-1902.5688534156459
 30
0.0
 41
0.9999819129912114
 10
632.35328167825492
 20
-1902.7180938933518
 30
0.0
 41
1.0
 10
632.34341188663848
 20
-1902.8673343710632
 30
0.0
 41
1.0
 10
632.34097256607447
 20
-1902.9045274169127
 30
0.0
 41
1.0
 10
632.36367079989611
 20
-1902.8657864195986
 30
0.0
 41
0.9999982128212658
 10
632.38651535865097
 20
-1902.8271315256418
 30
0.0
 41
1.0
 10
632.41342491854073
 20
-1902.7815983115781
 30
0.0
 41
1.0
 10
632.44033447843049
 20
-1902.7360650975145
 30
0.0
 41
1.0
 10
632.51699815695974
 20
-1902.6063437754394
 30
0.0
 41
0.9998609190056378
 10
632.59794546982607
 20
-1902.4792513935031
 30
0.0
 41
1.0
 10
632.62759379129898
 20
-1902.43270166056
 30
0.0
 41
1.0
 10
632.65724211277177
 20
-1902.386151927617
 30
0.0
 41
1.0
 10
632.73951433301613
 20
-1902.2569793576104
 30
0.0
 41
0.9999067609732069
 10
632.82528334248263
 20
-1902.1301016681648
 30
0.0
 41
1.0
 10
632.82768804568627
 20
-1902.1265444021058
 30
0.0
 41
1.0
 10
632.83009274889002
 20
-1902.1229871360467
 30
0.0
 41
1.0
 10
632.91105235195039
 20
-1902.0032239787176
 30
0.0
 41
0.9998784952149801
 10
632.99570596162766
 20
-1901.8860427620148
 30
0.0
 41
1.0
 10
633.08035957130994
 20
-1901.7688615453051
 30
0.0
 41
0.9998532968284055
 10
633.16897719213307
 20
-1901.6546486368341
 30
0.0
 41
1.0
 10
633.1889389811239
 20
-1901.6289213158143
 30
0.0
 41
1.0
 10
633.20890077011472
 20
-1901.6031939947945
 30
0.0
 41
1.0
 10
633.32738481987315
 20
-1901.4504883838265
 30
0.0
 41
0.9991551975795255
 10
633.45800926949642
 20
-1901.3080288217434
 30
0.0
 41
1.0
 10
633.46151888547365
 20
-1901.3042012201217
 30
0.0
 41
1.0
 10
633.465028501451
 20
-1901.3003736185001
 30
0.0
 41
1.0
 10
633.58863371911843
 20
-1901.1655692596614
 30
0.0
 41
0.9997418144180245
 10
633.71823585882066
 20
-1901.0365198490474
 30
0.0
 41
1.0
 10
633.8478379985205
 20
-1900.9074704384357
 30
0.0
 41
0.9989238204632831
 10
633.98884054677194
 20
-1900.7909854763964
 30
0.0
 41
1.0
 10
634.03408822491224
 20
-1900.7536054847869
 30
0.0
 41
1.0
 10
634.07933590305265
 20
-1900.7162254931777
 30
0.0
 41
1.0
 10
634.21957596027346
 20
-1900.6003704398872
 30
0.0
 41
0.9990825084096611
 10
634.36921589287704
 20
-1900.4969414420545
 30
0.0
 41
1.0
 10
634.37926125693161
 20
-1900.4899982289767
 30
0.0
 41
1.0
 10
634.38930662098608
 20
-1900.4830550158988
 30
0.0
 41
1.0
 10
634.51885582547982
 20
-1900.3935124442223
 30
0.0
 41
0.9998164899826491
 10
634.65174002885715
 20
-1900.3089982027052
 30
0.0
 41
1.0
 10
634.66358558938475
 20
-1900.3014644361785
 30
0.0
 41
1.0
 10
634.67543114991236
 20
-1900.2939306696519
 30
0.0
 41
1.0
 10
634.78462423223527
 20
-1900.2244839611876
 30
0.0
 41
0.9997473449130442
 10
634.89682818948268
 20
-1900.160015003373
 30
0.0
 41
1.0
 10
635.0090321467394
 20
-1900.0955460455532
 30
0.0
 41
0.9999327861148608
 10
635.12270075751144
 20
-1900.0336960538673
 30
0.0
 41
1.0
 10
635.12325276006425
 20
-1900.0333956951924
 30
0.0
 41
1.0
 10
635.12380476261706
 20
-1900.0330953365176
 30
0.0
 41
1.0
 10
635.23857737850301
 20
-1899.9706446274774
 30
0.0
 41
0.9996956420484013
 10
635.35629070434209
 20
-1899.9139311605034
 30
0.0
 41
1.0
 10
635.38673110922969
 20
-1899.8992651837757
 30
0.0
 41
1.0
 10
635.41717151411729
 20
-1899.8845992070483
 30
0.0
 41
1.0
 10
635.52014862086503
 20
-1899.8349855486028
 30
0.0
 41
0.9998070570176078
 10
635.62499500981221
 20
-1899.7894549616988
 30
0.0
 41
1.0
 10
635.72984139876121
 20
-1899.7439243747945
 30
0.0
 41
0.9997827436147121
 10
635.8364943353771
 20
-1899.7028032034805
 30
0.0
 41
1.0
 10
635.85571718500159
 20
-1899.6953916298507
 30
0.0
 41
1.0
 10
635.87494003462598
 20
-1899.687980056221
 30
0.0
 41
1.0
 10
636.02003867049564
 20
-1899.6320357376453
 30
0.0
 41
0.9988031841976269
 10
636.16990903309772
 20
-1899.5905356734784
 30
0.0
 41
1.0
 10
636.19482628146557
 20
-1899.5836359276702
 30
0.0
 41
1.0
 10
636.21974352983352
 20
-1899.5767361818621
 30
0.0
 41
1.0
 10
636.38701355547903
 20
-1899.530418039456
 30
0.0
 41
0.9984748040550419
 10
636.55837046412626
 20
-1899.5028238071914
 30
0.0
 41
1.0
 10
636.56310960037445
 20
-1899.502060646678
 30
0.0
 41
1.0
 10
636.56784873662275
 20
-1899.5012974861647
 30
0.0
 41
1.0
 10
636.72972737277473
 20
-1899.4752295749265
 30
0.0
 41
0.998443649547987
 10
636.8935021164998
 20
-1899.4673516211078
 30
0.0
 41
1.0
 10
636.91519932463245
 20
-1899.466307933908
 30
0.0
 41
1.0
 10
636.9368965327651
 20
-1899.4652642467083
 30
0.0
 41
1.0
 10
637.05727686022567
 20
-1899.4594736672891
 30
0.0
 41
0.9987954789335602
 10
637.17764510513416
 20
-1899.4655101950314
 30
0.0
 41
1.0
 10
637.19760989762858
 20
-1899.4665114393699
 30
0.0
 41
1.0
 10
637.21757469012312
 20
-1899.4675126837085
 30
0.0
 41
1.0
 10
637.29801335004436
 20
-1899.4715467227736
 30
0.0
 41
0.9997941595876103
 10
637.37822212813853
 20
-1899.4788407886947
 30
0.0
 41
1.0
 10
637.4584309062343
 20
-1899.4861348546158
 30
0.0
 41
0.9998589466238232
 10
637.5383494530904
 20
-1899.4961187090662
 30
0.0
 41
1.0
 10
637.57075565489743
 20
-1899.5001670659854
 30
0.0
 41
1.0
 10
637.60316185670445
 20
-1899.5042154229043
 30
0.0
 41
1.0
 10
637.74789280717255
 20
-1899.5222959911921
 30
0.0
 41
0.9993495063249109
 10
637.89094405093545
 20
-1899.5507617009332
 30
0.0
 41
1.0
 10
637.9238777480914
 20
-1899.5573151641488
 30
0.0
 41
1.0
 10
637.95681144524735
 20
-1899.5638686273642
 30
0.0
 41
1.0
 10
638.06610526845179
 20
-1899.5856169614995
 30
0.0
 41
0.9996788715560974
 10
638.17415684040679
 20
-1899.6128747608623
 30
0.0
 41
1.0
 10
638.17621984294783
 20
-1899.6133951874358
 30
0.0
 41
1.0
 10
638.17828284548898
 20
-1899.6139156140091
 30
0.0
 41
1.0
 10
638.28220841236578
 20
-1899.6401325602262
 30
0.0
 41
0.9995480654492664
 10
638.38437064759228
 20
-1899.6725475168498
 30
0.0
 41
1.0
 10
638.38606028972004
 20
-1899.6730836217635
 30
0.0
 41
1.0
 10
638.38774993184779
 20
-1899.6736197266769
 30
0.0
 41
1.0
 10
638.48653288282026
 20
-1899.7049624734739
 30
0.0
 41
0.9993867959456417
 10
638.58288004126416
 20
-1899.7431418427641
 30
0.0
 41
1.0
 10
638.58412299034899
 20
-1899.7436343846603
 30
0.0
 41
1.0
 10
638.5853659394337
 20
-1899.7441269265564
 30
0.0
 41
1.0
 10
638.67922719970704
 20
-1899.7813212120539
 30
0.0
 41
0.9992050256522284
 10
638.76982687474037
 20
-1899.8258751112926
 30
0.0
 41
1.0
 10
638.77056155745424
 20
-1899.8262364037541
 30
0.0
 41
1.0
 10
638.77129624016811
 20
-1899.8265976962157
 30
0.0
 41
1.0
 10
638.86042654977507
 20
-1899.870429010532
 30
0.0
 41
0.9990222350741886
 10
638.94533661116748
 20
-1899.9219622782296
 30
0.0
 41
1.0
 10
638.94552049644994
 20
-1899.9220738811341
 30
0.0
 41
1.0
 10
638.9457043817323
 20
-1899.9221854840389
 30
0.0
 41
1.0
 10
639.03024667256034
 20
-1899.9734955459271
 30
0.0
 41
0.998864274380472
 10
639.10952120718002
 20
-1900.032619733453
 30
0.0
 41
1.0
 10
639.18879574179925
 20
-1900.0917439209784
 30
0.0
 41
0.9987681233310054
 10
639.26181952607442
 20
-1900.1584346123786
 30
0.0
 41
1.0
 10
639.26214845404047
 20
-1900.1587350135931
 30
0.0
 41
1.0
 10
639.26247738200664
 20
-1900.1590354148075
 30
0.0
 41
1.0
 10
639.33615902221402
 20
-1900.2263269086363
 30
0.0
 41
0.9987496570898139
 10
639.40275282754203
 20
-1900.3006397227241
 30
0.0
 41
1.0
 10
639.40352499730216
 20
-1900.3015013960817
 30
0.0
 41
1.0
 10
639.4042971670624
 20
-1900.3023630694393
 30
0.0
 41
1.0
 10
639.47243531191077
 20
-1900.3783992302424
 30
0.0
 41
0.9988147669827933
 10
639.53285756613525
 20
-1900.4607002370838
 30
0.0
 41
1.0
 10
639.5339768922131
 20
-1900.4622248684364
 30
0.0
 41
1.0
 10
639.53509621829107
 20
-1900.4637494997892
 30
0.0
 41
1.0
 10
639.59775712467149
 20
-1900.549099769336
 30
0.0
 41
0.9989452636215103
 10
639.65232403763355
 20
-1900.6398384584952
 30
0.0
 41
1.0
 10
639.65367276371899
 20
-1900.6420812395208
 30
0.0
 41
1.0
 10
639.65502148980431
 20
-1900.6443240205467
 30
0.0
 41
1.0
 10
639.71228585493725
 20
-1900.7395482717575
 30
0.0
 41
0.9991046436070789
 10
639.76129506825873
 20
-1900.8392727047828
 30
0.0
 41
1.0
 10
639.76275892984859
 20
-1900.842251384855
 30
0.0
 41
1.0
 10
639.76422279143844
 20
-1900.8452300649274
 30
0.0
 41
1.0
 10
639.81615972793963
 20
-1900.9509118580968
 30
0.0
 41
0.9992763831101207
 10
639.85991285649527
 20
-1901.0602359200539
 30
0.0
 41
1.0
 10
639.86139212615853
 20
-1901.0639321075873
 30
0.0
 41
1.0
 10
639.86287139582191
 20
-1901.067628295121
 30
0.0
 41
1.0
 10
639.90958306370305
 20
-1901.1843447321421
 30
0.0
 41
0.9994163472883086
 10
639.94821609489316
 20
-1901.3039783206073
 30
0.0
 41
1.0
 10
639.94945424714001
 20
-1901.3078124643903
 30
0.0
 41
1.0
 10
639.95069239938687
 20
-1901.3116466081735
 30
0.0
 41
1.0
 10
639.99057596040336
 20
-1901.4351526696498
 30
0.0
 41
0.9997268055891063
 10
640.02464401631596
 20
-1901.5603877016028
 30
0.0
 41
1.0
 10
640.02557419658569
 20
-1901.5638070677126
 30
0.0
 41
1.0
 10
640.02650437685554
 20
-1901.5672264338223
 30
0.0
 41
1.0
 10
640.05871207222765
 20
-1901.6856227335518
 30
0.0
 41
0.999670131900095
 10
640.08479768899861
 20
-1901.8055166868169
 30
0.0
 41
1.0
 10
640.11088330576945
 20
-1901.9254106400817
 30
0.0
 41
0.9995785451109037
 10
640.12996688310932
 20
-1902.0466164011148
 30
0.0
 41
1.0
 10
640.13418666528264
 20
-1902.0734175558778
 30
0.0
 41
1.0
 10
640.13840644745608
 20
-1902.1002187106405
 30
0.0
 41
1.0
 10
640.16498142339469
 20
-1902.2690046843454
 30
0.0
 41
0.9979925101217247
 10
640.17000700932113
 20
-1902.4397960124365
 30
0.0
 41
1.0
 10
640.17083182174588
 20
-1902.4678267359186
 30
0.0
 41
1.0
 10
640.17165663417052
 20
-1902.4958574594004
 30
0.0
 41
1.0
 10
640.17503259524744
 20
-1902.6105873405304
 30
0.0
 41
0.9995314902263462
 10
640.17138240310896
 20
-1902.7253088242803
 30
0.0
 41
1.0
 10
640.16773221097026
 20
-1902.8400303080334
 30
0.0
 41
0.9996245486944535
 10
640.15780311583944
 20
-1902.9543795791594
 30
0.0
 41
1.0
 10
640.15764006784536
 20
-1902.9562573352932
 30
0.0
 41
1.0
 10
640.15747701985129
 20
-1902.9581350914268
 30
0.0
 41
1.0
 10
640.14722182873265
 20
-1903.0762398748175
 30
0.0
 41
0.9997286095000095
 10
640.1314765051618
 20
-1903.1937387837072
 30
0.0
 41
1.0
 10
640.13108301251089
 20
-1903.1966752084136
 30
0.0
 41
1.0
 10
640.13068951985997
 20
-1903.1996116331197
 30
0.0
 41
1.0
 10
640.11415721098808
 20
-1903.3229833914161
 30
0.0
 41
0.9998265533968946
 10
640.09304175225566
 20
-1903.4456538662023
 30
0.0
 41
1.0
 10
640.09236521011815
 20
-1903.4495842447118
 30
0.0
 41
1.0
 10
640.09168866798063
 20
-1903.4535146232215
 30
0.0
 41
1.0
 10
640.06922012497375
 20
-1903.5840458550235
 30
0.0
 41
0.9999022530851212
 10
640.0431106603661
 20
-1903.713897823651
 30
0.0
 41
1.0
 10
640.04213201919947
 20
-1903.7187649660445
 30
0.0
 41
1.0
 10
640.04115337803296
 20
-1903.7236321084379
 30
0.0
 41
1.0
 10
640.01308663109239
 20
-1903.8632183618511
 30
0.0
 41
0.9999524761941101
 10
639.9823036622555
 20
-1904.0022308550263
 30
0.0
 41
1.0
 10
639.98102755508125
 20
-1904.0079936143234
 30
0.0
 41
1.0
 10
639.97975144790689
 20
-1904.0137563736205
 30
0.0
 41
1.0
 10
639.9464162647223
 20
-1904.1642943853858
 30
0.0
 41
0.9999813588711068
 10
639.91124526393116
 20
-1904.3144140980214
 30
0.0
 41
1.0
 10
639.9096913384717
 20
-1904.3210466884559
 30
0.0
 41
1.0
 10
639.90813741301235
 20
-1904.3276792788904
 30
0.0
 41
1.0
 10
639.86985856129695
 20
-1904.4910641724175
 30
0.0
 41
0.9999955237707342
 10
639.83060268331826
 20
-1904.654217076016
 30
0.0
 41
1.0
 10
639.81832104768614
 20
-1904.7052612665298
 30
0.0
 41
1.0
 10
639.80603941205391
 20
-1904.7563054570437
 30
0.0
 41
1.0
 10
639.74222026281029
 20
-1905.0215467416729
 30
0.0
 41
0.9999993604090421
 10
639.677801315642
 20
-1905.2866429923586
 30
0.0
 41
1.0
 10
639.67308248009238
 20
-1905.3060619004098
 30
0.0
 41
1.0
 10
639.66836364454275
 20
-1905.325480808461
 30
0.0
 41
1.0
 10
639.59450702627669
 20
-1905.6294148752413
 30
0.0
 41
0.9999659914725431
 10
639.51564743038955
 20
-1905.9320894218083
 30
0.0
 41
1.0
 10
639.51069474146266
 20
-1905.9510985589761
 30
0.0
 41
1.0
 10
639.50574205253588
 20
-1905.9701076961439
 30
0.0
 41
1.0
 10
639.41697707879325
 20
-1906.3108005170534
 30
0.0
 41
0.9999441976026792
 10
639.32103404582847
 20
-1906.6495419423563
 30
0.0
 41
1.0
 10
639.30433352740215
 20
-1906.7085056548869
 30
0.0
 41
1.0
 10
639.28763300897572
 20
-1906.7674693674176
 30
0.0
 41
1.0
 10
639.15828893916046
 20
-1907.2241382177731
 30
0.0
 41
0.9999625120735953
 10
639.02105617183724
 20
-1907.6784987517692
 30
0.0
 41
1.0
 10
638.98526622875397
 20
-1907.7969947783977
 30
0.0
 41
1.0
 10
638.9494762856707
 20
-1907.9154908050259
 30
0.0
 41
1.0
 10
638.87495608163078
 20
-1908.1622178831244
 30
0.0
 41
0.9999793386308906
 10
638.79727005849327
 20
-1908.4079665223603
 30
0.0
 41
1.0
 10
638.71958403535564
 20
-1908.6537151615964
 30
0.0
 41
1.0
 10
638.7088044764846
 20
-1908.6877330659711
 30
0.0
 41
1.0
 10
636.85843142321573
 20
-1914.5748049884385
 30
0.0
 41
1.0
 10
635.00805836994687
 20
-1920.4618769109059
 30
0.0
 41
1.0
 10
634.04680167992319
 20
-1920.4618769109059
 30
0.0
 41
1.0
 10
633.08554498989952
 20
-1920.4618769109059
 30
0.0
 41
1.0
 10
634.70448976857779
 20
-1915.3138484091164
 30
0.0
 41
1.0
 10
636.32343454725606
 20
-1910.165819907327
 30
0.0
 41
1.0
 10
636.36860037042572
 20
-1910.0217886850724
 30
0.0
 41
1.0
 10
636.41376619359539
 20
-1909.8777574628175
 30
0.0
 41
1.0
 10
636.58407061096386
 20
-1909.3346664336379
 30
0.0
 41
0.9999911657879098
 10
636.74980342264826
 20
-1908.7901629022613
 30
0.0
 41
1.0
 10
636.77949936614868
 20
-1908.6925989622109
 30
0.0
 41
1.0
 10
636.80919530964911
 20
-1908.5950350221603
 30
0.0
 41
1.0
 10
636.91553623432833
 20
-1908.2456593708985
 30
0.0
 41
0.9999952428149184
 10
637.0197198236533
 20
-1907.8956343465479
 30
0.0
 41
1.0
 10
637.02477929398128
 20
-1907.8786360722879
 30
0.0
 41
1.0
 10
637.02983876430915
 20
-1907.8616377980279
 30
0.0
 41
1.0
 10
637.12390341297055
 20
-1907.5456093222228
 30
0.0
 41
0.999993168750748
 10
637.21562925085163
 20
-1907.2288941089278
 30
0.0
 41
1.0
 10
637.22056451531284
 20
-1907.2118533996509
 30
0.0
 41
1.0
 10
637.22549977977405
 20
-1907.1948126903742
 30
0.0
 41
1.0
 10
637.30735508872715
 20
-1906.9121788956504
 30
0.0
 41
0.9999893840815246
 10
637.38660231518224
 20
-1906.6288027664107
 30
0.0
 41
1.0
 10
637.46584954163779
 20
-1906.3454266371698
 30
0.0
 41
0.999983398006718
 10
637.54182578238044
 20
-1906.0611560541367
 30
0.0
 41
1.0
 10
637.55082971910304
 20
-1906.027467175657
 30
0.0
 41
1.0
 10
637.55983365582563
 20
-1905.9937782971774
 30
0.0
 41
1.0
 10
637.62879820469084
 20
-1905.7357424648849
 30
0.0
 41
0.9999233658064977
 10
637.69135317591235
 20
-1905.4760783061577
 30
0.0
 41
1.0
 10
637.75390814713273
 20
-1905.2164141474352
 30
0.0
 41
1.0
 10
637.79339156599053
 20
-1905.0526074830091
 30
0.0
 41
1.0
 10
637.79837016996544
 20
-1905.0319525211485
 30
0.0
 41
1.0
 10
637.80334877394046
 20
-1905.0112975592879
 30
0.0
 41
1.0
 10
637.83287498484424
 20
-1904.8888008186004
 30
0.0
 41
0.9999868670850119
 10
637.86114406884417
 20
-1904.7660078729375
 30
0.0
 41
1.0
 10
637.8650415560046
 20
-1904.7490782855084
 30
0.0
 41
1.0
 10
637.86893904316503
 20
-1904.7321486980793
 30
0.0
 41
1.0
 10
637.88941315284217
 20
-1904.6432149272828
 30
0.0
 41
0.9999778173357393
 10
637.90870075095563
 20
-1904.5540163100616
 30
0.0
 41
1.0
 10
637.92798834906944
 20
-1904.4648176928395
 30
0.0
 41
0.9999602692867406
 10
637.94568270769969
 20
-1904.3752894044162
 30
0.0
 41
1.0
 10
637.94888653977841
 20
-1904.3590789495247
 30
0.0
 41
1.0
 10
637.95209037185714
 20
-1904.3428684946334
 30
0.0
 41
1.0
 10
637.97619239464291
 20
-1904.220919296436
 30
0.0
 41
0.9995617985321196
 10
637.9930357418624
 20
-1904.097757548727
 30
0.0
 41
1.0
 10
637.99550023176846
 20
-1904.0797367313626
 30
0.0
 41
1.0
 10
637.99796472167452
 20
-1904.0617159139983
 30
0.0
 41
1.0
 10
638.0182479827231
 20
-1903.9134008642964
 30
0.0
 41
0.9991121410639363
 10
638.02597333631138
 20
-1903.7639047654911
 30
0.0
 41
1.0
 10
638.02689212633595
 20
-1903.7461249289145
 30
0.0
 41
1.0
 10
638.02781091636052
 20
-1903.728345092338
 30
0.0
 41
1.0
 10
638.03369868989967
 20
-1903.6144086666845
 30
0.0
 41
0.9989792494904808
 10
638.02927959778208
 20
-1903.5004058307866
 30
0.0
 41
1.0
 10
638.02863162591348
 20
-1903.4836895848603
 30
0.0
 41
1.0
 10
638.02798365404476
 20
-1903.4669733389339
 30
0.0
 41
1.0
 10
638.02486050566449
 20
-1903.3864029948861
 30
0.0
 41
0.9997820295393322
 10
638.01837650828884
 20
-1903.3060332731443
 30
0.0
 41
1.0
 10
638.01189251091353
 20
-1903.2256635514043
 30
0.0
 41
0.9998335105974744
 10
638.00248031540184
 20
-1903.1455839349521
 30
0.0
 41
1.0
 10
638.00088539072544
 20
-1903.1320142044681
 30
0.0
 41
1.0
 10
637.99929046604893
 20
-1903.118444473984
 30
0.0
 41
1.0
 10
637.98668842118468
 20
-1903.0112253965681
 30
0.0
 41
0.9996876457879207
 10
637.96874450838618
 20
-1902.9047699688517
 30
0.0
 41
1.0
 10
637.9665128452408
 20
-1902.8915302336095
 30
0.0
 41
1.0
 10
637.96428118209542
 20
-1902.8782904983675
 30
0.0
 41
1.0
 10
637.95048536067441
 20
-1902.7964443544095
 30
0.0
 41
0.999554749649559
 10
637.93183203878198
 20
-1902.7155668572186
 30
0.0
 41
1.0
 10
637.93145808191025
 20
-1902.7139454465116
 30
0.0
 41
1.0
 10
637.93108412503864
 20
-1902.7123240358046
 30
0.0
 41
1.0
 10
637.91317871688966
 20
-1902.6346893600276
 30
0.0
 41
0.9994899427174356
 10
637.89035380820997
 20
-1902.5583560771931
 30
0.0
 41
1.0
 10
637.88989528146931
 20
-1902.5568226274049
 30
0.0
 41
1.0
 10
637.88943675472865
 20
-1902.5552891776165
 30
0.0
 41
1.0
 10
637.86752889953061
 20
-1902.4820227943594
 30
0.0
 41
0.9993784877591365
 10
637.84051326442386
 20
-1902.4104820891998
 30
0.0
 41
1.0
 10
637.83998157344718
 20
-1902.4090741064799
 30
0.0
 41
1.0
 10
637.83944988247049
 20
-1902.40766612376
 30
0.0
 41
1.0
 10
637.81349762931723
 20
-1902.3389413840407
 30
0.0
 41
0.9992430832254686
 10
637.78228109415795
 20
-1902.2724422319725
 30
0.0
 41
1.0
 10
637.78169897810153
 20
-1902.2712021768555
 30
0.0
 41
1.0
 10
637.781116862045
 20
-1902.2699621217384
 30
0.0
 41
1.0
 10
637.75106455899822
 20
-1902.2059430799036
 30
0.0
 41
0.9990789632798419
 10
637.71563393222186
 20
-1902.1447364681546
 30
0.0
 41
1.0
 10
637.71503822603995
 20
-1902.1437073822954
 30
0.0
 41
1.0
 10
637.71444251985793
 20
-1902.1426782964363
 30
0.0
 41
1.0
 10
637.68020330544527
 20
-1902.0835298564057
 30
0.0
 41
0.9988874801122107
 10
637.64054402941292
 20
-1902.027870143987
 30
0.0
 41
1.0
 10
637.6399885033486
 20
-1902.0270904923123
 30
0.0
 41
1.0
 10
637.6394329772844
 20
-1902.0263108406375
 30
0.0
 41
1.0
 10
637.60088475338148
 20
-1901.9722104315699
 30
0.0
 41
0.9986762060693021
 10
637.55698228210485
 20
-1901.92235671713
 30
0.0
 41
1.0
 10
637.55653832177279
 20
-1901.9218525753136
 30
0.0
 41
1.0
 10
637.55609436144073
 20
-1901.9213484334971
 30
0.0
 41
1.0
 10
637.5130798108288
 20
-1901.8725030026908
 30
0.0
 41
0.9984621642487983
 10
637.46492225405109
 20
-1901.8287197022198
 30
0.0
 41
1.0
 10
637.4646756195342
 20
-1901.8284954700562
 30
0.0
 41
1.0
 10
637.46442898501732
 20
-1901.8282712378923
 30
0.0
 41
1.0
 10
637.41676469727292
 20
-1901.7849364017484
 30
0.0
 41
0.9982724693850501
 10
637.36434606543162
 20
-1901.7474920512309
 30
0.0
 41
1.0
 10
637.31192743359088
 20
-1901.7100477007139
 30
0.0
 41
0.9981399180159546
 10
637.25534137019827
 20
-1901.6792611812707
 30
0.0
 41
1.0
 10
637.25529570811898
 20
-1901.679236338113
 30
0.0
 41
1.0
 10
637.25525004603969
 20
-1901.6792114949553
 30
0.0
 41
1.0
 10
637.19857265848884
 20
-1901.6483752891972
 30
0.0
 41
0.9980927086836615
 10
637.13852730742201
 20
-1901.6247584803446
 30
0.0
 41
1.0
 10
637.13808713771095
 20
-1901.6245853544697
 30
0.0
 41
1.0
 10
637.1376469679999
 20
-1901.624412228595
 30
0.0
 41
1.0
 10
637.07672127750914
 20
-1901.6004491679921
 30
0.0
 41
0.9981411356559943
 10
637.01333275610864
 20
-1901.5840765264866
 30
0.0
 41
1.0
 10
637.01245063940826
 20
-1901.5838486842813
 30
0.0
 41
1.0
 10
637.01156852270788
 20
-1901.583620842076
 30
0.0
 41
1.0
 10
636.94641576790661
 20
-1901.5667925161597
 30
0.0
 41
0.9983031812935778
 10
636.87974833891337
 20
-1901.5576531549837
 30
0.0
 41
1.0
 10
636.87087731350857
 20
-1901.5564370363122
 30
0.0
 41
1.0
 10
636.86200628810377
 20
-1901.5552209176408
 30
0.0
 41
1.0
 10
636.80765664559965
 20
-1901.5477701876493
 30
0.0
 41
0.9983887708262119
 10
636.75281279630644
 20
-1901.5465255140164
 30
0.0
 41
1.0
 10
636.74474939108859
 20
-1901.5463425161415
 30
0.0
 41
1.0
 10
636.73668598587074
 20
-1901.5461595182667
 30
0.0
 41
1.0
 10
636.69796894701335
 20
-1901.5452808403832
 30
0.0
 41
0.9998869563080054
 10
636.65924299381095
 20
-1901.5455667097428
 30
0.0
 41
1.0
 10
636.62051704060787
 20
-1901.5458525791025
 30
0.0
 41
0.9999972320028668
 10
636.58179286139648
 20
-1901.5463206786314
 30
0.0
 41
1.0
 10
636.56243984481694
 20
-1901.5465546187208
 30
0.0
 41
1.0
 10
636.54308682823739
 20
-1901.5467885588102
 30
0.0
 41
1.0
 10
636.46565661586601
 20
-1901.547724538518
 30
0.0
 41
0.9997304945086964
 10
636.38835330962775
 20
-1901.5522536323042
 30
0.0
 41
1.0
 10
636.37930366792398
 20
-1901.5527838382941
 30
0.0
 41
1.0
 10
636.37025402622021
 20
-1901.553314044284
 30
0.0
 41
1.0
 10
636.27485143657486
 20
-1901.55890355005
 30
0.0
 41
0.9997888306415685
 10
636.17975910073324
 20
-1901.5684085145388
 30
0.0
 41
1.0
 10
636.17103803915973
 20
-1901.569280229171
 30
0.0
 41
1.0
 10
636.16231697758622
 20
-1901.5701519438032
 30
0.0
 41
1.0
 10
636.04978251859643
 20
-1901.5814003375567
 30
0.0
 41
0.9984170238190203
 10
635.93922337124411
 20
-1901.6052164194928
 30
0.0
 41
1.0
 10
635.90284224025891
 20
-1901.6130534552985
 30
0.0
 41
1.0
 10
635.86646110927359
 20
-1901.6208904911045
 30
0.0
 41
1.0
 10
635.75127004085232
 20
-1901.6457043576142
 30
0.0
 41
0.9976592854198767
 10
635.64054187444754
 20
-1901.6860030347614
 30
0.0
 41
1.0
 10
635.52981370804264
 20
-1901.7263017119085
 30
0.0
 41
0.9993255074352456
 10
635.42234190925126
 20
-1901.7746186104011
 30
0.0
 41
1.0
 10
635.41771673032827
 20
-1901.7766979866008
 30
0.0
 41
1.0
 10
635.41309155140516
 20
-1901.7787773628004
 30
0.0
 41
1.0
 10
635.29636939476813
 20
-1901.831253013692
 30
0.0
 41
0.9976475078275062
 10
635.18792205045816
 20
-1901.8992010033501
 30
0.0
 41
1.0
 10
635.16957965632605
 20
-1901.910693482163
 30
0.0
 41
1.0
 10
635.15123726219394
 20
-1901.9221859609756
 30
0.0
 41
1.0
 10
635.06703507063935
 20
-1901.9749430817456
 30
0.0
 41
0.9995131336406918
 10
634.98628735567809
 20
-1902.0328492937015
 30
0.0
 41
1.0
 10
634.90553964072114
 20
-1902.0907555056547
 30
0.0
 41
0.9995810107607072
 10
634.82827799299037
 20
-1902.1532371881217
 30
0.0
 41
1.0
 10
634.82530796178116
 20
-1902.1556390595856
 30
0.0
 41
1.0
 10
634.82233793057185
 20
-1902.1580409310495
 30
0.0
 41
1.0
 10
634.73913622042176
 20
-1902.2253263564451
 30
0.0
 41
0.999661783795417
 10
634.65954553328515
 20
-1902.2968468120064
 30
0.0
 41
1.0
 10
634.64741478241251
 20
-1902.3077475449932
 30
0.0
 41
1.0
 10
634.63528403153987
 20
-1902.3186482779799
 30
0.0
 41
1.0
 10
634.56700850413881
 20
-1902.3800008934563
 30
0.0
 41
0.9997267750052477
 10
634.50167499585223
 20
-1902.4444774299843
 30
0.0
 41
1.0
 10
634.43634148756348
 20
-1902.5089539665146
 30
0.0
 41
0.999966728896154
 10
634.37206854441138
 20
-1902.5744877734148
 30
0.0
 41
1.0
 10
634.30324109664139
 20
-1902.6446654321676
 30
0.0
 41
1.0
 10
634.2344136488714
 20
-1902.7148430909206
 30
0.0
 41
1.0
 10
634.03248581017453
 20
-1902.9207322153311
 30
0.0
 41
0.9988205335174762
 10
633.85148019319388
 20
-1903.1452364473937
 30
0.0
 41
1.0
 10
633.82084022828985
 20
-1903.1832396978227
 30
0.0
 41
1.0
 10
633.79020026338594
 20
-1903.2212429482518
 30
0.0
 41
1.0
 10
633.54791471659837
 20
-1903.521753681171
 30
0.0
 41
0.9997077826754945
 10
633.32043676549415
 20
-1903.8336234753856
 30
0.0
 41
1.0
 10
633.3187133503626
 20
-1903.8359862587668
 30
0.0
 41
1.0
 10
633.31698993523105
 20
-1903.8383490421477
 30
0.0
 41
1.0
 10
633.08606515386464
 20
-1904.1549444031232
 30
0.0
 41
0.9989147567078971
 10
632.88560165097954
 20
-1904.4916538643106
 30
0.0
 41
1.0
 10
632.86086050567474
 20
-1904.5332104448594
 30
0.0
 41
1.0
 10
632.83611936036982
 20
-1904.5747670254082
 30
0.0
 41
1.0
 10
632.68090806173075
 20
-1904.8354684098638
 30
0.0
 41
0.9997476598180987
 10
632.53756307422009
 20
-1905.102878158448
 30
0.0
 41
1.0
 10
632.39421808670909
 20
-1905.3702879070331
 30
0.0
 41
0.9996258967109324
 10
632.26570983477779
 20
-1905.6451358436568
 30
0.0
 41
1.0
 10
632.25250992532688
 20
-1905.6733672437551
 30
0.0
 41
1.0
 10
632.23931001587584
 20
-1905.7015986438535
 30
0.0
 41
1.0
 10
632.0991012948781
 20
-1906.0014710418025
 30
0.0
 41
0.9998735413943745
 10
631.96849994815921
 20
-1906.305650641267
 30
0.0
 41
1.0
 10
631.96505712010037
 20
-1906.3136692267278
 30
0.0
 41
1.0
 10
631.96161429204153
 20
-1906.3216878121887
 30
0.0
 41
1.0
 10
631.83789860144088
 20
-1906.6098302407299
 30
0.0
 41
0.9999377418859743
 10
631.72064379926405
 20
-1906.9006617084096
 30
0.0
 41
1.0
 10
631.60338899708836
 20
-1907.1914931760869
 30
0.0
 41
0.999950829950177
 10
631.49192505371229
 20
-1907.4845928529053
 30
0.0
 41
1.0
 10
631.48884428504948
 20
-1907.4926938788699
 30
0.0
 41
1.0
 10
631.48576351638667
 20
-1907.5007949048347
 30
0.0
 41
1.0
 10
631.3681380356843
 20
-1907.8100966335842
 30
0.0
 41
0.9999609228427185
 10
631.25599943280918
 20
-1908.1214296496025
 30
0.0
 41
1.0
 10
631.25304342246011
 20
-1908.1296364900104
 30
0.0
 41
1.0
 10
631.25008741211104
 20
-1908.1378433304183
 30
0.0
 41
1.0
 10
631.13203678853733
 20
-1908.4655900272533
 30
0.0
 41
0.9999674607407083
 10
631.01928926247217
 20
-1908.7951986472399
 30
0.0
 41
1.0
 10
630.96789087190837
 20
-1908.9454578429359
 30
0.0
 41
1.0
 10
630.91649248134456
 20
-1909.0957170386316
 30
0.0
 41
1.0
 10
630.80048187458488
 20
-1909.4348650211396
 30
0.0
 41
0.9999287532309379
 10
630.69260047061607
 20
-1909.7766857601105
 30
0.0
 41
1.0
 10
630.64612321446396
 20
-1909.9239483045228
 30
0.0
 41
1.0
 10
630.59964595831184
 20
-1910.0712108489352
 30
0.0
 41
1.0
 10
630.5847190666284
 20
-1910.1185064991403
 30
0.0
 41
0.9999998223398644
 10
630.56984855791461
 20
-1910.165819907327
 30
0.0
 41
1.0
 10
628.94919242111928
 20
-1915.3138484091164
 30
0.0
 41
1.0
 10
627.32853628432395
 20
-1920.4618769109059
 30
0.0
 41
1.0
 10
626.4232278404329
 20
-1920.4618769109059
 30
0.0
 41
1.0
 10
625.51791939654186
 20
-1920.4618769109059
 30
0.0
 41
1.0
 10
627.37000380792824
 20
-1914.5748049884385
 30
0.0
 41
1.0
 10
629.22208821931463
 20
-1908.6877330659711
 30
0.0
 41
1.0
 10
629.232209977617
 20
-1908.6556898525212
 30
0.0
 41
1.0
 10
629.30481764646674
 20
-1908.4253903106953
 30
0.0
 41
1.0
 10
629.37742531531535
 20
-1908.1950907688731
 30
0.0
 41
0.9999825681971771
 10
629.44730835452583
 20
-1907.9639498738115
 30
0.0
 41
1.0
 10
629.49559941668804
 20
-1907.804225290311
 30
0.0
 41
1.0
 10
629.54389047885024
 20
-1907.6445007068105
 30
0.0
 41
1.0
 10
629.64104283216602
 20
-1907.3231654850397
 30
0.0
 41
0.9999672528965102
 10
629.73298163778873
 20
-1907.0002999394546
 30
0.0
 41
1.0
 10
629.7357705214597
 20
-1906.99050609406
 30
0.0
 41
1.0
 10
629.73855940513079
 20
-1906.9807122486657
 30
0.0
 41
1.0
 10
629.82492044341052
 20
-1906.6774343938728
 30
0.0
 41
0.9999899749151114
 10
629.90856205294676
 20
-1906.3733953054159
 30
0.0
 41
1.0
 10
629.9186679719636
 20
-1906.33666006774
 30
0.0
 41
1.0
 10
629.92877389098044
 20
-1906.2999248300641
 30
0.0
 41
1.0
 10
629.99220366248028
 20
-1906.0693562169681
 30
0.0
 41
0.9999214200505695
 10
630.04983309085947
 20
-1905.8372698747542
 30
0.0
 41
1.0
 10
630.06259894304299
 20
-1905.7858589893463
 30
0.0
 41
1.0
 10
630.07536479522651
 20
-1905.7344481039383
 30
0.0
 41
1.0
 10
630.10746251923979
 20
-1905.6051835325347
 30
0.0
 41
0.9999828681657941
 10
630.13804477123267
 20
-1905.4755520580773
 30
0.0
 41
1.0
 10
630.16862702322749
 20
-1905.345920583612
 30
0.0
 41
0.9999389844475192
 10
630.19633801201621
 20
-1905.215645127714
 30
0.0
 41
1.0
 10
630.2034757557368
 20
-1905.1820890238746
 30
0.0
 41
1.0
 10
630.21061349945739
 20
-1905.148532920035
 30
0.0
 41
1.0
 10
630.25259997568617
 20
-1904.951145256463
 30
0.0
 41
0.9998933699439861
 10
630.28880424008798
 20
-1904.7526156487072
 30
0.0
 41
1.0
 10
630.29017706530487
 20
-1904.7450876280077
 30
0.0
 41
1.0
 10
630.29154989052176
 20
-1904.7375596073084
 30
0.0
 41
1.0
 10
630.33049980535714
 20
-1904.5239739581548
 30
0.0
 41
0.9996850305193593
 10
630.35868348161603
 20
-1904.3087029527162
 30
0.0
 41
1.0
 10
630.36067851498512
 20
-1904.2934645985956
 30
0.0
 41
1.0
 10
630.36267354835422
 20
-1904.278226244475
 30
0.0
 41
1.0
 10
630.39008141081342
 20
-1904.0688810173208
 30
0.0
 41
0.9994697936706513
 10
630.40380597003286
 20
-1903.8581958219906
 30
0.0
 41
1.0
 10
630.40428303928263
 20
-1903.8508723497785
 30
0.0
 41
1.0
 10
630.4047601085324
 20
-1903.8435488775663
 30
0.0
 41
1.0
 10
630.41753052925253
 20
-1903.6475106266589
 30
0.0
 41
0.999180489313704
 10
630.41440221297989
 20
-1903.4510817766866
 30
0.0
 41
1.0
 10
630.41431833415777
 20
-1903.4458149752727
 30
0.0
 41
1.0
 10
630.41423445533565
 20
-1903.4405481738588
 30
0.0
 41
1.0
 10
630.41127389670737
 20
-1903.2546529267122
 30
0.0
 41
0.9988448329320808
 10
630.39048235108339
 20
-1903.0699003368798
 30
0.0
 41
1.0
 10
630.38888827738037
 20
-1903.0557354811085
 30
0.0
 41
1.0
 10
630.38729420367724
 20
-1903.0415706253373
 30
0.0
 41
1.0
 10
630.36969080545941
 20
-1902.8851477470453
 30
0.0
 41
0.9985503209458084
 10
630.33537453315967
 20
-1902.7315235629571
 30
0.0
 41
1.0
 10
630.32778854108847
 20
-1902.6975632355575
 30
0.0
 41
1.0
 10
630.32020254901738
 20
-1902.6636029081576
 30
0.0
 41
1.0
 10
630.30105826086026
 20
-1902.5778993788699
 30
0.0
 41
0.9991036781371573
 10
630.2747333992088
 20
-1902.4941222915429
 30
0.0
 41
1.0
 10
630.27075117375307
 20
-1902.4814491290331
 30
0.0
 41
1.0
 10
630.26676894829734
 20
-1902.4687759665233
 30
0.0
 41
1.0
 10
630.24840853755779
 20
-1902.4103452042182
 30
0.0
 41
0.9998874504368496
 10
630.22830332987951
 20
-1902.3524916019946
 30
0.0
 41
1.0
 10
630.20819812220054
 20
-1902.2946379997691
 30
0.0
 41
0.9994041637542663
 10
630.18414950926638
 20
-1902.2383092958801
 30
0.0
 41
1.0
 10
630.17995272504299
 20
-1902.2284792313999
 30
0.0
 41
1.0
 10
630.17575594081973
 20
-1902.2186491669197
 30
0.0
 41
1.0
 10
630.14787710982466
 20
-1902.1533490009515
 30
0.0
 41
0.9991846840702735
 10
630.11482075313097
 20
-1902.09051096967
 30
0.0
 41
1.0
 10
630.11368414673575
 20
-1902.088350353215
 30
0.0
 41
1.0
 10
630.11254754034064
 20
-1902.0861897367599
 30
0.0
 41
1.0
 10
630.08176439643728
 20
-1902.0276729383884
 30
0.0
 41
0.9989253167922325
 10
630.04569497238299
 20
-1901.9722580099997
 30
0.0
 41
1.0
 10
630.04464084770893
 20
-1901.9706385152376
 30
0.0
 41
1.0
 10
630.04358672303499
 20
-1901.9690190204758
 30
0.0
 41
1.0
 10
630.0096255483287
 20
-1901.9168430816108
 30
0.0
 41
0.9986467172838149
 10
629.97042839569076
 20
-1901.8684770479799
 30
0.0
 41
1.0
 10
629.9695542669898
 20
-1901.8673984457014
 30
0.0
 41
1.0
 10
629.96868013828885
 20
-1901.8663198434228
 30
0.0
 41
1.0
 10
629.93123124305316
 20
-1901.82011101435
 30
0.0
 41
0.9984001104267266
 10
629.88880451253635
 20
-1901.7784259069815
 30
0.0
 41
1.0
 10
629.88821737442686
 20
-1901.7778490321002
 30
0.0
 41
1.0
 10
629.88763023631748
 20
-1901.7772721572189
 30
0.0
 41
1.0
 10
629.84637778201954
 20
-1901.736740799613
 30
0.0
 41
0.9982442159082153
 10
629.80062168068343
 20
-1901.7013722383526
 30
0.0
 41
1.0
 10
629.80040688522126
 20
-1901.701206205709
 30
0.0
 41
1.0
 10
629.80019208975898
 20
-1901.7010401730654
 30
0.0
 41
1.0
 10
629.75486557934755
 20
-1901.6660036770925
 30
0.0
 41
0.9982450060838817
 10
629.70571460027577
 20
-1901.6365718940588
 30
0.0
 41
1.0
 10
629.65656362120444
 20
-1901.6071401110253
 30
0.0
 41
0.9983922639634443
 10
629.60439731503936
 20
-1901.5834604763711
 30
0.0
 41
1.0
 10
629.60417043771486
 20
-1901.5833574908897
 30
0.0
 41
1.0
 10
629.60394356039023
 20
-1901.5832545054081
 30
0.0
 41
1.0
 10
629.55132349957671
 20
-1901.5593688997913
 30
0.0
 41
0.9986517147149993
 10
629.49651052670879
 20
-1901.5410677806697
 30
0.0
 41
1.0
 10
629.49583260528084
 20
-1901.5408414342382
 30
0.0
 41
1.0
 10
629.49515468385289
 20
-1901.5406150878066
 30
0.0
 41
1.0
 10
629.43898586812929
 20
-1901.5218612758219
 30
0.0
 41
0.9989435598956807
 10
629.38133248097699
 20
-1901.5083435735871
 30
0.0
 41
1.0
 10
629.38025236139583
 20
-1901.5080903233343
 30
0.0
 41
1.0
 10
629.37917224181456
 20
-1901.5078370730814
 30
0.0
 41
1.0
 10
629.31935861550141
 20
-1901.4938128703413
 30
0.0
 41
0.9992249241240125
 10
629.2586271066059
 20
-1901.4845375276263
 30
0.0
 41
1.0
 10
629.2572134183132
 20
-1901.4843216192182
 30
0.0
 41
1.0
 10
629.2557997300205
 20
-1901.4841057108101
 30
0.0
 41
1.0
 10
629.1922408445389
 20
-1901.4743985512789
 30
0.0
 41
0.9994396597834356
 10
629.12817490799978
 20
-1901.4689656289331
 30
0.0
 41
1.0
 10
629.10903424052412
 20
-1901.4673424612147
 30
0.0
 41
1.0
 10
629.08989357304836
 20
-1901.4657192934962
 30
0.0
 41
1.0
 10
628.98754630155611
 20
-1901.4570400357131
 30
0.0
 41
0.9987693403121172
 10
628.88484267796923
 20
-1901.4585430991658
 30
0.0
 41
1.0
 10
628.87458834374252
 20
-1901.45869317094
 30
0.0
 41
1.0
 10
628.86433400951569
 20
-1901.4588432427142
 30
0.0
 41
1.0
 10
628.75477824333632
 20
-1901.4604465870018
 30
0.0
 41
0.9989753644967057
 10
628.64581624331913
 20
-1901.4719495939269
 30
0.0
 41
1.0
 10
628.53685424330297
 20
-1901.4834526008519
 30
0.0
 41
0.9983190067305923
 10
628.42995543233872
 20
-1901.5074875926384
 30
0.0
 41
1.0
 10
628.42105448073153
 20
-1901.5094888712013
 30
0.0
 41
1.0
 10
628.41215352912423
 20
-1901.5114901497641
 30
0.0
 41
1.0
 10
628.28745281494537
 20
-1901.5395276986762
 30
0.0
 41
0.9985539388302619
 10
628.16648306126706
 20
-1901.5807913747221
 30
0.0
 41
1.0
 10
628.1641376303071
 20
-1901.5815914185378
 30
0.0
 41
1.0
 10
628.16179219934702
 20
-1901.5823914623536
 30
0.0
 41
1.0
 10
628.03613158374867
 20
-1901.625255226031
 30
0.0
 41
0.9988468746493602
 10
627.91516124144766
 20
-1901.6799733110938
 30
0.0
 41
1.0
 10
627.91197841945927
 20
-1901.6814129856534
 30
0.0
 41
1.0
 10
627.908795597471
 20
-1901.6828526602133
 30
0.0
 41
1.0
 10
627.7814596111948
 20
-1901.7404500943949
 30
0.0
 41
0.9991322885919747
 10
627.65935902713863
 20
-1901.8084454265761
 30
0.0
 41
1.0
 10
627.64175701609088
 20
-1901.8182476285679
 30
0.0
 41
1.0
 10
627.62415500504324
 20
-1901.8280498305598
 30
0.0
 41
1.0
 10
627.52197832398804
 20
-1901.8849499463392
 30
0.0
 41
0.999386003784917
 10
627.42403731991772
 20
-1901.948865961926
 30
0.0
 41
1.0
 10
627.41841900707118
 20
-1901.9525324566171
 30
0.0
 41
1.0
 10
627.41280069422453
 20
-1901.9561989513084
 30
0.0
 41
1.0
 10
627.32609631585171
 20
-1902.0127819775098
 30
0.0
 41
0.9998821494955046
 10
627.24116994003134
 20
-1902.0720002075914
 30
0.0
 41
1.0
 10
627.15624356421813
 20
-1902.1312184376684
 30
0.0
 41
0.9997976482744341
 10
627.07376793381115
 20
-1902.1938048457127
 30
0.0
 41
1.0
 10
627.05913166900814
 20
-1902.2049115354912
 30
0.0
 41
1.0
 10
627.04449540420501
 20
-1902.2160182252696
 30
0.0
 41
1.0
 10
626.93274724418939
 20
-1902.3008180128727
 30
0.0
 41
0.9998091630800723
 10
626.82439696616007
 20
-1902.3899183635756
 30
0.0
 41
1.0
 10
626.81139121368471
 20
-1902.4006134640199
 30
0.0
 41
1.0
 10
626.79838546120936
 20
-1902.4113085644644
 30
0.0
 41
1.0
 10
626.66402367822946
 20
-1902.5217991160559
 30
0.0
 41
0.999503511231759
 10
626.53688780046809
 20
-1902.6405329330687
 30
0.0
 41
1.0
 10
626.52724049007838
 20
-1902.6495426792289
 30
0.0
 41
1.0
 10
626.51759317968856
 20
-1902.6585524253892
 30
0.0
 41
1.0
 10
626.39417011692308
 20
-1902.7738187971454
 30
0.0
 41
0.999463042429937
 10
626.2785617111399
 20
-1902.8969215403797
 30
0.0
 41
1.0
 10
626.27487887236771
 20
-1902.9008431198936
 30
0.0
 41
1.0
 10
626.27119603359563
 20
-1902.9047646994072
 30
0.0
 41
1.0
 10
626.16295330535468
 20
-1903.0200242836163
 30
0.0
 41
0.9995160693749937
 10
626.06208727582407
 20
-1903.1417917014874
 30
0.0
 41
1.0
 10
626.06015355574414
 20
-1903.1441261256946
 30
0.0
 41
1.0
 10
626.05821983566432
 20
-1903.1464605499016
 30
0.0
 41
1.0
 10
625.96122124629142
 20
-1903.2635591193607
 30
0.0
 41
0.9996561470514276
 10
625.87049502762648
 20
-1903.385581881809
 30
0.0
 41
1.0
 10
625.86433736172489
 20
-1903.3938636708508
 30
0.0
 41
1.0
 10
625.8581796958232
 20
-1903.4021454598928
 30
0.0
 41
1.0
 10
625.77976880895903
 20
-1903.5076046442603
 30
0.0
 41
0.9998349055174356
 10
625.70524152702819
 20
-1903.6158432279217
 30
0.0
 41
1.0
 10
625.63071424508712
 20
-1903.7240818115977
 30
0.0
 41
0.9999728109568534
 10
625.55779134917736
 20
-1903.8334077371528
 30
0.0
 41
1.0
 10
625.55647613376982
 20
-1903.8353795066491
 30
0.0
 41
1.0
 10
625.55516091836216
 20
-1903.8373512761455
 30
0.0
 41
1.0
 10
625.47960759162322
 20
-1903.9506207407139
 30
0.0
 41
0.999997214738702
 10
625.40458978124366
 20
-1904.0642455835584
 30
0.0
 41
1.0
 10
625.39961823862689
 20
-1904.0717756720223
 30
0.0
 41
1.0
 10
625.39464669601011
 20
-1904.079305760486
 30
0.0
 41
1.0
 10
625.30968580039541
 20
-1904.2079907802604
 30
0.0
 41
0.9999371979008829
 10
625.227630450996
 20
-1904.3385476940296
 30
0.0
 41
1.0
 10
625.22412156662949
 20
-1904.3441306221021
 30
0.0
 41
1.0
 10
625.22061268226298
 20
-1904.3497135501746
 30
0.0
 41
1.0
 10
625.13153956413328
 20
-1904.4914363200846
 30
0.0
 41
0.9998272025610598
 10
625.04779617324732
 20
-1904.6363721968339
 30
0.0
 41
1.0
 10
625.03258100122571
 20
-1904.6627053112866
 30
0.0
 41
1.0
 10
625.01736582920421
 20
-1904.689038425739
 30
0.0
 41
1.0
 10
624.90319209427457
 20
-1904.8866405313943
 30
0.0
 41
0.9995217214838441
 10
624.80145240471916
 20
-1905.0909228592557
 30
0.0
 41
1.0
 10
624.79380884208513
 20
-1905.1062703089565
 30
0.0
 41
1.0
 10
624.78616527945121
 20
-1905.1216177586571
 30
0.0
 41
1.0
 10
624.69925998685892
 20
-1905.2961142167435
 30
0.0
 41
0.9998269762609215
 10
624.6189055205864
 20
-1905.4737225034678
 30
0.0
 41
1.0
 10
624.53855105431307
 20
-1905.6513307901937
 30
0.0
 41
0.9998944747386681
 10
624.46339025974748
 20
-1905.8311985158261
 30
0.0
 41
1.0
 10
624.45843659015964
 20
-1905.8430531707354
 30
0.0
 41
1.0
 10
624.4534829205719
 20
-1905.8549078256449
 30
0.0
 41
1.0
 10
624.3728358600149
 20
-1906.0479047656736
 30
0.0
 41
0.9999506734410513
 10
624.29603833111105
 20
-1906.2424655705306
 30
0.0
 41
1.0
 10
624.28143836583354
 20
-1906.2794534923532
 30
0.0
 41
1.0
 10
624.26683840055614
 20
-1906.3164414141759
 30
0.0
 41
1.0
 10
624.21924080219355
 20
-1906.4370263754213
 30
0.0
 41
0.9999912393946077
 10
624.1726543581849
 20
-1906.5580055780824
 30
0.0
 41
1.0
 10
624.12606791416988
 20
-1906.6789847807588
 30
0.0
 41
0.999992711399067
 10
624.08040661978316
 20
-1906.80031618824
 30
0.0
 41
1.0
 10
624.0664381883779
 20
-1906.8374331702589
 30
0.0
 41
1.0
 10
624.05246975697264
 20
-1906.8745501522781
 30
0.0
 41
1.0
 10
623.97887159978075
 20
-1907.0701155237837
 30
0.0
 41
0.9999487550951779
 10
623.90924797480784
 20
-1907.2671308889703
 30
0.0
 41
1.0
 10
623.88565436487124
 20
-1907.3338941992624
 30
0.0
 41
1.0
 10
623.86206075493453
 20
-1907.4006575095545
 30
0.0
 41
1.0
 10
623.76737512056343
 20
-1907.6685913443807
 30
0.0
 41
0.9999808436938882
 10
623.67601353192549
 20
-1907.9376767756353
 30
0.0
 41
1.0
 10
623.58465194328619
 20
-1908.206762206893
 30
0.0
 41
0.9999873932911171
 10
623.49599723457072
 20
-1908.4767515618989
 30
0.0
 41
1.0
 10
623.47590487769901
 20
-1908.537940894659
 30
0.0
 41
1.0
 10
623.45581252082729
 20
-1908.599130227419
 30
0.0
 41
1.0
 10
623.32697309837636
 20
-1908.9914982479208
 30
0.0
 41
0.9999794883027764
 10
623.20317031341722
 20
-1909.385484454202
 30
0.0
 41
1.0
 10
623.19201805396813
 20
-1909.4209750644759
 30
0.0
 41
1.0
 10
623.18086579451904
 20
-1909.4564656747498
 30
0.0
 41
1.0
 10
623.03830763062797
 20
-1909.9101384268163
 30
0.0
 41
0.9999982761788352
 10
622.89743519062495
 20
-1910.3643374488995
 30
0.0
 41
1.0
 10
621.30929485805245
 20
-1915.4131071799027
 30
0.0
 41
1.0
 10
619.72115452547996
 20
-1920.4618769109059
 30
0.0
 41
1.0
 10
618.77240391400346
 20
-1920.4618769109059
 30
0.0
 41
1.0
 10
617.82365330252696
 20
-1920.4618769109059
 30
0.0
 41
1.0
 10
621.0619377886801
 20
-1910.1345547109597
 30
0.0
 41
1.0
 10
624.30022227483323
 20
-1899.8072325110136
 30
0.0
 41
1.0
  0
LWPOLYLINE
  5
5F
100
AcDbEntity
  8
0
370
              15
390
0
  6
Continuous
 62
               7
100
AcDbPolyline
 90
      232
 70
             128
 10
598.59667650100573
 20
-1900.8915753425288
 42
0.0004370800671162
 10
598.54379932702182
 20
-1900.9602419816711
 10
598.50451509580671
 20
-1901.0113490946817
 42
0.0030481992176741
 10
598.37417637866372
 20
-1901.1830707870579
 10
598.33566470693722
 20
-1901.2344575708141
 42
0.0042058245755453
 10
598.13167965626315
 20
-1901.5114633158935
 10
598.07927453376669
 20
-1901.5838961626685
 42
0.0120948898745758
 10
597.78323061700473
 20
-1902.0146457672183
 10
597.68703811788544
 20
-1902.1621265024392
 42
0.0141601263946596
 10
597.38339407096146
 20
-1902.6577958391779
 10
597.34385680353387
 20
-1902.7266398066124
 42
0.0071131081299388
 10
597.13858448029714
 20
-1903.0961426054478
 42
0.0068458791003772
 10
596.94370495345174
 20
-1903.4712341689285
 10
596.93689309099636
 20
-1903.4847958826474
 42
0.0064120880290197
 10
596.73875084095209
 20
-1903.8922203575662
 10
596.73121615543505
 20
-1903.9082322142874
 42
0.0058857236445312
 10
596.52846076356354
 20
-1904.3526083253212
 10
596.52028583726906
 20
-1904.3710984789564
 42
0.0053189741896731
 10
596.31158152460432
 20
-1904.8570619528668
 10
596.30283371891983
 20
-1904.8780438310705
 42
0.0047503650419602
 10
596.08685999276452
 20
-1905.4102432642921
 10
596.07759174442117
 20
-1905.4337196403881
 42
0.0042071762170796
 10
595.85304436069646
 20
-1906.01681323445
 10
595.84329495834481
 20
-1906.0427794093275
 42
0.0036680086486547
 10
595.6088403150319
 20
-1906.6814147938614
 10
595.59863253518506
 20
-1906.7098633282033
 42
0.0032573142626273
 10
595.3530002492156
 20
-1907.4087159879646
 10
595.28434972838045
 20
-1907.6081790720013
 42
0.0026133366650811
 10
594.93590452961962
 20
-1908.6380423556816
 10
594.87264774211963
 20
-1908.8282731910729
 42
0.0020592950737273
 10
594.65878467315179
 20
-1909.4803768436877
 10
594.65573288199107
 20
-1909.4898133320899
 42
0.0025609928536285
 10
594.45391238050252
 20
-1910.1249585544633
 10
594.45132101336765
 20
-1910.1332608954301
 42
0.0031362356244589
 10
594.26183022769919
 20
-1910.7540237515834
 10
594.25969918477722
 20
-1910.7611650577762
 42
0.0037229918025314
 10
594.0828987978457
 20
-1911.3701503597686
 10
594.08122020864187
 20
-1911.3760972499338
 42
0.0043077623709232
 10
593.91747940657433
 20
-1911.975915981712
 42
0.0047654161821666
 10
593.76465068405969
 20
-1912.5786020706084
 10
593.73018607521908
 20
-1912.7201638477641
 42
0.0112969368446652
 10
593.53432171707493
 20
-1913.6118560083892
 10
593.50631532797843
 20
-1913.754684054486
 42
0.0130056762571996
 10
593.30547808433175
 20
-1914.9416251261309
 10
593.28493833418452
 20
-1915.0857032396091
 42
0.013872153214476
 10
593.18123532964682
 20
-1915.9925327254336
 10
593.16193984173913
 20
-1916.2160304473564
 42
0.0071254697009557
 10
593.12859319581639
 20
-1916.6792174562061
 10
593.12363222165209
 20
-1916.7652214507841
 42
0.0028881799199882
 10
593.10849392836326
 20
-1917.0569631606088
 42
0.0060297297139807
 10
593.09856172858781
 20
-1917.3489120967283
 10
593.09749944692089
 20
-1917.3973044686572
 42
0.0229523164146233
 10
593.10523047470679
 20
-1917.7200593149403
 10
593.10945624822739
 20
-1917.7804628489607
 42
0.012367330067819
 10
593.12853489474537
 20
-1917.9815835741313
 42
0.0128577674472363
 10
593.15773028515207
 20
-1918.1814814240593
 10
593.1648561585389
 20
-1918.222810238655
 42
0.028571785376866
 10
593.22935016023496
 20
-1918.500926389969
 10
593.24301868390103
 20
-1918.5475811594451
 42
0.0316283099155197
 10
593.3588292638151
 20
-1918.8665956612715
 10
593.36187795557055
 20
-1918.8735820335969
 42
0.0338984824242898
 10
593.51130966653773
 20
-1919.1611479977862
 10
593.51361839590766
 20
-1919.1649390270622
 42
0.0350228718349172
 10
593.69597868658138
 20
-1919.421991011739
 10
593.69686393835582
 20
-1919.4230700895023
 42
0.0347476747525135
 10
593.91128862559617
 20
-1919.650255136723
 42
0.03313377019129
 10
594.15453195134182
 20
-1919.8463837988002
 10
594.15563204985847
 20
-1919.8471565019729
 42
0.0305233319087935
 10
594.42417674543469
 20
-1920.0122846720656
 10
594.42740678993323
 20
-1920.0140086839269
 42
0.0273744481151218
 10
594.71996050150585
 20
-1920.1501468278166
 10
594.72506503664499
 20
-1920.1521904122869
 42
0.0240964406195659
 10
595.0405421122905
 20
-1920.2611741385683
 10
595.04712544150061
 20
-1920.2630988782435
 42
0.0209636179812016
 10
595.38452559415248
 20
-1920.3465670261755
 10
595.39215805460208
 20
-1920.3481189391771
 42
0.0181388704692357
 10
595.75048044660207
 20
-1920.4075350323913
 10
595.75876129497874
 20
-1920.4086012162081
 42
0.0156086547588364
 10
596.13694865916943
 20
-1920.4453374027848
 10
596.18014391149177
 20
-1920.4481759052635
 42
0.0137148329024509
 10
596.50781705679356
 20
-1920.460696160515
 10
596.55375324675697
 20
-1920.4611905936304
 42
0.0051057823886964
 10
596.78989883331178
 20
-1920.4613208480393
 42
0.0052256693309494
 10
597.02599611707865
 20
-1920.4565720235757
 10
597.09622290083962
 20
-1920.4544250575611
 42
0.0161507179050435
 10
597.4719599789421
 20
-1920.4307746872344
 10
597.49197293931411
 20
-1920.428864491947
 42
0.0101216737835826
 10
597.90600016081328
 20
-1920.3808715615803
 10
597.94005345023152
 20
-1920.3762238647719
 42
0.0245291776399266
 10
598.4168431057825
 20
-1920.2871487866955
 10
598.50166642130455
 20
-1920.2669528663503
 42
0.0143509212553452
 10
598.8582975252466
 20
-1920.1711482325709
 42
0.0156557857045748
 10
599.20851358998095
 20
-1920.0541370167493
 10
599.21601480446816
 20
-1920.0513668549979
 42
0.0170137333621653
 10
599.57261080014462
 20
-1919.905709240129
 10
599.57971472255713
 20
-1919.902521404563
 42
0.0183105364412811
 10
599.93906439072043
 20
-1919.7251863627403
 10
599.94601115536216
 20
-1919.7214359278667
 42
0.0194899958148198
 10
600.30449189634396
 20
-1919.5094569459773
 10
600.31150577568269
 20
-1919.5049316036809
 42
0.0204869852953108
 10
600.66552007778148
 20
-1919.2554115885914
 10
600.67278568636357
 20
-1919.2498315232467
 42
0.0212516938555746
 10
601.01877561747131
 20
-1918.9599275263524
 10
601.06529231154821
 20
-1918.9174602162577
 42
0.021524891825067
 10
601.32531848043527
 20
-1918.6586959372639
 10
601.37034821481575
 20
-1918.6098518159142
 42
0.0114578554957624
 10
601.52514036849334
 20
-1918.4340288824558
 10
601.53633490447942
 20
-1918.4207101189111
 42
0.0061531305135407
 10
601.66280955047432
 20
-1918.2664205856047
 42
0.000632558711646
 10
601.78718803453762
 20
-1918.1104172100399
 10
601.81022816967743
 20
-1918.0814436892695
 42
0.0041897761555399
 10
601.97868357366792
 20
-1917.8659243131845
 10
602.03714569354224
 20
-1917.7898229662226
 42
0.0092993880040738
 10
602.31375762076891
 20
-1917.4155442023346
 10
602.39615211396358
 20
-1917.2996071987718
 42
0.015932172708208
 10
602.74275859660702
 20
-1916.7774329780141
 10
602.78711473200042
 20
-1916.7057534137571
 42
0.0085547317026762
 10
603.0216264973219
 20
-1916.3118784645394
 42
0.008460115688594
 10
603.24260267476222
 20
-1915.9102516155108
 10
603.25071814859439
 20
-1915.8948919332342
 42
0.0081429654287899
 10
603.47396741903003
 20
-1915.4551704206974
 10
603.48282758321602
 20
-1915.436991578674
 42
0.0076574581328804
 10
603.70923509378588
 20
-1914.9538087034134
 10
603.71871473450619
 20
-1914.9327442251179
 42
0.0070682724203625
 10
603.94915964231734
 20
-1914.400706920326
 10
603.95914992629469
 20
-1914.376717731325
 42
0.0064559514445232
 10
604.19448313447492
 20
-1913.7904054648104
 10
604.20489249264165
 20
-1913.7634705393639
 42
0.0058311413907446
 10
604.44593922940408
 20
-1913.1174384449816
 10
604.45669430679209
 20
-1913.0875541038197
 42
0.0052312425817558
 10
604.70427558483345
 20
-1912.3763516899837
 10
604.71531942121283
 20
-1912.3435249779154
 42
0.00466805447965
 10
604.97024784894597
 20
-1911.5616986621651
 10
605.01223999898878
 20
-1911.428715424875
 42
0.0041666856448171
 10
605.21552601138546
 20
-1910.7657466498629
 10
605.25318845205322
 20
-1910.6391655421953
 42
0.0015170975154073
 10
605.37437503046203
 20
-1910.2272971907155
 42
-0.0004887993112485
 10
605.49471480359455
 20
-1909.8151787786423
 10
605.57119206108064
 20
-1909.5542213927324
 42
0.0002583378930805
 10
605.84440663122996
 20
-1908.6201646892625
 10
605.92617948072393
 20
-1908.3400654299626
 42
0.0006636169673825
 10
606.12004724073267
 20
-1907.6727125063835
 10
606.1251438950801
 20
-1907.6550809235021
 42
0.0010589131319658
 10
606.30659259599634
 20
-1907.0223495804546
 10
606.31157466649165
 20
-1907.0048366733824
 42
0.0015655524466093
 10
606.47984487365966
 20
-1906.4062199942337
 10
606.48467507407997
 20
-1906.3888278352786
 42
0.0021640440474208
 10
606.63896504606055
 20
-1905.8238008172796
 10
606.64359926548389
 20
-1905.8065360873102
 42
0.0028763871855959
 10
606.78311498354333
 20
-1905.2745681364386
 10
606.78750084771059
 20
-1905.2574441582838
 42
0.0037310511943148
 10
606.91145753954743
 20
-1904.7579965642603
 10
606.91553275983472
 20
-1904.7410362930218
 42
0.0047652197772556
 10
607.02315666034519
 20
-1904.2735585247099
 10
607.02684725966594
 20
-1904.2567989695715
 42
0.0060276699300952
 10
607.11737735882207
 20
-1903.8207231744157
 10
607.12059604911087
 20
-1903.8042219601077
 42
0.0075824337750839
 10
607.19328535852674
 20
-1903.3989547956803
 10
607.19593073590681
 20
-1903.3827998482311
 42
0.0095130624613857
 10
607.25004597153838
 20
-1903.0077104951579
 10
607.25703219542083
 20
-1902.9517769370423
 42
0.0121054653221746
 10
607.28362352599879
 20
-1902.6868811085674
 10
607.28449001575814
 20
-1902.6754776656412
 42
0.0069050827386027
 10
607.2995788337962
 20
-1902.4325364387942
 10
607.30071413346491
 20
-1902.4090101817467
 42
0.0169063976699863
 10
607.30354141244516
 20
-1902.2128174544487
 10
607.30237076091396
 20
-1902.1524816930985
 42
0.0052007732920828
 10
607.30011731232071
 20
-1902.0768883029475
 42
0.0054038123309207
 10
607.28015380048112
 20
-1901.9568700069342
 10
607.27506794461124
 20
-1901.9282115203564
 42
0.0112050460452503
 10
607.23968358255263
 20
-1901.751885082017
 10
607.22185862051219
 20
-1901.6723434952964
 42
0.0240764468019263
 10
607.13096125436584
 20
-1901.3421064597946
 10
607.11240249155185
 20
-1901.2854862947993
 42
0.0256812331830364
 10
606.96903957136283
 20
-1900.913762088544
 10
606.96363014554152
 20
-1900.9016307535544
 42
0.026836050121614
 10
606.7942029046917
 20
-1900.5706376195333
 10
606.78866649705617
 20
-1900.56111794922
 42
0.0274670231724376
 10
606.59646552064351
 20
-1900.2688305743038
 10
606.59108422068266
 20
-1900.2615514267648
 42
0.0275035967103968
 10
606.37951134111881
 20
-1900.0060355364585
 10
606.37444184015089
 20
-1900.0005564488265
 42
0.0269557673516147
 10
606.14703829671271
 20
-1899.7799141628657
 10
606.14229523893005
 20
-1899.775784208405
 42
0.0259124802219999
 10
605.90274040749955
 20
-1899.5880936812525
 10
605.89820956231733
 20
-1899.584908178922
 42
0.0245162152999555
 10
605.65029320922258
 20
-1899.4281751698118
 10
605.64576666289781
 20
-1899.4256149726104
 42
0.022928258883974
 10
605.39334710607091
 20
-1899.297746780112
 10
605.38856661223576
 20
-1899.2955944803507
 42
0.0212984135688294
 10
605.13552865977272
 20
-1899.1943955631077
 10
605.1302243748022
 20
-1899.1925320003472
 42
0.0197555462351161
 10
604.88044603708022
 20
-1899.1157165823829
 42
0.0183511896782251
 10
604.62551731161625
 20
-1899.0581336754174
 10
604.53915211489516
 20
-1899.0419308850328
 42
0.0338057877145562
 10
604.25364476563391
 20
-1899.0081224798921
 10
604.16263936059033
 20
-1899.0035428246306
 42
0.009199052450239
 10
604.05679225195809
 20
-1899.0001669687085
 42
0.0028333980785001
 10
603.95087833594539
 20
-1898.9993388611917
 10
603.94996288291577
 20
-1898.9993368913679
 42
-0.0023619827811473
 10
603.84221686779858
 20
-1898.9985960502893
 10
603.805811697634
 20
-1898.9981737438263
 42
0.0008824598481681
 10
603.62525570784612
 20
-1898.9963979655886
 10
603.58139427537799
 20
-1898.9960440040625
 42
0.0038132665763906
 10
603.31311137950604
 20
-1898.9959250679958
 10
603.29657772470546
 20
-1898.9960438341395
 42
0.0060665569336163
 10
602.99529723310945
 20
-1899.0018641335605
 10
602.98104690108903
 20
-1899.0023124415279
 42
0.0080356953338596
 10
602.65158818474413
 20
-1899.0179801635952
 10
602.63951816966255
 20
-1899.0187487465353
 42
0.009899639910746
 10
602.28675508501306
 20
-1899.0482339757334
 10
602.27670937563698
 20
-1899.0492742719316
 42
0.0117740981367073
 10
601.90555251729018
 20
-1899.0965665194612
 10
601.89732982080568
 20
-1899.0978116360322
 42
0.0137435215133539
 10
601.51274100132036
 20
-1899.1669086095937
 10
601.50608396219695
 20
-1899.1682945058274
 42
0.0158359869385581
 10
601.11308686840016
 20
-1899.2631865943065
 10
601.10767368152756
 20
-1899.2646765351785
 42
0.0180554124029677
 10
600.7113586369087
 20
-1899.3893145514196
 10
600.70680184883167
 20
-1899.3909305876837
 42
0.0203657431283996
 10
600.31232433102321
 20
-1899.5491909291982
 10
600.30818079201299
 20
-1899.5510525506413
 42
0.0226819684655547
 10
599.92074473580885
 20
-1899.7466951293127
 10
599.91654494479144
 20
-1899.7490607212321
 42
0.024863498460151
 10
599.54136300360926
 20
-1899.9856873671797
 10
599.49316807482614
 20
-1900.019544409005
 42
0.0267044190891481
 10
599.21887537790963
 20
-1900.2349847848732
 42
0.0139303002193592
 10
598.96270821196947
 20
-1900.4722236257867
 10
598.95785482624979
 20
-1900.4769762886453
 42
0.0283460963447595
 10
598.71378223202191
 20
-1900.7447069490909
 10
598.67411372686593
 20
-1900.7935085265633
 42
0.0070695364811923
 10
598.59667650100573
 20
-1900.8915753425288
 42
0.0070695364811923
  0
LWPOLYLINE
  5
60
100
AcDbEntity
  8
0
370
              15
390
0
  6
Continuous
 62
               7
100
AcDbPolyline
 90
      226
 70
             128
 10
595.06785606375934
 20
-1916.6131641487129
 42
-0.0026277636639801
 10
595.0677781799593
 20
-1916.5463922229928
 10
595.06799553819155
 20
-1916.4932370055267
 42
-0.0088680296720102
 10
595.07177215448473
 20
-1916.3202212231242
 10
595.07411851359711
 20
-1916.26094119767
 42
-0.0077381705625272
 10
595.09016462436034
 20
-1915.9696807018729
 10
595.09103253553349
 20
-1915.9573924681868
 42
-0.0068872530516789
 10
595.11766461528157
 20
-1915.6421707161192
 10
595.11886883946772
 20
-1915.629929737099
 42
-0.0062130021491039
 10
595.15646255629508
 20
-1915.2910600458606
 10
595.15796645983028
 20
-1915.2788861739439
 42
-0.0056726929672752
 10
595.20688831933228
 20
-1914.9166909518326
 10
595.20866176497702
 20
-1914.9045971515852
 42
-0.0052341884492528
 10
595.26927235123799
 20
-1914.5194038960626
 10
595.27129034001382
 20
-1914.507398966075
 42
-0.0049768450168661
 10
595.34402902143972
 20
-1914.0995543986446
 10
595.36827803616188
 20
-1913.9710064156363
 42
-0.0089029805626864
 10
595.50535888795753
 20
-1913.3092309682102
 10
595.53810426327527
 20
-1913.1641995376904
 42
-0.0080318257097371
 10
595.7676528776185
 20
-1912.2184899058277
 10
595.77963780406435
 20
-1912.1723592706467
 42
-0.0074265721318833
 10
596.06364934291423
 20
-1911.142294692266
 10
596.08352888603326
 20
-1911.0741606316687
 42
-0.0069711922701558
 10
596.41083346453752
 20
-1910.0078928913488
 10
596.47078541164092
 20
-1909.8218715329845
 42
-0.0052070422895384
 10
596.70021063690228
 20
-1909.1345994559467
 10
596.71749182906558
 20
-1909.0845721753553
 42
-0.0009167004449756
 10
596.92058371636404
 20
-1908.5001163271756
 42
-0.0025162726940181
 10
597.12768134662281
 20
-1907.9170750630235
 10
597.16490595843266
 20
-1907.8139255171054
 42
-0.0028212681462551
 10
597.41308187739514
 20
-1907.1381948849366
 10
597.42291264015103
 20
-1907.1118874402462
 42
-0.0031964916816313
 10
597.65920489780819
 20
-1906.491682678133
 10
597.66883935180408
 20
-1906.4668726879977
 42
-0.0036281836456498
 10
597.89394531290827
 20
-1905.8994320070965
 10
597.90338372306826
 20
-1905.8761345755875
 42
-0.0041269166830748
 10
598.11800141972526
 20
-1905.3586936796153
 10
598.15063437614583
 20
-1905.2818152332547
 42
-0.0047472213057237
 10
598.30767918169977
 20
-1904.9213937653708
 10
598.31457326290399
 20
-1904.9059731680479
 42
-0.0025651659999481
 10
598.46293129675814
 20
-1904.5786451122904
 42
-0.0057144634989012
 10
598.616680990536
 20
-1904.2538354389139
 10
598.64471169592105
 20
-1904.1963270565527
 42
-0.006538806838094
 10
598.82817872367013
 20
-1903.8320945598687
 10
598.83663717945171
 20
-1903.8158349804933
 42
-0.0074510843018667
 10
599.0128194253266
 20
-1903.4891466993765
 10
599.02099909586184
 20
-1903.4745059221002
 42
-0.0084648979856206
 10
599.1906329489575
 20
-1903.1825969111467
 10
599.19848907544235
 20
-1903.1695899195013
 42
-0.0095638542805761
 10
599.36232452303966
 20
-1902.9097010475173
 10
599.36979946670635
 20
-1902.8983316860695
 42
-0.0107191626812426
 10
599.52860104709907
 20
-1902.6677204515177
 10
599.53561778083633
 20
-1902.6579843591444
 42
-0.0118458573894198
 10
599.69016587934266
 20
-1902.4539121638422
 42
-0.0129184518193956
 10
599.85461850294655
 20
-1902.257751647669
 10
599.88476327530498
 20
-1902.2236255687749
 42
-0.0217742579639653
 10
600.06137559764284
 20
-1902.0404187985223
 10
600.07212114210233
 20
-1902.0302019653202
 42
-0.0097266568641927
 10
600.23817876095882
 20
-1901.8783543908819
 42
-0.0187720905733402
 10
600.41252633684644
 20
-1901.7362855374943
 10
600.44323232752288
 20
-1901.7131264550962
 42
-0.0179428207513092
 10
600.67565304751906
 20
-1901.5505742779849
 10
600.67930537443374
 20
-1901.5482103430977
 42
-0.0170047877695417
 10
600.91506901196499
 20
-1901.4067498289457
 10
600.91885200071374
 20
-1901.4046515239083
 42
-0.0160190788364014
 10
601.15576054834673
 20
-1901.2830002219214
 42
-0.0151102861494572
 10
601.39979233079521
 20
-1901.1763174458661
 10
601.45217883300529
 20
-1901.155277312972
 42
-0.0271945441883847
 10
601.81084139206678
 20
-1901.033412502265
 10
601.87990619254651
 20
-1901.0140629610012
 42
-0.0237596594026218
 10
602.29570303957416
 20
-1900.9186122490182
 10
602.36376589330348
 20
-1900.9063575608916
 42
-0.0213715440552137
 10
602.64964082474989
 20
-1900.8674105293817
 10
602.7097879909777
 20
-1900.86182081468
 42
-0.0101465655811404
 10
602.87728052296188
 20
-1900.8496772714166
 10
602.88662090915579
 20
-1900.8491903564195
 42
-0.0100375910886107
 10
603.03577500972233
 20
-1900.844414538494
 10
603.04603427940492
 20
-1900.8442920994796
 42
-0.0103625633381696
 10
603.17474227405773
 20
-1900.8454235330062
 10
603.19700792532399
 20
-1900.846080891471
 42
-0.0115689250243307
 10
603.2810586628525
 20
-1900.8505103977163
 42
-0.0072438037426662
 10
603.36489694228896
 20
-1900.8580995974655
 10
603.38169745176447
 20
-1900.85986614019
 42
-0.0217917313127394
 10
603.49826721507918
 20
-1900.8772860329111
 10
603.56386730564782
 20
-1900.8900326413259
 42
-0.0332943556762121
 10
603.76825947067346
 20
-1900.9440729326325
 10
603.79843203922235
 20
-1900.9542410097506
 42
-0.0184824084793637
 10
603.93693709568879
 20
-1901.0066920251375
 42
-0.01980020506926
 10
604.07101143618831
 20
-1901.0695760853366
 10
604.07289807356528
 20
-1901.0705538722166
 42
-0.0212242342980031
 10
604.2050370159684
 20
-1901.1463166110104
 10
604.20685231151083
 20
-1901.1474624132181
 42
-0.0226090605797714
 10
604.3353562127337
 20
-1901.2369420567838
 10
604.3372006544696
 20
-1901.2383543097701
 42
-0.0238457052233334
 10
604.46038273575903
 20
-1901.3423502056294
 10
604.46233546432131
 20
-1901.3441650833986
 42
-0.0248160564146693
 10
604.57853697162386
 20
-1901.4634396846093
 10
604.5806406050242
 20
-1901.4658250183118
 42
-0.0254109591460175
 10
604.68824582288983
 20
-1901.6011134042756
 10
604.69049384480422
 20
-1901.6042549526767
 42
-0.025552848828734
 10
604.78794052360115
 20
-1901.7562820069104
 10
604.79027162351758
 20
-1901.7603636185186
 42
-0.0252146793229122
 10
604.87605264952686
 20
-1901.9298658645155
 10
604.8783548886845
 20
-1901.9350479464283
 42
-0.0244265635949651
 10
604.95100958244598
 20
-1902.1227945184748
 10
604.96025598391475
 20
-1902.150659936814
 42
-0.0231319612896199
 10
605.00617876290653
 20
-1902.3139609836146
 42
-0.0112130424365366
 10
605.04081478544435
 20
-1902.4801645838004
 10
605.04201731055718
 20
-1902.4866611706905
 42
-0.0210527881244798
 10
605.06770378592762
 20
-1902.6677168161302
 10
605.07121438074955
 20
-1902.7031223646788
 42
-0.0190029892420516
 10
605.08665585429389
 20
-1902.956658210951
 10
605.08746583073798
 20
-1902.9921338253203
 42
-0.0137974553664774
 10
605.08591697790268
 20
-1903.3171652320439
 10
605.08507152294692
 20
-1903.3432839766465
 42
-0.0081336634214586
 10
605.07021218772434
 20
-1903.6486314442457
 42
-0.0073526923567241
 10
605.04590365434979
 20
-1903.9533796885328
 10
605.04464223056721
 20
-1903.9667163631968
 42
-0.0066886138695066
 10
605.00890664452129
 20
-1904.2973024066894
 10
605.00724955505075
 20
-1904.3109240256856
 42
-0.0061359187350303
 10
604.95939895299966
 20
-1904.6676880057853
 10
604.95736145192677
 20
-1904.6815828086148
 42
-0.0056698610060536
 10
604.89671112115911
 20
-1905.0648613774586
 10
604.894305687837
 20
-1905.0790204966836
 42
-0.005272107728242
 10
604.82017348704017
 20
-1905.4891478363472
 10
604.81741033819571
 20
-1905.5035644717475
 42
-0.0049289272170786
 10
604.72911622009497
 20
-1905.9408729828738
 10
604.72600372541319
 20
-1905.9555418356856
 42
-0.0047415956714893
 10
604.62276573388237
 20
-1906.4203385930903
 10
604.58799752352115
 20
-1906.5701456884794
 42
-0.0084404470901332
 10
604.39798107994966
 20
-1907.3303697130086
 10
604.39185439196353
 20
-1907.353233837164
 42
-0.0039635940260303
 10
604.17040070768098
 20
-1908.1542227014061
 10
604.15702391249988
 20
-1908.2011543180033
 42
-0.0072475040837414
 10
603.88957702463756
 20
-1909.0903740343908
 10
603.81936469780976
 20
-1909.3121143843643
 42
-0.0051345458828681
 10
603.53260532575041
 20
-1910.1864395721766
 10
603.51107905898209
 20
-1910.2498658393088
 42
-0.001915001660091
 10
603.25554565211633
 20
-1910.9934149595326
 10
603.24907804771806
 20
-1911.0120024244598
 42
-0.00215243627533
 10
603.00059999665655
 20
-1911.7163282461622
 10
602.99138957596585
 20
-1911.7420818244477
 42
-0.0024331286824891
 10
602.75513431692389
 20
-1912.3926811325819
 10
602.74608636437506
 20
-1912.4172244389315
 42
-0.0027449721785543
 10
602.52147179353778
 20
-1913.0163543178605
 10
602.51258178615069
 20
-1913.0396769076995
 42
-0.0031083229770543
 10
602.29903929953571
 20
-1913.5896009452924
 10
602.29030316785895
 20
-1913.611690661153
 42
-0.0035311343281638
 10
602.0872619822685
 20
-1914.1146737868803
 10
602.07867664312778
 20
-1914.1355165103737
 42
-0.0040245640950791
 10
601.88556483932643
 20
-1914.5938258329832
 10
601.87712872571865
 20
-1914.6134052010661
 42
-0.0046015135850195
 10
601.6933724325595
 20
-1915.0293102306975
 10
601.68508625473112
 20
-1915.04760737015
 42
-0.0052768638267461
 10
601.5101087357757
 20
-1915.42338025442
 10
601.50197652514817
 20
-1915.4403735929643
 42
-0.0060672675643964
 10
601.3351969123828
 20
-1915.7782892160774
 10
601.32722743190106
 20
-1915.793954475075
 42
-0.0069904648871018
 10
601.16805903789964
 20
-1916.0962902817382
 10
601.16026763829279
 20
-1916.1106008309584
 42
-0.0080637022769927
 10
601.00811577794275
 20
-1916.3796361341185
 10
601.00052674530923
 20
-1916.3925639997233
 42
-0.0093006455657863
 10
600.85478606877996
 20
-1916.6305783982225
 10
600.84743540203942
 20
-1916.6420963673909
 42
-0.0107060778049805
 10
600.70748685859826
 20
-1916.8513666847748
 10
600.70042509031543
 20
-1916.8614522273454
 42
-0.0122723111416223
 10
600.56563137212061
 20
-1917.0442455568295
 10
600.56530514856729
 20
-1917.0446659446382
 42
-0.0141836319622086
 10
600.42172354559216
 20
-1917.2192357024687
 10
600.41477578994318
 20
-1917.22721070273
 42
-0.0175957477207162
 10
600.27486962190551
 20
-1917.3768315911384
 42
-0.0080466359670134
 10
600.12740585687368
 20
-1917.5191541192912
 10
600.08137131235799
 20
-1917.5621745573808
 42
-0.0269600260394167
 10
599.82809106637569
 20
-1917.7744978158896
 10
599.76152393008215
 20
-1917.8244492305109
 42
-0.0178362839757818
 10
599.5215794404221
 20
-1917.9914671567662
 10
599.51433446941735
 20
-1917.9961356689739
 42
-0.0174650732642145
 10
599.27799827198032
 20
-1918.1369966339303
 42
-0.0169240130166263
 10
599.03253202612052
 20
-1918.2612888937088
 10
598.9865458705649
 20
-1918.2826508492749
 42
-0.0318883036847817
 10
598.63619501495077
 20
-1918.418989158783
 10
598.5678294797782
 20
-1918.440689779261
 42
-0.0284435909901977
 10
598.19177935348898
 20
-1918.536907214735
 10
598.15662119298622
 20
-1918.5438008105643
 42
-0.0243909341007892
 10
597.84317773207158
 20
-1918.5895218415935
 10
597.79289700530649
 20
-1918.5943673884947
 42
-0.0196639292934443
 10
597.57730142777336
 20
-1918.6066156740087
 10
597.52547735660028
 20
-1918.6075189347455
 42
-0.0100501510680893
 10
597.41305407494565
 20
-1918.6072185363923
 10
597.38139421363815
 20
-1918.6064974645078
 42
-0.001975203113096
 10
597.33230187692016
 20
-1918.6051853042975
 10
597.32954157369318
 20
-1918.605100612471
 42
0.0065378751982816
 10
597.2859649989432
 20
-1918.6043337212564
 42
-0.0167974694629703
 10
597.24243417600621
 20
-1918.6026738227299
 10
597.23835483674929
 20
-1918.6023808118352
 42
-0.0081283276299215
 10
597.18679503902581
 20
-1918.5978338181988
 10
597.17505546513212
 20
-1918.5966059006189
 42
-0.0126703440165317
 10
597.10033716933538
 20
-1918.586871109547
 10
597.07754930166175
 20
-1918.5833128536322
 42
-0.0117852088427999
 10
596.95801031582732
 20
-1918.5617498584747
 10
596.90262986406651
 20
-1918.5504063182404
 42
-0.0251774592288188
 10
596.67578582505962
 20
-1918.491908308808
 10
596.6310666352075
 20
-1918.4779414894724
 42
-0.0146525199890657
 10
596.44467364766888
 20
-1918.4136749622742
 42
-0.0166929435852404
 10
596.26269599153954
 20
-1918.3378678292181
 10
596.25803936026932
 20
-1918.3357429286054
 42
-0.0191684358425174
 10
596.07285572902299
 20
-1918.2425068448172
 10
596.06952314326327
 20
-1918.2406655972623
 42
-0.0221181781821217
 10
595.88621283936186
 20
-1918.128532098892
 10
595.88386303535253
 20
-1918.1269478009006
 42
-0.0254984685386487
 10
595.70757288496759
 20
-1917.994536650931
 10
595.68509073726318
 20
-1917.9757843419927
 42
-0.0292492648793077
 10
595.56032179842214
 20
-1917.8586915423514
 42
-0.0159048957510347
 10
595.4464818009742
 20
-1917.730671550755
 10
595.44516301039266
 20
-1917.7290899377324
 42
-0.0343813379563653
 10
595.34252574876689
 20
-1917.5872186119636
 10
595.31103421740568
 20
-1917.5367152198692
 42
-0.0369117275706215
 10
595.22514171550802
 20
-1917.3732379789203
 42
-0.019175137991684
 10
595.15794832995141
 20
-1917.200833372915
 10
595.15618500619166
 20
-1917.1957400282395
 42
-0.0378178042218768
 10
595.10639028740763
 20
-1917.0067992521572
 10
595.1003949916776
 20
-1916.9742386339612
 42
-0.0184846046472675
 10
595.07967779238334
 20
-1916.8324858134163
 42
-0.0179866351292372
 10
595.06934478730909
 20
-1916.6895950003363
 10
595.06928834486325
 20
-1916.6880373137226
 42
-0.0085497186018539
 10
595.06785606375934
 20
-1916.6131641487129
 42
-0.0085497186018539
  0
ENDBLK
  5
61
100
AcDbEntity
  8
template
390
0
100
AcDbBlockEnd
  0
BLOCK
  5
62
100
AcDbEntity
  8
template
390
0
100
AcDbBlockBegin
  2
グループ-1
 70
               0
 10
0.0
 20
0.0
 30
0.0
  3
グループ-1
  1

  0
MTEXT
  5
63
100
AcDbEntity
  8
0
390
0
 62
               7
100
AcDbMText
 10
-1273.9996493737376
 20
-1702.9414333535667
 30
0.0
 40
16.288411458333332
 41
0.0
 71
               1
 72
               1
  1
品名
  7
ＭＳ ゴシック
 73
               1
 44
0.7828267384257843
  0
MTEXT
  5
64
100
AcDbEntity
  8
0
390
0
 62
               7
100
AcDbMText
 10
-1273.9996493737376
 20
-1787.9414333535667
 30
0.0
 40
16.288411458333332
 41
0.0
 71
               1
 72
               1
  1
仕様
  7
ＭＳ ゴシック
 73
               1
 44
0.7828267384257843
  0
LINE
  5
65
100
AcDbEntity
  8
0
370
               5
390
0
  6
Continuous
 62
               7
100
AcDbLine
 10
669.00035062578036
 20
-1779.5265114785668
 30
0.0
 11
-1280.9996493742196
 21
-1779.5265114785668
 31
0.0
  0
LWPOLYLINE
  5
66
100
AcDbEntity
  8
0
370
               5
390
0
  6
Continuous
 62
               7
100
AcDbPolyline
 90
        5
 70
             128
 10
669.0003506262633
 20
850.47348852143341
 10
-1280.9996493737376
 20
850.47348852143341
 10
-1280.9996493737376
 20
-1949.5265114785666
 10
669.0003506262633
 20
-1949.5265114785666
 10
669.0003506262633
 20
850.47348852143341
  0
LINE
  5
67
100
AcDbEntity
  8
0
370
               5
390
0
  6
Continuous
 62
               7
100
AcDbLine
 10
669.00035062578036
 20
-1694.5265114785668
 30
0.0
 11
-1280.9996493742196
 21
-1694.5265114785668
 31
0.0
  0
LINE
  5
68
100
AcDbEntity
  8
0
370
               5
390
0
  6
Continuous
 62
               7
100
AcDbLine
 10
669.0003506262633
 20
-1864.5265114785668
 30
0.0
 11
-83.999649373737157
 21
-1864.5265114785668
 31
0.0
  0
MTEXT
  5
69
100
AcDbEntity
  8
0
390
0
 62
               7
100
AcDbMText
 10
-54.128243121477226
 20
-1894.4369059518745
 30
0.0
 40
24.432617187500004
 41
0.0
 71
               1
 72
               1
  1
大洋金物株式会社 ティーフォルム事業部
  7
ＭＳ ゴシック
 73
               1
 44
0.7828267384257843
  0
INSERT
  5
6A
100
AcDbEntity
  8
0
390
0
 62
               7
100
AcDbBlockReference
  2
グループ
 10
0.0
 20
0.0
 30
0.0
  0
MTEXT
  5
6B
100
AcDbEntity
  8
0
390
0
 62
               7
100
AcDbMText
 10
478.00035062652159
 20
-1816.5238942910669
 30
0.0
 40
24.432617187500004
 41
0.0
 71
               1
 72
               1
  1
1:10
  7
ＭＳ ゴシック
 73
               1
 44
0.7828267384257843
  0
MTEXT
  5
6C
100
AcDbEntity
  8
0
390
0
 62
               7
100
AcDbMText
 10
425.00035062652159
 20
-1787.9414333535667
 30
0.0
 40
16.288411458333332
 41
0.0
 71
               1
 72
               1
  1
縮尺
  7
ＭＳ ゴシック
 73
               1
 44
0.7828267384257843
  0
LINE
  5
6D
100
AcDbEntity
  8
0
370
               5
390
0
  6
Continuous
 62
               7
100
AcDbLine
 10
418.00035062652159
 20
-1864.5265114785668
 30
0.0
 11
418.00035062652159
 21
-1779.5265114785668
 31
0.0
  0
MTEXT
  5
6E
100
AcDbEntity
  8
0
390
0
 62
               7
100
AcDbMText
 10
174.00035062652159
 20
-1787.9414333535667
 30
0.0
 40
16.288411458333332
 41
0.0
 71
               1
 72
               1
  1
容量
  7
ＭＳ ゴシック
 73
               1
 44
0.7828267384257843
  0
MTEXT
  5
6F
100
AcDbEntity
  8
0
390
0
 62
               7
100
AcDbMText
 10
227.00035062652137
 20
-1816.5238942910669
 30
0.0
 40
24.432617187500004
 41
0.0
 71
               1
 72
               1
  1
6L
  7
ＭＳ ゴシック
 73
               1
 44
0.7828267384257843
  0
LINE
  5
70
100
AcDbEntity
  8
0
370
               5
390
0
  6
Continuous
 62
               7
100
AcDbLine
 10
167.00035062652159
 20
-1864.5265114785668
 30
0.0
 11
167.00035062652159
 21
-1779.5265114785668
 31
0.0
  0
MTEXT
  5
71
100
AcDbEntity
  8
0
390
0
 62
               7
100
AcDbMText
 10
-76.999649373478405
 20
-1702.9414333535667
 30
0.0
 40
16.288411458333332
 41
0.0
 71
               1
 72
               1
  1
品番
  7
ＭＳ ゴシック
 73
               1
 44
0.7828267384257843
  0
MTEXT
  5
72
100
AcDbEntity
  8
0
390
0
 62
               7
100
AcDbMText
 10
-76.999649373478405
 20
-1787.9414333535667
 30
0.0
 40
16.288411458333332
 41
0.0
 71
               1
 72
               1
  1
重量
  7
ＭＳ ゴシック
 73
               1
 44
0.7828267384257843
  0
MTEXT
  5
73
100
AcDbEntity
  8
0
390
0
 62
               7
100
AcDbMText
 10
-23.999649373478405
 20
-1731.5238942910669
 30
0.0
 40
24.432617187500004
 41
0.0
 71
               1
 72
               1
  1
GAR70-0601
  7
ＭＳ ゴシック
 73
               1
 44
0.7828267384257843
  0
MTEXT
  5
74
100
AcDbEntity
  8
0
390
0
 62
               7
100
AcDbMText
 10
-23.999649373478405
 20
-1816.5238942910669
 30
0.0
 40
24.432617187500004
 41
0.0
 71
               1
 72
               1
  1
14.5kg
  7
ＭＳ ゴシック
 73
               1
 44
0.7828267384257843
  0
LINE
  5
75
100
AcDbEntity
  8
0
370
               5
390
0
  6
Continuous
 62
               7
100
AcDbLine
 10
-83.999649373478405
 20
-1949.5265114785666
 30
0.0
 11
-83.999649373478405
 21
-1694.5265114785668
 31
0.0
  0
MTEXT
  5
76
100
AcDbEntity
  8
0
390
0
 62
               7
100
AcDbMText
 10
-1220.9996493737376
 20
-1731.5238942910669
 30
0.0
 40
24.432617187500004
 41
0.0
 71
               1
 72
               1
  1
洗面器 -LAUFEN,Form-
  7
ＭＳ ゴシック
 73
               1
 44
0.7828267384257843
  0
MTEXT
  5
77
100
AcDbEntity
  8
0
390
0
 62
               7
100
AcDbMText
 10
-1220.9996493737376
 20
-1816.5238942910669
 30
0.0
 40
24.432617187500004
 41
0.0
 71
               1
 72
               1
  1
壁掛け,カウンタ ートップ/オーバーフロー付き/壁取付ボルト付属/\P陶器/ホワイト
  7
ＭＳ ゴシック
 73
               1
 44
1.1307497332816883
  0
MTEXT
  5
78
100
AcDbEntity
  8
0
390
0
 62
               7
100
AcDbMText
 10
-1280.9996493735343
 20
-1961.3803335354244
 30
0.0
 40
21.717881944444446
 41
0.0
 71
               1
 72
               1
  1
100710SH
  7
ＭＳ ゴシック
 73
               1
 44
0.7828267384257843
  0
ENDBLK
  5
79
100
AcDbEntity
  8
template
390
0
100
AcDbBlockEnd
  0
BLOCK
  5
7A
100
AcDbEntity
  8
template
390
0
100
AcDbBlockBegin
  2
*D3
 70
               1
 10
0.0
 20
0.0
 30
0.0
  3
*D3
  1

  0
LINE
  5
7B
100
AcDbEntity
  8
0
370
              -2
390
0
  6
Continuous
 62
               0
100
AcDbLine
 10
501.2478838314093
 20
-446.45454499083598
 30
0.0
 11
477.17355591782905
 21
-446.45454499083598
 31
0.0
  0
LINE
  5
7C
100
AcDbEntity
  8
0
370
              -2
390
0
  6
Continuous
 62
               0
100
AcDbLine
 10
501.25677384221507
 20
-561.45454499083553
 30
0.0
 11
477.17355591782905
 21
-561.45454499083553
 31
0.0
  0
LINE
  5
7D
100
AcDbEntity
  8
0
370
              -2
390
0
  6
Continuous
 62
               0
100
AcDbLine
 10
477.17355591782905
 20
-446.45454499083598
 30
0.0
 11
477.17355591782905
 21
-297.27160527066394
 31
0.0
  0
LINE
  5
7E
100
AcDbEntity
  8
0
370
              -2
390
0
  6
Continuous
 62
               0
100
AcDbLine
 10
477.17355591782905
 20
-446.45454499083598
 30
0.0
 11
477.17355591782905
 21
-561.45454499083553
 31
0.0
  0
CIRCLE
  5
7F
102
{ACAD_REACTORS
330
80
102
}
100
AcDbEntity
  8
0
370
              -2
390
0
  6
Continuous
 62
               0
100
AcDbCircle
 10
477.17355591782905
 20
-446.45454499083598
 30
0.0
 40
1.9998779296875
  0
HATCH
  5
80
100
AcDbEntity
  8
0
370
              -2
390
0
  6
Continuous
 62
               0
100
AcDbHatch
 10
0.0
 20
0.0
 30
0.0
210
0.0
220
0.0
230
1.0
  2
SOLID
 70
               1
 71
               1
 91
        1
 92
        1
 93
        1
 72
               2
 10
477.17355591782905
 20
-446.45454499083598
 40
1.9998779296875
 50
0.0
 51
360.0
 73
               0
 97
        1
330
7F
 75
               0
 76
               1
 98
        1
 10
0.0
 20
0.0
  0
CIRCLE
  5
81
102
{ACAD_REACTORS
330
82
102
}
100
AcDbEntity
  8
0
370
              -2
390
0
  6
Continuous
 62
               0
100
AcDbCircle
 10
477.17355591782905
 20
-561.45454499083553
 30
0.0
 40
1.9998779296875
  0
HATCH
  5
82
100
AcDbEntity
  8
0
370
              -2
390
0
  6
Continuous
 62
               0
100
AcDbHatch
 10
0.0
 20
0.0
 30
0.0
210
0.0
220
0.0
230
1.0
  2
SOLID
 70
               1
 71
               1
 91
        1
 92
        1
 93
        1
 72
               2
 10
477.17355591782905
 20
-561.45454499083553
 40
1.9998779296875
 50
0.0
 51
360.0
 73
               0
 97
        1
330
81
 75
               0
 76
               1
 98
        1
 10
0.0
 20
0.0
  0
MTEXT
  5
83
100
AcDbEntity
  8
0
390
0
 62
               0
100
AcDbMText
 10
443.29593873032906
 20
-440.14660527066394
 30
0.0
 40
24.432617187500004
 41
0.0
 71
               1
 72
               1
  1
115(深さ)
  7
ＭＳ ゴシック
 11
0.0
 21
1.0
 31
0.0
 73
               1
 44
0.7828267384257843
  0
POINT
  5
84
100
AcDbEntity
  8
Defpoints
370
               0
390
0
 62
               0
100
AcDbPoint
 10
476.25677384221507
 20
-561.45454499083553
 30
0.0
  0
POINT
  5
85
100
AcDbEntity
  8
Defpoints
370
               0
390
0
 62
               0
100
AcDbPoint
 10
476.2478838314093
 20
-446.45454499083598
 30
0.0
  0
POINT
  5
86
100
AcDbEntity
  8
Defpoints
370
               0
390
0
 62
               0
100
AcDbPoint
 10
477.17355591782905
 20
-446.45454499083598
 30
0.0
  0
ENDBLK
  5
87
100
AcDbEntity
  8
template
390
0
100
AcDbBlockEnd
  0
BLOCK
  5
88
100
AcDbEntity
  8
template
390
0
100
AcDbBlockBegin
  2
*D4
 70
               1
 10
0.0
 20
0.0
 30
0.0
  3
*D4
  1

  0
LINE
  5
89
100
AcDbEntity
  8
0
370
              -2
390
0
  6
Continuous
 62
               0
100
AcDbLine
 10
-556.64689284976134
 20
819.34766572933609
 30
0.0
 11
-556.64689284976134
 21
943.85339472933606
 31
0.0
  0
LINE
  5
8A
100
AcDbEntity
  8
0
370
              -2
390
0
  6
Continuous
 62
               0
100
AcDbLine
 10
-456.64817284976181
 20
819.3459947293361
 30
0.0
 11
-456.64817284976181
 21
943.85339472933606
 31
0.0
  0
LINE
  5
8B
100
AcDbEntity
  8
0
370
              -2
390
0
  6
Continuous
 62
               0
100
AcDbLine
 10
-556.64689284976134
 20
943.85339472933606
 30
0.0
 11
-456.64817284976181
 21
943.85339472933606
 31
0.0
  0
CIRCLE
  5
8C
102
{ACAD_REACTORS
330
8D
102
}
100
AcDbEntity
  8
0
370
              -2
390
0
  6
Continuous
 62
               0
100
AcDbCircle
 10
-556.64689284976134
 20
943.85339472933606
 30
0.0
 40
1.9998779296875
  0
HATCH
  5
8D
100
AcDbEntity
  8
0
370
              -2
390
0
  6
Continuous
 62
               0
100
AcDbHatch
 10
0.0
 20
0.0
 30
0.0
210
0.0
220
0.0
230
1.0
  2
SOLID
 70
               1
 71
               1
 91
        1
 92
        1
 93
        1
 72
               2
 10
-556.64689284976134
 20
943.85339472933606
 40
1.9998779296875
 50
0.0
 51
360.0
 73
               0
 97
        1
330
8C
 75
               0
 76
               1
 98
        1
 10
0.0
 20
0.0
  0
CIRCLE
  5
8E
102
{ACAD_REACTORS
330
8F
102
}
100
AcDbEntity
  8
0
370
              -2
390
0
  6
Continuous
 62
               0
100
AcDbCircle
 10
-456.64817284976181
 20
943.85339472933606
 30
0.0
 40
1.9998779296875
  0
HATCH
  5
8F
100
AcDbEntity
  8
0
370
              -2
390
0
  6
Continuous
 62
               0
100
AcDbHatch
 10
0.0
 20
0.0
 30
0.0
210
0.0
220
0.0
230
1.0
  2
SOLID
 70
               1
 71
               1
 91
        1
 92
        1
 93
        1
 72
               2
 10
-456.64817284976181
 20
943.85339472933606
 40
1.9998779296875
 50
0.0
 51
360.0
 73
               0
 97
        1
330
8E
 75
               0
 76
               1
 98
        1
 10
0.0
 20
0.0
  0
MTEXT
  5
90
100
AcDbEntity
  8
0
390
0
 62
               0
100
AcDbMText
 10
-530.46003453193703
 20
977.731011916836
 30
0.0
 40
24.432617187500004
 41
0.0
 71
               1
 72
               1
  1
100
  7
ＭＳ ゴシック
 73
               1
 44
0.7828267384257843
  0
POINT
  5
91
100
AcDbEntity
  8
Defpoints
370
               0
390
0
 62
               0
100
AcDbPoint
 10
-456.64817284976181
 20
794.3459947293361
 30
0.0
  0
POINT
  5
92
100
AcDbEntity
  8
Defpoints
370
               0
390
0
 62
               0
100
AcDbPoint
 10
-556.64689284976134
 20
794.34766572933609
 30
0.0
  0
POINT
  5
93
100
AcDbEntity
  8
Defpoints
370
               0
390
0
 62
               0
100
AcDbPoint
 10
-556.64689284976134
 20
943.85339472933606
 30
0.0
  0
ENDBLK
  5
94
100
AcDbEntity
  8
template
390
0
100
AcDbBlockEnd
  0
BLOCK
  5
95
100
AcDbEntity
  8
template
390
0
100
AcDbBlockBegin
  2
*D5
 70
               1
 10
0.0
 20
0.0
 30
0.0
  3
*D5
  1

  0
LINE
  5
96
100
AcDbEntity
  8
0
370
              -2
390
0
  6
Continuous
 62
               0
100
AcDbLine
 10
-456.64817284976181
 20
819.3459947293361
 30
0.0
 11
-456.64817284976181
 21
943.85339472933606
 31
0.0
  0
LINE
  5
97
100
AcDbEntity
  8
0
370
              -2
390
0
  6
Continuous
 62
               0
100
AcDbLine
 10
-356.65496484976148
 20
819.3459947293361
 30
0.0
 11
-356.65496484976148
 21
943.85339472933606
 31
0.0
  0
LINE
  5
98
100
AcDbEntity
  8
0
370
              -2
390
0
  6
Continuous
 62
               0
100
AcDbLine
 10
-456.64817284976181
 20
943.85339472933606
 30
0.0
 11
-356.65496484976148
 21
943.85339472933606
 31
0.0
  0
CIRCLE
  5
99
102
{ACAD_REACTORS
330
9A
102
}
100
AcDbEntity
  8
0
370
              -2
390
0
  6
Continuous
 62
               0
100
AcDbCircle
 10
-456.64817284976181
 20
943.85339472933606
 30
0.0
 40
1.9998779296875
  0
HATCH
  5
9A
100
AcDbEntity
  8
0
370
              -2
390
0
  6
Continuous
 62
               0
100
AcDbHatch
 10
0.0
 20
0.0
 30
0.0
210
0.0
220
0.0
230
1.0
  2
SOLID
 70
               1
 71
               1
 91
        1
 92
        1
 93
        1
 72
               2
 10
-456.64817284976181
 20
943.85339472933606
 40
1.9998779296875
 50
0.0
 51
360.0
 73
               0
 97
        1
330
99
 75
               0
 76
               1
 98
        1
 10
0.0
 20
0.0
  0
CIRCLE
  5
9B
102
{ACAD_REACTORS
330
9C
102
}
100
AcDbEntity
  8
0
370
              -2
390
0
  6
Continuous
 62
               0
100
AcDbCircle
 10
-356.65496484976148
 20
943.85339472933606
 30
0.0
 40
1.9998779296875
  0
HATCH
  5
9C
100
AcDbEntity
  8
0
370
              -2
390
0
  6
Continuous
 62
               0
100
AcDbHatch
 10
0.0
 20
0.0
 30
0.0
210
0.0
220
0.0
230
1.0
  2
SOLID
 70
               1
 71
               1
 91
        1
 92
        1
 93
        1
 72
               2
 10
-356.65496484976148
 20
943.85339472933606
 40
1.9998779296875
 50
0.0
 51
360.0
 73
               0
 97
        1
330
9B
 75
               0
 76
               1
 98
        1
 10
0.0
 20
0.0
  0
MTEXT
  5
9D
100
AcDbEntity
  8
0
390
0
 62
               0
100
AcDbMText
 10
-430.46407053193712
 20
977.731011916836
 30
0.0
 40
24.432617187500004
 41
0.0
 71
               1
 72
               1
  1
100
  7
ＭＳ ゴシック
 73
               1
 44
0.7828267384257843
  0
POINT
  5
9E
100
AcDbEntity
  8
Defpoints
370
               0
390
0
 62
               0
100
AcDbPoint
 10
-356.65496484976148
 20
794.3459947293361
 30
0.0
  0
POINT
  5
9F
100
AcDbEntity
  8
Defpoints
370
               0
390
0
 62
               0
100
AcDbPoint
 10
-456.64817284976181
 20
794.3459947293361
 30
0.0
  0
POINT
  5
A0
100
AcDbEntity
  8
Defpoints
370
               0
390
0
 62
               0
100
AcDbPoint
 10
-456.64817284976181
 20
943.85339472933606
 30
0.0
  0
ENDBLK
  5
A1
100
AcDbEntity
  8
template
390
0
100
AcDbBlockEnd
  0
BLOCK
  5
A2
100
AcDbEntity
  8
template
390
0
100
AcDbBlockBegin
  2
*D6
 70
               1
 10
0.0
 20
0.0
 30
0.0
  3
*D6
  1

  0
LINE
  5
A3
100
AcDbEntity
  8
0
370
              -2
390
0
  6
Continuous
 62
               0
100
AcDbLine
 10
-756.1641996469732
 20
743.85382875711389
 30
0.0
 11
-831.1641996469732
 21
743.85382875711389
 31
0.0
  0
LINE
  5
A4
100
AcDbEntity
  8
0
370
              -2
390
0
  6
Continuous
 62
               0
100
AcDbLine
 10
-756.1641996469732
 20
843.85382875711389
 30
0.0
 11
-831.1641996469732
 21
843.85382875711389
 31
0.0
  0
LINE
  5
A5
100
AcDbEntity
  8
0
370
              -2
390
0
  6
Continuous
 62
               0
100
AcDbLine
 10
-831.1641996469732
 20
743.85382875711389
 30
0.0
 11
-831.1641996469732
 21
843.85382875711389
 31
0.0
  0
CIRCLE
  5
A6
102
{ACAD_REACTORS
330
A7
102
}
100
AcDbEntity
  8
0
370
              -2
390
0
  6
Continuous
 62
               0
100
AcDbCircle
 10
-831.1641996469732
 20
743.85382875711389
 30
0.0
 40
1.9998779296875
  0
HATCH
  5
A7
100
AcDbEntity
  8
0
370
              -2
390
0
  6
Continuous
 62
               0
100
AcDbHatch
 10
0.0
 20
0.0
 30
0.0
210
0.0
220
0.0
230
1.0
  2
SOLID
 70
               1
 71
               1
 91
        1
 92
        1
 93
        1
 72
               2
 10
-831.1641996469732
 20
743.85382875711389
 40
1.9998779296875
 50
0.0
 51
360.0
 73
               0
 97
        1
330
A6
 75
               0
 76
               1
 98
        1
 10
0.0
 20
0.0
  0
CIRCLE
  5
A8
102
{ACAD_REACTORS
330
A9
102
}
100
AcDbEntity
  8
0
370
              -2
390
0
  6
Continuous
 62
               0
100
AcDbCircle
 10
-831.1641996469732
 20
843.85382875711389
 30
0.0
 40
1.9998779296875
  0
HATCH
  5
A9
100
AcDbEntity
  8
0
370
              -2
390
0
  6
Continuous
 62
               0
100
AcDbHatch
 10
0.0
 20
0.0
 30
0.0
210
0.0
220
0.0
230
1.0
  2
SOLID
 70
               1
 71
               1
 91
        1
 92
        1
 93
        1
 72
               2
 10
-831.1641996469732
 20
843.85382875711389
 40
1.9998779296875
 50
0.0
 51
360.0
 73
               0
 97
        1
330
A8
 75
               0
 76
               1
 98
        1
 10
0.0
 20
0.0
  0
MTEXT
  5
AA
100
AcDbEntity
  8
0
390
0
 62
               0
100
AcDbMText
 10
-865.04181683447314
 20
770.04132707493841
 30
0.0
 40
24.432617187500004
 41
0.0
 71
               1
 72
               1
  1
100
  7
ＭＳ ゴシック
 11
0.0
 21
1.0
 31
0.0
 73
               1
 44
0.7828267384257843
  0
POINT
  5
AB
100
AcDbEntity
  8
Defpoints
370
               0
390
0
 62
               0
100
AcDbPoint
 10
-731.1641996469732
 20
843.85382875711389
 30
0.0
  0
POINT
  5
AC
100
AcDbEntity
  8
Defpoints
370
               0
390
0
 62
               0
100
AcDbPoint
 10
-731.1641996469732
 20
743.85382875711389
 30
0.0
  0
POINT
  5
AD
100
AcDbEntity
  8
Defpoints
370
               0
390
0
 62
               0
100
AcDbPoint
 10
-831.1641996469732
 20
743.85382875711389
 30
0.0
  0
ENDBLK
  5
AE
100
AcDbEntity
  8
template
390
0
100
AcDbBlockEnd
  0
BLOCK
  5
AF
100
AcDbEntity
  8
template
390
0
100
AcDbBlockBegin
  2
*D7
 70
               1
 10
0.0
 20
0.0
 30
0.0
  3
*D7
  1

  0
LINE
  5
B0
100
AcDbEntity
  8
0
370
              -2
390
0
  6
Continuous
 62
               0
100
AcDbLine
 10
-756.1641996469732
 20
453.85382875711389
 30
0.0
 11
-831.1641996469732
 21
453.85382875711389
 31
0.0
  0
LINE
  5
B1
100
AcDbEntity
  8
0
370
              -2
390
0
  6
Continuous
 62
               0
100
AcDbLine
 10
-756.1641996469732
 20
743.85382875711389
 30
0.0
 11
-831.1641996469732
 21
743.85382875711389
 31
0.0
  0
LINE
  5
B2
100
AcDbEntity
  8
0
370
              -2
390
0
  6
Continuous
 62
               0
100
AcDbLine
 10
-831.1641996469732
 20
453.85382875711389
 30
0.0
 11
-831.1641996469732
 21
743.85382875711389
 31
0.0
  0
CIRCLE
  5
B3
102
{ACAD_REACTORS
330
B4
102
}
100
AcDbEntity
  8
0
370
              -2
390
0
  6
Continuous
 62
               0
100
AcDbCircle
 10
-831.1641996469732
 20
453.85382875711389
 30
0.0
 40
1.9998779296875
  0
HATCH
  5
B4
100
AcDbEntity
  8
0
370
              -2
390
0
  6
Continuous
 62
               0
100
AcDbHatch
 10
0.0
 20
0.0
 30
0.0
210
0.0
220
0.0
230
1.0
  2
SOLID
 70
               1
 71
               1
 91
        1
 92
        1
 93
        1
 72
               2
 10
-831.1641996469732
 20
453.85382875711389
 40
1.9998779296875
 50
0.0
 51
360.0
 73
               0
 97
        1
330
B3
 75
               0
 76
               1
 98
        1
 10
0.0
 20
0.0
  0
CIRCLE
  5
B5
102
{ACAD_REACTORS
330
B6
102
}
100
AcDbEntity
  8
0
370
              -2
390
0
  6
Continuous
 62
               0
100
AcDbCircle
 10
-831.1641996469732
 20
743.85382875711389
 30
0.0
 40
1.9998779296875
  0
HATCH
  5
B6
100
AcDbEntity
  8
0
370
              -2
390
0
  6
Continuous
 62
               0
100
AcDbHatch
 10
0.0
 20
0.0
 30
0.0
210
0.0
220
0.0
230
1.0
  2
SOLID
 70
               1
 71
               1
 91
        1
 92
        1
 93
        1
 72
               2
 10
-831.1641996469732
 20
743.85382875711389
 40
1.9998779296875
 50
0.0
 51
360.0
 73
               0
 97
        1
330
B5
 75
               0
 76
               1
 98
        1
 10
0.0
 20
0.0
  0
MTEXT
  5
B7
100
AcDbEntity
  8
0
390
0
 62
               0
100
AcDbMText
 10
-865.04181683447314
 20
575.04132707493841
 30
0.0
 40
24.432617187500004
 41
0.0
 71
               1
 72
               1
  1
290
  7
ＭＳ ゴシック
 11
0.0
 21
1.0
 31
0.0
 73
               1
 44
0.7828267384257843
  0
POINT
  5
B8
100
AcDbEntity
  8
Defpoints
370
               0
390
0
 62
               0
100
AcDbPoint
 10
-731.1641996469732
 20
743.85382875711389
 30
0.0
  0
POINT
  5
B9
100
AcDbEntity
  8
Defpoints
370
               0
390
0
 62
               0
100
AcDbPoint
 10
-731.1641996469732
 20
453.85382875711389
 30
0.0
  0
POINT
  5
BA
100
AcDbEntity
  8
Defpoints
370
               0
390
0
 62
               0
100
AcDbPoint
 10
-831.1641996469732
 20
453.85382875711389
 30
0.0
  0
ENDBLK
  5
BB
100
AcDbEntity
  8
template
390
0
100
AcDbBlockEnd
  0
BLOCK
  5
BC
100
AcDbEntity
  8
template
390
0
100
AcDbBlockBegin
  2
*D8
 70
               1
 10
0.0
 20
0.0
 30
0.0
  3
*D8
  1

  0
LINE
  5
BD
100
AcDbEntity
  8
0
370
              -2
390
0
  6
Continuous
 62
               0
100
AcDbLine
 10
-156.16419964697326
 20
423.85339472933606
 30
0.0
 11
-81.164199646973259
 21
423.85339472933606
 31
0.0
  0
LINE
  5
BE
100
AcDbEntity
  8
0
370
              -2
390
0
  6
Continuous
 62
               0
100
AcDbLine
 10
-156.16419964697326
 20
843.85339472933606
 30
0.0
 11
-81.164199646973259
 21
843.85339472933606
 31
0.0
  0
LINE
  5
BF
100
AcDbEntity
  8
0
370
              -2
390
0
  6
Continuous
 62
               0
100
AcDbLine
 10
-81.164199646973259
 20
423.85339472933606
 30
0.0
 11
-81.164199646973259
 21
843.85339472933606
 31
0.0
  0
CIRCLE
  5
C0
102
{ACAD_REACTORS
330
C1
102
}
100
AcDbEntity
  8
0
370
              -2
390
0
  6
Continuous
 62
               0
100
AcDbCircle
 10
-81.164199646973259
 20
423.85339472933606
 30
0.0
 40
1.9998779296875
  0
HATCH
  5
C1
100
AcDbEntity
  8
0
370
              -2
390
0
  6
Continuous
 62
               0
100
AcDbHatch
 10
0.0
 20
0.0
 30
0.0
210
0.0
220
0.0
230
1.0
  2
SOLID
 70
               1
 71
               1
 91
        1
 92
        1
 93
        1
 72
               2
 10
-81.164199646973259
 20
423.85339472933606
 40
1.9998779296875
 50
0.0
 51
360.0
 73
               0
 97
        1
330
C0
 75
               0
 76
               1
 98
        1
 10
0.0
 20
0.0
  0
CIRCLE
  5
C2
102
{ACAD_REACTORS
330
C3
102
}
100
AcDbEntity
  8
0
370
              -2
390
0
  6
Continuous
 62
               0
100
AcDbCircle
 10
-81.164199646973259
 20
843.85339472933606
 30
0.0
 40
1.9998779296875
  0
HATCH
  5
C3
100
AcDbEntity
  8
0
370
              -2
390
0
  6
Continuous
 62
               0
100
AcDbHatch
 10
0.0
 20
0.0
 30
0.0
210
0.0
220
0.0
230
1.0
  2
SOLID
 70
               1
 71
               1
 91
        1
 92
        1
 93
        1
 72
               2
 10
-81.164199646973259
 20
843.85339472933606
 40
1.9998779296875
 50
0.0
 51
360.0
 73
               0
 97
        1
330
C2
 75
               0
 76
               1
 98
        1
 10
0.0
 20
0.0
  0
MTEXT
  5
C4
100
AcDbEntity
  8
0
390
0
 62
               0
100
AcDbMText
 10
-115.04181683447325
 20
610.04089304716058
 30
0.0
 40
24.432617187500004
 41
0.0
 71
               1
 72
               1
  1
420
  7
ＭＳ ゴシック
 11
0.0
 21
1.0
 31
0.0
 73
               1
 44
0.7828267384257843
  0
POINT
  5
C5
100
AcDbEntity
  8
Defpoints
370
               0
390
0
 62
               0
100
AcDbPoint
 10
-181.16419964697326
 20
843.85339472933606
 30
0.0
  0
POINT
  5
C6
100
AcDbEntity
  8
Defpoints
370
               0
390
0
 62
               0
100
AcDbPoint
 10
-181.16419964697326
 20
423.85339472933606
 30
0.0
  0
POINT
  5
C7
100
AcDbEntity
  8
Defpoints
370
               0
390
0
 62
               0
100
AcDbPoint
 10
-81.164199646973259
 20
423.85339472933606
 30
0.0
  0
ENDBLK
  5
C8
100
AcDbEntity
  8
template
390
0
100
AcDbBlockEnd
  0
BLOCK
  5
C9
100
AcDbEntity
  8
template
390
0
100
AcDbBlockBegin
  2
*D9
 70
               1
 10
0.0
 20
0.0
 30
0.0
  3
*D9
  1

  0
LINE
  5
CA
100
AcDbEntity
  8
0
370
              -2
390
0
  6
Continuous
 62
               0
100
AcDbLine
 10
-731.1641996469732
 20
868.85339472933606
 30
0.0
 11
-731.1641996469732
 21
993.2691826574686
 31
0.0
  0
LINE
  5
CB
100
AcDbEntity
  8
0
370
              -2
390
0
  6
Continuous
 62
               0
100
AcDbLine
 10
-181.16419964697326
 20
868.85339472933606
 30
0.0
 11
-181.16419964697326
 21
993.2691826574686
 31
0.0
  0
LINE
  5
CC
100
AcDbEntity
  8
0
370
              -2
390
0
  6
Continuous
 62
               0
100
AcDbLine
 10
-731.1641996469732
 20
993.2691826574686
 30
0.0
 11
-181.16419964697326
 21
993.2691826574686
 31
0.0
  0
CIRCLE
  5
CD
102
{ACAD_REACTORS
330
CE
102
}
100
AcDbEntity
  8
0
370
              -2
390
0
  6
Continuous
 62
               0
100
AcDbCircle
 10
-731.1641996469732
 20
993.2691826574686
 30
0.0
 40
1.9998779296875
  0
HATCH
  5
CE
100
AcDbEntity
  8
0
370
              -2
390
0
  6
Continuous
 62
               0
100
AcDbHatch
 10
0.0
 20
0.0
 30
0.0
210
0.0
220
0.0
230
1.0
  2
SOLID
 70
               1
 71
               1
 91
        1
 92
        1
 93
        1
 72
               2
 10
-731.1641996469732
 20
993.2691826574686
 40
1.9998779296875
 50
0.0
 51
360.0
 73
               0
 97
        1
330
CD
 75
               0
 76
               1
 98
        1
 10
0.0
 20
0.0
  0
CIRCLE
  5
CF
102
{ACAD_REACTORS
330
D0
102
}
100
AcDbEntity
  8
0
370
              -2
390
0
  6
Continuous
 62
               0
100
AcDbCircle
 10
-181.16419964697326
 20
993.2691826574686
 30
0.0
 40
1.9998779296875
  0
HATCH
  5
D0
100
AcDbEntity
  8
0
370
              -2
390
0
  6
Continuous
 62
               0
100
AcDbHatch
 10
0.0
 20
0.0
 30
0.0
210
0.0
220
0.0
230
1.0
  2
SOLID
 70
               1
 71
               1
 91
        1
 92
        1
 93
        1
 72
               2
 10
-181.16419964697326
 20
993.2691826574686
 40
1.9998779296875
 50
0.0
 51
360.0
 73
               0
 97
        1
330
CF
 75
               0
 76
               1
 98
        1
 10
0.0
 20
0.0
  0
MTEXT
  5
D1
100
AcDbEntity
  8
0
390
0
 62
               0
100
AcDbMText
 10
-479.97670132914874
 20
1027.1467998449687
 30
0.0
 40
24.432617187500004
 41
0.0
 71
               1
 72
               1
  1
550
  7
ＭＳ ゴシック
 73
               1
 44
0.7828267384257843
  0
POINT
  5
D2
100
AcDbEntity
  8
Defpoints
370
               0
390
0
 62
               0
100
AcDbPoint
 10
-181.16419964697326
 20
843.85339472933606
 30
0.0
  0
POINT
  5
D3
100
AcDbEntity
  8
Defpoints
370
               0
390
0
 62
               0
100
AcDbPoint
 10
-731.1641996469732
 20
843.85339472933606
 30
0.0
  0
POINT
  5
D4
100
AcDbEntity
  8
Defpoints
370
               0
390
0
 62
               0
100
AcDbPoint
 10
-731.1641996469732
 20
993.2691826574686
 30
0.0
  0
ENDBLK
  5
D5
100
AcDbEntity
  8
template
390
0
100
AcDbBlockEnd
  0
BLOCK
  5
D6
100
AcDbEntity
  8
template
390
0
100
AcDbBlockBegin
  2
*D10
 70
               1
 10
0.0
 20
0.0
 30
0.0
  3
*D10
  1

  0
LINE
  5
D7
100
AcDbEntity
  8
0
370
              -2
390
0
  6
Continuous
 62
               0
100
AcDbLine
 10
-701.27815141471251
 20
398.85339472933606
 30
0.0
 11
-701.27815141471251
 21
323.2691826574686
 31
0.0
  0
LINE
  5
D8
100
AcDbEntity
  8
0
370
              -2
390
0
  6
Continuous
 62
               0
100
AcDbLine
 10
-211.27815141471257
 20
398.85339472933606
 30
0.0
 11
-211.27815141471257
 21
323.2691826574686
 31
0.0
  0
LINE
  5
D9
100
AcDbEntity
  8
0
370
              -2
390
0
  6
Continuous
 62
               0
100
AcDbLine
 10
-701.27815141471251
 20
323.2691826574686
 30
0.0
 11
-211.27815141471257
 21
323.2691826574686
 31
0.0
  0
CIRCLE
  5
DA
102
{ACAD_REACTORS
330
DB
102
}
100
AcDbEntity
  8
0
370
              -2
390
0
  6
Continuous
 62
               0
100
AcDbCircle
 10
-701.27815141471251
 20
323.2691826574686
 30
0.0
 40
1.9998779296875
  0
HATCH
  5
DB
100
AcDbEntity
  8
0
370
              -2
390
0
  6
Continuous
 62
               0
100
AcDbHatch
 10
0.0
 20
0.0
 30
0.0
210
0.0
220
0.0
230
1.0
  2
SOLID
 70
               1
 71
               1
 91
        1
 92
        1
 93
        1
 72
               2
 10
-701.27815141471251
 20
323.2691826574686
 40
1.9998779296875
 50
0.0
 51
360.0
 73
               0
 97
        1
330
DA
 75
               0
 76
               1
 98
        1
 10
0.0
 20
0.0
  0
CIRCLE
  5
DC
102
{ACAD_REACTORS
330
DD
102
}
100
AcDbEntity
  8
0
370
              -2
390
0
  6
Continuous
 62
               0
100
AcDbCircle
 10
-211.27815141471257
 20
323.2691826574686
 30
0.0
 40
1.9998779296875
  0
HATCH
  5
DD
100
AcDbEntity
  8
0
370
              -2
390
0
  6
Continuous
 62
               0
100
AcDbHatch
 10
0.0
 20
0.0
 30
0.0
210
0.0
220
0.0
230
1.0
  2
SOLID
 70
               1
 71
               1
 91
        1
 92
        1
 93
        1
 72
               2
 10
-211.27815141471257
 20
323.2691826574686
 40
1.9998779296875
 50
0.0
 51
360.0
 73
               0
 97
        1
330
DC
 75
               0
 76
               1
 98
        1
 10
0.0
 20
0.0
  0
MTEXT
  5
DE
100
AcDbEntity
  8
0
390
0
 62
               0
100
AcDbMText
 10
-480.09065309688805
 20
357.1467998449686
 30
0.0
 40
24.432617187500004
 41
0.0
 71
               1
 72
               1
  1
490
  7
ＭＳ ゴシック
 73
               1
 44
0.7828267384257843
  0
POINT
  5
DF
100
AcDbEntity
  8
Defpoints
370
               0
390
0
 62
               0
100
AcDbPoint
 10
-211.27815141471257
 20
423.85339472933606
 30
0.0
  0
POINT
  5
E0
100
AcDbEntity
  8
Defpoints
370
               0
390
0
 62
               0
100
AcDbPoint
 10
-701.27815141471251
 20
423.85339472933606
 30
0.0
  0
POINT
  5
E1
100
AcDbEntity
  8
Defpoints
370
               0
390
0
 62
               0
100
AcDbPoint
 10
-701.27815141471251
 20
323.2691826574686
 30
0.0
  0
ENDBLK
  5
E2
100
AcDbEntity
  8
template
390
0
100
AcDbBlockEnd
  0
BLOCK
  5
E3
100
AcDbEntity
  8
template
390
0
100
AcDbBlockBegin
  2
*D11
 70
               1
 10
0.0
 20
0.0
 30
0.0
  3
*D11
  1

  0
LINE
  5
E4
100
AcDbEntity
  8
0
370
              -2
390
0
  6
Continuous
 62
               0
100
AcDbLine
 10
-246.08537464697002
 20
-603.46819336330918
 30
0.0
 11
-81.164199646970985
 21
-603.46819336330918
 31
0.0
  0
LINE
  5
E5
100
AcDbEntity
  8
0
370
              -2
390
0
  6
Continuous
 62
               0
100
AcDbLine
 10
-156.16419964697144
 20
-443.46819336330918
 30
0.0
 11
-81.164199646970985
 21
-443.46819336330918
 31
0.0
  0
LINE
  5
E6
100
AcDbEntity
  8
0
370
              -2
390
0
  6
Continuous
 62
               0
100
AcDbLine
 10
-81.164199646970985
 20
-603.46819336330918
 30
0.0
 11
-81.164199646970985
 21
-443.46819336330918
 31
0.0
  0
CIRCLE
  5
E7
102
{ACAD_REACTORS
330
E8
102
}
100
AcDbEntity
  8
0
370
              -2
390
0
  6
Continuous
 62
               0
100
AcDbCircle
 10
-81.164199646970985
 20
-603.46819336330918
 30
0.0
 40
1.9998779296875
  0
HATCH
  5
E8
100
AcDbEntity
  8
0
370
              -2
390
0
  6
Continuous
 62
               0
100
AcDbHatch
 10
0.0
 20
0.0
 30
0.0
210
0.0
220
0.0
230
1.0
  2
SOLID
 70
               1
 71
               1
 91
        1
 92
        1
 93
        1
 72
               2
 10
-81.164199646970985
 20
-603.46819336330918
 40
1.9998779296875
 50
0.0
 51
360.0
 73
               0
 97
        1
330
E7
 75
               0
 76
               1
 98
        1
 10
0.0
 20
0.0
  0
CIRCLE
  5
E9
102
{ACAD_REACTORS
330
EA
102
}
100
AcDbEntity
  8
0
370
              -2
390
0
  6
Continuous
 62
               0
100
AcDbCircle
 10
-81.164199646970985
 20
-443.46819336330918
 30
0.0
 40
1.9998779296875
  0
HATCH
  5
EA
100
AcDbEntity
  8
0
370
              -2
390
0
  6
Continuous
 62
               0
100
AcDbHatch
 10
0.0
 20
0.0
 30
0.0
210
0.0
220
0.0
230
1.0
  2
SOLID
 70
               1
 71
               1
 91
        1
 92
        1
 93
        1
 72
               2
 10
-81.164199646970985
 20
-443.46819336330918
 40
1.9998779296875
 50
0.0
 51
360.0
 73
               0
 97
        1
330
E9
 75
               0
 76
               1
 98
        1
 10
0.0
 20
0.0
  0
MTEXT
  5
EB
100
AcDbEntity
  8
0
390
0
 62
               0
100
AcDbMText
 10
-115.04181683447098
 20
-547.28069504548466
 30
0.0
 40
24.432617187500004
 41
0.0
 71
               1
 72
               1
  1
160
  7
ＭＳ ゴシック
 11
0.0
 21
1.0
 31
0.0
 73
               1
 44
0.7828267384257843
  0
POINT
  5
EC
100
AcDbEntity
  8
Defpoints
370
               0
390
0
 62
               0
100
AcDbPoint
 10
-181.16419964697144
 20
-443.46819336330918
 30
0.0
  0
POINT
  5
ED
100
AcDbEntity
  8
Defpoints
370
               0
390
0
 62
               0
100
AcDbPoint
 10
-271.08537464697002
 20
-603.46819336330918
 30
0.0
  0
POINT
  5
EE
100
AcDbEntity
  8
Defpoints
370
               0
390
0
 62
               0
100
AcDbPoint
 10
-81.164199646970985
 20
-603.46819336330918
 30
0.0
  0
ENDBLK
  5
EF
100
AcDbEntity
  8
template
390
0
100
AcDbBlockEnd
  0
BLOCK
  5
F0
100
AcDbEntity
  8
template
390
0
100
AcDbBlockBegin
  2
*D12
 70
               1
 10
0.0
 20
0.0
 30
0.0
  3
*D12
  1

  0
LINE
  5
F1
100
AcDbEntity
  8
0
370
              -2
390
0
  6
Continuous
 62
               0
100
AcDbLine
 10
-641.16419964697138
 20
-493.46819336330918
 30
0.0
 11
-831.1641996469732
 21
-493.46819336330918
 31
0.0
  0
LINE
  5
F2
100
AcDbEntity
  8
0
370
              -2
390
0
  6
Continuous
 62
               0
100
AcDbLine
 10
-756.16419964697138
 20
-443.46819336330918
 30
0.0
 11
-831.1641996469732
 21
-443.46819336330918
 31
0.0
  0
LINE
  5
F3
100
AcDbEntity
  8
0
370
              -2
390
0
  6
Continuous
 62
               0
100
AcDbLine
 10
-831.1641996469732
 20
-493.46819336330918
 30
0.0
 11
-831.1641996469732
 21
-443.46819336330918
 31
0.0
  0
CIRCLE
  5
F4
102
{ACAD_REACTORS
330
F5
102
}
100
AcDbEntity
  8
0
370
              -2
390
0
  6
Continuous
 62
               0
100
AcDbCircle
 10
-831.1641996469732
 20
-493.46819336330918
 30
0.0
 40
1.9998779296875
  0
HATCH
  5
F5
100
AcDbEntity
  8
0
370
              -2
390
0
  6
Continuous
 62
               0
100
AcDbHatch
 10
0.0
 20
0.0
 30
0.0
210
0.0
220
0.0
230
1.0
  2
SOLID
 70
               1
 71
               1
 91
        1
 92
        1
 93
        1
 72
               2
 10
-831.1641996469732
 20
-493.46819336330918
 40
1.9998779296875
 50
0.0
 51
360.0
 73
               0
 97
        1
330
F4
 75
               0
 76
               1
 98
        1
 10
0.0
 20
0.0
  0
CIRCLE
  5
F6
102
{ACAD_REACTORS
330
F7
102
}
100
AcDbEntity
  8
0
370
              -2
390
0
  6
Continuous
 62
               0
100
AcDbCircle
 10
-831.1641996469732
 20
-443.46819336330918
 30
0.0
 40
1.9998779296875
  0
HATCH
  5
F7
100
AcDbEntity
  8
0
370
              -2
390
0
  6
Continuous
 62
               0
100
AcDbHatch
 10
0.0
 20
0.0
 30
0.0
210
0.0
220
0.0
230
1.0
  2
SOLID
 70
               1
 71
               1
 91
        1
 92
        1
 93
        1
 72
               2
 10
-831.1641996469732
 20
-443.46819336330918
 40
1.9998779296875
 50
0.0
 51
360.0
 73
               0
 97
        1
330
F6
 75
               0
 76
               1
 98
        1
 10
0.0
 20
0.0
  0
MTEXT
  5
F8
100
AcDbEntity
  8
0
390
0
 62
               0
100
AcDbMText
 10
-865.04181683447314
 20
-484.34319336330918
 30
0.0
 40
24.432617187500004
 41
0.0
 71
               1
 72
               1
  1
50
  7
ＭＳ ゴシック
 11
0.0
 21
1.0
 31
0.0
 73
               1
 44
0.7828267384257843
  0
POINT
  5
F9
100
AcDbEntity
  8
Defpoints
370
               0
390
0
 62
               0
100
AcDbPoint
 10
-731.16419964697138
 20
-443.46819336330918
 30
0.0
  0
POINT
  5
FA
100
AcDbEntity
  8
Defpoints
370
               0
390
0
 62
               0
100
AcDbPoint
 10
-616.16419964697138
 20
-493.46819336330918
 30
0.0
  0
POINT
  5
FB
100
AcDbEntity
  8
Defpoints
370
               0
390
0
 62
               0
100
AcDbPoint
 10
-831.1641996469732
 20
-493.46819336330918
 30
0.0
  0
ENDBLK
  5
FC
100
AcDbEntity
  8
template
390
0
100
AcDbBlockEnd
  0
BLOCK
  5
FD
100
AcDbEntity
  8
template
390
0
100
AcDbBlockBegin
  2
*D13
 70
               1
 10
0.0
 20
0.0
 30
0.0
  3
*D13
  1

  0
LINE
  5
FE
100
AcDbEntity
  8
0
370
              -2
390
0
  6
Continuous
 62
               0
100
AcDbLine
 10
-596.16419964697138
 20
-448.46819336330918
 30
0.0
 11
-596.16419964697138
 21
-343.46819336330918
 31
0.0
  0
LINE
  5
FF
100
AcDbEntity
  8
0
370
              -2
390
0
  6
Continuous
 62
               0
100
AcDbLine
 10
-316.16419964697144
 20
-451.26030238937619
 30
0.0
 11
-316.16419964697144
 21
-343.46819336330918
 31
0.0
  0
LINE
  5
100
100
AcDbEntity
  8
0
370
              -2
390
0
  6
Continuous
 62
               0
100
AcDbLine
 10
-596.16419964697138
 20
-343.46819336330918
 30
0.0
 11
-316.16419964697144
 21
-343.46819336330918
 31
0.0
  0
CIRCLE
  5
101
102
{ACAD_REACTORS
330
102
102
}
100
AcDbEntity
  8
0
370
              -2
390
0
  6
Continuous
 62
               0
100
AcDbCircle
 10
-596.16419964697138
 20
-343.46819336330918
 30
0.0
 40
1.9998779296875
  0
HATCH
  5
102
100
AcDbEntity
  8
0
370
              -2
390
0
  6
Continuous
 62
               0
100
AcDbHatch
 10
0.0
 20
0.0
 30
0.0
210
0.0
220
0.0
230
1.0
  2
SOLID
 70
               1
 71
               1
 91
        1
 92
        1
 93
        1
 72
               2
 10
-596.16419964697138
 20
-343.46819336330918
 40
1.9998779296875
 50
0.0
 51
360.0
 73
               0
 97
        1
330
101
 75
               0
 76
               1
 98
        1
 10
0.0
 20
0.0
  0
CIRCLE
  5
103
102
{ACAD_REACTORS
330
104
102
}
100
AcDbEntity
  8
0
370
              -2
390
0
  6
Continuous
 62
               0
100
AcDbCircle
 10
-316.16419964697144
 20
-343.46819336330918
 30
0.0
 40
1.9998779296875
  0
HATCH
  5
104
100
AcDbEntity
  8
0
370
              -2
390
0
  6
Continuous
 62
               0
100
AcDbHatch
 10
0.0
 20
0.0
 30
0.0
210
0.0
220
0.0
230
1.0
  2
SOLID
 70
               1
 71
               1
 91
        1
 92
        1
 93
        1
 72
               2
 10
-316.16419964697144
 20
-343.46819336330918
 40
1.9998779296875
 50
0.0
 51
360.0
 73
               0
 97
        1
330
103
 75
               0
 76
               1
 98
        1
 10
0.0
 20
0.0
  0
MTEXT
  5
105
100
AcDbEntity
  8
0
390
0
 62
               0
100
AcDbMText
 10
-479.97670132914692
 20
-309.59057617580913
 30
0.0
 40
24.432617187500004
 41
0.0
 71
               1
 72
               1
  1
280
  7
ＭＳ ゴシック
 73
               1
 44
0.7828267384257843
  0
POINT
  5
106
100
AcDbEntity
  8
Defpoints
370
               0
390
0
 62
               0
100
AcDbPoint
 10
-316.16419964697144
 20
-476.26030238937619
 30
0.0
  0
POINT
  5
107
100
AcDbEntity
  8
Defpoints
370
               0
390
0
 62
               0
100
AcDbPoint
 10
-596.16419964697138
 20
-473.46819336330918
 30
0.0
  0
POINT
  5
108
100
AcDbEntity
  8
Defpoints
370
               0
390
0
 62
               0
100
AcDbPoint
 10
-596.16419964697138
 20
-343.46819336330918
 30
0.0
  0
ENDBLK
  5
109
100
AcDbEntity
  8
template
390
0
100
AcDbBlockEnd
  0
BLOCK
  5
10A
100
AcDbEntity
  8
template
390
0
100
AcDbBlockBegin
  2
*D14
 70
               1
 10
0.0
 20
0.0
 30
0.0
  3
*D14
  1

  0
LINE
  5
10B
100
AcDbEntity
  8
0
370
              -2
390
0
  6
Continuous
 62
               0
100
AcDbLine
 10
699.29135476420515
 20
-629.89100294628452
 30
0.0
 11
699.29135476420515
 21
-703.46819336330896
 31
0.0
  0
LINE
  5
10C
100
AcDbEntity
  8
0
370
              -2
390
0
  6
Continuous
 62
               0
100
AcDbLine
 10
494.29135476420441
 20
-629.89100294628452
 30
0.0
 11
494.29135476420441
 21
-703.46819336330896
 31
0.0
  0
LINE
  5
10D
100
AcDbEntity
  8
0
370
              -2
390
0
  6
Continuous
 62
               0
100
AcDbLine
 10
699.29135476420515
 20
-703.46819336330896
 30
0.0
 11
494.29135476420441
 21
-703.46819336330896
 31
0.0
  0
CIRCLE
  5
10E
102
{ACAD_REACTORS
330
10F
102
}
100
AcDbEntity
  8
0
370
              -2
390
0
  6
Continuous
 62
               0
100
AcDbCircle
 10
699.29135476420515
 20
-703.46819336330896
 30
0.0
 40
1.9998779296875
  0
HATCH
  5
10F
100
AcDbEntity
  8
0
370
              -2
390
0
  6
Continuous
 62
               0
100
AcDbHatch
 10
0.0
 20
0.0
 30
0.0
210
0.0
220
0.0
230
1.0
  2
SOLID
 70
               1
 71
               1
 91
        1
 92
        1
 93
        1
 72
               2
 10
699.29135476420515
 20
-703.46819336330896
 40
1.9998779296875
 50
0.0
 51
360.0
 73
               0
 97
        1
330
10E
 75
               0
 76
               1
 98
        1
 10
0.0
 20
0.0
  0
CIRCLE
  5
110
102
{ACAD_REACTORS
330
111
102
}
100
AcDbEntity
  8
0
370
              -2
390
0
  6
Continuous
 62
               0
100
AcDbCircle
 10
494.29135476420441
 20
-703.46819336330896
 30
0.0
 40
1.9998779296875
  0
HATCH
  5
111
100
AcDbEntity
  8
0
370
              -2
390
0
  6
Continuous
 62
               0
100
AcDbHatch
 10
0.0
 20
0.0
 30
0.0
210
0.0
220
0.0
230
1.0
  2
SOLID
 70
               1
 71
               1
 91
        1
 92
        1
 93
        1
 72
               2
 10
494.29135476420441
 20
-703.46819336330896
 40
1.9998779296875
 50
0.0
 51
360.0
 73
               0
 97
        1
330
110
 75
               0
 76
               1
 98
        1
 10
0.0
 20
0.0
  0
MTEXT
  5
112
100
AcDbEntity
  8
0
390
0
 62
               0
100
AcDbMText
 10
572.97885308202922
 20
-669.59057617580902
 30
0.0
 40
24.432617187500004
 41
0.0
 71
               1
 72
               1
  1
205
  7
ＭＳ ゴシック
 73
               1
 44
0.7828267384257843
  0
POINT
  5
113
100
AcDbEntity
  8
Defpoints
370
               0
390
0
 62
               0
100
AcDbPoint
 10
494.29135476420441
 20
-604.89100294628452
 30
0.0
  0
POINT
  5
114
100
AcDbEntity
  8
Defpoints
370
               0
390
0
 62
               0
100
AcDbPoint
 10
699.29135476420515
 20
-604.89100294628452
 30
0.0
  0
POINT
  5
115
100
AcDbEntity
  8
Defpoints
370
               0
390
0
 62
               0
100
AcDbPoint
 10
699.29135476420515
 20
-703.46819336330896
 30
0.0
  0
ENDBLK
  5
116
100
AcDbEntity
  8
template
390
0
100
AcDbBlockEnd
  0
BLOCK
  5
117
100
AcDbEntity
  8
template
390
0
100
AcDbBlockBegin
  2
*D15
 70
               1
 10
0.0
 20
0.0
 30
0.0
  3
*D15
  1

  0
LINE
  5
118
100
AcDbEntity
  8
0
370
              -2
390
0
  6
Continuous
 62
               0
100
AcDbLine
 10
634.26861118238094
 20
-418.46819336330918
 30
0.0
 11
634.26861118238094
 21
-343.46819336330918
 31
0.0
  0
LINE
  5
119
100
AcDbEntity
  8
0
370
              -2
390
0
  6
Continuous
 62
               0
100
AcDbLine
 10
699.26861118238094
 20
-418.46819336330918
 30
0.0
 11
699.26861118238094
 21
-343.46819336330918
 31
0.0
  0
LINE
  5
11A
100
AcDbEntity
  8
0
370
              -2
390
0
  6
Continuous
 62
               0
100
AcDbLine
 10
634.26861118238094
 20
-343.46819336330918
 30
0.0
 11
699.26861118238094
 21
-343.46819336330918
 31
0.0
  0
CIRCLE
  5
11B
102
{ACAD_REACTORS
330
11C
102
}
100
AcDbEntity
  8
0
370
              -2
390
0
  6
Continuous
 62
               0
100
AcDbCircle
 10
634.26861118238094
 20
-343.46819336330918
 30
0.0
 40
1.9998779296875
  0
HATCH
  5
11C
100
AcDbEntity
  8
0
370
              -2
390
0
  6
Continuous
 62
               0
100
AcDbHatch
 10
0.0
 20
0.0
 30
0.0
210
0.0
220
0.0
230
1.0
  2
SOLID
 70
               1
 71
               1
 91
        1
 92
        1
 93
        1
 72
               2
 10
634.26861118238094
 20
-343.46819336330918
 40
1.9998779296875
 50
0.0
 51
360.0
 73
               0
 97
        1
330
11B
 75
               0
 76
               1
 98
        1
 10
0.0
 20
0.0
  0
CIRCLE
  5
11D
102
{ACAD_REACTORS
330
11E
102
}
100
AcDbEntity
  8
0
370
              -2
390
0
  6
Continuous
 62
               0
100
AcDbCircle
 10
699.26861118238094
 20
-343.46819336330918
 30
0.0
 40
1.9998779296875
  0
HATCH
  5
11E
100
AcDbEntity
  8
0
370
              -2
390
0
  6
Continuous
 62
               0
100
AcDbHatch
 10
0.0
 20
0.0
 30
0.0
210
0.0
220
0.0
230
1.0
  2
SOLID
 70
               1
 71
               1
 91
        1
 92
        1
 93
        1
 72
               2
 10
699.26861118238094
 20
-343.46819336330918
 40
1.9998779296875
 50
0.0
 51
360.0
 73
               0
 97
        1
330
11D
 75
               0
 76
               1
 98
        1
 10
0.0
 20
0.0
  0
MTEXT
  5
11F
100
AcDbEntity
  8
0
390
0
 62
               0
100
AcDbMText
 10
650.89361118238094
 20
-309.59057617580913
 30
0.0
 40
24.432617187500004
 41
0.0
 71
               1
 72
               1
  1
65
  7
ＭＳ ゴシック
 73
               1
 44
0.7828267384257843
  0
POINT
  5
120
100
AcDbEntity
  8
Defpoints
370
               0
390
0
 62
               0
100
AcDbPoint
 10
699.26861118238094
 20
-443.46819336330918
 30
0.0
  0
POINT
  5
121
100
AcDbEntity
  8
Defpoints
370
               0
390
0
 62
               0
100
AcDbPoint
 10
634.26861118238094
 20
-443.46819336330918
 30
0.0
  0
POINT
  5
122
100
AcDbEntity
  8
Defpoints
370
               0
390
0
 62
               0
100
AcDbPoint
 10
634.26861118238094
 20
-343.46819336330918
 30
0.0
  0
ENDBLK
  5
123
100
AcDbEntity
  8
template
390
0
100
AcDbBlockEnd
  0
BLOCK
  5
124
100
AcDbEntity
  8
template
390
0
100
AcDbBlockBegin
  2
壁取付ボルト説明
 70
               0
 10
0.0
 20
0.0
 30
0.0
  3
壁取付ボルト説明
  1

  0
MTEXT
  5
125
100
AcDbEntity
  8
0
390
0
 62
               7
100
AcDbMText
 10
45.998992499999986
 20
149.14965643001398
 30
0.0
 40
24.432617187500004
 41
0.0
 71
               1
 72
               1
  1
壁取付ボルト穴（2ヶ所）
  7
ＭＳ ゴシック
 73
               1
 44
0.7828267384257843
  0
LINE
  5
126
100
AcDbEntity
  8
0
370
               5
390
0
  6
Continuous
 62
               7
100
AcDbLine
 10
0.0
 20
0.0
 30
0.0
 11
61.998992499999986
 21
117.52203924251398
 31
0.0
  0
ENDBLK
  5
127
100
AcDbEntity
  8
template
390
0
100
AcDbBlockEnd
  0
BLOCK
  5
128
100
AcDbEntity
  8
template
390
0
100
AcDbBlockBegin
  2
*D17
 70
               1
 10
0.0
 20
0.0
 30
0.0
  3
*D17
  1

  0
LINE
  5
129
100
AcDbEntity
  8
0
370
              -2
390
0
  6
Continuous
 62
               0
100
AcDbLine
 10
653.34188455881986
 20
563.85339472933606
 30
0.0
 11
708.34188455881986
 21
563.85339472933606
 31
0.0
  0
LINE
  5
12A
100
AcDbEntity
  8
0
370
              -2
390
0
  6
Continuous
 62
               0
100
AcDbLine
 10
653.34188455881986
 20
843.85339472933606
 30
0.0
 11
708.34188455881986
 21
843.85339472933606
 31
0.0
  0
LINE
  5
12B
100
AcDbEntity
  8
0
370
              -2
390
0
  6
Continuous
 62
               0
100
AcDbLine
 10
708.34188455881986
 20
563.85339472933606
 30
0.0
 11
708.34188455881986
 21
843.85339472933606
 31
0.0
  0
CIRCLE
  5
12C
102
{ACAD_REACTORS
330
12D
102
}
100
AcDbEntity
  8
0
370
              -2
390
0
  6
Continuous
 62
               0
100
AcDbCircle
 10
708.34188455881986
 20
563.85339472933606
 30
0.0
 40
1.9998779296875
  0
HATCH
  5
12D
100
AcDbEntity
  8
0
370
              -2
390
0
  6
Continuous
 62
               0
100
AcDbHatch
 10
0.0
 20
0.0
 30
0.0
210
0.0
220
0.0
230
1.0
  2
SOLID
 70
               1
 71
               1
 91
        1
 92
        1
 93
        1
 72
               2
 10
708.34188455881986
 20
563.85339472933606
 40
1.9998779296875
 50
0.0
 51
360.0
 73
               0
 97
        1
330
12C
 75
               0
 76
               1
 98
        1
 10
0.0
 20
0.0
  0
CIRCLE
  5
12E
102
{ACAD_REACTORS
330
12F
102
}
100
AcDbEntity
  8
0
370
              -2
390
0
  6
Continuous
 62
               0
100
AcDbCircle
 10
708.34188455881986
 20
843.85339472933606
 30
0.0
 40
1.9998779296875
  0
HATCH
  5
12F
100
AcDbEntity
  8
0
370
              -2
390
0
  6
Continuous
 62
               0
100
AcDbHatch
 10
0.0
 20
0.0
 30
0.0
210
0.0
220
0.0
230
1.0
  2
SOLID
 70
               1
 71
               1
 91
        1
 92
        1
 93
        1
 72
               2
 10
708.34188455881986
 20
843.85339472933606
 40
1.9998779296875
 50
0.0
 51
360.0
 73
               0
 97
        1
330
12E
 75
               0
 76
               1
 98
        1
 10
0.0
 20
0.0
  0
MTEXT
  5
130
100
AcDbEntity
  8
0
390
0
 62
               0
100
AcDbMText
 10
674.46426737131981
 20
680.04089304716058
 30
0.0
 40
24.432617187500004
 41
0.0
 71
               1
 72
               1
  1
280
  7
ＭＳ ゴシック
 11
0.0
 21
1.0
 31
0.0
 73
               1
 44
0.7828267384257843
  0
POINT
  5
131
100
AcDbEntity
  8
Defpoints
370
               0
390
0
 62
               0
100
AcDbPoint
 10
628.34188455881986
 20
843.85339472933606
 30
0.0
  0
POINT
  5
132
100
AcDbEntity
  8
Defpoints
370
               0
390
0
 62
               0
100
AcDbPoint
 10
628.34188455881986
 20
563.85339472933606
 30
0.0
  0
POINT
  5
133
100
AcDbEntity
  8
Defpoints
370
               0
390
0
 62
               0
100
AcDbPoint
 10
708.34188455881986
 20
563.85339472933606
 30
0.0
  0
ENDBLK
  5
134
100
AcDbEntity
  8
template
390
0
100
AcDbBlockEnd
  0
BLOCK
  5
135
100
AcDbEntity
  8
template
390
0
100
AcDbBlockBegin
  2
*D18
 70
               1
 10
0.0
 20
0.0
 30
0.0
  3
*D18
  1

  0
LINE
  5
136
100
AcDbEntity
  8
0
370
              -2
390
0
  6
Continuous
 62
               0
100
AcDbLine
 10
278.34188455881912
 20
538.85339472933606
 30
0.0
 11
278.34188455881912
 21
463.85339472933606
 31
0.0
  0
LINE
  5
137
100
AcDbEntity
  8
0
370
              -2
390
0
  6
Continuous
 62
               0
100
AcDbLine
 10
628.34188455881986
 20
538.85339472933606
 30
0.0
 11
628.34188455881986
 21
463.85339472933606
 31
0.0
  0
LINE
  5
138
100
AcDbEntity
  8
0
370
              -2
390
0
  6
Continuous
 62
               0
100
AcDbLine
 10
278.34188455881912
 20
463.85339472933606
 30
0.0
 11
628.34188455881986
 21
463.85339472933606
 31
0.0
  0
CIRCLE
  5
139
102
{ACAD_REACTORS
330
13A
102
}
100
AcDbEntity
  8
0
370
              -2
390
0
  6
Continuous
 62
               0
100
AcDbCircle
 10
278.34188455881912
 20
463.85339472933606
 30
0.0
 40
1.9998779296875
  0
HATCH
  5
13A
100
AcDbEntity
  8
0
370
              -2
390
0
  6
Continuous
 62
               0
100
AcDbHatch
 10
0.0
 20
0.0
 30
0.0
210
0.0
220
0.0
230
1.0
  2
SOLID
 70
               1
 71
               1
 91
        1
 92
        1
 93
        1
 72
               2
 10
278.34188455881912
 20
463.85339472933606
 40
1.9998779296875
 50
0.0
 51
360.0
 73
               0
 97
        1
330
139
 75
               0
 76
               1
 98
        1
 10
0.0
 20
0.0
  0
CIRCLE
  5
13B
102
{ACAD_REACTORS
330
13C
102
}
100
AcDbEntity
  8
0
370
              -2
390
0
  6
Continuous
 62
               0
100
AcDbCircle
 10
628.34188455881986
 20
463.85339472933606
 30
0.0
 40
1.9998779296875
  0
HATCH
  5
13C
100
AcDbEntity
  8
0
370
              -2
390
0
  6
Continuous
 62
               0
100
AcDbHatch
 10
0.0
 20
0.0
 30
0.0
210
0.0
220
0.0
230
1.0
  2
SOLID
 70
               1
 71
               1
 91
        1
 92
        1
 93
        1
 72
               2
 10
628.34188455881986
 20
463.85339472933606
 40
1.9998779296875
 50
0.0
 51
360.0
 73
               0
 97
        1
330
13B
 75
               0
 76
               1
 98
        1
 10
0.0
 20
0.0
  0
MTEXT
  5
13D
100
AcDbEntity
  8
0
390
0
 62
               0
100
AcDbMText
 10
429.52938287664392
 20
497.73101191683605
 30
0.0
 40
24.432617187500004
 41
0.0
 71
               1
 72
               1
  1
350
  7
ＭＳ ゴシック
 73
               1
 44
0.7828267384257843
  0
POINT
  5
13E
100
AcDbEntity
  8
Defpoints
370
               0
390
0
 62
               0
100
AcDbPoint
 10
628.34188455881986
 20
563.85339472933606
 30
0.0
  0
POINT
  5
13F
100
AcDbEntity
  8
Defpoints
370
               0
390
0
 62
               0
100
AcDbPoint
 10
278.34188455881912
 20
563.85339472933606
 30
0.0
  0
POINT
  5
140
100
AcDbEntity
  8
Defpoints
370
               0
390
0
 62
               0
100
AcDbPoint
 10
278.34188455881912
 20
463.85339472933606
 30
0.0
  0
ENDBLK
  5
141
100
AcDbEntity
  8
template
390
0
100
AcDbBlockEnd
  0
BLOCK
  5
142
100
AcDbEntity
  8
template
390
0
100
AcDbBlockBegin
  2
*D19
 70
               1
 10
0.0
 20
0.0
 30
0.0
  3
*D19
  1

  0
LINE
  5
143
100
AcDbEntity
  8
0
370
              -2
390
0
  6
Continuous
 62
               0
100
AcDbLine
 10
-445.44174460771757
 20
792.28669411118688
 30
0.0
 11
-372.42233286251388
 21
879.85339472933617
 31
0.0
  0
CIRCLE
  5
144
102
{ACAD_REACTORS
330
145
102
}
100
AcDbEntity
  8
0
370
              -2
390
0
  6
Continuous
 62
               0
100
AcDbCircle
 10
-445.44174460771757
 20
792.28669411118688
 30
0.0
 40
1.9998779296875
  0
HATCH
  5
145
100
AcDbEntity
  8
0
370
              -2
390
0
  6
Continuous
 62
               0
100
AcDbHatch
 10
0.0
 20
0.0
 30
0.0
210
0.0
220
0.0
230
1.0
  2
SOLID
 70
               1
 71
               1
 91
        1
 92
        1
 93
        1
 72
               2
 10
-445.44174460771757
 20
792.28669411118688
 40
1.9998779296875
 50
0.0
 51
360.0
 73
               0
 97
        1
330
144
 75
               0
 76
               1
 98
        1
 10
0.0
 20
0.0
  0
LINE
  5
146
100
AcDbEntity
  8
0
370
              -2
390
0
  6
Continuous
 62
               0
100
AcDbLine
 10
-372.42233286251388
 20
879.85339472933617
 30
0.0
 11
-248.92233286251388
 21
879.85339472933617
 31
0.0
  0
MTEXT
  5
147
100
AcDbEntity
  8
0
390
0
 62
               0
100
AcDbMText
 10
-312.42233286251388
 20
911.12651972933622
 30
0.0
 40
21.828125
 41
0.0
 71
               1
 72
               1
  1
φ35
  7
MS UI Gothic
 73
               1
 44
0.8762322015334064
  0
POINT
  5
148
100
AcDbEntity
  8
Defpoints
370
               0
390
0
 62
               0
100
AcDbPoint
 10
-467.85460109180559
 20
765.4086373474853
 30
0.0
  0
POINT
  5
149
100
AcDbEntity
  8
Defpoints
370
               0
390
0
 62
               0
100
AcDbPoint
 10
-445.44174460771757
 20
792.28669411118688
 30
0.0
  0
ENDBLK
  5
14A
100
AcDbEntity
  8
template
390
0
100
AcDbBlockEnd
  0
BLOCK
  5
14B
100
AcDbEntity
  8
template
390
0
100
AcDbBlockBegin
  2
グループ-2
 70
               0
 10
0.0
 20
0.0
 30
0.0
  3
グループ-2
  1

  0
LINE
  5
14C
100
AcDbEntity
  8
0
370
              15
390
0
  6
STYLE_12
 62
               7
100
AcDbLine
 10
-20.0
 20
0.0
 30
0.0
 11
20.0
 21
0.0
 31
0.0
  0
CIRCLE
  5
14D
100
AcDbEntity
  8
0
370
              15
390
0
  6
STYLE_12
 62
               7
100
AcDbCircle
 10
0.0010075000000143
 20
0.0
 30
0.0
 40
10.0
  0
LINE
  5
14E
100
AcDbEntity
  8
0
370
              15
390
0
  6
STYLE_12
 62
               7
100
AcDbLine
 10
0.0
 20
-20.0
 30
0.0
 11
0.0
 21
20.0
 31
0.0
  0
CIRCLE
  5
14F
100
AcDbEntity
  8
0
370
              15
390
0
  6
STYLE_12
 62
               7
100
AcDbCircle
 10
0.0
 20
0.0010075000000143
 30
0.0
 40
10.0
  0
ENDBLK
  5
150
100
AcDbEntity
  8
template
390
0
100
AcDbBlockEnd
  0
BLOCK
  5
151
100
AcDbEntity
  8
template
390
0
100
AcDbBlockBegin
  2
シンボル-1
 70
               0
 10
0.0
 20
0.0
 30
0.0
  3
シンボル-1
  1

  0
INSERT
  5
152
100
AcDbEntity
  8
0
390
0
 62
               7
100
AcDbBlockReference
  2
グループ-2
 10
0.0
 20
0.0
 30
0.0
  0
ENDBLK
  5
153
100
AcDbEntity
  8
template
390
0
100
AcDbBlockEnd
  0
BLOCK
  5
154
100
AcDbEntity
  8
template
390
0
100
AcDbBlockBegin
  2
グループ-3
 70
               0
 10
0.0
 20
0.0
 30
0.0
  3
グループ-3
  1

  0
SPLINE
  5
155
100
AcDbEntity
  8
0
370
               5
390
0
  6
STYLE_12
 62
               7
100
AcDbSpline
210
0.0
220
0.0
230
1.0
 70
              13
 71
               2
 72
              44
 73
              41
 74
               0
 42
0.000001
 43
0.000001
 40
0.0
 40
0.0
 40
0.0
 40
1.0
 40
1.0
 40
2.0
 40
2.0
 40
3.0
 40
4.0
 40
5.0
 40
6.0
 40
7.0
 40
8.0
 40
9.0
 40
10.0
 40
11.0
 40
12.0
 40
13.0
 40
13.0
 40
14.0
 40
14.0
 40
15.0
 40
15.0
 40
16.0
 40
16.0
 40
17.0
 40
17.0
 40
18.0
 40
19.0
 40
20.0
 40
21.0
 40
22.0
 40
23.0
 40
24.0
 40
25.0
 40
26.0
 40
27.0
 40
28.0
 40
28.0
 40
29.0
 40
29.0
 40
30.0
 40
30.0
 40
30.0
 10
147.34223518484123
 20
275.56547569456279
 30
0.0
 41
1.0
 10
281.37944058566984
 20
275.56547569456279
 30
0.0
 41
1.0
 10
415.41664598649845
 20
275.56547569456279
 30
0.0
 41
1.0
 10
417.37262236781794
 20
274.98126362269534
 30
0.0
 41
1.0
 10
417.9969073071527
 20
273.06659331691924
 30
0.0
 41
1.0
 10
421.7467368675118
 20
139.94082762108201
 30
0.0
 41
1.0
 10
422.34282456429014
 20
81.038660887367428
 30
0.0
 41
1.0
 10
421.94237887294935
 20
13.828460204816565
 30
0.0
 41
1.0
 10
421.59703830161857
 20
-5.0209457903180237
 30
0.0
 41
1.0
 10
420.86286226738889
 20
-33.189527215023531
 30
0.0
 41
1.0
 10
420.96012015217752
 20
-50.808651461157638
 30
0.0
 41
1.0
 10
415.87979527655375
 20
-96.981560932025673
 30
0.0
 41
1.0
 10
383.28538702654828
 20
-129.32145375058838
 30
0.0
 41
1.0
 10
356.89424421090757
 20
-138.98801859856383
 30
0.0
 41
1.0
 10
332.68396356027938
 20
-141.24676939074095
 30
0.0
 41
1.0
 10
273.58274611600723
 20
-142.28663951280566
 30
0.0
 41
1.0
 10
210.36411928167115
 20
-143.36058190912144
 30
0.0
 41
1.0
 10
210.26523201630829
 20
-143.36226178152688
 30
0.0
 41
1.0
 10
210.16634475094543
 20
-143.36394165393233
 30
0.0
 41
1.0
 10
147.1454924473349
 20
-144.43452430543715
 30
0.0
 41
0.9998552862399592
 10
84.124697307820952
 20
-143.36058190912144
 30
0.0
 41
1.0
 10
67.388834987358209
 20
-143.07538474451792
 30
0.0
 41
1.0
 10
50.652972666895465
 20
-142.7901875799144
 30
0.0
 41
1.0
 10
21.103902168316388
 20
-142.28663951280865
 30
0.0
 41
0.9999999612137488
 10
-8.444884532971173
 20
-141.76670445177336
 30
0.0
 41
1.0
 10
-37.993671234249177
 20
-141.24676939074106
 30
0.0
 41
1.0
 10
-62.204522887334406
 20
-138.9880185985636
 30
0.0
 41
1.0
 10
-88.64433337830269
 20
-129.2565535717664
 30
0.0
 41
1.0
 10
-114.43729823943158
 20
-103.21900998838322
 30
0.0
 41
1.0
 10
-123.97526804978042
 20
-77.382940049173499
 30
0.0
 41
1.0
 10
-126.2757602601182
 20
-50.808651461157751
 30
0.0
 41
1.0
 10
-126.17837508150342
 20
-33.189527215023531
 30
0.0
 41
1.0
 10
-126.9125371358864
 20
-5.0209457903182511
 30
0.0
 41
1.0
 10
-127.25811009575682
 20
13.828460204816452
 30
0.0
 41
1.0
 10
-127.65717543570872
 20
81.038660887367541
 30
0.0
 41
1.0
 10
-127.05934112933664
 20
139.94082762108189
 30
0.0
 41
1.0
 10
-123.31243693746956
 20
273.06659331691924
 30
0.0
 41
1.0
 10
-122.66518893555303
 20
275.00316330734267
 30
0.0
 41
1.0
 10
-120.73217561681486
 20
275.56547569456279
 30
0.0
 41
1.0
 10
13.305029784013186
 20
275.56547569456279
 30
0.0
 41
1.0
 10
147.34223518484123
 20
275.56547569456279
 30
0.0
 41
1.0
  0
CIRCLE
  5
156
100
AcDbEntity
  8
0
370
               5
390
0
  6
STYLE_12
 62
               7
100
AcDbCircle
 10
147.43070318138916
 20
210.55974669456282
 30
0.0
 40
17.498329000000012
  0
CIRCLE
  5
157
100
AcDbEntity
  8
0
370
               5
390
0
  6
STYLE_12
 62
               7
100
AcDbCircle
 10
47.43198318138775
 20
210.55974669456282
 30
0.0
 40
17.500000000000053
  0
CIRCLE
  5
158
100
AcDbEntity
  8
0
370
               5
390
0
  6
STYLE_12
 62
               7
100
AcDbCircle
 10
247.43198318138934
 20
210.55974669456282
 30
0.0
 40
17.499999999999982
  0
CIRCLE
  5
159
100
AcDbEntity
  8
0
370
               5
390
0
  6
STYLE_12
 62
               7
100
AcDbCircle
 10
147.41692318138894
 20
70.568513694562739
 30
0.0
 40
23.000000000000345
  0
POLYLINE
  5
15A
100
AcDbEntity
  8
0
370
              15
390
0
  6
Continuous
 62
               7
100
AcDb2dPolyline
 66
               1
 10
0.0
 20
0.0
 30
0.0
 70
               1
 75
               5
  0
VERTEX
  5
15B
100
AcDbEntity
  8
0
370
              15
390
0
  6
Continuous
 62
               7
100
AcDbVertex
100
AcDb2dVertex
 10
-27.657764815159226
 20
275.56547569456279
 30
0.0
  0
VERTEX
  5
15C
100
AcDbEntity
  8
0
370
              15
390
0
  6
Continuous
 62
               7
100
AcDbVertex
100
AcDb2dVertex
 10
322.34223518484146
 20
275.56547569456279
 30
0.0
  0
VERTEX
  5
15D
100
AcDbEntity
  8
0
370
              15
390
0
  6
Continuous
 62
               7
100
AcDbVertex
100
AcDb2dVertex
 10
322.34223518484146
 20
-4.4345243054372077
 30
0.0
  0
VERTEX
  5
15E
100
AcDbEntity
  8
0
370
              15
390
0
  6
Continuous
 62
               7
100
AcDbVertex
100
AcDb2dVertex
 10
-27.657764815159226
 20
-4.4345243054372077
 30
0.0
  0
SEQEND
  5
15F
100
AcDbEntity
  8
0
370
              15
390
0
  6
Continuous
 62
               7
  0
ENDBLK
  5
160
100
AcDbEntity
  8
template
390
0
100
AcDbBlockEnd
  0
BLOCK
  5
161
100
AcDbEntity
  8
template
390
0
100
AcDbBlockBegin
  2
グループ-4
 70
               0
 10
0.0
 20
0.0
 30
0.0
  3
グループ-4
  1

  0
LINE
  5
162
100
AcDbEntity
  8
0
370
               5
390
0
  6
Continuous
 62
               7
100
AcDbLine
 10
472.71742150574778
 20
312.00316330734267
 30
0.0
 11
435.71742150574778
 21
275.00316330734267
 31
0.0
  0
LINE
  5
163
100
AcDbEntity
  8
0
370
               5
390
0
  6
Continuous
 62
               7
100
AcDbLine
 10
452.71742150574778
 20
312.00316330734267
 30
0.0
 11
415.71742150574778
 21
275.00316330734267
 31
0.0
  0
LINE
  5
164
100
AcDbEntity
  8
0
370
               5
390
0
  6
Continuous
 62
               7
100
AcDbLine
 10
432.71742150574778
 20
312.00316330734267
 30
0.0
 11
395.71742150574778
 21
275.00316330734267
 31
0.0
  0
ENDBLK
  5
165
100
AcDbEntity
  8
template
390
0
100
AcDbBlockEnd
  0
BLOCK
  5
166
100
AcDbEntity
  8
template
390
0
100
AcDbBlockBegin
  2
グループ-5
 70
               0
 10
0.0
 20
0.0
 30
0.0
  3
グループ-5
  1

  0
LWPOLYLINE
  5
167
100
AcDbEntity
  8
0
370
              15
390
0
  6
Continuous
 62
               7
100
AcDbPolyline
 90
        8
 70
             129
 10
581.42885842909664
 20
-1890.0135251435524
 10
581.42885842909664
 20
-1896.0109138371283
 10
571.92766151109345
 20
-1896.0109138371283
 10
571.92766151109345
 20
-1920.4618771006369
 10
563.572284249311
 20
-1920.4618771006369
 10
563.572284249311
 20
-1896.0109138371283
 10
554.23932730300157
 20
-1896.0109138371283
 10
554.23932730300157
 20
-1890.0135251435524
  0
LWPOLYLINE
  5
168
100
AcDbEntity
  8
0
370
              15
390
0
  6
Continuous
 62
               7
100
AcDbPolyline
 90
      101
 70
             128
 10
594.15715025965392
 20
-1890.7417736364889
 10
594.17250028844046
 20
-1890.7374128798033
 42
-0.0222221607812046
 10
594.46250486510962
 20
-1890.6687884145592
 10
594.47829862910044
 20
-1890.6657849914627
 42
-0.0146883565587379
 10
594.74100133432739
 20
-1890.6237818045129
 42
-0.0127458844184813
 10
595.00564030147768
 20
-1890.5962448364405
 10
595.06809537979325
 20
-1890.5913514138522
 42
-0.0198099018563684
 10
595.45894448927061
 20
-1890.5762662564555
 10
595.51075595871407
 20
-1890.5763200321205
 42
-0.0147617382765542
 10
596.00537941968503
 20
-1890.5914400573652
 10
596.07807087456638
 20
-1890.5958126642531
 42
-0.0162624549000461
 10
596.4682245040276
 20
-1890.6320455395253
 10
596.58975689528404
 20
-1890.6473320985215
 42
-0.0080020874670621
 10
596.73533592637841
 20
-1890.6680149457902
 10
596.77365539696962
 20
-1890.6740862236006
 42
-0.0053821929667203
 10
596.84213950228832
 20
-1890.6856937474229
 10
596.11573380308937
 20
-1892.8666222031368
 42
0.0108667757404533
 10
596.04841673295402
 20
-1892.8534350879161
 10
596.01094870976931
 20
-1892.8469373453224
 42
0.0170663203311179
 10
595.86773192285511
 20
-1892.8271077480308
 10
595.79985659017075
 20
-1892.8200605774432
 42
0.0220162375275782
 10
595.51947718231429
 20
-1892.8033782166731
 10
595.44162161526208
 20
-1892.8021788494066
 42
0.028260691578875
 10
595.10598529168556
 20
-1892.8159821263757
 10
595.06207201791551
 20
-1892.8202821163793
 42
0.0169677213683582
 10
594.816147522954
 20
-1892.8528191659314
 42
0.0190576269869961
 10
594.57323956037158
 20
-1892.9029660380381
 10
594.56698037226306
 20
-1892.9045090121469
 42
0.02136856428438
 10
594.31659588778678
 20
-1892.9777092972513
 10
594.31110599286922
 20
-1892.9795722933109
 42
0.0237595297595978
 10
594.05761110796709
 20
-1893.0792568152081
 10
594.05250903394108
 20
-1893.0815485906846
 42
0.0261857468814018
 10
593.80033825771397
 20
-1893.2110849280575
 10
593.78991206862236
 20
-1893.2171504025284
 42
0.0272553062021177
 10
593.55348229338551
 20
-1893.3725226084719
 10
593.51871927987906
 20
-1893.3981837565618
 42
0.0325996893175009
 10
593.36856393622475
 20
-1893.5249316295353
 10
593.3448545070986
 20
-1893.5477496580511
 42
0.013805096064586
 10
593.25297135089158
 20
-1893.6411993196
 42
0.012528010379525
 10
593.16612881806168
 20
-1893.7393626461958
 10
593.14244837314982
 20
-1893.7675211443875
 42
0.0205218024737424
 10
593.01734829763427
 20
-1893.9293144586193
 10
592.99488195714912
 20
-1893.9609741884435
 42
0.0163110129576428
 10
592.83917157789904
 20
-1894.1963046235107
 10
592.83644768184649
 20
-1894.2007283854989
 42
0.0131897341904032
 10
592.68964716093899
 20
-1894.4538604778659
 10
592.68794706557401
 20
-1894.4569787169989
 42
0.0107895576055908
 10
592.55017036336562
 20
-1894.7231939266292
 10
592.54943747383822
 20
-1894.7246881592805
 42
0.0091371507225651
 10
592.42095752518833
 20
-1894.9992133570411
 10
592.39121189377965
 20
-1895.065919864199
 42
0.0135418326345099
 10
592.2194979547063
 20
-1895.4808576494722
 10
592.18589314627354
 20
-1895.5687237917496
 42
0.0092834542413922
 10
592.0146640863527
 20
-1896.0426222900544
 10
591.98904695863484
 20
-1896.1178633598486
 42
0.0054261043582656
 10
591.88140881034224
 20
-1896.4456273329129
 10
591.86388282417397
 20
-1896.501015495114
 42
0.0008225090803432
 10
591.79521277233425
 20
-1896.719284253292
 10
590.81052364040124
 20
-1899.7441755465486
 10
594.043147480475
 20
-1899.7441755465486
 10
593.53895505062201
 20
-1901.648653844901
 10
590.28289876863846
 20
-1901.648653844901
 10
584.45374973628486
 20
-1920.4618769109059
 10
582.62865212597399
 20
-1920.4618769109059
 10
588.46333016147537
 20
-1901.648653844901
 10
586.05821379243434
 20
-1901.648653844901
 10
586.56240622228825
 20
-1899.7441755465486
 10
588.99095503323815
 20
-1899.7441755465486
 10
589.85110995142668
 20
-1897.1077625458499
 42
-0.0005863560635115
 10
589.88784462960518
 20
-1896.9909361256371
 10
589.9639324632908
 20
-1896.7499438261727
 42
-0.0087522378925678
 10
590.16340060674736
 20
-1896.1546677390279
 10
590.255664882161
 20
-1895.8945275705141
 42
-0.0077400953829451
 10
590.51359854129214
 20
-1895.2015228929649
 10
590.52936351287326
 20
-1895.1610920095732
 42
-0.0082369946332152
 10
590.77644798348274
 20
-1894.5570129433831
 42
-0.0085725238366383
 10
591.0436940794832
 20
-1893.9615869041018
 10
591.14532368049595
 20
-1893.7451658021057
 42
-0.0168109410594263
 10
591.43226810922351
 20
-1893.1839582760067
 10
591.55811149964734
 20
-1892.9569942430724
 42
-0.0007817726857317
 10
591.61239584973919
 20
-1892.8594499979781
 10
591.61252415574279
 20
-1892.8592202892662
 42
-0.003662614216563
 10
591.66741201977766
 20
-1892.762622409273
 42
-0.0080221150673173
 10
591.72453627518291
 20
-1892.6673431745226
 10
591.75523622654555
 20
-1892.6179522253981
 42
-0.0202139325573826
 10
591.8828919663539
 20
-1892.4299706247145
 10
591.93695943153989
 20
-1892.3568917604759
 42
-0.0249323791798201
 10
592.19612222525757
 20
-1892.040846518323
 10
592.22026203938594
 20
-1892.0142322454089
 42
-0.0242132121542179
 10
592.55994278093033
 20
-1891.6743487592028
 10
592.60785435367848
 20
-1891.6308396230188
 42
-0.0251017527857432
 10
592.89183605431936
 20
-1891.3978468772541
 10
592.89328153112922
 20
-1891.396777619678
 42
-0.0130868069037281
 10
593.19154218109043
 20
-1891.1879971511325
 10
593.19310400023357
 20
-1891.1869637108573
 42
-0.0290329526394638
 10
593.50421514162645
 20
-1891.0061382092283
 10
593.53406070360677
 20
-1890.9910358263917
 42
-0.0160250190049444
 10
593.79996511737727
 20
-1890.8670197161755
 42
-0.0267600374786389
 10
594.07524119484799
 20
-1890.7662713956263
 10
594.10197711436695
 20
-1890.7580788368011
 42
-0.0049981587710693
 10
594.15715025965392
 20
-1890.7417736364889
 42
-0.0049981587710693
  0
LWPOLYLINE
  5
169
100
AcDbEntity
  8
0
370
              15
390
0
  6
Continuous
 62
               7
100
AcDbPolyline
 90
      118
 70
             128
 10
613.97151782410083
 20
-1899.8181588743762
 10
615.84663974860041
 20
-1899.8181588743762
 10
615.00860084300029
 20
-1902.499725400776
 42
-0.001058722925599
 10
615.0400566586037
 20
-1902.4628208673832
 10
615.098250749204
 20
-1902.3948386112452
 42
-0.007187474039777
 10
615.24862596729588
 20
-1902.2241979192233
 10
615.3903487405646
 20
-1902.0679617779028
 42
-0.0148118053513591
 10
615.84047803327667
 20
-1901.6003479318902
 10
615.9277003681749
 20
-1901.5149506110404
 42
-0.0086273358694697
 10
616.26324916918702
 20
-1901.1975749770199
 10
616.30708288542257
 20
-1901.157525332678
 42
-0.0103138323112367
 10
616.56510658764637
 20
-1900.9313621953486
 10
616.61088099395761
 20
-1900.8928801481018
 42
-0.0060206748572861
 10
616.78372905808601
 20
-1900.7510854973339
 10
616.78576018897127
 20
-1900.7494597917032
 42
-0.0067069027296615
 10
616.95805300363463
 20
-1900.6153091579076
 10
616.96060176956667
 20
-1900.6133789880278
 42
-0.0076184352039176
 10
617.1315070354317
 20
-1900.4880041127885
 42
-0.0089652861681125
 10
617.30646799817009
 20
-1900.3683708524534
 10
617.34281971831217
 20
-1900.3444596389725
 42
-0.0156916245926948
 10
617.53877921547155
 20
-1900.2241971524986
 42
-0.0023299011063707
 10
617.73904125943284
 20
-1900.1110192129677
 10
617.75442539183086
 20
-1900.1024192178929
 42
-0.0107669341488734
 10
617.98866221692879
 20
-1899.9780190845449
 10
618.0109270180069
 20
-1899.9668023345935
 42
-0.0078058045898629
 10
618.29451713595085
 20
-1899.8294408789591
 10
618.30442422366878
 20
-1899.8248317510865
 42
-0.0181829330473069
 10
618.61473362828542
 20
-1899.6939680099906
 10
618.66878907085493
 20
-1899.6734528900461
 42
-0.0208411536032019
 10
619.01787403830167
 20
-1899.5573624275544
 10
619.03223013842626
 20
-1899.5532439826018
 42
-0.0222799817136038
 10
619.36094993234656
 20
-1899.4746024164606
 10
619.36983889558837
 20
-1899.4728904058745
 42
-0.0215509523883094
 10
619.68630986386324
 20
-1899.4259747173412
 10
619.72879182491033
 20
-1899.4215371905505
 42
-0.0182545924869
 10
619.96290060421734
 20
-1899.4056933651596
 10
620.00230162056164
 20
-1899.4044688200804
 42
-0.0072962856533335
 10
620.15822450025416
 20
-1899.4018994915582
 10
620.18732417082742
 20
-1899.4018446561545
 42
-0.0059227516308727
 10
620.2850736699711
 20
-1899.4028183679447
 10
620.31431588745238
 20
-1899.4034561345482
 42
-0.0011833111905783
 10
620.35356717117565
 20
-1899.404405138858
 10
619.55818057556871
 20
-1901.943139083957
 42
0.0143932051485689
 10
619.53177919321422
 20
-1901.9329401139107
 10
619.52450722080039
 20
-1901.9303688950545
 42
0.0234388603516704
 10
619.48267635486775
 20
-1901.9177496593388
 10
619.4739946919558
 20
-1901.915568697334
 42
0.0199162742989193
 10
619.41370585787251
 20
-1901.9029519619983
 10
619.39289192006981
 20
-1901.8994547625705
 42
0.0293643550665652
 10
619.28981706131253
 20
-1901.8883047169174
 10
619.26513188059016
 20
-1901.8870930998987
 42
0.0214606686869234
 10
619.11199096463793
 20
-1901.8861545394814
 10
619.10261905381958
 20
-1901.8864994510257
 42
0.0167564054176845
 10
618.93109886270986
 20
-1901.8985764933939
 10
618.92263906995231
 20
-1901.8994578338209
 42
0.0137677553246969
 10
618.73528575668297
 20
-1901.9242071423648
 10
618.7279340171799
 20
-1901.9253850623322
 42
0.011849726148492
 10
618.52743625307664
 20
-1901.9624024125217
 10
618.52128624583111
 20
-1901.9636892752414
 42
0.0106421143887839
 10
618.31040535855584
 20
-1902.0125216508138
 10
618.30549655015693
 20
-1902.0137689935013
 42
0.0099746379703739
 10
618.08703808099256
 20
-1902.0739435218168
 10
618.02549004082448
 20
-1902.0922254004468
 42
0.0191613675863569
 10
617.68950557830419
 20
-1902.2062027807356
 10
617.60144580556153
 20
-1902.2398896910588
 42
0.0205274080144619
 10
617.21613903366278
 20
-1902.4057180988846
 10
617.15848975168797
 20
-1902.4333860634533
 42
0.018125691218819
 10
616.90021281101372
 20
-1902.5690698824346
 10
616.84725742769751
 20
-1902.5993874956507
 42
0.0140709242411895
 10
616.70230249307133
 20
-1902.6878821690837
 10
616.67605362445249
 20
-1902.7049389877993
 42
0.0086667884399039
 10
616.5871274629103
 20
-1902.7649416556819
 42
0.0036408192023304
 10
616.49969422487436
 20
-1902.8271225134763
 10
616.46446735040854
 20
-1902.8525634593871
 42
0.0052260781276026
 10
616.30823865301477
 20
-1902.9678958460233
 10
616.29203179675778
 20
-1902.9801239566395
 42
0.0050024435896527
 10
616.10602845369976
 20
-1903.1234065249012
 10
616.0907102971837
 20
-1903.1354525473475
 42
0.0136138710284223
 10
615.88026902885713
 20
-1903.3104190522622
 10
615.84660115306497
 20
-1903.3399980249751
 42
0.0172815186912338
 10
615.58219761140333
 20
-1903.5889946975976
 10
615.57963526555977
 20
-1903.5915805147456
 42
0.0189403857992541
 10
615.32905346698226
 20
-1903.8643857795475
 10
615.29642197344265
 20
-1903.902729711049
 42
0.0185044199512741
 10
615.10446553446445
 20
-1904.14597829217
 42
0.0088565243894382
 10
614.92600542783941
 20
-1904.3994947123153
 10
614.91682744818763
 20
-1904.4130360920801
 42
0.0157195347232155
 10
614.73360684185093
 20
-1904.7025583014001
 10
614.68752389992403
 20
-1904.7807104984142
 42
0.0095451879779255
 10
614.52243834978526
 20
-1905.0733051407731
 10
614.51129043085484
 20
-1905.0939758129066
 42
0.0100351706251882
 10
614.37924668169626
 20
-1905.3510313733959
 42
0.0086935915424343
 10
614.25691552989986
 20
-1905.6128645188053
 10
614.25359478848759
 20
-1905.6203068417722
 42
0.0072580174864632
 10
614.13324833654269
 20
-1905.9008988333549
 10
614.12998670323623
 20
-1905.908818859373
 42
0.0060005122617907
 10
614.01078603489384
 20
-1906.2084285299775
 10
614.00757505655201
 20
-1906.2167900578829
 42
0.0049017786978049
 10
613.88867489769075
 20
-1906.5357190384982
 10
613.88550909130436
 20
-1906.5444719757177
 42
0.0039415167603287
 10
613.76607281324675
 20
-1906.8830140381335
 10
613.76294171059544
 20
-1906.8921172390069
 42
0.0031035838761923
 10
613.64213692491194
 20
-1907.2505571007505
 10
613.6390268803716
 20
-1907.2599777221553
 42
0.0025070747156915
 10
613.51612552905613
 20
-1907.6386249390994
 10
613.47883163263077
 20
-1907.7555166043524
 42
0.0029081910283618
 10
613.28681333481632
 20
-1908.3696802626564
 10
613.24601016630322
 20
-1908.5029035049199
 42
0.0009266453733538
 10
612.97759279197771
 20
-1909.3851279648795
 10
612.95670531934184
 20
-1909.4542398440997
 42
-0.0005809993665352
 10
612.67936863875684
 20
-1910.3680479507182
 10
612.61308684047924
 20
-1910.5855328828929
 42
-0.0012018708166011
 10
612.46610253105473
 20
-1911.0636955473985
 10
612.41378267949631
 20
-1911.2324546882417
 42
-0.0002691059618254
 10
612.37021319832047
 20
-1911.3727223086064
 10
609.53725730003089
 20
-1920.4618769109059
 10
607.71926840805236
 20
-1920.4618769109059
 10
613.97151782410083
 20
-1899.8181588743762
  0
SPLINE
  5
16A
100
AcDbEntity
  8
0
370
              15
390
0
  6
Continuous
 62
               7
100
AcDbSpline
210
0.0
220
0.0
230
1.0
 70
              13
 71
               2
 72
             782
 73
             779
 74
               0
 42
0.000001
 43
0.000001
 40
0.0
 40
0.0
 40
0.0
 40
1.0
 40
1.0
 40
2.0
 40
2.0
 40
3.0
 40
3.0
 40
4.0
 40
4.0
 40
5.0
 40
5.0
 40
6.0
 40
6.0
 40
7.0
 40
7.0
 40
8.0
 40
8.0
 40
9.0
 40
9.0
 40
10.0
 40
10.0
 40
11.0
 40
11.0
 40
12.0
 40
12.0
 40
13.0
 40
13.0
 40
14.0
 40
14.0
 40
15.0
 40
15.0
 40
16.0
 40
16.0
 40
17.0
 40
17.0
 40
18.0
 40
18.0
 40
19.0
 40
19.0
 40
20.0
 40
20.0
 40
21.0
 40
21.0
 40
22.0
 40
22.0
 40
23.0
 40
23.0
 40
24.0
 40
24.0
 40
25.0
 40
25.0
 40
26.0
 40
26.0
 40
27.0
 40
27.0
 40
28.0
 40
28.0
 40
29.0
 40
29.0
 40
30.0
 40
30.0
 40
31.0
 40
31.0
 40
32.0
 40
32.0
 40
33.0
 40
33.0
 40
34.0
 40
34.0
 40
35.0
 40
35.0
 40
36.0
 40
36.0
 40
37.0
 40
37.0
 40
38.0
 40
38.0
 40
39.0
 40
39.0
 40
40.0
 40
40.0
 40
41.0
 40
41.0
 40
42.0
 40
42.0
 40
43.0
 40
43.0
 40
44.0
 40
44.0
 40
45.0
 40
45.0
 40
46.0
 40
46.0
 40
47.0
 40
47.0
 40
48.0
 40
48.0
 40
49.0
 40
49.0
 40
50.0
 40
50.0
 40
51.0
 40
51.0
 40
52.0
 40
52.0
 40
53.0
 40
53.0
 40
54.0
 40
54.0
 40
55.0
 40
55.0
 40
56.0
 40
56.0
 40
57.0
 40
57.0
 40
58.0
 40
58.0
 40
59.0
 40
59.0
 40
60.0
 40
60.0
 40
61.0
 40
61.0
 40
62.0
 40
62.0
 40
63.0
 40
63.0
 40
64.0
 40
64.0
 40
65.0
 40
65.0
 40
66.0
 40
66.0
 40
67.0
 40
67.0
 40
68.0
 40
68.0
 40
69.0
 40
69.0
 40
70.0
 40
70.0
 40
71.0
 40
71.0
 40
72.0
 40
72.0
 40
73.0
 40
73.0
 40
74.0
 40
74.0
 40
75.0
 40
75.0
 40
76.0
 40
76.0
 40
77.0
 40
77.0
 40
78.0
 40
78.0
 40
79.0
 40
79.0
 40
80.0
 40
80.0
 40
81.0
 40
81.0
 40
82.0
 40
82.0
 40
83.0
 40
83.0
 40
84.0
 40
84.0
 40
85.0
 40
85.0
 40
86.0
 40
86.0
 40
87.0
 40
87.0
 40
88.0
 40
88.0
 40
89.0
 40
89.0
 40
90.0
 40
90.0
 40
91.0
 40
91.0
 40
92.0
 40
92.0
 40
93.0
 40
93.0
 40
94.0
 40
94.0
 40
95.0
 40
95.0
 40
96.0
 40
96.0
 40
97.0
 40
97.0
 40
98.0
 40
98.0
 40
99.0
 40
99.0
 40
100.0
 40
100.0
 40
101.0
 40
101.0
 40
102.0
 40
102.0
 40
103.0
 40
103.0
 40
104.0
 40
104.0
 40
105.0
 40
105.0
 40
106.0
 40
106.0
 40
107.0
 40
107.0
 40
108.0
 40
108.0
 40
109.0
 40
109.0
 40
110.0
 40
110.0
 40
111.0
 40
111.0
 40
112.0
 40
112.0
 40
113.0
 40
113.0
 40
114.0
 40
114.0
 40
115.0
 40
115.0
 40
116.0
 40
116.0
 40
117.0
 40
117.0
 40
118.0
 40
118.0
 40
119.0
 40
119.0
 40
120.0
 40
120.0
 40
121.0
 40
121.0
 40
122.0
 40
122.0
 40
123.0
 40
123.0
 40
124.0
 40
124.0
 40
125.0
 40
125.0
 40
126.0
 40
126.0
 40
127.0
 40
127.0
 40
128.0
 40
128.0
 40
129.0
 40
129.0
 40
130.0
 40
130.0
 40
131.0
 40
131.0
 40
132.0
 40
132.0
 40
133.0
 40
133.0
 40
134.0
 40
134.0
 40
135.0
 40
135.0
 40
136.0
 40
136.0
 40
137.0
 40
137.0
 40
138.0
 40
138.0
 40
139.0
 40
139.0
 40
140.0
 40
140.0
 40
141.0
 40
141.0
 40
142.0
 40
142.0
 40
143.0
 40
143.0
 40
144.0
 40
144.0
 40
145.0
 40
145.0
 40
146.0
 40
146.0
 40
147.0
 40
147.0
 40
148.0
 40
148.0
 40
149.0
 40
149.0
 40
150.0
 40
150.0
 40
151.0
 40
151.0
 40
152.0
 40
152.0
 40
153.0
 40
153.0
 40
154.0
 40
154.0
 40
155.0
 40
155.0
 40
156.0
 40
156.0
 40
157.0
 40
157.0
 40
158.0
 40
158.0
 40
159.0
 40
159.0
 40
160.0
 40
160.0
 40
161.0
 40
161.0
 40
162.0
 40
162.0
 40
163.0
 40
163.0
 40
164.0
 40
164.0
 40
165.0
 40
165.0
 40
166.0
 40
166.0
 40
167.0
 40
167.0
 40
168.0
 40
168.0
 40
169.0
 40
169.0
 40
170.0
 40
170.0
 40
171.0
 40
171.0
 40
172.0
 40
172.0
 40
173.0
 40
173.0
 40
174.0
 40
174.0
 40
175.0
 40
175.0
 40
176.0
 40
176.0
 40
177.0
 40
177.0
 40
178.0
 40
178.0
 40
179.0
 40
179.0
 40
180.0
 40
180.0
 40
181.0
 40
181.0
 40
182.0
 40
182.0
 40
183.0
 40
183.0
 40
184.0
 40
184.0
 40
185.0
 40
185.0
 40
186.0
 40
186.0
 40
187.0
 40
187.0
 40
188.0
 40
188.0
 40
189.0
 40
189.0
 40
190.0
 40
190.0
 40
191.0
 40
191.0
 40
192.0
 40
192.0
 40
193.0
 40
193.0
 40
194.0
 40
194.0
 40
195.0
 40
195.0
 40
196.0
 40
196.0
 40
197.0
 40
197.0
 40
198.0
 40
198.0
 40
199.0
 40
199.0
 40
200.0
 40
200.0
 40
201.0
 40
201.0
 40
202.0
 40
202.0
 40
203.0
 40
203.0
 40
204.0
 40
204.0
 40
205.0
 40
205.0
 40
206.0
 40
206.0
 40
207.0
 40
207.0
 40
208.0
 40
208.0
 40
209.0
 40
209.0
 40
210.0
 40
210.0
 40
211.0
 40
211.0
 40
212.0
 40
212.0
 40
213.0
 40
213.0
 40
214.0
 40
214.0
 40
215.0
 40
215.0
 40
216.0
 40
216.0
 40
217.0
 40
217.0
 40
218.0
 40
218.0
 40
219.0
 40
219.0
 40
220.0
 40
220.0
 40
221.0
 40
221.0
 40
222.0
 40
222.0
 40
223.0
 40
223.0
 40
224.0
 40
224.0
 40
225.0
 40
225.0
 40
226.0
 40
226.0
 40
227.0
 40
227.0
 40
228.0
 40
228.0
 40
229.0
 40
229.0
 40
230.0
 40
230.0
 40
231.0
 40
231.0
 40
232.0
 40
232.0
 40
233.0
 40
233.0
 40
234.0
 40
234.0
 40
235.0
 40
235.0
 40
236.0
 40
236.0
 40
237.0
 40
237.0
 40
238.0
 40
238.0
 40
239.0
 40
239.0
 40
240.0
 40
240.0
 40
241.0
 40
241.0
 40
242.0
 40
242.0
 40
243.0
 40
243.0
 40
244.0
 40
244.0
 40
245.0
 40
245.0
 40
246.0
 40
246.0
 40
247.0
 40
247.0
 40
248.0
 40
248.0
 40
249.0
 40
249.0
 40
250.0
 40
250.0
 40
251.0
 40
251.0
 40
252.0
 40
252.0
 40
253.0
 40
253.0
 40
254.0
 40
254.0
 40
255.0
 40
255.0
 40
256.0
 40
256.0
 40
257.0
 40
257.0
 40
258.0
 40
258.0
 40
259.0
 40
259.0
 40
260.0
 40
260.0
 40
261.0
 40
261.0
 40
262.0
 40
262.0
 40
263.0
 40
263.0
 40
264.0
 40
264.0
 40
265.0
 40
265.0
 40
266.0
 40
266.0
 40
267.0
 40
267.0
 40
268.0
 40
268.0
 40
269.0
 40
269.0
 40
270.0
 40
270.0
 40
271.0
 40
271.0
 40
272.0
 40
272.0
 40
273.0
 40
273.0
 40
274.0
 40
274.0
 40
275.0
 40
275.0
 40
276.0
 40
276.0
 40
277.0
 40
277.0
 40
278.0
 40
278.0
 40
279.0
 40
279.0
 40
280.0
 40
280.0
 40
281.0
 40
281.0
 40
282.0
 40
282.0
 40
283.0
 40
283.0
 40
284.0
 40
284.0
 40
285.0
 40
285.0
 40
286.0
 40
286.0
 40
287.0
 40
287.0
 40
288.0
 40
288.0
 40
289.0
 40
289.0
 40
290.0
 40
290.0
 40
291.0
 40
291.0
 40
292.0
 40
292.0
 40
293.0
 40
293.0
 40
294.0
 40
294.0
 40
295.0
 40
295.0
 40
296.0
 40
296.0
 40
297.0
 40
297.0
 40
298.0
 40
298.0
 40
299.0
 40
299.0
 40
300.0
 40
300.0
 40
301.0
 40
301.0
 40
302.0
 40
302.0
 40
303.0
 40
303.0
 40
304.0
 40
304.0
 40
305.0
 40
305.0
 40
306.0
 40
306.0
 40
307.0
 40
307.0
 40
308.0
 40
308.0
 40
309.0
 40
309.0
 40
310.0
 40
310.0
 40
311.0
 40
311.0
 40
312.0
 40
312.0
 40
313.0
 40
313.0
 40
314.0
 40
314.0
 40
315.0
 40
315.0
 40
316.0
 40
316.0
 40
317.0
 40
317.0
 40
318.0
 40
318.0
 40
319.0
 40
319.0
 40
320.0
 40
320.0
 40
321.0
 40
321.0
 40
322.0
 40
322.0
 40
323.0
 40
323.0
 40
324.0
 40
324.0
 40
325.0
 40
325.0
 40
326.0
 40
326.0
 40
327.0
 40
327.0
 40
328.0
 40
328.0
 40
329.0
 40
329.0
 40
330.0
 40
330.0
 40
331.0
 40
331.0
 40
332.0
 40
332.0
 40
333.0
 40
333.0
 40
334.0
 40
334.0
 40
335.0
 40
335.0
 40
336.0
 40
336.0
 40
337.0
 40
337.0
 40
338.0
 40
338.0
 40
339.0
 40
339.0
 40
340.0
 40
340.0
 40
341.0
 40
341.0
 40
342.0
 40
342.0
 40
343.0
 40
343.0
 40
344.0
 40
344.0
 40
345.0
 40
345.0
 40
346.0
 40
346.0
 40
347.0
 40
347.0
 40
348.0
 40
348.0
 40
349.0
 40
349.0
 40
350.0
 40
350.0
 40
351.0
 40
351.0
 40
352.0
 40
352.0
 40
353.0
 40
353.0
 40
354.0
 40
354.0
 40
355.0
 40
355.0
 40
356.0
 40
356.0
 40
357.0
 40
357.0
 40
358.0
 40
358.0
 40
359.0
 40
359.0
 40
360.0
 40
360.0
 40
361.0
 40
361.0
 40
362.0
 40
362.0
 40
363.0
 40
363.0
 40
364.0
 40
364.0
 40
365.0
 40
365.0
 40
366.0
 40
366.0
 40
367.0
 40
367.0
 40
368.0
 40
368.0
 40
369.0
 40
369.0
 40
370.0
 40
370.0
 40
371.0
 40
371.0
 40
372.0
 40
372.0
 40
373.0
 40
373.0
 40
374.0
 40
374.0
 40
375.0
 40
375.0
 40
376.0
 40
376.0
 40
377.0
 40
377.0
 40
378.0
 40
378.0
 40
379.0
 40
379.0
 40
380.0
 40
380.0
 40
381.0
 40
381.0
 40
382.0
 40
382.0
 40
383.0
 40
383.0
 40
384.0
 40
384.0
 40
385.0
 40
385.0
 40
386.0
 40
386.0
 40
387.0
 40
387.0
 40
388.0
 40
388.0
 40
389.0
 40
389.0
 40
389.0
 10
624.30022227483323
 20
-1899.8072325110136
 30
0.0
 41
1.0
 10
625.11864638355382
 20
-1899.8072325110136
 30
0.0
 41
1.0
 10
625.93707049227442
 20
-1899.8072325110136
 30
0.0
 41
1.0
 10
625.52331675675759
 20
-1901.1498587752633
 30
0.0
 41
1.0
 10
625.10956302124077
 20
-1902.492485039513
 30
0.0
 41
1.0
 10
625.12790251642286
 20
-1902.4637842665795
 30
0.0
 41
0.9999957264410295
 10
625.14640951326828
 20
-1902.4351912164061
 30
0.0
 41
1.0
 10
625.17683883739096
 20
-1902.3881783380527
 30
0.0
 41
1.0
 10
625.20726816151364
 20
-1902.3411654596994
 30
0.0
 41
1.0
 10
625.28663380661897
 20
-1902.2185466527969
 30
0.0
 41
0.9995394069081175
 10
625.37329219816877
 20
-1902.1009685910581
 30
0.0
 41
1.0
 10
625.40904906042965
 20
-1902.0524536984631
 30
0.0
 41
1.0
 10
625.44480592269065
 20
-1902.0039388058681
 30
0.0
 41
1.0
 10
625.57853259050876
 20
-1901.8224985307411
 30
0.0
 41
0.999446061714341
 10
625.72403307179729
 20
-1901.6503561330908
 30
0.0
 41
1.0
 10
625.72842125277316
 20
-1901.6451644527074
 30
0.0
 41
1.0
 10
625.73280943374891
 20
-1901.6399727723237
 30
0.0
 41
1.0
 10
625.86953355308526
 20
-1901.4782137354409
 30
0.0
 41
0.9994359394933954
 10
626.01680778343689
 20
-1901.3259975342764
 30
0.0
 41
1.0
 10
626.019191137392
 20
-1901.3235342039015
 30
0.0
 41
1.0
 10
626.02157449134722
 20
-1901.3210708735264
 30
0.0
 41
1.0
 10
626.16408201379079
 20
-1901.1737813331097
 30
0.0
 41
0.9995293688567863
 10
626.31535369477069
 20
-1901.0355081209477
 30
0.0
 41
1.0
 10
626.33464745403194
 20
-1901.0178722352985
 30
0.0
 41
1.0
 10
626.3539412132933
 20
-1901.000236349649
 30
0.0
 41
1.0
 10
626.46662537575276
 20
-1900.8972349087837
 30
0.0
 41
0.9997087614802445
 10
626.58414826470789
 20
-1900.7997906279859
 30
0.0
 41
1.0
 10
626.6033143378811
 20
-1900.7838990494797
 30
0.0
 41
1.0
 10
626.62248041105431
 20
-1900.7680074709738
 30
0.0
 41
1.0
 10
626.70167115366075
 20
-1900.7023463471899
 30
0.0
 41
0.9999595338694788
 10
626.78203042451787
 20
-1900.6381206165329
 30
0.0
 41
1.0
 10
626.86238969537521
 20
-1900.5738948858757
 30
0.0
 41
0.9999749417497663
 10
626.94365022972283
 20
-1900.5108133319263
 30
0.0
 41
1.0
 10
626.96463637587931
 20
-1900.4945220446293
 30
0.0
 41
1.0
 10
626.98562252203567
 20
-1900.4782307573325
 30
0.0
 41
1.0
 10
627.07019040734565
 20
-1900.4125817474853
 30
0.0
 41
0.9999792037125691
 10
627.1555980071189
 20
-1900.3480289658389
 30
0.0
 41
1.0
 10
627.17642283303144
 20
-1900.3322891435805
 30
0.0
 41
1.0
 10
627.19724765894387
 20
-1900.3165493213219
 30
0.0
 41
1.0
 10
627.24100560690727
 20
-1900.2834761841809
 30
0.0
 41
0.9999993374019471
 10
627.28468729303177
 20
-1900.2503023887714
 30
0.0
 41
1.0
 10
627.32836897917196
 20
-1900.2171285933498
 30
0.0
 41
0.9999160953815006
 10
627.37289539009282
 20
-1900.1850975281504
 30
0.0
 41
1.0
 10
627.40571727751308
 20
-1900.1614863725649
 30
0.0
 41
1.0
 10
627.43853916493345
 20
-1900.1378752169792
 30
0.0
 41
1.0
 10
627.54870935069175
 20
-1900.0586218406111
 30
0.0
 41
0.9980964527230865
 10
627.66779834419333
 20
-1899.9935343677546
 30
0.0
 41
1.0
 10
627.70483095112138
 20
-1899.9732943881615
 30
0.0
 41
1.0
 10
627.74186355804943
 20
-1899.9530544085685
 30
0.0
 41
1.0
 10
627.92119057132265
 20
-1899.8550441578675
 30
0.0
 41
0.9984572810572976
 10
628.11027913768066
 20
-1899.7775218965214
 30
0.0
 41
1.0
 10
628.11392540707402
 20
-1899.7760270041845
 30
0.0
 41
1.0
 10
628.11757167646738
 20
-1899.7745321118475
 30
0.0
 41
1.0
 10
628.29936770403708
 20
-1899.6999996351758
 30
0.0
 41
0.9987838528033742
 10
628.48762036259905
 20
-1899.6437339950091
 30
0.0
 41
1.0
 10
628.49185831180034
 20
-1899.642467341318
 30
0.0
 41
1.0
 10
628.49609626100153
 20
-1899.6412006876271
 30
0.0
 41
1.0
 10
628.67587302116056
 20
-1899.5874683548429
 30
0.0
 41
0.9990652816207518
 10
628.85961895287392
 20
-1899.5494646753014
 30
0.0
 41
1.0
 10
628.86480735390307
 20
-1899.5483915721952
 30
0.0
 41
1.0
 10
628.86999575493223
 20
-1899.5473184690893
 30
0.0
 41
1.0
 10
629.04336488458739
 20
-1899.5114609957595
 30
0.0
 41
0.9992909934270037
 10
629.21894065104789
 20
-1899.4887505632928
 30
0.0
 41
1.0
 10
629.39451641750907
 20
-1899.4660401308261
 30
0.0
 41
0.9994553539449119
 10
629.57120785060545
 20
-1899.4549608266195
 30
0.0
 41
1.0
 10
629.60664225839719
 20
-1899.4527389385721
 30
0.0
 41
1.0
 10
629.64207666618893
 20
-1899.4505170505245
 30
0.0
 41
1.0
 10
629.80830243275955
 20
-1899.4400939881127
 30
0.0
 41
0.9990928098292939
 10
629.97481222466286
 20
-1899.4438536293474
 30
0.0
 41
1.0
 10
630.01337405993661
 20
-1899.4447243208804
 30
0.0
 41
1.0
 10
630.05193589521036
 20
-1899.4455950124134
 30
0.0
 41
1.0
 10
630.1413220165673
 20
-1899.447613270582
 30
0.0
 41
0.9998382089204806
 10
630.23057769935167
 20
-1899.45284539711
 30
0.0
 41
1.0
 10
630.23100760556827
 20
-1899.4528705980119
 30
0.0
 41
1.0
 10
630.23143751178486
 20
-1899.4528957989141
 30
0.0
 41
1.0
 10
630.31983338213456
 20
-1899.4580775236375
 30
0.0
 41
0.9997558016757856
 10
630.40791395933866
 20
-1899.4671600390045
 30
0.0
 41
1.0
 10
630.40839009776948
 20
-1899.4672091364873
 30
0.0
 41
1.0
 10
630.40886623620031
 20
-1899.4672582339699
 30
0.0
 41
1.0
 10
630.49599453654059
 20
-1899.4762425543713
 30
0.0
 41
0.9996565144182209
 10
630.58253238988164
 20
-1899.48977986106
 30
0.0
 41
1.0
 10
630.58299831526017
 20
-1899.4898527467915
 30
0.0
 41
1.0
 10
630.5834642406387
 20
-1899.489925632523
 30
0.0
 41
1.0
 10
630.6690702432245
 20
-1899.5033171677492
 30
0.0
 41
0.9995321806867403
 10
630.75369732355148
 20
-1899.5219176561782
 30
0.0
 41
1.0
 10
630.75408651812154
 20
-1899.5220031986437
 30
0.0
 41
1.0
 10
630.75447571269149
 20
-1899.5220887411092
 30
0.0
 41
1.0
 10
630.83832440387789
 20
-1899.5405181446069
 30
0.0
 41
0.9993819199218648
 10
630.92067093807555
 20
-1899.5647935278682
 30
0.0
 41
1.0
 10
630.920909371574
 20
-1899.5648638169778
 30
0.0
 41
1.0
 10
630.92114780507256
 20
-1899.5649341060873
 30
0.0
 41
1.0
 10
631.00301747227275
 20
-1899.5890689111293
 30
0.0
 41
0.999208856850629
 10
631.08270999126034
 20
-1899.6196341469233
 30
0.0
 41
1.0
 10
631.16239098213953
 20
-1899.6501937476562
 30
0.0
 41
0.9990226101771698
 10
631.23906165204653
 20
-1899.6876711792711
 30
0.0
 41
1.0
 10
631.31572079384443
 20
-1899.7251429758246
 30
0.0
 41
0.9988424273973927
 10
631.38842442105624
 20
-1899.769807751077
 30
0.0
 41
1.0
 10
631.38869212943587
 20
-1899.7699722151494
 30
0.0
 41
1.0
 10
631.38895983781549
 20
-1899.7701366792219
 30
0.0
 41
1.0
 10
631.46219888178621
 20
-1899.8151303826187
 30
0.0
 41
0.9986928844488847
 10
631.53046174849658
 20
-1899.8673661168993
 30
0.0
 41
1.0
 10
631.53104304071917
 20
-1899.867810930127
 30
0.0
 41
1.0
 10
631.53162433294165
 20
-1899.8682557433547
 30
0.0
 41
1.0
 10
631.60104978409618
 20
-1899.9213811040897
 30
0.0
 41
0.9986007262279896
 10
631.66447595386342
 20
-1899.9815418737835
 30
0.0
 41
1.0
 10
631.66537036932073
 20
-1899.9823902416188
 30
0.0
 41
1.0
 10
631.66626478477792
 20
-1899.9832386094538
 30
0.0
 41
1.0
 10
631.73147978545933
 20
-1900.0450961148174
 30
0.0
 41
0.9985581491380492
 10
631.78968739716004
 20
-1900.1135886050879
 30
0.0
 41
1.0
 10
631.79894585075635
 20
-1900.1244829627904
 30
0.0
 41
1.0
 10
631.80820430435278
 20
-1900.1353773204926
 30
0.0
 41
1.0
 10
631.88492882324613
 20
-1900.2256585261675
 30
0.0
 41
0.9970460233519939
 10
631.94692072440614
 20
-1900.3266256103504
 30
0.0
 41
1.0
 10
631.96139008948512
 20
-1900.3501920694309
 30
0.0
 41
1.0
 10
631.9758594545641
 20
-1900.3737585285114
 30
0.0
 41
1.0
 10
632.01559615457677
 20
-1900.438478252544
 30
0.0
 41
0.9988468816637728
 10
632.04894252532813
 20
-1900.5067107049711
 30
0.0
 41
1.0
 10
632.05597854781945
 20
-1900.5211076261082
 30
0.0
 41
1.0
 10
632.06301457031088
 20
-1900.5355045472454
 30
0.0
 41
1.0
 10
632.08228889607824
 20
-1900.5749431573952
 30
0.0
 41
0.9998431189997883
 10
632.10015422357492
 20
-1900.6150397118395
 30
0.0
 41
1.0
 10
632.11801955106148
 20
-1900.6551362662613
 30
0.0
 41
0.9999989989722333
 10
632.13599827447888
 20
-1900.6951821038349
 30
0.0
 41
1.0
 10
632.1421705860796
 20
-1900.7089303206621
 30
0.0
 41
1.0
 10
632.14834289768032
 20
-1900.7226785374894
 30
0.0
 41
1.0
 10
632.1786662442903
 20
-1900.7902208086975
 30
0.0
 41
0.9998790356321575
 10
632.20687412442794
 20
-1900.8586735606343
 30
0.0
 41
1.0
 10
632.213709305713
 20
-1900.8752606620637
 30
0.0
 41
1.0
 10
632.22054448699805
 20
-1900.8918477634929
 30
0.0
 41
1.0
 10
632.24410214937768
 20
-1900.949015718377
 30
0.0
 41
0.9998227574561548
 10
632.26549089776654
 20
-1901.0070300266534
 30
0.0
 41
1.0
 10
632.28687964615585
 20
-1901.0650443349309
 30
0.0
 41
0.9996797971041559
 10
632.30530593111484
 20
-1901.1240664540485
 30
0.0
 41
1.0
 10
632.30920973384048
 20
-1901.1365709122176
 30
0.0
 41
1.0
 10
632.31311353656611
 20
-1901.1490753703868
 30
0.0
 41
1.0
 10
632.33934742697659
 20
-1901.233106405843
 30
0.0
 41
0.9979274938734618
 10
632.35457195045581
 20
-1901.3198107645023
 30
0.0
 41
1.0
 10
632.35679563771737
 20
-1901.3324747653253
 30
0.0
 41
1.0
 10
632.35901932497893
 20
-1901.3451387661482
 30
0.0
 41
1.0
 10
632.3699492646773
 20
-1901.4073852734389
 30
0.0
 41
0.9994985982136861
 10
632.37691742985362
 20
-1901.4701987745777
 30
0.0
 41
1.0
 10
632.38388559503005
 20
-1901.5330122757175
 30
0.0
 41
0.9996372611202579
 10
632.38746146079814
 20
-1901.5961098544024
 30
0.0
 41
1.0
 10
632.3876300382874
 20
-1901.5990844714843
 30
0.0
 41
1.0
 10
632.38779861577677
 20
-1901.6020590885662
 30
0.0
 41
1.0
 10
632.39171163652338
 20
-1901.6711059014167
 30
0.0
 41
0.9997730630735562
 10
632.39267995001148
 20
-1901.7402567254499
 30
0.0
 41
1.0
 10
632.3927370564295
 20
-1901.74433490459
 30
0.0
 41
1.0
 10
632.39279416284762
 20
-1901.7484130837302
 30
0.0
 41
1.0
 10
632.39387668917186
 20
-1901.8257202660534
 30
0.0
 41
0.9998772614070383
 10
632.3925366024398
 20
-1901.903023412623
 30
0.0
 41
1.0
 10
632.39244733924113
 20
-1901.9081725764527
 30
0.0
 41
1.0
 10
632.39235807604246
 20
-1901.9133217402823
 30
0.0
 41
1.0
 10
632.39083946291305
 20
-1902.0009232145148
 30
0.0
 41
0.9999415567326367
 10
632.38742715266721
 20
-1902.088471376188
 30
0.0
 41
1.0
 10
632.38718583199181
 20
-1902.094662835927
 30
0.0
 41
1.0
 10
632.38694451131641
 20
-1902.1008542956663
 30
0.0
 41
1.0
 10
632.38304955972012
 20
-1902.2007853768118
 30
0.0
 41
0.9999716810426752
 10
632.3776509766019
 20
-1902.3006465150347
 30
0.0
 41
1.0
 10
632.37443817781309
 20
-1902.360075764693
 30
0.0
 41
1.0
 10
632.37122537902439
 20
-1902.4195050143512
 30
0.0
 41
1.0
 10
632.36315146987101
 20
-1902.5688534156459
 30
0.0
 41
0.9999819129912114
 10
632.35328167825492
 20
-1902.7180938933518
 30
0.0
 41
1.0
 10
632.34341188663848
 20
-1902.8673343710632
 30
0.0
 41
1.0
 10
632.34097256607447
 20
-1902.9045274169127
 30
0.0
 41
1.0
 10
632.36367079989611
 20
-1902.8657864195986
 30
0.0
 41
0.9999982128212658
 10
632.38651535865097
 20
-1902.8271315256418
 30
0.0
 41
1.0
 10
632.41342491854073
 20
-1902.7815983115781
 30
0.0
 41
1.0
 10
632.44033447843049
 20
-1902.7360650975145
 30
0.0
 41
1.0
 10
632.51699815695974
 20
-1902.6063437754394
 30
0.0
 41
0.9998609190056378
 10
632.59794546982607
 20
-1902.4792513935031
 30
0.0
 41
1.0
 10
632.62759379129898
 20
-1902.43270166056
 30
0.0
 41
1.0
 10
632.65724211277177
 20
-1902.386151927617
 30
0.0
 41
1.0
 10
632.73951433301613
 20
-1902.2569793576104
 30
0.0
 41
0.9999067609732069
 10
632.82528334248263
 20
-1902.1301016681648
 30
0.0
 41
1.0
 10
632.82768804568627
 20
-1902.1265444021058
 30
0.0
 41
1.0
 10
632.83009274889002
 20
-1902.1229871360467
 30
0.0
 41
1.0
 10
632.91105235195039
 20
-1902.0032239787176
 30
0.0
 41
0.9998784952149801
 10
632.99570596162766
 20
-1901.8860427620148
 30
0.0
 41
1.0
 10
633.08035957130994
 20
-1901.7688615453051
 30
0.0
 41
0.9998532968284055
 10
633.16897719213307
 20
-1901.6546486368341
 30
0.0
 41
1.0
 10
633.1889389811239
 20
-1901.6289213158143
 30
0.0
 41
1.0
 10
633.20890077011472
 20
-1901.6031939947945
 30
0.0
 41
1.0
 10
633.32738481987315
 20
-1901.4504883838265
 30
0.0
 41
0.9991551975795255
 10
633.45800926949642
 20
-1901.3080288217434
 30
0.0
 41
1.0
 10
633.46151888547365
 20
-1901.3042012201217
 30
0.0
 41
1.0
 10
633.465028501451
 20
-1901.3003736185001
 30
0.0
 41
1.0
 10
633.58863371911843
 20
-1901.1655692596614
 30
0.0
 41
0.9997418144180245
 10
633.71823585882066
 20
-1901.0365198490474
 30
0.0
 41
1.0
 10
633.8478379985205
 20
-1900.9074704384357
 30
0.0
 41
0.9989238204632831
 10
633.98884054677194
 20
-1900.7909854763964
 30
0.0
 41
1.0
 10
634.03408822491224
 20
-1900.7536054847869
 30
0.0
 41
1.0
 10
634.07933590305265
 20
-1900.7162254931777
 30
0.0
 41
1.0
 10
634.21957596027346
 20
-1900.6003704398872
 30
0.0
 41
0.9990825084096611
 10
634.36921589287704
 20
-1900.4969414420545
 30
0.0
 41
1.0
 10
634.37926125693161
 20
-1900.4899982289767
 30
0.0
 41
1.0
 10
634.38930662098608
 20
-1900.4830550158988
 30
0.0
 41
1.0
 10
634.51885582547982
 20
-1900.3935124442223
 30
0.0
 41
0.9998164899826491
 10
634.65174002885715
 20
-1900.3089982027052
 30
0.0
 41
1.0
 10
634.66358558938475
 20
-1900.3014644361785
 30
0.0
 41
1.0
 10
634.67543114991236
 20
-1900.2939306696519
 30
0.0
 41
1.0
 10
634.78462423223527
 20
-1900.2244839611876
 30
0.0
 41
0.9997473449130442
 10
634.89682818948268
 20
-1900.160015003373
 30
0.0
 41
1.0
 10
635.0090321467394
 20
-1900.0955460455532
 30
0.0
 41
0.9999327861148608
 10
635.12270075751144
 20
-1900.0336960538673
 30
0.0
 41
1.0
 10
635.12325276006425
 20
-1900.0333956951924
 30
0.0
 41
1.0
 10
635.12380476261706
 20
-1900.0330953365176
 30
0.0
 41
1.0
 10
635.23857737850301
 20
-1899.9706446274774
 30
0.0
 41
0.9996956420484013
 10
635.35629070434209
 20
-1899.9139311605034
 30
0.0
 41
1.0
 10
635.38673110922969
 20
-1899.8992651837757
 30
0.0
 41
1.0
 10
635.41717151411729
 20
-1899.8845992070483
 30
0.0
 41
1.0
 10
635.52014862086503
 20
-1899.8349855486028
 30
0.0
 41
0.9998070570176078
 10
635.62499500981221
 20
-1899.7894549616988
 30
0.0
 41
1.0
 10
635.72984139876121
 20
-1899.7439243747945
 30
0.0
 41
0.9997827436147121
 10
635.8364943353771
 20
-1899.7028032034805
 30
0.0
 41
1.0
 10
635.85571718500159
 20
-1899.6953916298507
 30
0.0
 41
1.0
 10
635.87494003462598
 20
-1899.687980056221
 30
0.0
 41
1.0
 10
636.02003867049564
 20
-1899.6320357376453
 30
0.0
 41
0.9988031841976269
 10
636.16990903309772
 20
-1899.5905356734784
 30
0.0
 41
1.0
 10
636.19482628146557
 20
-1899.5836359276702
 30
0.0
 41
1.0
 10
636.21974352983352
 20
-1899.5767361818621
 30
0.0
 41
1.0
 10
636.38701355547903
 20
-1899.530418039456
 30
0.0
 41
0.9984748040550419
 10
636.55837046412626
 20
-1899.5028238071914
 30
0.0
 41
1.0
 10
636.56310960037445
 20
-1899.502060646678
 30
0.0
 41
1.0
 10
636.56784873662275
 20
-1899.5012974861647
 30
0.0
 41
1.0
 10
636.72972737277473
 20
-1899.4752295749265
 30
0.0
 41
0.998443649547987
 10
636.8935021164998
 20
-1899.4673516211078
 30
0.0
 41
1.0
 10
636.91519932463245
 20
-1899.466307933908
 30
0.0
 41
1.0
 10
636.9368965327651
 20
-1899.4652642467083
 30
0.0
 41
1.0
 10
637.05727686022567
 20
-1899.4594736672891
 30
0.0
 41
0.9987954789335602
 10
637.17764510513416
 20
-1899.4655101950314
 30
0.0
 41
1.0
 10
637.19760989762858
 20
-1899.4665114393699
 30
0.0
 41
1.0
 10
637.21757469012312
 20
-1899.4675126837085
 30
0.0
 41
1.0
 10
637.29801335004436
 20
-1899.4715467227736
 30
0.0
 41
0.9997941595876103
 10
637.37822212813853
 20
-1899.4788407886947
 30
0.0
 41
1.0
 10
637.4584309062343
 20
-1899.4861348546158
 30
0.0
 41
0.9998589466238232
 10
637.5383494530904
 20
-1899.4961187090662
 30
0.0
 41
1.0
 10
637.57075565489743
 20
-1899.5001670659854
 30
0.0
 41
1.0
 10
637.60316185670445
 20
-1899.5042154229043
 30
0.0
 41
1.0
 10
637.74789280717255
 20
-1899.5222959911921
 30
0.0
 41
0.9993495063249109
 10
637.89094405093545
 20
-1899.5507617009332
 30
0.0
 41
1.0
 10
637.9238777480914
 20
-1899.5573151641488
 30
0.0
 41
1.0
 10
637.95681144524735
 20
-1899.5638686273642
 30
0.0
 41
1.0
 10
638.06610526845179
 20
-1899.5856169614995
 30
0.0
 41
0.9996788715560974
 10
638.17415684040679
 20
-1899.6128747608623
 30
0.0
 41
1.0
 10
638.17621984294783
 20
-1899.6133951874358
 30
0.0
 41
1.0
 10
638.17828284548898
 20
-1899.6139156140091
 30
0.0
 41
1.0
 10
638.28220841236578
 20
-1899.6401325602262
 30
0.0
 41
0.9995480654492664
 10
638.38437064759228
 20
-1899.6725475168498
 30
0.0
 41
1.0
 10
638.38606028972004
 20
-1899.6730836217635
 30
0.0
 41
1.0
 10
638.38774993184779
 20
-1899.6736197266769
 30
0.0
 41
1.0
 10
638.48653288282026
 20
-1899.7049624734739
 30
0.0
 41
0.9993867959456417
 10
638.58288004126416
 20
-1899.7431418427641
 30
0.0
 41
1.0
 10
638.58412299034899
 20
-1899.7436343846603
 30
0.0
 41
1.0
 10
638.5853659394337
 20
-1899.7441269265564
 30
0.0
 41
1.0
 10
638.67922719970704
 20
-1899.7813212120539
 30
0.0
 41
0.9992050256522284
 10
638.76982687474037
 20
-1899.8258751112926
 30
0.0
 41
1.0
 10
638.77056155745424
 20
-1899.8262364037541
 30
0.0
 41
1.0
 10
638.77129624016811
 20
-1899.8265976962157
 30
0.0
 41
1.0
 10
638.86042654977507
 20
-1899.870429010532
 30
0.0
 41
0.9990222350741886
 10
638.94533661116748
 20
-1899.9219622782296
 30
0.0
 41
1.0
 10
638.94552049644994
 20
-1899.9220738811341
 30
0.0
 41
1.0
 10
638.9457043817323
 20
-1899.9221854840389
 30
0.0
 41
1.0
 10
639.03024667256034
 20
-1899.9734955459271
 30
0.0
 41
0.998864274380472
 10
639.10952120718002
 20
-1900.032619733453
 30
0.0
 41
1.0
 10
639.18879574179925
 20
-1900.0917439209784
 30
0.0
 41
0.9987681233310054
 10
639.26181952607442
 20
-1900.1584346123786
 30
0.0
 41
1.0
 10
639.26214845404047
 20
-1900.1587350135931
 30
0.0
 41
1.0
 10
639.26247738200664
 20
-1900.1590354148075
 30
0.0
 41
1.0
 10
639.33615902221402
 20
-1900.2263269086363
 30
0.0
 41
0.9987496570898139
 10
639.40275282754203
 20
-1900.3006397227241
 30
0.0
 41
1.0
 10
639.40352499730216
 20
-1900.3015013960817
 30
0.0
 41
1.0
 10
639.4042971670624
 20
-1900.3023630694393
 30
0.0
 41
1.0
 10
639.47243531191077
 20
-1900.3783992302424
 30
0.0
 41
0.9988147669827933
 10
639.53285756613525
 20
-1900.4607002370838
 30
0.0
 41
1.0
 10
639.5339768922131
 20
-1900.4622248684364
 30
0.0
 41
1.0
 10
639.53509621829107
 20
-1900.4637494997892
 30
0.0
 41
1.0
 10
639.59775712467149
 20
-1900.549099769336
 30
0.0
 41
0.9989452636215103
 10
639.65232403763355
 20
-1900.6398384584952
 30
0.0
 41
1.0
 10
639.65367276371899
 20
-1900.6420812395208
 30
0.0
 41
1.0
 10
639.65502148980431
 20
-1900.6443240205467
 30
0.0
 41
1.0
 10
639.71228585493725
 20
-1900.7395482717575
 30
0.0
 41
0.9991046436070789
 10
639.76129506825873
 20
-1900.8392727047828
 30
0.0
 41
1.0
 10
639.76275892984859
 20
-1900.842251384855
 30
0.0
 41
1.0
 10
639.76422279143844
 20
-1900.8452300649274
 30
0.0
 41
1.0
 10
639.81615972793963
 20
-1900.9509118580968
 30
0.0
 41
0.9992763831101207
 10
639.85991285649527
 20
-1901.0602359200539
 30
0.0
 41
1.0
 10
639.86139212615853
 20
-1901.0639321075873
 30
0.0
 41
1.0
 10
639.86287139582191
 20
-1901.067628295121
 30
0.0
 41
1.0
 10
639.90958306370305
 20
-1901.1843447321421
 30
0.0
 41
0.9994163472883086
 10
639.94821609489316
 20
-1901.3039783206073
 30
0.0
 41
1.0
 10
639.94945424714001
 20
-1901.3078124643903
 30
0.0
 41
1.0
 10
639.95069239938687
 20
-1901.3116466081735
 30
0.0
 41
1.0
 10
639.99057596040336
 20
-1901.4351526696498
 30
0.0
 41
0.9997268055891063
 10
640.02464401631596
 20
-1901.5603877016028
 30
0.0
 41
1.0
 10
640.02557419658569
 20
-1901.5638070677126
 30
0.0
 41
1.0
 10
640.02650437685554
 20
-1901.5672264338223
 30
0.0
 41
1.0
 10
640.05871207222765
 20
-1901.6856227335518
 30
0.0
 41
0.999670131900095
 10
640.08479768899861
 20
-1901.8055166868169
 30
0.0
 41
1.0
 10
640.11088330576945
 20
-1901.9254106400817
 30
0.0
 41
0.9995785451109037
 10
640.12996688310932
 20
-1902.0466164011148
 30
0.0
 41
1.0
 10
640.13418666528264
 20
-1902.0734175558778
 30
0.0
 41
1.0
 10
640.13840644745608
 20
-1902.1002187106405
 30
0.0
 41
1.0
 10
640.16498142339469
 20
-1902.2690046843454
 30
0.0
 41
0.9979925101217247
 10
640.17000700932113
 20
-1902.4397960124365
 30
0.0
 41
1.0
 10
640.17083182174588
 20
-1902.4678267359186
 30
0.0
 41
1.0
 10
640.17165663417052
 20
-1902.4958574594004
 30
0.0
 41
1.0
 10
640.17503259524744
 20
-1902.6105873405304
 30
0.0
 41
0.9995314902263462
 10
640.17138240310896
 20
-1902.7253088242803
 30
0.0
 41
1.0
 10
640.16773221097026
 20
-1902.8400303080334
 30
0.0
 41
0.9996245486944535
 10
640.15780311583944
 20
-1902.9543795791594
 30
0.0
 41
1.0
 10
640.15764006784536
 20
-1902.9562573352932
 30
0.0
 41
1.0
 10
640.15747701985129
 20
-1902.9581350914268
 30
0.0
 41
1.0
 10
640.14722182873265
 20
-1903.0762398748175
 30
0.0
 41
0.9997286095000095
 10
640.1314765051618
 20
-1903.1937387837072
 30
0.0
 41
1.0
 10
640.13108301251089
 20
-1903.1966752084136
 30
0.0
 41
1.0
 10
640.13068951985997
 20
-1903.1996116331197
 30
0.0
 41
1.0
 10
640.11415721098808
 20
-1903.3229833914161
 30
0.0
 41
0.9998265533968946
 10
640.09304175225566
 20
-1903.4456538662023
 30
0.0
 41
1.0
 10
640.09236521011815
 20
-1903.4495842447118
 30
0.0
 41
1.0
 10
640.09168866798063
 20
-1903.4535146232215
 30
0.0
 41
1.0
 10
640.06922012497375
 20
-1903.5840458550235
 30
0.0
 41
0.9999022530851212
 10
640.0431106603661
 20
-1903.713897823651
 30
0.0
 41
1.0
 10
640.04213201919947
 20
-1903.7187649660445
 30
0.0
 41
1.0
 10
640.04115337803296
 20
-1903.7236321084379
 30
0.0
 41
1.0
 10
640.01308663109239
 20
-1903.8632183618511
 30
0.0
 41
0.9999524761941101
 10
639.9823036622555
 20
-1904.0022308550263
 30
0.0
 41
1.0
 10
639.98102755508125
 20
-1904.0079936143234
 30
0.0
 41
1.0
 10
639.97975144790689
 20
-1904.0137563736205
 30
0.0
 41
1.0
 10
639.9464162647223
 20
-1904.1642943853858
 30
0.0
 41
0.9999813588711068
 10
639.91124526393116
 20
-1904.3144140980214
 30
0.0
 41
1.0
 10
639.9096913384717
 20
-1904.3210466884559
 30
0.0
 41
1.0
 10
639.90813741301235
 20
-1904.3276792788904
 30
0.0
 41
1.0
 10
639.86985856129695
 20
-1904.4910641724175
 30
0.0
 41
0.9999955237707342
 10
639.83060268331826
 20
-1904.654217076016
 30
0.0
 41
1.0
 10
639.81832104768614
 20
-1904.7052612665298
 30
0.0
 41
1.0
 10
639.80603941205391
 20
-1904.7563054570437
 30
0.0
 41
1.0
 10
639.74222026281029
 20
-1905.0215467416729
 30
0.0
 41
0.9999993604090421
 10
639.677801315642
 20
-1905.2866429923586
 30
0.0
 41
1.0
 10
639.67308248009238
 20
-1905.3060619004098
 30
0.0
 41
1.0
 10
639.66836364454275
 20
-1905.325480808461
 30
0.0
 41
1.0
 10
639.59450702627669
 20
-1905.6294148752413
 30
0.0
 41
0.9999659914725431
 10
639.51564743038955
 20
-1905.9320894218083
 30
0.0
 41
1.0
 10
639.51069474146266
 20
-1905.9510985589761
 30
0.0
 41
1.0
 10
639.50574205253588
 20
-1905.9701076961439
 30
0.0
 41
1.0
 10
639.41697707879325
 20
-1906.3108005170534
 30
0.0
 41
0.9999441976026792
 10
639.32103404582847
 20
-1906.6495419423563
 30
0.0
 41
1.0
 10
639.30433352740215
 20
-1906.7085056548869
 30
0.0
 41
1.0
 10
639.28763300897572
 20
-1906.7674693674176
 30
0.0
 41
1.0
 10
639.15828893916046
 20
-1907.2241382177731
 30
0.0
 41
0.9999625120735953
 10
639.02105617183724
 20
-1907.6784987517692
 30
0.0
 41
1.0
 10
638.98526622875397
 20
-1907.7969947783977
 30
0.0
 41
1.0
 10
638.9494762856707
 20
-1907.9154908050259
 30
0.0
 41
1.0
 10
638.87495608163078
 20
-1908.1622178831244
 30
0.0
 41
0.9999793386308906
 10
638.79727005849327
 20
-1908.4079665223603
 30
0.0
 41
1.0
 10
638.71958403535564
 20
-1908.6537151615964
 30
0.0
 41
1.0
 10
638.7088044764846
 20
-1908.6877330659711
 30
0.0
 41
1.0
 10
636.85843142321573
 20
-1914.5748049884385
 30
0.0
 41
1.0
 10
635.00805836994687
 20
-1920.4618769109059
 30
0.0
 41
1.0
 10
634.04680167992319
 20
-1920.4618769109059
 30
0.0
 41
1.0
 10
633.08554498989952
 20
-1920.4618769109059
 30
0.0
 41
1.0
 10
634.70448976857779
 20
-1915.3138484091164
 30
0.0
 41
1.0
 10
636.32343454725606
 20
-1910.165819907327
 30
0.0
 41
1.0
 10
636.36860037042572
 20
-1910.0217886850724
 30
0.0
 41
1.0
 10
636.41376619359539
 20
-1909.8777574628175
 30
0.0
 41
1.0
 10
636.58407061096386
 20
-1909.3346664336379
 30
0.0
 41
0.9999911657879098
 10
636.74980342264826
 20
-1908.7901629022613
 30
0.0
 41
1.0
 10
636.77949936614868
 20
-1908.6925989622109
 30
0.0
 41
1.0
 10
636.80919530964911
 20
-1908.5950350221603
 30
0.0
 41
1.0
 10
636.91553623432833
 20
-1908.2456593708985
 30
0.0
 41
0.9999952428149184
 10
637.0197198236533
 20
-1907.8956343465479
 30
0.0
 41
1.0
 10
637.02477929398128
 20
-1907.8786360722879
 30
0.0
 41
1.0
 10
637.02983876430915
 20
-1907.8616377980279
 30
0.0
 41
1.0
 10
637.12390341297055
 20
-1907.5456093222228
 30
0.0
 41
0.999993168750748
 10
637.21562925085163
 20
-1907.2288941089278
 30
0.0
 41
1.0
 10
637.22056451531284
 20
-1907.2118533996509
 30
0.0
 41
1.0
 10
637.22549977977405
 20
-1907.1948126903742
 30
0.0
 41
1.0
 10
637.30735508872715
 20
-1906.9121788956504
 30
0.0
 41
0.9999893840815246
 10
637.38660231518224
 20
-1906.6288027664107
 30
0.0
 41
1.0
 10
637.46584954163779
 20
-1906.3454266371698
 30
0.0
 41
0.999983398006718
 10
637.54182578238044
 20
-1906.0611560541367
 30
0.0
 41
1.0
 10
637.55082971910304
 20
-1906.027467175657
 30
0.0
 41
1.0
 10
637.55983365582563
 20
-1905.9937782971774
 30
0.0
 41
1.0
 10
637.62879820469084
 20
-1905.7357424648849
 30
0.0
 41
0.9999233658064977
 10
637.69135317591235
 20
-1905.4760783061577
 30
0.0
 41
1.0
 10
637.75390814713273
 20
-1905.2164141474352
 30
0.0
 41
1.0
 10
637.79339156599053
 20
-1905.0526074830091
 30
0.0
 41
1.0
 10
637.79837016996544
 20
-1905.0319525211485
 30
0.0
 41
1.0
 10
637.80334877394046
 20
-1905.0112975592879
 30
0.0
 41
1.0
 10
637.83287498484424
 20
-1904.8888008186004
 30
0.0
 41
0.9999868670850119
 10
637.86114406884417
 20
-1904.7660078729375
 30
0.0
 41
1.0
 10
637.8650415560046
 20
-1904.7490782855084
 30
0.0
 41
1.0
 10
637.86893904316503
 20
-1904.7321486980793
 30
0.0
 41
1.0
 10
637.88941315284217
 20
-1904.6432149272828
 30
0.0
 41
0.9999778173357393
 10
637.90870075095563
 20
-1904.5540163100616
 30
0.0
 41
1.0
 10
637.92798834906944
 20
-1904.4648176928395
 30
0.0
 41
0.9999602692867406
 10
637.94568270769969
 20
-1904.3752894044162
 30
0.0
 41
1.0
 10
637.94888653977841
 20
-1904.3590789495247
 30
0.0
 41
1.0
 10
637.95209037185714
 20
-1904.3428684946334
 30
0.0
 41
1.0
 10
637.97619239464291
 20
-1904.220919296436
 30
0.0
 41
0.9995617985321196
 10
637.9930357418624
 20
-1904.097757548727
 30
0.0
 41
1.0
 10
637.99550023176846
 20
-1904.0797367313626
 30
0.0
 41
1.0
 10
637.99796472167452
 20
-1904.0617159139983
 30
0.0
 41
1.0
 10
638.0182479827231
 20
-1903.9134008642964
 30
0.0
 41
0.9991121410639363
 10
638.02597333631138
 20
-1903.7639047654911
 30
0.0
 41
1.0
 10
638.02689212633595
 20
-1903.7461249289145
 30
0.0
 41
1.0
 10
638.02781091636052
 20
-1903.728345092338
 30
0.0
 41
1.0
 10
638.03369868989967
 20
-1903.6144086666845
 30
0.0
 41
0.9989792494904808
 10
638.02927959778208
 20
-1903.5004058307866
 30
0.0
 41
1.0
 10
638.02863162591348
 20
-1903.4836895848603
 30
0.0
 41
1.0
 10
638.02798365404476
 20
-1903.4669733389339
 30
0.0
 41
1.0
 10
638.02486050566449
 20
-1903.3864029948861
 30
0.0
 41
0.9997820295393322
 10
638.01837650828884
 20
-1903.3060332731443
 30
0.0
 41
1.0
 10
638.01189251091353
 20
-1903.2256635514043
 30
0.0
 41
0.9998335105974744
 10
638.00248031540184
 20
-1903.1455839349521
 30
0.0
 41
1.0
 10
638.00088539072544
 20
-1903.1320142044681
 30
0.0
 41
1.0
 10
637.99929046604893
 20
-1903.118444473984
 30
0.0
 41
1.0
 10
637.98668842118468
 20
-1903.0112253965681
 30
0.0
 41
0.9996876457879207
 10
637.96874450838618
 20
-1902.9047699688517
 30
0.0
 41
1.0
 10
637.9665128452408
 20
-1902.8915302336095
 30
0.0
 41
1.0
 10
637.96428118209542
 20
-1902.8782904983675
 30
0.0
 41
1.0
 10
637.95048536067441
 20
-1902.7964443544095
 30
0.0
 41
0.999554749649559
 10
637.93183203878198
 20
-1902.7155668572186
 30
0.0
 41
1.0
 10
637.93145808191025
 20
-1902.7139454465116
 30
0.0
 41
1.0
 10
637.93108412503864
 20
-1902.7123240358046
 30
0.0
 41
1.0
 10
637.91317871688966
 20
-1902.6346893600276
 30
0.0
 41
0.9994899427174356
 10
637.89035380820997
 20
-1902.5583560771931
 30
0.0
 41
1.0
 10
637.88989528146931
 20
-1902.5568226274049
 30
0.0
 41
1.0
 10
637.88943675472865
 20
-1902.5552891776165
 30
0.0
 41
1.0
 10
637.86752889953061
 20
-1902.4820227943594
 30
0.0
 41
0.9993784877591365
 10
637.84051326442386
 20
-1902.4104820891998
 30
0.0
 41
1.0
 10
637.83998157344718
 20
-1902.4090741064799
 30
0.0
 41
1.0
 10
637.83944988247049
 20
-1902.40766612376
 30
0.0
 41
1.0
 10
637.81349762931723
 20
-1902.3389413840407
 30
0.0
 41
0.9992430832254686
 10
637.78228109415795
 20
-1902.2724422319725
 30
0.0
 41
1.0
 10
637.78169897810153
 20
-1902.2712021768555
 30
0.0
 41
1.0
 10
637.781116862045
 20
-1902.2699621217384
 30
0.0
 41
1.0
 10
637.75106455899822
 20
-1902.2059430799036
 30
0.0
 41
0.9990789632798419
 10
637.71563393222186
 20
-1902.1447364681546
 30
0.0
 41
1.0
 10
637.71503822603995
 20
-1902.1437073822954
 30
0.0
 41
1.0
 10
637.71444251985793
 20
-1902.1426782964363
 30
0.0
 41
1.0
 10
637.68020330544527
 20
-1902.0835298564057
 30
0.0
 41
0.9988874801122107
 10
637.64054402941292
 20
-1902.027870143987
 30
0.0
 41
1.0
 10
637.6399885033486
 20
-1902.0270904923123
 30
0.0
 41
1.0
 10
637.6394329772844
 20
-1902.0263108406375
 30
0.0
 41
1.0
 10
637.60088475338148
 20
-1901.9722104315699
 30
0.0
 41
0.9986762060693021
 10
637.55698228210485
 20
-1901.92235671713
 30
0.0
 41
1.0
 10
637.55653832177279
 20
-1901.9218525753136
 30
0.0
 41
1.0
 10
637.55609436144073
 20
-1901.9213484334971
 30
0.0
 41
1.0
 10
637.5130798108288
 20
-1901.8725030026908
 30
0.0
 41
0.9984621642487983
 10
637.46492225405109
 20
-1901.8287197022198
 30
0.0
 41
1.0
 10
637.4646756195342
 20
-1901.8284954700562
 30
0.0
 41
1.0
 10
637.46442898501732
 20
-1901.8282712378923
 30
0.0
 41
1.0
 10
637.41676469727292
 20
-1901.7849364017484
 30
0.0
 41
0.9982724693850501
 10
637.36434606543162
 20
-1901.7474920512309
 30
0.0
 41
1.0
 10
637.31192743359088
 20
-1901.7100477007139
 30
0.0
 41
0.9981399180159546
 10
637.25534137019827
 20
-1901.6792611812707
 30
0.0
 41
1.0
 10
637.25529570811898
 20
-1901.679236338113
 30
0.0
 41
1.0
 10
637.25525004603969
 20
-1901.6792114949553
 30
0.0
 41
1.0
 10
637.19857265848884
 20
-1901.6483752891972
 30
0.0
 41
0.9980927086836615
 10
637.13852730742201
 20
-1901.6247584803446
 30
0.0
 41
1.0
 10
637.13808713771095
 20
-1901.6245853544697
 30
0.0
 41
1.0
 10
637.1376469679999
 20
-1901.624412228595
 30
0.0
 41
1.0
 10
637.07672127750914
 20
-1901.6004491679921
 30
0.0
 41
0.9981411356559943
 10
637.01333275610864
 20
-1901.5840765264866
 30
0.0
 41
1.0
 10
637.01245063940826
 20
-1901.5838486842813
 30
0.0
 41
1.0
 10
637.01156852270788
 20
-1901.583620842076
 30
0.0
 41
1.0
 10
636.94641576790661
 20
-1901.5667925161597
 30
0.0
 41
0.9983031812935778
 10
636.87974833891337
 20
-1901.5576531549837
 30
0.0
 41
1.0
 10
636.87087731350857
 20
-1901.5564370363122
 30
0.0
 41
1.0
 10
636.86200628810377
 20
-1901.5552209176408
 30
0.0
 41
1.0
 10
636.80765664559965
 20
-1901.5477701876493
 30
0.0
 41
0.9983887708262119
 10
636.75281279630644
 20
-1901.5465255140164
 30
0.0
 41
1.0
 10
636.74474939108859
 20
-1901.5463425161415
 30
0.0
 41
1.0
 10
636.73668598587074
 20
-1901.5461595182667
 30
0.0
 41
1.0
 10
636.69796894701335
 20
-1901.5452808403832
 30
0.0
 41
0.9998869563080054
 10
636.65924299381095
 20
-1901.5455667097428
 30
0.0
 41
1.0
 10
636.62051704060787
 20
-1901.5458525791025
 30
0.0
 41
0.9999972320028668
 10
636.58179286139648
 20
-1901.5463206786314
 30
0.0
 41
1.0
 10
636.56243984481694
 20
-1901.5465546187208
 30
0.0
 41
1.0
 10
636.54308682823739
 20
-1901.5467885588102
 30
0.0
 41
1.0
 10
636.46565661586601
 20
-1901.547724538518
 30
0.0
 41
0.9997304945086964
 10
636.38835330962775
 20
-1901.5522536323042
 30
0.0
 41
1.0
 10
636.37930366792398
 20
-1901.5527838382941
 30
0.0
 41
1.0
 10
636.37025402622021
 20
-1901.553314044284
 30
0.0
 41
1.0
 10
636.27485143657486
 20
-1901.55890355005
 30
0.0
 41
0.9997888306415685
 10
636.17975910073324
 20
-1901.5684085145388
 30
0.0
 41
1.0
 10
636.17103803915973
 20
-1901.569280229171
 30
0.0
 41
1.0
 10
636.16231697758622
 20
-1901.5701519438032
 30
0.0
 41
1.0
 10
636.04978251859643
 20
-1901.5814003375567
 30
0.0
 41
0.9984170238190203
 10
635.93922337124411
 20
-1901.6052164194928
 30
0.0
 41
1.0
 10
635.90284224025891
 20
-1901.6130534552985
 30
0.0
 41
1.0
 10
635.86646110927359
 20
-1901.6208904911045
 30
0.0
 41
1.0
 10
635.75127004085232
 20
-1901.6457043576142
 30
0.0
 41
0.9976592854198767
 10
635.64054187444754
 20
-1901.6860030347614
 30
0.0
 41
1.0
 10
635.52981370804264
 20
-1901.7263017119085
 30
0.0
 41
0.9993255074352456
 10
635.42234190925126
 20
-1901.7746186104011
 30
0.0
 41
1.0
 10
635.41771673032827
 20
-1901.7766979866008
 30
0.0
 41
1.0
 10
635.41309155140516
 20
-1901.7787773628004
 30
0.0
 41
1.0
 10
635.29636939476813
 20
-1901.831253013692
 30
0.0
 41
0.9976475078275062
 10
635.18792205045816
 20
-1901.8992010033501
 30
0.0
 41
1.0
 10
635.16957965632605
 20
-1901.910693482163
 30
0.0
 41
1.0
 10
635.15123726219394
 20
-1901.9221859609756
 30
0.0
 41
1.0
 10
635.06703507063935
 20
-1901.9749430817456
 30
0.0
 41
0.9995131336406918
 10
634.98628735567809
 20
-1902.0328492937015
 30
0.0
 41
1.0
 10
634.90553964072114
 20
-1902.0907555056547
 30
0.0
 41
0.9995810107607072
 10
634.82827799299037
 20
-1902.1532371881217
 30
0.0
 41
1.0
 10
634.82530796178116
 20
-1902.1556390595856
 30
0.0
 41
1.0
 10
634.82233793057185
 20
-1902.1580409310495
 30
0.0
 41
1.0
 10
634.73913622042176
 20
-1902.2253263564451
 30
0.0
 41
0.999661783795417
 10
634.65954553328515
 20
-1902.2968468120064
 30
0.0
 41
1.0
 10
634.64741478241251
 20
-1902.3077475449932
 30
0.0
 41
1.0
 10
634.63528403153987
 20
-1902.3186482779799
 30
0.0
 41
1.0
 10
634.56700850413881
 20
-1902.3800008934563
 30
0.0
 41
0.9997267750052477
 10
634.50167499585223
 20
-1902.4444774299843
 30
0.0
 41
1.0
 10
634.43634148756348
 20
-1902.5089539665146
 30
0.0
 41
0.999966728896154
 10
634.37206854441138
 20
-1902.5744877734148
 30
0.0
 41
1.0
 10
634.30324109664139
 20
-1902.6446654321676
 30
0.0
 41
1.0
 10
634.2344136488714
 20
-1902.7148430909206
 30
0.0
 41
1.0
 10
634.03248581017453
 20
-1902.9207322153311
 30
0.0
 41
0.9988205335174762
 10
633.85148019319388
 20
-1903.1452364473937
 30
0.0
 41
1.0
 10
633.82084022828985
 20
-1903.1832396978227
 30
0.0
 41
1.0
 10
633.79020026338594
 20
-1903.2212429482518
 30
0.0
 41
1.0
 10
633.54791471659837
 20
-1903.521753681171
 30
0.0
 41
0.9997077826754945
 10
633.32043676549415
 20
-1903.8336234753856
 30
0.0
 41
1.0
 10
633.3187133503626
 20
-1903.8359862587668
 30
0.0
 41
1.0
 10
633.31698993523105
 20
-1903.8383490421477
 30
0.0
 41
1.0
 10
633.08606515386464
 20
-1904.1549444031232
 30
0.0
 41
0.9989147567078971
 10
632.88560165097954
 20
-1904.4916538643106
 30
0.0
 41
1.0
 10
632.86086050567474
 20
-1904.5332104448594
 30
0.0
 41
1.0
 10
632.83611936036982
 20
-1904.5747670254082
 30
0.0
 41
1.0
 10
632.68090806173075
 20
-1904.8354684098638
 30
0.0
 41
0.9997476598180987
 10
632.53756307422009
 20
-1905.102878158448
 30
0.0
 41
1.0
 10
632.39421808670909
 20
-1905.3702879070331
 30
0.0
 41
0.9996258967109324
 10
632.26570983477779
 20
-1905.6451358436568
 30
0.0
 41
1.0
 10
632.25250992532688
 20
-1905.6733672437551
 30
0.0
 41
1.0
 10
632.23931001587584
 20
-1905.7015986438535
 30
0.0
 41
1.0
 10
632.0991012948781
 20
-1906.0014710418025
 30
0.0
 41
0.9998735413943745
 10
631.96849994815921
 20
-1906.305650641267
 30
0.0
 41
1.0
 10
631.96505712010037
 20
-1906.3136692267278
 30
0.0
 41
1.0
 10
631.96161429204153
 20
-1906.3216878121887
 30
0.0
 41
1.0
 10
631.83789860144088
 20
-1906.6098302407299
 30
0.0
 41
0.9999377418859743
 10
631.72064379926405
 20
-1906.9006617084096
 30
0.0
 41
1.0
 10
631.60338899708836
 20
-1907.1914931760869
 30
0.0
 41
0.999950829950177
 10
631.49192505371229
 20
-1907.4845928529053
 30
0.0
 41
1.0
 10
631.48884428504948
 20
-1907.4926938788699
 30
0.0
 41
1.0
 10
631.48576351638667
 20
-1907.5007949048347
 30
0.0
 41
1.0
 10
631.3681380356843
 20
-1907.8100966335842
 30
0.0
 41
0.9999609228427185
 10
631.25599943280918
 20
-1908.1214296496025
 30
0.0
 41
1.0
 10
631.25304342246011
 20
-1908.1296364900104
 30
0.0
 41
1.0
 10
631.25008741211104
 20
-1908.1378433304183
 30
0.0
 41
1.0
 10
631.13203678853733
 20
-1908.4655900272533
 30
0.0
 41
0.9999674607407083
 10
631.01928926247217
 20
-1908.7951986472399
 30
0.0
 41
1.0
 10
630.96789087190837
 20
-1908.9454578429359
 30
0.0
 41
1.0
 10
630.91649248134456
 20
-1909.0957170386316
 30
0.0
 41
1.0
 10
630.80048187458488
 20
-1909.4348650211396
 30
0.0
 41
0.9999287532309379
 10
630.69260047061607
 20
-1909.7766857601105
 30
0.0
 41
1.0
 10
630.64612321446396
 20
-1909.9239483045228
 30
0.0
 41
1.0
 10
630.59964595831184
 20
-1910.0712108489352
 30
0.0
 41
1.0
 10
630.5847190666284
 20
-1910.1185064991403
 30
0.0
 41
0.9999998223398644
 10
630.56984855791461
 20
-1910.165819907327
 30
0.0
 41
1.0
 10
628.94919242111928
 20
-1915.3138484091164
 30
0.0
 41
1.0
 10
627.32853628432395
 20
-1920.4618769109059
 30
0.0
 41
1.0
 10
626.4232278404329
 20
-1920.4618769109059
 30
0.0
 41
1.0
 10
625.51791939654186
 20
-1920.4618769109059
 30
0.0
 41
1.0
 10
627.37000380792824
 20
-1914.5748049884385
 30
0.0
 41
1.0
 10
629.22208821931463
 20
-1908.6877330659711
 30
0.0
 41
1.0
 10
629.232209977617
 20
-1908.6556898525212
 30
0.0
 41
1.0
 10
629.30481764646674
 20
-1908.4253903106953
 30
0.0
 41
1.0
 10
629.37742531531535
 20
-1908.1950907688731
 30
0.0
 41
0.9999825681971771
 10
629.44730835452583
 20
-1907.9639498738115
 30
0.0
 41
1.0
 10
629.49559941668804
 20
-1907.804225290311
 30
0.0
 41
1.0
 10
629.54389047885024
 20
-1907.6445007068105
 30
0.0
 41
1.0
 10
629.64104283216602
 20
-1907.3231654850397
 30
0.0
 41
0.9999672528965102
 10
629.73298163778873
 20
-1907.0002999394546
 30
0.0
 41
1.0
 10
629.7357705214597
 20
-1906.99050609406
 30
0.0
 41
1.0
 10
629.73855940513079
 20
-1906.9807122486657
 30
0.0
 41
1.0
 10
629.82492044341052
 20
-1906.6774343938728
 30
0.0
 41
0.9999899749151114
 10
629.90856205294676
 20
-1906.3733953054159
 30
0.0
 41
1.0
 10
629.9186679719636
 20
-1906.33666006774
 30
0.0
 41
1.0
 10
629.92877389098044
 20
-1906.2999248300641
 30
0.0
 41
1.0
 10
629.99220366248028
 20
-1906.0693562169681
 30
0.0
 41
0.9999214200505695
 10
630.04983309085947
 20
-1905.8372698747542
 30
0.0
 41
1.0
 10
630.06259894304299
 20
-1905.7858589893463
 30
0.0
 41
1.0
 10
630.07536479522651
 20
-1905.7344481039383
 30
0.0
 41
1.0
 10
630.10746251923979
 20
-1905.6051835325347
 30
0.0
 41
0.9999828681657941
 10
630.13804477123267
 20
-1905.4755520580773
 30
0.0
 41
1.0
 10
630.16862702322749
 20
-1905.345920583612
 30
0.0
 41
0.9999389844475192
 10
630.19633801201621
 20
-1905.215645127714
 30
0.0
 41
1.0
 10
630.2034757557368
 20
-1905.1820890238746
 30
0.0
 41
1.0
 10
630.21061349945739
 20
-1905.148532920035
 30
0.0
 41
1.0
 10
630.25259997568617
 20
-1904.951145256463
 30
0.0
 41
0.9998933699439861
 10
630.28880424008798
 20
-1904.7526156487072
 30
0.0
 41
1.0
 10
630.29017706530487
 20
-1904.7450876280077
 30
0.0
 41
1.0
 10
630.29154989052176
 20
-1904.7375596073084
 30
0.0
 41
1.0
 10
630.33049980535714
 20
-1904.5239739581548
 30
0.0
 41
0.9996850305193593
 10
630.35868348161603
 20
-1904.3087029527162
 30
0.0
 41
1.0
 10
630.36067851498512
 20
-1904.2934645985956
 30
0.0
 41
1.0
 10
630.36267354835422
 20
-1904.278226244475
 30
0.0
 41
1.0
 10
630.39008141081342
 20
-1904.0688810173208
 30
0.0
 41
0.9994697936706513
 10
630.40380597003286
 20
-1903.8581958219906
 30
0.0
 41
1.0
 10
630.40428303928263
 20
-1903.8508723497785
 30
0.0
 41
1.0
 10
630.4047601085324
 20
-1903.8435488775663
 30
0.0
 41
1.0
 10
630.41753052925253
 20
-1903.6475106266589
 30
0.0
 41
0.999180489313704
 10
630.41440221297989
 20
-1903.4510817766866
 30
0.0
 41
1.0
 10
630.41431833415777
 20
-1903.4458149752727
 30
0.0
 41
1.0
 10
630.41423445533565
 20
-1903.4405481738588
 30
0.0
 41
1.0
 10
630.41127389670737
 20
-1903.2546529267122
 30
0.0
 41
0.9988448329320808
 10
630.39048235108339
 20
-1903.0699003368798
 30
0.0
 41
1.0
 10
630.38888827738037
 20
-1903.0557354811085
 30
0.0
 41
1.0
 10
630.38729420367724
 20
-1903.0415706253373
 30
0.0
 41
1.0
 10
630.36969080545941
 20
-1902.8851477470453
 30
0.0
 41
0.9985503209458084
 10
630.33537453315967
 20
-1902.7315235629571
 30
0.0
 41
1.0
 10
630.32778854108847
 20
-1902.6975632355575
 30
0.0
 41
1.0
 10
630.32020254901738
 20
-1902.6636029081576
 30
0.0
 41
1.0
 10
630.30105826086026
 20
-1902.5778993788699
 30
0.0
 41
0.9991036781371573
 10
630.2747333992088
 20
-1902.4941222915429
 30
0.0
 41
1.0
 10
630.27075117375307
 20
-1902.4814491290331
 30
0.0
 41
1.0
 10
630.26676894829734
 20
-1902.4687759665233
 30
0.0
 41
1.0
 10
630.24840853755779
 20
-1902.4103452042182
 30
0.0
 41
0.9998874504368496
 10
630.22830332987951
 20
-1902.3524916019946
 30
0.0
 41
1.0
 10
630.20819812220054
 20
-1902.2946379997691
 30
0.0
 41
0.9994041637542663
 10
630.18414950926638
 20
-1902.2383092958801
 30
0.0
 41
1.0
 10
630.17995272504299
 20
-1902.2284792313999
 30
0.0
 41
1.0
 10
630.17575594081973
 20
-1902.2186491669197
 30
0.0
 41
1.0
 10
630.14787710982466
 20
-1902.1533490009515
 30
0.0
 41
0.9991846840702735
 10
630.11482075313097
 20
-1902.09051096967
 30
0.0
 41
1.0
 10
630.11368414673575
 20
-1902.088350353215
 30
0.0
 41
1.0
 10
630.11254754034064
 20
-1902.0861897367599
 30
0.0
 41
1.0
 10
630.08176439643728
 20
-1902.0276729383884
 30
0.0
 41
0.9989253167922325
 10
630.04569497238299
 20
-1901.9722580099997
 30
0.0
 41
1.0
 10
630.04464084770893
 20
-1901.9706385152376
 30
0.0
 41
1.0
 10
630.04358672303499
 20
-1901.9690190204758
 30
0.0
 41
1.0
 10
630.0096255483287
 20
-1901.9168430816108
 30
0.0
 41
0.9986467172838149
 10
629.97042839569076
 20
-1901.8684770479799
 30
0.0
 41
1.0
 10
629.9695542669898
 20
-1901.8673984457014
 30
0.0
 41
1.0
 10
629.96868013828885
 20
-1901.8663198434228
 30
0.0
 41
1.0
 10
629.93123124305316
 20
-1901.82011101435
 30
0.0
 41
0.9984001104267266
 10
629.88880451253635
 20
-1901.7784259069815
 30
0.0
 41
1.0
 10
629.88821737442686
 20
-1901.7778490321002
 30
0.0
 41
1.0
 10
629.88763023631748
 20
-1901.7772721572189
 30
0.0
 41
1.0
 10
629.84637778201954
 20
-1901.736740799613
 30
0.0
 41
0.9982442159082153
 10
629.80062168068343
 20
-1901.7013722383526
 30
0.0
 41
1.0
 10
629.80040688522126
 20
-1901.701206205709
 30
0.0
 41
1.0
 10
629.80019208975898
 20
-1901.7010401730654
 30
0.0
 41
1.0
 10
629.75486557934755
 20
-1901.6660036770925
 30
0.0
 41
0.9982450060838817
 10
629.70571460027577
 20
-1901.6365718940588
 30
0.0
 41
1.0
 10
629.65656362120444
 20
-1901.6071401110253
 30
0.0
 41
0.9983922639634443
 10
629.60439731503936
 20
-1901.5834604763711
 30
0.0
 41
1.0
 10
629.60417043771486
 20
-1901.5833574908897
 30
0.0
 41
1.0
 10
629.60394356039023
 20
-1901.5832545054081
 30
0.0
 41
1.0
 10
629.55132349957671
 20
-1901.5593688997913
 30
0.0
 41
0.9986517147149993
 10
629.49651052670879
 20
-1901.5410677806697
 30
0.0
 41
1.0
 10
629.49583260528084
 20
-1901.5408414342382
 30
0.0
 41
1.0
 10
629.49515468385289
 20
-1901.5406150878066
 30
0.0
 41
1.0
 10
629.43898586812929
 20
-1901.5218612758219
 30
0.0
 41
0.9989435598956807
 10
629.38133248097699
 20
-1901.5083435735871
 30
0.0
 41
1.0
 10
629.38025236139583
 20
-1901.5080903233343
 30
0.0
 41
1.0
 10
629.37917224181456
 20
-1901.5078370730814
 30
0.0
 41
1.0
 10
629.31935861550141
 20
-1901.4938128703413
 30
0.0
 41
0.9992249241240125
 10
629.2586271066059
 20
-1901.4845375276263
 30
0.0
 41
1.0
 10
629.2572134183132
 20
-1901.4843216192182
 30
0.0
 41
1.0
 10
629.2557997300205
 20
-1901.4841057108101
 30
0.0
 41
1.0
 10
629.1922408445389
 20
-1901.4743985512789
 30
0.0
 41
0.9994396597834356
 10
629.12817490799978
 20
-1901.4689656289331
 30
0.0
 41
1.0
 10
629.10903424052412
 20
-1901.4673424612147
 30
0.0
 41
1.0
 10
629.08989357304836
 20
-1901.4657192934962
 30
0.0
 41
1.0
 10
628.98754630155611
 20
-1901.4570400357131
 30
0.0
 41
0.9987693403121172
 10
628.88484267796923
 20
-1901.4585430991658
 30
0.0
 41
1.0
 10
628.87458834374252
 20
-1901.45869317094
 30
0.0
 41
1.0
 10
628.86433400951569
 20
-1901.4588432427142
 30
0.0
 41
1.0
 10
628.75477824333632
 20
-1901.4604465870018
 30
0.0
 41
0.9989753644967057
 10
628.64581624331913
 20
-1901.4719495939269
 30
0.0
 41
1.0
 10
628.53685424330297
 20
-1901.4834526008519
 30
0.0
 41
0.9983190067305923
 10
628.42995543233872
 20
-1901.5074875926384
 30
0.0
 41
1.0
 10
628.42105448073153
 20
-1901.5094888712013
 30
0.0
 41
1.0
 10
628.41215352912423
 20
-1901.5114901497641
 30
0.0
 41
1.0
 10
628.28745281494537
 20
-1901.5395276986762
 30
0.0
 41
0.9985539388302619
 10
628.16648306126706
 20
-1901.5807913747221
 30
0.0
 41
1.0
 10
628.1641376303071
 20
-1901.5815914185378
 30
0.0
 41
1.0
 10
628.16179219934702
 20
-1901.5823914623536
 30
0.0
 41
1.0
 10
628.03613158374867
 20
-1901.625255226031
 30
0.0
 41
0.9988468746493602
 10
627.91516124144766
 20
-1901.6799733110938
 30
0.0
 41
1.0
 10
627.91197841945927
 20
-1901.6814129856534
 30
0.0
 41
1.0
 10
627.908795597471
 20
-1901.6828526602133
 30
0.0
 41
1.0
 10
627.7814596111948
 20
-1901.7404500943949
 30
0.0
 41
0.9991322885919747
 10
627.65935902713863
 20
-1901.8084454265761
 30
0.0
 41
1.0
 10
627.64175701609088
 20
-1901.8182476285679
 30
0.0
 41
1.0
 10
627.62415500504324
 20
-1901.8280498305598
 30
0.0
 41
1.0
 10
627.52197832398804
 20
-1901.8849499463392
 30
0.0
 41
0.999386003784917
 10
627.42403731991772
 20
-1901.948865961926
 30
0.0
 41
1.0
 10
627.41841900707118
 20
-1901.9525324566171
 30
0.0
 41
1.0
 10
627.41280069422453
 20
-1901.9561989513084
 30
0.0
 41
1.0
 10
627.32609631585171
 20
-1902.0127819775098
 30
0.0
 41
0.9998821494955046
 10
627.24116994003134
 20
-1902.0720002075914
 30
0.0
 41
1.0
 10
627.15624356421813
 20
-1902.1312184376684
 30
0.0
 41
0.9997976482744341
 10
627.07376793381115
 20
-1902.1938048457127
 30
0.0
 41
1.0
 10
627.05913166900814
 20
-1902.2049115354912
 30
0.0
 41
1.0
 10
627.04449540420501
 20
-1902.2160182252696
 30
0.0
 41
1.0
 10
626.93274724418939
 20
-1902.3008180128727
 30
0.0
 41
0.9998091630800723
 10
626.82439696616007
 20
-1902.3899183635756
 30
0.0
 41
1.0
 10
626.81139121368471
 20
-1902.4006134640199
 30
0.0
 41
1.0
 10
626.79838546120936
 20
-1902.4113085644644
 30
0.0
 41
1.0
 10
626.66402367822946
 20
-1902.5217991160559
 30
0.0
 41
0.999503511231759
 10
626.53688780046809
 20
-1902.6405329330687
 30
0.0
 41
1.0
 10
626.52724049007838
 20
-1902.6495426792289
 30
0.0
 41
1.0
 10
626.51759317968856
 20
-1902.6585524253892
 30
0.0
 41
1.0
 10
626.39417011692308
 20
-1902.7738187971454
 30
0.0
 41
0.999463042429937
 10
626.2785617111399
 20
-1902.8969215403797
 30
0.0
 41
1.0
 10
626.27487887236771
 20
-1902.9008431198936
 30
0.0
 41
1.0
 10
626.27119603359563
 20
-1902.9047646994072
 30
0.0
 41
1.0
 10
626.16295330535468
 20
-1903.0200242836163
 30
0.0
 41
0.9995160693749937
 10
626.06208727582407
 20
-1903.1417917014874
 30
0.0
 41
1.0
 10
626.06015355574414
 20
-1903.1441261256946
 30
0.0
 41
1.0
 10
626.05821983566432
 20
-1903.1464605499016
 30
0.0
 41
1.0
 10
625.96122124629142
 20
-1903.2635591193607
 30
0.0
 41
0.9996561470514276
 10
625.87049502762648
 20
-1903.385581881809
 30
0.0
 41
1.0
 10
625.86433736172489
 20
-1903.3938636708508
 30
0.0
 41
1.0
 10
625.8581796958232
 20
-1903.4021454598928
 30
0.0
 41
1.0
 10
625.77976880895903
 20
-1903.5076046442603
 30
0.0
 41
0.9998349055174356
 10
625.70524152702819
 20
-1903.6158432279217
 30
0.0
 41
1.0
 10
625.63071424508712
 20
-1903.7240818115977
 30
0.0
 41
0.9999728109568534
 10
625.55779134917736
 20
-1903.8334077371528
 30
0.0
 41
1.0
 10
625.55647613376982
 20
-1903.8353795066491
 30
0.0
 41
1.0
 10
625.55516091836216
 20
-1903.8373512761455
 30
0.0
 41
1.0
 10
625.47960759162322
 20
-1903.9506207407139
 30
0.0
 41
0.999997214738702
 10
625.40458978124366
 20
-1904.0642455835584
 30
0.0
 41
1.0
 10
625.39961823862689
 20
-1904.0717756720223
 30
0.0
 41
1.0
 10
625.39464669601011
 20
-1904.079305760486
 30
0.0
 41
1.0
 10
625.30968580039541
 20
-1904.2079907802604
 30
0.0
 41
0.9999371979008829
 10
625.227630450996
 20
-1904.3385476940296
 30
0.0
 41
1.0
 10
625.22412156662949
 20
-1904.3441306221021
 30
0.0
 41
1.0
 10
625.22061268226298
 20
-1904.3497135501746
 30
0.0
 41
1.0
 10
625.13153956413328
 20
-1904.4914363200846
 30
0.0
 41
0.9998272025610598
 10
625.04779617324732
 20
-1904.6363721968339
 30
0.0
 41
1.0
 10
625.03258100122571
 20
-1904.6627053112866
 30
0.0
 41
1.0
 10
625.01736582920421
 20
-1904.689038425739
 30
0.0
 41
1.0
 10
624.90319209427457
 20
-1904.8866405313943
 30
0.0
 41
0.9995217214838441
 10
624.80145240471916
 20
-1905.0909228592557
 30
0.0
 41
1.0
 10
624.79380884208513
 20
-1905.1062703089565
 30
0.0
 41
1.0
 10
624.78616527945121
 20
-1905.1216177586571
 30
0.0
 41
1.0
 10
624.69925998685892
 20
-1905.2961142167435
 30
0.0
 41
0.9998269762609215
 10
624.6189055205864
 20
-1905.4737225034678
 30
0.0
 41
1.0
 10
624.53855105431307
 20
-1905.6513307901937
 30
0.0
 41
0.9998944747386681
 10
624.46339025974748
 20
-1905.8311985158261
 30
0.0
 41
1.0
 10
624.45843659015964
 20
-1905.8430531707354
 30
0.0
 41
1.0
 10
624.4534829205719
 20
-1905.8549078256449
 30
0.0
 41
1.0
 10
624.3728358600149
 20
-1906.0479047656736
 30
0.0
 41
0.9999506734410513
 10
624.29603833111105
 20
-1906.2424655705306
 30
0.0
 41
1.0
 10
624.28143836583354
 20
-1906.2794534923532
 30
0.0
 41
1.0
 10
624.26683840055614
 20
-1906.3164414141759
 30
0.0
 41
1.0
 10
624.21924080219355
 20
-1906.4370263754213
 30
0.0
 41
0.9999912393946077
 10
624.1726543581849
 20
-1906.5580055780824
 30
0.0
 41
1.0
 10
624.12606791416988
 20
-1906.6789847807588
 30
0.0
 41
0.999992711399067
 10
624.08040661978316
 20
-1906.80031618824
 30
0.0
 41
1.0
 10
624.0664381883779
 20
-1906.8374331702589
 30
0.0
 41
1.0
 10
624.05246975697264
 20
-1906.8745501522781
 30
0.0
 41
1.0
 10
623.97887159978075
 20
-1907.0701155237837
 30
0.0
 41
0.9999487550951779
 10
623.90924797480784
 20
-1907.2671308889703
 30
0.0
 41
1.0
 10
623.88565436487124
 20
-1907.3338941992624
 30
0.0
 41
1.0
 10
623.86206075493453
 20
-1907.4006575095545
 30
0.0
 41
1.0
 10
623.76737512056343
 20
-1907.6685913443807
 30
0.0
 41
0.9999808436938882
 10
623.67601353192549
 20
-1907.9376767756353
 30
0.0
 41
1.0
 10
623.58465194328619
 20
-1908.206762206893
 30
0.0
 41
0.9999873932911171
 10
623.49599723457072
 20
-1908.4767515618989
 30
0.0
 41
1.0
 10
623.47590487769901
 20
-1908.537940894659
 30
0.0
 41
1.0
 10
623.45581252082729
 20
-1908.599130227419
 30
0.0
 41
1.0
 10
623.32697309837636
 20
-1908.9914982479208
 30
0.0
 41
0.9999794883027764
 10
623.20317031341722
 20
-1909.385484454202
 30
0.0
 41
1.0
 10
623.19201805396813
 20
-1909.4209750644759
 30
0.0
 41
1.0
 10
623.18086579451904
 20
-1909.4564656747498
 30
0.0
 41
1.0
 10
623.03830763062797
 20
-1909.9101384268163
 30
0.0
 41
0.9999982761788352
 10
622.89743519062495
 20
-1910.3643374488995
 30
0.0
 41
1.0
 10
621.30929485805245
 20
-1915.4131071799027
 30
0.0
 41
1.0
 10
619.72115452547996
 20
-1920.4618769109059
 30
0.0
 41
1.0
 10
618.77240391400346
 20
-1920.4618769109059
 30
0.0
 41
1.0
 10
617.82365330252696
 20
-1920.4618769109059
 30
0.0
 41
1.0
 10
621.0619377886801
 20
-1910.1345547109597
 30
0.0
 41
1.0
 10
624.30022227483323
 20
-1899.8072325110136
 30
0.0
 41
1.0
  0
LWPOLYLINE
  5
16B
100
AcDbEntity
  8
0
370
              15
390
0
  6
Continuous
 62
               7
100
AcDbPolyline
 90
      232
 70
             128
 10
598.59667650100573
 20
-1900.8915753425288
 42
0.0004370800671162
 10
598.54379932702182
 20
-1900.9602419816711
 10
598.50451509580671
 20
-1901.0113490946817
 42
0.0030481992176741
 10
598.37417637866372
 20
-1901.1830707870579
 10
598.33566470693722
 20
-1901.2344575708141
 42
0.0042058245755453
 10
598.13167965626315
 20
-1901.5114633158935
 10
598.07927453376669
 20
-1901.5838961626685
 42
0.0120948898745758
 10
597.78323061700473
 20
-1902.0146457672183
 10
597.68703811788544
 20
-1902.1621265024392
 42
0.0141601263946596
 10
597.38339407096146
 20
-1902.6577958391779
 10
597.34385680353387
 20
-1902.7266398066124
 42
0.0071131081299388
 10
597.13858448029714
 20
-1903.0961426054478
 42
0.0068458791003772
 10
596.94370495345174
 20
-1903.4712341689285
 10
596.93689309099636
 20
-1903.4847958826474
 42
0.0064120880290197
 10
596.73875084095209
 20
-1903.8922203575662
 10
596.73121615543505
 20
-1903.9082322142874
 42
0.0058857236445312
 10
596.52846076356354
 20
-1904.3526083253212
 10
596.52028583726906
 20
-1904.3710984789564
 42
0.0053189741896731
 10
596.31158152460432
 20
-1904.8570619528668
 10
596.30283371891983
 20
-1904.8780438310705
 42
0.0047503650419602
 10
596.08685999276452
 20
-1905.4102432642921
 10
596.07759174442117
 20
-1905.4337196403881
 42
0.0042071762170796
 10
595.85304436069646
 20
-1906.01681323445
 10
595.84329495834481
 20
-1906.0427794093275
 42
0.0036680086486547
 10
595.6088403150319
 20
-1906.6814147938614
 10
595.59863253518506
 20
-1906.7098633282033
 42
0.0032573142626273
 10
595.3530002492156
 20
-1907.4087159879646
 10
595.28434972838045
 20
-1907.6081790720013
 42
0.0026133366650811
 10
594.93590452961962
 20
-1908.6380423556816
 10
594.87264774211963
 20
-1908.8282731910729
 42
0.0020592950737273
 10
594.65878467315179
 20
-1909.4803768436877
 10
594.65573288199107
 20
-1909.4898133320899
 42
0.0025609928536285
 10
594.45391238050252
 20
-1910.1249585544633
 10
594.45132101336765
 20
-1910.1332608954301
 42
0.0031362356244589
 10
594.26183022769919
 20
-1910.7540237515834
 10
594.25969918477722
 20
-1910.7611650577762
 42
0.0037229918025314
 10
594.0828987978457
 20
-1911.3701503597686
 10
594.08122020864187
 20
-1911.3760972499338
 42
0.0043077623709232
 10
593.91747940657433
 20
-1911.975915981712
 42
0.0047654161821666
 10
593.76465068405969
 20
-1912.5786020706084
 10
593.73018607521908
 20
-1912.7201638477641
 42
0.0112969368446652
 10
593.53432171707493
 20
-1913.6118560083892
 10
593.50631532797843
 20
-1913.754684054486
 42
0.0130056762571996
 10
593.30547808433175
 20
-1914.9416251261309
 10
593.28493833418452
 20
-1915.0857032396091
 42
0.013872153214476
 10
593.18123532964682
 20
-1915.9925327254336
 10
593.16193984173913
 20
-1916.2160304473564
 42
0.0071254697009557
 10
593.12859319581639
 20
-1916.6792174562061
 10
593.12363222165209
 20
-1916.7652214507841
 42
0.0028881799199882
 10
593.10849392836326
 20
-1917.0569631606088
 42
0.0060297297139807
 10
593.09856172858781
 20
-1917.3489120967283
 10
593.09749944692089
 20
-1917.3973044686572
 42
0.0229523164146233
 10
593.10523047470679
 20
-1917.7200593149403
 10
593.10945624822739
 20
-1917.7804628489607
 42
0.012367330067819
 10
593.12853489474537
 20
-1917.9815835741313
 42
0.0128577674472363
 10
593.15773028515207
 20
-1918.1814814240593
 10
593.1648561585389
 20
-1918.222810238655
 42
0.028571785376866
 10
593.22935016023496
 20
-1918.500926389969
 10
593.24301868390103
 20
-1918.5475811594451
 42
0.0316283099155197
 10
593.3588292638151
 20
-1918.8665956612715
 10
593.36187795557055
 20
-1918.8735820335969
 42
0.0338984824242898
 10
593.51130966653773
 20
-1919.1611479977862
 10
593.51361839590766
 20
-1919.1649390270622
 42
0.0350228718349172
 10
593.69597868658138
 20
-1919.421991011739
 10
593.69686393835582
 20
-1919.4230700895023
 42
0.0347476747525135
 10
593.91128862559617
 20
-1919.650255136723
 42
0.03313377019129
 10
594.15453195134182
 20
-1919.8463837988002
 10
594.15563204985847
 20
-1919.8471565019729
 42
0.0305233319087935
 10
594.42417674543469
 20
-1920.0122846720656
 10
594.42740678993323
 20
-1920.0140086839269
 42
0.0273744481151218
 10
594.71996050150585
 20
-1920.1501468278166
 10
594.72506503664499
 20
-1920.1521904122869
 42
0.0240964406195659
 10
595.0405421122905
 20
-1920.2611741385683
 10
595.04712544150061
 20
-1920.2630988782435
 42
0.0209636179812016
 10
595.38452559415248
 20
-1920.3465670261755
 10
595.39215805460208
 20
-1920.3481189391771
 42
0.0181388704692357
 10
595.75048044660207
 20
-1920.4075350323913
 10
595.75876129497874
 20
-1920.4086012162081
 42
0.0156086547588364
 10
596.13694865916943
 20
-1920.4453374027848
 10
596.18014391149177
 20
-1920.4481759052635
 42
0.0137148329024509
 10
596.50781705679356
 20
-1920.460696160515
 10
596.55375324675697
 20
-1920.4611905936304
 42
0.0051057823886964
 10
596.78989883331178
 20
-1920.4613208480393
 42
0.0052256693309494
 10
597.02599611707865
 20
-1920.4565720235757
 10
597.09622290083962
 20
-1920.4544250575611
 42
0.0161507179050435
 10
597.4719599789421
 20
-1920.4307746872344
 10
597.49197293931411
 20
-1920.428864491947
 42
0.0101216737835826
 10
597.90600016081328
 20
-1920.3808715615803
 10
597.94005345023152
 20
-1920.3762238647719
 42
0.0245291776399266
 10
598.4168431057825
 20
-1920.2871487866955
 10
598.50166642130455
 20
-1920.2669528663503
 42
0.0143509212553452
 10
598.8582975252466
 20
-1920.1711482325709
 42
0.0156557857045748
 10
599.20851358998095
 20
-1920.0541370167493
 10
599.21601480446816
 20
-1920.0513668549979
 42
0.0170137333621653
 10
599.57261080014462
 20
-1919.905709240129
 10
599.57971472255713
 20
-1919.902521404563
 42
0.0183105364412811
 10
599.93906439072043
 20
-1919.7251863627403
 10
599.94601115536216
 20
-1919.7214359278667
 42
0.0194899958148198
 10
600.30449189634396
 20
-1919.5094569459773
 10
600.31150577568269
 20
-1919.5049316036809
 42
0.0204869852953108
 10
600.66552007778148
 20
-1919.2554115885914
 10
600.67278568636357
 20
-1919.2498315232467
 42
0.0212516938555746
 10
601.01877561747131
 20
-1918.9599275263524
 10
601.06529231154821
 20
-1918.9174602162577
 42
0.021524891825067
 10
601.32531848043527
 20
-1918.6586959372639
 10
601.37034821481575
 20
-1918.6098518159142
 42
0.0114578554957624
 10
601.52514036849334
 20
-1918.4340288824558
 10
601.53633490447942
 20
-1918.4207101189111
 42
0.0061531305135407
 10
601.66280955047432
 20
-1918.2664205856047
 42
0.000632558711646
 10
601.78718803453762
 20
-1918.1104172100399
 10
601.81022816967743
 20
-1918.0814436892695
 42
0.0041897761555399
 10
601.97868357366792
 20
-1917.8659243131845
 10
602.03714569354224
 20
-1917.7898229662226
 42
0.0092993880040738
 10
602.31375762076891
 20
-1917.4155442023346
 10
602.39615211396358
 20
-1917.2996071987718
 42
0.015932172708208
 10
602.74275859660702
 20
-1916.7774329780141
 10
602.78711473200042
 20
-1916.7057534137571
 42
0.0085547317026762
 10
603.0216264973219
 20
-1916.3118784645394
 42
0.008460115688594
 10
603.24260267476222
 20
-1915.9102516155108
 10
603.25071814859439
 20
-1915.8948919332342
 42
0.0081429654287899
 10
603.47396741903003
 20
-1915.4551704206974
 10
603.48282758321602
 20
-1915.436991578674
 42
0.0076574581328804
 10
603.70923509378588
 20
-1914.9538087034134
 10
603.71871473450619
 20
-1914.9327442251179
 42
0.0070682724203625
 10
603.94915964231734
 20
-1914.400706920326
 10
603.95914992629469
 20
-1914.376717731325
 42
0.0064559514445232
 10
604.19448313447492
 20
-1913.7904054648104
 10
604.20489249264165
 20
-1913.7634705393639
 42
0.0058311413907446
 10
604.44593922940408
 20
-1913.1174384449816
 10
604.45669430679209
 20
-1913.0875541038197
 42
0.0052312425817558
 10
604.70427558483345
 20
-1912.3763516899837
 10
604.71531942121283
 20
-1912.3435249779154
 42
0.00466805447965
 10
604.97024784894597
 20
-1911.5616986621651
 10
605.01223999898878
 20
-1911.428715424875
 42
0.0041666856448171
 10
605.21552601138546
 20
-1910.7657466498629
 10
605.25318845205322
 20
-1910.6391655421953
 42
0.0015170975154073
 10
605.37437503046203
 20
-1910.2272971907155
 42
-0.0004887993112485
 10
605.49471480359455
 20
-1909.8151787786423
 10
605.57119206108064
 20
-1909.5542213927324
 42
0.0002583378930805
 10
605.84440663122996
 20
-1908.6201646892625
 10
605.92617948072393
 20
-1908.3400654299626
 42
0.0006636169673825
 10
606.12004724073267
 20
-1907.6727125063835
 10
606.1251438950801
 20
-1907.6550809235021
 42
0.0010589131319658
 10
606.30659259599634
 20
-1907.0223495804546
 10
606.31157466649165
 20
-1907.0048366733824
 42
0.0015655524466093
 10
606.47984487365966
 20
-1906.4062199942337
 10
606.48467507407997
 20
-1906.3888278352786
 42
0.0021640440474208
 10
606.63896504606055
 20
-1905.8238008172796
 10
606.64359926548389
 20
-1905.8065360873102
 42
0.0028763871855959
 10
606.78311498354333
 20
-1905.2745681364386
 10
606.78750084771059
 20
-1905.2574441582838
 42
0.0037310511943148
 10
606.91145753954743
 20
-1904.7579965642603
 10
606.91553275983472
 20
-1904.7410362930218
 42
0.0047652197772556
 10
607.02315666034519
 20
-1904.2735585247099
 10
607.02684725966594
 20
-1904.2567989695715
 42
0.0060276699300952
 10
607.11737735882207
 20
-1903.8207231744157
 10
607.12059604911087
 20
-1903.8042219601077
 42
0.0075824337750839
 10
607.19328535852674
 20
-1903.3989547956803
 10
607.19593073590681
 20
-1903.3827998482311
 42
0.0095130624613857
 10
607.25004597153838
 20
-1903.0077104951579
 10
607.25703219542083
 20
-1902.9517769370423
 42
0.0121054653221746
 10
607.28362352599879
 20
-1902.6868811085674
 10
607.28449001575814
 20
-1902.6754776656412
 42
0.0069050827386027
 10
607.2995788337962
 20
-1902.4325364387942
 10
607.30071413346491
 20
-1902.4090101817467
 42
0.0169063976699863
 10
607.30354141244516
 20
-1902.2128174544487
 10
607.30237076091396
 20
-1902.1524816930985
 42
0.0052007732920828
 10
607.30011731232071
 20
-1902.0768883029475
 42
0.0054038123309207
 10
607.28015380048112
 20
-1901.9568700069342
 10
607.27506794461124
 20
-1901.9282115203564
 42
0.0112050460452503
 10
607.23968358255263
 20
-1901.751885082017
 10
607.22185862051219
 20
-1901.6723434952964
 42
0.0240764468019263
 10
607.13096125436584
 20
-1901.3421064597946
 10
607.11240249155185
 20
-1901.2854862947993
 42
0.0256812331830364
 10
606.96903957136283
 20
-1900.913762088544
 10
606.96363014554152
 20
-1900.9016307535544
 42
0.026836050121614
 10
606.7942029046917
 20
-1900.5706376195333
 10
606.78866649705617
 20
-1900.56111794922
 42
0.0274670231724376
 10
606.59646552064351
 20
-1900.2688305743038
 10
606.59108422068266
 20
-1900.2615514267648
 42
0.0275035967103968
 10
606.37951134111881
 20
-1900.0060355364585
 10
606.37444184015089
 20
-1900.0005564488265
 42
0.0269557673516147
 10
606.14703829671271
 20
-1899.7799141628657
 10
606.14229523893005
 20
-1899.775784208405
 42
0.0259124802219999
 10
605.90274040749955
 20
-1899.5880936812525
 10
605.89820956231733
 20
-1899.584908178922
 42
0.0245162152999555
 10
605.65029320922258
 20
-1899.4281751698118
 10
605.64576666289781
 20
-1899.4256149726104
 42
0.022928258883974
 10
605.39334710607091
 20
-1899.297746780112
 10
605.38856661223576
 20
-1899.2955944803507
 42
0.0212984135688294
 10
605.13552865977272
 20
-1899.1943955631077
 10
605.1302243748022
 20
-1899.1925320003472
 42
0.0197555462351161
 10
604.88044603708022
 20
-1899.1157165823829
 42
0.0183511896782251
 10
604.62551731161625
 20
-1899.0581336754174
 10
604.53915211489516
 20
-1899.0419308850328
 42
0.0338057877145562
 10
604.25364476563391
 20
-1899.0081224798921
 10
604.16263936059033
 20
-1899.0035428246306
 42
0.009199052450239
 10
604.05679225195809
 20
-1899.0001669687085
 42
0.0028333980785001
 10
603.95087833594539
 20
-1898.9993388611917
 10
603.94996288291577
 20
-1898.9993368913679
 42
-0.0023619827811473
 10
603.84221686779858
 20
-1898.9985960502893
 10
603.805811697634
 20
-1898.9981737438263
 42
0.0008824598481681
 10
603.62525570784612
 20
-1898.9963979655886
 10
603.58139427537799
 20
-1898.9960440040625
 42
0.0038132665763906
 10
603.31311137950604
 20
-1898.9959250679958
 10
603.29657772470546
 20
-1898.9960438341395
 42
0.0060665569336163
 10
602.99529723310945
 20
-1899.0018641335605
 10
602.98104690108903
 20
-1899.0023124415279
 42
0.0080356953338596
 10
602.65158818474413
 20
-1899.0179801635952
 10
602.63951816966255
 20
-1899.0187487465353
 42
0.009899639910746
 10
602.28675508501306
 20
-1899.0482339757334
 10
602.27670937563698
 20
-1899.0492742719316
 42
0.0117740981367073
 10
601.90555251729018
 20
-1899.0965665194612
 10
601.89732982080568
 20
-1899.0978116360322
 42
0.0137435215133539
 10
601.51274100132036
 20
-1899.1669086095937
 10
601.50608396219695
 20
-1899.1682945058274
 42
0.0158359869385581
 10
601.11308686840016
 20
-1899.2631865943065
 10
601.10767368152756
 20
-1899.2646765351785
 42
0.0180554124029677
 10
600.7113586369087
 20
-1899.3893145514196
 10
600.70680184883167
 20
-1899.3909305876837
 42
0.0203657431283996
 10
600.31232433102321
 20
-1899.5491909291982
 10
600.30818079201299
 20
-1899.5510525506413
 42
0.0226819684655547
 10
599.92074473580885
 20
-1899.7466951293127
 10
599.91654494479144
 20
-1899.7490607212321
 42
0.024863498460151
 10
599.54136300360926
 20
-1899.9856873671797
 10
599.49316807482614
 20
-1900.019544409005
 42
0.0267044190891481
 10
599.21887537790963
 20
-1900.2349847848732
 42
0.0139303002193592
 10
598.96270821196947
 20
-1900.4722236257867
 10
598.95785482624979
 20
-1900.4769762886453
 42
0.0283460963447595
 10
598.71378223202191
 20
-1900.7447069490909
 10
598.67411372686593
 20
-1900.7935085265633
 42
0.0070695364811923
 10
598.59667650100573
 20
-1900.8915753425288
 42
0.0070695364811923
  0
LWPOLYLINE
  5
16C
100
AcDbEntity
  8
0
370
              15
390
0
  6
Continuous
 62
               7
100
AcDbPolyline
 90
      226
 70
             128
 10
595.06785606375934
 20
-1916.6131641487129
 42
-0.0026277636639801
 10
595.0677781799593
 20
-1916.5463922229928
 10
595.06799553819155
 20
-1916.4932370055267
 42
-0.0088680296720102
 10
595.07177215448473
 20
-1916.3202212231242
 10
595.07411851359711
 20
-1916.26094119767
 42
-0.0077381705625272
 10
595.09016462436034
 20
-1915.9696807018729
 10
595.09103253553349
 20
-1915.9573924681868
 42
-0.0068872530516789
 10
595.11766461528157
 20
-1915.6421707161192
 10
595.11886883946772
 20
-1915.629929737099
 42
-0.0062130021491039
 10
595.15646255629508
 20
-1915.2910600458606
 10
595.15796645983028
 20
-1915.2788861739439
 42
-0.0056726929672752
 10
595.20688831933228
 20
-1914.9166909518326
 10
595.20866176497702
 20
-1914.9045971515852
 42
-0.0052341884492528
 10
595.26927235123799
 20
-1914.5194038960626
 10
595.27129034001382
 20
-1914.507398966075
 42
-0.0049768450168661
 10
595.34402902143972
 20
-1914.0995543986446
 10
595.36827803616188
 20
-1913.9710064156363
 42
-0.0089029805626864
 10
595.50535888795753
 20
-1913.3092309682102
 10
595.53810426327527
 20
-1913.1641995376904
 42
-0.0080318257097371
 10
595.7676528776185
 20
-1912.2184899058277
 10
595.77963780406435
 20
-1912.1723592706467
 42
-0.0074265721318833
 10
596.06364934291423
 20
-1911.142294692266
 10
596.08352888603326
 20
-1911.0741606316687
 42
-0.0069711922701558
 10
596.41083346453752
 20
-1910.0078928913488
 10
596.47078541164092
 20
-1909.8218715329845
 42
-0.0052070422895384
 10
596.70021063690228
 20
-1909.1345994559467
 10
596.71749182906558
 20
-1909.0845721753553
 42
-0.0009167004449756
 10
596.92058371636404
 20
-1908.5001163271756
 42
-0.0025162726940181
 10
597.12768134662281
 20
-1907.9170750630235
 10
597.16490595843266
 20
-1907.8139255171054
 42
-0.0028212681462551
 10
597.41308187739514
 20
-1907.1381948849366
 10
597.42291264015103
 20
-1907.1118874402462
 42
-0.0031964916816313
 10
597.65920489780819
 20
-1906.491682678133
 10
597.66883935180408
 20
-1906.4668726879977
 42
-0.0036281836456498
 10
597.89394531290827
 20
-1905.8994320070965
 10
597.90338372306826
 20
-1905.8761345755875
 42
-0.0041269166830748
 10
598.11800141972526
 20
-1905.3586936796153
 10
598.15063437614583
 20
-1905.2818152332547
 42
-0.0047472213057237
 10
598.30767918169977
 20
-1904.9213937653708
 10
598.31457326290399
 20
-1904.9059731680479
 42
-0.0025651659999481
 10
598.46293129675814
 20
-1904.5786451122904
 42
-0.0057144634989012
 10
598.616680990536
 20
-1904.2538354389139
 10
598.64471169592105
 20
-1904.1963270565527
 42
-0.006538806838094
 10
598.82817872367013
 20
-1903.8320945598687
 10
598.83663717945171
 20
-1903.8158349804933
 42
-0.0074510843018667
 10
599.0128194253266
 20
-1903.4891466993765
 10
599.02099909586184
 20
-1903.4745059221002
 42
-0.0084648979856206
 10
599.1906329489575
 20
-1903.1825969111467
 10
599.19848907544235
 20
-1903.1695899195013
 42
-0.0095638542805761
 10
599.36232452303966
 20
-1902.9097010475173
 10
599.36979946670635
 20
-1902.8983316860695
 42
-0.0107191626812426
 10
599.52860104709907
 20
-1902.6677204515177
 10
599.53561778083633
 20
-1902.6579843591444
 42
-0.0118458573894198
 10
599.69016587934266
 20
-1902.4539121638422
 42
-0.0129184518193956
 10
599.85461850294655
 20
-1902.257751647669
 10
599.88476327530498
 20
-1902.2236255687749
 42
-0.0217742579639653
 10
600.06137559764284
 20
-1902.0404187985223
 10
600.07212114210233
 20
-1902.0302019653202
 42
-0.0097266568641927
 10
600.23817876095882
 20
-1901.8783543908819
 42
-0.0187720905733402
 10
600.41252633684644
 20
-1901.7362855374943
 10
600.44323232752288
 20
-1901.7131264550962
 42
-0.0179428207513092
 10
600.67565304751906
 20
-1901.5505742779849
 10
600.67930537443374
 20
-1901.5482103430977
 42
-0.0170047877695417
 10
600.91506901196499
 20
-1901.4067498289457
 10
600.91885200071374
 20
-1901.4046515239083
 42
-0.0160190788364014
 10
601.15576054834673
 20
-1901.2830002219214
 42
-0.0151102861494572
 10
601.39979233079521
 20
-1901.1763174458661
 10
601.45217883300529
 20
-1901.155277312972
 42
-0.0271945441883847
 10
601.81084139206678
 20
-1901.033412502265
 10
601.87990619254651
 20
-1901.0140629610012
 42
-0.0237596594026218
 10
602.29570303957416
 20
-1900.9186122490182
 10
602.36376589330348
 20
-1900.9063575608916
 42
-0.0213715440552137
 10
602.64964082474989
 20
-1900.8674105293817
 10
602.7097879909777
 20
-1900.86182081468
 42
-0.0101465655811404
 10
602.87728052296188
 20
-1900.8496772714166
 10
602.88662090915579
 20
-1900.8491903564195
 42
-0.0100375910886107
 10
603.03577500972233
 20
-1900.844414538494
 10
603.04603427940492
 20
-1900.8442920994796
 42
-0.0103625633381696
 10
603.17474227405773
 20
-1900.8454235330062
 10
603.19700792532399
 20
-1900.846080891471
 42
-0.0115689250243307
 10
603.2810586628525
 20
-1900.8505103977163
 42
-0.0072438037426662
 10
603.36489694228896
 20
-1900.8580995974655
 10
603.38169745176447
 20
-1900.85986614019
 42
-0.0217917313127394
 10
603.49826721507918
 20
-1900.8772860329111
 10
603.56386730564782
 20
-1900.8900326413259
 42
-0.0332943556762121
 10
603.76825947067346
 20
-1900.9440729326325
 10
603.79843203922235
 20
-1900.9542410097506
 42
-0.0184824084793637
 10
603.93693709568879
 20
-1901.0066920251375
 42
-0.01980020506926
 10
604.07101143618831
 20
-1901.0695760853366
 10
604.07289807356528
 20
-1901.0705538722166
 42
-0.0212242342980031
 10
604.2050370159684
 20
-1901.1463166110104
 10
604.20685231151083
 20
-1901.1474624132181
 42
-0.0226090605797714
 10
604.3353562127337
 20
-1901.2369420567838
 10
604.3372006544696
 20
-1901.2383543097701
 42
-0.0238457052233334
 10
604.46038273575903
 20
-1901.3423502056294
 10
604.46233546432131
 20
-1901.3441650833986
 42
-0.0248160564146693
 10
604.57853697162386
 20
-1901.4634396846093
 10
604.5806406050242
 20
-1901.4658250183118
 42
-0.0254109591460175
 10
604.68824582288983
 20
-1901.6011134042756
 10
604.69049384480422
 20
-1901.6042549526767
 42
-0.025552848828734
 10
604.78794052360115
 20
-1901.7562820069104
 10
604.79027162351758
 20
-1901.7603636185186
 42
-0.0252146793229122
 10
604.87605264952686
 20
-1901.9298658645155
 10
604.8783548886845
 20
-1901.9350479464283
 42
-0.0244265635949651
 10
604.95100958244598
 20
-1902.1227945184748
 10
604.96025598391475
 20
-1902.150659936814
 42
-0.0231319612896199
 10
605.00617876290653
 20
-1902.3139609836146
 42
-0.0112130424365366
 10
605.04081478544435
 20
-1902.4801645838004
 10
605.04201731055718
 20
-1902.4866611706905
 42
-0.0210527881244798
 10
605.06770378592762
 20
-1902.6677168161302
 10
605.07121438074955
 20
-1902.7031223646788
 42
-0.0190029892420516
 10
605.08665585429389
 20
-1902.956658210951
 10
605.08746583073798
 20
-1902.9921338253203
 42
-0.0137974553664774
 10
605.08591697790268
 20
-1903.3171652320439
 10
605.08507152294692
 20
-1903.3432839766465
 42
-0.0081336634214586
 10
605.07021218772434
 20
-1903.6486314442457
 42
-0.0073526923567241
 10
605.04590365434979
 20
-1903.9533796885328
 10
605.04464223056721
 20
-1903.9667163631968
 42
-0.0066886138695066
 10
605.00890664452129
 20
-1904.2973024066894
 10
605.00724955505075
 20
-1904.3109240256856
 42
-0.0061359187350303
 10
604.95939895299966
 20
-1904.6676880057853
 10
604.95736145192677
 20
-1904.6815828086148
 42
-0.0056698610060536
 10
604.89671112115911
 20
-1905.0648613774586
 10
604.894305687837
 20
-1905.0790204966836
 42
-0.005272107728242
 10
604.82017348704017
 20
-1905.4891478363472
 10
604.81741033819571
 20
-1905.5035644717475
 42
-0.0049289272170786
 10
604.72911622009497
 20
-1905.9408729828738
 10
604.72600372541319
 20
-1905.9555418356856
 42
-0.0047415956714893
 10
604.62276573388237
 20
-1906.4203385930903
 10
604.58799752352115
 20
-1906.5701456884794
 42
-0.0084404470901332
 10
604.39798107994966
 20
-1907.3303697130086
 10
604.39185439196353
 20
-1907.353233837164
 42
-0.0039635940260303
 10
604.17040070768098
 20
-1908.1542227014061
 10
604.15702391249988
 20
-1908.2011543180033
 42
-0.0072475040837414
 10
603.88957702463756
 20
-1909.0903740343908
 10
603.81936469780976
 20
-1909.3121143843643
 42
-0.0051345458828681
 10
603.53260532575041
 20
-1910.1864395721766
 10
603.51107905898209
 20
-1910.2498658393088
 42
-0.001915001660091
 10
603.25554565211633
 20
-1910.9934149595326
 10
603.24907804771806
 20
-1911.0120024244598
 42
-0.00215243627533
 10
603.00059999665655
 20
-1911.7163282461622
 10
602.99138957596585
 20
-1911.7420818244477
 42
-0.0024331286824891
 10
602.75513431692389
 20
-1912.3926811325819
 10
602.74608636437506
 20
-1912.4172244389315
 42
-0.0027449721785543
 10
602.52147179353778
 20
-1913.0163543178605
 10
602.51258178615069
 20
-1913.0396769076995
 42
-0.0031083229770543
 10
602.29903929953571
 20
-1913.5896009452924
 10
602.29030316785895
 20
-1913.611690661153
 42
-0.0035311343281638
 10
602.0872619822685
 20
-1914.1146737868803
 10
602.07867664312778
 20
-1914.1355165103737
 42
-0.0040245640950791
 10
601.88556483932643
 20
-1914.5938258329832
 10
601.87712872571865
 20
-1914.6134052010661
 42
-0.0046015135850195
 10
601.6933724325595
 20
-1915.0293102306975
 10
601.68508625473112
 20
-1915.04760737015
 42
-0.0052768638267461
 10
601.5101087357757
 20
-1915.42338025442
 10
601.50197652514817
 20
-1915.4403735929643
 42
-0.0060672675643964
 10
601.3351969123828
 20
-1915.7782892160774
 10
601.32722743190106
 20
-1915.793954475075
 42
-0.0069904648871018
 10
601.16805903789964
 20
-1916.0962902817382
 10
601.16026763829279
 20
-1916.1106008309584
 42
-0.0080637022769927
 10
601.00811577794275
 20
-1916.3796361341185
 10
601.00052674530923
 20
-1916.3925639997233
 42
-0.0093006455657863
 10
600.85478606877996
 20
-1916.6305783982225
 10
600.84743540203942
 20
-1916.6420963673909
 42
-0.0107060778049805
 10
600.70748685859826
 20
-1916.8513666847748
 10
600.70042509031543
 20
-1916.8614522273454
 42
-0.0122723111416223
 10
600.56563137212061
 20
-1917.0442455568295
 10
600.56530514856729
 20
-1917.0446659446382
 42
-0.0141836319622086
 10
600.42172354559216
 20
-1917.2192357024687
 10
600.41477578994318
 20
-1917.22721070273
 42
-0.0175957477207162
 10
600.27486962190551
 20
-1917.3768315911384
 42
-0.0080466359670134
 10
600.12740585687368
 20
-1917.5191541192912
 10
600.08137131235799
 20
-1917.5621745573808
 42
-0.0269600260394167
 10
599.82809106637569
 20
-1917.7744978158896
 10
599.76152393008215
 20
-1917.8244492305109
 42
-0.0178362839757818
 10
599.5215794404221
 20
-1917.9914671567662
 10
599.51433446941735
 20
-1917.9961356689739
 42
-0.0174650732642145
 10
599.27799827198032
 20
-1918.1369966339303
 42
-0.0169240130166263
 10
599.03253202612052
 20
-1918.2612888937088
 10
598.9865458705649
 20
-1918.2826508492749
 42
-0.0318883036847817
 10
598.63619501495077
 20
-1918.418989158783
 10
598.5678294797782
 20
-1918.440689779261
 42
-0.0284435909901977
 10
598.19177935348898
 20
-1918.536907214735
 10
598.15662119298622
 20
-1918.5438008105643
 42
-0.0243909341007892
 10
597.84317773207158
 20
-1918.5895218415935
 10
597.79289700530649
 20
-1918.5943673884947
 42
-0.0196639292934443
 10
597.57730142777336
 20
-1918.6066156740087
 10
597.52547735660028
 20
-1918.6075189347455
 42
-0.0100501510680893
 10
597.41305407494565
 20
-1918.6072185363923
 10
597.38139421363815
 20
-1918.6064974645078
 42
-0.001975203113096
 10
597.33230187692016
 20
-1918.6051853042975
 10
597.32954157369318
 20
-1918.605100612471
 42
0.0065378751982816
 10
597.2859649989432
 20
-1918.6043337212564
 42
-0.0167974694629703
 10
597.24243417600621
 20
-1918.6026738227299
 10
597.23835483674929
 20
-1918.6023808118352
 42
-0.0081283276299215
 10
597.18679503902581
 20
-1918.5978338181988
 10
597.17505546513212
 20
-1918.5966059006189
 42
-0.0126703440165317
 10
597.10033716933538
 20
-1918.586871109547
 10
597.07754930166175
 20
-1918.5833128536322
 42
-0.0117852088427999
 10
596.95801031582732
 20
-1918.5617498584747
 10
596.90262986406651
 20
-1918.5504063182404
 42
-0.0251774592288188
 10
596.67578582505962
 20
-1918.491908308808
 10
596.6310666352075
 20
-1918.4779414894724
 42
-0.0146525199890657
 10
596.44467364766888
 20
-1918.4136749622742
 42
-0.0166929435852404
 10
596.26269599153954
 20
-1918.3378678292181
 10
596.25803936026932
 20
-1918.3357429286054
 42
-0.0191684358425174
 10
596.07285572902299
 20
-1918.2425068448172
 10
596.06952314326327
 20
-1918.2406655972623
 42
-0.0221181781821217
 10
595.88621283936186
 20
-1918.128532098892
 10
595.88386303535253
 20
-1918.1269478009006
 42
-0.0254984685386487
 10
595.70757288496759
 20
-1917.994536650931
 10
595.68509073726318
 20
-1917.9757843419927
 42
-0.0292492648793077
 10
595.56032179842214
 20
-1917.8586915423514
 42
-0.0159048957510347
 10
595.4464818009742
 20
-1917.730671550755
 10
595.44516301039266
 20
-1917.7290899377324
 42
-0.0343813379563653
 10
595.34252574876689
 20
-1917.5872186119636
 10
595.31103421740568
 20
-1917.5367152198692
 42
-0.0369117275706215
 10
595.22514171550802
 20
-1917.3732379789203
 42
-0.019175137991684
 10
595.15794832995141
 20
-1917.200833372915
 10
595.15618500619166
 20
-1917.1957400282395
 42
-0.0378178042218768
 10
595.10639028740763
 20
-1917.0067992521572
 10
595.1003949916776
 20
-1916.9742386339612
 42
-0.0184846046472675
 10
595.07967779238334
 20
-1916.8324858134163
 42
-0.0179866351292372
 10
595.06934478730909
 20
-1916.6895950003363
 10
595.06928834486325
 20
-1916.6880373137226
 42
-0.0085497186018539
 10
595.06785606375934
 20
-1916.6131641487129
 42
-0.0085497186018539
  0
ENDBLK
  5
16D
100
AcDbEntity
  8
template
390
0
100
AcDbBlockEnd
  0
BLOCK
  5
16E
100
AcDbEntity
  8
template
390
0
100
AcDbBlockBegin
  2
グループ-6
 70
               0
 10
0.0
 20
0.0
 30
0.0
  3
グループ-6
  1

  0
MTEXT
  5
16F
100
AcDbEntity
  8
0
390
0
 62
               7
100
AcDbMText
 10
-1273.9996493737376
 20
-1702.9414333535667
 30
0.0
 40
16.288411458333332
 41
0.0
 71
               1
 72
               1
  1
品名
  7
ＭＳ ゴシック
 73
               1
 44
0.7828267384257843
  0
MTEXT
  5
170
100
AcDbEntity
  8
0
390
0
 62
               7
100
AcDbMText
 10
-1273.9996493737376
 20
-1787.9414333535667
 30
0.0
 40
16.288411458333332
 41
0.0
 71
               1
 72
               1
  1
仕様
  7
ＭＳ ゴシック
 73
               1
 44
0.7828267384257843
  0
LINE
  5
171
100
AcDbEntity
  8
0
370
               5
390
0
  6
Continuous
 62
               7
100
AcDbLine
 10
669.00035062578036
 20
-1779.5265114785668
 30
0.0
 11
-1280.9996493742196
 21
-1779.5265114785668
 31
0.0
  0
LWPOLYLINE
  5
172
100
AcDbEntity
  8
0
370
               5
390
0
  6
Continuous
 62
               7
100
AcDbPolyline
 90
        5
 70
             128
 10
669.0003506262633
 20
850.47348852143341
 10
-1280.9996493737376
 20
850.47348852143341
 10
-1280.9996493737376
 20
-1949.5265114785666
 10
669.0003506262633
 20
-1949.5265114785666
 10
669.0003506262633
 20
850.47348852143341
  0
LINE
  5
173
100
AcDbEntity
  8
0
370
               5
390
0
  6
Continuous
 62
               7
100
AcDbLine
 10
669.00035062578036
 20
-1694.5265114785668
 30
0.0
 11
-1280.9996493742196
 21
-1694.5265114785668
 31
0.0
  0
LINE
  5
174
100
AcDbEntity
  8
0
370
               5
390
0
  6
Continuous
 62
               7
100
AcDbLine
 10
669.0003506262633
 20
-1864.5265114785668
 30
0.0
 11
-83.999649373737157
 21
-1864.5265114785668
 31
0.0
  0
MTEXT
  5
175
100
AcDbEntity
  8
0
390
0
 62
               7
100
AcDbMText
 10
-54.128243121477226
 20
-1894.4369059518745
 30
0.0
 40
24.432617187500004
 41
0.0
 71
               1
 72
               1
  1
大洋金物株式会社 ティーフォルム事業部
  7
ＭＳ ゴシック
 73
               1
 44
0.7828267384257843
  0
INSERT
  5
176
100
AcDbEntity
  8
0
390
0
 62
               7
100
AcDbBlockReference
  2
グループ-5
 10
0.0
 20
0.0
 30
0.0
  0
MTEXT
  5
177
100
AcDbEntity
  8
0
390
0
 62
               7
100
AcDbMText
 10
478.00035062652159
 20
-1816.5238942910669
 30
0.0
 40
24.432617187500004
 41
0.0
 71
               1
 72
               1
  1
1:10
  7
ＭＳ ゴシック
 73
               1
 44
0.7828267384257843
  0
MTEXT
  5
178
100
AcDbEntity
  8
0
390
0
 62
               7
100
AcDbMText
 10
425.00035062652159
 20
-1787.9414333535667
 30
0.0
 40
16.288411458333332
 41
0.0
 71
               1
 72
               1
  1
縮尺
  7
ＭＳ ゴシック
 73
               1
 44
0.7828267384257843
  0
LINE
  5
179
100
AcDbEntity
  8
0
370
               5
390
0
  6
Continuous
 62
               7
100
AcDbLine
 10
418.00035062652159
 20
-1864.5265114785668
 30
0.0
 11
418.00035062652159
 21
-1779.5265114785668
 31
0.0
  0
MTEXT
  5
17A
100
AcDbEntity
  8
0
390
0
 62
               7
100
AcDbMText
 10
174.00035062652159
 20
-1787.9414333535667
 30
0.0
 40
16.288411458333332
 41
0.0
 71
               1
 72
               1
  1
容量
  7
ＭＳ ゴシック
 73
               1
 44
0.7828267384257843
  0
MTEXT
  5
17B
100
AcDbEntity
  8
0
390
0
 62
               7
100
AcDbMText
 10
227.00035062652137
 20
-1816.5238942910669
 30
0.0
 40
24.432617187500004
 41
0.0
 71
               1
 72
               1
  1
6L
  7
ＭＳ ゴシック
 73
               1
 44
0.7828267384257843
  0
LINE
  5
17C
100
AcDbEntity
  8
0
370
               5
390
0
  6
Continuous
 62
               7
100
AcDbLine
 10
167.00035062652159
 20
-1864.5265114785668
 30
0.0
 11
167.00035062652159
 21
-1779.5265114785668
 31
0.0
  0
MTEXT
  5
17D
100
AcDbEntity
  8
0
390
0
 62
               7
100
AcDbMText
 10
-76.999649373478405
 20
-1702.9414333535667
 30
0.0
 40
16.288411458333332
 41
0.0
 71
               1
 72
               1
  1
品番
  7
ＭＳ ゴシック
 73
               1
 44
0.7828267384257843
  0
MTEXT
  5
17E
100
AcDbEntity
  8
0
390
0
 62
               7
100
AcDbMText
 10
-76.999649373478405
 20
-1787.9414333535667
 30
0.0
 40
16.288411458333332
 41
0.0
 71
               1
 72
               1
  1
重量
  7
ＭＳ ゴシック
 73
               1
 44
0.7828267384257843
  0
MTEXT
  5
17F
100
AcDbEntity
  8
0
390
0
 62
               7
100
AcDbMText
 10
-23.999649373478405
 20
-1731.5238942910669
 30
0.0
 40
24.432617187500004
 41
0.0
 71
               1
 72
               1
  1
GAR70-0601
  7
ＭＳ ゴシック
 73
               1
 44
0.7828267384257843
  0
MTEXT
  5
180
100
AcDbEntity
  8
0
390
0
 62
               7
100
AcDbMText
 10
-23.999649373478405
 20
-1816.5238942910669
 30
0.0
 40
24.432617187500004
 41
0.0
 71
               1
 72
               1
  1
14.5kg
  7
ＭＳ ゴシック
 73
               1
 44
0.7828267384257843
  0
LINE
  5
181
100
AcDbEntity
  8
0
370
               5
390
0
  6
Continuous
 62
               7
100
AcDbLine
 10
-83.999649373478405
 20
-1949.5265114785666
 30
0.0
 11
-83.999649373478405
 21
-1694.5265114785668
 31
0.0
  0
MTEXT
  5
182
100
AcDbEntity
  8
0
390
0
 62
               7
100
AcDbMText
 10
-1220.9996493737376
 20
-1731.5238942910669
 30
0.0
 40
24.432617187500004
 41
0.0
 71
               1
 72
               1
  1
洗面器 -LAUFEN,Form-
  7
ＭＳ ゴシック
 73
               1
 44
0.7828267384257843
  0
MTEXT
  5
183
100
AcDbEntity
  8
0
390
0
 62
               7
100
AcDbMText
 10
-1220.9996493737376
 20
-1816.5238942910669
 30
0.0
 40
24.432617187500004
 41
0.0
 71
               1
 72
               1
  1
壁掛け,カウンタ ートップ/オーバーフロー付き/壁取付ボルト付属/\P陶器/ホワイト
  7
ＭＳ ゴシック
 73
               1
 44
1.1307497332816883
  0
MTEXT
  5
184
100
AcDbEntity
  8
0
390
0
 62
               7
100
AcDbMText
 10
-1280.9996493735343
 20
-1961.3803335354244
 30
0.0
 40
21.717881944444446
 41
0.0
 71
               1
 72
               1
  1
100710SH
  7
ＭＳ ゴシック
 73
               1
 44
0.7828267384257843
  0
ENDBLK
  5
185
100
AcDbEntity
  8
template
390
0
100
AcDbBlockEnd
  0
BLOCK
  5
186
100
AcDbEntity
  8
GAR70-0601
390
0
100
AcDbBlockBegin
  2
グループ-7
 70
               0
 10
0.0
 20
0.0
 30
0.0
  3
グループ-7
  1

  0
MTEXT
  5
187
100
AcDbEntity
  8
0
390
0
 62
               7
100
AcDbMText
 10
-187.5674596303341
 20
-382.1158354467309
 30
0.0
 40
24.432617187500004
 41
783.13562051271151
 71
               1
 72
               1
  1
※陶器製品には寸法公差があります。\P  洗面器の収め方をご確認の上、必ず現物を合わせて\P  カウンターの切込を行ってください。
  7
ＭＳ ゴシック
 73
               1
 44
1.0437689845677123
  0
MTEXT
  5
188
100
AcDbEntity
  8
0
390
0
 62
               7
100
AcDbMText
 10
-187.5674596303341
 20
-527.61863518060647
 30
0.0
 40
24.432617187500004
 41
0.0
 71
               1
 72
               1
  1
※カウンタートップ置きの場合も壁固定が必要です。\P
  7
ＭＳ ゴシック
 73
               1
 44
0.7828267384257843
  0
ENDBLK
  5
189
100
AcDbEntity
  8
GAR70-0601
390
0
100
AcDbBlockEnd
  0
ENDSEC
  0
SECTION
  2
ENTITIES
  0
INSERT
  5
18A
100
AcDbEntity
  8
template
390
0
 62
               7
100
AcDbBlockReference
  2
グループ-1
 10
305.99964937397834
 20
568.28791903477327
 30
0.0
  0
MTEXT
  5
18B
100
AcDbEntity
  8
template
390
0
 62
               7
100
AcDbMText
 10
-837.46139054635546
 20
186.17208358804237
 30
0.0
 40
24.432617187500004
 41
833.92979864183906
 71
               1
 72
               1
  1
＝φ30もしくはφ35の水栓取付用穴あけ加工を承ります。\P   必要な場合、ご注文の際にご指示ください。
  7
ＭＳ ゴシック
 73
               1
 44
1.0437689845677123
  0
CIRCLE
  5
18C
100
AcDbEntity
  8
template
370
               5
390
0
  6
STYLE_12
 62
               7
100
AcDbCircle
 10
-867.82925898853568
 20
171.54446640054232
 30
0.0
 40
17.500000000000075
  0
DIMENSION
  5
18D
100
AcDbEntity
  8
template
370
               5
390
0
  6
Continuous
 62
               7
100
AcDbDimension
  2
*D3
 10
477.17355591782905
 20
-446.45454499083598
 30
0.0
 11
482.17355591782905
 21
-440.14660527066394
 31
0.0
 70
             128
 71
               5
 72
               1
 41
1.0
 42
0.0
  3
tfrom線あり
100
AcDbAlignedDimension
 13
476.25677384221507
 23
-561.45454499083553
 33
0.0
 14
476.2478838314093
 24
-446.45454499083598
 34
0.0
 50
90.0
100
AcDbRotatedDimension
1001
ACAD
1000
DSTYLE
1002
{
1070
             279
1070
               2
1070
             340
1005
3E
1070
               3
1000
<>(深さ)
1070
             174
1070
               0
1070
             147
1040
5.0
1002
}
  0
DIMENSION
  5
18E
100
AcDbEntity
  8
template
370
               5
390
0
  6
Continuous
 62
               7
100
AcDbDimension
  2
*D4
 10
-556.64689284976134
 20
943.85339472933606
 30
0.0
 11
-506.6475328497616
 21
943.85339472933606
 31
0.0
 71
               5
 72
               1
 41
1.0
 42
0.0
  3
tfrom線あり
100
AcDbAlignedDimension
 13
-456.64817284976181
 23
794.3459947293361
 33
0.0
 14
-556.64689284976134
 24
794.34766572933609
 34
0.0
100
AcDbRotatedDimension
1001
ACAD
1000
DSTYLE
1002
{
1070
             279
1070
               2
1070
             340
1005
3E
1070
             147
1040
5.0
1002
}
  0
DIMENSION
  5
18F
100
AcDbEntity
  8
template
370
               5
390
0
  6
Continuous
 62
               7
100
AcDbDimension
  2
*D5
 10
-456.64817284976181
 20
943.85339472933606
 30
0.0
 11
-406.65156884976165
 21
943.85339472933606
 31
0.0
 71
               5
 72
               1
 41
1.0
 42
0.0
  3
tfrom線あり
100
AcDbAlignedDimension
 13
-356.65496484976148
 23
794.3459947293361
 33
0.0
 14
-456.64817284976181
 24
794.3459947293361
 34
0.0
100
AcDbRotatedDimension
1001
ACAD
1000
DSTYLE
1002
{
1070
             279
1070
               2
1070
             340
1005
3E
1070
             147
1040
5.0
1002
}
  0
DIMENSION
  5
190
100
AcDbEntity
  8
template
370
               5
390
0
  6
Continuous
 62
               7
100
AcDbDimension
  2
*D6
 10
-831.1641996469732
 20
743.85382875711389
 30
0.0
 11
-831.1641996469732
 21
793.85382875711389
 31
0.0
 71
               5
 72
               1
 41
1.0
 42
0.0
  3
tfrom線あり
100
AcDbAlignedDimension
 13
-731.1641996469732
 23
843.85382875711389
 33
0.0
 14
-731.1641996469732
 24
743.85382875711389
 34
0.0
 50
90.0
100
AcDbRotatedDimension
1001
ACAD
1000
DSTYLE
1002
{
1070
             279
1070
               2
1070
             340
1005
3E
1070
             147
1040
5.0
1002
}
  0
DIMENSION
  5
191
100
AcDbEntity
  8
template
370
               5
390
0
  6
Continuous
 62
               7
100
AcDbDimension
  2
*D7
 10
-831.1641996469732
 20
453.85382875711389
 30
0.0
 11
-831.1641996469732
 21
598.85382875711389
 31
0.0
 71
               5
 72
               1
 41
1.0
 42
0.0
  3
tfrom線あり
100
AcDbAlignedDimension
 13
-731.1641996469732
 23
743.85382875711389
 33
0.0
 14
-731.1641996469732
 24
453.85382875711389
 34
0.0
 50
90.0
100
AcDbRotatedDimension
1001
ACAD
1000
DSTYLE
1002
{
1070
             279
1070
               2
1070
             340
1005
3E
1070
             147
1040
5.0
1002
}
  0
DIMENSION
  5
192
100
AcDbEntity
  8
template
370
               5
390
0
  6
Continuous
 62
               7
100
AcDbDimension
  2
*D8
 10
-81.164199646973259
 20
423.85339472933606
 30
0.0
 11
-81.164199646973259
 21
633.85339472933606
 31
0.0
 71
               5
 72
               1
 41
1.0
 42
0.0
  3
tfrom線あり
100
AcDbAlignedDimension
 13
-181.16419964697326
 23
843.85339472933606
 33
0.0
 14
-181.16419964697326
 24
423.85339472933606
 34
0.0
 50
90.0
100
AcDbRotatedDimension
1001
ACAD
1000
DSTYLE
1002
{
1070
             279
1070
               2
1070
             340
1005
3E
1070
             147
1040
5.0
1002
}
  0
DIMENSION
  5
193
100
AcDbEntity
  8
template
370
               5
390
0
  6
Continuous
 62
               7
100
AcDbDimension
  2
*D9
 10
-731.1641996469732
 20
993.2691826574686
 30
0.0
 11
-456.16419964697326
 21
993.2691826574686
 31
0.0
 71
               5
 72
               1
 41
1.0
 42
0.0
  3
tfrom線あり
100
AcDbAlignedDimension
 13
-181.16419964697326
 23
843.85339472933606
 33
0.0
 14
-731.1641996469732
 24
843.85339472933606
 34
0.0
100
AcDbRotatedDimension
1001
ACAD
1000
DSTYLE
1002
{
1070
             279
1070
               2
1070
             340
1005
3E
1070
             147
1040
5.0
1002
}
  0
DIMENSION
  5
194
100
AcDbEntity
  8
template
370
               5
390
0
  6
Continuous
 62
               7
100
AcDbDimension
  2
*D10
 10
-701.27815141471251
 20
323.2691826574686
 30
0.0
 11
-456.27815141471257
 21
323.2691826574686
 31
0.0
 71
               5
 72
               1
 41
1.0
 42
0.0
  3
tfrom線あり
100
AcDbAlignedDimension
 13
-211.27815141471257
 23
423.85339472933606
 33
0.0
 14
-701.27815141471251
 24
423.85339472933606
 34
0.0
100
AcDbRotatedDimension
1001
ACAD
1000
DSTYLE
1002
{
1070
             279
1070
               2
1070
             340
1005
3E
1070
             147
1040
5.0
1002
}
  0
DIMENSION
  5
195
100
AcDbEntity
  8
template
370
               5
390
0
  6
Continuous
 62
               7
100
AcDbDimension
  2
*D11
 10
-81.164199646970985
 20
-603.46819336330918
 30
0.0
 11
-81.164199646970985
 21
-523.46819336330918
 31
0.0
 71
               5
 72
               1
 41
1.0
 42
0.0
  3
tfrom線あり
100
AcDbAlignedDimension
 13
-181.16419964697144
 23
-443.46819336330918
 33
0.0
 14
-271.08537464697002
 24
-603.46819336330918
 34
0.0
 50
90.0
100
AcDbRotatedDimension
1001
ACAD
1000
DSTYLE
1002
{
1070
             279
1070
               2
1070
             340
1005
3E
1070
             147
1040
5.0
1002
}
  0
DIMENSION
  5
196
100
AcDbEntity
  8
template
370
               5
390
0
  6
Continuous
 62
               7
100
AcDbDimension
  2
*D12
 10
-831.1641996469732
 20
-493.46819336330918
 30
0.0
 11
-836.1641996469732
 21
-468.46819336330918
 31
0.0
 70
             128
 71
               5
 72
               1
 41
1.0
 42
0.0
  3
tfrom線あり
100
AcDbAlignedDimension
 13
-731.16419964697138
 23
-443.46819336330918
 33
0.0
 14
-616.16419964697138
 24
-493.46819336330918
 34
0.0
 50
90.0
100
AcDbRotatedDimension
1001
ACAD
1000
DSTYLE
1002
{
1070
             279
1070
               2
1070
             340
1005
3E
1070
             147
1040
5.0
1002
}
  0
DIMENSION
  5
197
100
AcDbEntity
  8
template
370
               5
390
0
  6
Continuous
 62
               7
100
AcDbDimension
  2
*D13
 10
-596.16419964697138
 20
-343.46819336330918
 30
0.0
 11
-456.16419964697144
 21
-343.46819336330918
 31
0.0
 71
               5
 72
               1
 41
1.0
 42
0.0
  3
tfrom線あり
100
AcDbAlignedDimension
 13
-316.16419964697144
 23
-476.26030238937619
 33
0.0
 14
-596.16419964697138
 24
-473.46819336330918
 34
0.0
100
AcDbRotatedDimension
1001
ACAD
1000
DSTYLE
1002
{
1070
             279
1070
               2
1070
             340
1005
3E
1070
             147
1040
5.0
1002
}
  0
DIMENSION
  5
198
100
AcDbEntity
  8
template
370
               5
390
0
  6
Continuous
 62
               7
100
AcDbDimension
  2
*D14
 10
699.29135476420515
 20
-703.46819336330896
 30
0.0
 11
596.7913547642047
 21
-698.46819336330896
 31
0.0
 70
             128
 71
               5
 72
               1
 41
1.0
 42
0.0
  3
tfrom線あり
100
AcDbAlignedDimension
 13
494.29135476420441
 23
-604.89100294628452
 33
0.0
 14
699.29135476420515
 24
-604.89100294628452
 34
0.0
100
AcDbRotatedDimension
1001
ACAD
1000
DSTYLE
1002
{
1070
             279
1070
               2
1070
             340
1005
3E
1070
             147
1040
5.0
1002
}
  0
DIMENSION
  5
199
100
AcDbEntity
  8
template
370
               5
390
0
  6
Continuous
 62
               7
100
AcDbDimension
  2
*D15
 10
634.26861118238094
 20
-343.46819336330918
 30
0.0
 11
666.76861118238094
 21
-343.46819336330918
 31
0.0
 71
               5
 72
               1
 41
1.0
 42
0.0
  3
tfrom線あり
100
AcDbAlignedDimension
 13
699.26861118238094
 23
-443.46819336330918
 33
0.0
 14
634.26861118238094
 24
-443.46819336330918
 34
0.0
100
AcDbRotatedDimension
1001
ACAD
1000
DSTYLE
1002
{
1070
             279
1070
               2
1070
             340
1005
3E
1070
             147
1040
5.0
1002
}
  0
INSERT
  5
19A
100
AcDbEntity
  8
template
390
0
 62
               7
100
AcDbBlockReference
  2
壁取付ボルト説明
 10
-316.16419964697144
 20
-493.46819336330918
 30
0.0
  0
MTEXT
  5
19B
100
AcDbEntity
  8
template
390
0
 62
               7
100
AcDbMText
 10
319.69123579993419
 20
1049.1358879015302
 30
0.0
 40
24.432617187500004
 41
0.0
 71
               1
 72
               1
  1
カウンター切込寸法
  7
ＭＳ ゴシック
 73
               1
 44
0.7828267384257843
  0
DIMENSION
  5
19C
100
AcDbEntity
  8
template
370
               5
390
0
  6
Continuous
 62
               7
100
AcDbDimension
  2
*D17
 10
708.34188455881986
 20
563.85339472933606
 30
0.0
 11
708.34188455881986
 21
703.85339472933606
 31
0.0
 71
               5
 72
               1
 41
1.0
 42
0.0
  3
tfrom線あり
100
AcDbAlignedDimension
 13
628.34188455881986
 23
843.85339472933606
 33
0.0
 14
628.34188455881986
 24
563.85339472933606
 34
0.0
 50
90.0
100
AcDbRotatedDimension
1001
ACAD
1000
DSTYLE
1002
{
1070
             279
1070
               2
1070
             340
1005
3E
1070
             147
1040
5.0
1002
}
  0
DIMENSION
  5
19D
100
AcDbEntity
  8
template
370
               5
390
0
  6
Continuous
 62
               7
100
AcDbDimension
  2
*D18
 10
278.34188455881912
 20
463.85339472933606
 30
0.0
 11
453.34188455881946
 21
463.85339472933606
 31
0.0
 71
               5
 72
               1
 41
1.0
 42
0.0
  3
tfrom線あり
100
AcDbAlignedDimension
 13
628.34188455881986
 23
563.85339472933606
 33
0.0
 14
278.34188455881912
 24
563.85339472933606
 34
0.0
100
AcDbRotatedDimension
1001
ACAD
1000
DSTYLE
1002
{
1070
             279
1070
               2
1070
             340
1005
3E
1070
             147
1040
5.0
1002
}
  0
DIMENSION
  5
19E
100
AcDbEntity
  8
template
370
               5
390
0
  6
Continuous
 62
               7
100
AcDbDimension
  2
*D19
 10
-467.85460109180559
 20
765.4086373474853
 30
0.0
 11
-312.42233286251388
 21
879.85339472933617
 31
0.0
 70
               3
 71
               5
 72
               1
 41
1.0
 42
0.0
  3
tfrom線あり
100
AcDbDiametricDimension
 15
-445.44174460771757
 25
792.28669411118688
 35
0.0
 40
114.01649682727573
1001
ACAD
1000
DSTYLE
1002
{
1070
             289
1070
               0
1070
             342
1005
51
1070
             340
1005
3D
1070
             140
1040
21.828125
1070
              73
1070
               1
1070
              74
1070
               1
1070
              75
1070
               1
1070
              76
1070
               1
1070
               3
1000

1070
             174
1070
               0
1070
             147
1040
5.0
1002
}
  0
SPLINE
  5
19F
100
AcDbEntity
  8
template
370
              15
390
0
  6
Continuous
 62
               7
100
AcDbSpline
210
0.0
220
0.0
230
1.0
 70
              13
 71
               2
 72
              44
 73
              41
 74
               0
 42
0.000001
 43
0.000001
 40
0.0
 40
0.0
 40
0.0
 40
1.0
 40
1.0
 40
2.0
 40
2.0
 40
3.0
 40
4.0
 40
5.0
 40
6.0
 40
7.0
 40
8.0
 40
9.0
 40
10.0
 40
11.0
 40
12.0
 40
13.0
 40
13.0
 40
14.0
 40
14.0
 40
15.0
 40
15.0
 40
16.0
 40
16.0
 40
17.0
 40
17.0
 40
18.0
 40
19.0
 40
20.0
 40
21.0
 40
22.0
 40
23.0
 40
24.0
 40
25.0
 40
26.0
 40
27.0
 40
28.0
 40
28.0
 40
29.0
 40
29.0
 40
30.0
 40
30.0
 40
30.0
 10
-456.73664084630929
 20
843.85339472933606
 30
0.0
 41
1.0
 10
-322.69943544548101
 20
843.85339472933606
 30
0.0
 41
1.0
 10
-188.66223004465274
 20
843.85339472933606
 30
0.0
 41
1.0
 10
-186.70625366333326
 20
843.2691826574686
 30
0.0
 41
1.0
 10
-186.08196872399805
 20
841.35451235169251
 30
0.0
 41
1.0
 10
-182.33213916363849
 20
708.22874665585528
 30
0.0
 41
1.0
 10
-181.7360514668606
 20
649.3265799221407
 30
0.0
 41
1.0
 10
-182.13649715820185
 20
582.11637923958983
 30
0.0
 41
1.0
 10
-182.48183772953263
 20
563.26697324445524
 30
0.0
 41
1.0
 10
-183.21601376376185
 20
535.09839181974974
 30
0.0
 41
1.0
 10
-183.11875587897322
 20
517.47926757361563
 30
0.0
 41
1.0
 10
-188.19908075459654
 20
471.30635810274759
 30
0.0
 41
1.0
 10
-220.79348900460201
 20
438.96646528418489
 30
0.0
 41
1.0
 10
-247.18463182024226
 20
429.29990043620944
 30
0.0
 41
1.0
 10
-271.39491247087091
 20
427.04114964403232
 30
0.0
 41
1.0
 10
-330.49612991514351
 20
426.0012795219676
 30
0.0
 41
1.0
 10
-393.71475674947948
 20
424.92733712565183
 30
0.0
 41
1.0
 10
-393.81364401484194
 20
424.92565725324641
 30
0.0
 41
1.0
 10
-393.91253128020429
 20
424.92397738084094
 30
0.0
 41
1.0
 10
-456.93338358381476
 20
423.85339472933617
 30
0.0
 41
0.9998552862399601
 10
-519.95417872332882
 20
424.92733712565183
 30
0.0
 41
1.0
 10
-536.69004104379792
 20
425.21253429025546
 30
0.0
 41
1.0
 10
-553.42590336426701
 20
425.49773145485909
 30
0.0
 41
1.0
 10
-582.97497383973973
 20
426.00127952156464
 30
0.0
 41
0.9999999612135317
 10
-612.52376056412072
 20
426.5212145829999
 30
0.0
 41
1.0
 10
-642.07254726539918
 20
427.0411496440322
 30
0.0
 41
1.0
 10
-666.28339891848532
 20
429.29990043620967
 30
0.0
 41
1.0
 10
-692.7232094094536
 20
439.03136546300686
 30
0.0
 41
1.0
 10
-718.51617427058295
 20
465.06890904639005
 30
0.0
 41
1.0
 10
-728.05414408093179
 20
490.90497898559977
 30
0.0
 41
1.0
 10
-730.35463629126957
 20
517.47926757361552
 30
0.0
 41
1.0
 10
-730.25725111265524
 20
535.09839181974974
 30
0.0
 41
1.0
 10
-730.99141316703822
 20
563.26697324445502
 30
0.0
 41
1.0
 10
-731.33698612690819
 20
582.11637923958972
 30
0.0
 41
1.0
 10
-731.73605146686054
 20
649.32657992214081
 30
0.0
 41
1.0
 10
-731.13821716048847
 20
708.22874665585516
 30
0.0
 41
1.0
 10
-727.39131296862092
 20
841.35451235169251
 30
0.0
 41
1.0
 10
-726.7440649667044
 20
843.29108234211594
 30
0.0
 41
1.0
 10
-724.81105164796622
 20
843.85339472933606
 30
0.0
 41
1.0
 10
-590.77384624713773
 20
843.85339472933606
 30
0.0
 41
1.0
 10
-456.73664084630929
 20
843.85339472933606
 30
0.0
 41
1.0
  0
SPLINE
  5
1A0
100
AcDbEntity
  8
template
370
              15
390
0
  6
Continuous
 62
               7
100
AcDbSpline
210
0.0
220
0.0
230
1.0
 70
              13
 71
               2
 72
              43
 73
              40
 74
               0
 42
0.000001
 43
0.000001
 40
0.0
 40
0.0
 40
0.0
 40
1.0
 40
1.0
 40
2.0
 40
3.0
 40
4.0
 40
5.0
 40
6.0
 40
7.0
 40
8.0
 40
9.0
 40
10.0
 40
11.0
 40
12.0
 40
13.0
 40
13.0
 40
14.0
 40
14.0
 40
15.0
 40
15.0
 40
16.0
 40
17.0
 40
18.0
 40
19.0
 40
20.0
 40
21.0
 40
22.0
 40
23.0
 40
24.0
 40
25.0
 40
26.0
 40
27.0
 40
28.0
 40
29.0
 40
30.0
 40
30.0
 40
31.0
 40
31.0
 40
32.0
 40
32.0
 40
32.0
 10
-456.65648567804539
 20
743.85382875711389
 30
0.0
 41
1.0
 10
-338.0065953628112
 20
743.85382875711389
 30
0.0
 41
1.0
 10
-219.35670504757701
 20
743.85382875711389
 30
0.0
 41
1.0
 10
-216.29908144389611
 20
743.3145830222395
 30
0.0
 41
1.0
 10
-213.28079979973501
 20
738.39974379692785
 30
0.0
 41
1.0
 10
-211.65093970360869
 20
652.73332042623849
 30
0.0
 41
1.0
 10
-211.78832271163975
 20
595.42178220260053
 30
0.0
 41
1.0
 10
-213.25908621041282
 20
522.56126313588732
 30
0.0
 41
1.0
 10
-213.20959291139917
 20
526.87928814953511
 30
0.0
 41
1.0
 10
-213.57032138737515
 20
516.76279962655985
 30
0.0
 41
1.0
 10
-213.15760419763484
 20
516.15228672610829
 30
0.0
 41
1.0
 10
-215.0440698994642
 20
495.98295668401499
 30
0.0
 41
1.0
 10
-225.99630100185351
 20
471.0043755862265
 30
0.0
 41
1.0
 10
-251.84918960553824
 20
460.66794864441351
 30
0.0
 41
1.0
 10
-266.32200582429033
 20
459.07370604298256
 30
0.0
 41
1.0
 10
-298.49145446518588
 20
458.38835385720358
 30
0.0
 41
1.0
 10
-299.06919868616427
 20
458.37604533836355
 30
0.0
 41
1.0
 10
-299.64694290714266
 20
458.36373681952358
 30
0.0
 41
1.0
 10
-330.66090310578335
 20
457.70300167143006
 30
0.0
 41
0.9999970077478975
 10
-361.67772483227878
 20
457.19401428217213
 30
0.0
 41
1.0
 10
-392.69454655847613
 20
456.68502689291967
 30
0.0
 41
1.0
 10
-489.27002824649145
 20
456.17975491894413
 30
0.0
 41
1.0
 10
-582.63773579431995
 20
457.70300167142443
 30
0.0
 41
1.0
 10
-646.98008739134707
 20
459.07370604298274
 30
0.0
 41
1.0
 10
-661.45263660560317
 20
460.66794864441334
 30
0.0
 41
1.0
 10
-687.41968267945617
 20
471.25159361576988
 30
0.0
 41
1.0
 10
-698.25774500887132
 20
495.98295668401511
 30
0.0
 41
1.0
 10
-700.14457426000149
 20
516.15228672610817
 30
0.0
 41
1.0
 10
-699.72715332396479
 20
516.76279962655985
 30
0.0
 41
1.0
 10
-700.08793169745627
 20
526.87928814953511
 30
0.0
 41
1.0
 10
-700.04351472340363
 20
522.5612631358872
 30
0.0
 41
1.0
 10
-701.51340726250396
 20
595.42178220260053
 30
0.0
 41
1.0
 10
-701.65093970360863
 20
652.73332042623849
 30
0.0
 41
1.0
 10
-700.02105836826445
 20
738.39974379692785
 30
0.0
 41
1.0
 10
-697.00277596555929
 20
743.3145830222395
 30
0.0
 41
1.0
 10
-693.94515247566028
 20
743.85382875711389
 30
0.0
 41
1.0
 10
-575.29526216042609
 20
743.85382875711389
 30
0.0
 41
1.0
 10
-456.64537184519196
 20
743.85382875711389
 30
0.0
 41
1.0
 10
-456.65092876161867
 20
743.85382875711389
 30
0.0
 41
1.0
 10
-456.65648567804539
 20
743.85382875711389
 30
0.0
 41
1.0
  0
CIRCLE
  5
1A1
100
AcDbEntity
  8
template
370
              15
390
0
  6
Continuous
 62
               7
100
AcDbCircle
 10
-456.64817284976181
 20
778.84766572933609
 30
0.0
 40
17.498329000000012
  0
CIRCLE
  5
1A2
100
AcDbEntity
  8
template
370
              15
390
0
  6
STYLE_12
 62
               7
100
AcDbCircle
 10
-556.64689284976134
 20
778.84766572933609
 30
0.0
 40
17.499999999999982
  0
CIRCLE
  5
1A3
100
AcDbEntity
  8
template
370
              15
390
0
  6
STYLE_12
 62
               7
100
AcDbCircle
 10
-356.6468928497614
 20
778.84766572933609
 30
0.0
 40
17.499999999999982
  0
CIRCLE
  5
1A4
100
AcDbEntity
  8
template
370
              15
390
0
  6
Continuous
 62
               7
100
AcDbCircle
 10
-456.66195284976158
 20
638.85643272933601
 30
0.0
 40
22.999999999999964
  0
CIRCLE
  5
1A5
100
AcDbEntity
  8
template
370
              15
390
0
  6
Continuous
 62
               7
100
AcDbCircle
 10
-456.66195284976158
 20
638.85643272933601
 30
0.0
 40
37.499999999999901
  0
LINE
  5
1A6
100
AcDbEntity
  8
template
370
              15
390
0
  6
STYLE_12
 62
               7
100
AcDbLine
 10
-433.09004935340801
 20
-574.65988960161394
 30
0.0
 11
-433.09004935340801
 21
-603.50101671400353
 31
0.0
  0
LINE
  5
1A7
100
AcDbEntity
  8
template
370
              15
390
0
  6
STYLE_12
 62
               7
100
AcDbLine
 10
-433.09004935340801
 20
-574.65988960161394
 30
0.0
 11
-418.57520212906667
 21
-562.48048663521513
 31
0.0
  0
ARC
  5
1A8
100
AcDbEntity
  8
template
370
              15
390
0
  6
STYLE_12
 62
               7
100
AcDbCircle
 10
-415.47775992906583
 20
-566.39916199243316
 30
0.0
 40
4.9950139877299886
100
AcDbArc
 50
94.524340615720178
 51
128.32393487375978
  0
LINE
  5
1A9
100
AcDbEntity
  8
template
370
              15
390
0
  6
STYLE_12
 62
               7
100
AcDbLine
 10
-479.09000934364286
 20
-574.68018254304661
 30
0.0
 11
-479.09000934364286
 21
-603.50101671400353
 31
0.0
  0
LINE
  5
1AA
100
AcDbEntity
  8
template
370
              15
390
0
  6
STYLE_12
 62
               7
100
AcDbLine
 10
-479.09000934364286
 20
-574.68018254304661
 30
0.0
 11
-493.6048565679842
 21
-562.5007795766478
 31
0.0
  0
ARC
  5
1AB
100
AcDbEntity
  8
template
370
              15
390
0
  6
STYLE_12
 62
               7
100
AcDbCircle
 10
-496.7022987679855
 20
-566.41945493386584
 30
0.0
 40
4.9950139877298412
100
AcDbArc
 50
51.676065126236125
 51
85.475659384274223
  0
LINE
  5
1AC
100
AcDbEntity
  8
template
370
              15
390
0
  6
STYLE_12
 62
               7
100
AcDbLine
 10
-479.00580170741142
 20
-574.48220908577014
 30
0.0
 11
-433.00584171717747
 21
-574.50709210832292
 31
0.0
  0
LINE
  5
1AD
100
AcDbEntity
  8
template
370
              15
390
0
  6
Continuous
 62
               7
100
AcDbLine
 10
-271.08537464697002
 20
-603.50101671400353
 30
0.0
 11
-641.24302464697234
 21
-603.50101671400353
 31
0.0
  0
LINE
  5
1AE
100
AcDbEntity
  8
template
370
              15
390
0
  6
Continuous
 62
               7
100
AcDbLine
 10
-267.8352996469701
 20
-601.98729892259234
 30
0.0
 11
-271.08537464697002
 21
-603.50101671400353
 31
0.0
  0
LINE
  5
1AF
100
AcDbEntity
  8
template
370
              15
390
0
  6
Continuous
 62
               7
100
AcDbLine
 10
-265.54689964696973
 20
-598.18937127741947
 30
0.0
 11
-267.8352996469701
 21
-601.98729892259234
 31
0.0
  0
LINE
  5
1B0
100
AcDbEntity
  8
template
370
              15
390
0
  6
Continuous
 62
               7
100
AcDbLine
 10
-263.70354964697009
 20
-593.13224244306366
 30
0.0
 11
-265.54689964696973
 21
-598.18937127741947
 31
0.0
  0
LINE
  5
1B1
100
AcDbEntity
  8
template
370
              15
390
0
  6
Continuous
 62
               7
100
AcDbLine
 10
-262.09417464697009
 20
-592.41167802588552
 30
0.0
 11
-263.70354964697009
 21
-593.13224244306366
 31
0.0
  0
LINE
  5
1B2
100
AcDbEntity
  8
template
370
              15
390
0
  6
Continuous
 62
               7
100
AcDbLine
 10
-227.44204964696956
 20
-575.55629152281836
 30
0.0
 11
-262.09417464697009
 21
-592.41167802588552
 31
0.0
  0
LINE
  5
1B3
100
AcDbEntity
  8
template
370
              15
390
0
  6
Continuous
 62
               7
100
AcDbLine
 10
-217.65224964696955
 20
-571.49643876208211
 30
0.0
 11
-227.44204964696956
 21
-575.55629152281836
 31
0.0
  0
LINE
  5
1B4
100
AcDbEntity
  8
template
370
              15
390
0
  6
Continuous
 62
               7
100
AcDbLine
 10
-209.08474964696944
 20
-566.63172710564049
 30
0.0
 11
-217.65224964696955
 21
-571.49643876208211
 31
0.0
  0
LINE
  5
1B5
100
AcDbEntity
  8
template
370
              15
390
0
  6
Continuous
 62
               7
100
AcDbLine
 10
-204.17914964696939
 20
-563.12021790318659
 30
0.0
 11
-209.08474964696944
 21
-566.63172710564049
 31
0.0
  0
LINE
  5
1B6
100
AcDbEntity
  8
template
370
              15
390
0
  6
Continuous
 62
               7
100
AcDbLine
 10
-198.88269964696957
 20
-558.41489274981222
 30
0.0
 11
-204.17914964696939
 21
-563.12021790318659
 31
0.0
  0
LINE
  5
1B7
100
AcDbEntity
  8
template
370
              15
390
0
  6
Continuous
 62
               7
100
AcDbLine
 10
-194.77034964696924
 20
-553.70956759643786
 30
0.0
 11
-198.88269964696957
 21
-558.41489274981222
 31
0.0
  0
LINE
  5
1B8
100
AcDbEntity
  8
template
370
              15
390
0
  6
Continuous
 62
               7
100
AcDbLine
 10
-192.61797214696963
 20
-550.62034060257292
 30
0.0
 11
-194.77034964696924
 21
-553.70956759643786
 31
0.0
  0
LINE
  5
1B9
100
AcDbEntity
  8
template
370
              15
390
0
  6
Continuous
 62
               7
100
AcDbLine
 10
-188.05527964696995
 20
-541.35265962097765
 30
0.0
 11
-192.61797214696963
 21
-550.62034060257292
 31
0.0
  0
LINE
  5
1BA
100
AcDbEntity
  8
template
370
              15
390
0
  6
Continuous
 62
               7
100
AcDbLine
 10
-185.10282964696972
 20
-530.43324857803282
 30
0.0
 11
-188.05527964696995
 21
-541.35265962097765
 31
0.0
  0
LINE
  5
1BB
100
AcDbEntity
  8
template
370
              15
390
0
  6
Continuous
 62
               7
100
AcDbLine
 10
-184.32880964696943
 20
-526.79344489705136
 30
0.0
 11
-185.10282964696972
 21
-530.43324857803282
 31
0.0
  0
LINE
  5
1BC
100
AcDbEntity
  8
template
370
              15
390
0
  6
Continuous
 62
               7
100
AcDbLine
 10
-182.15081589696985
 20
-478.58917495840114
 30
0.0
 11
-184.32880964696943
 21
-526.79344489705136
 31
0.0
  0
LINE
  5
1BD
100
AcDbEntity
  8
template
370
              15
390
0
  6
Continuous
 62
               7
100
AcDbLine
 10
-181.95281464697001
 20
-474.20684367005742
 30
0.0
 11
-182.15081589696985
 21
-478.58917495840114
 31
0.0
  0
LINE
  5
1BE
100
AcDbEntity
  8
template
370
              15
390
0
  6
Continuous
 62
               7
100
AcDbLine
 10
-181.16419964696962
 20
-456.73641422220453
 30
0.0
 11
-181.95281464697001
 21
-474.20684367005742
 31
0.0
  0
LINE
  5
1BF
100
AcDbEntity
  8
template
370
              15
390
0
  6
Continuous
 62
               7
100
AcDbLine
 10
-182.12458539696974
 20
-451.98623017312502
 30
0.0
 11
-181.16419964696962
 21
-456.73641422220453
 31
0.0
  0
LINE
  5
1C0
100
AcDbEntity
  8
template
370
              15
390
0
  6
Continuous
 62
               7
100
AcDbLine
 10
-184.87331964696961
 20
-448.33641422220444
 30
0.0
 11
-182.12458539696974
 21
-451.98623017312502
 31
0.0
  0
LINE
  5
1C1
100
AcDbEntity
  8
template
370
              15
390
0
  6
Continuous
 62
               7
100
AcDbLine
 10
-189.61050964696989
 20
-446.40708906883037
 30
0.0
 11
-184.87331964696961
 21
-448.33641422220444
 31
0.0
  0
LINE
  5
1C2
100
AcDbEntity
  8
template
370
              15
390
0
  6
Continuous
 62
               7
100
AcDbLine
 10
-232.44012464696954
 20
-446.08340808723551
 30
0.0
 11
-189.61050964696989
 21
-446.40708906883037
 31
0.0
  0
LINE
  5
1C3
100
AcDbEntity
  8
template
370
              15
390
0
  6
Continuous
 62
               7
100
AcDbLine
 10
-280.88449964697003
 20
-445.97396023447482
 30
0.0
 11
-232.44012464696954
 21
-446.08340808723551
 31
0.0
  0
LINE
  5
1C4
100
AcDbEntity
  8
template
370
              15
390
0
  6
Continuous
 62
               7
100
AcDbLine
 10
-329.53694964697053
 20
-445.48880686024131
 30
0.0
 11
-280.88449964697003
 21
-445.97396023447482
 31
0.0
  0
LINE
  5
1C5
100
AcDbEntity
  8
template
370
              15
390
0
  6
Continuous
 62
               7
100
AcDbLine
 10
-374.43569964697082
 20
-444.38156759643789
 30
0.0
 11
-329.53694964697053
 21
-445.48880686024131
 31
0.0
  0
LINE
  5
1C6
100
AcDbEntity
  8
template
370
              15
390
0
  6
Continuous
 62
               7
100
AcDbLine
 10
-409.90606643142866
 20
-444.38156759643789
 30
0.0
 11
-374.43569964697082
 21
-444.38156759643789
 31
0.0
  0
LINE
  5
1C7
100
AcDbEntity
  8
template
370
              15
390
0
  6
Continuous
 62
               7
100
AcDbLine
 10
-456.16419964697144
 20
-443.46819336330918
 30
0.0
 11
-409.90606643142866
 21
-444.38156759643789
 31
0.0
  0
LINE
  5
1C8
100
AcDbEntity
  8
template
370
              15
390
0
  6
Continuous
 62
               7
100
AcDbLine
 10
-502.42233286251377
 20
-444.38156759643789
 30
0.0
 11
-456.16419964697144
 21
-443.46819336330918
 31
0.0
  0
LINE
  5
1C9
100
AcDbEntity
  8
template
370
              15
390
0
  6
Continuous
 62
               7
100
AcDbLine
 10
-537.89269964697155
 20
-444.38156759643789
 30
0.0
 11
-502.42233286251377
 21
-444.38156759643789
 31
0.0
  0
LINE
  5
1CA
100
AcDbEntity
  8
template
370
              15
390
0
  6
Continuous
 62
               7
100
AcDbLine
 10
-582.79144964697184
 20
-445.48880686024131
 30
0.0
 11
-537.89269964697155
 21
-444.38156759643789
 31
0.0
  0
LINE
  5
1CB
100
AcDbEntity
  8
template
370
              15
390
0
  6
Continuous
 62
               7
100
AcDbLine
 10
-631.44389964697234
 20
-445.97396023447482
 30
0.0
 11
-582.79144964697184
 21
-445.48880686024131
 31
0.0
  0
LINE
  5
1CC
100
AcDbEntity
  8
template
370
              15
390
0
  6
Continuous
 62
               7
100
AcDbLine
 10
-679.88827464697283
 20
-446.08340808723551
 30
0.0
 11
-631.44389964697234
 21
-445.97396023447482
 31
0.0
  0
LINE
  5
1CD
100
AcDbEntity
  8
template
370
              15
390
0
  6
Continuous
 62
               7
100
AcDbLine
 10
-722.71788964697294
 20
-446.40708906883037
 30
0.0
 11
-679.88827464697283
 21
-446.08340808723551
 31
0.0
  0
LINE
  5
1CE
100
AcDbEntity
  8
template
370
              15
390
0
  6
Continuous
 62
               7
100
AcDbLine
 10
-727.45507964697276
 20
-448.33641422220444
 30
0.0
 11
-722.71788964697294
 21
-446.40708906883037
 31
0.0
  0
LINE
  5
1CF
100
AcDbEntity
  8
template
370
              15
390
0
  6
Continuous
 62
               7
100
AcDbLine
 10
-730.20381389697263
 20
-451.98623017312502
 30
0.0
 11
-727.45507964697276
 21
-448.33641422220444
 31
0.0
  0
LINE
  5
1D0
100
AcDbEntity
  8
template
370
              15
390
0
  6
Continuous
 62
               7
100
AcDbLine
 10
-731.1641996469732
 20
-456.73641422220453
 30
0.0
 11
-730.20381389697263
 21
-451.98623017312502
 31
0.0
  0
LINE
  5
1D1
100
AcDbEntity
  8
template
370
              15
390
0
  6
Continuous
 62
               7
100
AcDbLine
 10
-730.37558464697281
 20
-474.20684367005742
 30
0.0
 11
-731.1641996469732
 21
-456.73641422220453
 31
0.0
  0
LINE
  5
1D2
100
AcDbEntity
  8
template
370
              15
390
0
  6
Continuous
 62
               7
100
AcDbLine
 10
-730.17758339697298
 20
-478.58917495840114
 30
0.0
 11
-730.37558464697281
 21
-474.20684367005742
 31
0.0
  0
LINE
  5
1D3
100
AcDbEntity
  8
template
370
              15
390
0
  6
Continuous
 62
               7
100
AcDbLine
 10
-727.99958964697294
 20
-526.79344489705136
 30
0.0
 11
-730.17758339697298
 21
-478.58917495840114
 31
0.0
  0
LINE
  5
1D4
100
AcDbEntity
  8
template
370
              15
390
0
  6
Continuous
 62
               7
100
AcDbLine
 10
-727.22556964697264
 20
-530.43324857803282
 30
0.0
 11
-727.99958964697294
 21
-526.79344489705136
 31
0.0
  0
LINE
  5
1D5
100
AcDbEntity
  8
template
370
              15
390
0
  6
Continuous
 62
               7
100
AcDbLine
 10
-724.27311964697287
 20
-541.35265962097765
 30
0.0
 11
-727.22556964697264
 21
-530.43324857803282
 31
0.0
  0
LINE
  5
1D6
100
AcDbEntity
  8
template
370
              15
390
0
  6
Continuous
 62
               7
100
AcDbLine
 10
-719.71042714697319
 20
-550.62034060257292
 30
0.0
 11
-724.27311964697287
 21
-541.35265962097765
 31
0.0
  0
LINE
  5
1D7
100
AcDbEntity
  8
template
370
              15
390
0
  6
Continuous
 62
               7
100
AcDbLine
 10
-717.55804964697313
 20
-553.70956759643786
 30
0.0
 11
-719.71042714697319
 21
-550.62034060257292
 31
0.0
  0
LINE
  5
1D8
100
AcDbEntity
  8
template
370
              15
390
0
  6
Continuous
 62
               7
100
AcDbLine
 10
-713.44569964697325
 20
-558.41489274981222
 30
0.0
 11
-717.55804964697313
 21
-553.70956759643786
 31
0.0
  0
LINE
  5
1D9
100
AcDbEntity
  8
template
370
              15
390
0
  6
Continuous
 62
               7
100
AcDbLine
 10
-708.14924964697298
 20
-563.12021790318659
 30
0.0
 11
-713.44569964697325
 21
-558.41489274981222
 31
0.0
  0
LINE
  5
1DA
100
AcDbEntity
  8
template
370
              15
390
0
  6
Continuous
 62
               7
100
AcDbLine
 10
-703.24364964697293
 20
-566.63172710564049
 30
0.0
 11
-708.14924964697298
 21
-563.12021790318659
 31
0.0
  0
LINE
  5
1DB
100
AcDbEntity
  8
template
370
              15
390
0
  6
Continuous
 62
               7
100
AcDbLine
 10
-694.67614964697282
 20
-571.49643876208211
 30
0.0
 11
-703.24364964697293
 21
-566.63172710564049
 31
0.0
  0
LINE
  5
1DC
100
AcDbEntity
  8
template
370
              15
390
0
  6
Continuous
 62
               7
100
AcDbLine
 10
-684.8863496469728
 20
-575.55629152281836
 30
0.0
 11
-694.67614964697282
 21
-571.49643876208211
 31
0.0
  0
LINE
  5
1DD
100
AcDbEntity
  8
template
370
              15
390
0
  6
Continuous
 62
               7
100
AcDbLine
 10
-650.23422464697228
 20
-592.41167802588552
 30
0.0
 11
-684.8863496469728
 21
-575.55629152281836
 31
0.0
  0
LINE
  5
1DE
100
AcDbEntity
  8
template
370
              15
390
0
  6
Continuous
 62
               7
100
AcDbLine
 10
-648.62484964697228
 20
-593.13224244306366
 30
0.0
 11
-650.23422464697228
 21
-592.41167802588552
 31
0.0
  0
LINE
  5
1DF
100
AcDbEntity
  8
template
370
              15
390
0
  6
Continuous
 62
               7
100
AcDbLine
 10
-646.78149964697263
 20
-598.18937127741947
 30
0.0
 11
-648.62484964697228
 21
-593.13224244306366
 31
0.0
  0
LINE
  5
1E0
100
AcDbEntity
  8
template
370
              15
390
0
  6
Continuous
 62
               7
100
AcDbLine
 10
-645.88946258361398
 20
-601.60608072283117
 30
0.0
 11
-646.78149964697263
 21
-598.18937127741947
 31
0.0
  0
LINE
  5
1E1
100
AcDbEntity
  8
template
370
              15
390
0
  6
Continuous
 62
               7
100
AcDbLine
 10
-641.03964078907825
 20
-603.50101671400353
 30
0.0
 11
-645.88946258361398
 21
-601.60608072283117
 31
0.0
  0
LWPOLYLINE
  5
1E2
100
AcDbEntity
  8
template
370
              15
390
0
  6
STYLE_12
 62
               7
100
AcDbPolyline
 90
       23
 70
             128
 10
-463.35491614701351
 20
-561.4181131065352
 10
-485.19327110593332
 20
-561.53764488619618
 10
-498.96477181856045
 20
-560.66242666585731
 10
-534.92347365451656
 20
-559.19327730145051
 10
-543.53565904670836
 20
-558.77435569128102
 10
-568.96754392145408
 20
-557.61975081839955
 10
-584.12979751175521
 20
-556.37324340314535
 10
-598.28866129583298
 20
-555.03030166585768
 10
-610.82030764634851
 20
-552.67092560653555
 10
-623.23201527367132
 20
-549.79741183534907
 10
-630.93066739087749
 20
-546.63754319128111
 10
-641.39415085557243
 20
-541.99032497094231
 10
-648.92352360410928
 20
-538.27294997094214
 10
-652.18376038507881
 20
-534.69949552178969
 10
-660.31721475164863
 20
-526.05761098789117
 10
-666.85753183405109
 20
-520.63409403873902
 10
-670.77172718989345
 20
-514.95728471670463
 10
-676.92446479789919
 20
-500.69891741017364
 10
-683.77435242904471
 20
-488.84107708958618
 10
-689.10304462930594
 20
-473.39136310653521
 10
-693.80503262309571
 20
-458.98736946246754
 10
-697.3142153880583
 20
-451.33938217433206
 10
-701.16419964697138
 20
-450.25175505568768
  0
LWPOLYLINE
  5
1E3
100
AcDbEntity
  8
template
370
              15
390
0
  6
STYLE_12
 62
               7
100
AcDbPolyline
 90
       25
 70
             128
 10
-211.16419964697144
 20
-450.25175505568768
 10
-215.01418390588407
 20
-451.33938217433206
 10
-218.52336667084711
 20
-458.98736946246754
 10
-223.22535466463643
 20
-473.39136310653521
 10
-228.55404686489766
 20
-488.84107708958618
 10
-235.40393449604318
 20
-500.69891741017364
 10
-241.55667210404937
 20
-514.95728471670463
 10
-245.47086745989128
 20
-520.63409403873902
 10
-252.01118454229419
 20
-526.05761098789117
 10
-260.14463890886356
 20
-534.69949552178969
 10
-263.40487568983309
 20
-538.27294997094214
 10
-270.93424843837039
 20
-541.99032497094231
 10
-281.39773190306488
 20
-546.63754319128111
 10
-289.09638402027105
 20
-549.79741183534907
 10
-301.50809164759386
 20
-552.67092560653555
 10
-314.03973799810939
 20
-555.03030166585768
 10
-328.19860178218715
 20
-556.37324340314535
 10
-343.36085537248874
 20
-557.61975081839955
 10
-368.79274024723401
 20
-558.77435569128102
 10
-377.40492563942581
 20
-559.19327730145051
 10
-413.36362747538197
 20
-560.66242666585731
 10
-427.13512818800956
 20
-561.53764488619618
 10
-448.97348314692937
 20
-561.4181131065352
 10
-456.16419964697144
 20
-561.53764488619618
 10
-463.35491614701351
 20
-561.4181131065352
  0
INSERT
  5
1E4
100
AcDbEntity
  8
template
390
0
 62
               7
100
AcDbBlockReference
  2
シンボル-1
 10
-596.16419964697138
 20
-493.46819336330918
 30
0.0
  0
INSERT
  5
1E5
100
AcDbEntity
  8
template
390
0
 62
               7
100
AcDbBlockReference
  2
シンボル-1
 10
-316.16419964697144
 20
-493.46819336330918
 30
0.0
  0
SPLINE
  5
1E6
100
AcDbEntity
  8
template
370
              15
390
0
  6
Continuous
 62
               7
100
AcDbSpline
210
0.0
220
0.0
230
1.0
 70
              13
 71
               2
 72
              56
 73
              53
 74
               0
 42
0.000001
 43
0.000001
 40
0.0
 40
0.0
 40
0.0
 40
1.0
 40
1.0
 40
2.0
 40
2.0
 40
3.0
 40
3.0
 40
4.0
 40
4.0
 40
5.0
 40
5.0
 40
6.0
 40
6.0
 40
7.0
 40
7.0
 40
8.0
 40
8.0
 40
9.0
 40
9.0
 40
10.0
 40
10.0
 40
11.0
 40
11.0
 40
12.0
 40
12.0
 40
13.0
 40
13.0
 40
14.0
 40
14.0
 40
15.0
 40
15.0
 40
16.0
 40
16.0
 40
17.0
 40
18.0
 40
19.0
 40
19.0
 40
20.0
 40
20.0
 40
21.0
 40
21.0
 40
22.0
 40
22.0
 40
23.0
 40
23.0
 40
24.0
 40
24.0
 40
25.0
 40
25.0
 40
26.0
 40
26.0
 40
27.0
 40
27.0
 40
27.0
 10
699.26861118238094
 20
-446.433035758796
 30
0.0
 41
1.0
 10
698.86179845147558
 20
-523.91372802437013
 30
0.0
 41
1.0
 10
698.45498572057011
 20
-601.39442028994426
 30
0.0
 41
1.0
 10
697.8395283411536
 20
-603.35498702118775
 30
0.0
 41
1.0
 10
695.8705667937146
 20
-603.93842015462542
 30
0.0
 41
1.0
 10
534.15909370233953
 20
-603.93842015462542
 30
0.0
 41
1.0
 10
372.44762061096446
 20
-603.93842015462542
 30
0.0
 41
1.0
 10
368.59797101653805
 20
-602.81616696203992
 30
0.0
 41
1.0
 10
368.11858303762045
 20
-598.66301064018035
 30
0.0
 41
1.0
 10
368.07036626659709
 20
-597.87207025671978
 30
0.0
 41
1.0
 10
368.02214949557373
 20
-597.08112987325921
 30
0.0
 41
1.0
 10
368.00837327528137
 20
-596.81049158978249
 30
0.0
 41
1.0
 10
367.99459705498901
 20
-596.53985330630576
 30
0.0
 41
1.0
 10
367.40638014672385
 20
-593.88153310998223
 30
0.0
 41
1.0
 10
365.39364666378304
 20
-592.03507907783614
 30
0.0
 41
1.0
 10
365.16496140692919
 20
-591.88419823479808
 30
0.0
 41
1.0
 10
364.93627615007534
 20
-591.73331739176001
 30
0.0
 41
1.0
 10
364.94178663819224
 20
-591.73331739176001
 30
0.0
 41
1.0
 10
364.94729712630914
 20
-591.73331739176001
 30
0.0
 41
1.0
 10
334.86506508031158
 20
-571.88275184460304
 30
0.0
 41
0.9999298020028604
 10
304.32090686349574
 20
-552.75057903977813
 30
0.0
 41
1.0
 10
304.35396979219735
 20
-552.76411095395179
 30
0.0
 41
1.0
 10
304.38703272089896
 20
-552.77764286812544
 30
0.0
 41
1.0
 10
303.18230225632823
 20
-552.05960567227658
 30
0.0
 41
1.0
 10
301.9775717917575
 20
-551.34156847642771
 30
0.0
 41
1.0
 10
286.40985048386818
 20
-538.99953919674772
 30
0.0
 41
1.0
 10
282.75423399573646
 20
-519.69752547876988
 30
0.0
 41
1.0
 10
282.68190883920141
 20
-518.3132106587866
 30
0.0
 41
1.0
 10
282.60958368266637
 20
-516.92889583880333
 30
0.0
 41
1.0
 10
282.60958368266637
 20
-516.94513413581194
 30
0.0
 41
1.0
 10
282.60958368266637
 20
-516.96137243282055
 30
0.0
 41
1.0
 10
280.96952465685553
 20
-486.14649747616522
 30
0.0
 41
1.0
 10
279.32946563104468
 20
-455.33162251950989
 30
0.0
 41
1.0
 10
280.56631389642524
 20
-448.62903432345183
 30
0.0
 41
1.0
 10
289.73066538537495
 20
-446.13938606148122
 30
0.0
 41
1.0
 10
288.89813593126127
 20
-446.40204781274724
 30
0.0
 41
1.0
 10
289.33513442941802
 20
-446.3464315080837
 30
0.0
 41
1.0
 10
442.40134047629482
 20
-446.3464315080837
 30
0.0
 41
1.0
 10
595.46754652317168
 20
-446.3464315080837
 30
0.0
 41
1.0
 10
606.21299835124728
 20
-445.8944655746775
 30
0.0
 41
1.0
 10
616.95845017932288
 20
-445.4424996412713
 30
0.0
 41
1.0
 10
656.78550304466398
 20
-444.45534650229024
 30
0.0
 41
1.0
 10
696.61255591000509
 20
-443.46819336330918
 30
0.0
 41
1.0
 10
698.64832897781116
 20
-443.88868822040695
 30
0.0
 41
1.0
 10
698.98889730442852
 20
-445.25051754376545
 30
0.0
 41
1.0
 10
699.14100253133734
 20
-445.85874015888032
 30
0.0
 41
1.0
 10
699.29310775824604
 20
-446.46696277399519
 30
0.0
 41
1.0
 10
699.3294656312969
 20
-446.61234686811406
 30
0.0
 41
0.0060380646980845
 10
699.29135476420515
 20
-446.46741242926305
 30
0.0
 41
1.0
 10
699.25324389736443
 20
-446.32247799140214
 30
0.0
 41
1.0
 10
699.26861118238094
 20
-446.4249166102918
 30
0.0
 41
1.0
 10
699.26861118238094
 20
-446.4289761845439
 30
0.0
 41
1.0
 10
699.26861118238094
 20
-446.433035758796
 30
0.0
 41
1.0
  0
LINE
  5
1E7
100
AcDbEntity
  8
template
370
              15
390
0
  6
STYLE_12
 62
               7
100
AcDbLine
 10
517.21716446087657
 20
-603.50101671400353
 30
0.0
 11
471.21720447064098
 21
-603.50101671400353
 31
0.0
  0
POLYLINE
  5
1E8
100
AcDbEntity
  8
template
370
              15
390
0
  6
STYLE_12
 62
               7
100
AcDb2dPolyline
 66
               1
 10
0.0
 20
0.0
 30
0.0
 75
               5
  0
VERTEX
  5
1E9
100
AcDbEntity
  8
template
370
              15
390
0
  6
STYLE_12
 62
               7
100
AcDbVertex
100
AcDb2dVertex
 10
599.25970278808245
 20
-446.53764488619663
 30
0.0
  0
VERTEX
  5
1EA
100
AcDbEntity
  8
template
370
              15
390
0
  6
STYLE_12
 62
               7
100
AcDbVertex
100
AcDb2dVertex
 10
591.9901731268169
 20
-448.61825070278292
 30
0.0
  0
VERTEX
  5
1EB
100
AcDbEntity
  8
template
370
              15
390
0
  6
STYLE_12
 62
               7
100
AcDbVertex
100
AcDb2dVertex
 10
585.27215314816794
 20
-453.88680866122195
 30
0.0
  0
VERTEX
  5
1EC
100
AcDbEntity
  8
template
370
              15
390
0
  6
STYLE_12
 62
               7
100
AcDbVertex
100
AcDb2dVertex
 10
581.96717275806486
 20
-459.80219748902255
 30
0.0
  0
VERTEX
  5
1ED
100
AcDbEntity
  8
template
370
              15
390
0
  6
STYLE_12
 62
               7
100
AcDbVertex
100
AcDb2dVertex
 10
580.00630607689209
 20
-464.58362350392053
 30
0.0
  0
VERTEX
  5
1EE
100
AcDbEntity
  8
template
370
              15
390
0
  6
STYLE_12
 62
               7
100
AcDbVertex
100
AcDb2dVertex
 10
577.24620909780469
 20
-472.29286315886293
 30
0.0
  0
VERTEX
  5
1EF
100
AcDbEntity
  8
template
370
              15
390
0
  6
STYLE_12
 62
               7
100
AcDbVertex
100
AcDb2dVertex
 10
575.71808892360195
 20
-481.41177226279297
 30
0.0
  0
VERTEX
  5
1F0
100
AcDbEntity
  8
template
370
              15
390
0
  6
STYLE_12
 62
               7
100
AcDbVertex
100
AcDb2dVertex
 10
572.44012333311048
 20
-494.92521413491704
 30
0.0
  0
VERTEX
  5
1F1
100
AcDbEntity
  8
template
370
              15
390
0
  6
STYLE_12
 62
               7
100
AcDbVertex
100
AcDb2dVertex
 10
568.42052503632522
 20
-514.82857161159518
 30
0.0
  0
VERTEX
  5
1F2
100
AcDbEntity
  8
template
370
              15
390
0
  6
STYLE_12
 62
               7
100
AcDbVertex
100
AcDb2dVertex
 10
565.98766393176675
 20
-527.95396518189091
 30
0.0
  0
VERTEX
  5
1F3
100
AcDbEntity
  8
template
370
              15
390
0
  6
STYLE_12
 62
               7
100
AcDbVertex
100
AcDb2dVertex
 10
564.55944754480288
 20
-538.4596435114845
 30
0.0
  0
VERTEX
  5
1F4
100
AcDbEntity
  8
template
370
              15
390
0
  6
STYLE_12
 62
               7
100
AcDbVertex
100
AcDb2dVertex
 10
561.36660405874454
 20
-547.45380666203801
 30
0.0
  0
VERTEX
  5
1F5
100
AcDbEntity
  8
template
370
              15
390
0
  6
STYLE_12
 62
               7
100
AcDbVertex
100
AcDb2dVertex
 10
555.94019732940569
 20
-554.76279460666865
 30
0.0
  0
VERTEX
  5
1F6
100
AcDbEntity
  8
template
370
              15
390
0
  6
STYLE_12
 62
               7
100
AcDbVertex
100
AcDb2dVertex
 10
548.8511061410104
 20
-559.62597843642106
 30
0.0
  0
VERTEX
  5
1F7
100
AcDbEntity
  8
template
370
              15
390
0
  6
STYLE_12
 62
               7
100
AcDbVertex
100
AcDb2dVertex
 10
540.74870511061681
 20
-561.53764488619618
 30
0.0
  0
VERTEX
  5
1F8
100
AcDbEntity
  8
template
370
              15
390
0
  6
STYLE_12
 62
               7
100
AcDbVertex
100
AcDb2dVertex
 10
469.64575253538686
 20
-561.28433627555523
 30
0.0
  0
VERTEX
  5
1F9
100
AcDbEntity
  8
template
370
              15
390
0
  6
STYLE_12
 62
               7
100
AcDbVertex
100
AcDb2dVertex
 10
459.17471426365836
 20
-561.14055702252881
 30
0.0
  0
VERTEX
  5
1FA
100
AcDbEntity
  8
template
370
              15
390
0
  6
STYLE_12
 62
               7
100
AcDbVertex
100
AcDb2dVertex
 10
448.12362237010228
 20
-560.41156658000955
 30
0.0
  0
VERTEX
  5
1FB
100
AcDbEntity
  8
template
370
              15
390
0
  6
STYLE_12
 62
               7
100
AcDbVertex
100
AcDb2dVertex
 10
435.62953240677706
 20
-559.36684433037226
 30
0.0
  0
VERTEX
  5
1FC
100
AcDbEntity
  8
template
370
              15
390
0
  6
STYLE_12
 62
               7
100
AcDbVertex
100
AcDb2dVertex
 10
426.07954588781257
 20
-558.24583822277282
 30
0.0
  0
VERTEX
  5
1FD
100
AcDbEntity
  8
template
370
              15
390
0
  6
STYLE_12
 62
               7
100
AcDbVertex
100
AcDb2dVertex
 10
412.7790896417693
 20
-556.39001617724671
 30
0.0
  0
VERTEX
  5
1FE
100
AcDbEntity
  8
template
370
              15
390
0
  6
STYLE_12
 62
               7
100
AcDbVertex
100
AcDb2dVertex
 10
396.9489267831288
 20
-552.70262824379552
 30
0.0
  0
VERTEX
  5
1FF
100
AcDbEntity
  8
template
370
              15
390
0
  6
STYLE_12
 62
               7
100
AcDbVertex
100
AcDb2dVertex
 10
387.55032508462426
 20
-550.18927851406534
 30
0.0
  0
VERTEX
  5
200
100
AcDbEntity
  8
template
370
              15
390
0
  6
STYLE_12
 62
               7
100
AcDbVertex
100
AcDb2dVertex
 10
374.34773377301934
 20
-543.93430347984986
 30
0.0
  0
VERTEX
  5
201
100
AcDbEntity
  8
template
370
              15
390
0
  6
STYLE_12
 62
               7
100
AcDbVertex
100
AcDb2dVertex
 10
360.29397238839937
 20
-537.07272362645699
 30
0.0
  0
VERTEX
  5
202
100
AcDbEntity
  8
template
370
              15
390
0
  6
STYLE_12
 62
               7
100
AcDbVertex
100
AcDb2dVertex
 10
338.99861362588507
 20
-514.01124456199477
 30
0.0
  0
VERTEX
  5
203
100
AcDbEntity
  8
template
370
              15
390
0
  6
STYLE_12
 62
               7
100
AcDbVertex
100
AcDb2dVertex
 10
322.43222102087447
 20
-484.37473975443299
 30
0.0
  0
VERTEX
  5
204
100
AcDbEntity
  8
template
370
              15
390
0
  6
STYLE_12
 62
               7
100
AcDbVertex
100
AcDb2dVertex
 10
313.48655047206756
 20
-451.81022042767472
 30
0.0
  0
VERTEX
  5
205
100
AcDbEntity
  8
template
370
              15
390
0
  6
STYLE_12
 62
               7
100
AcDbVertex
100
AcDb2dVertex
 10
311.68135020223616
 20
-447.18999993223679
 30
0.0
  0
VERTEX
  5
206
100
AcDbEntity
  8
template
370
              15
390
0
  6
STYLE_12
 62
               7
100
AcDbVertex
100
AcDb2dVertex
 10
309.25970278808126
 20
-446.71743172721426
 30
0.0
  0
SEQEND
  5
207
100
AcDbEntity
  8
template
370
              15
390
0
  6
STYLE_12
 62
               7
  0
LINE
  5
208
100
AcDbEntity
  8
template
370
              15
390
0
  6
STYLE_12
 62
               7
100
AcDbLine
 10
471.21720447064098
 20
-574.50612157144906
 30
0.0
 11
471.21720447064098
 21
-603.50101671400353
 31
0.0
  0
LINE
  5
209
100
AcDbEntity
  8
template
370
              15
390
0
  6
STYLE_12
 62
               7
100
AcDbLine
 10
471.21720447064098
 20
-574.50612157144906
 30
0.0
 11
456.70235724629964
 21
-562.32671860504979
 31
0.0
  0
ARC
  5
20A
100
AcDbEntity
  8
template
370
              15
390
0
  6
STYLE_12
 62
               7
100
AcDbCircle
 10
453.60491504629834
 20
-566.24539396226783
 30
0.0
 40
4.9950139877298412
100
AcDbArc
 50
51.676065126236125
 51
85.475659384274223
  0
LINE
  5
20B
100
AcDbEntity
  8
template
370
              15
390
0
  6
STYLE_12
 62
               7
100
AcDbLine
 10
517.21716446087657
 20
-574.52641451288173
 30
0.0
 11
517.21716446087657
 21
-603.50101671400353
 31
0.0
  0
LINE
  5
20C
100
AcDbEntity
  8
template
370
              15
390
0
  6
STYLE_12
 62
               7
100
AcDbLine
 10
517.21716446087657
 20
-574.52641451288173
 30
0.0
 11
531.73201168521837
 21
-562.34701154648246
 31
0.0
  0
ARC
  5
20D
100
AcDbEntity
  8
template
370
              15
390
0
  6
STYLE_12
 62
               7
100
AcDbCircle
 10
534.82945388521921
 20
-566.2656869037005
 30
0.0
 40
4.9950139877295356
100
AcDbArc
 50
94.52434061572059
 51
128.32393487375978
  0
LINE
  5
20E
100
AcDbEntity
  8
template
370
              15
390
0
  6
STYLE_12
 62
               7
100
AcDbLine
 10
517.13295682464513
 20
-574.3284410556048
 30
0.0
 11
471.13299683441045
 21
-574.35332407815804
 31
0.0
  0
INSERT
  5
20F
100
AcDbEntity
  8
template
390
0
 62
               7
100
AcDbBlockReference
  2
グループ-3
 10
305.99964937397834
 20
568.28791903477327
 30
0.0
  0
LINE
  5
210
100
AcDbEntity
  8
template
370
              15
390
0
  6
STYLE_12
 62
               7
100
AcDbLine
 10
-489.45484634836004
 20
-603.50101671400353
 30
0.0
 11
-422.87355294558239
 21
-603.50101671400353
 31
0.0
  0
LINE
  5
211
100
AcDbEntity
  8
template
370
               5
390
0
  6
Continuous
 62
               7
100
AcDbLine
 10
835.14863330288745
 20
843.85339472933606
 30
0.0
 11
125.14863330288625
 21
843.85339472933606
 31
0.0
  0
INSERT
  5
212
100
AcDbEntity
  8
template
390
0
 62
               7
100
AcDbBlockReference
  2
グループ-4
 10
305.99964937397834
 20
568.28791903477327
 30
0.0
  0
LINE
  5
213
100
AcDbEntity
  8
template
370
              15
390
0
  6
Continuous
 62
               7
100
AcDbLine
 10
651.76861118238094
 20
-444.57969515963441
 30
0.0
 11
651.76861118238094
 21
-460.01345007468126
 31
0.0
  0
LINE
  5
214
100
AcDbEntity
  8
template
370
              15
390
0
  6
Continuous
 62
               7
100
AcDbLine
 10
616.76861118238094
 20
-445.45048448554053
 30
0.0
 11
616.76861118238094
 21
-460.01345007468126
 31
0.0
  0
INSERT
  5
215
100
AcDbEntity
  8
template
390
0
 62
               7
100
AcDbBlockReference
  2
グループ-6
 10
305.99964937397834
 20
568.28791903477327
 30
0.0
  0
INSERT
  5
216
100
AcDbEntity
  8
GAR70-0601
390
0
 62
               7
100
AcDbBlockReference
  2
グループ-7
 10
305.99964937397834
 20
568.28791903477327
 30
0.0
  0
ENDSEC
  0
SECTION
  2
OBJECTS
  0
DICTIONARY
  5
19
100
AcDbDictionary
280
               0
281
               1
  3
ACAD_GROUP
350
1A
  3
ACAD_MLINESTYLE
350
1B
  3
ACAD_LAYOUT
350
1E
  3
ACAD_PLOTSETTINGS
350
22
  3
ACAD_PLOTSTYLENAME
350
1F
  0
DICTIONARY
  5
1A
102
{ACAD_REACTORS
330
19
102
}
100
AcDbDictionary
280
               0
281
               1
  0
DICTIONARY
  5
1B
102
{ACAD_REACTORS
330
19
102
}
100
AcDbDictionary
280
               0
281
               1
  3
Standard
350
1C
  0
MLINESTYLE
  5
1C
102
{ACAD_REACTORS
330
1B
102
}
100
AcDbMlineStyle
  2
Standard
 70
               0
  3

 62
               0
 51
90.0
 52
90.0
 71
               2
 49
0.5
 62
             256
  6
ByLayer
 49
-0.5
 62
             256
  6
ByLayer
  0
ACDBDICTIONARYWDFLT
  5
1F
102
{ACAD_REACTORS
330
19
102
}
100
AcDbDictionary
281
               1
  3
Normal
350
1D
100
AcDbDictionaryWithDefault
340
1D
  0
ACDBPLACEHOLDER
  5
1D
102
{ACAD_REACTORS
330
1F
102
}
  0
LAYOUT
  5
20
102
{ACAD_REACTORS
330
1E
102
}
100
AcDbPlotSettings
  1

  2

  4

  6

 40
0.0
 41
0.0
 42
0.0
 43
0.0
 44
0.0
 45
0.0
 46
0.0
 47
0.0
 48
0.0
 49
0.0
140
0.0
141
0.0
142
1.0
143
1.0
 70
            1024
 72
               0
 73
               0
 74
               0
  7

 75
               0
147
1.0
148
0.0
149
0.0
100
AcDbLayout
  1
Model
 70
               0
 71
               0
 10
0.0
 20
0.0
 11
0.0
 21
0.0
 12
0.0
 22
0.0
 32
0.0
 14
0.0
 24
0.0
 34
0.0
 15
0.0
 25
0.0
 35
0.0
146
0.0
 13
0.0
 23
0.0
 33
0.0
 16
0.0
 26
0.0
 36
0.0
 17
0.0
 27
0.0
 37
0.0
 76
               0
330
A
331
0
345
0
346
0
  0
LAYOUT
  5
21
102
{ACAD_REACTORS
330
1E
102
}
100
AcDbPlotSettings
  1

  2

  4

  6

 40
0.0
 41
0.0
 42
0.0
 43
0.0
 44
0.0
 45
0.0
 46
0.0
 47
0.0
 48
0.0
 49
0.0
140
0.0
141
0.0
142
1.0
143
1.0
 70
               0
 72
               0
 73
               0
 74
               0
  7

 75
               0
147
1.0
148
0.0
149
0.0
100
AcDbLayout
  1
Layout1
 70
               0
 71
               0
 10
0.0
 20
0.0
 11
0.0
 21
0.0
 12
0.0
 22
0.0
 32
0.0
 14
0.0
 24
0.0
 34
0.0
 15
0.0
 25
0.0
 35
0.0
146
0.0
 13
0.0
 23
0.0
 33
0.0
 16
0.0
 26
0.0
 36
0.0
 17
0.0
 27
0.0
 37
0.0
 76
               0
330
B
331
0
345
0
346
0
  0
DICTIONARY
  5
1E
102
{ACAD_REACTORS
330
19
102
}
100
AcDbDictionary
280
               0
281
               1
  3
Layout1
350
21
  3
Model
350
20
  0
DICTIONARY
  5
22
102
{ACAD_REACTORS
330
19
102
}
100
AcDbDictionary
280
               0
281
               1
  0
ENDSEC
  0
EOF
