  0
SECTION
  2
HEADER
  9
$ACADVER
  1
AC1015
  9
$ACADMAINTVER
 70
               6
  9
$DWGCODEPAGE
  3
ANSI_932
  9
$INSBASE
 10
0.0
 20
0.0
 30
0.0
  9
$EXTMIN
 10
-1054.9784071180554
 20
-1714.0
 30
-14.851944444444445
  9
$EXTMAX
 10
1045.0215928819441
 20
1256.0
 30
14.851944444444445
  9
$LIMMIN
 10
0.0
 20
0.0
  9
$LIMMAX
 10
0.0
 20
0.0
  9
$ORTHOMODE
 70
               0
  9
$REGENMODE
 70
               1
  9
$FILLMODE
 70
               1
  9
$QTEXTMODE
 70
               0
  9
$MIRRTEXT
 70
               1
  9
$LTSCALE
 40
50.799999999999997
  9
$ATTMODE
 70
               1
  9
$TEXTSIZE
 40
0.2
  9
$TRACEWID
 40
1.0
  9
$TEXTSTYLE
  7
Standard
  9
$CLAYER
  8
template
  9
$CELTYPE
  6
Continuous
  9
$CECOLOR
 62
             256
  9
$CELTSCALE
 40
1.0
  9
$DISPSILH
 70
               0
  9
$DIMSCALE
 40
1.0
  9
$DIMASZ
 40
31.75
  9
$DIMEXO
 40
0.0
  9
$DIMDLI
 40
6.9999999999999396
  9
$DIMRND
 40
0.0
  9
$DIMDLE
 40
0.0
  9
$DIMEXE
 40
19.999999999996199
  9
$DIMTP
 40
0.0
  9
$DIMTM
 40
0.0
  9
$DIMTXT
 40
24.432617187500004
  9
$DIMCEN
 40
0.0
  9
$DIMTSZ
 40
0.0
  9
$DIMTOL
 70
               0
  9
$DIMLIM
 70
               0
  9
$DIMTIH
 70
               0
  9
$DIMTOH
 70
               0
  9
$DIMSE1
 70
               0
  9
$DIMSE2
 70
               0
  9
$DIMTAD
 70
               1
  9
$DIMZIN
 70
              11
  9
$DIMBLK
  1
VW_FILLEDARROW
  9
$DIMASO
 70
               1
  9
$DIMSHO
 70
               1
  9
$DIMPOST
  1
<>
  9
$DIMAPOST
  1
[]
  9
$DIMALT
 70
               0
  9
$DIMALTD
 70
               3
  9
$DIMALTF
 40
0.0393700787401575
  9
$DIMLFAC
 40
1.0
  9
$DIMTOFL
 70
               0
  9
$DIMTVP
 40
0.0
  9
$DIMTIX
 70
               1
  9
$DIMSOXD
 70
               0
  9
$DIMSAH
 70
               0
  9
$DIMBLK1
  1

  9
$DIMBLK2
  1

  9
$DIMSTYLE
  2
JIS
  9
$DIMCLRD
 70
               0
  9
$DIMCLRE
 70
               0
  9
$DIMCLRT
 70
               0
  9
$DIMTFAC
 40
1.0
  9
$DIMGAP
 40
1.00000000000108
  9
$DIMJUST
 70
               0
  9
$DIMSD1
 70
               0
  9
$DIMSD2
 70
               0
  9
$DIMTOLJ
 70
               1
  9
$DIMTZIN
 70
              11
  9
$DIMALTZ
 70
              15
  9
$DIMALTTZ
 70
              15
  9
$DIMUPT
 70
               0
  9
$DIMDEC
 70
               1
  9
$DIMTDEC
 70
               1
  9
$DIMALTU
 70
               4
  9
$DIMALTTD
 70
               2
  9
$DIMTXSTY
  7
ＭＳ ゴシック
  9
$DIMAUNIT
 70
               0
  9
$DIMADEC
 70
               2
  9
$DIMALTRND
 40
0.0
  9
$DIMAZIN
 70
               0
  9
$DIMDSEP
 70
              46
  9
$DIMATFIT
 70
               0
  9
$DIMFRAC
 70
               2
  9
$DIMLDRBLK
  1

  9
$DIMLUNIT
 70
               2
  9
$DIMLWD
 70
              -2
  9
$DIMLWE
 70
              -2
  9
$DIMTMOVE
 70
               0
  9
$LUNITS
 70
               2
  9
$LUPREC
 70
               4
  9
$SKETCHINC
 40
0.1
  9
$FILLETRAD
 40
0.0
  9
$AUNITS
 70
               0
  9
$AUPREC
 70
               0
  9
$MENU
  1
acad
  9
$ELEVATION
 40
0.0
  9
$PELEVATION
 40
0.0
  9
$THICKNESS
 40
0.0
  9
$LIMCHECK
 70
               0
  9
$CHAMFERA
 40
0.0
  9
$CHAMFERB
 40
0.0
  9
$CHAMFERC
 40
0.0
  9
$CHAMFERD
 40
0.0
  9
$SKPOLY
 70
               0
  9
$TDCREATE
 40
2455951.469988426
  9
$TDUCREATE
 40
0.000000000
  9
$TDUPDATE
 40
2455951.469988426
  9
$TDUUPDATE
 40
0.000000000
  9
$TDINDWG
 40
0.0000000000
  9
$TDUSRTIMER
 40
0.0000000000
  9
$USRTIMER
 70
               1
  9
$ANGBASE
 50
0.0
  9
$ANGDIR
 70
               0
  9
$PDMODE
 70
               1
  9
$PDSIZE
 40
-2.0
  9
$PLINEWID
 40
0.0
  9
$SPLFRAME
 70
               0
  9
$SPLINETYPE
 70
               6
  9
$SPLINESEGS
 70
               8
  9
$HANDSEED
  5
1BB
  9
$SURFTAB1
 70
               6
  9
$SURFTAB2
 70
               6
  9
$SURFTYPE
 70
               6
  9
$SURFU
 70
               6
  9
$SURFV
 70
               6
  9
$UCSBASE
  2

  9
$UCSNAME
  2

  9
$UCSORG
 10
0.0
 20
0.0
 30
0.0
  9
$UCSXDIR
 10
1.0
 20
0.0
 30
0.0
  9
$UCSYDIR
 10
0.0
 20
1.0
 30
0.0
  9
$UCSORTHOREF
  2

  9
$UCSORTHOVIEW
 70
               0
  9
$UCSORGTOP
 10
0.0
 20
0.0
 30
0.0
  9
$UCSORGBOTTOM
 10
0.0
 20
0.0
 30
0.0
  9
$UCSORGLEFT
 10
0.0
 20
0.0
 30
0.0
  9
$UCSORGRIGHT
 10
0.0
 20
0.0
 30
0.0
  9
$UCSORGFRONT
 10
0.0
 20
0.0
 30
0.0
  9
$UCSORGBACK
 10
0.0
 20
0.0
 30
0.0
  9
$PUCSBASE
  2

  9
$PUCSNAME
  2

  9
$PUCSORG
 10
0.0
 20
0.0
 30
0.0
  9
$PUCSXDIR
 10
1.0
 20
0.0
 30
0.0
  9
$PUCSYDIR
 10
0.0
 20
1.0
 30
0.0
  9
$PUCSORTHOREF
  2

  9
$PUCSORTHOVIEW
 70
               0
  9
$PUCSORGTOP
 10
0.0
 20
0.0
 30
0.0
  9
$PUCSORGBOTTOM
 10
0.0
 20
0.0
 30
0.0
  9
$PUCSORGLEFT
 10
0.0
 20
0.0
 30
0.0
  9
$PUCSORGRIGHT
 10
0.0
 20
0.0
 30
0.0
  9
$PUCSORGFRONT
 10
0.0
 20
0.0
 30
0.0
  9
$PUCSORGBACK
 10
0.0
 20
0.0
 30
0.0
  9
$USERI1
 70
               0
  9
$USERI2
 70
               0
  9
$USERI3
 70
               0
  9
$USERI4
 70
               0
  9
$USERI5
 70
               0
  9
$USERR1
 40
0.0
  9
$USERR2
 40
0.0
  9
$USERR3
 40
0.0
  9
$USERR4
 40
0.0
  9
$USERR5
 40
0.0
  9
$WORLDVIEW
 70
               1
  9
$SHADEDGE
 70
               3
  9
$SHADEDIF
 70
              70
  9
$TILEMODE
 70
               1
  9
$MAXACTVP
 70
              64
  9
$PINSBASE
 10
0.0
 20
0.0
 30
0.0
  9
$PLIMCHECK
 70
               0
  9
$PEXTMIN
 10
1.0000000000000000E+20
 20
1.0000000000000000E+20
 30
1.0000000000000000E+20
  9
$PEXTMAX
 10
-1.0000000000000000E+20
 20
-1.0000000000000000E+20
 30
-1.0000000000000000E+20
  9
$PLIMMIN
 10
0.0
 20
0.0
  9
$PLIMMAX
 10
12.0
 20
9.0
  9
$UNITMODE
 70
               0
  9
$VISRETAIN
 70
               0
  9
$PLINEGEN
 70
               1
  9
$PSLTSCALE
 70
               0
  9
$TREEDEPTH
 70
            3020
  9
$CMLSTYLE
  2
Standard
  9
$CMLJUST
 70
               0
  9
$CMLSCALE
 40
1.0
  9
$PROXYGRAPHICS
 70
               0
  9
$MEASUREMENT
 70
               1
  9
$CELWEIGHT
370
               0
  9
$ENDCAPS
280
               0
  9
$JOINSTYLE
280
               0
  9
$LWDISPLAY
290
               1
  9
$INSUNITS
 70
               4
  9
$HYPERLINKBASE
  1

  9
$STYLESHEET
  1

  9
$XEDIT
290
               1
  9
$CEPSNTYPE
380
               0
  9
$PSTYLEMODE
290
               1
  9
$FINGERPRINTGUID
  2

  9
$VERSIONGUID
  2

  9
$EXTNAMES
290
               1
  9
$PSVPSCALE
 40
0.0
  0
ENDSEC
  0
SECTION
  2
CLASSES
  0
CLASS
  1
LWPOLYLINE
  2
AcDbPolyline
  3
AutoCAD 2000
 90
        0
280
               0
281
               1
  0
CLASS
  1
IMAGE
  2
AcDbRasterImage
  3
ISM
 90
      127
280
               0
281
               1
  0
CLASS
  1
OLE2FRAME
  2
AcDbOle2Frame
  3
AutoCAD 2000
 90
        0
280
               0
281
               1
  0
CLASS
  1
HATCH
  2
AcDbHatch
  3
AutoCAD 2000
 90
        0
280
               0
281
               1
  0
CLASS
  1
DICTIONARYVAR
  2
AcDbDictionaryVar
  3
AutoCAD 2000
 90
        0
280
               0
281
               0
  0
CLASS
  1
RASTERVARIABLES
  2
AcDbRasterVariables
  3
ISM
 90
        0
280
               0
281
               0
  0
CLASS
  1
IMAGEDEF
  2
AcDbRasterImageDef
  3
ISM
 90
        0
280
               0
281
               0
  0
CLASS
  1
IMAGEDEF_REACTOR
  2
AcDbRasterImageDefReactor
  3
ISM
 90
        1
280
               0
281
               0
  0
CLASS
  1
IDBUFFER
  2
AcDbIdBuffer
  3
AutoCAD 2000
 90
        0
280
               0
281
               0
  0
CLASS
  1
SPATIAL_FILTER
  2
AcDbSpatialFilter
  3
AutoCAD 2000
 90
        0
280
               0
281
               0
  0
CLASS
  1
XRECORD
  2
AcDbXrecord
  3
AutoCAD 2000
 90
        0
280
               0
281
               0
  0
CLASS
  1
SORTENTSTABLE
  2
AcDbSortentsTable
  3
AutoCAD 2000
 90
        0
280
               0
281
               0
  0
CLASS
  1
LAYER_INDEX
  2
AcDbLayerIndex
  3
AutoCAD 2000
 90
        0
280
               0
281
               0
  0
CLASS
  1
SPATIAL_INDEX
  2
AcDbSpatialIndex
  3
AutoCAD 2000
 90
        0
280
               0
281
               0
  0
CLASS
  1
OBJECT_PTR
  2
CAseDLPNTableRecord
  3
"ASE-LPNTableRecord"
 90
        1
280
               0
281
               0
  0
CLASS
  1
LAYOUT
  2
AcDbLayout
  3
AutoCAD 2000
 90
        0
280
               0
281
               0
  0
CLASS
  1
PLOTSETTINGS
  2
AcDbPlotSettings
  3
AutoCAD 2000
 90
        0
280
               0
281
               0
  0
CLASS
  1
ACDBDICTIONARYWDFLT
  2
AcDbDictionaryWithDefault
  3
AutoCAD 2000
 90
        0
280
               0
281
               0
  0
CLASS
  1
ACDBPLACEHOLDER
  2
AcDbPlaceHolder
  3
AutoCAD 2000
 90
        0
280
               0
281
               0
  0
ENDSEC
  0
SECTION
  2
TABLES
  0
TABLE
  2
VPORT
  5
7
100
AcDbSymbolTable
 70
               1
  0
VPORT
  5
15
100
AcDbSymbolTableRecord
100
AcDbViewportTableRecord
  2
*ACTIVE
 70
               0
 10
0.0
 20
0.0
 11
1.0
 21
1.0
 12
-4.9784071180556566
 22
-229.0
 13
0.0
 23
0.0
 14
1.0
 24
1.0
 15
0.0
 25
0.0
 16
0.0
 26
0.0
 36
1.0
 17
0.0
 27
0.0
 37
0.0
 40
2970.0
 41
0.688564
 42
50.0
 43
0.0
 44
0.0
 50
0.0
 51
0.0
 71
               0
 72
            2000
 73
               1
 74
               1
 75
               0
 76
               0
 77
               0
 78
               0
281
               0
 65
               0
110
0.0
120
0.0
130
0.0
111
1.0
121
0.0
131
0.0
112
0.0
122
1.0
132
0.0
345
0
346
0
 79
               0
146
0.0
  0
ENDTAB
  0
TABLE
  2
LTYPE
  5
4
100
AcDbSymbolTable
 70
              13
  0
LTYPE
  5
11
100
AcDbSymbolTableRecord
100
AcDbLinetypeTableRecord
  2
ByBlock
 70
              64
  3

 72
              65
 73
               0
 40
0.0
  0
LTYPE
  5
12
100
AcDbSymbolTableRecord
100
AcDbLinetypeTableRecord
  2
ByLayer
 70
              64
  3

 72
              65
 73
               0
 40
0.0
  0
LTYPE
  5
13
100
AcDbSymbolTableRecord
100
AcDbLinetypeTableRecord
  2
Continuous
 70
              64
  3
Solid line
 72
              65
 73
               0
 40
0.0
  0
LTYPE
  5
39
100
AcDbSymbolTableRecord
100
AcDbLinetypeTableRecord
  2
STYLE_01
 70
               0
  3

 72
              65
 73
               2
 40
0.41664
 49
0.20828
 74
               0
 49
-0.20836
 74
               0
  0
LTYPE
  5
3A
100
AcDbSymbolTableRecord
100
AcDbLinetypeTableRecord
  2
STYLE_02
 70
               0
  3

 72
              65
 73
               2
 40
0.6944250000000001
 49
0.48607
 74
               0
 49
-0.2083550000000001
 74
               0
  0
LTYPE
  5
3B
100
AcDbSymbolTableRecord
100
AcDbLinetypeTableRecord
  2
STYLE_03
 70
               0
  3

 72
              65
 73
               2
 40
1.25
 49
1.0416400000000001
 74
               0
 49
-0.2083599999999999
 74
               0
  0
LTYPE
  5
3C
100
AcDbSymbolTableRecord
100
AcDbLinetypeTableRecord
  2
STYLE_04
 70
               0
  3

 72
              65
 73
               2
 40
1.5277099999999999
 49
1.3194249999999998
 74
               0
 49
-0.208285
 74
               0
  0
LTYPE
  5
3D
100
AcDbSymbolTableRecord
100
AcDbLinetypeTableRecord
  2
STYLE_05
 70
               0
  3

 72
              65
 73
               2
 40
0.20828
 49
0.069425
 74
               0
 49
-0.138855
 74
               0
  0
LTYPE
  5
3E
100
AcDbSymbolTableRecord
100
AcDbLinetypeTableRecord
  2
STYLE_06
 70
               0
  3

 72
              65
 73
               4
 40
1.0416400000000001
 49
0.625
 74
               0
 49
-0.20828
 74
               0
 49
0.06943
 74
               0
 49
-0.13893
 74
               0
  0
LTYPE
  5
3F
100
AcDbSymbolTableRecord
100
AcDbLinetypeTableRecord
  2
STYLE_07
 70
               0
  3

 72
              65
 73
               6
 40
1.875
 49
0.625
 74
               0
 49
-0.20828
 74
               0
 49
0.6250000000000001
 74
               0
 49
-0.2083599999999999
 74
               0
 49
0.06943
 74
               0
 49
-0.1389299999999999
 74
               0
  0
LTYPE
  5
40
100
AcDbSymbolTableRecord
100
AcDbLinetypeTableRecord
  2
STYLE_08
 70
               0
  3

 72
              65
 73
               6
 40
1.25
 49
0.625
 74
               0
 49
-0.20828
 74
               0
 49
0.06943
 74
               0
 49
-0.13893
 74
               0
 49
0.0694299999999999
 74
               0
 49
-0.13893
 74
               0
  0
LTYPE
  5
41
100
AcDbSymbolTableRecord
100
AcDbLinetypeTableRecord
  2
STYLE_09
 70
               0
  3

 72
              65
 73
               4
 40
5.0
 49
3.75
 74
               0
 49
-0.2777849999999998
 74
               0
 49
0.6944300000000003
 74
               0
 49
-0.2777849999999998
 74
               0
  0
LTYPE
  5
42
100
AcDbSymbolTableRecord
100
AcDbLinetypeTableRecord
  2
STYLE_10
 70
               0
  3

 72
              65
 73
               6
 40
5.9375
 49
3.75
 74
               0
 49
-0.2777849999999998
 74
               0
 49
0.6944300000000003
 74
               0
 49
-0.2777849999999998
 74
               0
 49
0.625
 74
               0
 49
-0.3125
 74
               0
  0
ENDTAB
  0
TABLE
  2
LAYER
  5
2
100
AcDbSymbolTable
 70
               5
  0
LAYER
  5
14
100
AcDbSymbolTableRecord
100
AcDbLayerTableRecord
  2
0
 70
               0
 62
               7
  6
Continuous
290
               1
370
              -3
390
1D
  0
LAYER
  5
43
100
AcDbSymbolTableRecord
100
AcDbLayerTableRecord
  2
Defpoints
 70
               0
 62
               7
  6
Continuous
290
               0
370
              -3
390
1D
  0
LAYER
  5
44
100
AcDbSymbolTableRecord
100
AcDbLayerTableRecord
  2
template
 70
               0
 62
               7
  6
Continuous
290
               1
370
              -3
390
1D
  0
LAYER
  5
45
100
AcDbSymbolTableRecord
100
AcDbLayerTableRecord
  2
notes
 70
               0
 62
               7
  6
Continuous
290
               1
370
              -3
390
1D
  0
LAYER
  5
46
100
AcDbSymbolTableRecord
100
AcDbLayerTableRecord
  2
GAR70-0914
 70
               0
 62
               7
  6
Continuous
290
               1
370
              -3
390
1D
  0
ENDTAB
  0
TABLE
  2
STYLE
  5
3
100
AcDbSymbolTable
 70
               2
  0
STYLE
  5
17
100
AcDbSymbolTableRecord
100
AcDbTextStyleTableRecord
  2
Standard
 70
               0
 40
0.0
 41
1.0
 50
0.0
 71
               0
 42
0.0
  3
txt
  4
BIGFONT.SHX
  0
STYLE
  5
38
100
AcDbSymbolTableRecord
100
AcDbTextStyleTableRecord
  2
ＭＳ ゴシック
 70
               0
 40
0.0
 41
1.0
 50
0.0
 71
               0
 42
0.0
  3

  4
ＭＳ ゴシック
1001
ACAD
1000
ＭＳ ゴシック
1071
        0
  0
ENDTAB
  0
TABLE
  2
VIEW
  5
5
100
AcDbSymbolTable
 70
               0
  0
ENDTAB
  0
TABLE
  2
UCS
  5
6
100
AcDbSymbolTable
 70
               0
  0
ENDTAB
  0
TABLE
  2
APPID
  5
8
100
AcDbSymbolTable
 70
               1
  0
APPID
  5
16
100
AcDbSymbolTableRecord
100
AcDbRegAppTableRecord
  2
ACAD
 70
               0
  0
ENDTAB
  0
TABLE
  2
DIMSTYLE
  5
9
100
AcDbSymbolTable
 70
               3
100
AcDbDimStyleTable
 71
               0
  0
DIMSTYLE
105
18
100
AcDbSymbolTableRecord
100
AcDbDimStyleTableRecord
  2
Standard
 70
               0
  3

  4

 40
1.0
 41
0.18
 42
0.0625
 43
0.38
 44
0.18
 45
0.0
 46
0.0
 47
0.0
 48
0.0
 71
               0
 72
               0
 73
               1
 74
               1
 75
               0
 76
               0
 77
               0
 78
               0
 79
               0
140
0.18
141
0.09
142
0.0
143
25.399999999999999
144
1.0
145
0.0
146
1.0
147
0.09
148
0.0
170
               0
171
               2
172
               0
173
               0
174
               0
175
               0
176
               0
177
               0
178
               0
179
               0
271
               4
272
               4
273
               2
274
               2
275
               0
276
               0
277
               2
278
              46
279
               0
280
               0
281
               0
282
               0
283
               1
284
               0
285
               0
286
               0
288
               0
289
               3
340
17
341
0
342
0
343
0
344
0
371
              -2
372
              -2
  0
DIMSTYLE
105
4F
100
AcDbSymbolTableRecord
100
AcDbDimStyleTableRecord
  2
TformSENN
 70
               0
  3
<>
  4
[]
 40
1.0
 41
3.999755859375
 42
24.999999999999996
 43
0.9999999999999999
 44
0.0
 45
0.0
 46
0.0
 47
0.0
 48
0.0
 71
               0
 72
               0
 73
               0
 74
               0
 75
               0
 76
               0
 77
               1
 78
              11
 79
               0
140
24.432617187500004
141
0.0
142
0.0
143
0.0393700787401575
144
1.0
145
0.0
146
0.8
147
0.4999999999999999
148
0.0
170
               0
171
               3
172
               1
173
               0
174
               1
175
               0
176
               0
177
               0
178
               0
179
               2
271
               1
272
               1
273
               4
274
               2
275
               0
276
               2
277
               2
278
              46
279
               0
280
               0
281
               0
282
               0
283
               1
284
              11
285
              15
286
              15
288
               0
289
               0
340
38
341
47
342
47
343
0
344
0
371
              -2
372
              -2
  0
DIMSTYLE
105
54
100
AcDbSymbolTableRecord
100
AcDbDimStyleTableRecord
  2
JIS
 70
               0
  3
<>
  4
[]
 40
1.0
 41
31.75
 42
0.0
 43
6.9999999999999396
 44
19.999999999996199
 45
0.0
 46
0.0
 47
0.0
 48
0.0
 71
               0
 72
               0
 73
               0
 74
               0
 75
               0
 76
               0
 77
               1
 78
              11
 79
               0
140
24.432617187500004
141
0.0
142
0.0
143
0.0393700787401575
144
1.0
145
0.0
146
1.0
147
1.00000000000108
148
0.0
170
               0
171
               3
172
               0
173
               0
174
               1
175
               0
176
               0
177
               0
178
               0
179
               2
271
               1
272
               1
273
               4
274
               2
275
               0
276
               2
277
               2
278
              46
279
               0
280
               0
281
               0
282
               0
283
               1
284
              11
285
              15
286
              15
288
               0
289
               0
340
38
341
50
342
50
343
0
344
0
371
              -2
372
              -2
  0
ENDTAB
  0
TABLE
  2
BLOCK_RECORD
  5
1
100
AcDbSymbolTable
 70
              23
  0
BLOCK_RECORD
  5
A
100
AcDbSymbolTableRecord
100
AcDbBlockTableRecord
  2
*MODEL_SPACE
340
20
  0
BLOCK_RECORD
  5
B
100
AcDbSymbolTableRecord
100
AcDbBlockTableRecord
  2
*PAPER_SPACE
340
21
  0
BLOCK_RECORD
  5
47
100
AcDbSymbolTableRecord
100
AcDbBlockTableRecord
  2
_DOT
340
0
  0
BLOCK_RECORD
  5
50
100
AcDbSymbolTableRecord
100
AcDbBlockTableRecord
  2
VW_FILLEDARROW
340
0
  0
BLOCK_RECORD
  5
23
100
AcDbSymbolTableRecord
100
AcDbBlockTableRecord
  2
グループ
340
0
102
{BLKREFS
331
169
102
}
  0
BLOCK_RECORD
  5
24
100
AcDbSymbolTableRecord
100
AcDbBlockTableRecord
  2
*D3
340
0
  0
BLOCK_RECORD
  5
25
100
AcDbSymbolTableRecord
100
AcDbBlockTableRecord
  2
*D4
340
0
  0
BLOCK_RECORD
  5
26
100
AcDbSymbolTableRecord
100
AcDbBlockTableRecord
  2
*D5
340
0
  0
BLOCK_RECORD
  5
27
100
AcDbSymbolTableRecord
100
AcDbBlockTableRecord
  2
*D6
340
0
  0
BLOCK_RECORD
  5
28
100
AcDbSymbolTableRecord
100
AcDbBlockTableRecord
  2
*D7
340
0
  0
BLOCK_RECORD
  5
29
100
AcDbSymbolTableRecord
100
AcDbBlockTableRecord
  2
*D8
340
0
  0
BLOCK_RECORD
  5
2A
100
AcDbSymbolTableRecord
100
AcDbBlockTableRecord
  2
*D9
340
0
  0
BLOCK_RECORD
  5
2B
100
AcDbSymbolTableRecord
100
AcDbBlockTableRecord
  2
*D10
340
0
  0
BLOCK_RECORD
  5
2C
100
AcDbSymbolTableRecord
100
AcDbBlockTableRecord
  2
*D11
340
0
  0
BLOCK_RECORD
  5
2D
100
AcDbSymbolTableRecord
100
AcDbBlockTableRecord
  2
*D12
340
0
  0
BLOCK_RECORD
  5
2E
100
AcDbSymbolTableRecord
100
AcDbBlockTableRecord
  2
*D13
340
0
  0
BLOCK_RECORD
  5
2F
100
AcDbSymbolTableRecord
100
AcDbBlockTableRecord
  2
*D14
340
0
  0
BLOCK_RECORD
  5
30
100
AcDbSymbolTableRecord
100
AcDbBlockTableRecord
  2
*D15
340
0
  0
BLOCK_RECORD
  5
31
100
AcDbSymbolTableRecord
100
AcDbBlockTableRecord
  2
*D16
340
0
  0
BLOCK_RECORD
  5
32
100
AcDbSymbolTableRecord
100
AcDbBlockTableRecord
  2
*D17
340
0
  0
BLOCK_RECORD
  5
33
100
AcDbSymbolTableRecord
100
AcDbBlockTableRecord
  2
*D18
340
0
  0
BLOCK_RECORD
  5
34
100
AcDbSymbolTableRecord
100
AcDbBlockTableRecord
  2
*D19
340
0
  0
BLOCK_RECORD
  5
35
100
AcDbSymbolTableRecord
100
AcDbBlockTableRecord
  2
*D20
340
0
  0
BLOCK_RECORD
  5
36
100
AcDbSymbolTableRecord
100
AcDbBlockTableRecord
  2
*D21
340
0
  0
BLOCK_RECORD
  5
37
100
AcDbSymbolTableRecord
100
AcDbBlockTableRecord
  2
*D22
340
0
  0
ENDTAB
  0
ENDSEC
  0
SECTION
  2
BLOCKS
  0
BLOCK
  5
D
100
AcDbEntity
  8
0
390
0
100
AcDbBlockBegin
  2
*MODEL_SPACE
 70
               0
 10
0.0
 20
0.0
 30
0.0
  3
*MODEL_SPACE
  1

  0
ENDBLK
  5
E
100
AcDbEntity
  8
0
390
0
100
AcDbBlockEnd
  0
BLOCK
  5
F
100
AcDbEntity
 67
               1
  8
0
390
0
100
AcDbBlockBegin
  2
*PAPER_SPACE
 70
               0
 10
0.0
 20
0.0
 30
0.0
  3
*PAPER_SPACE
  1

  0
ENDBLK
  5
10
100
AcDbEntity
 67
               1
  8
0
390
0
100
AcDbBlockEnd
  0
BLOCK
  5
48
100
AcDbEntity
  8
0
390
0
100
AcDbBlockBegin
  2
_DOT
 70
               0
 10
0.0
 20
0.0
 30
0.0
  3
_DOT
  1

  0
POLYLINE
  5
49
100
AcDbEntity
  8
0
370
              -2
390
0
  6
ByBlock
 62
               0
100
AcDb2dPolyline
 66
               1
 10
0.0
 20
0.0
 30
0.0
 70
               1
 40
0.5
 41
0.5
  0
VERTEX
  5
4A
100
AcDbEntity
  8
0
370
              -2
390
0
  6
ByBlock
 62
               0
100
AcDbVertex
100
AcDb2dVertex
 10
-0.25
 20
0.0
 30
0.0
 42
1.0
  0
VERTEX
  5
4B
100
AcDbEntity
  8
0
370
              -2
390
0
  6
ByBlock
 62
               0
100
AcDbVertex
100
AcDb2dVertex
 10
0.25
 20
0.0
 30
0.0
 42
1.0
  0
SEQEND
  5
4C
100
AcDbEntity
  8
0
390
0
  0
LINE
  5
4D
100
AcDbEntity
  8
0
370
              -2
390
0
  6
ByBlock
 62
               0
100
AcDbLine
 10
-0.5
 20
0.0
 30
0.0
 11
-1.0
 21
0.0
 31
0.0
  0
ENDBLK
  5
4E
100
AcDbEntity
  8
0
390
0
100
AcDbBlockEnd
  0
BLOCK
  5
51
100
AcDbEntity
  8
0
370
              -2
390
0
  6
ByBlock
 62
               0
100
AcDbBlockBegin
  2
VW_FILLEDARROW
 70
               0
 10
0.0
 20
0.0
 30
0.0
  3
VW_FILLEDARROW
  1

  0
SOLID
  5
52
100
AcDbEntity
  8
0
370
              -2
390
0
 62
               0
100
AcDbTrace
 10
0.0
 20
0.0
 30
0.0
 11
-0.9921874999999999
 21
-0.2658558393652545
 31
0.0
 12
-0.9921874999999999
 22
0.2658558393652548
 32
0.0
 13
-0.9921874999999999
 23
0.2658558393652548
 33
0.0
  0
ENDBLK
  5
53
100
AcDbEntity
  8
0
390
0
100
AcDbBlockEnd
  0
BLOCK
  5
55
100
AcDbEntity
  8
template
390
0
100
AcDbBlockBegin
  2
グループ
 70
               0
 10
0.0
 20
0.0
 30
0.0
  3
グループ
  1

  0
LWPOLYLINE
  5
56
100
AcDbEntity
  8
0
370
              15
390
0
  6
Continuous
 62
               7
100
AcDbPolyline
 90
        8
 70
             129
 10
887.42850780307481
 20
-1334.4897210236859
 10
887.42850780307481
 20
-1340.4871097172618
 10
877.92731088507151
 20
-1340.4871097172618
 10
877.92731088507151
 20
-1364.9380729807706
 10
869.57193362328871
 20
-1364.9380729807706
 10
869.57193362328871
 20
-1340.4871097172618
 10
860.23897667697929
 20
-1340.4871097172618
 10
860.23897667697929
 20
-1334.4897210236859
  0
LWPOLYLINE
  5
57
100
AcDbEntity
  8
0
370
              15
390
0
  6
Continuous
 62
               7
100
AcDbPolyline
 90
      101
 70
             128
 10
900.15679963363175
 20
-1335.2179695166224
 10
900.17214966241681
 20
-1335.2136087599372
 42
-0.0222221607812452
 10
900.46215423908779
 20
-1335.1449842946927
 10
900.47794800307383
 20
-1335.1419808715971
 42
-0.0146883565588934
 10
900.74065070830557
 20
-1335.0999776846463
 42
-0.0127458844187264
 10
901.00528967545358
 20
-1335.0724407165742
 10
901.06774475377142
 20
-1335.0675472939856
 42
-0.0198099018564238
 10
901.45859386324787
 20
-1335.0524621365889
 10
901.51040533269202
 20
-1335.052515912254
 42
-0.014761738276327
 10
902.00502879366297
 20
-1335.0676359374988
 10
902.07772024854614
 20
-1335.072008544387
 42
-0.0162624549002029
 10
902.46787387800578
 20
-1335.108241419659
 10
902.58940626927017
 20
-1335.1235279786561
 42
-0.0080020874659354
 10
902.73498530035658
 20
-1335.1442108259239
 10
902.77330477094858
 20
-1335.1502821037345
 42
-0.0053821929678317
 10
902.84178887626638
 20
-1335.1618896275565
 10
902.11538317706777
 20
-1337.3428180832705
 42
0.01086677573739
 10
902.04806610694311
 20
-1337.3296309680516
 10
902.01059808374748
 20
-1337.3231332254561
 42
0.0170663203307341
 10
901.8673812968334
 20
-1337.3033036281645
 10
901.79950596414892
 20
-1337.2962564575769
 42
0.022016237527672
 10
901.51912655629246
 20
-1337.2795740968068
 10
901.44127098924127
 20
-1337.2783747295402
 42
0.028260691578763
 10
901.10563466566362
 20
-1337.2921780065094
 10
901.06172139189073
 20
-1337.2964779965132
 42
0.0169677213689564
 10
900.8157968969324
 20
-1337.3290150460648
 42
0.0190576269861447
 10
900.57288893435577
 20
-1337.3791619181704
 10
900.56662974624146
 20
-1337.3807048922806
 42
0.0213685642848188
 10
900.31624526176222
 20
-1337.4539051773859
 10
900.3107553668475
 20
-1337.4557681734445
 42
0.0237595297595475
 10
900.05726048195015
 20
-1337.5554526953395
 10
900.05215840791914
 20
-1337.5577444708183
 42
0.0261857468820483
 10
899.79998763169021
 20
-1337.6872808081923
 10
899.78956144260201
 20
-1337.6933462826614
 42
0.0272553062022719
 10
899.55313166736369
 20
-1337.8487184886053
 10
899.51836865385451
 20
-1337.8743796366973
 42
0.03259968931689
 10
899.36821331020269
 20
-1338.001127509669
 10
899.34450388107882
 20
-1338.0239455381825
 42
0.0138050960634597
 10
899.25262072486953
 20
-1338.1173951997334
 42
0.0125280103795566
 10
899.16577819203962
 20
-1338.2155585263292
 10
899.14209774712765
 20
-1338.2437170245209
 42
0.0205218024740018
 10
899.01699767161551
 20
-1338.4055103387479
 10
898.99453133112684
 20
-1338.437170068577
 42
0.0163110129586428
 10
898.83882095187516
 20
-1338.6725005036476
 10
898.83609705582455
 20
-1338.6769242656324
 42
0.0131897341900631
 10
898.68929653491591
 20
-1338.930056358002
 10
898.68759643955218
 20
-1338.9331745971326
 42
0.0107895576063121
 10
898.54981973734573
 20
-1339.199389806759
 10
898.5490868478164
 20
-1339.2008840394142
 42
0.0091371507222248
 10
898.4206068991648
 20
-1339.4754092371782
 10
898.3908612677576
 20
-1339.5421157443325
 42
0.0135418326351088
 10
898.21914732868436
 20
-1339.9570535296054
 10
898.18554252025513
 20
-1340.0449196718735
 42
0.0092834542406019
 10
898.01431346033087
 20
-1340.5188181701878
 10
897.98869633262177
 20
-1340.5940592399559
 42
0.0054261043575737
 10
897.88105818432018
 20
-1340.9218232130465
 10
897.8635321980961
 20
-1340.9772113754241
 42
0.0008225090817605
 10
897.79486214631277
 20
-1341.1954801334257
 10
896.8101730143793
 20
-1344.2203714266823
 10
900.04279685445317
 20
-1344.2203714266823
 10
899.53860442459973
 20
-1346.1248497250347
 10
896.28254814261641
 20
-1346.1248497250347
 10
890.45339911026258
 20
-1364.9380727910395
 10
888.62830149995227
 20
-1364.9380727910395
 10
894.4629795354532
 20
-1346.1248497250347
 10
892.05786316641286
 20
-1346.1248497250347
 10
892.5620555962663
 20
-1344.2203714266823
 10
894.99060440721632
 20
-1344.2203714266823
 10
895.85075932540497
 20
-1341.5839584259834
 42
-0.0005863560652156
 10
895.88749400360086
 20
-1341.4671320057159
 10
895.96358183726886
 20
-1341.2261397063062
 42
-0.0087522378926788
 10
896.16304998072587
 20
-1340.6308636191593
 10
896.25531425614099
 20
-1340.3707234506417
 42
-0.0077400953830428
 10
896.51324791527031
 20
-1339.6777187730986
 10
896.52901288684905
 20
-1339.637287889713
 42
-0.0082369946330594
 10
896.77609735746114
 20
-1339.0332088235168
 42
-0.0085725238362489
 10
897.04334345346786
 20
-1338.4377827842213
 10
897.14497305447071
 20
-1338.2213616822462
 42
-0.0168109410597172
 10
897.43191748320146
 20
-1337.6601541561402
 10
897.55776087369225
 20
-1337.4331901230855
 42
-0.0007817726868056
 10
897.61204522371713
 20
-1337.3356458781118
 10
897.61217352972994
 20
-1337.3354161693833
 42
-0.0036626142161349
 10
897.6670613937556
 20
-1337.2388182894067
 42
-0.0080221150672844
 10
897.72418564916472
 20
-1337.1435390546499
 10
897.75488560052349
 20
-1337.0941481055315
 42
-0.0202139325568902
 10
897.88254134033173
 20
-1336.9061665048482
 10
897.93660880551784
 20
-1336.8330876406094
 42
-0.0249323791798366
 10
898.19577159923824
 20
-1336.5170423984537
 10
898.219911413364
 20
-1336.4904281255426
 42
-0.0242132121540895
 10
898.55959215490702
 20
-1336.1505446393378
 10
898.60750372765358
 20
-1336.1070355031552
 42
-0.0251017527859385
 10
898.8914854282973
 20
-1335.8740427573875
 10
898.89293090511035
 20
-1335.8729734998092
 42
-0.0130868069035934
 10
899.19119155506837
 20
-1335.6641930312662
 10
899.19275337421232
 20
-1335.6631595909905
 42
-0.0290329526388077
 10
899.50386451560439
 20
-1335.4823340893618
 10
899.53371007759426
 20
-1335.4672317065204
 42
-0.0160250190047949
 10
899.79961449135521
 20
-1335.3432155963092
 42
-0.0267600374780309
 10
900.07489056882525
 20
-1335.24246727576
 10
900.10162648834478
 20
-1335.2342747169348
 42
-0.0049981587669928
 10
900.15679963363175
 20
-1335.2179695166224
 42
-0.0049981587669928
  0
LWPOLYLINE
  5
58
100
AcDbEntity
  8
0
370
              15
390
0
  6
Continuous
 62
               7
100
AcDbPolyline
 90
      118
 70
             128
 10
919.97116719807866
 20
-1344.2943547545096
 10
921.84628912257813
 20
-1344.2943547545096
 10
921.00825021697824
 20
-1346.9759212809097
 42
-0.0010587229244717
 10
921.03970603257608
 20
-1346.939016747524
 10
921.09790012318217
 20
-1346.8710344913786
 42
-0.0071874740413046
 10
921.24827534127417
 20
-1346.7003937993563
 10
921.38999811454244
 20
-1346.5441576580365
 42
-0.0148118053513779
 10
921.84012740725132
 20
-1346.0765438120272
 10
921.92734974215728
 20
-1345.9911464911695
 42
-0.0086273358692718
 10
922.26289854316542
 20
-1345.6737708571534
 10
922.30673225939165
 20
-1345.6337212128201
 42
-0.0103138323115429
 10
922.56475596162477
 20
-1345.407558075482
 10
922.61053036796045
 20
-1345.3690760282145
 42
-0.0060206748564274
 10
922.78337843206407
 20
-1345.2272813774675
 10
922.78540956295512
 20
-1345.2256556718321
 42
-0.0067069027290416
 10
922.95770237761258
 20
-1345.0915050380413
 10
922.96025114354586
 20
-1345.0895748681605
 42
-0.0076184352049488
 10
923.13115640940987
 20
-1344.9641999929222
 42
-0.0089652861668072
 10
923.30611737214338
 20
-1344.84456673259
 10
923.34246909228841
 20
-1344.820655519107
 42
-0.0156916245939222
 10
923.5384285894495
 20
-1344.7003930326323
 42
-0.0023299011069693
 10
923.73869063340589
 20
-1344.5872150931043
 10
923.75407476580915
 20
-1344.5786150980266
 42
-0.0107669341481016
 10
923.98831159091708
 20
-1344.4542149646736
 10
924.0105763919853
 20
-1344.4429982147271
 42
-0.0078058045897393
 10
924.29416650993721
 20
-1344.3056367590891
 10
924.30407359764718
 20
-1344.3010276312202
 42
-0.0181829330470019
 10
924.61438300226393
 20
-1344.1701638901241
 10
924.66843844482628
 20
-1344.1496487701822
 42
-0.0208411536031712
 10
925.01752341227984
 20
-1344.0335583076881
 10
925.03187951240784
 20
-1344.0294398627343
 42
-0.022279981713889
 10
925.3605993063245
 20
-1343.9507982965943
 10
925.369488269567
 20
-1343.9490862860082
 42
-0.0215509523880639
 10
925.68595923784142
 20
-1343.9021705974747
 10
925.72844119889055
 20
-1343.8977330706839
 42
-0.0182545924872353
 10
925.96254997819551
 20
-1343.881889245293
 10
926.00195099454572
 20
-1343.8806647002136
 42
-0.0072962856529007
 10
926.15787387423256
 20
-1343.8780953716916
 10
926.18697354480855
 20
-1343.8780405362879
 42
-0.0059227516318757
 10
926.2847230439495
 20
-1343.8790142480784
 10
926.31396526146034
 20
-1343.8796520146825
 42
-0.0011833111901854
 10
926.35321654515383
 20
-1343.8806010189917
 10
925.55782994954666
 20
-1346.4193349640907
 42
0.0143932051598805
 10
925.53142856719546
 20
-1346.4091359940453
 10
925.52415659477879
 20
-1346.4065647751881
 42
0.0234388603530011
 10
925.48232572884706
 20
-1346.393945539473
 10
925.47364406593397
 20
-1346.3917645774677
 42
0.019916274298183
 10
925.41335523185228
 20
-1346.3791478421322
 10
925.39254129404776
 20
-1346.3756506427042
 42
0.0293643550666261
 10
925.28946643528752
 20
-1346.3645005970509
 10
925.26478125456833
 20
-1346.3632889800324
 42
0.0214606686863714
 10
925.11164033861519
 20
-1346.3623504196148
 10
925.10226842779787
 20
-1346.3626953311591
 42
0.0167564054173993
 10
924.93074823668678
 20
-1346.3747723735273
 10
924.92228844393048
 20
-1346.3756537139543
 42
0.0137677553240766
 10
924.73493513066455
 20
-1346.400403022498
 10
924.72758339115785
 20
-1346.4015809424659
 42
0.0118497261482254
 10
924.52708562705527
 20
-1346.4385982926551
 10
924.52093561980928
 20
-1346.4398851553751
 42
0.0106421143889724
 10
924.31005473252526
 20
-1346.4887175309498
 10
924.30514592413522
 20
-1346.489964873635
 42
0.0099746379706321
 10
924.08668745497073
 20
-1346.5501394019504
 10
924.02513941480242
 20
-1346.5684212805804
 42
0.0191613675859732
 10
923.68915495228691
 20
-1346.6823986608674
 10
923.60109517953742
 20
-1346.7160855711929
 42
0.0205274080144368
 10
923.21578840764073
 20
-1346.881913979018
 10
923.15813912565829
 20
-1346.9095819435906
 42
0.0181256912196064
 10
922.89986218499178
 20
-1347.0452657625683
 10
922.84690680168444
 20
-1347.0755833757792
 42
0.0140709242402873
 10
922.7019518670495
 20
-1347.1640780492173
 10
922.67570299843271
 20
-1347.1811348679316
 42
0.0086667884395987
 10
922.58677683688848
 20
-1347.2411375358156
 42
0.0036408192034625
 10
922.49934359883844
 20
-1347.30331839362
 10
922.46411672438649
 20
-1347.3287593395207
 42
0.0052260781272892
 10
922.30788802701056
 20
-1347.4440917261436
 10
922.29168117073573
 20
-1347.4563198367732
 42
0.0050024435898219
 10
922.10567782767976
 20
-1347.5996024050332
 10
922.09035967116176
 20
-1347.6116484274812
 42
0.013613871027649
 10
921.87991840284246
 20
-1347.7866149323893
 10
921.84625052704291
 20
-1347.8161939051088
 42
0.017281518691684
 10
921.58184698537809
 20
-1348.0651905777345
 10
921.57928463953772
 20
-1348.0677763948793
 42
0.0189403857992159
 10
921.3287028409577
 20
-1348.3405816596844
 10
921.29607134742764
 20
-1348.3789255911747
 42
0.0185044199499275
 10
921.10411490844263
 20
-1348.6221741723034
 42
0.0088565243898951
 10
920.9256548018152
 20
-1348.8756905924522
 10
920.91647682216569
 20
-1348.8892319722136
 42
0.0157195347234652
 10
920.73325621582853
 20
-1349.1787541815343
 10
920.687173273908
 20
-1349.2569063785377
 42
0.0095451879775554
 10
920.52208772376309
 20
-1349.5495010209065
 10
920.51093980483915
 20
-1349.570171693028
 42
0.0100351706251944
 10
920.3788960556742
 20
-1349.8272272535294
 42
0.0086935915418291
 10
920.25656490388019
 20
-1350.0890603989335
 10
920.25324416246565
 20
-1350.0965027219056
 42
0.0072580174866602
 10
920.13289771052291
 20
-1350.3770947134833
 10
920.1296360772144
 20
-1350.3850147395065
 42
0.0060005122616345
 10
920.01043540887065
 20
-1350.6846244101146
 10
920.00722443053007
 20
-1350.6929859380166
 42
0.0049017786975175
 10
919.88832427167199
 20
-1351.0119149186223
 10
919.88515846528219
 20
-1351.0206678558511
 42
0.0039415167599449
 10
919.76572218723106
 20
-1351.3592099182486
 10
919.76259108457339
 20
-1351.3683131191406
 42
0.0031035838769637
 10
919.64178629887556
 20
-1351.7267529809285
 10
919.63867625434989
 20
-1351.736173602289
 42
0.0025070747154479
 10
919.51577490303816
 20
-1352.1148208192214
 10
919.47848100660917
 20
-1352.2317124844858
 42
0.0029081910283904
 10
919.28646270880756
 20
-1352.8458761427471
 10
919.24565954028128
 20
-1352.9790993850534
 42
0.0009266453734212
 10
918.97724216592712
 20
-1353.8613238451076
 10
918.95635469334729
 20
-1353.9304357241422
 42
-0.0005809993666308
 10
918.67901801273479
 20
-1354.8442438308516
 10
918.61273621446219
 20
-1355.0617287630105
 42
-0.0012018708165088
 10
918.46575190503268
 20
-1355.539891427532
 10
918.41343205345208
 20
-1355.7086505684463
 42
-0.0002691059599173
 10
918.36986257229853
 20
-1355.8489181887398
 10
915.53690667400929
 20
-1364.9380727910395
 10
913.71891778203076
 20
-1364.9380727910395
 10
919.97116719807866
 20
-1344.2943547545096
  0
SPLINE
  5
59
100
AcDbEntity
  8
0
370
              15
390
0
  6
Continuous
 62
               7
100
AcDbSpline
210
0.0
220
0.0
230
1.0
 70
              13
 71
               2
 72
             782
 73
             779
 74
               0
 42
0.000001
 43
0.000001
 40
0.0
 40
0.0
 40
0.0
 40
1.0
 40
1.0
 40
2.0
 40
2.0
 40
3.0
 40
3.0
 40
4.0
 40
4.0
 40
5.0
 40
5.0
 40
6.0
 40
6.0
 40
7.0
 40
7.0
 40
8.0
 40
8.0
 40
9.0
 40
9.0
 40
10.0
 40
10.0
 40
11.0
 40
11.0
 40
12.0
 40
12.0
 40
13.0
 40
13.0
 40
14.0
 40
14.0
 40
15.0
 40
15.0
 40
16.0
 40
16.0
 40
17.0
 40
17.0
 40
18.0
 40
18.0
 40
19.0
 40
19.0
 40
20.0
 40
20.0
 40
21.0
 40
21.0
 40
22.0
 40
22.0
 40
23.0
 40
23.0
 40
24.0
 40
24.0
 40
25.0
 40
25.0
 40
26.0
 40
26.0
 40
27.0
 40
27.0
 40
28.0
 40
28.0
 40
29.0
 40
29.0
 40
30.0
 40
30.0
 40
31.0
 40
31.0
 40
32.0
 40
32.0
 40
33.0
 40
33.0
 40
34.0
 40
34.0
 40
35.0
 40
35.0
 40
36.0
 40
36.0
 40
37.0
 40
37.0
 40
38.0
 40
38.0
 40
39.0
 40
39.0
 40
40.0
 40
40.0
 40
41.0
 40
41.0
 40
42.0
 40
42.0
 40
43.0
 40
43.0
 40
44.0
 40
44.0
 40
45.0
 40
45.0
 40
46.0
 40
46.0
 40
47.0
 40
47.0
 40
48.0
 40
48.0
 40
49.0
 40
49.0
 40
50.0
 40
50.0
 40
51.0
 40
51.0
 40
52.0
 40
52.0
 40
53.0
 40
53.0
 40
54.0
 40
54.0
 40
55.0
 40
55.0
 40
56.0
 40
56.0
 40
57.0
 40
57.0
 40
58.0
 40
58.0
 40
59.0
 40
59.0
 40
60.0
 40
60.0
 40
61.0
 40
61.0
 40
62.0
 40
62.0
 40
63.0
 40
63.0
 40
64.0
 40
64.0
 40
65.0
 40
65.0
 40
66.0
 40
66.0
 40
67.0
 40
67.0
 40
68.0
 40
68.0
 40
69.0
 40
69.0
 40
70.0
 40
70.0
 40
71.0
 40
71.0
 40
72.0
 40
72.0
 40
73.0
 40
73.0
 40
74.0
 40
74.0
 40
75.0
 40
75.0
 40
76.0
 40
76.0
 40
77.0
 40
77.0
 40
78.0
 40
78.0
 40
79.0
 40
79.0
 40
80.0
 40
80.0
 40
81.0
 40
81.0
 40
82.0
 40
82.0
 40
83.0
 40
83.0
 40
84.0
 40
84.0
 40
85.0
 40
85.0
 40
86.0
 40
86.0
 40
87.0
 40
87.0
 40
88.0
 40
88.0
 40
89.0
 40
89.0
 40
90.0
 40
90.0
 40
91.0
 40
91.0
 40
92.0
 40
92.0
 40
93.0
 40
93.0
 40
94.0
 40
94.0
 40
95.0
 40
95.0
 40
96.0
 40
96.0
 40
97.0
 40
97.0
 40
98.0
 40
98.0
 40
99.0
 40
99.0
 40
100.0
 40
100.0
 40
101.0
 40
101.0
 40
102.0
 40
102.0
 40
103.0
 40
103.0
 40
104.0
 40
104.0
 40
105.0
 40
105.0
 40
106.0
 40
106.0
 40
107.0
 40
107.0
 40
108.0
 40
108.0
 40
109.0
 40
109.0
 40
110.0
 40
110.0
 40
111.0
 40
111.0
 40
112.0
 40
112.0
 40
113.0
 40
113.0
 40
114.0
 40
114.0
 40
115.0
 40
115.0
 40
116.0
 40
116.0
 40
117.0
 40
117.0
 40
118.0
 40
118.0
 40
119.0
 40
119.0
 40
120.0
 40
120.0
 40
121.0
 40
121.0
 40
122.0
 40
122.0
 40
123.0
 40
123.0
 40
124.0
 40
124.0
 40
125.0
 40
125.0
 40
126.0
 40
126.0
 40
127.0
 40
127.0
 40
128.0
 40
128.0
 40
129.0
 40
129.0
 40
130.0
 40
130.0
 40
131.0
 40
131.0
 40
132.0
 40
132.0
 40
133.0
 40
133.0
 40
134.0
 40
134.0
 40
135.0
 40
135.0
 40
136.0
 40
136.0
 40
137.0
 40
137.0
 40
138.0
 40
138.0
 40
139.0
 40
139.0
 40
140.0
 40
140.0
 40
141.0
 40
141.0
 40
142.0
 40
142.0
 40
143.0
 40
143.0
 40
144.0
 40
144.0
 40
145.0
 40
145.0
 40
146.0
 40
146.0
 40
147.0
 40
147.0
 40
148.0
 40
148.0
 40
149.0
 40
149.0
 40
150.0
 40
150.0
 40
151.0
 40
151.0
 40
152.0
 40
152.0
 40
153.0
 40
153.0
 40
154.0
 40
154.0
 40
155.0
 40
155.0
 40
156.0
 40
156.0
 40
157.0
 40
157.0
 40
158.0
 40
158.0
 40
159.0
 40
159.0
 40
160.0
 40
160.0
 40
161.0
 40
161.0
 40
162.0
 40
162.0
 40
163.0
 40
163.0
 40
164.0
 40
164.0
 40
165.0
 40
165.0
 40
166.0
 40
166.0
 40
167.0
 40
167.0
 40
168.0
 40
168.0
 40
169.0
 40
169.0
 40
170.0
 40
170.0
 40
171.0
 40
171.0
 40
172.0
 40
172.0
 40
173.0
 40
173.0
 40
174.0
 40
174.0
 40
175.0
 40
175.0
 40
176.0
 40
176.0
 40
177.0
 40
177.0
 40
178.0
 40
178.0
 40
179.0
 40
179.0
 40
180.0
 40
180.0
 40
181.0
 40
181.0
 40
182.0
 40
182.0
 40
183.0
 40
183.0
 40
184.0
 40
184.0
 40
185.0
 40
185.0
 40
186.0
 40
186.0
 40
187.0
 40
187.0
 40
188.0
 40
188.0
 40
189.0
 40
189.0
 40
190.0
 40
190.0
 40
191.0
 40
191.0
 40
192.0
 40
192.0
 40
193.0
 40
193.0
 40
194.0
 40
194.0
 40
195.0
 40
195.0
 40
196.0
 40
196.0
 40
197.0
 40
197.0
 40
198.0
 40
198.0
 40
199.0
 40
199.0
 40
200.0
 40
200.0
 40
201.0
 40
201.0
 40
202.0
 40
202.0
 40
203.0
 40
203.0
 40
204.0
 40
204.0
 40
205.0
 40
205.0
 40
206.0
 40
206.0
 40
207.0
 40
207.0
 40
208.0
 40
208.0
 40
209.0
 40
209.0
 40
210.0
 40
210.0
 40
211.0
 40
211.0
 40
212.0
 40
212.0
 40
213.0
 40
213.0
 40
214.0
 40
214.0
 40
215.0
 40
215.0
 40
216.0
 40
216.0
 40
217.0
 40
217.0
 40
218.0
 40
218.0
 40
219.0
 40
219.0
 40
220.0
 40
220.0
 40
221.0
 40
221.0
 40
222.0
 40
222.0
 40
223.0
 40
223.0
 40
224.0
 40
224.0
 40
225.0
 40
225.0
 40
226.0
 40
226.0
 40
227.0
 40
227.0
 40
228.0
 40
228.0
 40
229.0
 40
229.0
 40
230.0
 40
230.0
 40
231.0
 40
231.0
 40
232.0
 40
232.0
 40
233.0
 40
233.0
 40
234.0
 40
234.0
 40
235.0
 40
235.0
 40
236.0
 40
236.0
 40
237.0
 40
237.0
 40
238.0
 40
238.0
 40
239.0
 40
239.0
 40
240.0
 40
240.0
 40
241.0
 40
241.0
 40
242.0
 40
242.0
 40
243.0
 40
243.0
 40
244.0
 40
244.0
 40
245.0
 40
245.0
 40
246.0
 40
246.0
 40
247.0
 40
247.0
 40
248.0
 40
248.0
 40
249.0
 40
249.0
 40
250.0
 40
250.0
 40
251.0
 40
251.0
 40
252.0
 40
252.0
 40
253.0
 40
253.0
 40
254.0
 40
254.0
 40
255.0
 40
255.0
 40
256.0
 40
256.0
 40
257.0
 40
257.0
 40
258.0
 40
258.0
 40
259.0
 40
259.0
 40
260.0
 40
260.0
 40
261.0
 40
261.0
 40
262.0
 40
262.0
 40
263.0
 40
263.0
 40
264.0
 40
264.0
 40
265.0
 40
265.0
 40
266.0
 40
266.0
 40
267.0
 40
267.0
 40
268.0
 40
268.0
 40
269.0
 40
269.0
 40
270.0
 40
270.0
 40
271.0
 40
271.0
 40
272.0
 40
272.0
 40
273.0
 40
273.0
 40
274.0
 40
274.0
 40
275.0
 40
275.0
 40
276.0
 40
276.0
 40
277.0
 40
277.0
 40
278.0
 40
278.0
 40
279.0
 40
279.0
 40
280.0
 40
280.0
 40
281.0
 40
281.0
 40
282.0
 40
282.0
 40
283.0
 40
283.0
 40
284.0
 40
284.0
 40
285.0
 40
285.0
 40
286.0
 40
286.0
 40
287.0
 40
287.0
 40
288.0
 40
288.0
 40
289.0
 40
289.0
 40
290.0
 40
290.0
 40
291.0
 40
291.0
 40
292.0
 40
292.0
 40
293.0
 40
293.0
 40
294.0
 40
294.0
 40
295.0
 40
295.0
 40
296.0
 40
296.0
 40
297.0
 40
297.0
 40
298.0
 40
298.0
 40
299.0
 40
299.0
 40
300.0
 40
300.0
 40
301.0
 40
301.0
 40
302.0
 40
302.0
 40
303.0
 40
303.0
 40
304.0
 40
304.0
 40
305.0
 40
305.0
 40
306.0
 40
306.0
 40
307.0
 40
307.0
 40
308.0
 40
308.0
 40
309.0
 40
309.0
 40
310.0
 40
310.0
 40
311.0
 40
311.0
 40
312.0
 40
312.0
 40
313.0
 40
313.0
 40
314.0
 40
314.0
 40
315.0
 40
315.0
 40
316.0
 40
316.0
 40
317.0
 40
317.0
 40
318.0
 40
318.0
 40
319.0
 40
319.0
 40
320.0
 40
320.0
 40
321.0
 40
321.0
 40
322.0
 40
322.0
 40
323.0
 40
323.0
 40
324.0
 40
324.0
 40
325.0
 40
325.0
 40
326.0
 40
326.0
 40
327.0
 40
327.0
 40
328.0
 40
328.0
 40
329.0
 40
329.0
 40
330.0
 40
330.0
 40
331.0
 40
331.0
 40
332.0
 40
332.0
 40
333.0
 40
333.0
 40
334.0
 40
334.0
 40
335.0
 40
335.0
 40
336.0
 40
336.0
 40
337.0
 40
337.0
 40
338.0
 40
338.0
 40
339.0
 40
339.0
 40
340.0
 40
340.0
 40
341.0
 40
341.0
 40
342.0
 40
342.0
 40
343.0
 40
343.0
 40
344.0
 40
344.0
 40
345.0
 40
345.0
 40
346.0
 40
346.0
 40
347.0
 40
347.0
 40
348.0
 40
348.0
 40
349.0
 40
349.0
 40
350.0
 40
350.0
 40
351.0
 40
351.0
 40
352.0
 40
352.0
 40
353.0
 40
353.0
 40
354.0
 40
354.0
 40
355.0
 40
355.0
 40
356.0
 40
356.0
 40
357.0
 40
357.0
 40
358.0
 40
358.0
 40
359.0
 40
359.0
 40
360.0
 40
360.0
 40
361.0
 40
361.0
 40
362.0
 40
362.0
 40
363.0
 40
363.0
 40
364.0
 40
364.0
 40
365.0
 40
365.0
 40
366.0
 40
366.0
 40
367.0
 40
367.0
 40
368.0
 40
368.0
 40
369.0
 40
369.0
 40
370.0
 40
370.0
 40
371.0
 40
371.0
 40
372.0
 40
372.0
 40
373.0
 40
373.0
 40
374.0
 40
374.0
 40
375.0
 40
375.0
 40
376.0
 40
376.0
 40
377.0
 40
377.0
 40
378.0
 40
378.0
 40
379.0
 40
379.0
 40
380.0
 40
380.0
 40
381.0
 40
381.0
 40
382.0
 40
382.0
 40
383.0
 40
383.0
 40
384.0
 40
384.0
 40
385.0
 40
385.0
 40
386.0
 40
386.0
 40
387.0
 40
387.0
 40
388.0
 40
388.0
 40
389.0
 40
389.0
 40
389.0
 10
930.29987164881129
 20
-1344.2834283911473
 30
0.0
 41
1.0
 10
931.11829575753177
 20
-1344.2834283911473
 30
0.0
 41
1.0
 10
931.93671986625225
 20
-1344.2834283911473
 30
0.0
 41
1.0
 10
931.52296613073554
 20
-1345.626054655397
 30
0.0
 41
1.0
 10
931.10921239521872
 20
-1346.9686809196467
 30
0.0
 41
1.0
 10
931.12755189037239
 20
-1346.9399801467571
 30
0.0
 41
0.9999957264353334
 10
931.14605888718984
 20
-1346.9113870966273
 30
0.0
 41
1.0
 10
931.17648821134094
 20
-1346.8643742182301
 30
0.0
 41
1.0
 10
931.20691753549204
 20
-1346.8173613398328
 30
0.0
 41
1.0
 10
931.28628318059964
 20
-1346.6947425329274
 30
0.0
 41
0.9995394069080855
 10
931.37294157215149
 20
-1346.5771644711858
 30
0.0
 41
1.0
 10
931.40869843441078
 20
-1346.5286495785929
 30
0.0
 41
1.0
 10
931.44445529667007
 20
-1346.4801346859999
 30
0.0
 41
1.0
 10
931.57818196448875
 20
-1346.2986944108727
 30
0.0
 41
0.9994460617143494
 10
931.72368244577569
 20
-1346.1265520132242
 30
0.0
 41
1.0
 10
931.72807062674997
 20
-1346.1213603328424
 30
0.0
 41
1.0
 10
931.73245880772436
 20
-1346.1161686524608
 30
0.0
 41
1.0
 10
931.86918292706207
 20
-1345.9544096155764
 30
0.0
 41
0.9994359394933763
 10
932.01645715741506
 20
-1345.8021934144101
 30
0.0
 41
1.0
 10
932.01884051137063
 20
-1345.7997300840348
 30
0.0
 41
1.0
 10
932.02122386532608
 20
-1345.7972667536592
 30
0.0
 41
1.0
 10
932.1637313877693
 20
-1345.6499772132429
 30
0.0
 41
0.9995293688567944
 10
932.31500306874864
 20
-1345.5117040010814
 30
0.0
 41
1.0
 10
932.33429682801261
 20
-1345.4940681154296
 30
0.0
 41
1.0
 10
932.35359058727659
 20
-1345.4764322297779
 30
0.0
 41
1.0
 10
932.46627474973218
 20
-1345.373430788916
 30
0.0
 41
0.999708761480295
 10
932.58379763868584
 20
-1345.2759865081193
 30
0.0
 41
1.0
 10
932.60296371186837
 20
-1345.2600949296057
 30
0.0
 41
1.0
 10
932.62212978505079
 20
-1345.244203351092
 30
0.0
 41
1.0
 10
932.70132052765098
 20
-1345.1785422273133
 30
0.0
 41
0.9999595338700135
 10
932.78167979849604
 20
-1345.1143164966666
 30
0.0
 41
1.0
 10
932.86203906934838
 20
-1345.0500907660137
 30
0.0
 41
0.9999749417498401
 10
932.943299603691
 20
-1344.987009212068
 30
0.0
 41
1.0
 10
932.96428574986589
 20
-1344.9707179247566
 30
0.0
 41
1.0
 10
932.98527189604079
 20
-1344.9544266374453
 30
0.0
 41
1.0
 10
933.06983978133303
 20
-1344.8887776276119
 30
0.0
 41
0.9999792037130209
 10
933.15524738109707
 20
-1344.8242248459724
 30
0.0
 41
1.0
 10
933.1760722070195
 20
-1344.8084850237065
 30
0.0
 41
1.0
 10
933.19689703294193
 20
-1344.7927452014403
 30
0.0
 41
1.0
 10
933.24065498087236
 20
-1344.7596720643246
 30
0.0
 41
0.9999993373740191
 10
933.28433666700971
 20
-1344.7264982689048
 30
0.0
 41
1.0
 10
933.3280183531507
 20
-1344.6933244734823
 30
0.0
 41
0.9999160953816699
 10
933.37254476406838
 20
-1344.6612934082855
 30
0.0
 41
1.0
 10
933.40536665148989
 20
-1344.6376822526991
 30
0.0
 41
1.0
 10
933.4381885389115
 20
-1344.6140710971126
 30
0.0
 41
1.0
 10
933.54835872466924
 20
-1344.5348177207452
 30
0.0
 41
0.9980964527231613
 10
933.66744771817002
 20
-1344.4697302478892
 30
0.0
 41
1.0
 10
933.70448032509717
 20
-1344.4494902682964
 30
0.0
 41
1.0
 10
933.74151293202442
 20
-1344.4292502887038
 30
0.0
 41
1.0
 10
933.92083994529833
 20
-1344.3312400380021
 30
0.0
 41
0.9984572810572789
 10
934.10992851165884
 20
-1344.2537177766549
 30
0.0
 41
1.0
 10
934.1135747810539
 20
-1344.2522228843172
 30
0.0
 41
1.0
 10
934.11722105044896
 20
-1344.2507279919796
 30
0.0
 41
1.0
 10
934.29901707801707
 20
-1344.1761955153088
 30
0.0
 41
0.9987838528033893
 10
934.48726973657699
 20
-1344.1199298751428
 30
0.0
 41
1.0
 10
934.49150768577658
 20
-1344.1186632214524
 30
0.0
 41
1.0
 10
934.49574563497617
 20
-1344.1173965677619
 30
0.0
 41
1.0
 10
934.67552239513714
 20
-1344.0636642349768
 30
0.0
 41
0.999065281620722
 10
934.85926832685209
 20
-1344.025660555435
 30
0.0
 41
1.0
 10
934.86445672788182
 20
-1344.0245874523289
 30
0.0
 41
1.0
 10
934.86964512891166
 20
-1344.0235143492228
 30
0.0
 41
1.0
 10
935.04301425856659
 20
-1343.9876568758932
 30
0.0
 41
0.9992909934270359
 10
935.21859002502629
 20
-1343.9649464434265
 30
0.0
 41
1.0
 10
935.39416579148281
 20
-1343.94223601096
 30
0.0
 41
0.9994553539448302
 10
935.57085722457441
 20
-1343.9311567067539
 30
0.0
 41
1.0
 10
935.60629163237172
 20
-1343.928934818706
 30
0.0
 41
1.0
 10
935.64172604016903
 20
-1343.9267129306581
 30
0.0
 41
1.0
 10
935.80795180673806
 20
-1343.9162898682464
 30
0.0
 41
0.999092809829273
 10
935.97446159864103
 20
-1343.920049509481
 30
0.0
 41
1.0
 10
936.01302343391387
 20
-1343.920920201014
 30
0.0
 41
1.0
 10
936.05158526918672
 20
-1343.9217908925471
 30
0.0
 41
1.0
 10
936.14097139054468
 20
-1343.9238091507154
 30
0.0
 41
0.999838208920621
 10
936.23022707332984
 20
-1343.9290412772434
 30
0.0
 41
1.0
 10
936.23065697954735
 20
-1343.9290664781456
 30
0.0
 41
1.0
 10
936.23108688576485
 20
-1343.9290916790476
 30
0.0
 41
1.0
 10
936.31948275611376
 20
-1343.9342734037714
 30
0.0
 41
0.9997558016759435
 10
936.40756333331683
 20
-1343.943355919138
 30
0.0
 41
1.0
 10
936.40803947174277
 20
-1343.9434050166201
 30
0.0
 41
1.0
 10
936.40851561016859
 20
-1343.9434541141022
 30
0.0
 41
1.0
 10
936.49564391051354
 20
-1343.9524384345038
 30
0.0
 41
0.9996565144182056
 10
936.58218176385981
 20
-1343.9659757411937
 30
0.0
 41
1.0
 10
936.58264768923641
 20
-1343.9660486269249
 30
0.0
 41
1.0
 10
936.5831136146129
 20
-1343.9661215126562
 30
0.0
 41
1.0
 10
936.66871961720074
 20
-1343.9795130478824
 30
0.0
 41
0.9995321806866535
 10
936.75334669752976
 20
-1343.9981135363118
 30
0.0
 41
1.0
 10
936.75373589210335
 20
-1343.9981990787783
 30
0.0
 41
1.0
 10
936.75412508667705
 20
-1343.9982846212445
 30
0.0
 41
1.0
 10
936.83797377785925
 20
-1344.0167140247415
 30
0.0
 41
0.9993819199219618
 10
936.92032031205395
 20
-1344.0409894080017
 30
0.0
 41
1.0
 10
936.92055874555274
 20
-1344.0410596971112
 30
0.0
 41
1.0
 10
936.92079717905153
 20
-1344.0411299862208
 30
0.0
 41
1.0
 10
937.00266684625024
 20
-1344.0652647912625
 30
0.0
 41
0.9992088568505916
 10
937.0823593652384
 20
-1344.0958300270568
 30
0.0
 41
1.0
 10
937.16204035611736
 20
-1344.1263896277901
 30
0.0
 41
0.9990226101773474
 10
937.23871102602459
 20
-1344.1638670594048
 30
0.0
 41
1.0
 10
937.31537016782215
 20
-1344.2013388559576
 30
0.0
 41
0.9988424273972117
 10
937.38807379503419
 20
-1344.2460036312104
 30
0.0
 41
1.0
 10
937.38834150341393
 20
-1344.2461680952829
 30
0.0
 41
1.0
 10
937.38860921179366
 20
-1344.2463325593553
 30
0.0
 41
1.0
 10
937.46184825576449
 20
-1344.2913262627528
 30
0.0
 41
0.9986928844491282
 10
937.53011112247418
 20
-1344.3435619970323
 30
0.0
 41
1.0
 10
937.530692414697
 20
-1344.3440068102602
 30
0.0
 41
1.0
 10
937.53127370691982
 20
-1344.3444516234881
 30
0.0
 41
1.0
 10
937.60069915807503
 20
-1344.3975769842236
 30
0.0
 41
0.998600726227902
 10
937.66412532784193
 20
-1344.4577377539172
 30
0.0
 41
1.0
 10
937.66501974329913
 20
-1344.4585861217522
 30
0.0
 41
1.0
 10
937.66591415875632
 20
-1344.4594344895872
 30
0.0
 41
1.0
 10
937.73112915943716
 20
-1344.5212919949508
 30
0.0
 41
0.9985581491382038
 10
937.78933677113901
 20
-1344.5897844852225
 30
0.0
 41
1.0
 10
937.79859522473487
 20
-1344.6006788429243
 30
0.0
 41
1.0
 10
937.80785367833073
 20
-1344.611573200626
 30
0.0
 41
1.0
 10
937.8845781972235
 20
-1344.7018544063005
 30
0.0
 41
0.9970460233520153
 10
937.94657009838295
 20
-1344.8028214904823
 30
0.0
 41
1.0
 10
937.96103946346238
 20
-1344.8263879495635
 30
0.0
 41
1.0
 10
937.97550882854193
 20
-1344.8499544086444
 30
0.0
 41
1.0
 10
938.0152455285546
 20
-1344.9146741326767
 30
0.0
 41
0.9988468816636342
 10
938.0485918993063
 20
-1344.9829065851047
 30
0.0
 41
1.0
 10
938.05562792179842
 20
-1344.9973035062435
 30
0.0
 41
1.0
 10
938.06266394429053
 20
-1345.011700427382
 30
0.0
 41
1.0
 10
938.08193827005812
 20
-1345.0511390375332
 30
0.0
 41
0.9998431189996929
 10
938.09980359755286
 20
-1345.0912355919731
 30
0.0
 41
1.0
 10
938.11766892508149
 20
-1345.1313321464893
 30
0.0
 41
0.9999989990028213
 10
938.13564764851083
 20
-1345.1713779840891
 30
0.0
 41
1.0
 10
938.1418199600846
 20
-1345.1851262008558
 30
0.0
 41
1.0
 10
938.14799227165827
 20
-1345.1988744176228
 30
0.0
 41
1.0
 10
938.17831561826858
 20
-1345.2664166888314
 30
0.0
 41
0.9998790356321278
 10
938.20652349840657
 20
-1345.3348694407691
 30
0.0
 41
1.0
 10
938.2133586796906
 20
-1345.3514565421956
 30
0.0
 41
1.0
 10
938.22019386097452
 20
-1345.3680436436221
 30
0.0
 41
1.0
 10
938.24375152335631
 20
-1345.4252115985112
 30
0.0
 41
0.9998227574561287
 10
938.26514027174494
 20
-1345.4832259067871
 30
0.0
 41
1.0
 10
938.28652902013437
 20
-1345.5412402150646
 30
0.0
 41
0.9996797971040683
 10
938.30495530509347
 20
-1345.6002623341826
 30
0.0
 41
1.0
 10
938.30885910781899
 20
-1345.6127667923515
 30
0.0
 41
1.0
 10
938.31276291054451
 20
-1345.6252712505204
 30
0.0
 41
1.0
 10
938.33899680095487
 20
-1345.7093022859765
 30
0.0
 41
0.9979274938734355
 10
938.35422132443409
 20
-1345.7960066446369
 30
0.0
 41
1.0
 10
938.35644501169486
 20
-1345.808670645456
 30
0.0
 41
1.0
 10
938.35866869895574
 20
-1345.8213346462751
 30
0.0
 41
1.0
 10
938.36959863865468
 20
-1345.8835811535689
 30
0.0
 41
0.9994985982137418
 10
938.37656680383157
 20
-1345.9463946547112
 30
0.0
 41
1.0
 10
938.38353496900834
 20
-1346.0092081558485
 30
0.0
 41
0.9996372611200992
 10
938.38711083477608
 20
-1346.0723057345308
 30
0.0
 41
1.0
 10
938.38727941226557
 20
-1346.0752803516152
 30
0.0
 41
1.0
 10
938.38744798975495
 20
-1346.0782549686999
 30
0.0
 41
1.0
 10
938.39136101050121
 20
-1346.1473017815445
 30
0.0
 41
0.9997730630736238
 10
938.39232932398932
 20
-1346.2164526055763
 30
0.0
 41
1.0
 10
938.39238643040744
 20
-1346.22053078472
 30
0.0
 41
1.0
 10
938.39244353682557
 20
-1346.2246089638638
 30
0.0
 41
1.0
 10
938.39352606314981
 20
-1346.3019161461852
 30
0.0
 41
0.9998772614069083
 10
938.39218597641798
 20
-1346.3792192927531
 30
0.0
 41
1.0
 10
938.3920967132193
 20
-1346.3843684565845
 30
0.0
 41
1.0
 10
938.39200745002063
 20
-1346.389517620416
 30
0.0
 41
1.0
 10
938.39048883689145
 20
-1346.4771190946506
 30
0.0
 41
0.9999415567326905
 10
938.38707652664505
 20
-1346.5646672563362
 30
0.0
 41
1.0
 10
938.38683520596987
 20
-1346.570858716068
 30
0.0
 41
1.0
 10
938.38659388529481
 20
-1346.5770501758
 30
0.0
 41
1.0
 10
938.38269893369795
 20
-1346.6769812569587
 30
0.0
 41
0.9999716810434098
 10
938.37730035057973
 20
-1346.7768423951793
 30
0.0
 41
1.0
 10
938.37408755179104
 20
-1346.8362716448339
 30
0.0
 41
1.0
 10
938.37087475300245
 20
-1346.8957008944885
 30
0.0
 41
1.0
 10
938.36280084384975
 20
-1347.0450492957716
 30
0.0
 41
0.9999819129906373
 10
938.35293105223286
 20
-1347.1942897734855
 30
0.0
 41
1.0
 10
938.34306126061631
 20
-1347.3435302511969
 30
0.0
 41
1.0
 10
938.34062194005242
 20
-1347.3807232970462
 30
0.0
 41
1.0
 10
938.36332017388281
 20
-1347.3419822997175
 30
0.0
 41
0.9999982127994569
 10
938.38616473264733
 20
-1347.3033274057443
 30
0.0
 41
1.0
 10
938.41307429252788
 20
-1347.2577941916961
 30
0.0
 41
1.0
 10
938.43998385240855
 20
-1347.2122609776482
 30
0.0
 41
1.0
 10
938.51664753093405
 20
-1347.082539655579
 30
0.0
 41
0.9998609190057378
 10
938.59759484379663
 20
-1346.9554472736486
 30
0.0
 41
1.0
 10
938.6272431652792
 20
-1346.9088975406898
 30
0.0
 41
1.0
 10
938.65689148676188
 20
-1346.8623478077313
 30
0.0
 41
1.0
 10
938.7391637069984
 20
-1346.7331752377372
 30
0.0
 41
0.99990676097348
 10
938.82493271646081
 20
-1346.6062975482982
 30
0.0
 41
1.0
 10
938.82733741966047
 20
-1346.6027402822451
 30
0.0
 41
1.0
 10
938.82974212286013
 20
-1346.5991830161922
 30
0.0
 41
1.0
 10
938.91070172592117
 20
-1346.479419858862
 30
0.0
 41
0.9998784952150989
 10
938.99535533560618
 20
-1346.3622386421484
 30
0.0
 41
1.0
 10
939.08000894528686
 20
-1346.2450574254403
 30
0.0
 41
0.9998532968284253
 10
939.16862656610863
 20
-1346.1308445169711
 30
0.0
 41
1.0
 10
939.18858835510105
 20
-1346.1051171959493
 30
0.0
 41
1.0
 10
939.20855014409358
 20
-1346.0793898749273
 30
0.0
 41
1.0
 10
939.32703419385189
 20
-1345.9266842639597
 30
0.0
 41
0.9991551975795396
 10
939.45765864347482
 20
-1345.7842247018768
 30
0.0
 41
1.0
 10
939.46116825945319
 20
-1345.780397100254
 30
0.0
 41
1.0
 10
939.46467787543156
 20
-1345.7765694986313
 30
0.0
 41
1.0
 10
939.58828309309649
 20
-1345.6417651397951
 30
0.0
 41
0.9997418144181018
 10
939.71788523279884
 20
-1345.5127157291809
 30
0.0
 41
1.0
 10
939.84748737249879
 20
-1345.3836663185689
 30
0.0
 41
0.9989238204633436
 10
939.98848992074886
 20
-1345.2671813565307
 30
0.0
 41
1.0
 10
940.03373759888882
 20
-1345.2298013649215
 30
0.0
 41
1.0
 10
940.07898527702889
 20
-1345.1924213733125
 30
0.0
 41
1.0
 10
940.21922533425129
 20
-1345.0765663200209
 30
0.0
 41
0.9990825084096853
 10
940.36886526685498
 20
-1344.973137322188
 30
0.0
 41
1.0
 10
940.37891063090854
 20
-1344.9661941091108
 30
0.0
 41
1.0
 10
940.38895599496209
 20
-1344.9592508960336
 30
0.0
 41
1.0
 10
940.51850519945401
 20
-1344.8697083243583
 30
0.0
 41
0.9998164899825488
 10
940.65138940283521
 20
-1344.7851940828386
 30
0.0
 41
1.0
 10
940.6632349633619
 20
-1344.7776603163124
 30
0.0
 41
1.0
 10
940.67508052388871
 20
-1344.7701265497863
 30
0.0
 41
1.0
 10
940.78427360621254
 20
-1344.7006798413217
 30
0.0
 41
0.9997473449130691
 10
940.89647756346085
 20
-1344.6362108835067
 30
0.0
 41
1.0
 10
941.00868152070916
 20
-1344.5717419256916
 30
0.0
 41
0.9999327861147479
 10
941.12235013146881
 20
-1344.5098919340123
 30
0.0
 41
1.0
 10
941.12290213403207
 20
-1344.5095915753318
 30
0.0
 41
1.0
 10
941.12345413659523
 20
-1344.5092912166513
 30
0.0
 41
1.0
 10
941.23822675247948
 20
-1344.4468405076118
 30
0.0
 41
0.9996956420483157
 10
941.35594007832071
 20
-1344.3901270406363
 30
0.0
 41
1.0
 10
941.38638048321218
 20
-1344.3754610639071
 30
0.0
 41
1.0
 10
941.41682088810353
 20
-1344.3607950871778
 30
0.0
 41
1.0
 10
941.51979799484729
 20
-1344.3111814287342
 30
0.0
 41
0.9998070570175864
 10
941.6246443837905
 20
-1344.2656508418322
 30
0.0
 41
1.0
 10
941.72949077273347
 20
-1344.2201202549306
 30
0.0
 41
0.9997827436147611
 10
941.83614370934311
 20
-1344.1789990836187
 30
0.0
 41
1.0
 10
941.85536655897363
 20
-1344.1715875099867
 30
0.0
 41
1.0
 10
941.87458940860415
 20
-1344.1641759363547
 30
0.0
 41
1.0
 10
942.01968804447756
 20
-1344.1082316177778
 30
0.0
 41
0.9988031841976367
 10
942.16955840708204
 20
-1344.0667315536102
 30
0.0
 41
1.0
 10
942.19447565544601
 20
-1344.0598318078032
 30
0.0
 41
1.0
 10
942.2193929038101
 20
-1344.052932061996
 30
0.0
 41
1.0
 10
942.38666292945641
 20
-1344.0066139195894
 30
0.0
 41
0.9984748040550027
 10
942.55801983810409
 20
-1343.9790196873248
 30
0.0
 41
1.0
 10
942.56275897435319
 20
-1343.9782565268115
 30
0.0
 41
1.0
 10
942.56749811060229
 20
-1343.9774933662979
 30
0.0
 41
1.0
 10
942.72937674675313
 20
-1343.95142545506
 30
0.0
 41
0.9984436495479933
 10
942.89315149047775
 20
-1343.9435475012413
 30
0.0
 41
1.0
 10
942.91484869860903
 20
-1343.9425038140416
 30
0.0
 41
1.0
 10
942.93654590674032
 20
-1343.941460126842
 30
0.0
 41
1.0
 10
943.05692623420236
 20
-1343.9356695474225
 30
0.0
 41
0.9987954789335233
 10
943.17729447911233
 20
-1343.9417060751648
 30
0.0
 41
1.0
 10
943.19725927160812
 20
-1343.9427073195034
 30
0.0
 41
1.0
 10
943.21722406410402
 20
-1343.9437085638422
 30
0.0
 41
1.0
 10
943.29766272402367
 20
-1343.9477426029073
 30
0.0
 41
0.9997941595877502
 10
943.37787150211659
 20
-1343.9550366688281
 30
0.0
 41
1.0
 10
943.45808028021463
 20
-1343.9623307347497
 30
0.0
 41
0.9998589466236496
 10
943.53799882707324
 20
-1343.9723145892003
 30
0.0
 41
1.0
 10
943.57040502887787
 20
-1343.976362946119
 30
0.0
 41
1.0
 10
943.60281123068251
 20
-1343.9804113030377
 30
0.0
 41
1.0
 10
943.74754218115311
 20
-1343.998491871326
 30
0.0
 41
0.999349506324908
 10
943.89059342491794
 20
-1344.0269575810676
 30
0.0
 41
1.0
 10
943.92352712207162
 20
-1344.0335110442827
 30
0.0
 41
1.0
 10
943.95646081922541
 20
-1344.0400645074978
 30
0.0
 41
1.0
 10
944.0657546424286
 20
-1344.0618128416329
 30
0.0
 41
0.9996788715561211
 10
944.17380621438463
 20
-1344.0890706409959
 30
0.0
 41
1.0
 10
944.17586921692418
 20
-1344.089591067569
 30
0.0
 41
1.0
 10
944.17793221946386
 20
-1344.0901114941421
 30
0.0
 41
1.0
 10
944.28185778634179
 20
-1344.1163284403592
 30
0.0
 41
0.9995480654492639
 10
944.38402002157045
 20
-1344.1487433969833
 30
0.0
 41
1.0
 10
944.38570966369957
 20
-1344.1492795018971
 30
0.0
 41
1.0
 10
944.38739930582858
 20
-1344.1498156068112
 30
0.0
 41
1.0
 10
944.48618225679979
 20
-1344.1811583536078
 30
0.0
 41
0.9993867959456058
 10
944.58252941524245
 20
-1344.2193377228975
 30
0.0
 41
1.0
 10
944.58377236432659
 20
-1344.2198302647935
 30
0.0
 41
1.0
 10
944.58501531341074
 20
-1344.2203228066894
 30
0.0
 41
1.0
 10
944.67887657368453
 20
-1344.2575170921871
 30
0.0
 41
0.9992050256521701
 10
944.76947624871832
 20
-1344.302070991426
 30
0.0
 41
1.0
 10
944.77021093143173
 20
-1344.3024322838874
 30
0.0
 41
1.0
 10
944.77094561414515
 20
-1344.3027935763487
 30
0.0
 41
1.0
 10
944.86007592375256
 20
-1344.3466248906652
 30
0.0
 41
0.9990222350741896
 10
944.94498598514542
 20
-1344.398158158363
 30
0.0
 41
1.0
 10
944.94516987042812
 20
-1344.3982697612678
 30
0.0
 41
1.0
 10
944.9453537557107
 20
-1344.3983813641726
 30
0.0
 41
1.0
 10
945.02989604653862
 20
-1344.449691426061
 30
0.0
 41
0.9988642743805378
 10
945.10917058115797
 20
-1344.5088156135866
 30
0.0
 41
1.0
 10
945.18844511577777
 20
-1344.5679398011125
 30
0.0
 41
0.9987681233310948
 10
945.26146890005373
 20
-1344.6346304925132
 30
0.0
 41
1.0
 10
945.26179782801933
 20
-1344.6349308937272
 30
0.0
 41
1.0
 10
945.26212675598481
 20
-1344.6352312949411
 30
0.0
 41
1.0
 10
945.33580839619253
 20
-1344.7025227887702
 30
0.0
 41
0.9987496570898327
 10
945.40240220151964
 20
-1344.7768356028569
 30
0.0
 41
1.0
 10
945.4031743712801
 20
-1344.7776972762149
 30
0.0
 41
1.0
 10
945.40394654104057
 20
-1344.7785589495727
 30
0.0
 41
1.0
 10
945.47208468588769
 20
-1344.8545951103738
 30
0.0
 41
0.9988147669826568
 10
945.53250694011274
 20
-1344.9368961172163
 30
0.0
 41
1.0
 10
945.53362626619094
 20
-1344.9384207485696
 30
0.0
 41
1.0
 10
945.53474559226913
 20
-1344.9399453799226
 30
0.0
 41
1.0
 10
945.59740649865012
 20
-1345.0252956494712
 30
0.0
 41
0.9989452636216534
 10
945.65197341161115
 20
-1345.1160343386284
 30
0.0
 41
1.0
 10
945.6533221376967
 20
-1345.1182771196545
 30
0.0
 41
1.0
 10
945.65467086378226
 20
-1345.1205199006804
 30
0.0
 41
1.0
 10
945.71193522891508
 20
-1345.2157441518905
 30
0.0
 41
0.9991046436070149
 10
945.76094444223668
 20
-1345.3154685849161
 30
0.0
 41
1.0
 10
945.76240830382665
 20
-1345.3184472649887
 30
0.0
 41
1.0
 10
945.76387216541661
 20
-1345.321425945061
 30
0.0
 41
1.0
 10
945.81580910191849
 20
-1345.4271077382316
 30
0.0
 41
0.9992763831100686
 10
945.85956223047356
 20
-1345.5364318001875
 30
0.0
 41
1.0
 10
945.86104150013682
 20
-1345.540127987721
 30
0.0
 41
1.0
 10
945.86252076980008
 20
-1345.5438241752545
 30
0.0
 41
1.0
 10
945.90923243768202
 20
-1345.6605406122781
 30
0.0
 41
0.9994163472883417
 10
945.94786546887065
 20
-1345.7801742007389
 30
0.0
 41
1.0
 10
945.94910362111762
 20
-1345.7840083445224
 30
0.0
 41
1.0
 10
945.95034177336458
 20
-1345.7878424883058
 30
0.0
 41
1.0
 10
945.99022533438279
 20
-1345.9113485497871
 30
0.0
 41
0.9997268055890305
 10
946.02429339029436
 20
-1346.0365835817363
 30
0.0
 41
1.0
 10
946.02522357056341
 20
-1346.040002947843
 30
0.0
 41
1.0
 10
946.02615375083235
 20
-1346.0434223139498
 30
0.0
 41
1.0
 10
946.05836144620537
 20
-1346.1618186136823
 30
0.0
 41
0.9996701318999964
 10
946.08444706297678
 20
-1346.2817125669503
 30
0.0
 41
1.0
 10
946.11053267974671
 20
-1346.40160652021
 30
0.0
 41
0.9995785451109173
 10
946.12961625708647
 20
-1346.5228122812418
 30
0.0
 41
1.0
 10
946.13383603926059
 20
-1346.5496134360089
 30
0.0
 41
1.0
 10
946.13805582143459
 20
-1346.576414590776
 30
0.0
 41
1.0
 10
946.16463079737298
 20
-1346.7452005644782
 30
0.0
 41
0.9979925101216898
 10
946.16965638329941
 20
-1346.9159918925702
 30
0.0
 41
1.0
 10
946.17048119572405
 20
-1346.9440226160468
 30
0.0
 41
1.0
 10
946.17130600814858
 20
-1346.9720533395234
 30
0.0
 41
1.0
 10
946.17468196922607
 20
-1347.0867832206548
 30
0.0
 41
0.9995314902262715
 10
946.17103177708725
 20
-1347.2015047044138
 30
0.0
 41
1.0
 10
946.16738158494911
 20
-1347.3162261881623
 30
0.0
 41
0.9996245486943958
 10
946.15745248981807
 20
-1347.4305754592879
 30
0.0
 41
1.0
 10
946.15728944182376
 20
-1347.4324532154242
 30
0.0
 41
1.0
 10
946.15712639382946
 20
-1347.4343309715603
 30
0.0
 41
1.0
 10
946.14687120270935
 20
-1347.5524357549598
 30
0.0
 41
0.9997286095001247
 10
946.13112587913804
 20
-1347.6699346638538
 30
0.0
 41
1.0
 10
946.13073238648803
 20
-1347.6728710885536
 30
0.0
 41
1.0
 10
946.13033889383792
 20
-1347.6758075132532
 30
0.0
 41
1.0
 10
946.1138065849666
 20
-1347.7991792715475
 30
0.0
 41
0.9998265533969509
 10
946.09269112623451
 20
-1347.9218497463316
 30
0.0
 41
1.0
 10
946.09201458409666
 20
-1347.9257801248434
 30
0.0
 41
1.0
 10
946.09133804195881
 20
-1347.9297105033552
 30
0.0
 41
1.0
 10
946.06886949895124
 20
-1348.060241735162
 30
0.0
 41
0.9999022530854566
 10
946.04276003434097
 20
-1348.1900937038019
 30
0.0
 41
1.0
 10
946.04178139317605
 20
-1348.1949608461869
 30
0.0
 41
1.0
 10
946.04080275201125
 20
-1348.1998279885715
 30
0.0
 41
1.0
 10
946.01273600506909
 20
-1348.339414241992
 30
0.0
 41
0.9999524761934924
 10
945.98195303623277
 20
-1348.4784267351627
 30
0.0
 41
1.0
 10
945.98067692905875
 20
-1348.4841894944584
 30
0.0
 41
1.0
 10
945.97940082188484
 20
-1348.4899522537539
 30
0.0
 41
1.0
 10
945.9460656386982
 20
-1348.6404902655274
 30
0.0
 41
0.9999813588737747
 10
945.91089463790081
 20
-1348.7906099781899
 30
0.0
 41
1.0
 10
945.90934071244556
 20
-1348.7972425686069
 30
0.0
 41
1.0
 10
945.9077867869903
 20
-1348.8038751590238
 30
0.0
 41
1.0
 10
945.86950793528536
 20
-1348.9672600525073
 30
0.0
 41
0.9999955237628675
 10
945.83025205729962
 20
-1349.1304129561363
 30
0.0
 41
1.0
 10
945.8179704216659
 20
-1349.1814571466566
 30
0.0
 41
1.0
 10
945.80568878603208
 20
-1349.2325013371772
 30
0.0
 41
1.0
 10
945.74186963677914
 20
-1349.4977426218452
 30
0.0
 41
0.9999993604332911
 10
945.67745068963188
 20
-1349.7628388724434
 30
0.0
 41
1.0
 10
945.67273185407635
 20
-1349.7822577805189
 30
0.0
 41
1.0
 10
945.66801301852081
 20
-1349.8016766885944
 30
0.0
 41
1.0
 10
945.594156400261
 20
-1350.1056107553518
 30
0.0
 41
0.999965991472191
 10
945.51529680437613
 20
-1350.4082853019086
 30
0.0
 41
1.0
 10
945.51034411544492
 20
-1350.4272944390932
 30
0.0
 41
1.0
 10
945.50539142651382
 20
-1350.4463035762776
 30
0.0
 41
1.0
 10
945.4166264527704
 20
-1350.7869963971896
 30
0.0
 41
0.9999441976024506
 10
945.32068341980812
 20
-1351.1257378224846
 30
0.0
 41
1.0
 10
945.303982901381
 20
-1351.1847015350179
 30
0.0
 41
1.0
 10
945.28728238295389
 20
-1351.2436652475512
 30
0.0
 41
1.0
 10
945.15793831313897
 20
-1351.7003340979063
 30
0.0
 41
0.9999625120735777
 10
945.02070554581542
 20
-1352.1546946319029
 30
0.0
 41
1.0
 10
944.98491560273226
 20
-1352.2731906585304
 30
0.0
 41
1.0
 10
944.9491256596491
 20
-1352.391686685158
 30
0.0
 41
1.0
 10
944.87460545560907
 20
-1352.6384137632572
 30
0.0
 41
0.9999793386305091
 10
944.79691943247121
 20
-1352.8841624024938
 30
0.0
 41
1.0
 10
944.7192334093337
 20
-1353.1299110417299
 30
0.0
 41
1.0
 10
944.708453850463
 20
-1353.1639289461045
 30
0.0
 41
1.0
 10
942.85808079719391
 20
-1359.0510008685719
 30
0.0
 41
1.0
 10
941.0077077439247
 20
-1364.9380727910395
 30
0.0
 41
1.0
 10
940.04645105390114
 20
-1364.9380727910395
 30
0.0
 41
1.0
 10
939.08519436387758
 20
-1364.9380727910395
 30
0.0
 41
1.0
 10
940.70413914255596
 20
-1359.7900442892501
 30
0.0
 41
1.0
 10
942.32308392123446
 20
-1354.6420157874607
 30
0.0
 41
1.0
 10
942.36824974440469
 20
-1354.497984565204
 30
0.0
 41
1.0
 10
942.41341556757482
 20
-1354.3539533429473
 30
0.0
 41
1.0
 10
942.58371998493863
 20
-1353.8108623137816
 30
0.0
 41
0.999991165788255
 10
942.74945279662597
 20
-1353.2663587823947
 30
0.0
 41
1.0
 10
942.77914874012708
 20
-1353.1687948423421
 30
0.0
 41
1.0
 10
942.80884468362819
 20
-1353.0712309022895
 30
0.0
 41
1.0
 10
942.91518560830661
 20
-1352.7218552510299
 30
0.0
 41
0.9999952428160223
 10
943.01936919763125
 20
-1352.3718302266816
 30
0.0
 41
1.0
 10
943.02442866796468
 20
-1352.3548319524029
 30
0.0
 41
1.0
 10
943.02948813829823
 20
-1352.3378336781243
 30
0.0
 41
1.0
 10
943.12355278695372
 20
-1352.0218052023399
 30
0.0
 41
0.9999931687505125
 10
943.21527862482981
 20
-1351.7050899890614
 30
0.0
 41
1.0
 10
943.22021388928897
 20
-1351.6880492797914
 30
0.0
 41
1.0
 10
943.22514915374825
 20
-1351.6710085705213
 30
0.0
 41
1.0
 10
943.30700446270384
 20
-1351.3883747757895
 30
0.0
 41
0.9999893840823655
 10
943.3862516891603
 20
-1351.1049986465443
 30
0.0
 41
1.0
 10
943.4654989156154
 20
-1350.8216225173046
 30
0.0
 41
0.9999833980059574
 10
943.54147515635339
 20
-1350.5373519342897
 30
0.0
 41
1.0
 10
943.55047909307973
 20
-1350.5036630557961
 30
0.0
 41
1.0
 10
943.55948302980607
 20
-1350.4699741773027
 30
0.0
 41
1.0
 10
943.62844757867151
 20
-1350.2119383450099
 30
0.0
 41
0.9999233658066331
 10
943.69100254989064
 20
-1349.9522741862913
 30
0.0
 41
1.0
 10
943.75355752111091
 20
-1349.6926100275689
 30
0.0
 41
1.0
 10
943.79304093996848
 20
-1349.5288033631427
 30
0.0
 41
1.0
 10
943.79801954394748
 20
-1349.5081484012653
 30
0.0
 41
1.0
 10
943.80299814792636
 20
-1349.4874934393879
 30
0.0
 41
1.0
 10
943.83252435882855
 20
-1349.3649966987068
 30
0.0
 41
0.9999868670869415
 10
943.86079344282223
 20
-1349.2422037530712
 30
0.0
 41
1.0
 10
943.86469092998141
 20
-1349.225274165648
 30
0.0
 41
1.0
 10
943.86858841714059
 20
-1349.2083445782248
 30
0.0
 41
1.0
 10
943.88906252682125
 20
-1349.1194108074139
 30
0.0
 41
0.9999778173351102
 10
943.9083501249338
 20
-1349.0302121901952
 30
0.0
 41
1.0
 10
943.92763772305125
 20
-1348.9410135729549
 30
0.0
 41
0.9999602692864088
 10
943.94533208168252
 20
-1348.8514852845262
 30
0.0
 41
1.0
 10
943.94853591375886
 20
-1348.8352748296466
 30
0.0
 41
1.0
 10
943.95173974583531
 20
-1348.8190643747671
 30
0.0
 41
1.0
 10
943.9758417686221
 20
-1348.6971151765647
 30
0.0
 41
0.9995617985320554
 10
943.9926851158408
 20
-1348.573953428858
 30
0.0
 41
1.0
 10
943.99514960574652
 20
-1348.5559326114958
 30
0.0
 41
1.0
 10
943.99761409565224
 20
-1348.5379117941338
 30
0.0
 41
1.0
 10
944.0178973567007
 20
-1348.3895967444309
 30
0.0
 41
0.9991121410639861
 10
944.0256227102891
 20
-1348.2401006456248
 30
0.0
 41
1.0
 10
944.02654150031367
 20
-1348.2223208090484
 30
0.0
 41
1.0
 10
944.02746029033824
 20
-1348.2045409724719
 30
0.0
 41
1.0
 10
944.03334806387738
 20
-1348.0906045468182
 30
0.0
 41
0.9989792494905241
 10
944.02892897176002
 20
-1347.97660171092
 30
0.0
 41
1.0
 10
944.02828099989131
 20
-1347.9598854649921
 30
0.0
 41
1.0
 10
944.02763302802259
 20
-1347.9431692190642
 30
0.0
 41
1.0
 10
944.02450987964266
 20
-1347.8625988750209
 30
0.0
 41
0.9997820295393856
 10
944.01802588226701
 20
-1347.7822291532777
 30
0.0
 41
1.0
 10
944.01154188489136
 20
-1347.7018594315339
 30
0.0
 41
0.9998335105973902
 10
944.00212968937967
 20
-1347.6217798150842
 30
0.0
 41
1.0
 10
944.00053476470327
 20
-1347.6082100846008
 30
0.0
 41
1.0
 10
943.99893984002688
 20
-1347.5946403541175
 30
0.0
 41
1.0
 10
943.98633779516285
 20
-1347.487421276704
 30
0.0
 41
0.9996876457879258
 10
943.96839388236424
 20
-1347.3809658489861
 30
0.0
 41
1.0
 10
943.96616221921897
 20
-1347.3677261137443
 30
0.0
 41
1.0
 10
943.96393055607371
 20
-1347.3544863785025
 30
0.0
 41
1.0
 10
943.95013473465224
 20
-1347.2726402345418
 30
0.0
 41
0.9995547496494763
 10
943.93148141275992
 20
-1347.1917627373523
 30
0.0
 41
1.0
 10
943.93110745588865
 20
-1347.1901413266467
 30
0.0
 41
1.0
 10
943.93073349901726
 20
-1347.188519915941
 30
0.0
 41
1.0
 10
943.91282809086772
 20
-1347.1108852401628
 30
0.0
 41
0.9994899427175575
 10
943.89000318218791
 20
-1347.0345519573266
 30
0.0
 41
1.0
 10
943.88954465544703
 20
-1347.0330185075372
 30
0.0
 41
1.0
 10
943.88908612870603
 20
-1347.0314850577481
 30
0.0
 41
1.0
 10
943.8671782735089
 20
-1346.9582186744935
 30
0.0
 41
0.9993784877591198
 10
943.84016263840203
 20
-1346.8866779693333
 30
0.0
 41
1.0
 10
943.83963094742512
 20
-1346.8852699866127
 30
0.0
 41
1.0
 10
943.83909925644821
 20
-1346.8838620038921
 30
0.0
 41
1.0
 10
943.81314700329528
 20
-1346.8151372641737
 30
0.0
 41
0.9992430832254525
 10
943.78193046813612
 20
-1346.7486381121059
 30
0.0
 41
1.0
 10
943.7813483520797
 20
-1346.7473980569889
 30
0.0
 41
1.0
 10
943.78076623602328
 20
-1346.7461580018721
 30
0.0
 41
1.0
 10
943.75071393297708
 20
-1346.6821389600382
 30
0.0
 41
0.9990789632797902
 10
943.71528330620004
 20
-1346.6209323482881
 30
0.0
 41
1.0
 10
943.7146876000179
 20
-1346.6199032624286
 30
0.0
 41
1.0
 10
943.71409189383576
 20
-1346.6188741765693
 30
0.0
 41
1.0
 10
943.67985267942322
 20
-1346.559725736538
 30
0.0
 41
0.9988874801119577
 10
943.64019340339132
 20
-1346.5040660241207
 30
0.0
 41
1.0
 10
943.63963787732678
 20
-1346.5032863724455
 30
0.0
 41
1.0
 10
943.63908235126223
 20
-1346.5025067207705
 30
0.0
 41
1.0
 10
943.60053412735874
 20
-1346.448406311702
 30
0.0
 41
0.9986762060692644
 10
943.55663165608303
 20
-1346.3985525972635
 30
0.0
 41
1.0
 10
943.55618769575119
 20
-1346.3980484554472
 30
0.0
 41
1.0
 10
943.55574373541936
 20
-1346.397544313631
 30
0.0
 41
1.0
 10
943.5127291848072
 20
-1346.3486988828249
 30
0.0
 41
0.9984621642489411
 10
943.46457162802903
 20
-1346.3049155823533
 30
0.0
 41
1.0
 10
943.46432499351238
 20
-1346.3046913501898
 30
0.0
 41
1.0
 10
943.46407835899572
 20
-1346.3044671180262
 30
0.0
 41
1.0
 10
943.41641407125121
 20
-1346.2611322818821
 30
0.0
 41
0.9982724693850277
 10
943.36399543940979
 20
-1346.2236879313646
 30
0.0
 41
1.0
 10
943.31157680756803
 20
-1346.1862435808464
 30
0.0
 41
0.9981399180157394
 10
943.25499074417451
 20
-1346.155457061403
 30
0.0
 41
1.0
 10
943.25494508209636
 20
-1346.155432218246
 30
0.0
 41
1.0
 10
943.25489942001809
 20
-1346.155407375089
 30
0.0
 41
1.0
 10
943.19822203246781
 20
-1346.1245711693311
 30
0.0
 41
0.9980927086836943
 10
943.13817668140155
 20
-1346.1009543604787
 30
0.0
 41
1.0
 10
943.13773651168981
 20
-1346.1007812346038
 30
0.0
 41
1.0
 10
943.13729634197807
 20
-1346.1006081087287
 30
0.0
 41
1.0
 10
943.07637065148754
 20
-1346.076645048126
 30
0.0
 41
0.9981411356561379
 10
943.01298213008727
 20
-1346.0602724066202
 30
0.0
 41
1.0
 10
943.01210001338666
 20
-1346.060044564415
 30
0.0
 41
1.0
 10
943.01121789668605
 20
-1346.0598167222097
 30
0.0
 41
1.0
 10
942.94606514188501
 20
-1346.0429883962934
 30
0.0
 41
0.9983031812935299
 10
942.87939771289132
 20
-1346.0338490351173
 30
0.0
 41
1.0
 10
942.87052668748538
 20
-1346.0326329164457
 30
0.0
 41
1.0
 10
942.86165566207933
 20
-1346.031416797774
 30
0.0
 41
1.0
 10
942.80730601957623
 20
-1346.023966067783
 30
0.0
 41
0.9983887708263414
 10
942.75246217028428
 20
-1346.0227213941498
 30
0.0
 41
1.0
 10
942.74439876506869
 20
-1346.022538396275
 30
0.0
 41
1.0
 10
942.73633535985311
 20
-1346.0223553984001
 30
0.0
 41
1.0
 10
942.69761832099346
 20
-1346.0214767205166
 30
0.0
 41
0.9998869563078761
 10
942.65889236778878
 20
-1346.0217625898763
 30
0.0
 41
1.0
 10
942.62016641458081
 20
-1346.022048459236
 30
0.0
 41
0.9999972320124223
 10
942.58144223536431
 20
-1346.0225165587651
 30
0.0
 41
1.0
 10
942.56208921878988
 20
-1346.0227504988543
 30
0.0
 41
1.0
 10
942.54273620221534
 20
-1346.0229844389437
 30
0.0
 41
1.0
 10
942.46530598984828
 20
-1346.0239204186516
 30
0.0
 41
0.99973049450882
 10
942.38800268361433
 20
-1346.0284495124374
 30
0.0
 41
1.0
 10
942.37895304190647
 20
-1346.0289797184275
 30
0.0
 41
1.0
 10
942.3699034001985
 20
-1346.0295099244177
 30
0.0
 41
1.0
 10
942.27450081055349
 20
-1346.0350994301834
 30
0.0
 41
0.9997888306415969
 10
942.1794084747122
 20
-1346.0446043946722
 30
0.0
 41
1.0
 10
942.17068741313824
 20
-1346.0454761093044
 30
0.0
 41
1.0
 10
942.16196635156427
 20
-1346.0463478239367
 30
0.0
 41
1.0
 10
942.04943189257574
 20
-1346.0575962176902
 30
0.0
 41
0.9984170238191028
 10
941.93887274522422
 20
-1346.081412299626
 30
0.0
 41
1.0
 10
941.90249161423799
 20
-1346.0892493354322
 30
0.0
 41
1.0
 10
941.86611048325176
 20
-1346.0970863712382
 30
0.0
 41
1.0
 10
941.75091941483049
 20
-1346.1219002377477
 30
0.0
 41
0.9976592854199005
 10
941.64019124842548
 20
-1346.1621989148948
 30
0.0
 41
1.0
 10
941.52946308202092
 20
-1346.2024975920419
 30
0.0
 41
0.9993255074352395
 10
941.42199128323045
 20
-1346.2508144905341
 30
0.0
 41
1.0
 10
941.41736610430678
 20
-1346.252893866734
 30
0.0
 41
1.0
 10
941.4127409253831
 20
-1346.2549732429338
 30
0.0
 41
1.0
 10
941.29601876874676
 20
-1346.3074488938255
 30
0.0
 41
0.9976475078275494
 10
941.18757142443644
 20
-1346.3753968834837
 30
0.0
 41
1.0
 10
941.16922903030184
 20
-1346.386889362298
 30
0.0
 41
1.0
 10
941.15088663616723
 20
-1346.3983818411125
 30
0.0
 41
1.0
 10
941.06668444461513
 20
-1346.4511389618808
 30
0.0
 41
0.9995131336407198
 10
940.98593672965615
 20
-1346.5090451738349
 30
0.0
 41
1.0
 10
940.9051890147008
 20
-1346.5669513857868
 30
0.0
 41
0.9995810107606381
 10
940.82792736697183
 20
-1346.6294330682526
 30
0.0
 41
1.0
 10
940.82495733576081
 20
-1346.6318349397179
 30
0.0
 41
1.0
 10
940.82198730454979
 20
-1346.6342368111832
 30
0.0
 41
1.0
 10
940.73878559439936
 20
-1346.7015222365794
 30
0.0
 41
0.9996617837954935
 10
940.65919490726219
 20
-1346.773042692141
 30
0.0
 41
1.0
 10
940.64706415638625
 20
-1346.7839434251307
 30
0.0
 41
1.0
 10
940.63493340551031
 20
-1346.7948441581204
 30
0.0
 41
1.0
 10
940.56665787811323
 20
-1346.8561967735932
 30
0.0
 41
0.9997267750052307
 10
940.5013243698304
 20
-1346.9206733101178
 30
0.0
 41
1.0
 10
940.43599086154472
 20
-1346.9851498466451
 30
0.0
 41
0.9999667288956335
 10
940.37171791838898
 20
-1347.0506836535487
 30
0.0
 41
1.0
 10
940.30289047061933
 20
-1347.1208613123015
 30
0.0
 41
1.0
 10
940.2340630228498
 20
-1347.1910389710542
 30
0.0
 41
1.0
 10
940.03213518415043
 20
-1347.3969280954675
 30
0.0
 41
0.9988205335174498
 10
939.85112956717023
 20
-1347.6214323275296
 30
0.0
 41
1.0
 10
939.82048960226712
 20
-1347.6594355779575
 30
0.0
 41
1.0
 10
939.78984963736411
 20
-1347.6974388283854
 30
0.0
 41
1.0
 10
939.54756409057325
 20
-1347.9979495613081
 30
0.0
 41
0.9997077826755066
 10
939.32008613946664
 20
-1348.3098193555268
 30
0.0
 41
1.0
 10
939.31836272433782
 20
-1348.3121821389041
 30
0.0
 41
1.0
 10
939.31663930920899
 20
-1348.3145449222814
 30
0.0
 41
1.0
 10
939.08571452784224
 20
-1348.6311402832575
 30
0.0
 41
0.9989147567078731
 10
938.88525102495805
 20
-1348.9678497444438
 30
0.0
 41
1.0
 10
938.86050987965314
 20
-1349.0094063249928
 30
0.0
 41
1.0
 10
938.83576873434811
 20
-1349.0509629055418
 30
0.0
 41
1.0
 10
938.68055743570801
 20
-1349.3116642899995
 30
0.0
 41
0.9997476598181834
 10
938.53721244819849
 20
-1349.5790740385817
 30
0.0
 41
1.0
 10
938.39386746068885
 20
-1349.8464837871641
 30
0.0
 41
0.9996258967109621
 10
938.26535920875722
 20
-1350.1213317237882
 30
0.0
 41
1.0
 10
938.25215929930528
 20
-1350.1495631238886
 30
0.0
 41
1.0
 10
938.23895938985345
 20
-1350.1777945239887
 30
0.0
 41
1.0
 10
938.09875066885752
 20
-1350.4776669219336
 30
0.0
 41
0.9998735413946722
 10
937.96814932213738
 20
-1350.7818465214004
 30
0.0
 41
1.0
 10
937.96470649407797
 20
-1350.7898651068626
 30
0.0
 41
1.0
 10
937.96126366601868
 20
-1350.7978836923246
 30
0.0
 41
1.0
 10
937.83754797541678
 20
-1351.0860261208686
 30
0.0
 41
0.9999377418858403
 10
937.72029317324223
 20
-1351.3768575885433
 30
0.0
 41
1.0
 10
937.60303837106585
 20
-1351.6676890562221
 30
0.0
 41
0.9999508299510196
 10
937.49157442768887
 20
-1351.9607887330428
 30
0.0
 41
1.0
 10
937.48849365902686
 20
-1351.9688897590054
 30
0.0
 41
1.0
 10
937.48541289036484
 20
-1351.9769907849682
 30
0.0
 41
1.0
 10
937.3677874096627
 20
-1352.2862925137165
 30
0.0
 41
0.999960922843368
 10
937.2556488067878
 20
-1352.5976255297346
 30
0.0
 41
1.0
 10
937.25269279643851
 20
-1352.6058323701432
 30
0.0
 41
1.0
 10
937.24973678608922
 20
-1352.6140392105517
 30
0.0
 41
1.0
 10
937.13168616252074
 20
-1352.9417859073733
 30
0.0
 41
0.9999674607398844
 10
937.01893863645125
 20
-1353.2713945273713
 30
0.0
 41
1.0
 10
936.96754024588631
 20
-1353.4216537230704
 30
0.0
 41
1.0
 10
936.91614185532126
 20
-1353.5719129187698
 30
0.0
 41
1.0
 10
936.80013124856396
 20
-1353.911060901271
 30
0.0
 41
0.9999287532305496
 10
936.69224984459424
 20
-1354.2528816402441
 30
0.0
 41
1.0
 10
936.64577258847737
 20
-1354.4001441845444
 30
0.0
 41
1.0
 10
936.5992953323605
 20
-1354.5474067288449
 30
0.0
 41
1.0
 10
936.58436844063885
 20
-1354.5947023791714
 30
0.0
 41
0.9999998222956358
 10
936.56949793189301
 20
-1354.6420157874607
 30
0.0
 41
1.0
 10
934.94884179509756
 20
-1359.7900442892501
 30
0.0
 41
1.0
 10
933.32818565830212
 20
-1364.9380727910395
 30
0.0
 41
1.0
 10
932.42287721441119
 20
-1364.9380727910395
 30
0.0
 41
1.0
 10
931.51756877052026
 20
-1364.9380727910395
 30
0.0
 41
1.0
 10
933.3696531819063
 20
-1359.0510008685719
 30
0.0
 41
1.0
 10
935.22173759329235
 20
-1353.1639289461045
 30
0.0
 41
1.0
 10
935.23185935159506
 20
-1353.1318857326548
 30
0.0
 41
1.0
 10
935.3044670204448
 20
-1352.901586190829
 30
0.0
 41
1.0
 10
935.37707468928966
 20
-1352.6712866490188
 30
0.0
 41
0.9999825681973007
 10
935.44695772850241
 20
-1352.4401457539502
 30
0.0
 41
1.0
 10
935.49524879066519
 20
-1352.2804211704477
 30
0.0
 41
1.0
 10
935.54353985282796
 20
-1352.1206965869451
 30
0.0
 41
1.0
 10
935.64069220614408
 20
-1351.7993613651734
 30
0.0
 41
0.9999672528959805
 10
935.7326310117669
 20
-1351.4764958195883
 30
0.0
 41
1.0
 10
935.73541989543469
 20
-1351.4667019742051
 30
0.0
 41
1.0
 10
935.73820877910248
 20
-1351.4569081288221
 30
0.0
 41
1.0
 10
935.82456981738926
 20
-1351.1536302740058
 30
0.0
 41
0.9999899749175409
 10
935.90821142692494
 20
-1350.8495911855493
 30
0.0
 41
1.0
 10
935.91831734594075
 20
-1350.8128559478773
 30
0.0
 41
1.0
 10
935.92842326495656
 20
-1350.7761207102053
 30
0.0
 41
1.0
 10
935.99185303645743
 20
-1350.5455520971054
 30
0.0
 41
0.9999214200502784
 10
936.04948246483741
 20
-1350.3134657548876
 30
0.0
 41
1.0
 10
936.06224831702173
 20
-1350.2620548694763
 30
0.0
 41
1.0
 10
936.07501416920604
 20
-1350.2106439840647
 30
0.0
 41
1.0
 10
936.10711189322069
 20
-1350.0813794126557
 30
0.0
 41
0.9999828681658809
 10
936.1376941452105
 20
-1349.9517479382109
 30
0.0
 41
1.0
 10
936.16827639720566
 20
-1349.8221164637453
 30
0.0
 41
0.9999389844479769
 10
936.1959873859945
 20
-1349.6918410078467
 30
0.0
 41
1.0
 10
936.20312512971509
 20
-1349.6582849040078
 30
0.0
 41
1.0
 10
936.21026287343557
 20
-1349.6247288001687
 30
0.0
 41
1.0
 10
936.25224934966468
 20
-1349.4273411365959
 30
0.0
 41
0.9998933699440634
 10
936.28845361406809
 20
-1349.2288115288318
 30
0.0
 41
1.0
 10
936.28982643928407
 20
-1349.2212835081368
 30
0.0
 41
1.0
 10
936.29119926450016
 20
-1349.2137554874419
 30
0.0
 41
1.0
 10
936.33014917933497
 20
-1349.000169838291
 30
0.0
 41
0.9996850305193886
 10
936.35833285559352
 20
-1348.7848988328556
 30
0.0
 41
1.0
 10
936.36032788896273
 20
-1348.7696604787347
 30
0.0
 41
1.0
 10
936.36232292233183
 20
-1348.7544221246142
 30
0.0
 41
1.0
 10
936.38973078479091
 20
-1348.5450768974588
 30
0.0
 41
0.9994697936707095
 10
936.40345534401104
 20
-1348.3343917021243
 30
0.0
 41
1.0
 10
936.40393241326069
 20
-1348.3270682299139
 30
0.0
 41
1.0
 10
936.40440948251035
 20
-1348.3197447577038
 30
0.0
 41
1.0
 10
936.4171799032307
 20
-1348.1237065067944
 30
0.0
 41
0.9991804893136803
 10
936.41405158695784
 20
-1347.92727765682
 30
0.0
 41
1.0
 10
936.41396770813571
 20
-1347.9220108554073
 30
0.0
 41
1.0
 10
936.41388382931359
 20
-1347.9167440539943
 30
0.0
 41
1.0
 10
936.41092327068509
 20
-1347.7308488068463
 30
0.0
 41
0.9988448329321524
 10
936.39013172506134
 20
-1347.5460962170132
 30
0.0
 41
1.0
 10
936.38853765135832
 20
-1347.531931361242
 30
0.0
 41
1.0
 10
936.3869435776553
 20
-1347.5177665054707
 30
0.0
 41
1.0
 10
936.36934017943759
 20
-1347.3613436271798
 30
0.0
 41
0.9985503209458704
 10
936.33502390713807
 20
-1347.2077194430906
 30
0.0
 41
1.0
 10
936.32743791506732
 20
-1347.1737591156921
 30
0.0
 41
1.0
 10
936.31985192299646
 20
-1347.1397987882938
 30
0.0
 41
1.0
 10
936.30070763483911
 20
-1347.0540952590043
 30
0.0
 41
0.999103678137127
 10
936.2743827731872
 20
-1346.9703181716764
 30
0.0
 41
1.0
 10
936.27040054773101
 20
-1346.9576450091652
 30
0.0
 41
1.0
 10
936.26641832227483
 20
-1346.944971846654
 30
0.0
 41
1.0
 10
936.24805791153585
 20
-1346.8865410843507
 30
0.0
 41
0.9998874504367591
 10
936.22795270385768
 20
-1346.8286874821281
 30
0.0
 41
1.0
 10
936.2078474961794
 20
-1346.770833879905
 30
0.0
 41
0.9994041637543277
 10
936.18379888324512
 20
-1346.7145051760156
 30
0.0
 41
1.0
 10
936.17960209902094
 20
-1346.7046751115331
 30
0.0
 41
1.0
 10
936.17540531479665
 20
-1346.6948450470506
 30
0.0
 41
1.0
 10
936.14752648380227
 20
-1346.6295448810838
 30
0.0
 41
0.999184684070209
 10
936.11447012710926
 20
-1346.5667068498037
 30
0.0
 41
1.0
 10
936.11333352071415
 20
-1346.5645462333491
 30
0.0
 41
1.0
 10
936.11219691431916
 20
-1346.5623856168943
 30
0.0
 41
1.0
 10
936.08141377041625
 20
-1346.5038688185234
 30
0.0
 41
0.9989253167921961
 10
936.04534434636116
 20
-1346.4484538901334
 30
0.0
 41
1.0
 10
936.04429022168654
 20
-1346.4468343953704
 30
0.0
 41
1.0
 10
936.04323609701191
 20
-1346.4452149006077
 30
0.0
 41
1.0
 10
936.00927492230596
 20
-1346.3930389617426
 30
0.0
 41
0.9986467172835135
 10
935.97007776966893
 20
-1346.3446729281136
 30
0.0
 41
1.0
 10
935.96920364096763
 20
-1346.3435943258346
 30
0.0
 41
1.0
 10
935.96832951226645
 20
-1346.3425157235558
 30
0.0
 41
1.0
 10
935.93088061703031
 20
-1346.2963068944825
 30
0.0
 41
0.9984001104267284
 10
935.8884538865143
 20
-1346.254621787115
 30
0.0
 41
1.0
 10
935.8878667484048
 20
-1346.2540449122337
 30
0.0
 41
1.0
 10
935.88727961029542
 20
-1346.2534680373524
 30
0.0
 41
1.0
 10
935.84602715599658
 20
-1346.2129366797458
 30
0.0
 41
0.9982442159082056
 10
935.80027105466161
 20
-1346.1775681184861
 30
0.0
 41
1.0
 10
935.80005625919955
 20
-1346.1774020858427
 30
0.0
 41
1.0
 10
935.79984146373749
 20
-1346.1772360531993
 30
0.0
 41
1.0
 10
935.75451495332561
 20
-1346.1421995572257
 30
0.0
 41
0.9982450060835437
 10
935.70536397425417
 20
-1346.1127677741924
 30
0.0
 41
1.0
 10
935.65621299518295
 20
-1346.0833359911592
 30
0.0
 41
0.998392263963522
 10
935.60404668901754
 20
-1346.0596563565045
 30
0.0
 41
1.0
 10
935.60381981169303
 20
-1346.0595533710232
 30
0.0
 41
1.0
 10
935.60359293436863
 20
-1346.0594503855418
 30
0.0
 41
1.0
 10
935.55097287355488
 20
-1346.0355647799249
 30
0.0
 41
0.998651714715001
 10
935.49615990068673
 20
-1346.0172636608031
 30
0.0
 41
1.0
 10
935.49548197925901
 20
-1346.0170373143717
 30
0.0
 41
1.0
 10
935.49480405783129
 20
-1346.0168109679403
 30
0.0
 41
1.0
 10
935.43863524210644
 20
-1345.9980571559552
 30
0.0
 41
0.9989435598956151
 10
935.38098185495323
 20
-1345.9845394537203
 30
0.0
 41
1.0
 10
935.37990173537298
 20
-1345.9842862034677
 30
0.0
 41
1.0
 10
935.37882161579273
 20
-1345.9840329532151
 30
0.0
 41
1.0
 10
935.31900798947822
 20
-1345.9700087504746
 30
0.0
 41
0.9992249241239819
 10
935.25827648058089
 20
-1345.9607334077596
 30
0.0
 41
1.0
 10
935.25686279228967
 20
-1345.9605174993517
 30
0.0
 41
1.0
 10
935.25544910399856
 20
-1345.9603015909438
 30
0.0
 41
1.0
 10
935.19189021852048
 20
-1345.950594431413
 30
0.0
 41
0.9994396597833773
 10
935.12782428198466
 20
-1345.9451615090672
 30
0.0
 41
1.0
 10
935.10868361450559
 20
-1345.9435383413484
 30
0.0
 41
1.0
 10
935.08954294702653
 20
-1345.9419151736297
 30
0.0
 41
1.0
 10
934.98719567553383
 20
-1345.9332359158468
 30
0.0
 41
0.9987693403121468
 10
934.88449205194672
 20
-1345.9347389792995
 30
0.0
 41
1.0
 10
934.87423771772069
 20
-1345.9348890510737
 30
0.0
 41
1.0
 10
934.86398338349477
 20
-1345.9350391228479
 30
0.0
 41
1.0
 10
934.75442761731483
 20
-1345.9366424671352
 30
0.0
 41
0.9989753644966377
 10
934.64546561729708
 20
-1345.9481454740603
 30
0.0
 41
1.0
 10
934.53650361728069
 20
-1345.9596484809856
 30
0.0
 41
0.9983190067306238
 10
934.42960480631621
 20
-1345.9836834727723
 30
0.0
 41
1.0
 10
934.42070385470925
 20
-1345.9856847513352
 30
0.0
 41
1.0
 10
934.41180290310217
 20
-1345.9876860298978
 30
0.0
 41
1.0
 10
934.28710218892525
 20
-1346.0157235788095
 30
0.0
 41
0.9985539388303673
 10
934.16613243524841
 20
-1346.0569872548544
 30
0.0
 41
1.0
 10
934.16378700428686
 20
-1346.0577872986707
 30
0.0
 41
1.0
 10
934.16144157332519
 20
-1346.058587342487
 30
0.0
 41
1.0
 10
934.03578095772582
 20
-1346.1014511061646
 30
0.0
 41
0.9988468746493592
 10
933.91481061542436
 20
-1346.1561691912277
 30
0.0
 41
1.0
 10
933.91162779343665
 20
-1346.1576088657871
 30
0.0
 41
1.0
 10
933.90844497144894
 20
-1346.1590485403467
 30
0.0
 41
1.0
 10
933.7811089851715
 20
-1346.2166459745288
 30
0.0
 41
0.9991322885919013
 10
933.65900840111556
 20
-1346.2846413067102
 30
0.0
 41
1.0
 10
933.64140639007053
 20
-1346.2944435087006
 30
0.0
 41
1.0
 10
933.6238043790255
 20
-1346.304245710691
 30
0.0
 41
1.0
 10
933.52162769796894
 20
-1346.3611458264713
 30
0.0
 41
0.9993860037849071
 10
933.423686693896
 20
-1346.4250618420597
 30
0.0
 41
1.0
 10
933.41806838104367
 20
-1346.4287283367546
 30
0.0
 41
1.0
 10
933.41245006819133
 20
-1346.4323948314495
 30
0.0
 41
1.0
 10
933.32574568982091
 20
-1346.4889778576494
 30
0.0
 41
0.9998821494952946
 10
933.24081931400974
 20
-1346.548196087725
 30
0.0
 41
1.0
 10
933.15589293819937
 20
-1346.6074143178
 30
0.0
 41
0.9997976482743735
 10
933.07341730780047
 20
-1346.670000725838
 30
0.0
 41
1.0
 10
933.058781042992
 20
-1346.6811074156205
 30
0.0
 41
1.0
 10
933.04414477818352
 20
-1346.6922141054031
 30
0.0
 41
1.0
 10
932.93239661816938
 20
-1346.777013893005
 30
0.0
 41
0.999809163080035
 10
932.82404634014154
 20
-1346.8661142437068
 30
0.0
 41
1.0
 10
932.81104058766459
 20
-1346.8768093441524
 30
0.0
 41
1.0
 10
932.79803483518776
 20
-1346.8875044445981
 30
0.0
 41
1.0
 10
932.66367305220672
 20
-1346.9979949961905
 30
0.0
 41
0.9995035112317322
 10
932.53653717444615
 20
-1347.1167288132026
 30
0.0
 41
1.0
 10
932.52688986405678
 20
-1347.1257385593626
 30
0.0
 41
1.0
 10
932.5172425536673
 20
-1347.1347483055224
 30
0.0
 41
1.0
 10
932.39381949090239
 20
-1347.2500146772779
 30
0.0
 41
0.9994630424299179
 10
932.2782110851183
 20
-1347.3731174205132
 30
0.0
 41
1.0
 10
932.27452824634543
 20
-1347.3770390000277
 30
0.0
 41
1.0
 10
932.27084540757244
 20
-1347.3809605795425
 30
0.0
 41
1.0
 10
932.16260267933308
 20
-1347.4962201637497
 30
0.0
 41
0.9995160693750003
 10
932.06173664980236
 20
-1347.617987581621
 30
0.0
 41
1.0
 10
932.05980292972254
 20
-1347.6203220058283
 30
0.0
 41
1.0
 10
932.0578692096426
 20
-1347.6226564300352
 30
0.0
 41
1.0
 10
931.96087062027175
 20
-1347.7397549994919
 30
0.0
 41
0.999656147051488
 10
931.87014440160453
 20
-1347.8617777619427
 30
0.0
 41
1.0
 10
931.8639867356992
 20
-1347.8700595509895
 30
0.0
 41
1.0
 10
931.85782906979398
 20
-1347.8783413400361
 30
0.0
 41
1.0
 10
931.77941818293493
 20
-1347.9838005243969
 30
0.0
 41
0.999834905517257
 10
931.70489090100637
 20
-1348.0920391080554
 30
0.0
 41
1.0
 10
931.63036361908121
 20
-1348.2002776917086
 30
0.0
 41
0.9999728109567746
 10
931.55744072317952
 20
-1348.3096036172506
 30
0.0
 41
1.0
 10
931.55612550776004
 20
-1348.3115753867646
 30
0.0
 41
1.0
 10
931.55481029234056
 20
-1348.3135471562789
 30
0.0
 41
1.0
 10
931.47925696559821
 20
-1348.4268166208522
 30
0.0
 41
0.9999972147275646
 10
931.40423915521956
 20
-1348.5404414636953
 30
0.0
 41
1.0
 10
931.39926761260381
 20
-1348.5479715521574
 30
0.0
 41
1.0
 10
931.39429606998817
 20
-1348.5555016406197
 30
0.0
 41
1.0
 10
931.30933517437586
 20
-1348.6841866603902
 30
0.0
 41
0.9999371979005065
 10
931.22727982497884
 20
-1348.8147435741557
 30
0.0
 41
1.0
 10
931.22377094060994
 20
-1348.8203265022321
 30
0.0
 41
1.0
 10
931.22026205624115
 20
-1348.8259094303082
 30
0.0
 41
1.0
 10
931.13118893810929
 20
-1348.9676322002222
 30
0.0
 41
0.9998272025610072
 10
931.0474455472264
 20
-1349.1125680769662
 30
0.0
 41
1.0
 10
931.03223037520434
 20
-1349.1389011914193
 30
0.0
 41
1.0
 10
931.01701520318238
 20
-1349.1652343058727
 30
0.0
 41
1.0
 10
930.9028414682532
 20
-1349.362836411527
 30
0.0
 41
0.9995217214838156
 10
930.80110177869676
 20
-1349.5671187393903
 30
0.0
 41
1.0
 10
930.79345821606125
 20
-1349.5824661890942
 30
0.0
 41
1.0
 10
930.78581465342575
 20
-1349.597813638798
 30
0.0
 41
1.0
 10
930.69890936083539
 20
-1349.7723100968808
 30
0.0
 41
0.9998269762607489
 10
930.6185548945648
 20
-1349.9499183836012
 30
0.0
 41
1.0
 10
930.53820042829489
 20
-1350.1275266703203
 30
0.0
 41
0.9998944747388798
 10
930.4630396337318
 20
-1350.307394395945
 30
0.0
 41
1.0
 10
930.45808596413849
 20
-1350.3192490508673
 30
0.0
 41
1.0
 10
930.4531322945453
 20
-1350.3311037057897
 30
0.0
 41
1.0
 10
930.37248523399069
 20
-1350.5241006458127
 30
0.0
 41
0.9999506734408782
 10
930.29568770508899
 20
-1350.7186614506641
 30
0.0
 41
1.0
 10
930.28108773981285
 20
-1350.7556493724833
 30
0.0
 41
1.0
 10
930.26648777453659
 20
-1350.7926372943027
 30
0.0
 41
1.0
 10
930.21889017618219
 20
-1350.913222255529
 30
0.0
 41
0.9999912393946779
 10
930.17230373216285
 20
-1351.0342014582161
 30
0.0
 41
1.0
 10
930.12571728813919
 20
-1351.155180660915
 30
0.0
 41
0.9999927113991551
 10
930.08005599374542
 20
-1351.276512068416
 30
0.0
 41
1.0
 10
930.06608756234812
 20
-1351.313629050414
 30
0.0
 41
1.0
 10
930.05211913095081
 20
-1351.3507460324117
 30
0.0
 41
1.0
 10
929.97852097376142
 20
-1351.5463114039105
 30
0.0
 41
0.9999487550950048
 10
929.90889734879408
 20
-1351.743326769081
 30
0.0
 41
1.0
 10
929.88530373885351
 20
-1351.8100900793843
 30
0.0
 41
1.0
 10
929.86171012891282
 20
-1351.8768533896878
 30
0.0
 41
1.0
 10
929.76702449454433
 20
-1352.1447872245067
 30
0.0
 41
0.9999808436937928
 10
929.67566290590366
 20
-1352.413872655769
 30
0.0
 41
1.0
 10
929.58430131725902
 20
-1352.6829580870431
 30
0.0
 41
0.999987393292162
 10
929.49564660854469
 20
-1352.9529474420451
 30
0.0
 41
1.0
 10
929.47555425167502
 20
-1353.0141367747988
 30
0.0
 41
1.0
 10
929.45546189480547
 20
-1353.0753261075527
 30
0.0
 41
1.0
 10
929.32662247234975
 20
-1353.4676941280684
 30
0.0
 41
0.9999794883025784
 10
929.20281968739141
 20
-1353.8616803343466
 30
0.0
 41
1.0
 10
929.19166742795414
 20
-1353.897170944583
 30
0.0
 41
1.0
 10
929.18051516851688
 20
-1353.9326615548193
 30
0.0
 41
1.0
 10
929.03795700462047
 20
-1354.3863343069024
 30
0.0
 41
0.999998276168228
 10
928.89708456460289
 20
-1354.840533329033
 30
0.0
 41
1.0
 10
927.30894423203029
 20
-1359.8893030600361
 30
0.0
 41
1.0
 10
925.72080389945768
 20
-1364.9380727910395
 30
0.0
 41
1.0
 10
924.77205328798129
 20
-1364.9380727910395
 30
0.0
 41
1.0
 10
923.82330267650491
 20
-1364.9380727910395
 30
0.0
 41
1.0
 10
927.06158716265804
 20
-1354.6107505910934
 30
0.0
 41
1.0
 10
930.29987164881129
 20
-1344.2834283911473
 30
0.0
 41
1.0
  0
LWPOLYLINE
  5
5A
100
AcDbEntity
  8
0
370
              15
390
0
  6
Continuous
 62
               7
100
AcDbPolyline
 90
      232
 70
             128
 10
904.59632587498425
 20
-1345.3677712226624
 42
0.000437080068672
 10
904.54344870090802
 20
-1345.4364378619239
 10
904.50416446978477
 20
-1345.4875449748151
 42
0.0030481992175739
 10
904.37382575265565
 20
-1345.6592666671727
 10
904.33531408091517
 20
-1345.7106534509476
 42
0.0042058245754892
 10
904.13132903024484
 20
-1345.9876591960219
 10
904.07892390774464
 20
-1346.0600920428019
 42
0.0120948898743192
 10
903.78287999098518
 20
-1346.4908416473481
 10
903.68668749185622
 20
-1346.6383223825837
 42
0.0141601263949725
 10
903.38304344493929
 20
-1347.1339917193113
 10
903.34350617751534
 20
-1347.2028356867397
 42
0.0071131081299427
 10
903.13823385427486
 20
-1347.5723384855812
 42
0.0068458791003174
 10
902.94335432742503
 20
-1347.9474300490706
 10
902.93654246497408
 20
-1347.9609917627808
 42
0.0064120880286279
 10
902.73840021493595
 20
-1348.3684162376867
 10
902.73086552941277
 20
-1348.3844280944211
 42
0.0058857236449179
 10
902.52811013754115
 20
-1348.8288042054558
 10
902.51993521124712
 20
-1348.84729435909
 42
0.0053189741894369
 10
902.31123089857567
 20
-1349.3332578330173
 10
902.30248309289823
 20
-1349.3542397112042
 42
0.0047503650418229
 10
902.08650936674837
 20
-1349.8864391444115
 10
902.07724111839934
 20
-1349.9099155205217
 42
0.0042071762170169
 10
901.85269373467349
 20
-1350.4930091145864
 10
901.84294433232299
 20
-1350.5189752894612
 42
0.0036680086484977
 10
901.60848968900757
 20
-1351.1576106740015
 10
901.59828190916312
 20
-1351.1860592083367
 42
0.0032573142627019
 10
901.35264962318979
 20
-1351.8849118681092
 10
901.28399910235566
 20
-1352.0843749521432
 42
0.0026133366648819
 10
900.93555390359779
 20
-1353.114238235815
 10
900.87229711609723
 20
-1353.3044690712077
 42
0.0020592950740407
 10
900.65843404712996
 20
-1353.9565727238212
 10
900.65538225597174
 20
-1353.9660092122156
 42
0.0025609928536041
 10
900.45356175448103
 20
-1354.6011544345968
 10
900.45097038735139
 20
-1354.6094567755467
 42
0.003136235624023
 10
900.26147960167737
 20
-1355.2302196317169
 10
900.2593485587447
 20
-1355.2373609379454
 42
0.003722991802947
 10
900.08254817182365
 20
-1355.8463462399022
 10
900.08086958262231
 20
-1355.8522931300586
 42
0.004307762370812
 10
899.91712878055216
 20
-1356.4521118618454
 42
0.0047654161822918
 10
899.76430005803491
 20
-1357.0547979507533
 10
899.72983544919703
 20
-1357.1963597278977
 42
0.0112969368444821
 10
899.53397109105401
 20
-1358.0880518885192
 10
899.50596470195683
 20
-1358.2308799346197
 42
0.0130056762572012
 10
899.30512745831015
 20
-1359.4178210062646
 10
899.28458770816314
 20
-1359.5618991197409
 42
0.013872153214435
 10
899.18088470362522
 20
-1360.4687286055673
 10
899.16158921571764
 20
-1360.6922263274882
 42
0.0071254697007628
 10
899.12824256979479
 20
-1361.1554133363397
 10
899.12328159563106
 20
-1361.2414173309071
 42
0.0028881799200266
 10
899.10814330234166
 20
-1361.5331590407422
 42
0.006029729713342
 10
899.09821110256621
 20
-1361.8251079768513
 10
899.09714882089895
 20
-1361.873500348793
 42
0.0229523164159499
 10
899.10487984868473
 20
-1362.1962551950737
 10
899.10910562220488
 20
-1362.2566587290873
 42
0.0123673300669651
 10
899.12818426872343
 20
-1362.4577794542647
 42
0.0128577674471499
 10
899.15737965912945
 20
-1362.65767730419
 10
899.16450553251673
 20
-1362.6990061187885
 42
0.028571785376387
 10
899.22899953421245
 20
-1362.977122270102
 10
899.24266805787863
 20
-1363.0237770395781
 42
0.031628309915651
 10
899.35847863779304
 20
-1363.3427915414049
 10
899.36152732954861
 20
-1363.3497779137306
 42
0.0338984824238197
 10
899.51095904051579
 20
-1363.6373438779196
 10
899.51326776988617
 20
-1363.6411349071964
 42
0.0350228718357741
 10
899.69562806055922
 20
-1363.8981868918725
 10
899.6965133123341
 20
-1363.8992659696364
 42
0.0347476747524966
 10
899.91093799957434
 20
-1364.1264510168567
 42
0.0331337701912438
 10
900.15418132532056
 20
-1364.3225796789336
 10
900.15528142383687
 20
-1364.3233523821063
 42
0.0305233319079946
 10
900.42382611940991
 20
-1364.4884805521976
 10
900.4270561639114
 20
-1364.4902045640606
 42
0.0273744481151985
 10
900.71960987548573
 20
-1364.6263427079509
 10
900.72471441062328
 20
-1364.6283862924206
 42
0.0240964406194192
 10
901.04019148626662
 20
-1364.7373700187013
 10
901.04677481547901
 20
-1364.7392947583771
 42
0.0209636179811545
 10
901.38417496813429
 20
-1364.8227629063097
 10
901.39180742858025
 20
-1364.8243148193105
 42
0.0181388704692253
 10
901.75012982057876
 20
-1364.8837309125245
 10
901.75841066895691
 20
-1364.8847970963416
 42
0.0156086547586099
 10
902.13659803314579
 20
-1364.9215332829183
 10
902.17979328547779
 20
-1364.9243717853974
 42
0.0137148329024564
 10
902.50746643077161
 20
-1364.9368920406487
 10
902.55340262070911
 20
-1364.9373864737638
 42
0.0051057823885116
 10
902.78954820728984
 20
-1364.9375167281728
 42
0.0052256693316559
 10
903.02564549107444
 20
-1364.9327679037085
 10
903.09587227481791
 20
-1364.9306209376946
 42
0.0161507179048285
 10
903.47160935291924
 20
-1364.906970567368
 10
903.49162231329228
 20
-1364.9050603720805
 42
0.0101216737832246
 10
903.90564953478167
 20
-1364.8570674417151
 10
903.93970282420969
 20
-1364.8524197449053
 42
0.0245291776398438
 10
904.41649247976136
 20
-1364.763344666829
 10
904.50131579528636
 20
-1364.7431487464828
 42
0.0143509212558649
 10
904.85794689922443
 20
-1364.6473441127046
 42
0.0156557857036023
 10
905.20816296395299
 20
-1364.5303328968853
 10
905.21566417844633
 20
-1364.5275627351316
 42
0.0170137333631044
 10
905.57226017413097
 20
-1364.3819051202588
 10
905.57936409653519
 20
-1364.3787172846967
 42
0.018310536441182
 10
905.93871376469951
 20
-1364.2013822428733
 10
905.94566052934022
 20
-1364.1976318080001
 42
0.0194899958151807
 10
906.30414127031997
 20
-1363.9856528261121
 10
906.31115514966086
 20
-1363.9811274838144
 42
0.020486985295494
 10
906.66516945175636
 20
-1363.7316074687274
 10
906.67243506034185
 20
-1363.7260274033802
 42
0.0212516938554647
 10
907.01842499144493
 20
-1363.4361234064902
 10
907.0649416855257
 20
-1363.3936560963919
 42
0.0215248918249256
 10
907.32496785441322
 20
-1363.1348918173976
 10
907.36999758879153
 20
-1363.0860476960502
 42
0.0114578554954825
 10
907.52478974247106
 20
-1362.9102247625892
 10
907.53598427846237
 20
-1362.8969059990382
 42
0.0061531305135825
 10
907.66245892445215
 20
-1362.7426164657381
 42
0.0006325587127649
 10
907.78683740863687
 20
-1362.5866130900208
 10
907.80987754365538
 20
-1362.5576395694031
 42
0.0041897761555912
 10
907.97833294762904
 20
-1362.3421201933402
 10
908.0367950675203
 20
-1362.266018846356
 42
0.0092993880040216
 10
908.31340699475095
 20
-1361.8917400824625
 10
908.39580148794062
 20
-1361.7758030789068
 42
0.0159321727083017
 10
908.7424079705853
 20
-1361.2536288581475
 10
908.78676410597836
 20
-1361.181949293891
 42
0.0085547317021975
 10
909.02127587130008
 20
-1360.7880743446729
 42
0.0084601156888836
 10
909.24225204873653
 20
-1360.3864474956515
 10
909.25036752257256
 20
-1360.3710878133677
 42
0.0081429654285546
 10
909.47361679301264
 20
-1359.9313663008215
 10
909.48247695719408
 20
-1359.9131874588074
 42
0.0076574581327635
 10
909.70888446776291
 20
-1359.43000458355
 10
909.71836410848448
 20
-1359.4089401052515
 42
0.0070682724198872
 10
909.94880901629028
 20
-1358.8769028004726
 10
909.95879930027297
 20
-1358.8529136114585
 42
0.006455951444835
 10
910.1941325084548
 20
-1358.2666013449393
 10
910.20454186661959
 20
-1358.2396664194976
 42
0.0058311413908231
 10
910.44558860338225
 20
-1357.593634325114
 10
910.45634368076992
 20
-1357.5637499839531
 42
0.0052312425819428
 10
910.70392495881447
 20
-1356.8525475701076
 10
910.71496879519054
 20
-1356.8197208580491
 42
0.0046680544796336
 10
910.9698972229213
 20
-1356.037894542306
 10
911.01188937297923
 20
-1355.9049113049684
 42
0.0041666856445823
 10
911.21517538536364
 20
-1355.2419425299965
 10
911.25283782602685
 20
-1355.1153614223447
 42
0.0015170975157229
 10
911.37402440444043
 20
-1354.7034930708492
 42
-0.0004887993117738
 10
911.49436417753168
 20
-1354.2913746589161
 10
911.57084143505858
 20
-1354.0304172728661
 42
0.0002583378929462
 10
911.84405600512616
 20
-1353.0963605696757
 10
911.92582885470028
 20
-1352.816261310101
 42
0.0006636169672884
 10
912.11969661471085
 20
-1352.148908386517
 10
912.12479326907157
 20
-1352.1312768035896
 42
0.0010589131324638
 10
912.30624196997451
 20
-1351.498545460588
 10
912.31122404046937
 20
-1351.4810325535173
 42
0.001565552446299
 10
912.47949424763783
 20
-1350.8824158743671
 10
912.48432444805553
 20
-1350.8650237154216
 42
0.0021640440480012
 10
912.63861442003872
 20
-1350.299996697413
 10
912.64324863946661
 20
-1350.2827319674268
 42
0.0028763871851085
 10
912.78276435752173
 20
-1349.7507640165722
 10
912.78715022168672
 20
-1349.7336400384265
 42
0.0037310511946254
 10
912.91110691352583
 20
-1349.234192444394
 10
912.91518213381414
 20
-1349.2172321731514
 42
0.0047652197770852
 10
913.02280603432325
 20
-1348.7497544048433
 10
913.02649663364809
 20
-1348.7329948496865
 42
0.0060276699303047
 10
913.11702673280024
 20
-1348.2969190545491
 10
913.12024542308689
 20
-1348.2804178402525
 42
0.0075824337757439
 10
913.19293473250491
 20
-1347.8751506758138
 10
913.19558010988624
 20
-1347.8589957283566
 42
0.0095130624611646
 10
913.24969534551633
 20
-1347.4839063752916
 10
913.25668156939946
 20
-1347.4279728171705
 42
0.012105465323273
 10
913.28327289997685
 20
-1347.1630769887011
 10
913.28413938973597
 20
-1347.1516735457767
 42
0.0069050827391867
 10
913.29922820777415
 20
-1346.9087323189278
 10
913.30036350744206
 20
-1346.8852060618949
 42
0.0169063976686719
 10
913.30319078642287
 20
-1346.6890133345823
 10
913.30202013489179
 20
-1346.6286775732397
 42
0.0052007732895035
 10
913.29976668629865
 20
-1346.553084183081
 42
0.0054038123299897
 10
913.27980317446111
 20
-1346.4330658870786
 10
913.27471731858941
 20
-1346.4044074004898
 42
0.011205046046723
 10
913.23933295653137
 20
-1346.2280809621532
 10
913.22150799449014
 20
-1346.1485393754301
 42
0.0240764468009334
 10
913.13061062834436
 20
-1345.8183023399299
 10
913.11205186553093
 20
-1345.7616821749359
 42
0.0256812331834335
 10
912.968688945341
 20
-1345.3899579686777
 10
912.96327951951946
 20
-1345.3778266336876
 42
0.026836050121676
 10
912.79385227866976
 20
-1345.0468334996669
 10
912.78831587103434
 20
-1345.0373138293539
 42
0.0274670231729367
 10
912.59611489462145
 20
-1344.7450264544373
 10
912.59073359465924
 20
-1344.7377473068964
 42
0.0275035967098132
 10
912.37916071509699
 20
-1344.482231416592
 10
912.37409121413134
 20
-1344.4767523289624
 42
0.0269557673522201
 10
912.14668767069088
 20
-1344.2561100429994
 10
912.1419446129089
 20
-1344.2519800885391
 42
0.02591248022068
 10
911.9023897814775
 20
-1344.064289561386
 10
911.89785893629551
 20
-1344.0611040590557
 42
0.0245162153005956
 10
911.64994258320075
 20
-1343.9043710499454
 10
911.64541603687724
 20
-1343.901810852745
 42
0.0229282588842563
 10
911.39299648004919
 20
-1343.7739426602457
 10
911.38821598621303
 20
-1343.7717903604839
 42
0.0212984135700765
 10
911.13517803375066
 20
-1343.6705914432414
 10
911.12987374878333
 20
-1343.6687278804823
 42
0.0197555462347386
 10
910.88009541105816
 20
-1343.5919124625166
 42
0.0183511896789388
 10
910.62516668559556
 20
-1343.534329555551
 10
910.53880148887163
 20
-1343.5181267651658
 42
0.0338057877144312
 10
910.25329413961174
 20
-1343.4843183600256
 10
910.16228873457169
 20
-1343.4797387047643
 42
0.0091990524490717
 10
910.0564416259358
 20
-1343.4763628488422
 42
0.0028333980789336
 10
909.95052770994016
 20
-1343.4755347413256
 10
909.94961225689349
 20
-1343.4755327715015
 42
-0.002361982780504
 10
909.84186624179608
 20
-1343.474791930423
 10
909.80546107161172
 20
-1343.4743696239598
 42
0.000882459847429
 10
909.62490508166582
 20
-1343.4725938457207
 10
909.58104364935593
 20
-1343.4722398841959
 42
0.0038132665763906
 10
909.31276075348512
 20
-1343.4721209481293
 10
909.29622709868363
 20
-1343.472239714273
 42
0.0060665569335579
 10
908.9949466070974
 20
-1343.4780600136937
 10
908.98069627506698
 20
-1343.4785083216614
 42
0.0080356953336687
 10
908.65123755872389
 20
-1343.4941760437284
 10
908.6391675436405
 20
-1343.4949446266687
 42
0.0098996399106022
 10
908.28640445898736
 20
-1343.5244298558671
 10
908.27635874961493
 20
-1343.5254701520651
 42
0.0117740981366489
 10
907.90520189126732
 20
-1343.5727623995947
 10
907.89697919478363
 20
-1343.5740075161657
 42
0.013743521513845
 10
907.51239037529592
 20
-1343.6431044897281
 10
907.50573333617513
 20
-1343.644490385961
 42
0.0158359869388291
 10
907.11273624237162
 20
-1343.739382474442
 10
907.1073230555055
 20
-1343.7408724153122
 42
0.0180554124029893
 10
906.71100801089278
 20
-1343.8655104315512
 10
906.70645122280973
 20
-1343.8671264678173
 42
0.0203657431285382
 10
906.31197370499672
 20
-1344.0253868093337
 10
906.30783016599105
 20
-1344.0272484307748
 42
0.0226819684657288
 10
905.92039410978555
 20
-1344.222891009447
 10
905.91619431876927
 20
-1344.2252566013658
 42
0.024863498460645
 10
905.54101237758812
 20
-1344.4618832473127
 10
905.49281744880375
 20
-1344.4957402891387
 42
0.0267044190884283
 10
905.21852475188757
 20
-1344.7111806650069
 42
0.0139303002198896
 10
904.96235758595515
 20
-1344.9484195059126
 10
904.95750420022785
 20
-1344.9531721687788
 42
0.0283460963446713
 10
904.71343160599952
 20
-1345.2209028292252
 10
904.6737631008441
 20
-1345.269704406697
 42
0.0070695364819168
 10
904.59632587498425
 20
-1345.3677712226624
 42
0.0070695364819168
  0
LWPOLYLINE
  5
5B
100
AcDbEntity
  8
0
370
              15
390
0
  6
Continuous
 62
               7
100
AcDbPolyline
 90
      226
 70
             128
 10
901.06750543773785
 20
-1361.0893600288464
 42
-0.0026277636607057
 10
901.06742755393782
 20
-1361.0225881030794
 10
901.06764491216984
 20
-1360.9694328856604
 42
-0.0088680296727914
 10
901.07142152846302
 20
-1360.7964171032543
 10
901.07376788757529
 20
-1360.7371370778037
 42
-0.0077381705613145
 10
901.0898139983392
 20
-1360.4458765819957
 10
901.09068190951155
 20
-1360.4335883483204
 42
-0.0068872530533739
 10
901.11731398926042
 20
-1360.1183665962437
 10
901.11851821344578
 20
-1360.1061256172325
 42
-0.0062130021487007
 10
901.15611193027416
 20
-1359.767255925989
 10
901.15761583380868
 20
-1359.7550820540775
 42
-0.0056726929671088
 10
901.20653769331125
 20
-1359.3928868319626
 10
901.20831113895542
 20
-1359.3807930317189
 42
-0.0052341884495975
 10
901.26892172521445
 20
-1358.9955997762063
 10
901.27093971399199
 20
-1358.9835948462085
 42
-0.0049768450167908
 10
901.34367839542222
 20
-1358.5757502787549
 10
901.36792741014017
 20
-1358.4472022957698
 42
-0.0089029805623325
 10
901.5050082619357
 20
-1357.7854268483438
 10
901.53775363725345
 20
-1357.640395417824
 42
-0.0080318257098789
 10
901.76730225159611
 20
-1356.6946857859632
 10
901.77928717804241
 20
-1356.6485551507803
 42
-0.0074265721317039
 10
902.06329871689502
 20
-1355.6184905723906
 10
902.08317826001212
 20
-1355.5503565117999
 42
-0.0069711922701489
 10
902.41048283851569
 20
-1354.4840887714822
 10
902.47043478562273
 20
-1354.298067413107
 42
-0.0052070422891852
 10
902.69986001088046
 20
-1353.6107953360804
 10
902.71714120301669
 20
-1353.5607680555675
 42
-0.0009167004448999
 10
902.92023309034221
 20
-1352.9763122073091
 42
-0.0025162726942414
 10
903.1273307206061
 20
-1352.3932709431429
 10
903.16455533241526
 20
-1352.2901213972273
 42
-0.0028212681456475
 10
903.41273125137332
 20
-1351.6143907650703
 10
903.42256201412954
 20
-1351.5880833203785
 42
-0.0031964916822847
 10
903.65885427178625
 20
-1350.9678785582664
 10
903.66848872578259
 20
-1350.9430685681298
 42
-0.0036281836451334
 10
903.89359468688644
 20
-1350.3756278872302
 10
903.90303309704245
 20
-1350.3523304557307
 42
-0.0041269166829688
 10
904.11765079370309
 20
-1349.8348895597489
 10
904.15028375012287
 20
-1349.7580111133902
 42
-0.0047472213055819
 10
904.30732855567749
 20
-1349.3975896455045
 10
904.31422263688762
 20
-1349.3821690481682
 42
-0.0025651659997371
 10
904.46258067073586
 20
-1349.054840992424
 42
-0.0057144634995036
 10
904.61633036450621
 20
-1348.7300313190635
 10
904.64436106990468
 20
-1348.6725229366748
 42
-0.0065388068374285
 10
904.82782809764819
 20
-1348.3082904400023
 10
904.8362865534267
 20
-1348.2920308606328
 42
-0.007451084301985
 10
905.01246879930454
 20
-1347.96534257951
 10
905.02064846983956
 20
-1347.9507018022341
 42
-0.0084648979853902
 10
905.19028232293567
 20
-1347.6587927912801
 10
905.19813844942382
 20
-1347.6457857996293
 42
-0.0095638542805224
 10
905.36197389701795
 20
-1347.3858969276507
 10
905.36944884069226
 20
-1347.3745275661913
 42
-0.0107191626804486
 10
905.52825042107725
 20
-1347.1439163316513
 10
905.53526715480825
 20
-1347.1341802392867
 42
-0.0118458573903881
 10
905.68981525332083
 20
-1346.9301080439759
 42
-0.0129184518188581
 10
905.85426787692609
 20
-1346.7339475278013
 10
905.88441264928611
 20
-1346.6998214489054
 42
-0.0217742579635611
 10
906.06102497162078
 20
-1346.516614678656
 10
906.07177051607789
 20
-1346.5063978454561
 42
-0.0097266568654902
 10
906.23782813493699
 20
-1346.3545502710156
 42
-0.018772090571699
 10
906.41217571082905
 20
-1346.2124814176245
 10
906.44288170150253
 20
-1346.1893223352288
 42
-0.0179428207517514
 10
906.67530242149678
 20
-1346.0267701581186
 10
906.67895474840714
 20
-1346.0244062232343
 42
-0.0170047877699453
 10
906.91471838594293
 20
-1345.8829457090792
 10
906.91850137469044
 20
-1345.8808474040425
 42
-0.0160190788363567
 10
907.15540992232479
 20
-1345.7591961020548
 42
-0.015110286149134
 10
907.39944170477168
 20
-1345.6525133260002
 10
907.45182820698324
 20
-1345.6314731931056
 42
-0.027194544188635
 10
907.81049076604165
 20
-1345.5096083823996
 10
907.8795555665323
 20
-1345.4902588411326
 42
-0.0237596594021453
 10
908.29535241355211
 20
-1345.3948081291519
 10
908.3634152672787
 20
-1345.3825534410257
 42
-0.0213715440556681
 10
908.64929019872784
 20
-1345.3436064095151
 10
908.70943736494382
 20
-1345.3380166948143
 42
-0.0101465655820661
 10
908.87692989693994
 20
-1345.3258731515502
 10
908.88627028313783
 20
-1345.325386236553
 42
-0.0100375910882628
 10
909.03542438370073
 20
-1345.3206104186277
 10
909.04568365337718
 20
-1345.3204879796133
 42
-0.0103625633384215
 10
909.17439164803591
 20
-1345.3216194131398
 10
909.19665729930432
 20
-1345.3222767716047
 42
-0.0115689250234876
 10
909.28070803683079
 20
-1345.32670627785
 42
-0.0072438037434452
 10
909.36454631627225
 20
-1345.3342954775994
 10
909.38134682574275
 20
-1345.3360620203234
 42
-0.0217917313138771
 10
909.49791658905451
 20
-1345.3534819130441
 10
909.56351667962474
 20
-1345.3662285214591
 42
-0.0332943556755175
 10
909.7679088446514
 20
-1345.4202688127662
 10
909.79808141319847
 20
-1345.4304368898836
 42
-0.0184824084810419
 10
909.93658646966696
 20
-1345.4828879052711
 42
-0.0198002050700385
 10
910.07066081016603
 20
-1345.5457719654703
 10
910.07254744754323
 20
-1345.5467497523503
 42
-0.0212242342969898
 10
910.20468638994623
 20
-1345.6225124911439
 10
910.20650168548855
 20
-1345.6236582933516
 42
-0.0226090605795186
 10
910.33500558671119
 20
-1345.7131379369168
 10
910.33685002844777
 20
-1345.7145501899035
 42
-0.0238457052221405
 10
910.46003210974118
 20
-1345.8185460857662
 10
910.46198483829971
 20
-1345.820360963532
 42
-0.0248160564147562
 10
910.57818634559999
 20
-1345.9396355647405
 10
910.58028997900237
 20
-1345.9420208984452
 42
-0.0254109591447604
 10
910.68789519686857
 20
-1346.0773092844097
 10
910.6901432187824
 20
-1346.0804508328101
 42
-0.0255528488295252
 10
910.78758989757898
 20
-1346.2324778870436
 10
910.78992099749576
 20
-1346.2365594986522
 42
-0.0252146793224302
 10
910.87570202350514
 20
-1346.4060617446498
 10
910.87800426266244
 20
-1346.411243826562
 42
-0.0244265635952732
 10
910.95065895642369
 20
-1346.5989903986081
 10
910.95990535789247
 20
-1346.626855816947
 42
-0.0231319612898874
 10
911.00582813688436
 20
-1346.7901568637481
 42
-0.0112130424360945
 10
911.04046415942207
 20
-1346.9563604639329
 10
911.04166668453513
 20
-1346.9628570508239
 42
-0.0210527881240268
 10
911.06735315990591
 20
-1347.1439126962655
 10
911.07086375472772
 20
-1347.1793182448125
 42
-0.0190029892428993
 10
911.08630522827241
 20
-1347.4328540910865
 10
911.08711520471638
 20
-1347.4683297054539
 42
-0.0137974553661589
 10
911.08556635188074
 20
-1347.7933611121884
 10
911.08472089692532
 20
-1347.8194798567802
 42
-0.0081336634214535
 10
911.06986156170274
 20
-1348.1248273243793
 42
-0.0073526923571413
 10
911.04555302832921
 20
-1348.4295755686537
 10
911.04429160454538
 20
-1348.4429122433305
 42
-0.0066886138693956
 10
911.00855601849855
 20
-1348.7734982868303
 10
911.00689892902892
 20
-1348.7871199058191
 42
-0.0061359187351422
 10
910.9590483269767
 20
-1349.1438838859283
 10
910.95701082590517
 20
-1349.1577786887483
 42
-0.0056698610060989
 10
910.89636049513717
 20
-1349.5410572575922
 10
910.89395506181518
 20
-1349.555216376817
 42
-0.0052721077270442
 10
910.81982286101356
 20
-1349.9653437165048
 10
910.81705971217377
 20
-1349.9797603518809
 42
-0.0049289272182416
 10
910.72876559407382
 20
-1350.4170688630029
 10
910.72565309939114
 20
-1350.4317377158193
 42
-0.0047415956715274
 10
910.62241510785896
 20
-1350.8965344732294
 10
910.5876468974991
 20
-1351.0463415686131
 42
-0.0084404470902943
 10
910.39763045392806
 20
-1351.8065655931414
 10
910.39150376594159
 20
-1351.8294297172977
 42
-0.003963594025745
 10
910.17005008165881
 20
-1352.6304185815407
 10
910.15667328647805
 20
-1352.677350198137
 42
-0.0072475040837424
 10
909.88922639861698
 20
-1353.5665699145206
 10
909.81901407179248
 20
-1353.7883102644839
 42
-0.0051345458826775
 10
909.5322546997287
 20
-1354.6626354523103
 10
909.5107284329689
 20
-1354.7260617194174
 42
-0.0019150016603301
 10
909.2551950260945
 20
-1355.4696108396663
 10
909.24872742168634
 20
-1355.4881983046218
 42
-0.0021524362752204
 10
909.00024937063449
 20
-1356.1925241262957
 10
908.99103894993755
 20
-1356.2182777045984
 42
-0.0024331286818788
 10
908.75478369090206
 20
-1356.8688770127155
 10
908.74573573835244
 20
-1356.8934203190672
 42
-0.0027449721786554
 10
908.52112116751607
 20
-1357.4925501979942
 10
908.51223116012341
 20
-1357.5158727878477
 42
-0.0031083229768958
 10
908.29868867351388
 20
-1358.0657968254261
 10
908.28995254184531
 20
-1358.0878865412662
 42
-0.0035311343282267
 10
908.08691135624645
 20
-1358.590869667014
 10
908.07832601710413
 20
-1358.6117123905115
 42
-0.0040245640950515
 10
907.88521421330438
 20
-1359.0700217131166
 10
907.87677809970262
 20
-1359.0896010811857
 42
-0.0046015135852397
 10
907.69302180653756
 20
-1359.505506110831
 10
907.68473562870508
 20
-1359.5238032502925
 42
-0.0052768638270867
 10
907.50975810975365
 20
-1359.8995761345534
 10
907.50162589913009
 20
-1359.9165694730896
 42
-0.0060672675643335
 10
907.33484628636074
 20
-1360.2544850962108
 10
907.32687680587821
 20
-1360.27015035521
 42
-0.0069904648870204
 10
907.16770841187781
 20
-1360.5724861618719
 10
907.15991701227256
 20
-1360.5867967110889
 42
-0.0080637022769591
 10
907.00776515192115
 20
-1360.8558320142522
 10
907.00017611928638
 20
-1360.868759879859
 42
-0.0093006455659528
 10
906.85443544275836
 20
-1361.1067742783562
 10
906.84708477601259
 20
-1361.1182922475325
 42
-0.0107060778045797
 10
906.7071362325762
 20
-1361.3275625649082
 10
906.70007446429338
 20
-1361.3376481074788
 42
-0.0122723111405004
 10
906.56528074609855
 20
-1361.5204414369632
 10
906.56495452254558
 20
-1361.5208618247714
 42
-0.0141836319628715
 10
906.42137291957033
 20
-1361.6954315826024
 10
906.41442516391783
 20
-1361.7034065828677
 42
-0.0175957477207675
 10
906.27451899588368
 20
-1361.8530274712718
 42
-0.0080466359667425
 10
906.12705523084094
 20
-1361.9953499994349
 10
906.08102068633605
 20
-1362.0383704375142
 42
-0.0269600260398421
 10
905.82774044035625
 20
-1362.250693696021
 10
905.76117330406089
 20
-1362.3006451106437
 42
-0.0178362839758901
 10
905.52122881440027
 20
-1362.4676630368997
 10
905.51398384339655
 20
-1362.4723315491067
 42
-0.0174650732648243
 10
905.2776476459585
 20
-1362.6131925140637
 42
-0.0169240130160951
 10
905.03218140009892
 20
-1362.7374847738422
 10
904.98619524454307
 20
-1362.7588467294083
 42
-0.0318883036841081
 10
904.63584438892201
 20
-1362.8951850389187
 10
904.56747885375717
 20
-1362.9168856593942
 42
-0.0284435909899725
 10
904.19142872746727
 20
-1363.0131030948687
 10
904.15627056696576
 20
-1363.0199966906978
 42
-0.0243909341008827
 10
903.84282710604975
 20
-1363.0657177217272
 10
903.79254637928307
 20
-1363.0705632686286
 42
-0.0196639292930969
 10
903.57695080175131
 20
-1363.0828115541424
 10
903.52512673058823
 20
-1363.0837148148792
 42
-0.010050151068206
 10
903.41270344892359
 20
-1363.083414416526
 10
903.38104358759097
 20
-1363.0826933446408
 42
-0.0019752031155657
 10
903.33195125089821
 20
-1363.0813811844309
 10
903.32919094766658
 20
-1363.0812964926045
 42
0.0065378752007836
 10
903.28561437292137
 20
-1363.0805296013898
 42
-0.0167974694633442
 10
903.24208354998916
 20
-1363.0788697028638
 10
903.23800421072747
 20
-1363.0785766919689
 42
-0.0081283276274033
 10
903.18644441299239
 20
-1363.0740296983313
 10
903.17470483911029
 20
-1363.0728017807526
 42
-0.0126703440181839
 10
903.09998654331741
 20
-1363.0630669896811
 10
903.07719867564015
 20
-1363.0595087337658
 42
-0.0117852088434891
 10
902.95765968980254
 20
-1363.0379457386075
 10
902.90227923804468
 20
-1363.0266021983741
 42
-0.0251774592302268
 10
902.67543519903836
 20
-1362.9681041889414
 10
902.63071600918681
 20
-1362.9541373696061
 42
-0.0146525199894823
 10
902.44432302164728
 20
-1362.8898708424076
 42
-0.0166929435859923
 10
902.26234536552317
 20
-1362.8140637093543
 10
902.25768873424749
 20
-1362.8119388087391
 42
-0.0191684358433512
 10
902.07250510299798
 20
-1362.718702724949
 10
902.06917251724121
 20
-1362.7168614773959
 42
-0.0221181781806163
 10
901.8858622133373
 20
-1362.6047279790239
 10
901.88351240933059
 20
-1362.603143681034
 42
-0.0254984685376553
 10
901.70722225894531
 20
-1362.4707325310646
 10
901.68474011124374
 20
-1362.4519802221287
 42
-0.0292492648804605
 10
901.55997117240031
 20
-1362.3348874224851
 42
-0.0159048957498429
 10
901.44613117494964
 20
-1362.2068674308853
 10
901.44481238437083
 20
-1362.2052858178658
 42
-0.0343813379558831
 10
901.34217512274449
 20
-1362.0634144920962
 10
901.31068359138328
 20
-1362.0129111000015
 42
-0.0369117275701862
 10
901.22479108948653
 20
-1361.849433859054
 42
-0.0191751379902623
 10
901.1575977039297
 20
-1361.6770292530482
 10
901.15583438017006
 20
-1361.6719359083731
 42
-0.0378178042228332
 10
901.10603966138569
 20
-1361.4829951322913
 10
901.100044365656
 20
-1361.4504345140977
 42
-0.0184846046466747
 10
901.07932716636105
 20
-1361.3086816935499
 42
-0.0179866351308685
 10
901.06899416128738
 20
-1361.1657908804682
 10
901.06893771884165
 20
-1361.1642331938563
 42
-0.0085497186138666
 10
901.06750543773785
 20
-1361.0893600288464
 42
-0.0085497186138666
  0
ENDBLK
  5
5C
100
AcDbEntity
  8
template
390
0
100
AcDbBlockEnd
  0
BLOCK
  5
5D
100
AcDbEntity
  8
template
390
0
100
AcDbBlockBegin
  2
*D3
 70
               1
 10
0.0
 20
0.0
 30
0.0
  3
*D3
  1

  0
LINE
  5
5E
100
AcDbEntity
  8
0
370
              -2
390
0
  6
Continuous
 62
               0
100
AcDbLine
 10
250.66635873083064
 20
597.49721695759251
 30
0.0
 11
250.66635873083064
 21
683.49721695759251
 31
0.0
  0
LINE
  5
5F
100
AcDbEntity
  8
0
370
              -2
390
0
  6
Continuous
 62
               0
100
AcDbLine
 10
770.66635873083067
 20
597.49721695759251
 30
0.0
 11
770.66635873083067
 21
683.49721695759251
 31
0.0
  0
LINE
  5
60
100
AcDbEntity
  8
0
370
              -2
390
0
  6
Continuous
 62
               0
100
AcDbLine
 10
250.66635873083064
 20
683.49721695759251
 30
0.0
 11
770.66635873083067
 21
683.49721695759251
 31
0.0
  0
CIRCLE
  5
61
102
{ACAD_REACTORS
330
62
102
}
100
AcDbEntity
  8
0
370
              -2
390
0
  6
Continuous
 62
               0
100
AcDbCircle
 10
250.66635873083064
 20
683.49721695759251
 30
0.0
 40
1.9998779296875
  0
HATCH
  5
62
100
AcDbEntity
  8
0
370
              -2
390
0
  6
Continuous
 62
               0
100
AcDbHatch
 10
0.0
 20
0.0
 30
0.0
210
0.0
220
0.0
230
1.0
  2
SOLID
 70
               1
 71
               1
 91
        1
 92
        1
 93
        1
 72
               2
 10
250.66635873083064
 20
683.49721695759251
 40
1.9998779296875
 50
0.0
 51
360.0
 73
               0
 97
        1
330
61
 75
               0
 76
               1
 98
        1
 10
0.0
 20
0.0
  0
CIRCLE
  5
63
102
{ACAD_REACTORS
330
64
102
}
100
AcDbEntity
  8
0
370
              -2
390
0
  6
Continuous
 62
               0
100
AcDbCircle
 10
770.66635873083067
 20
683.49721695759251
 30
0.0
 40
1.9998779296875
  0
HATCH
  5
64
100
AcDbEntity
  8
0
370
              -2
390
0
  6
Continuous
 62
               0
100
AcDbHatch
 10
0.0
 20
0.0
 30
0.0
210
0.0
220
0.0
230
1.0
  2
SOLID
 70
               1
 71
               1
 91
        1
 92
        1
 93
        1
 72
               2
 10
770.66635873083067
 20
683.49721695759251
 40
1.9998779296875
 50
0.0
 51
360.0
 73
               0
 97
        1
330
63
 75
               0
 76
               1
 98
        1
 10
0.0
 20
0.0
  0
MTEXT
  5
65
100
AcDbEntity
  8
0
390
0
 62
               0
100
AcDbMText
 10
486.85385704865507
 20
717.37483414509256
 30
0.0
 40
24.432617187500004
 41
0.0
 71
               1
 72
               1
  1
520
  7
ＭＳ ゴシック
 73
               1
 44
0.7828267384257843
  0
POINT
  5
66
100
AcDbEntity
  8
Defpoints
370
               0
390
0
 62
               0
100
AcDbPoint
 10
770.66635873083067
 20
572.49721695759251
 30
0.0
  0
POINT
  5
67
100
AcDbEntity
  8
Defpoints
370
               0
390
0
 62
               0
100
AcDbPoint
 10
250.66635873083064
 20
572.49721695759251
 30
0.0
  0
POINT
  5
68
100
AcDbEntity
  8
Defpoints
370
               0
390
0
 62
               0
100
AcDbPoint
 10
250.66635873083064
 20
683.49721695759251
 30
0.0
  0
ENDBLK
  5
69
100
AcDbEntity
  8
template
390
0
100
AcDbBlockEnd
  0
BLOCK
  5
6A
100
AcDbEntity
  8
template
390
0
100
AcDbBlockBegin
  2
*D4
 70
               1
 10
0.0
 20
0.0
 30
0.0
  3
*D4
  1

  0
LINE
  5
6B
100
AcDbEntity
  8
0
370
              -2
390
0
  6
Continuous
 62
               0
100
AcDbLine
 10
814.73443395565243
 20
565.0
 30
0.0
 11
901.98886783037005
 21
565.0
 31
0.0
  0
LINE
  5
6C
100
AcDbEntity
  8
0
370
              -2
390
0
  6
Continuous
 62
               0
100
AcDbLine
 10
807.72848777509694
 20
585.0
 30
0.0
 11
901.98886783037005
 21
585.0
 31
0.0
  0
LINE
  5
6D
100
AcDbEntity
  8
0
370
              -2
390
0
  6
Continuous
 62
               0
100
AcDbLine
 10
901.98886783037005
 20
585.0
 30
0.0
 11
901.98886783037005
 21
637.75
 31
0.0
  0
LINE
  5
6E
100
AcDbEntity
  8
0
370
              -2
390
0
  6
Continuous
 62
               0
100
AcDbLine
 10
901.98886783037005
 20
565.0
 30
0.0
 11
901.98886783037005
 21
585.0
 31
0.0
  0
CIRCLE
  5
6F
102
{ACAD_REACTORS
330
70
102
}
100
AcDbEntity
  8
0
370
              -2
390
0
  6
Continuous
 62
               0
100
AcDbCircle
 10
901.98886783037005
 20
565.0
 30
0.0
 40
1.9998779296875
  0
HATCH
  5
70
100
AcDbEntity
  8
0
370
              -2
390
0
  6
Continuous
 62
               0
100
AcDbHatch
 10
0.0
 20
0.0
 30
0.0
210
0.0
220
0.0
230
1.0
  2
SOLID
 70
               1
 71
               1
 91
        1
 92
        1
 93
        1
 72
               2
 10
901.98886783037005
 20
565.0
 40
1.9998779296875
 50
0.0
 51
360.0
 73
               0
 97
        1
330
6F
 75
               0
 76
               1
 98
        1
 10
0.0
 20
0.0
  0
CIRCLE
  5
71
102
{ACAD_REACTORS
330
72
102
}
100
AcDbEntity
  8
0
370
              -2
390
0
  6
Continuous
 62
               0
100
AcDbCircle
 10
901.98886783037005
 20
585.0
 30
0.0
 40
1.9998779296875
  0
HATCH
  5
72
100
AcDbEntity
  8
0
370
              -2
390
0
  6
Continuous
 62
               0
100
AcDbHatch
 10
0.0
 20
0.0
 30
0.0
210
0.0
220
0.0
230
1.0
  2
SOLID
 70
               1
 71
               1
 91
        1
 92
        1
 93
        1
 72
               2
 10
901.98886783037005
 20
585.0
 40
1.9998779296875
 50
0.0
 51
360.0
 73
               0
 97
        1
330
71
 75
               0
 76
               1
 98
        1
 10
0.0
 20
0.0
  0
MTEXT
  5
73
100
AcDbEntity
  8
0
390
0
 62
               0
100
AcDbMText
 10
868.11125064287
 20
606.0
 30
0.0
 40
24.432617187500004
 41
0.0
 71
               1
 72
               1
  1
20
  7
ＭＳ ゴシック
 11
0.0
 21
1.0
 31
0.0
 73
               1
 44
0.7828267384257843
  0
POINT
  5
74
100
AcDbEntity
  8
Defpoints
370
               0
390
0
 62
               0
100
AcDbPoint
 10
782.72848777509694
 20
585.0
 30
0.0
  0
POINT
  5
75
100
AcDbEntity
  8
Defpoints
370
               0
390
0
 62
               0
100
AcDbPoint
 10
789.73443395565243
 20
565.0
 30
0.0
  0
POINT
  5
76
100
AcDbEntity
  8
Defpoints
370
               0
390
0
 62
               0
100
AcDbPoint
 10
901.98886783037005
 20
565.0
 30
0.0
  0
ENDBLK
  5
77
100
AcDbEntity
  8
template
390
0
100
AcDbBlockEnd
  0
BLOCK
  5
78
100
AcDbEntity
  8
template
390
0
100
AcDbBlockBegin
  2
*D5
 70
               1
 10
0.0
 20
0.0
 30
0.0
  3
*D5
  1

  0
LINE
  5
79
100
AcDbEntity
  8
0
370
              -2
390
0
  6
Continuous
 62
               0
100
AcDbLine
 10
597.6592452202467
 20
159.99791666666667
 30
0.0
 11
901.98886783037005
 21
159.99791666666667
 31
0.0
  0
LINE
  5
7A
100
AcDbEntity
  8
0
370
              -2
390
0
  6
Continuous
 62
               0
100
AcDbLine
 10
867.98886783037005
 20
565.0
 30
0.0
 11
901.98886783037005
 21
565.0
 31
0.0
  0
LINE
  5
7B
100
AcDbEntity
  8
0
370
              -2
390
0
  6
Continuous
 62
               0
100
AcDbLine
 10
901.98886783037005
 20
159.99791666666667
 30
0.0
 11
901.98886783037005
 21
565.0
 31
0.0
  0
CIRCLE
  5
7C
102
{ACAD_REACTORS
330
7D
102
}
100
AcDbEntity
  8
0
370
              -2
390
0
  6
Continuous
 62
               0
100
AcDbCircle
 10
901.98886783037005
 20
159.99791666666667
 30
0.0
 40
1.9998779296875
  0
HATCH
  5
7D
100
AcDbEntity
  8
0
370
              -2
390
0
  6
Continuous
 62
               0
100
AcDbHatch
 10
0.0
 20
0.0
 30
0.0
210
0.0
220
0.0
230
1.0
  2
SOLID
 70
               1
 71
               1
 91
        1
 92
        1
 93
        1
 72
               2
 10
901.98886783037005
 20
159.99791666666667
 40
1.9998779296875
 50
0.0
 51
360.0
 73
               0
 97
        1
330
7C
 75
               0
 76
               1
 98
        1
 10
0.0
 20
0.0
  0
CIRCLE
  5
7E
102
{ACAD_REACTORS
330
7F
102
}
100
AcDbEntity
  8
0
370
              -2
390
0
  6
Continuous
 62
               0
100
AcDbCircle
 10
901.98886783037005
 20
565.0
 30
0.0
 40
1.9998779296875
  0
HATCH
  5
7F
100
AcDbEntity
  8
0
370
              -2
390
0
  6
Continuous
 62
               0
100
AcDbHatch
 10
0.0
 20
0.0
 30
0.0
210
0.0
220
0.0
230
1.0
  2
SOLID
 70
               1
 71
               1
 91
        1
 92
        1
 93
        1
 72
               2
 10
901.98886783037005
 20
565.0
 40
1.9998779296875
 50
0.0
 51
360.0
 73
               0
 97
        1
330
7E
 75
               0
 76
               1
 98
        1
 10
0.0
 20
0.0
  0
MTEXT
  5
80
100
AcDbEntity
  8
0
390
0
 62
               0
100
AcDbMText
 10
868.11125064287
 20
338.68645665115787
 30
0.0
 40
24.432617187500004
 41
0.0
 71
               1
 72
               1
  1
405
  7
ＭＳ ゴシック
 11
0.0
 21
1.0
 31
0.0
 73
               1
 44
0.7828267384257843
  0
POINT
  5
81
100
AcDbEntity
  8
Defpoints
370
               0
390
0
 62
               0
100
AcDbPoint
 10
842.98886783037005
 20
565.0
 30
0.0
  0
POINT
  5
82
100
AcDbEntity
  8
Defpoints
370
               0
390
0
 62
               0
100
AcDbPoint
 10
572.6592452202467
 20
159.99791666666667
 30
0.0
  0
POINT
  5
83
100
AcDbEntity
  8
Defpoints
370
               0
390
0
 62
               0
100
AcDbPoint
 10
901.98886783037005
 20
159.99791666666667
 30
0.0
  0
ENDBLK
  5
84
100
AcDbEntity
  8
template
390
0
100
AcDbBlockEnd
  0
BLOCK
  5
85
100
AcDbEntity
  8
notes
390
0
100
AcDbBlockBegin
  2
*D6
 70
               1
 10
0.0
 20
0.0
 30
0.0
  3
*D6
  1

  0
LINE
  5
86
100
AcDbEntity
  8
0
370
              -2
390
0
  6
Continuous
 62
               0
100
AcDbLine
 10
-719.27988896101385
 20
602.99956597222217
 30
0.0
 11
-719.27988896101385
 21
735.0
 31
0.0
  0
LINE
  5
87
100
AcDbEntity
  8
0
370
              -2
390
0
  6
Continuous
 62
               0
100
AcDbLine
 10
-159.27272750268074
 20
602.99956597222217
 30
0.0
 11
-159.27272750268074
 21
735.0
 31
0.0
  0
LINE
  5
88
100
AcDbEntity
  8
0
370
              -2
390
0
  6
Continuous
 62
               0
100
AcDbLine
 10
-719.27988896101385
 20
735.0
 30
0.0
 11
-159.27272750268074
 21
735.0
 31
0.0
  0
CIRCLE
  5
89
102
{ACAD_REACTORS
330
8A
102
}
100
AcDbEntity
  8
0
370
              -2
390
0
  6
Continuous
 62
               0
100
AcDbCircle
 10
-719.27988896101385
 20
735.0
 30
0.0
 40
1.9998779296875
  0
HATCH
  5
8A
100
AcDbEntity
  8
0
370
              -2
390
0
  6
Continuous
 62
               0
100
AcDbHatch
 10
0.0
 20
0.0
 30
0.0
210
0.0
220
0.0
230
1.0
  2
SOLID
 70
               1
 71
               1
 91
        1
 92
        1
 93
        1
 72
               2
 10
-719.27988896101385
 20
735.0
 40
1.9998779296875
 50
0.0
 51
360.0
 73
               0
 97
        1
330
89
 75
               0
 76
               1
 98
        1
 10
0.0
 20
0.0
  0
CIRCLE
  5
8B
102
{ACAD_REACTORS
330
8C
102
}
100
AcDbEntity
  8
0
370
              -2
390
0
  6
Continuous
 62
               0
100
AcDbCircle
 10
-159.27272750268074
 20
735.0
 30
0.0
 40
1.9998779296875
  0
HATCH
  5
8C
100
AcDbEntity
  8
0
370
              -2
390
0
  6
Continuous
 62
               0
100
AcDbHatch
 10
0.0
 20
0.0
 30
0.0
210
0.0
220
0.0
230
1.0
  2
SOLID
 70
               1
 71
               1
 91
        1
 92
        1
 93
        1
 72
               2
 10
-159.27272750268074
 20
735.0
 40
1.9998779296875
 50
0.0
 51
360.0
 73
               0
 97
        1
330
8B
 75
               0
 76
               1
 98
        1
 10
0.0
 20
0.0
  0
MTEXT
  5
8D
100
AcDbEntity
  8
0
390
0
 62
               0
100
AcDbMText
 10
-463.08880991402282
 20
768.87761718750005
 30
0.0
 40
24.432617187500004
 41
0.0
 71
               1
 72
               1
  1
560
  7
ＭＳ ゴシック
 73
               1
 44
0.7828267384257843
  0
POINT
  5
8E
100
AcDbEntity
  8
Defpoints
370
               0
390
0
 62
               0
100
AcDbPoint
 10
-159.27272750268074
 20
577.99956597222217
 30
0.0
  0
POINT
  5
8F
100
AcDbEntity
  8
Defpoints
370
               0
390
0
 62
               0
100
AcDbPoint
 10
-719.27988896101385
 20
577.99956597222217
 30
0.0
  0
POINT
  5
90
100
AcDbEntity
  8
Defpoints
370
               0
390
0
 62
               0
100
AcDbPoint
 10
-719.27988896101385
 20
735.0
 30
0.0
  0
ENDBLK
  5
91
100
AcDbEntity
  8
notes
390
0
100
AcDbBlockEnd
  0
BLOCK
  5
92
100
AcDbEntity
  8
notes
390
0
100
AcDbBlockBegin
  2
*D7
 70
               1
 10
0.0
 20
0.0
 30
0.0
  3
*D7
  1

  0
LINE
  5
93
100
AcDbEntity
  8
0
370
              -2
390
0
  6
Continuous
 62
               0
100
AcDbLine
 10
-539.27355215545833
 20
572.49832900000001
 30
0.0
 11
-539.27355215545833
 21
685.0
 31
0.0
  0
LINE
  5
94
100
AcDbEntity
  8
0
370
              -2
390
0
  6
Continuous
 62
               0
100
AcDbLine
 10
-439.27355215545833
 20
572.49832900000001
 30
0.0
 11
-439.27355215545833
 21
685.0
 31
0.0
  0
LINE
  5
95
100
AcDbEntity
  8
0
370
              -2
390
0
  6
Continuous
 62
               0
100
AcDbLine
 10
-539.27355215545833
 20
685.0
 30
0.0
 11
-439.27355215545833
 21
685.0
 31
0.0
  0
CIRCLE
  5
96
102
{ACAD_REACTORS
330
97
102
}
100
AcDbEntity
  8
0
370
              -2
390
0
  6
Continuous
 62
               0
100
AcDbCircle
 10
-539.27355215545833
 20
685.0
 30
0.0
 40
1.9998779296875
  0
HATCH
  5
97
100
AcDbEntity
  8
0
370
              -2
390
0
  6
Continuous
 62
               0
100
AcDbHatch
 10
0.0
 20
0.0
 30
0.0
210
0.0
220
0.0
230
1.0
  2
SOLID
 70
               1
 71
               1
 91
        1
 92
        1
 93
        1
 72
               2
 10
-539.27355215545833
 20
685.0
 40
1.9998779296875
 50
0.0
 51
360.0
 73
               0
 97
        1
330
96
 75
               0
 76
               1
 98
        1
 10
0.0
 20
0.0
  0
CIRCLE
  5
98
102
{ACAD_REACTORS
330
99
102
}
100
AcDbEntity
  8
0
370
              -2
390
0
  6
Continuous
 62
               0
100
AcDbCircle
 10
-439.27355215545833
 20
685.0
 30
0.0
 40
1.9998779296875
  0
HATCH
  5
99
100
AcDbEntity
  8
0
370
              -2
390
0
  6
Continuous
 62
               0
100
AcDbHatch
 10
0.0
 20
0.0
 30
0.0
210
0.0
220
0.0
230
1.0
  2
SOLID
 70
               1
 71
               1
 91
        1
 92
        1
 93
        1
 72
               2
 10
-439.27355215545833
 20
685.0
 40
1.9998779296875
 50
0.0
 51
360.0
 73
               0
 97
        1
330
98
 75
               0
 76
               1
 98
        1
 10
0.0
 20
0.0
  0
MTEXT
  5
9A
100
AcDbEntity
  8
0
390
0
 62
               0
100
AcDbMText
 10
-513.08605383763381
 20
718.87761718750005
 30
0.0
 40
24.432617187500004
 41
0.0
 71
               1
 72
               1
  1
100
  7
ＭＳ ゴシック
 73
               1
 44
0.7828267384257843
  0
POINT
  5
9B
100
AcDbEntity
  8
Defpoints
370
               0
390
0
 62
               0
100
AcDbPoint
 10
-439.27355215545833
 20
547.49832900000001
 30
0.0
  0
POINT
  5
9C
100
AcDbEntity
  8
Defpoints
370
               0
390
0
 62
               0
100
AcDbPoint
 10
-539.27355215545833
 20
547.49832900000001
 30
0.0
  0
POINT
  5
9D
100
AcDbEntity
  8
Defpoints
370
               0
390
0
 62
               0
100
AcDbPoint
 10
-539.27355215545833
 20
685.0
 30
0.0
  0
ENDBLK
  5
9E
100
AcDbEntity
  8
notes
390
0
100
AcDbBlockEnd
  0
BLOCK
  5
9F
100
AcDbEntity
  8
notes
390
0
100
AcDbBlockBegin
  2
*D8
 70
               1
 10
0.0
 20
0.0
 30
0.0
  3
*D8
  1

  0
LINE
  5
A0
100
AcDbEntity
  8
0
370
              -2
390
0
  6
Continuous
 62
               0
100
AcDbLine
 10
-439.27355215545833
 20
572.49832900000001
 30
0.0
 11
-439.27355215545833
 21
685.0
 31
0.0
  0
LINE
  5
A1
100
AcDbEntity
  8
0
370
              -2
390
0
  6
Continuous
 62
               0
100
AcDbLine
 10
-339.27355215545833
 20
572.49832900000001
 30
0.0
 11
-339.27355215545833
 21
685.0
 31
0.0
  0
LINE
  5
A2
100
AcDbEntity
  8
0
370
              -2
390
0
  6
Continuous
 62
               0
100
AcDbLine
 10
-439.27355215545833
 20
685.0
 30
0.0
 11
-339.27355215545833
 21
685.0
 31
0.0
  0
CIRCLE
  5
A3
102
{ACAD_REACTORS
330
A4
102
}
100
AcDbEntity
  8
0
370
              -2
390
0
  6
Continuous
 62
               0
100
AcDbCircle
 10
-439.27355215545833
 20
685.0
 30
0.0
 40
1.9998779296875
  0
HATCH
  5
A4
100
AcDbEntity
  8
0
370
              -2
390
0
  6
Continuous
 62
               0
100
AcDbHatch
 10
0.0
 20
0.0
 30
0.0
210
0.0
220
0.0
230
1.0
  2
SOLID
 70
               1
 71
               1
 91
        1
 92
        1
 93
        1
 72
               2
 10
-439.27355215545833
 20
685.0
 40
1.9998779296875
 50
0.0
 51
360.0
 73
               0
 97
        1
330
A3
 75
               0
 76
               1
 98
        1
 10
0.0
 20
0.0
  0
CIRCLE
  5
A5
102
{ACAD_REACTORS
330
A6
102
}
100
AcDbEntity
  8
0
370
              -2
390
0
  6
Continuous
 62
               0
100
AcDbCircle
 10
-339.27355215545833
 20
685.0
 30
0.0
 40
1.9998779296875
  0
HATCH
  5
A6
100
AcDbEntity
  8
0
370
              -2
390
0
  6
Continuous
 62
               0
100
AcDbHatch
 10
0.0
 20
0.0
 30
0.0
210
0.0
220
0.0
230
1.0
  2
SOLID
 70
               1
 71
               1
 91
        1
 92
        1
 93
        1
 72
               2
 10
-339.27355215545833
 20
685.0
 40
1.9998779296875
 50
0.0
 51
360.0
 73
               0
 97
        1
330
A5
 75
               0
 76
               1
 98
        1
 10
0.0
 20
0.0
  0
MTEXT
  5
A7
100
AcDbEntity
  8
0
390
0
 62
               0
100
AcDbMText
 10
-413.08605383763393
 20
718.87761718750005
 30
0.0
 40
24.432617187500004
 41
0.0
 71
               1
 72
               1
  1
100
  7
ＭＳ ゴシック
 73
               1
 44
0.7828267384257843
  0
POINT
  5
A8
100
AcDbEntity
  8
Defpoints
370
               0
390
0
 62
               0
100
AcDbPoint
 10
-339.27355215545833
 20
547.49832900000001
 30
0.0
  0
POINT
  5
A9
100
AcDbEntity
  8
Defpoints
370
               0
390
0
 62
               0
100
AcDbPoint
 10
-439.27355215545833
 20
547.49832900000001
 30
0.0
  0
POINT
  5
AA
100
AcDbEntity
  8
Defpoints
370
               0
390
0
 62
               0
100
AcDbPoint
 10
-439.27355215545833
 20
685.0
 30
0.0
  0
ENDBLK
  5
AB
100
AcDbEntity
  8
notes
390
0
100
AcDbBlockEnd
  0
BLOCK
  5
AC
100
AcDbEntity
  8
notes
390
0
100
AcDbBlockBegin
  2
*D9
 70
               1
 10
0.0
 20
0.0
 30
0.0
  3
*D9
  1

  0
LINE
  5
AD
100
AcDbEntity
  8
0
370
              -2
390
0
  6
Continuous
 62
               0
100
AcDbLine
 10
-746.27630823184745
 20
184.99791666666673
 30
0.0
 11
-819.27988896101397
 21
184.99791666666673
 31
0.0
  0
LINE
  5
AE
100
AcDbEntity
  8
0
370
              -2
390
0
  6
Continuous
 62
               0
100
AcDbLine
 10
-706.27630823184757
 20
144.99791666666673
 30
0.0
 11
-819.27988896101397
 21
144.99791666666673
 31
0.0
  0
LINE
  5
AF
100
AcDbEntity
  8
0
370
              -2
390
0
  6
Continuous
 62
               0
100
AcDbLine
 10
-819.27988896101397
 20
184.99791666666673
 30
0.0
 11
-819.27988896101397
 21
144.99791666666673
 31
0.0
  0
CIRCLE
  5
B0
102
{ACAD_REACTORS
330
B1
102
}
100
AcDbEntity
  8
0
370
              -2
390
0
  6
Continuous
 62
               0
100
AcDbCircle
 10
-819.27988896101397
 20
184.99791666666673
 30
0.0
 40
1.9998779296875
  0
HATCH
  5
B1
100
AcDbEntity
  8
0
370
              -2
390
0
  6
Continuous
 62
               0
100
AcDbHatch
 10
0.0
 20
0.0
 30
0.0
210
0.0
220
0.0
230
1.0
  2
SOLID
 70
               1
 71
               1
 91
        1
 92
        1
 93
        1
 72
               2
 10
-819.27988896101397
 20
184.99791666666673
 40
1.9998779296875
 50
0.0
 51
360.0
 73
               0
 97
        1
330
B0
 75
               0
 76
               1
 98
        1
 10
0.0
 20
0.0
  0
CIRCLE
  5
B2
102
{ACAD_REACTORS
330
B3
102
}
100
AcDbEntity
  8
0
370
              -2
390
0
  6
Continuous
 62
               0
100
AcDbCircle
 10
-819.27988896101397
 20
144.99791666666673
 30
0.0
 40
1.9998779296875
  0
HATCH
  5
B3
100
AcDbEntity
  8
0
370
              -2
390
0
  6
Continuous
 62
               0
100
AcDbHatch
 10
0.0
 20
0.0
 30
0.0
210
0.0
220
0.0
230
1.0
  2
SOLID
 70
               1
 71
               1
 91
        1
 92
        1
 93
        1
 72
               2
 10
-819.27988896101397
 20
144.99791666666673
 40
1.9998779296875
 50
0.0
 51
360.0
 73
               0
 97
        1
330
B2
 75
               0
 76
               1
 98
        1
 10
0.0
 20
0.0
  0
MTEXT
  5
B4
100
AcDbEntity
  8
0
390
0
 62
               0
100
AcDbMText
 10
-853.15750614851402
 20
149.12291666666673
 30
0.0
 40
24.432617187500004
 41
0.0
 71
               1
 72
               1
  1
40
  7
ＭＳ ゴシック
 11
0.0
 21
1.0
 31
0.0
 73
               1
 44
0.7828267384257843
  0
POINT
  5
B5
100
AcDbEntity
  8
Defpoints
370
               0
390
0
 62
               0
100
AcDbPoint
 10
-681.27630823184757
 20
144.99791666666673
 30
0.0
  0
POINT
  5
B6
100
AcDbEntity
  8
Defpoints
370
               0
390
0
 62
               0
100
AcDbPoint
 10
-721.27630823184745
 20
184.99791666666673
 30
0.0
  0
POINT
  5
B7
100
AcDbEntity
  8
Defpoints
370
               0
390
0
 62
               0
100
AcDbPoint
 10
-819.27988896101397
 20
184.99791666666673
 30
0.0
  0
ENDBLK
  5
B8
100
AcDbEntity
  8
notes
390
0
100
AcDbBlockEnd
  0
BLOCK
  5
B9
100
AcDbEntity
  8
notes
390
0
100
AcDbBlockBegin
  2
*D10
 70
               1
 10
0.0
 20
0.0
 30
0.0
  3
*D10
  1

  0
LINE
  5
BA
100
AcDbEntity
  8
0
370
              -2
390
0
  6
Continuous
 62
               0
100
AcDbLine
 10
-749.27630823184745
 20
184.99791666666673
 30
0.0
 11
-819.27988896101397
 21
184.99791666666673
 31
0.0
  0
LINE
  5
BB
100
AcDbEntity
  8
0
370
              -2
390
0
  6
Continuous
 62
               0
100
AcDbLine
 10
-744.27988896101385
 20
485.0
 30
0.0
 11
-819.27988896101397
 21
485.0
 31
0.0
  0
LINE
  5
BC
100
AcDbEntity
  8
0
370
              -2
390
0
  6
Continuous
 62
               0
100
AcDbLine
 10
-819.27988896101397
 20
184.99791666666673
 30
0.0
 11
-819.27988896101397
 21
485.0
 31
0.0
  0
CIRCLE
  5
BD
102
{ACAD_REACTORS
330
BE
102
}
100
AcDbEntity
  8
0
370
              -2
390
0
  6
Continuous
 62
               0
100
AcDbCircle
 10
-819.27988896101397
 20
184.99791666666673
 30
0.0
 40
1.9998779296875
  0
HATCH
  5
BE
100
AcDbEntity
  8
0
370
              -2
390
0
  6
Continuous
 62
               0
100
AcDbHatch
 10
0.0
 20
0.0
 30
0.0
210
0.0
220
0.0
230
1.0
  2
SOLID
 70
               1
 71
               1
 91
        1
 92
        1
 93
        1
 72
               2
 10
-819.27988896101397
 20
184.99791666666673
 40
1.9998779296875
 50
0.0
 51
360.0
 73
               0
 97
        1
330
BD
 75
               0
 76
               1
 98
        1
 10
0.0
 20
0.0
  0
CIRCLE
  5
BF
102
{ACAD_REACTORS
330
C0
102
}
100
AcDbEntity
  8
0
370
              -2
390
0
  6
Continuous
 62
               0
100
AcDbCircle
 10
-819.27988896101397
 20
485.0
 30
0.0
 40
1.9998779296875
  0
HATCH
  5
C0
100
AcDbEntity
  8
0
370
              -2
390
0
  6
Continuous
 62
               0
100
AcDbHatch
 10
0.0
 20
0.0
 30
0.0
210
0.0
220
0.0
230
1.0
  2
SOLID
 70
               1
 71
               1
 91
        1
 92
        1
 93
        1
 72
               2
 10
-819.27988896101397
 20
485.0
 40
1.9998779296875
 50
0.0
 51
360.0
 73
               0
 97
        1
330
BF
 75
               0
 76
               1
 98
        1
 10
0.0
 20
0.0
  0
MTEXT
  5
C1
100
AcDbEntity
  8
0
390
0
 62
               0
100
AcDbMText
 10
-853.15750614851402
 20
311.18645665115787
 30
0.0
 40
24.432617187500004
 41
0.0
 71
               1
 72
               1
  1
300
  7
ＭＳ ゴシック
 11
0.0
 21
1.0
 31
0.0
 73
               1
 44
0.7828267384257843
  0
POINT
  5
C2
100
AcDbEntity
  8
Defpoints
370
               0
390
0
 62
               0
100
AcDbPoint
 10
-719.27988896101385
 20
485.0
 30
0.0
  0
POINT
  5
C3
100
AcDbEntity
  8
Defpoints
370
               0
390
0
 62
               0
100
AcDbPoint
 10
-724.27630823184745
 20
184.99791666666673
 30
0.0
  0
POINT
  5
C4
100
AcDbEntity
  8
Defpoints
370
               0
390
0
 62
               0
100
AcDbPoint
 10
-819.27988896101397
 20
184.99791666666673
 30
0.0
  0
ENDBLK
  5
C5
100
AcDbEntity
  8
notes
390
0
100
AcDbBlockEnd
  0
BLOCK
  5
C6
100
AcDbEntity
  8
notes
390
0
100
AcDbBlockBegin
  2
*D11
 70
               1
 10
0.0
 20
0.0
 30
0.0
  3
*D11
  1

  0
LINE
  5
C7
100
AcDbEntity
  8
0
370
              -2
390
0
  6
Continuous
 62
               0
100
AcDbLine
 10
-744.27988896101385
 20
485.0
 30
0.0
 11
-819.27988896101397
 21
485.0
 31
0.0
  0
LINE
  5
C8
100
AcDbEntity
  8
0
370
              -2
390
0
  6
Continuous
 62
               0
100
AcDbLine
 10
-736.17971840164057
 20
585.0
 30
0.0
 11
-819.27988896101397
 21
585.0
 31
0.0
  0
LINE
  5
C9
100
AcDbEntity
  8
0
370
              -2
390
0
  6
Continuous
 62
               0
100
AcDbLine
 10
-819.27988896101397
 20
485.0
 30
0.0
 11
-819.27988896101397
 21
585.0
 31
0.0
  0
CIRCLE
  5
CA
102
{ACAD_REACTORS
330
CB
102
}
100
AcDbEntity
  8
0
370
              -2
390
0
  6
Continuous
 62
               0
100
AcDbCircle
 10
-819.27988896101397
 20
485.0
 30
0.0
 40
1.9998779296875
  0
HATCH
  5
CB
100
AcDbEntity
  8
0
370
              -2
390
0
  6
Continuous
 62
               0
100
AcDbHatch
 10
0.0
 20
0.0
 30
0.0
210
0.0
220
0.0
230
1.0
  2
SOLID
 70
               1
 71
               1
 91
        1
 92
        1
 93
        1
 72
               2
 10
-819.27988896101397
 20
485.0
 40
1.9998779296875
 50
0.0
 51
360.0
 73
               0
 97
        1
330
CA
 75
               0
 76
               1
 98
        1
 10
0.0
 20
0.0
  0
CIRCLE
  5
CC
102
{ACAD_REACTORS
330
CD
102
}
100
AcDbEntity
  8
0
370
              -2
390
0
  6
Continuous
 62
               0
100
AcDbCircle
 10
-819.27988896101397
 20
585.0
 30
0.0
 40
1.9998779296875
  0
HATCH
  5
CD
100
AcDbEntity
  8
0
370
              -2
390
0
  6
Continuous
 62
               0
100
AcDbHatch
 10
0.0
 20
0.0
 30
0.0
210
0.0
220
0.0
230
1.0
  2
SOLID
 70
               1
 71
               1
 91
        1
 92
        1
 93
        1
 72
               2
 10
-819.27988896101397
 20
585.0
 40
1.9998779296875
 50
0.0
 51
360.0
 73
               0
 97
        1
330
CC
 75
               0
 76
               1
 98
        1
 10
0.0
 20
0.0
  0
MTEXT
  5
CE
100
AcDbEntity
  8
0
390
0
 62
               0
100
AcDbMText
 10
-853.15750614851402
 20
511.18749831782452
 30
0.0
 40
24.432617187500004
 41
0.0
 71
               1
 72
               1
  1
100
  7
ＭＳ ゴシック
 11
0.0
 21
1.0
 31
0.0
 73
               1
 44
0.7828267384257843
  0
POINT
  5
CF
100
AcDbEntity
  8
Defpoints
370
               0
390
0
 62
               0
100
AcDbPoint
 10
-711.17971840164057
 20
585.0
 30
0.0
  0
POINT
  5
D0
100
AcDbEntity
  8
Defpoints
370
               0
390
0
 62
               0
100
AcDbPoint
 10
-719.27988896101385
 20
485.0
 30
0.0
  0
POINT
  5
D1
100
AcDbEntity
  8
Defpoints
370
               0
390
0
 62
               0
100
AcDbPoint
 10
-819.27988896101397
 20
485.0
 30
0.0
  0
ENDBLK
  5
D2
100
AcDbEntity
  8
notes
390
0
100
AcDbBlockEnd
  0
BLOCK
  5
D3
100
AcDbEntity
  8
notes
390
0
100
AcDbBlockBegin
  2
*D12
 70
               1
 10
0.0
 20
0.0
 30
0.0
  3
*D12
  1

  0
LINE
  5
D4
100
AcDbEntity
  8
0
370
              -2
390
0
  6
Continuous
 62
               0
100
AcDbLine
 10
-141.27272750268074
 20
585.0
 30
0.0
 11
-59.272727502680738
 21
585.0
 31
0.0
  0
LINE
  5
D5
100
AcDbEntity
  8
0
370
              -2
390
0
  6
Continuous
 62
               0
100
AcDbLine
 10
-177.36618435776222
 20
145.03737285629936
 30
0.0
 11
-59.272727502680738
 21
145.03737285629936
 31
0.0
  0
LINE
  5
D6
100
AcDbEntity
  8
0
370
              -2
390
0
  6
Continuous
 62
               0
100
AcDbLine
 10
-59.272727502680738
 20
585.0
 30
0.0
 11
-59.272727502680738
 21
145.03737285629936
 31
0.0
  0
CIRCLE
  5
D7
102
{ACAD_REACTORS
330
D8
102
}
100
AcDbEntity
  8
0
370
              -2
390
0
  6
Continuous
 62
               0
100
AcDbCircle
 10
-59.272727502680738
 20
585.0
 30
0.0
 40
1.9998779296875
  0
HATCH
  5
D8
100
AcDbEntity
  8
0
370
              -2
390
0
  6
Continuous
 62
               0
100
AcDbHatch
 10
0.0
 20
0.0
 30
0.0
210
0.0
220
0.0
230
1.0
  2
SOLID
 70
               1
 71
               1
 91
        1
 92
        1
 93
        1
 72
               2
 10
-59.272727502680738
 20
585.0
 40
1.9998779296875
 50
0.0
 51
360.0
 73
               0
 97
        1
330
D7
 75
               0
 76
               1
 98
        1
 10
0.0
 20
0.0
  0
CIRCLE
  5
D9
102
{ACAD_REACTORS
330
DA
102
}
100
AcDbEntity
  8
0
370
              -2
390
0
  6
Continuous
 62
               0
100
AcDbCircle
 10
-59.272727502680738
 20
145.03737285629936
 30
0.0
 40
1.9998779296875
  0
HATCH
  5
DA
100
AcDbEntity
  8
0
370
              -2
390
0
  6
Continuous
 62
               0
100
AcDbHatch
 10
0.0
 20
0.0
 30
0.0
210
0.0
220
0.0
230
1.0
  2
SOLID
 70
               1
 71
               1
 91
        1
 92
        1
 93
        1
 72
               2
 10
-59.272727502680738
 20
145.03737285629936
 40
1.9998779296875
 50
0.0
 51
360.0
 73
               0
 97
        1
330
D9
 75
               0
 76
               1
 98
        1
 10
0.0
 20
0.0
  0
MTEXT
  5
DB
100
AcDbEntity
  8
0
390
0
 62
               0
100
AcDbMText
 10
-93.150344690180745
 20
341.20618474597416
 30
0.0
 40
24.432617187500004
 41
0.0
 71
               1
 72
               1
  1
440
  7
ＭＳ ゴシック
 11
0.0
 21
1.0
 31
0.0
 73
               1
 44
0.7828267384257843
  0
POINT
  5
DC
100
AcDbEntity
  8
Defpoints
370
               0
390
0
 62
               0
100
AcDbPoint
 10
-202.36618435776222
 20
145.03737285629936
 30
0.0
  0
POINT
  5
DD
100
AcDbEntity
  8
Defpoints
370
               0
390
0
 62
               0
100
AcDbPoint
 10
-166.27272750268074
 20
585.0
 30
0.0
  0
POINT
  5
DE
100
AcDbEntity
  8
Defpoints
370
               0
390
0
 62
               0
100
AcDbPoint
 10
-59.272727502680738
 20
585.0
 30
0.0
  0
ENDBLK
  5
DF
100
AcDbEntity
  8
notes
390
0
100
AcDbBlockEnd
  0
BLOCK
  5
E0
100
AcDbEntity
  8
notes
390
0
100
AcDbBlockBegin
  2
*D13
 70
               1
 10
0.0
 20
0.0
 30
0.0
  3
*D13
  1

  0
LINE
  5
E1
100
AcDbEntity
  8
0
370
              -2
390
0
  6
Continuous
 62
               0
100
AcDbLine
 10
-97.38802698184756
 20
-574.87981770833323
 30
0.0
 11
-59.272727502680738
 21
-574.87981770833323
 31
0.0
  0
LINE
  5
E2
100
AcDbEntity
  8
0
370
              -2
390
0
  6
Continuous
 62
               0
100
AcDbLine
 10
-202.27272750268074
 20
-554.87981770833323
 30
0.0
 11
-59.272727502680738
 21
-554.87981770833323
 31
0.0
  0
LINE
  5
E3
100
AcDbEntity
  8
0
370
              -2
390
0
  6
Continuous
 62
               0
100
AcDbLine
 10
-59.272727502680738
 20
-554.87981770833323
 30
0.0
 11
-59.272727502680738
 21
-516.2520833333333
 31
0.0
  0
LINE
  5
E4
100
AcDbEntity
  8
0
370
              -2
390
0
  6
Continuous
 62
               0
100
AcDbLine
 10
-59.272727502680738
 20
-574.87981770833323
 30
0.0
 11
-59.272727502680738
 21
-554.87981770833323
 31
0.0
  0
CIRCLE
  5
E5
102
{ACAD_REACTORS
330
E6
102
}
100
AcDbEntity
  8
0
370
              -2
390
0
  6
Continuous
 62
               0
100
AcDbCircle
 10
-59.272727502680738
 20
-574.87981770833323
 30
0.0
 40
1.9998779296875
  0
HATCH
  5
E6
100
AcDbEntity
  8
0
370
              -2
390
0
  6
Continuous
 62
               0
100
AcDbHatch
 10
0.0
 20
0.0
 30
0.0
210
0.0
220
0.0
230
1.0
  2
SOLID
 70
               1
 71
               1
 91
        1
 92
        1
 93
        1
 72
               2
 10
-59.272727502680738
 20
-574.87981770833323
 40
1.9998779296875
 50
0.0
 51
360.0
 73
               0
 97
        1
330
E5
 75
               0
 76
               1
 98
        1
 10
0.0
 20
0.0
  0
CIRCLE
  5
E7
102
{ACAD_REACTORS
330
E8
102
}
100
AcDbEntity
  8
0
370
              -2
390
0
  6
Continuous
 62
               0
100
AcDbCircle
 10
-59.272727502680738
 20
-554.87981770833323
 30
0.0
 40
1.9998779296875
  0
HATCH
  5
E8
100
AcDbEntity
  8
0
370
              -2
390
0
  6
Continuous
 62
               0
100
AcDbHatch
 10
0.0
 20
0.0
 30
0.0
210
0.0
220
0.0
230
1.0
  2
SOLID
 70
               1
 71
               1
 91
        1
 92
        1
 93
        1
 72
               2
 10
-59.272727502680738
 20
-554.87981770833323
 40
1.9998779296875
 50
0.0
 51
360.0
 73
               0
 97
        1
330
E7
 75
               0
 76
               1
 98
        1
 10
0.0
 20
0.0
  0
MTEXT
  5
E9
100
AcDbEntity
  8
0
390
0
 62
               0
100
AcDbMText
 10
-93.150344690180745
 20
-548.0020833333333
 30
0.0
 40
24.432617187500004
 41
0.0
 71
               1
 72
               1
  1
20
  7
ＭＳ ゴシック
 11
0.0
 21
1.0
 31
0.0
 73
               1
 44
0.7828267384257843
  0
POINT
  5
EA
100
AcDbEntity
  8
Defpoints
370
               0
390
0
 62
               0
100
AcDbPoint
 10
-227.27272750268074
 20
-554.87981770833323
 30
0.0
  0
POINT
  5
EB
100
AcDbEntity
  8
Defpoints
370
               0
390
0
 62
               0
100
AcDbPoint
 10
-122.38802698184756
 20
-574.87981770833323
 30
0.0
  0
POINT
  5
EC
100
AcDbEntity
  8
Defpoints
370
               0
390
0
 62
               0
100
AcDbPoint
 10
-59.272727502680738
 20
-574.87981770833323
 30
0.0
  0
ENDBLK
  5
ED
100
AcDbEntity
  8
notes
390
0
100
AcDbBlockEnd
  0
BLOCK
  5
EE
100
AcDbEntity
  8
notes
390
0
100
AcDbBlockBegin
  2
*D14
 70
               1
 10
0.0
 20
0.0
 30
0.0
  3
*D14
  1

  0
LINE
  5
EF
100
AcDbEntity
  8
0
370
              -2
390
0
  6
Continuous
 62
               0
100
AcDbLine
 10
-133.46344172355273
 20
-574.87981770833323
 30
0.0
 11
-59.272727502680738
 21
-574.87981770833323
 31
0.0
  0
LINE
  5
F0
100
AcDbEntity
  8
0
370
              -2
390
0
  6
Continuous
 62
               0
100
AcDbLine
 10
-380.9241493032182
 20
-724.86944515755613
 30
0.0
 11
-59.272727502680738
 21
-724.86944515755613
 31
0.0
  0
LINE
  5
F1
100
AcDbEntity
  8
0
370
              -2
390
0
  6
Continuous
 62
               0
100
AcDbLine
 10
-59.272727502680738
 20
-574.87981770833323
 30
0.0
 11
-59.272727502680738
 21
-724.86944515755613
 31
0.0
  0
CIRCLE
  5
F2
102
{ACAD_REACTORS
330
F3
102
}
100
AcDbEntity
  8
0
370
              -2
390
0
  6
Continuous
 62
               0
100
AcDbCircle
 10
-59.272727502680738
 20
-574.87981770833323
 30
0.0
 40
1.9998779296875
  0
HATCH
  5
F3
100
AcDbEntity
  8
0
370
              -2
390
0
  6
Continuous
 62
               0
100
AcDbHatch
 10
0.0
 20
0.0
 30
0.0
210
0.0
220
0.0
230
1.0
  2
SOLID
 70
               1
 71
               1
 91
        1
 92
        1
 93
        1
 72
               2
 10
-59.272727502680738
 20
-574.87981770833323
 40
1.9998779296875
 50
0.0
 51
360.0
 73
               0
 97
        1
330
F2
 75
               0
 76
               1
 98
        1
 10
0.0
 20
0.0
  0
CIRCLE
  5
F4
102
{ACAD_REACTORS
330
F5
102
}
100
AcDbEntity
  8
0
370
              -2
390
0
  6
Continuous
 62
               0
100
AcDbCircle
 10
-59.272727502680738
 20
-724.86944515755613
 30
0.0
 40
1.9998779296875
  0
HATCH
  5
F5
100
AcDbEntity
  8
0
370
              -2
390
0
  6
Continuous
 62
               0
100
AcDbHatch
 10
0.0
 20
0.0
 30
0.0
210
0.0
220
0.0
230
1.0
  2
SOLID
 70
               1
 71
               1
 91
        1
 92
        1
 93
        1
 72
               2
 10
-59.272727502680738
 20
-724.86944515755613
 40
1.9998779296875
 50
0.0
 51
360.0
 73
               0
 97
        1
330
F4
 75
               0
 76
               1
 98
        1
 10
0.0
 20
0.0
  0
MTEXT
  5
F6
100
AcDbEntity
  8
0
390
0
 62
               0
100
AcDbMText
 10
-93.150344690180745
 20
-673.68713311512022
 30
0.0
 40
24.432617187500004
 41
0.0
 71
               1
 72
               1
  1
150
  7
ＭＳ ゴシック
 11
0.0
 21
1.0
 31
0.0
 73
               1
 44
0.7828267384257843
  0
POINT
  5
F7
100
AcDbEntity
  8
Defpoints
370
               0
390
0
 62
               0
100
AcDbPoint
 10
-405.9241493032182
 20
-724.86944515755613
 30
0.0
  0
POINT
  5
F8
100
AcDbEntity
  8
Defpoints
370
               0
390
0
 62
               0
100
AcDbPoint
 10
-158.46344172355273
 20
-574.87981770833323
 30
0.0
  0
POINT
  5
F9
100
AcDbEntity
  8
Defpoints
370
               0
390
0
 62
               0
100
AcDbPoint
 10
-59.272727502680738
 20
-574.87981770833323
 30
0.0
  0
ENDBLK
  5
FA
100
AcDbEntity
  8
notes
390
0
100
AcDbBlockEnd
  0
BLOCK
  5
FB
100
AcDbEntity
  8
notes
390
0
100
AcDbBlockBegin
  2
*D15
 70
               1
 10
0.0
 20
0.0
 30
0.0
  3
*D15
  1

  0
LINE
  5
FC
100
AcDbEntity
  8
0
370
              -2
390
0
  6
Continuous
 62
               0
100
AcDbLine
 10
-159.27988896101388
 20
157.95615478077551
 30
0.0
 11
-159.27988896101388
 21
44.997916666666725
 31
0.0
  0
LINE
  5
FD
100
AcDbEntity
  8
0
370
              -2
390
0
  6
Continuous
 62
               0
100
AcDbLine
 10
-199.27988896101388
 20
117.95615478077551
 30
0.0
 11
-199.27988896101388
 21
44.997916666666725
 31
0.0
  0
LINE
  5
FE
100
AcDbEntity
  8
0
370
              -2
390
0
  6
Continuous
 62
               0
100
AcDbLine
 10
-159.27988896101388
 20
44.997916666666725
 30
0.0
 11
-199.27988896101388
 21
44.997916666666725
 31
0.0
  0
CIRCLE
  5
FF
102
{ACAD_REACTORS
330
100
102
}
100
AcDbEntity
  8
0
370
              -2
390
0
  6
Continuous
 62
               0
100
AcDbCircle
 10
-159.27988896101388
 20
44.997916666666725
 30
0.0
 40
1.9998779296875
  0
HATCH
  5
100
100
AcDbEntity
  8
0
370
              -2
390
0
  6
Continuous
 62
               0
100
AcDbHatch
 10
0.0
 20
0.0
 30
0.0
210
0.0
220
0.0
230
1.0
  2
SOLID
 70
               1
 71
               1
 91
        1
 92
        1
 93
        1
 72
               2
 10
-159.27988896101388
 20
44.997916666666725
 40
1.9998779296875
 50
0.0
 51
360.0
 73
               0
 97
        1
330
FF
 75
               0
 76
               1
 98
        1
 10
0.0
 20
0.0
  0
CIRCLE
  5
101
102
{ACAD_REACTORS
330
102
102
}
100
AcDbEntity
  8
0
370
              -2
390
0
  6
Continuous
 62
               0
100
AcDbCircle
 10
-199.27988896101388
 20
44.997916666666725
 30
0.0
 40
1.9998779296875
  0
HATCH
  5
102
100
AcDbEntity
  8
0
370
              -2
390
0
  6
Continuous
 62
               0
100
AcDbHatch
 10
0.0
 20
0.0
 30
0.0
210
0.0
220
0.0
230
1.0
  2
SOLID
 70
               1
 71
               1
 91
        1
 92
        1
 93
        1
 72
               2
 10
-199.27988896101388
 20
44.997916666666725
 40
1.9998779296875
 50
0.0
 51
360.0
 73
               0
 97
        1
330
101
 75
               0
 76
               1
 98
        1
 10
0.0
 20
0.0
  0
MTEXT
  5
103
100
AcDbEntity
  8
0
390
0
 62
               0
100
AcDbMText
 10
-195.15488896101388
 20
78.875533854166719
 30
0.0
 40
24.432617187500004
 41
0.0
 71
               1
 72
               1
  1
40
  7
ＭＳ ゴシック
 73
               1
 44
0.7828267384257843
  0
POINT
  5
104
100
AcDbEntity
  8
Defpoints
370
               0
390
0
 62
               0
100
AcDbPoint
 10
-199.27988896101388
 20
142.95615478077551
 30
0.0
  0
POINT
  5
105
100
AcDbEntity
  8
Defpoints
370
               0
390
0
 62
               0
100
AcDbPoint
 10
-159.27988896101388
 20
182.95615478077551
 30
0.0
  0
POINT
  5
106
100
AcDbEntity
  8
Defpoints
370
               0
390
0
 62
               0
100
AcDbPoint
 10
-159.27988896101388
 20
44.997916666666725
 30
0.0
  0
ENDBLK
  5
107
100
AcDbEntity
  8
notes
390
0
100
AcDbBlockEnd
  0
BLOCK
  5
108
100
AcDbEntity
  8
notes
390
0
100
AcDbBlockBegin
  2
*D16
 70
               1
 10
0.0
 20
0.0
 30
0.0
  3
*D16
  1

  0
LINE
  5
109
100
AcDbEntity
  8
0
370
              -2
390
0
  6
Continuous
 62
               0
100
AcDbLine
 10
-719.27988896101385
 20
164.9991319444446
 30
0.0
 11
-719.27988896101385
 21
44.997916666666725
 31
0.0
  0
LINE
  5
10A
100
AcDbEntity
  8
0
370
              -2
390
0
  6
Continuous
 62
               0
100
AcDbLine
 10
-679.27988896101385
 20
119.99791666666673
 30
0.0
 11
-679.27988896101385
 21
44.997916666666725
 31
0.0
  0
LINE
  5
10B
100
AcDbEntity
  8
0
370
              -2
390
0
  6
Continuous
 62
               0
100
AcDbLine
 10
-719.27988896101385
 20
44.997916666666725
 30
0.0
 11
-679.27988896101385
 21
44.997916666666725
 31
0.0
  0
CIRCLE
  5
10C
102
{ACAD_REACTORS
330
10D
102
}
100
AcDbEntity
  8
0
370
              -2
390
0
  6
Continuous
 62
               0
100
AcDbCircle
 10
-719.27988896101385
 20
44.997916666666725
 30
0.0
 40
1.9998779296875
  0
HATCH
  5
10D
100
AcDbEntity
  8
0
370
              -2
390
0
  6
Continuous
 62
               0
100
AcDbHatch
 10
0.0
 20
0.0
 30
0.0
210
0.0
220
0.0
230
1.0
  2
SOLID
 70
               1
 71
               1
 91
        1
 92
        1
 93
        1
 72
               2
 10
-719.27988896101385
 20
44.997916666666725
 40
1.9998779296875
 50
0.0
 51
360.0
 73
               0
 97
        1
330
10C
 75
               0
 76
               1
 98
        1
 10
0.0
 20
0.0
  0
CIRCLE
  5
10E
102
{ACAD_REACTORS
330
10F
102
}
100
AcDbEntity
  8
0
370
              -2
390
0
  6
Continuous
 62
               0
100
AcDbCircle
 10
-679.27988896101385
 20
44.997916666666725
 30
0.0
 40
1.9998779296875
  0
HATCH
  5
10F
100
AcDbEntity
  8
0
370
              -2
390
0
  6
Continuous
 62
               0
100
AcDbHatch
 10
0.0
 20
0.0
 30
0.0
210
0.0
220
0.0
230
1.0
  2
SOLID
 70
               1
 71
               1
 91
        1
 92
        1
 93
        1
 72
               2
 10
-679.27988896101385
 20
44.997916666666725
 40
1.9998779296875
 50
0.0
 51
360.0
 73
               0
 97
        1
330
10E
 75
               0
 76
               1
 98
        1
 10
0.0
 20
0.0
  0
MTEXT
  5
110
100
AcDbEntity
  8
0
390
0
 62
               0
100
AcDbMText
 10
-715.15488896101385
 20
78.875533854166719
 30
0.0
 40
24.432617187500004
 41
0.0
 71
               1
 72
               1
  1
40
  7
ＭＳ ゴシック
 73
               1
 44
0.7828267384257843
  0
POINT
  5
111
100
AcDbEntity
  8
Defpoints
370
               0
390
0
 62
               0
100
AcDbPoint
 10
-679.27988896101385
 20
144.99791666666673
 30
0.0
  0
POINT
  5
112
100
AcDbEntity
  8
Defpoints
370
               0
390
0
 62
               0
100
AcDbPoint
 10
-719.27988896101385
 20
189.9991319444446
 30
0.0
  0
POINT
  5
113
100
AcDbEntity
  8
Defpoints
370
               0
390
0
 62
               0
100
AcDbPoint
 10
-719.27988896101385
 20
44.997916666666725
 30
0.0
  0
ENDBLK
  5
114
100
AcDbEntity
  8
notes
390
0
100
AcDbBlockEnd
  0
BLOCK
  5
115
100
AcDbEntity
  8
notes
390
0
100
AcDbBlockBegin
  2
*D17
 70
               1
 10
0.0
 20
0.0
 30
0.0
  3
*D17
  1

  0
LINE
  5
116
100
AcDbEntity
  8
0
370
              -2
390
0
  6
Continuous
 62
               0
100
AcDbLine
 10
-679.27988896101385
 20
113.00000000000003
 30
0.0
 11
-679.27988896101385
 21
44.997916666666725
 31
0.0
  0
LINE
  5
117
100
AcDbEntity
  8
0
370
              -2
390
0
  6
Continuous
 62
               0
100
AcDbLine
 10
-199.27988896101388
 20
113.00000000000003
 30
0.0
 11
-199.27988896101388
 21
44.997916666666725
 31
0.0
  0
LINE
  5
118
100
AcDbEntity
  8
0
370
              -2
390
0
  6
Continuous
 62
               0
100
AcDbLine
 10
-679.27988896101385
 20
44.997916666666725
 30
0.0
 11
-199.27988896101388
 21
44.997916666666725
 31
0.0
  0
CIRCLE
  5
119
102
{ACAD_REACTORS
330
11A
102
}
100
AcDbEntity
  8
0
370
              -2
390
0
  6
Continuous
 62
               0
100
AcDbCircle
 10
-679.27988896101385
 20
44.997916666666725
 30
0.0
 40
1.9998779296875
  0
HATCH
  5
11A
100
AcDbEntity
  8
0
370
              -2
390
0
  6
Continuous
 62
               0
100
AcDbHatch
 10
0.0
 20
0.0
 30
0.0
210
0.0
220
0.0
230
1.0
  2
SOLID
 70
               1
 71
               1
 91
        1
 92
        1
 93
        1
 72
               2
 10
-679.27988896101385
 20
44.997916666666725
 40
1.9998779296875
 50
0.0
 51
360.0
 73
               0
 97
        1
330
119
 75
               0
 76
               1
 98
        1
 10
0.0
 20
0.0
  0
CIRCLE
  5
11B
102
{ACAD_REACTORS
330
11C
102
}
100
AcDbEntity
  8
0
370
              -2
390
0
  6
Continuous
 62
               0
100
AcDbCircle
 10
-199.27988896101388
 20
44.997916666666725
 30
0.0
 40
1.9998779296875
  0
HATCH
  5
11C
100
AcDbEntity
  8
0
370
              -2
390
0
  6
Continuous
 62
               0
100
AcDbHatch
 10
0.0
 20
0.0
 30
0.0
210
0.0
220
0.0
230
1.0
  2
SOLID
 70
               1
 71
               1
 91
        1
 92
        1
 93
        1
 72
               2
 10
-199.27988896101388
 20
44.997916666666725
 40
1.9998779296875
 50
0.0
 51
360.0
 73
               0
 97
        1
330
11B
 75
               0
 76
               1
 98
        1
 10
0.0
 20
0.0
  0
MTEXT
  5
11D
100
AcDbEntity
  8
0
390
0
 62
               0
100
AcDbMText
 10
-463.09239064318945
 20
78.875533854166719
 30
0.0
 40
24.432617187500004
 41
0.0
 71
               1
 72
               1
  1
480
  7
ＭＳ ゴシック
 73
               1
 44
0.7828267384257843
  0
POINT
  5
11E
100
AcDbEntity
  8
Defpoints
370
               0
390
0
 62
               0
100
AcDbPoint
 10
-199.27988896101388
 20
138.00000000000003
 30
0.0
  0
POINT
  5
11F
100
AcDbEntity
  8
Defpoints
370
               0
390
0
 62
               0
100
AcDbPoint
 10
-679.27988896101385
 20
138.00000000000003
 30
0.0
  0
POINT
  5
120
100
AcDbEntity
  8
Defpoints
370
               0
390
0
 62
               0
100
AcDbPoint
 10
-679.27988896101385
 20
44.997916666666725
 30
0.0
  0
ENDBLK
  5
121
100
AcDbEntity
  8
notes
390
0
100
AcDbBlockEnd
  0
BLOCK
  5
122
100
AcDbEntity
  8
notes
390
0
100
AcDbBlockBegin
  2
*D18
 70
               1
 10
0.0
 20
0.0
 30
0.0
  3
*D18
  1

  0
LINE
  5
123
100
AcDbEntity
  8
0
370
              -2
390
0
  6
Continuous
 62
               0
100
AcDbLine
 10
-429.33845322274783
 20
515.59361914993451
 30
0.0
 11
-371.0
 21
431.0
 31
0.0
  0
CIRCLE
  5
124
102
{ACAD_REACTORS
330
125
102
}
100
AcDbEntity
  8
0
370
              -2
390
0
  6
Continuous
 62
               0
100
AcDbCircle
 10
-429.33845322274783
 20
515.59361914993451
 30
0.0
 40
3.999755859375
  0
HATCH
  5
125
100
AcDbEntity
  8
0
370
              -2
390
0
  6
Continuous
 62
               0
100
AcDbHatch
 10
0.0
 20
0.0
 30
0.0
210
0.0
220
0.0
230
1.0
  2
SOLID
 70
               1
 71
               1
 91
        1
 92
        1
 93
        1
 72
               2
 10
-429.33845322274783
 20
515.59361914993451
 40
3.999755859375
 50
0.0
 51
360.0
 73
               0
 97
        1
330
124
 75
               0
 76
               1
 98
        1
 10
0.0
 20
0.0
  0
LINE
  5
126
100
AcDbEntity
  8
0
370
              -2
390
0
  6
Continuous
 62
               0
100
AcDbLine
 10
-371.0
 20
431.0
 30
0.0
 11
-287.5
 21
431.0
 31
0.0
  0
MTEXT
  5
127
100
AcDbEntity
  8
0
390
0
 62
               0
100
AcDbMText
 10
-351.0
 20
464.87761718750005
 30
0.0
 40
24.432617187500004
 41
0.0
 71
               1
 72
               1
  1
φ35
  7
ＭＳ ゴシック
 73
               1
 44
0.7828267384257843
  0
POINT
  5
128
100
AcDbEntity
  8
Defpoints
370
               0
390
0
 62
               0
100
AcDbPoint
 10
-449.20865108816884
 20
544.40638085006537
 30
0.0
  0
POINT
  5
129
100
AcDbEntity
  8
Defpoints
370
               0
390
0
 62
               0
100
AcDbPoint
 10
-429.33845322274783
 20
515.59361914993451
 30
0.0
  0
ENDBLK
  5
12A
100
AcDbEntity
  8
notes
390
0
100
AcDbBlockEnd
  0
BLOCK
  5
12B
100
AcDbEntity
  8
notes
390
0
100
AcDbBlockBegin
  2
*D19
 70
               1
 10
0.0
 20
0.0
 30
0.0
  3
*D19
  1

  0
LINE
  5
12C
100
AcDbEntity
  8
0
370
              -2
390
0
  6
Continuous
 62
               0
100
AcDbLine
 10
770.87362032709188
 20
-526.39802711416348
 30
0.0
 11
770.87362032709188
 21
-472.16558798597941
 31
0.0
  0
LINE
  5
12D
100
AcDbEntity
  8
0
370
              -2
390
0
  6
Continuous
 62
               0
100
AcDbLine
 10
715.87362032709188
 20
-528.04301854153493
 30
0.0
 11
715.87362032709188
 21
-472.16558798597941
 31
0.0
  0
LINE
  5
12E
100
AcDbEntity
  8
0
370
              -2
390
0
  6
Continuous
 62
               0
100
AcDbLine
 10
770.87362032709188
 20
-472.16558798597941
 30
0.0
 11
715.87362032709188
 21
-472.16558798597941
 31
0.0
  0
CIRCLE
  5
12F
102
{ACAD_REACTORS
330
130
102
}
100
AcDbEntity
  8
0
370
              -2
390
0
  6
Continuous
 62
               0
100
AcDbCircle
 10
770.87362032709188
 20
-472.16558798597941
 30
0.0
 40
1.9998779296875
  0
HATCH
  5
130
100
AcDbEntity
  8
0
370
              -2
390
0
  6
Continuous
 62
               0
100
AcDbHatch
 10
0.0
 20
0.0
 30
0.0
210
0.0
220
0.0
230
1.0
  2
SOLID
 70
               1
 71
               1
 91
        1
 92
        1
 93
        1
 72
               2
 10
770.87362032709188
 20
-472.16558798597941
 40
1.9998779296875
 50
0.0
 51
360.0
 73
               0
 97
        1
330
12F
 75
               0
 76
               1
 98
        1
 10
0.0
 20
0.0
  0
CIRCLE
  5
131
102
{ACAD_REACTORS
330
132
102
}
100
AcDbEntity
  8
0
370
              -2
390
0
  6
Continuous
 62
               0
100
AcDbCircle
 10
715.87362032709188
 20
-472.16558798597941
 30
0.0
 40
1.9998779296875
  0
HATCH
  5
132
100
AcDbEntity
  8
0
370
              -2
390
0
  6
Continuous
 62
               0
100
AcDbHatch
 10
0.0
 20
0.0
 30
0.0
210
0.0
220
0.0
230
1.0
  2
SOLID
 70
               1
 71
               1
 91
        1
 92
        1
 93
        1
 72
               2
 10
715.87362032709188
 20
-472.16558798597941
 40
1.9998779296875
 50
0.0
 51
360.0
 73
               0
 97
        1
330
131
 75
               0
 76
               1
 98
        1
 10
0.0
 20
0.0
  0
MTEXT
  5
133
100
AcDbEntity
  8
0
390
0
 62
               0
100
AcDbMText
 10
727.49862032709188
 20
-438.28797079847948
 30
0.0
 40
24.432617187500004
 41
0.0
 71
               1
 72
               1
  1
55
  7
ＭＳ ゴシック
 73
               1
 44
0.7828267384257843
  0
POINT
  5
134
100
AcDbEntity
  8
Defpoints
370
               0
390
0
 62
               0
100
AcDbPoint
 10
715.87362032709188
 20
-553.04301854153493
 30
0.0
  0
POINT
  5
135
100
AcDbEntity
  8
Defpoints
370
               0
390
0
 62
               0
100
AcDbPoint
 10
770.87362032709188
 20
-551.39802711416348
 30
0.0
  0
POINT
  5
136
100
AcDbEntity
  8
Defpoints
370
               0
390
0
 62
               0
100
AcDbPoint
 10
770.87362032709188
 20
-472.16558798597941
 30
0.0
  0
ENDBLK
  5
137
100
AcDbEntity
  8
notes
390
0
100
AcDbBlockEnd
  0
BLOCK
  5
138
100
AcDbEntity
  8
notes
390
0
100
AcDbBlockBegin
  2
*D20
 70
               1
 10
0.0
 20
0.0
 30
0.0
  3
*D20
  1

  0
LINE
  5
139
100
AcDbEntity
  8
0
370
              -2
390
0
  6
Continuous
 62
               0
100
AcDbLine
 10
579.26022511834276
 20
-553.04301854153493
 30
0.0
 11
592.09064284858539
 21
-553.04301854153493
 31
0.0
  0
LINE
  5
13A
100
AcDbEntity
  8
0
370
              -2
390
0
  6
Continuous
 62
               0
100
AcDbLine
 10
579.26022511834276
 20
-673.04301854153493
 30
0.0
 11
592.09064284858539
 21
-673.04301854153493
 31
0.0
  0
LINE
  5
13B
100
AcDbEntity
  8
0
370
              -2
390
0
  6
Continuous
 62
               0
100
AcDbLine
 10
592.09064284858539
 20
-553.04301854153493
 30
0.0
 11
592.09064284858539
 21
-391.59490155837273
 31
0.0
  0
LINE
  5
13C
100
AcDbEntity
  8
0
370
              -2
390
0
  6
Continuous
 62
               0
100
AcDbLine
 10
592.09064284858539
 20
-553.04301854153493
 30
0.0
 11
592.09064284858539
 21
-673.04301854153493
 31
0.0
  0
CIRCLE
  5
13D
102
{ACAD_REACTORS
330
13E
102
}
100
AcDbEntity
  8
0
370
              -2
390
0
  6
Continuous
 62
               0
100
AcDbCircle
 10
592.09064284858539
 20
-553.04301854153493
 30
0.0
 40
1.9998779296875
  0
HATCH
  5
13E
100
AcDbEntity
  8
0
370
              -2
390
0
  6
Continuous
 62
               0
100
AcDbHatch
 10
0.0
 20
0.0
 30
0.0
210
0.0
220
0.0
230
1.0
  2
SOLID
 70
               1
 71
               1
 91
        1
 92
        1
 93
        1
 72
               2
 10
592.09064284858539
 20
-553.04301854153493
 40
1.9998779296875
 50
0.0
 51
360.0
 73
               0
 97
        1
330
13D
 75
               0
 76
               1
 98
        1
 10
0.0
 20
0.0
  0
CIRCLE
  5
13F
102
{ACAD_REACTORS
330
140
102
}
100
AcDbEntity
  8
0
370
              -2
390
0
  6
Continuous
 62
               0
100
AcDbCircle
 10
592.09064284858539
 20
-673.04301854153493
 30
0.0
 40
1.9998779296875
  0
HATCH
  5
140
100
AcDbEntity
  8
0
370
              -2
390
0
  6
Continuous
 62
               0
100
AcDbHatch
 10
0.0
 20
0.0
 30
0.0
210
0.0
220
0.0
230
1.0
  2
SOLID
 70
               1
 71
               1
 91
        1
 92
        1
 93
        1
 72
               2
 10
592.09064284858539
 20
-673.04301854153493
 40
1.9998779296875
 50
0.0
 51
360.0
 73
               0
 97
        1
330
13F
 75
               0
 76
               1
 98
        1
 10
0.0
 20
0.0
  0
MTEXT
  5
141
100
AcDbEntity
  8
0
390
0
 62
               0
100
AcDbMText
 10
558.21302566108534
 20
-534.46990155837273
 30
0.0
 40
24.432617187500004
 41
0.0
 71
               1
 72
               1
  1
120(深さ)
  7
ＭＳ ゴシック
 11
0.0
 21
1.0
 31
0.0
 73
               1
 44
0.7828267384257843
  0
POINT
  5
142
100
AcDbEntity
  8
Defpoints
370
               0
390
0
 62
               0
100
AcDbPoint
 10
604.26022511834276
 20
-673.04301854153493
 30
0.0
  0
POINT
  5
143
100
AcDbEntity
  8
Defpoints
370
               0
390
0
 62
               0
100
AcDbPoint
 10
604.26022511834276
 20
-553.04301854153493
 30
0.0
  0
POINT
  5
144
100
AcDbEntity
  8
Defpoints
370
               0
390
0
 62
               0
100
AcDbPoint
 10
592.09064284858539
 20
-553.04301854153493
 30
0.0
  0
ENDBLK
  5
145
100
AcDbEntity
  8
notes
390
0
100
AcDbBlockEnd
  0
BLOCK
  5
146
100
AcDbEntity
  8
notes
390
0
100
AcDbBlockBegin
  2
*D21
 70
               1
 10
0.0
 20
0.0
 30
0.0
  3
*D21
  1

  0
LINE
  5
147
100
AcDbEntity
  8
0
370
              -2
390
0
  6
Continuous
 62
               0
100
AcDbLine
 10
770.87851562499998
 20
-599.16558798597941
 30
0.0
 11
770.87851562499998
 21
-825.16558798597953
 31
0.0
  0
LINE
  5
148
100
AcDbEntity
  8
0
370
              -2
390
0
  6
Continuous
 62
               0
100
AcDbLine
 10
590.87365451388894
 20
-748.03781020820168
 30
0.0
 11
590.87365451388894
 21
-825.16558798597953
 31
0.0
  0
LINE
  5
149
100
AcDbEntity
  8
0
370
              -2
390
0
  6
Continuous
 62
               0
100
AcDbLine
 10
770.87851562499998
 20
-825.16558798597953
 30
0.0
 11
590.87365451388894
 21
-825.16558798597953
 31
0.0
  0
CIRCLE
  5
14A
102
{ACAD_REACTORS
330
14B
102
}
100
AcDbEntity
  8
0
370
              -2
390
0
  6
Continuous
 62
               0
100
AcDbCircle
 10
770.87851562499998
 20
-825.16558798597953
 30
0.0
 40
1.9998779296875
  0
HATCH
  5
14B
100
AcDbEntity
  8
0
370
              -2
390
0
  6
Continuous
 62
               0
100
AcDbHatch
 10
0.0
 20
0.0
 30
0.0
210
0.0
220
0.0
230
1.0
  2
SOLID
 70
               1
 71
               1
 91
        1
 92
        1
 93
        1
 72
               2
 10
770.87851562499998
 20
-825.16558798597953
 40
1.9998779296875
 50
0.0
 51
360.0
 73
               0
 97
        1
330
14A
 75
               0
 76
               1
 98
        1
 10
0.0
 20
0.0
  0
CIRCLE
  5
14C
102
{ACAD_REACTORS
330
14D
102
}
100
AcDbEntity
  8
0
370
              -2
390
0
  6
Continuous
 62
               0
100
AcDbCircle
 10
590.87365451388894
 20
-825.16558798597953
 30
0.0
 40
1.9998779296875
  0
HATCH
  5
14D
100
AcDbEntity
  8
0
370
              -2
390
0
  6
Continuous
 62
               0
100
AcDbHatch
 10
0.0
 20
0.0
 30
0.0
210
0.0
220
0.0
230
1.0
  2
SOLID
 70
               1
 71
               1
 91
        1
 92
        1
 93
        1
 72
               2
 10
590.87365451388894
 20
-825.16558798597953
 40
1.9998779296875
 50
0.0
 51
360.0
 73
               0
 97
        1
330
14C
 75
               0
 76
               1
 98
        1
 10
0.0
 20
0.0
  0
MTEXT
  5
14E
100
AcDbEntity
  8
0
390
0
 62
               0
100
AcDbMText
 10
657.06358338726898
 20
-791.28797079847948
 30
0.0
 40
24.432617187500004
 41
0.0
 71
               1
 72
               1
  1
180
  7
ＭＳ ゴシック
 73
               1
 44
0.7828267384257843
  0
POINT
  5
14F
100
AcDbEntity
  8
Defpoints
370
               0
390
0
 62
               0
100
AcDbPoint
 10
590.87365451388894
 20
-723.03781020820168
 30
0.0
  0
POINT
  5
150
100
AcDbEntity
  8
Defpoints
370
               0
390
0
 62
               0
100
AcDbPoint
 10
770.87851562499998
 20
-574.16558798597941
 30
0.0
  0
POINT
  5
151
100
AcDbEntity
  8
Defpoints
370
               0
390
0
 62
               0
100
AcDbPoint
 10
770.87851562499998
 20
-825.16558798597953
 30
0.0
  0
ENDBLK
  5
152
100
AcDbEntity
  8
notes
390
0
100
AcDbBlockEnd
  0
BLOCK
  5
153
100
AcDbEntity
  8
notes
390
0
100
AcDbBlockBegin
  2
*D22
 70
               1
 10
0.0
 20
0.0
 30
0.0
  3
*D22
  1

  0
LINE
  5
154
100
AcDbEntity
  8
0
370
              -2
390
0
  6
Continuous
 62
               0
100
AcDbLine
 10
306.9982894870443
 20
-573.04301854153493
 30
0.0
 11
278.9982894870443
 21
-573.04301854153493
 31
0.0
  0
LINE
  5
155
100
AcDbEntity
  8
0
370
              -2
390
0
  6
Continuous
 62
               0
100
AcDbLine
 10
315.0017105129557
 20
-553.04301854153493
 30
0.0
 11
278.9982894870443
 21
-553.04301854153493
 31
0.0
  0
LINE
  5
156
100
AcDbEntity
  8
0
370
              -2
390
0
  6
Continuous
 62
               0
100
AcDbLine
 10
278.9982894870443
 20
-573.04301854153493
 30
0.0
 11
278.9982894870443
 21
-553.04301854153493
 31
0.0
  0
CIRCLE
  5
157
102
{ACAD_REACTORS
330
158
102
}
100
AcDbEntity
  8
0
370
              -2
390
0
  6
Continuous
 62
               0
100
AcDbCircle
 10
278.9982894870443
 20
-573.04301854153493
 30
0.0
 40
1.9998779296875
  0
HATCH
  5
158
100
AcDbEntity
  8
0
370
              -2
390
0
  6
Continuous
 62
               0
100
AcDbHatch
 10
0.0
 20
0.0
 30
0.0
210
0.0
220
0.0
230
1.0
  2
SOLID
 70
               1
 71
               1
 91
        1
 92
        1
 93
        1
 72
               2
 10
278.9982894870443
 20
-573.04301854153493
 40
1.9998779296875
 50
0.0
 51
360.0
 73
               0
 97
        1
330
157
 75
               0
 76
               1
 98
        1
 10
0.0
 20
0.0
  0
CIRCLE
  5
159
102
{ACAD_REACTORS
330
15A
102
}
100
AcDbEntity
  8
0
370
              -2
390
0
  6
Continuous
 62
               0
100
AcDbCircle
 10
278.9982894870443
 20
-553.04301854153493
 30
0.0
 40
1.9998779296875
  0
HATCH
  5
15A
100
AcDbEntity
  8
0
370
              -2
390
0
  6
Continuous
 62
               0
100
AcDbHatch
 10
0.0
 20
0.0
 30
0.0
210
0.0
220
0.0
230
1.0
  2
SOLID
 70
               1
 71
               1
 91
        1
 92
        1
 93
        1
 72
               2
 10
278.9982894870443
 20
-553.04301854153493
 40
1.9998779296875
 50
0.0
 51
360.0
 73
               0
 97
        1
330
159
 75
               0
 76
               1
 98
        1
 10
0.0
 20
0.0
  0
MTEXT
  5
15B
100
AcDbEntity
  8
0
390
0
 62
               0
100
AcDbMText
 10
245.12067229954428
 20
-578.91801854153493
 30
0.0
 40
24.432617187500004
 41
0.0
 71
               1
 72
               1
  1
20
  7
ＭＳ ゴシック
 11
0.0
 21
1.0
 31
0.0
 73
               1
 44
0.7828267384257843
  0
POINT
  5
15C
100
AcDbEntity
  8
Defpoints
370
               0
390
0
 62
               0
100
AcDbPoint
 10
340.0017105129557
 20
-553.04301854153493
 30
0.0
  0
POINT
  5
15D
100
AcDbEntity
  8
Defpoints
370
               0
390
0
 62
               0
100
AcDbPoint
 10
331.9982894870443
 20
-573.04301854153493
 30
0.0
  0
POINT
  5
15E
100
AcDbEntity
  8
Defpoints
370
               0
390
0
 62
               0
100
AcDbPoint
 10
278.9982894870443
 20
-573.04301854153493
 30
0.0
  0
ENDBLK
  5
15F
100
AcDbEntity
  8
notes
390
0
100
AcDbBlockEnd
  0
ENDSEC
  0
SECTION
  2
ENTITIES
  0
MTEXT
  5
160
100
AcDbEntity
  8
template
390
0
 62
               7
100
AcDbMText
 10
-968.97840711781475
 20
-1367.4183000943963
 30
0.0
 40
16.288411458333332
 41
0.0
 71
               1
 72
               1
  1
品名
  7
ＭＳ ゴシック
 73
               1
 44
0.7828267384257843
  0
MTEXT
  5
161
100
AcDbEntity
  8
template
390
0
 62
               7
100
AcDbMText
 10
-968.97840711781475
 20
-1452.4183000943963
 30
0.0
 40
16.288411458333332
 41
0.0
 71
               1
 72
               1
  1
仕様
  7
ＭＳ ゴシック
 73
               1
 44
0.7828267384257843
  0
MTEXT
  5
162
100
AcDbEntity
  8
template
390
0
 62
               7
100
AcDbMText
 10
-915.97840711781475
 20
-1396.0007610318964
 30
0.0
 40
24.432617187500004
 41
0.0
 71
               1
 72
               1
  1
洗面器 -LAUFEN,{\fＭＳ Ｐゴシック|b0|i0|c0|p0;\H0.8934x;\lLaufen Pro}-
  7
ＭＳ ゴシック
 73
               1
 44
0.7828267384257843
  0
LINE
  5
163
100
AcDbEntity
  8
template
370
               5
390
0
  6
Continuous
 62
               7
100
AcDbLine
 10
974.02159288170321
 20
-1444.0033782193964
 30
0.0
 11
-975.97840711829679
 21
-1444.0033782193964
 31
0.0
  0
LWPOLYLINE
  5
164
100
AcDbEntity
  8
template
370
               5
390
0
  6
Continuous
 62
               7
100
AcDbPolyline
 90
        5
 70
             128
 10
974.0215928821857
 20
1185.9966217806036
 10
-975.97840711781475
 20
1185.9966217806036
 10
-975.97840711781475
 20
-1614.0033782193964
 10
974.0215928821857
 20
-1614.0033782193964
 10
974.0215928821857
 20
1185.9966217806036
  0
LINE
  5
165
100
AcDbEntity
  8
template
370
               5
390
0
  6
Continuous
 62
               7
100
AcDbLine
 10
974.02159288170321
 20
-1359.0033782193964
 30
0.0
 11
-975.97840711829679
 21
-1359.0033782193964
 31
0.0
  0
LINE
  5
166
100
AcDbEntity
  8
template
370
               5
390
0
  6
Continuous
 62
               7
100
AcDbLine
 10
974.0215928821857
 20
-1529.0033782193964
 30
0.0
 11
221.02159288218567
 21
-1529.0033782193964
 31
0.0
  0
MTEXT
  5
167
100
AcDbEntity
  8
template
390
0
 62
               7
100
AcDbMText
 10
-975.97840711761148
 20
-1625.8572002762533
 30
0.0
 40
21.717881944444446
 41
0.0
 71
               1
 72
               1
  1
120124SO
  7
ＭＳ ゴシック
 73
               1
 44
0.7828267384257843
  0
MTEXT
  5
168
100
AcDbEntity
  8
template
390
0
 62
               7
100
AcDbMText
 10
250.89299913444532
 20
-1558.913772692704
 30
0.0
 40
24.432617187500004
 41
0.0
 71
               1
 72
               1
  1
大洋金物株式会社 ティーフォルム事業部
  7
ＭＳ ゴシック
 73
               1
 44
0.7828267384257843
  0
INSERT
  5
169
100
AcDbEntity
  8
template
390
0
 62
               7
100
AcDbBlockReference
  2
グループ
 10
-0.9784071180555714
 20
-220.00067086069586
 30
0.0
  0
MTEXT
  5
16A
100
AcDbEntity
  8
template
390
0
 62
               7
100
AcDbMText
 10
783.02159288244445
 20
-1481.0007610318964
 30
0.0
 40
24.432617187500004
 41
0.0
 71
               1
 72
               1
  1
1:10
  7
ＭＳ ゴシック
 73
               1
 44
0.7828267384257843
  0
MTEXT
  5
16B
100
AcDbEntity
  8
template
390
0
 62
               7
100
AcDbMText
 10
730.02159288244445
 20
-1452.4183000943963
 30
0.0
 40
16.288411458333332
 41
0.0
 71
               1
 72
               1
  1
縮尺
  7
ＭＳ ゴシック
 73
               1
 44
0.7828267384257843
  0
LINE
  5
16C
100
AcDbEntity
  8
template
370
               5
390
0
  6
Continuous
 62
               7
100
AcDbLine
 10
723.02159288244445
 20
-1529.0033782193964
 30
0.0
 11
723.02159288244445
 21
-1444.0033782193964
 31
0.0
  0
MTEXT
  5
16D
100
AcDbEntity
  8
template
390
0
 62
               7
100
AcDbMText
 10
479.02159288244445
 20
-1452.4183000943963
 30
0.0
 40
16.288411458333332
 41
0.0
 71
               1
 72
               1
  1
容量
  7
ＭＳ ゴシック
 73
               1
 44
0.7828267384257843
  0
MTEXT
  5
16E
100
AcDbEntity
  8
template
390
0
 62
               7
100
AcDbMText
 10
532.02159288244445
 20
-1481.0007610318964
 30
0.0
 40
24.432617187500004
 41
0.0
 71
               1
 72
               1
  1
6.5L
  7
ＭＳ ゴシック
 73
               1
 44
0.7828267384257843
  0
LINE
  5
16F
100
AcDbEntity
  8
template
370
               5
390
0
  6
Continuous
 62
               7
100
AcDbLine
 10
472.02159288244445
 20
-1529.0033782193964
 30
0.0
 11
472.02159288244445
 21
-1444.0033782193964
 31
0.0
  0
MTEXT
  5
170
100
AcDbEntity
  8
template
390
0
 62
               7
100
AcDbMText
 10
228.02159288244442
 20
-1367.4183000943963
 30
0.0
 40
16.288411458333332
 41
0.0
 71
               1
 72
               1
  1
品番
  7
ＭＳ ゴシック
 73
               1
 44
0.7828267384257843
  0
MTEXT
  5
171
100
AcDbEntity
  8
template
390
0
 62
               7
100
AcDbMText
 10
228.02159288244442
 20
-1452.4183000943963
 30
0.0
 40
16.288411458333332
 41
0.0
 71
               1
 72
               1
  1
重量
  7
ＭＳ ゴシック
 73
               1
 44
0.7828267384257843
  0
MTEXT
  5
172
100
AcDbEntity
  8
template
390
0
 62
               7
100
AcDbMText
 10
281.02159288244445
 20
-1396.0007610318964
 30
0.0
 40
24.432617187500004
 41
0.0
 71
               1
 72
               1
  1
GAR70-0914
  7
ＭＳ ゴシック
 73
               1
 44
0.7828267384257843
  0
MTEXT
  5
173
100
AcDbEntity
  8
template
390
0
 62
               7
100
AcDbMText
 10
281.02159288244445
 20
-1481.0007610318964
 30
0.0
 40
24.432617187500004
 41
0.0
 71
               1
 72
               1
  1
8kg
  7
ＭＳ ゴシック
 73
               1
 44
0.7828267384257843
  0
LINE
  5
174
100
AcDbEntity
  8
template
370
               5
390
0
  6
Continuous
 62
               7
100
AcDbLine
 10
221.02159288244442
 20
-1614.0033782193964
 30
0.0
 11
221.02159288244442
 21
-1359.0033782193964
 31
0.0
  0
MTEXT
  5
175
100
AcDbEntity
  8
template
390
0
 62
               7
100
AcDbMText
 10
-918.50103669491739
 20
-1480.2385075881537
 30
0.0
 40
24.432617187500004
 41
0.0
 71
               1
 72
               1
  1
オーバーカウンター/オーバーフロー付き/型紙付属\P陶器/ホワイト
  7
ＭＳ ゴシック
 73
               1
 44
1.1742401076386764
  0
DIMENSION
  5
176
100
AcDbEntity
  8
template
370
               5
390
0
  6
Continuous
 62
               7
100
AcDbDimension
  2
*D3
 10
250.66635873083064
 20
683.49721695759251
 30
0.0
 11
510.66635873083067
 21
683.49721695759251
 31
0.0
 71
               5
 72
               1
 41
1.0
 42
0.0
  3
TformSENN
100
AcDbAlignedDimension
 13
770.66635873083067
 23
572.49721695759251
 33
0.0
 14
250.66635873083064
 24
572.49721695759251
 34
0.0
100
AcDbRotatedDimension
1001
ACAD
1000
DSTYLE
1002
{
1070
             279
1070
               2
1070
             340
1005
38
1070
             147
1040
5.0
1002
}
  0
DIMENSION
  5
177
100
AcDbEntity
  8
template
370
               5
390
0
  6
Continuous
 62
               7
100
AcDbDimension
  2
*D4
 10
901.98886783037005
 20
565.0
 30
0.0
 11
906.98886783037005
 21
606.0
 31
0.0
 70
             128
 71
               5
 72
               1
 41
1.0
 42
0.0
  3
TformSENN
100
AcDbAlignedDimension
 13
782.72848777509694
 23
585.0
 33
0.0
 14
789.73443395565243
 24
565.0
 34
0.0
 50
90.0
100
AcDbRotatedDimension
1001
ACAD
1000
DSTYLE
1002
{
1070
             279
1070
               2
1070
             340
1005
38
1070
             174
1070
               0
1070
             147
1040
5.0
1002
}
  0
DIMENSION
  5
178
100
AcDbEntity
  8
template
370
               5
390
0
  6
Continuous
 62
               7
100
AcDbDimension
  2
*D5
 10
901.98886783037005
 20
159.99791666666667
 30
0.0
 11
901.98886783037005
 21
362.49895833333335
 31
0.0
 71
               5
 72
               1
 41
1.0
 42
0.0
  3
TformSENN
100
AcDbAlignedDimension
 13
842.98886783037005
 23
565.0
 33
0.0
 14
572.6592452202467
 24
159.99791666666667
 34
0.0
 50
90.0
100
AcDbRotatedDimension
1001
ACAD
1000
DSTYLE
1002
{
1070
             279
1070
               2
1070
             340
1005
38
1070
             147
1040
5.0
1002
}
  0
DIMENSION
  5
179
100
AcDbEntity
  8
notes
370
               5
390
0
  6
Continuous
 62
               7
100
AcDbDimension
  2
*D6
 10
-719.27988896101385
 20
735.0
 30
0.0
 11
-439.27630823184734
 21
740.0
 31
0.0
 70
             128
 71
               5
 72
               1
 41
1.0
 42
0.0
  3
TformSENN
100
AcDbAlignedDimension
 13
-159.27272750268074
 23
577.99956597222217
 33
0.0
 14
-719.27988896101385
 24
577.99956597222217
 34
0.0
100
AcDbRotatedDimension
1001
ACAD
1000
DSTYLE
1002
{
1070
             279
1070
               2
1070
             340
1005
38
1070
             147
1040
5.0
1002
}
  0
DIMENSION
  5
17A
100
AcDbEntity
  8
notes
370
               5
390
0
  6
Continuous
 62
               7
100
AcDbDimension
  2
*D7
 10
-539.27355215545833
 20
685.0
 30
0.0
 11
-489.27355215545833
 21
685.0
 31
0.0
 71
               5
 72
               1
 41
1.0
 42
0.0
  3
TformSENN
100
AcDbAlignedDimension
 13
-439.27355215545833
 23
547.49832900000001
 33
0.0
 14
-539.27355215545833
 24
547.49832900000001
 34
0.0
100
AcDbRotatedDimension
1001
ACAD
1000
DSTYLE
1002
{
1070
             279
1070
               2
1070
             340
1005
38
1070
             147
1040
5.0
1002
}
  0
DIMENSION
  5
17B
100
AcDbEntity
  8
notes
370
               5
390
0
  6
Continuous
 62
               7
100
AcDbDimension
  2
*D8
 10
-439.27355215545833
 20
685.0
 30
0.0
 11
-389.27355215545833
 21
685.0
 31
0.0
 71
               5
 72
               1
 41
1.0
 42
0.0
  3
TformSENN
100
AcDbAlignedDimension
 13
-339.27355215545833
 23
547.49832900000001
 33
0.0
 14
-439.27355215545833
 24
547.49832900000001
 34
0.0
100
AcDbRotatedDimension
1001
ACAD
1000
DSTYLE
1002
{
1070
             279
1070
               2
1070
             340
1005
38
1070
             147
1040
5.0
1002
}
  0
MTEXT
  5
17C
100
AcDbEntity
  8
notes
390
0
 62
               7
100
AcDbMText
 10
355.47963867628562
 20
769.67777764844334
 30
0.0
 40
24.432617187500004
 41
0.0
 71
               1
 72
               1
  1
カウンター切込寸法
  7
ＭＳ ゴシック
 73
               1
 44
0.7828267384257843
  0
DIMENSION
  5
17D
100
AcDbEntity
  8
notes
370
               5
390
0
  6
Continuous
 62
               7
100
AcDbDimension
  2
*D9
 10
-819.27988896101397
 20
184.99791666666673
 30
0.0
 11
-819.27988896101397
 21
164.99791666666673
 31
0.0
 71
               5
 72
               1
 41
1.0
 42
0.0
  3
TformSENN
100
AcDbAlignedDimension
 13
-681.27630823184757
 23
144.99791666666673
 33
0.0
 14
-721.27630823184745
 24
184.99791666666673
 34
0.0
 50
90.0
100
AcDbRotatedDimension
1001
ACAD
1000
DSTYLE
1002
{
1070
             279
1070
               2
1070
             340
1005
38
1070
             147
1040
5.0
1002
}
  0
DIMENSION
  5
17E
100
AcDbEntity
  8
notes
370
               5
390
0
  6
Continuous
 62
               7
100
AcDbDimension
  2
*D10
 10
-819.27988896101397
 20
184.99791666666673
 30
0.0
 11
-819.27988896101397
 21
334.99895833333335
 31
0.0
 71
               5
 72
               1
 41
1.0
 42
0.0
  3
TformSENN
100
AcDbAlignedDimension
 13
-719.27988896101385
 23
485.0
 33
0.0
 14
-724.27630823184745
 24
184.99791666666673
 34
0.0
 50
90.0
100
AcDbRotatedDimension
1001
ACAD
1000
DSTYLE
1002
{
1070
             279
1070
               2
1070
             340
1005
38
1070
             147
1040
5.0
1002
}
  0
DIMENSION
  5
17F
100
AcDbEntity
  8
notes
370
               5
390
0
  6
Continuous
 62
               7
100
AcDbDimension
  2
*D11
 10
-819.27988896101397
 20
485.0
 30
0.0
 11
-819.27988896101397
 21
535.0
 31
0.0
 71
               5
 72
               1
 41
1.0
 42
0.0
  3
TformSENN
100
AcDbAlignedDimension
 13
-711.17971840164057
 23
585.0
 33
0.0
 14
-719.27988896101385
 24
485.0
 34
0.0
 50
90.0
100
AcDbRotatedDimension
1001
ACAD
1000
DSTYLE
1002
{
1070
             279
1070
               2
1070
             340
1005
38
1070
             147
1040
5.0
1002
}
  0
MTEXT
  5
180
100
AcDbEntity
  8
notes
390
0
 62
               7
100
AcDbMText
 10
-818.64193805687592
 20
-62.813324793393321
 30
0.0
 40
24.432617187500004
 41
0.0
 71
               1
 72
               1
  1
＝φ30もしくはφ35の水栓取付用穴あけ加工を承ります。\P必要な場合、ご注文の際にご指示ください。
  7
ＭＳ ゴシック
 73
               1
 44
1.1742401076386764
  0
CIRCLE
  5
181
100
AcDbEntity
  8
notes
370
              15
390
0
  6
STYLE_01
 62
               7
100
AcDbCircle
 10
-850.21863280671278
 20
-74.214017843914917
 30
0.0
 40
17.498329000000012
  0
DIMENSION
  5
182
100
AcDbEntity
  8
notes
370
               5
390
0
  6
Continuous
 62
               7
100
AcDbDimension
  2
*D12
 10
-59.272727502680738
 20
585.0
 30
0.0
 11
-59.272727502680738
 21
365.01868642814964
 31
0.0
 71
               5
 72
               1
 41
1.0
 42
0.0
  3
TformSENN
100
AcDbAlignedDimension
 13
-202.36618435776222
 23
145.03737285629936
 33
0.0
 14
-166.27272750268074
 24
585.0
 34
0.0
 50
90.0
100
AcDbRotatedDimension
1001
ACAD
1000
DSTYLE
1002
{
1070
             279
1070
               2
1070
             340
1005
38
1070
             147
1040
5.0
1002
}
  0
DIMENSION
  5
183
100
AcDbEntity
  8
notes
370
               5
390
0
  6
Continuous
 62
               7
100
AcDbDimension
  2
*D13
 10
-59.272727502680738
 20
-574.87981770833323
 30
0.0
 11
-54.272727502680738
 21
-548.0020833333333
 31
0.0
 70
             128
 71
               5
 72
               1
 41
1.0
 42
0.0
  3
TformSENN
100
AcDbAlignedDimension
 13
-227.27272750268074
 23
-554.87981770833323
 33
0.0
 14
-122.38802698184756
 24
-574.87981770833323
 34
0.0
 50
90.0
100
AcDbRotatedDimension
1001
ACAD
1000
DSTYLE
1002
{
1070
             279
1070
               2
1070
             340
1005
38
1070
             174
1070
               0
1070
             147
1040
5.0
1002
}
  0
DIMENSION
  5
184
100
AcDbEntity
  8
notes
370
               5
390
0
  6
Continuous
 62
               7
100
AcDbDimension
  2
*D14
 10
-59.272727502680738
 20
-574.87981770833323
 30
0.0
 11
-59.272727502680738
 21
-649.87463143294462
 31
0.0
 71
               5
 72
               1
 41
1.0
 42
0.0
  3
TformSENN
100
AcDbAlignedDimension
 13
-405.9241493032182
 23
-724.86944515755613
 33
0.0
 14
-158.46344172355273
 24
-574.87981770833323
 34
0.0
 50
90.0
100
AcDbRotatedDimension
1001
ACAD
1000
DSTYLE
1002
{
1070
             279
1070
               2
1070
             340
1005
38
1070
             147
1040
5.0
1002
}
  0
MTEXT
  5
185
100
AcDbEntity
  8
notes
390
0
 62
               7
100
AcDbMText
 10
144.96053444182411
 20
-53.014511230129159
 30
0.0
 40
24.432617187500004
 41
0.0
 71
               1
 72
               1
  1
※陶器製品には寸法公差があります。\P洗面器の収め方をご確認の上、必ず現物に合わせて\Pカウンター切込を行ってください。
  7
ＭＳ ゴシック
 73
               1
 44
1.1742401076386764
  0
DIMENSION
  5
186
100
AcDbEntity
  8
notes
370
               5
390
0
  6
Continuous
 62
               7
100
AcDbDimension
  2
*D15
 10
-159.27988896101388
 20
44.997916666666725
 30
0.0
 11
-179.27988896101388
 21
49.997916666666725
 31
0.0
 70
             128
 71
               5
 72
               1
 41
1.0
 42
0.0
  3
TformSENN
100
AcDbAlignedDimension
 13
-199.27988896101388
 23
142.95615478077551
 33
0.0
 14
-159.27988896101388
 24
182.95615478077551
 34
0.0
100
AcDbRotatedDimension
1001
ACAD
1000
DSTYLE
1002
{
1070
             279
1070
               2
1070
             340
1005
38
1070
             147
1040
5.0
1002
}
  0
DIMENSION
  5
187
100
AcDbEntity
  8
notes
370
               5
390
0
  6
Continuous
 62
               7
100
AcDbDimension
  2
*D16
 10
-719.27988896101385
 20
44.997916666666725
 30
0.0
 11
-699.27988896101385
 21
44.997916666666725
 31
0.0
 71
               5
 72
               1
 41
1.0
 42
0.0
  3
TformSENN
100
AcDbAlignedDimension
 13
-679.27988896101385
 23
144.99791666666673
 33
0.0
 14
-719.27988896101385
 24
189.9991319444446
 34
0.0
100
AcDbRotatedDimension
1001
ACAD
1000
DSTYLE
1002
{
1070
             279
1070
               2
1070
             340
1005
38
1070
             147
1040
5.0
1002
}
  0
DIMENSION
  5
188
100
AcDbEntity
  8
notes
370
               5
390
0
  6
Continuous
 62
               7
100
AcDbDimension
  2
*D17
 10
-679.27988896101385
 20
44.997916666666725
 30
0.0
 11
-439.27988896101385
 21
44.997916666666725
 31
0.0
 71
               5
 72
               1
 41
1.0
 42
0.0
  3
TformSENN
100
AcDbAlignedDimension
 13
-199.27988896101388
 23
138.00000000000003
 33
0.0
 14
-679.27988896101385
 24
138.00000000000003
 34
0.0
100
AcDbRotatedDimension
1001
ACAD
1000
DSTYLE
1002
{
1070
             279
1070
               2
1070
             340
1005
38
1070
             147
1040
5.0
1002
}
  0
DIMENSION
  5
189
100
AcDbEntity
  8
notes
370
               5
390
0
  6
Continuous
 62
               7
100
AcDbDimension
  2
*D18
 10
-449.20865108816884
 20
544.40638085006537
 30
0.0
 11
-351.00000000000011
 21
430.99999999999989
 31
0.0
 70
               3
 71
               5
 72
               1
 41
1.0
 42
0.0
  3
TformSENN
100
AcDbDiametricDimension
 15
-429.33845322274783
 25
515.59361914993451
 35
0.0
 40
102.7592113890862
1001
ACAD
1000
DSTYLE
1002
{
1070
             172
1070
               0
1070
             289
1070
               0
1070
             342
1005
47
1070
             340
1005
38
1070
              73
1070
               1
1070
              74
1070
               1
1070
              75
1070
               1
1070
              76
1070
               1
1070
               3
1000

1070
             174
1070
               0
1070
             147
1040
5.0
1002
}
  0
DIMENSION
  5
18A
100
AcDbEntity
  8
notes
370
               5
390
0
  6
Continuous
 62
               7
100
AcDbDimension
  2
*D19
 10
770.87362032709188
 20
-472.16558798597941
 30
0.0
 11
743.37362032709188
 21
-472.16558798597941
 31
0.0
 71
               5
 72
               1
 41
1.0
 42
0.0
  3
TformSENN
100
AcDbAlignedDimension
 13
715.87362032709188
 23
-553.04301854153493
 33
0.0
 14
770.87362032709188
 24
-551.39802711416348
 34
0.0
100
AcDbRotatedDimension
1001
ACAD
1000
DSTYLE
1002
{
1070
             279
1070
               2
1070
             340
1005
38
1070
             147
1040
5.0
1002
}
  0
DIMENSION
  5
18B
100
AcDbEntity
  8
notes
370
               5
390
0
  6
Continuous
 62
               7
100
AcDbDimension
  2
*D20
 10
592.09064284858539
 20
-553.04301854153493
 30
0.0
 11
587.09064284858539
 21
-534.46990155837273
 31
0.0
 70
             128
 71
               5
 72
               1
 41
1.0
 42
0.0
  3
TformSENN
100
AcDbAlignedDimension
 13
604.26022511834276
 23
-673.04301854153493
 33
0.0
 14
604.26022511834276
 24
-553.04301854153493
 34
0.0
 50
90.0
100
AcDbRotatedDimension
1001
ACAD
1000
DSTYLE
1002
{
1070
             279
1070
               2
1070
             340
1005
38
1070
               3
1000
<>(深さ)
1070
             174
1070
               0
1070
             147
1040
5.0
1002
}
  0
DIMENSION
  5
18C
100
AcDbEntity
  8
notes
370
               5
390
0
  6
Continuous
 62
               7
100
AcDbDimension
  2
*D21
 10
770.87851562499998
 20
-825.16558798597953
 30
0.0
 11
680.87608506944446
 21
-825.16558798597953
 31
0.0
 71
               5
 72
               1
 41
1.0
 42
0.0
  3
TformSENN
100
AcDbAlignedDimension
 13
590.87365451388894
 23
-723.03781020820168
 33
0.0
 14
770.87851562499998
 24
-574.16558798597941
 34
0.0
100
AcDbRotatedDimension
1001
ACAD
1000
DSTYLE
1002
{
1070
             279
1070
               2
1070
             340
1005
38
1070
             147
1040
5.0
1002
}
  0
DIMENSION
  5
18D
100
AcDbEntity
  8
notes
370
               5
390
0
  6
Continuous
 62
               7
100
AcDbDimension
  2
*D22
 10
278.9982894870443
 20
-573.04301854153493
 30
0.0
 11
278.9982894870443
 21
-563.04301854153493
 31
0.0
 71
               5
 72
               1
 41
1.0
 42
0.0
  3
TformSENN
100
AcDbAlignedDimension
 13
340.0017105129557
 23
-553.04301854153493
 33
0.0
 14
331.9982894870443
 24
-573.04301854153493
 34
0.0
 50
90.0
100
AcDbRotatedDimension
1001
ACAD
1000
DSTYLE
1002
{
1070
             279
1070
               2
1070
             340
1005
38
1070
             147
1040
5.0
1002
}
  0
LWPOLYLINE
  5
18E
100
AcDbEntity
  8
GAR70-0914
370
              15
390
0
  6
Continuous
 62
               7
100
AcDbPolyline
 90
       84
 70
             128
 10
-159.27272750268074
 20
190.88107638888894
 10
-159.27272750268074
 20
577.99956597222217
 42
0.0189425857710334
 10
-159.29292360289912
 20
578.51288793940989
 10
-159.32227906824454
 20
578.89236323099317
 42
0.0735009724944963
 10
-159.60244935163831
 20
580.12246108816066
 10
-159.74070235640613
 20
580.47819083483159
 42
0.0697948698525267
 10
-160.70059456446089
 20
582.19407128118507
 42
0.0681603513665013
 10
-162.09114555801986
 20
583.58428876564847
 10
-162.28693285866279
 20
583.73284033767425
 42
0.0701235830858408
 10
-163.5773844676448
 20
584.45306220311272
 10
-163.80247599453205
 20
584.54011713936347
 42
0.0366239282685128
 10
-164.76578578508165
 20
584.83369745859909
 10
-164.88471194617432
 20
584.86061712006665
 42
0.0375099734491438
 10
-165.64014156880214
 20
584.97295082809296
 10
-165.76615374230866
 20
584.98211988234755
 42
0.0188835938016249
 10
-166.27867368323624
 20
585.0
 10
-712.26843062768057
 20
585.0
 42
0.019047923380601
 10
-712.78155861026892
 20
584.98192773645405
 10
-713.16073314406515
 20
584.95408569841197
 42
0.0740754948048647
 10
-714.39033420613157
 20
584.67760250860749
 10
-714.74538497245715
 20
584.5402759105948
 42
0.070195843545405
 10
-716.46090511037039
 20
583.58244063576876
 42
0.0682019517488222
 10
-717.85113536370886
 20
582.19171906438487
 10
-717.99937329214663
 20
581.99635788023227
 42
0.0696650014154266
 10
-718.72207880447888
 20
580.70432413925232
 10
-718.80962514608871
 20
580.47920538243193
 42
0.0362521206932443
 10
-719.10631704588639
 20
579.51468378964375
 10
-719.1336987478461
 20
579.39556666160217
 42
0.037100164406813
 10
-719.24939904793371
 20
578.63914276273158
 10
-719.2592149877122
 20
578.51292599638543
 42
0.0186842412753478
 10
-719.27988896101385
 20
577.99956597222217
 10
-719.27988896101385
 20
190.88107638888894
 10
-719.27988896101385
 20
189.9991319444446
 42
0.0091251104360413
 10
-719.24921521531189
 20
188.31853904715805
 10
-719.2039433714981
 20
187.07874599267271
 42
0.0367440245624641
 10
-718.74842331794969
 20
182.95264737259734
 10
-718.51772501407697
 20
181.70895092866741
 42
0.0363000720728384
 10
-716.89123033063731
 20
175.49429515974143
 10
-716.87832303564642
 20
175.45643287183074
 42
0.0356906323394751
 10
-714.40816827259948
 20
169.6122888919883
 10
-714.39779194444679
 20
169.59192465730254
 42
0.0351345060983787
 10
-711.15088426631326
 20
164.19349579590968
 10
-711.14592455360594
 20
164.18642558563593
 42
0.0347927468701661
 10
-707.18912388017304
 20
159.30624576907067
 42
0.0347193053286495
 10
-702.59238425263777
 20
155.01927880198153
 42
0.0349294322518632
 10
-697.44325930778496
 20
151.41000647814352
 10
-697.4302219223988
 20
151.40216430989224
 42
0.0353908988796657
 10
-691.79947713548461
 20
148.53641313985369
 10
-691.77126082448683
 20
148.5244825646806
 42
0.0359918006606638
 10
-685.73284423453629
 20
146.46915507911953
 10
-684.93447214035371
 20
146.2600824531365
 42
0.036501395401571
 10
-680.08441632855977
 20
145.36171795009997
 10
-678.87360950353582
 20
145.22776695586097
 42
0.0183906578818676
 10
-676.37273014449465
 20
145.04386117807874
 10
-675.95857711779126
 20
145.02868514534853
 42
0.0091570438119794
 10
-674.27867368323609
 20
144.99791666666673
 10
-673.75501916934718
 20
144.99791666666673
 10
-439.27355215545833
 20
144.99791666666673
 10
-204.79759729434741
 20
144.99791666666673
 10
-204.2684306276806
 20
144.99791666666673
 42
0.0091570195091699
 10
-202.58854376658087
 20
145.0286847601229
 10
-202.17440251805624
 20
145.04386032094916
 42
0.0183836017853452
 10
-199.67355927105305
 20
145.22772772757597
 10
-198.461472725269
 20
145.36178556018157
 42
0.036536073660265
 10
-193.60899992882074
 20
146.2608032940299
 10
-192.81203675668803
 20
146.46960082518493
 42
0.0359919563358311
 10
-186.77439191814597
 20
148.52541029061646
 10
-186.74608042756813
 20
148.53738480932182
 42
0.0353884385843517
 10
-181.1163361034923
 20
151.40337762447254
 10
-181.1035057492808
 20
151.41109702560263
 42
0.0349376810757714
 10
-175.95505975729009
 20
155.02079557948835
 42
0.034689941233213
 10
-171.35930757945815
 20
159.30801349399579
 42
0.0347898866411521
 10
-167.40368061373681
 20
164.18812673297205
 10
-167.39855090210509
 20
164.19544134655158
 42
0.0351402843896262
 10
-164.1525275268049
 20
169.59416339089628
 10
-164.14215836379816
 20
169.61452140516761
 42
0.0356912000454507
 10
-161.67300553711456
 20
175.45885276695188
 10
-161.66007739760192
 20
175.4967958403341
 42
0.0362965540128549
 10
-160.03453361977276
 20
181.71165115588141
 10
-159.80387101044786
 20
182.95615478077482
 42
0.0366913096513586
 10
-159.34876793043614
 20
187.07994162619931
 10
-159.30345712752654
 20
188.31854172215989
 42
0.0091417456549357
 10
-159.27272750268074
 20
189.9991319444446
 10
-159.27272750268074
 20
190.88107638888894
  0
CIRCLE
  5
18F
100
AcDbEntity
  8
GAR70-0914
370
              15
390
0
  6
Continuous
 62
               7
100
AcDbCircle
 10
-439.27355215545833
 20
530.0
 30
0.0
 40
17.5
  0
LWPOLYLINE
  5
190
100
AcDbEntity
  8
GAR70-0914
370
              15
390
0
  6
Continuous
 62
               7
100
AcDbPolyline
 90
      117
 70
             128
 10
-672.90063548879164
 20
225.21014250744597
 42
0.0010466407848151
 10
-672.89907960537164
 20
224.79620779316187
 10
-672.89604905749536
 20
224.27835088990904
 42
0.0077634537427395
 10
-672.86506320199032
 20
222.82918676952673
 10
-672.83828244437348
 20
222.10385310452253
 42
0.0124663167625421
 10
-672.65904446093487
 20
219.20897236720597
 10
-672.60728473598135
 20
218.61393936960977
 42
0.0247159006251527
 10
-672.05186927403815
 20
214.56093417535587
 10
-671.97660878823069
 20
214.16012786560637
 42
0.0295210874543695
 10
-670.88854917859635
 20
209.80155017209805
 10
-670.87997963250893
 20
209.77420224056024
 42
0.0311084398940621
 10
-669.29361813272362
 20
205.63341191999862
 10
-669.28803048756447
 20
205.62116553995193
 42
0.0330021569454487
 10
-667.19862846676904
 20
201.74172196242407
 42
0.0347112399179586
 10
-664.60536613633292
 20
198.18058617575738
 10
-664.25249778952229
 20
197.76062866995599
 42
0.0358662653762129
 10
-661.92775816764731
 20
195.3656003374322
 42
0.0184632204956414
 10
-659.35220796856925
 20
193.23268458936511
 10
-659.22461534213107
 20
193.13472970646743
 42
0.0380496817889379
 10
-656.16264707947653
 20
191.13439420438212
 10
-655.5225705445954
 20
190.78253997674383
 42
0.0348248475103577
 10
-650.87829682258462
 20
188.63571271907185
 10
-650.85812150412096
 20
188.62804083999552
 42
0.0288376379226867
 10
-645.93465701551634
 20
187.07414749107366
 42
0.0227057376349373
 10
-640.87482625456937
 20
186.03455968781529
 10
-640.86704274642909
 20
186.03332565854541
 42
0.0169367638142122
 10
-635.72312537708478
 20
185.39550690289749
 10
-634.75062697966132
 20
185.30824446169768
 42
0.0113771868951745
 10
-631.52551493155067
 20
185.09268969904682
 10
-630.55439059004846
 20
185.04994847613514
 42
0.0018034719968702
 10
-629.26643409990265
 20
184.99791666666673
 10
-249.28067021101404
 20
184.99791666666673
 42
0.0016630158007043
 10
-247.99277542448152
 20
185.04958361251894
 10
-247.02176565006783
 20
185.0917732140941
 42
0.0115040837862453
 10
-243.79695990458646
 20
185.30630964548985
 10
-242.18071845107983
 20
185.45124678573305
 42
0.0171966344848745
 10
-238.32098508306066
 20
185.93164021743885
 10
-237.67718955723007
 20
186.03435745892759
 42
0.0107502093327906
 10
-235.13151922872441
 20
186.4968438281031
 42
0.0118031659846207
 10
-232.60941106118986
 20
187.07361551948563
 10
-231.98666258600753
 20
187.23158535633891
 42
0.0287662755326478
 10
-228.29972994721447
 20
188.39613705329518
 10
-227.67260465525041
 20
188.63466859238051
 42
0.0347070257934171
 10
-223.0255824829209
 20
190.78191421847239
 10
-222.87250260655219
 20
190.86598620244675
 42
0.0383035727845748
 10
-218.88097605666084
 20
193.4742742681087
 10
-218.75090455557412
 20
193.57426203802268
 42
0.0364373518004764
 10
-215.4353672314607
 20
196.53074332584296
 10
-215.42219938931791
 20
196.54433011576859
 42
0.0353724166634295
 10
-212.58758964281674
 20
199.91636306068713
 42
0.033868970233134
 10
-210.24489990795297
 20
203.64805244381463
 10
-210.24295231252893
 20
203.65167857153736
 42
0.0320156782423077
 10
-208.40681660502742
 20
207.66718232385065
 10
-208.34510144855832
 20
207.82875328212143
 42
0.0302671745089537
 10
-207.09902458449216
 20
211.79576226653458
 10
-207.02749174259992
 20
212.08329077784893
 42
0.0234723884541923
 10
-206.32925002766237
 20
215.58353922783564
 42
0.0150932392597849
 10
-205.90248083407036
 20
219.1294701434027
 10
-205.79341303541401
 20
220.34356285337529
 42
0.0217484789449971
 10
-205.65018974098584
 20
223.44787335152867
 10
-205.64666518961278
 20
224.79614783959281
 42
0.001069895617995
 10
-205.64646882212512
 20
225.21014250744597
 10
-205.64646882212512
 20
444.89451651673937
 42
0.0087355456882168
 10
-205.75724424351432
 20
446.34173295550625
 10
-205.85814478738874
 20
447.41352260911481
 42
0.0345362566095081
 10
-206.44140590305253
 20
450.96204741857241
 10
-206.69348929274415
 20
452.02926072067896
 42
0.0338478102567766
 10
-208.34450750695189
 20
457.37364433029973
 10
-208.35853174338632
 20
457.41009414354085
 42
0.0333792037496073
 10
-210.67817696744297
 20
462.41465467961268
 10
-210.69478651865506
 20
462.4450032398513
 42
0.0332801437915479
 10
-213.62178526564696
 20
467.03880020989118
 10
-213.64005586823416
 20
467.06365806260612
 42
0.0336671409815929
 10
-217.11400259109342
 20
471.17852028417292
 10
-217.13186374659554
 20
471.19699730520313
 42
0.0345556380987821
 10
-221.09446420405379
 20
474.76653655760356
 10
-221.63190501942921
 20
475.18725592592318
 42
0.0359705020469939
 10
-224.92628554747833
 20
477.403860571
 42
0.0185632668909403
 10
-228.44744749617189
 20
479.25151784091929
 42
0.0385478807415782
 10
-232.14616434616767
 20
480.68195608004567
 10
-233.7375891534808
 20
481.16026505063087
 42
0.0403084119038193
 10
-236.98829820602089
 20
481.85786006340743
 10
-237.97748671364067
 20
481.9880074876213
 42
0.0103058448281283
 10
-239.309185836014
 20
482.13536784572796
 10
-239.38084382212512
 20
482.05079361863716
 42
0.0004999399071689
 10
-256.03670500437789
 20
482.43374865068313
 10
-310.17085872759765
 20
483.62425736655086
 42
0.0069963400541313
 10
-435.10938975076999
 20
484.62326549132399
 10
-518.4058620419388
 20
484.12376178197439
 42
0.0039982889199586
 10
-593.36397490205218
 20
483.07479241920282
 10
-622.5110310428895
 20
482.43375419904203
 42
0.0004998336152315
 10
-639.16626048879164
 20
482.05079361863716
 10
-639.24343062768048
 20
482.13536784572796
 42
0.0102694421494478
 10
-640.57478998864428
 20
481.98810616819367
 10
-640.9049205018822
 20
481.94471060321962
 42
0.0204075313126964
 10
-642.87955024707276
 20
481.60268206002343
 10
-643.84961571478891
 20
481.39356681951551
 42
0.0394694205097516
 10
-647.66010979047485
 20
480.25141427183985
 10
-648.27283217661295
 20
480.01368080365728
 42
0.037632390207602
 10
-653.04672106218186
 20
477.73498074395616
 10
-653.04950920700674
 20
477.73338223474457
 42
0.0359123291987955
 10
-657.44450874433301
 20
474.77559290523959
 10
-657.45823722707212
 20
474.76484633039524
 42
0.034546411773998
 10
-661.42105642039519
 20
471.19535733933344
 10
-661.43889048000744
 20
471.17691030073297
 42
0.0336770197038795
 10
-664.91299574711832
 20
467.06213699616092
 10
-664.93135236484193
 20
467.03716281847687
 42
0.0332985617015315
 10
-667.85841394712247
 20
462.44303018775713
 10
-667.87487138007384
 20
462.41295527693364
 42
0.0334106566372355
 10
-670.19376737277298
 20
457.40839772459492
 10
-670.20782937541901
 20
457.37182947762801
 42
0.0338957302380452
 10
-671.85731810784091
 20
452.02706072255285
 10
-672.10911511832239
 20
450.95925914918439
 42
0.0345747820704134
 10
-672.69042229590139
 20
447.41255572789896
 10
-672.79065889861533
 20
446.34172283891019
 42
0.0087440610573409
 10
-672.90063548879164
 20
444.89451651673937
 10
-672.90063548879164
 20
225.21014250744597
  0
LWPOLYLINE
  5
191
100
AcDbEntity
  8
GAR70-0914
370
              15
390
0
  6
Continuous
 62
               7
100
AcDbPolyline
 90
      146
 70
             128
 10
-400.80975007212498
 20
404.99999973611114
 42
0.005469988695396
 10
-400.81887168363176
 20
405.83376184138172
 10
-400.82339193062467
 20
406.04032400183428
 42
0.0109611324690377
 10
-400.8779850758059
 20
407.28591368559887
 10
-400.9181444683137
 20
407.89607835087384
 42
0.0218778224083972
 10
-401.18774631132067
 20
410.3489981644816
 10
-401.25093870304272
 20
410.75819521674657
 42
0.0217286655559274
 10
-401.87831838688987
 20
413.90696644897446
 10
-401.88223440724562
 20
413.92296033897389
 42
0.0215269365959161
 10
-402.7701134322615
 20
416.9742223123344
 10
-402.77412653522651
 20
416.98608481424901
 42
0.0213056035037271
 10
-403.91077840823039
 20
419.92692132617458
 10
-403.91445768970664
 20
419.9353537361693
 42
0.0210884584776121
 10
-405.28800926922179
 20
422.75291137809177
 10
-405.29104690302859
 20
422.75852812072901
 42
0.0208966653875659
 10
-406.88953105539429
 20
425.44005916936749
 10
-406.89172053812433
 20
425.44340584345457
 42
0.0207450409263428
 10
-408.70307682140879
 20
427.97622270492911
 10
-408.70415810111763
 20
427.97760929660444
 42
0.0206504988279543
 10
-410.71647969528874
 20
430.34932095097906
 42
0.0206119881706523
 10
-412.91753106552505
 20
432.54720891950865
 42
0.0206392273263087
 10
-415.29228601127886
 20
434.5563515597064
 10
-415.29395223902577
 20
434.55764718315424
 42
0.0207261348633379
 10
-417.83000774586537
 20
436.36614264587581
 10
-418.15827980495419
 20
436.5802914231042
 42
0.0208670533184767
 10
-420.17724775210991
 20
437.78038456768115
 42
0.0105009463965376
 10
-422.26883599769576
 20
438.85224902659218
 10
-422.27487170721395
 20
438.85518374830576
 42
0.0211508810260593
 10
-424.44091676892674
 20
439.79731696254044
 10
-424.81691854885219
 20
439.94227992548372
 42
0.0213691154564276
 10
-427.8181125855964
 20
440.9543462123379
 10
-427.83212581698626
 20
440.95841394495551
 42
0.0215750073436534
 10
-430.93733539622224
 20
441.71623913767303
 10
-430.95580324392961
 20
441.71991027194986
 42
0.0217672212019488
 10
-434.152088691676
 20
442.21181102930382
 10
-434.17572987492838
 20
442.21440228850952
 42
0.0218331140989179
 10
-437.45010735804181
 20
442.42922319491595
 10
-437.47590753474572
 20
442.42978710787759
 42
0.0218425702704224
 10
-440.78087836519171
 20
442.3576455478551
 10
-440.80528334416397
 20
442.35604466001075
 42
0.0218215049860655
 10
-444.04280150094462
 20
442.00129549424014
 10
-444.06384832863432
 20
441.99805481100714
 42
0.0216709192355196
 10
-447.21662358882327
 20
441.37171338123972
 10
-447.23284182645193
 20
441.36775404289256
 42
0.0214756607885194
 10
-450.28793081764707
 20
440.48133935333885
 10
-450.30004951889077
 20
440.47725146768914
 42
0.0212621464333916
 10
-453.24453296314516
 20
439.34246318490216
 10
-453.25324082465409
 20
439.3386746410373
 42
0.021053777315813
 10
-456.07426215958947
 20
437.96735575158948
 10
-456.08016127590963
 20
437.96417449560408
 42
0.0208713601336447
 10
-458.76496900489451
 20
436.36825911238111
 10
-458.76859374692765
 20
436.36589440368755
 42
0.0207294623253739
 10
-461.30449495456276
 20
434.55740748438302
 10
-461.30614482364149
 20
434.5561244932419
 42
0.0206445719495411
 10
-463.68074308034249
 20
432.54693568815424
 42
0.0206136821612236
 10
-465.88155167460468
 20
430.34902008985011
 10
-466.14501256114784
 20
430.06326586049943
 42
0.020652089415647
 10
-467.65457373661434
 20
428.28384107186798
 10
-467.89330169182983
 20
427.97765728067418
 42
0.0103604325511876
 10
-468.82599968113084
 20
426.72889390110834
 42
0.0103869917564203
 10
-469.70609338151485
 20
425.44251711285528
 10
-469.92118232477139
 20
425.11368072944094
 42
0.0208954246959196
 10
-471.12058784515682
 20
423.10120007939418
 10
-471.30902017499375
 20
422.75270408821279
 42
0.0210886091195127
 10
-472.68226045968061
 20
419.93514016049824
 10
-472.68594415235521
 20
419.92669555683415
 42
0.0213041314696568
 10
-473.82230102113931
 20
416.98585701905256
 10
-473.82631836107851
 20
416.97397868386031
 42
0.0215247497477141
 10
-474.7139326964458
 20
413.92271423311092
 10
-474.71785073613228
 20
413.90670684145903
 42
0.021722178013829
 10
-475.34502406692798
 20
410.75793853824268
 10
-475.34824799984278
 20
410.73705532328449
 42
0.0218893892575383
 10
-475.70338844553908
 20
407.50370551791036
 10
-475.70499457905419
 20
407.47926676195175
 42
0.0218669313671087
 10
-475.77729515409249
 20
404.17832088051773
 10
-475.77672880373859
 20
404.15237824945848
 42
0.021903882807342
 10
-475.56165627001928
 20
400.87994709851364
 10
-475.55905799006598
 20
400.85629795543696
 42
0.0217992005019503
 10
-475.06642628464874
 20
397.66207962630369
 10
-475.06275882677028
 20
397.64366732038297
 42
0.0216194468542721
 10
-474.30389662035327
 20
394.54058947498891
 10
-474.2998488196364
 20
394.52667414616417
 42
0.021407709598541
 10
-473.28638317735908
 20
391.52766651592356
 10
-473.2824652717062
 20
391.51752599697113
 42
0.0211887376123867
 10
-472.02618381964771
 20
388.6354732049017
 10
-472.02275998571758
 20
388.62844707662794
 42
0.0209848017523724
 10
-470.53557362513504
 20
385.87615260974076
 10
-470.53290363440374
 20
385.87167163910681
 42
0.0208144447117356
 10
-468.8268020561444
 20
383.26183713080604
 10
-468.82508676290695
 20
383.25943754430705
 42
0.0206918579332417
 10
-466.91209270742445
 20
380.80465681888825
 42
0.0206207120011743
 10
-464.80364504679858
 20
378.51674680341853
 42
0.0206307858966037
 10
-462.51363762888911
 20
376.4102536617429
 42
0.0206825165472402
 10
-460.05680704914096
 20
374.49917776579662
 10
-460.05423245861175
 20
374.49734076563664
 42
0.0207990568969709
 10
-457.44223753744529
 20
372.79296232491913
 10
-457.437580383252
 20
372.79019246859639
 42
0.020963733072308
 10
-454.68302357803123
 20
371.3045177669004
 10
-454.67582750589008
 20
371.30101758604587
 42
0.021162217609438
 10
-451.79141975242635
 20
370.04602051443328
 10
-451.78112265007746
 20
370.04204945152981
 42
0.0213774142173837
 10
-448.77967428187355
 20
369.02963096159795
 10
-448.7656255566817
 20
369.02555196451817
 42
0.0215819225274949
 10
-445.66003728145256
 20
368.26747215918999
 10
-445.64151591306097
 20
368.26378970296184
 42
0.0217733835443393
 10
-442.44471037866515
 20
367.77173315701543
 10
-442.42099976338807
 20
367.76913402769401
 42
0.0218334145137404
 10
-439.14594693657011
 20
367.55423517490533
 10
-439.12004347134746
 20
367.55366875488528
 42
0.0218541089620928
 10
-435.8155971040793
 20
367.62584329827359
 10
-435.7911797937935
 20
367.62744589022645
 42
0.0218323015483737
 10
-432.55422714935048
 20
367.98232337971058
 10
-432.53327920978882
 20
367.98555054519886
 42
0.0216791895046579
 10
-429.38090555142639
 20
368.61212743881504
 10
-429.36478340072767
 20
368.61606524552178
 42
0.0214817960919033
 10
-426.30994992760088
 20
369.50281982004685
 10
-426.29792241650455
 20
369.50687878431893
 42
0.0212662945603924
 10
-423.35356590375159
 20
370.64211041168608
 10
-423.34494271727181
 20
370.64586369377173
 42
0.0210561343427415
 10
-420.52393671583059
 20
372.01772818166546
 10
-420.51811465418541
 20
372.02086911102469
 42
0.0208721549113468
 10
-417.83322714968722
 20
373.61743102093328
 10
-417.82967124428319
 20
373.61975166589139
 42
0.0207289301586849
 10
-415.29361114818232
 20
375.42898473169043
 10
-415.29202166802384
 20
375.43022118166198
 42
0.0206429596240087
 10
-412.91720116355793
 20
377.44025461563297
 42
0.0206116509141962
 10
-410.71617440565433
 20
379.63906442307757
 10
-410.45270861207769
 20
379.9249087830234
 42
0.02064885488874
 10
-408.94293468840249
 20
381.70509459912148
 42
0.0103581428507807
 10
-407.54548473543684
 20
383.57661029535564
 10
-407.54381756798307
 20
383.57894227307759
 42
0.0208102836521805
 10
-406.26335538396302
 20
385.53739165587979
 10
-405.86277025449772
 20
386.20956899476823
 42
0.020985089890562
 10
-404.74365805684999
 20
388.28031419417198
 42
0.0105706066356198
 10
-403.75671140779014
 20
390.41891700817973
 10
-403.7536025469019
 20
390.426045909903
 42
0.0212962341853164
 10
-402.89983259077576
 20
392.63615477820736
 10
-402.64524894522083
 20
393.389083394468
 42
0.021512723678928
 10
-401.974669671161
 20
395.69469967151485
 42
0.0108472217572217
 10
-401.45423273953543
 20
398.04047319885831
 10
-401.45126164559679
 20
398.05538790802245
 42
0.0218012296070032
 10
-401.08060808876485
 20
400.45845186359986
 10
-401.03424755529204
 20
400.88037326998074
 42
0.021905033926992
 10
-400.81913971426263
 20
404.15287754313181
 10
-400.81886096261746
 20
404.1656421485601
 42
0.0054576415310686
 10
-400.80975007212498
 20
404.99999973611114
 42
0.0054576415310686
  0
LWPOLYLINE
  5
192
100
AcDbEntity
  8
GAR70-0914
370
              15
390
0
  6
Continuous
 62
               7
100
AcDbPolyline
 90
      141
 70
             128
 10
-415.30671187768053
 20
404.99999973611114
 42
0.0057611061350602
 10
-415.3129393214158
 20
405.5404547197794
 10
-415.3221729654374
 20
405.94107707533431
 42
0.0231666938574511
 10
-415.41509099935092
 20
407.27839749468592
 10
-415.46214386181998
 20
407.6832809543132
 42
0.0230304982882068
 10
-415.79898375639038
 20
409.74759621702356
 10
-415.80151709046561
 20
409.75961144228415
 42
0.0228181974445475
 10
-416.31979560867558
 20
411.76070815494904
 10
-416.3225316230729
 20
411.76958257794217
 42
0.0225744422048566
 10
-417.01382057145486
 20
413.69803892181449
 10
-417.01639627663963
 20
413.70431679647527
 42
0.0223292037369502
 10
-417.87214598677451
 20
415.55075506962612
 10
-417.87430873357118
 20
415.5549231330117
 42
0.022109271261128
 10
-418.88587964149451
 20
417.31003772927647
 10
-418.88745005984686
 20
417.31250370578994
 42
0.0219361848443509
 10
-420.04615159836669
 20
418.96707482648731
 10
-420.04698435639955
 20
418.9681594322642
 42
0.0218255425342284
 10
-421.3441137357612
 20
420.51305379632925
 42
0.0217875832379147
 10
-422.77093758694423
 20
421.9391552367282
 42
0.0218228253557763
 10
-424.31659938973701
 20
423.23561828490017
 10
-424.31781092877975
 20
423.23654755465327
 42
0.0219306355979733
 10
-425.9733314281815
 20
424.39472741039049
 10
-425.97593334459509
 20
424.39638268177532
 42
0.0221007584192541
 10
-427.73219865865508
 20
425.40755737929362
 10
-427.73651081237188
 20
425.40979250715623
 42
0.0223172154438942
 10
-429.58431974732093
 20
426.26525293488601
 10
-429.5907492708161
 20
426.26788794500408
 42
0.0225597997665022
 10
-431.5208166358974
 20
426.95897318449602
 10
-431.52984737882105
 20
426.96175413526771
 42
0.0227959904821969
 10
-433.5328094755539
 20
427.4799065772504
 10
-433.54498834978278
 20
427.4824713545305
 42
0.0230193282680421
 10
-435.61145478507297
 20
427.81919908457576
 10
-435.62733382469435
 20
427.82104128658239
 42
0.0230970526735113
 10
-437.74787317572316
 20
427.96825693992878
 10
-437.76539054548118
 20
427.96866212900568
 42
0.0231157130496548
 10
-439.90653171942006
 20
427.91920021957219
 10
-439.92301141812277
 20
427.91805601668648
 42
0.0230866439110285
 10
-442.01767993612737
 20
427.67507227216879
 10
-442.03164096892033
 20
427.67279560651002
 42
0.0229082904009832
 10
-444.06751819175008
 20
427.24426997379385
 10
-444.07805207045715
 20
427.24154354290056
 42
0.0226805805970765
 10
-446.04572822009243
 20
426.63584284946864
 10
-446.05339349757662
 20
426.63309703715356
 42
0.0224361941505619
 10
-447.94348448152266
 20
425.85873034420251
 10
-447.94879863586391
 20
425.8562692993894
 42
0.0222040603767442
 10
-449.75198001847832
 20
424.92185368955722
 10
-449.75539099297873
 20
424.91988933262712
 42
0.0220084565906422
 10
-451.46241861377291
 20
423.83411254254293
 10
-451.46429003358298
 20
423.83280310930058
 42
0.021868044575814
 10
-453.06600717329184
 20
422.60438432697072
 42
0.0217868122917767
 10
-454.55394889127672
 20
421.24152556988088
 42
0.0218037627390976
 10
-455.91743740081529
 20
419.75437469108851
 42
0.0218724950967713
 10
-457.14643229647834
 20
418.15349720342977
 10
-457.14765189983927
 20
418.15175591278944
 42
0.0220160269959494
 10
-458.23386701655579
 20
416.44575626510095
 10
-458.2357533220196
 20
416.4424841557377
 42
0.0222150038688628
 10
-459.17048594722894
 20
414.64053812948464
 10
-459.17288140385347
 20
414.63537097776975
 42
0.0224505829704198
 10
-459.94746057066845
 20
412.74674291837471
 10
-459.95015419809067
 20
412.73923134928691
 42
0.02269938286881
 10
-460.55597780884148
 20
410.77326528223148
 10
-460.55866563265306
 20
410.76289186032795
 42
0.0229284598077971
 10
-460.9872492468354
 20
408.72899726447724
 10
-460.9895023952073
 20
408.71519638348013
 42
0.0231225629027205
 10
-461.23245995844832
 20
406.62279455028033
 10
-461.23359342874392
 20
406.60647883958268
 42
0.0231129474443377
 10
-461.28309289941978
 20
404.46791459121323
 10
-461.28269201756598
 20
404.45054518864208
 42
0.0231594562103596
 10
-461.13548823274959
 20
402.33244040957641
 10
-461.13366103371993
 20
402.31671796380658
 42
0.0230298608844635
 10
-460.79681846645644
 20
400.2524031625228
 10
-460.79428513971448
 20
400.24038797338369
 42
0.0228181864993736
 10
-460.27600663828048
 20
398.23929133085176
 10
-460.27327067927752
 20
398.23041708686446
 42
0.0225744669397115
 10
-459.58198157672189
 20
396.30196048419918
 10
-459.57940556981578
 20
396.29568187552866
 42
0.0223291179473642
 10
-458.72365656688646
 20
394.44924467417115
 10
-458.72149537552286
 20
394.44507960572605
 42
0.0221095529352822
 10
-457.70992124499196
 20
392.68996062599911
 10
-457.70834317342576
 20
392.68748263660245
 42
0.0219353279886878
 10
-456.54965615235415
 20
391.03292924573782
 10
-456.54885975509831
 20
391.03189199167718
 42
0.0218277965252964
 10
-455.2516657175521
 20
389.48692670810419
 10
-455.08083246173237
 20
389.30061638286713
 42
0.0217834608780543
 10
-454.01122836667241
 20
388.23154999975486
 42
0.010904346650525
 10
-452.87326675452857
 20
387.23392550440121
 10
-452.87251228781338
 20
387.23329263817686
 42
0.0218664902950161
 10
-451.67096316385482
 20
386.31179527911922
 10
-451.46228651963884
 20
386.1657859622585
 42
0.0220087298685656
 10
-449.75524910700847
 20
385.08001829575119
 10
-449.75183748275913
 20
385.07805359620556
 42
0.0222044694428961
 10
-447.94864457468475
 20
384.14364977979267
 10
-447.94332999501592
 20
384.14118859341374
 42
0.0224365509682432
 10
-446.05322653177348
 20
383.36683731140238
 10
-446.04556073263461
 20
383.36409139881368
 42
0.0226816157314144
 10
-444.07787093330751
 20
382.75841252633904
 10
-444.06733804111843
 20
382.7556865098004
 42
0.022906747865785
 10
-442.03145118572911
 20
382.32718237698623
 10
-442.01748751251819
 20
382.32490539517812
 42
0.0230970249949567
 10
-439.92280407704823
 20
382.08198091803342
 10
-439.90633495108614
 20
382.08083826812242
 42
0.023082780167206
 10
-437.76519934302894
 20
382.03134147003084
 10
-437.74767621033868
 20
382.03174535165226
 42
0.0231316934979384
 10
-435.62713734015585
 20
382.17893341714989
 10
-435.61125137377758
 20
382.18077732939321
 42
0.0230061973142791
 10
-433.54480216129457
 20
382.51756603047988
 10
-433.53262557888468
 20
382.52013037365816
 42
0.022798474170563
 10
-431.52967338815665
 20
383.03829901943118
 10
-431.52064206534578
 20
383.04108028469705
 42
0.022558595114051
 10
-429.59058831007735
 20
383.73218534048988
 10
-429.58415870371812
 20
383.73482045163064
 42
0.02231687004782
 10
-427.73636273695308
 20
384.59029336457195
 10
-427.73205408475064
 20
384.59252671875424
 42
0.0221006658031755
 10
-425.9757951140333
 20
385.60371498506083
 10
-425.97318185404777
 20
385.60537749928426
 42
0.021929574434453
 10
-424.31768806335947
 20
386.7635511412027
 10
-424.31652463407966
 20
386.76444351542727
 42
0.0218249160150311
 10
-422.77079916526191
 20
388.06097870270537
 10
-422.58432346631912
 20
388.23179267926741
 42
0.0217837171669096
 10
-421.51476691451717
 20
389.30082268132969
 42
0.010906722336538
 10
-420.51662148971116
 20
390.43824822116062
 10
-420.5160390063171
 20
390.43894193706205
 42
0.0218698219048231
 10
-419.59409626597539
 20
391.6398752325706
 10
-419.30385679279084
 20
392.05426717577768
 42
0.0220170081627875
 10
-418.48741632631993
 20
393.33657340112563
 42
0.0110819559872319
 10
-417.75704892649685
 20
394.67103800204768
 10
-417.75517693253846
 20
394.67464597071103
 42
0.0223229202530392
 10
-417.11258175092996
 20
396.0612198012933
 10
-417.11168806448757
 20
396.06339803832793
 42
0.011262581291865
 10
-416.56150189240884
 20
397.49542645347231
 10
-416.55927094572223
 20
397.50164825820957
 42
0.0226859952726938
 10
-416.10395690389464
 20
398.97918402987636
 10
-416.10299967491278
 20
398.98287793640554
 42
0.0114506608728117
 10
-415.74751550858844
 20
400.49661278784606
 10
-415.74545656141447
 20
400.5063800460498
 42
0.0230080730981846
 10
-415.49203015569776
 20
402.05945942192409
 10
-415.46159303186937
 20
402.32125542095685
 42
0.0115670381113079
 10
-415.36257097763291
 20
403.38743316156751
 42
0.0115909016548557
 10
-415.3130162611352
 20
404.45705091451021
 10
-415.31295947248782
 20
404.45950721147733
 42
0.0057785330969553
 10
-415.30671187768053
 20
404.99999973611114
 42
0.0057785330969553
  0
CIRCLE
  5
193
100
AcDbEntity
  8
GAR70-0914
370
              15
390
0
  6
STYLE_01
 62
               7
100
AcDbCircle
 10
-339.27355215545833
 20
530.0
 30
0.0
 40
17.498329000000012
  0
CIRCLE
  5
194
100
AcDbEntity
  8
GAR70-0914
370
              15
390
0
  6
STYLE_01
 62
               7
100
AcDbCircle
 10
-539.27355215545833
 20
530.0
 30
0.0
 40
17.498329000000012
  0
LWPOLYLINE
  5
195
100
AcDbEntity
  8
GAR70-0914
370
              15
390
0
  6
Continuous
 62
               7
100
AcDbPolyline
 90
       34
 70
             128
 10
559.81267361111111
 20
-723.03781020820168
 10
559.09609374999991
 20
-698.83394736097955
 42
0.0035714623477202
 10
559.09197796810247
 20
-698.72005037870645
 10
559.08584210770653
 20
-698.57831249919036
 42
0.021364644810414
 10
559.05171744657514
 20
-698.18242794535809
 10
559.01893701367885
 20
-697.92914899996299
 42
0.0282623443939393
 10
558.89480309627754
 20
-697.26662763356683
 10
558.86763656592836
 20
-697.15644049830303
 42
0.0140571787696253
 10
558.74821571465225
 20
-696.72467374665541
 42
0.0140244719655622
 10
558.6047477621853
 20
-696.30029001529181
 10
558.56603400084498
 20
-696.19555118651124
 42
0.0279207824461337
 10
558.29895849078935
 20
-695.58085224597176
 42
0.0139673192587639
 10
557.98110513554457
 20
-694.99017168872967
 10
557.98078741781035
 20
-694.9896188423055
 42
0.0279207026606869
 10
557.61436369703188
 20
-694.42719102245337
 10
557.61405285543822
 20
-694.4267676001424
 42
0.014018420708268
 10
557.20067994736019
 20
-693.89556246347195
 10
557.19926529732277
 20
-693.89384608764499
 42
0.0281049931943437
 10
556.74019595347113
 20
-693.3966248282386
 10
556.59710339863727
 20
-693.2581283846464
 42
0.0141262133369126
 10
556.3868717218046
 20
-693.06584898062385
 10
556.32226814172327
 20
-693.01003028948014
 42
0.0035344959855555
 10
556.23528645833335
 20
-692.93594388875715
 10
552.61931423611111
 20
-689.90425986097944
 42
0.0012886008625669
 10
552.58093959558619
 20
-689.87212750872504
 10
552.47543550148691
 20
-689.78424700093296
 42
0.0152639811566382
 10
552.21986313439936
 20
-689.58425645426769
 10
552.06966511704866
 20
-689.4739455784603
 42
0.0200756360813766
 10
551.49194063933305
 20
-689.08434292737047
 10
551.42887012344431
 20
-689.04539809685252
 42
0.0197555880810135
 10
550.78281371980995
 20
-688.68090330228961
 10
550.76044842491183
 20
-688.66942514723348
 42
0.0170353095289148
 10
550.13467268536408
 20
-688.37474983349182
 42
0.0011994461398142
 10
550.08923611111118
 20
-688.35534493042405
 42
0.0011994461398142
  0
LWPOLYLINE
  5
196
100
AcDbEntity
  8
GAR70-0914
370
              15
390
0
  6
Continuous
 62
               7
100
AcDbPolyline
 90
       67
 70
             128
 10
631.80138888888882
 20
-688.14037097209064
 42
-0.0014346639389733
 10
627.22972298350385
 20
-688.449979801719
 10
624.53208283125457
 20
-688.62489878614167
 42
-0.0038815304186581
 10
614.55983167905879
 20
-689.19381159042814
 10
611.88246119997598
 20
-689.32571114951088
 42
-0.0022597777620049
 10
604.96679759746291
 20
-689.63508371320654
 10
604.91880400716002
 20
-689.63701340795819
 42
-0.0030399246700532
 10
598.09631408828011
 20
-689.86979060274791
 10
597.5839374244074
 20
-689.88415425048538
 42
-0.0046265719717477
 10
591.78377789074068
 20
-689.99305319575126
 42
-0.0049796750707529
 10
585.98263606440207
 20
-689.99050424574727
 10
585.87011664255999
 20
-689.98933415287502
 42
-0.004924606361422
 10
579.84516307743843
 20
-689.86732549328383
 10
579.23540066691805
 20
-689.8489679785647
 42
-0.0034617674266305
 10
571.99398093421769
 20
-689.58076497833019
 10
571.97011802706277
 20
-689.57971567275035
 42
-0.0026378848248644
 10
564.6847227689168
 20
-689.22084090397232
 10
561.03111644149396
 20
-689.02153864793036
 42
-0.0051307167423716
 10
550.04484148946779
 20
-688.30910657457912
 10
546.36457408978492
 20
-688.03250068614204
 42
-0.0015942303851535
 10
542.74704861111115
 20
-687.74900812486828
 10
534.89774305555557
 20
-687.23637791653505
 42
-0.0017989482758604
 10
532.67824409454363
 20
-687.07957979136199
 10
529.9047607949343
 20
-686.87361394792788
 42
-0.0107742468206136
 10
522.15488756313232
 20
-686.12988110020683
 10
518.28817346923722
 20
-685.6745304803668
 42
-0.0143451000932684
 10
502.88585209396615
 20
-683.41109227434458
 10
500.69743147441841
 20
-683.02506731064807
 42
-0.01433336177748
 10
485.43677125274064
 20
-679.87970225890513
 10
481.64631581629874
 20
-678.98448113023403
 42
-0.0107517359076782
 10
474.09879220735741
 20
-677.02967858775764
 10
471.41873352674008
 20
-676.27369748226306
 42
-0.0017925130630735
 10
469.27556423611111
 20
-675.66085708320168
 42
0.0093847154943647
 10
468.46527777777783
 20
-675.41832236097946
 42
-0.0033394570843228
 10
468.29457855874796
 20
-675.35793992477682
 10
464.77636390673638
 20
-674.08692019110492
 42
-0.0004925553051168
 10
457.57221046571476
 20
-671.47626129970763
 10
454.0565104166667
 20
-670.19831368042389
 42
-0.0020379202563417
 10
453.88822773974778
 20
-670.12116725296244
 10
452.32644889077221
 20
-669.39747759872023
 42
-0.0003115331824819
 10
449.03587453934938
 20
-667.87021572017863
 10
447.47500000000002
 20
-667.14458104153493
 42
-0.0005131359099685
 10
440.02808159722224
 20
-663.126221666535
 42
-0.0015289037906224
 10
439.36700392083287
 20
-662.73709628350298
 10
437.21749887918577
 20
-661.46298257463536
 42
-0.0204169782551133
 10
432.38673891421081
 20
-658.32626701617914
 10
428.3118904328993
 20
-655.43728797018696
 42
-0.0203877790626101
 10
423.76031423850054
 20
-651.92301272073405
 10
421.84917073478584
 20
-650.31893518777338
 42
-0.0014951915599959
 10
421.26471354166677
 20
-649.8253970137572
 42
0.0020007757382059
 10
420.02999131944443
 20
-648.75603937486846
 42
-0.0030190848971747
 10
417.96230217569359
 20
-646.92743807328225
 10
415.40233929758517
 20
-644.63578979061253
 42
-0.0184227750975958
 10
408.47197121731267
 20
-637.95596683081794
 10
406.08391964117141
 20
-635.47820468884481
 42
-0.0123808565029822
 10
398.69838697254727
 20
-627.42539355233509
 10
398.69325789145455
 20
-627.41951530691938
 42
-0.0124112424604231
 10
391.72588026722724
 20
-619.02257991318663
 42
-0.0124176622345078
 10
385.18335594068299
 20
-610.28940528960629
 42
-0.0123982050987288
 10
379.08160656515486
 20
-601.24164096557229
 10
379.07635315702169
 20
-601.23341847346296
 42
-0.0123470484526872
 10
373.41953809035851
 20
-591.87817318546092
 10
372.39383761200236
 20
-590.08322085844418
 42
-0.0122600081670601
 10
369.13091600416999
 20
-584.03353614778268
 10
368.19775817510708
 20
-582.19700732674016
 42
-0.003040303223825
 10
366.9644965277779
 20
-579.73286229153507
 10
364.21944444444455
 20
-574.16558798597941
  0
LINE
  5
197
100
AcDbEntity
  8
GAR70-0914
370
              15
390
0
  6
Continuous
 62
               7
100
AcDbLine
 10
676.08602462499994
 20
-574.16558798597941
 30
0.0
 11
350.25164962499991
 21
-574.16558798597941
 31
0.0
  0
LWPOLYLINE
  5
198
100
AcDbEntity
  8
GAR70-0914
370
              15
390
0
  6
Continuous
 62
               7
100
AcDbPolyline
 90
      184
 70
             128
 10
356.2598958333333
 20
-606.02583104153507
 10
351.23832465277781
 20
-580.09666437486828
 10
350.2516493055557
 20
-574.16558798597941
 10
330.0
 20
-574.16558798597941
 10
330.87092013888901
 20
-561.03564006931276
 42
-0.015484481629369
 10
330.88645940134347
 20
-560.53399148364247
 10
330.89408507235385
 20
-560.4110211538208
 42
-0.0311843998951579
 10
330.98669557517246
 20
-559.6696948871197
 10
331.05372759040688
 20
-559.31470435379731
 42
-0.0611467372479378
 10
331.49743865227458
 20
-557.92364526273184
 10
331.59741998840411
 20
-557.70616521643603
 42
-0.0595208382982903
 10
332.58599116940889
 20
-556.09309274668874
 10
332.73533599512893
 20
-555.90408837456141
 42
-0.0586702706207477
 10
333.73557359145184
 20
-554.90489803683806
 42
-0.0296473293877617
 10
334.90166394588209
 20
-554.09268527845347
 10
334.90821067585171
 20
-554.08867942410518
 42
-0.0602132073519209
 10
336.20738982944033
 20
-553.49468351572068
 10
336.79256300336067
 20
-553.30817079071699
 42
-0.0617663925036005
 10
338.00342102591139
 20
-553.08135145375422
 10
338.37174142747915
 20
-553.05856054966705
 42
-0.0154510135708204
 10
338.8745659722224
 20
-553.04301854153493
 10
760.6700086805555
 20
-553.04301854153493
 10
761.43619791666663
 20
-552.10595256931276
 10
762.11419270833323
 20
-551.26810534709057
 42
-0.0065734642954948
 10
762.21094455067851
 20
-551.15130922217702
 10
762.43201536022787
 20
-550.89146923217595
 42
-0.063116836882451
 10
763.04313307183963
 20
-550.33371735461026
 10
763.3438420111313
 20
-550.12188241891226
 42
-0.0504601843530415
 10
764.33923890579126
 20
-549.5613383848397
 10
764.41367983767384
 20
-549.52880352309194
 42
-0.0435762344271408
 10
765.34428415461923
 20
-549.21530023578566
 10
765.60093873647554
 20
-549.15307900965865
 42
-0.0405246336091199
 10
766.05139134884121
 20
-549.0818458489565
 10
766.26111084049626
 20
-549.06591160204141
 42
-0.0017441685451472
 10
766.29791666666654
 20
-549.06324423597937
 10
766.3089409722221
 20
-549.06324423597937
 10
768.37048611111106
 20
-549.06324423597937
 42
-0.015467666730199
 10
768.5284165121866
 20
-549.06813103476043
 10
768.7215455714927
 20
-549.08009437226644
 42
-0.0913119500141569
 10
769.24173461159671
 20
-549.20959234507961
 10
769.41770480315517
 20
-549.28946755385743
 42
-0.0597274126474664
 10
769.92335480289694
 20
-549.59630429686729
 10
769.92374905908162
 20
-549.59661327990955
 42
-0.0589465728829686
 10
770.34256607135876
 20
-550.01299845655376
 42
-0.0601888404196487
 10
770.6513243552713
 20
-550.51623419467785
 10
770.73244458912347
 20
-550.69307184962224
 42
-0.0921677070354435
 10
770.86168775205465
 20
-551.20721837586859
 10
770.87362032709188
 20
-551.39802711416269
 42
-0.0156151449643956
 10
770.87851562499998
 20
-551.55473729153493
 10
770.87851562499998
 20
-574.16558798597941
 10
676.0860243055555
 20
-574.16558798597941
 42
-0.0002347679897046
 10
675.76784521824368
 20
-576.01662745159842
 10
675.19264361033527
 20
-579.35353669323933
 42
-0.0004831210057695
 10
673.7149566236418
 20
-587.87681744219958
 10
672.9551289751771
 20
-592.23447358331134
 42
0.0005613009778679
 10
670.61546834566468
 20
-605.74215609182568
 10
670.4545673947764
 20
-606.67733548139449
 42
0.0011853846037123
 10
668.47947919809701
 20
-618.32196820408035
 42
0.0017385255585269
 10
666.5725262187625
 20
-629.97791400465121
 10
666.05901988877315
 20
-633.18661957075278
 42
0.0011230747102574
 10
664.79175622274022
 20
-641.22087787417502
 10
664.32527363439169
 20
-644.22209218656371
 42
-0.0015835057382912
 10
664.00258069021231
 20
-646.25574635746148
 42
0.0105018290103582
 10
663.71627087882769
 20
-648.29439277019799
 10
663.70412956088433
 20
-648.39634881302288
 42
0.0031752613290738
 10
663.45065084738587
 20
-650.64653126662915
 10
663.44710956368851
 20
-650.67986993948762
 42
-0.0017213626343703
 10
663.19285939769486
 20
-652.99746416129369
 10
663.18092706729033
 20
-653.10288290709764
 42
-0.0061112210110793
 10
662.88724751409006
 20
-655.44134757399092
 10
662.83711116070526
 20
-655.8045985513719
 42
-0.013687688655867
 10
662.57128271644433
 20
-657.40569313051606
 10
662.50493146590861
 20
-657.74719420004192
 42
-0.0118613943559982
 10
662.30646837521124
 20
-658.65329936206763
 10
662.29060246266283
 20
-658.71831746430837
 42
-0.0174432298561984
 10
662.075716304004
 20
-659.48217876242325
 10
662.0345301081843
 20
-659.61114847138231
 42
-0.0296950875519684
 10
661.84639701397975
 20
-660.09838833393871
 10
661.80475383791691
 20
-660.18970519124468
 42
-0.0275694276715784
 10
661.65520833333335
 20
-660.47487618042396
 42
-0.0094730986563991
 10
661.40428709273988
 20
-661.73045526587487
 10
661.33630375639189
 20
-662.03999866967263
 42
-0.018961845625274
 10
660.85537797583322
 20
-663.89166509187385
 10
660.58544746214454
 20
-664.7895616107744
 42
-0.0375691299260964
 10
659.22901483561293
 20
-668.31671198553636
 10
658.95970535450317
 20
-668.88545689810906
 42
-0.0370519086265131
 10
656.52523514346422
 20
-673.1740061554068
 10
656.51878681770006
 20
-673.18362907649009
 42
-0.0366712649290887
 10
653.49501172766224
 20
-677.05021099919725
 10
653.07945873336018
 20
-677.5080725631783
 42
-0.036492201013495
 10
650.41761500969017
 20
-680.04232928035071
 42
-0.0183124875519597
 10
647.48877368726482
 20
-682.27474914551829
 10
647.48264096838454
 20
-682.27907804980134
 42
-0.0368062977966597
 10
644.31964503794552
 20
-684.17969880628357
 10
643.21348293092501
 20
-684.73811155080978
 42
-0.0372671475752197
 10
639.75509183200745
 20
-686.17182863109429
 10
639.17554413297364
 20
-686.36291805496023
 42
-0.0188387685414911
 10
636.74279031772846
 20
-687.06463633333124
 10
636.44172619903759
 20
-687.13931779206962
 42
-0.0189447460012016
 10
634.56988085447335
 20
-687.52903170625189
 10
634.25754687441133
 20
-687.58180405652342
 42
-0.0094686004569739
 10
632.99201388888889
 20
-687.77105673597941
 10
631.80138888888882
 20
-688.14037097209064
 42
0.0127437940762355
 10
631.54232184026694
 20
-688.22839803490695
 10
631.22419405875132
 20
-688.34561799245546
 42
0.07260763650252
 10
630.39678814124431
 20
-688.79547779583163
 10
630.12623570973562
 20
-688.99816078113679
 42
0.046298073388894
 10
629.33904996304125
 20
-689.71043937687818
 42
0.0448924898975342
 10
628.6938352987313
 20
-690.55381248747108
 10
628.69325849516224
 20
-690.55472572580186
 42
0.0443772587384288
 10
628.20693689517202
 20
-691.50122129380998
 10
628.07798734468099
 20
-691.81858301359898
 42
0.0670914233491367
 10
627.84324667813996
 20
-692.73044864472911
 10
627.8033957175644
 20
-693.0666678804248
 42
0.0115024541851242
 10
627.77751736111111
 20
-693.33833104153496
 10
625.99157986111118
 20
-721.16919041653512
 42
-0.0149945929582287
 10
625.98045380698602
 20
-721.28882744422106
 10
625.96239267076646
 20
-721.43526306375429
 42
-0.088214488625832
 10
625.84207014207732
 20
-721.82604272296817
 10
625.77481411872964
 20
-721.95692939758919
 42
-0.0576291883382476
 10
625.52248282198741
 20
-722.33395908949535
 42
-0.0567339182734054
 10
625.19113166153818
 20
-722.6441687959508
 42
-0.0576105011981265
 10
624.79810351139474
 20
-722.87130282586406
 10
624.66075359053093
 20
-722.93082360512994
 42
-0.0876572492073153
 10
624.26347977973671
 20
-723.02554372801922
 10
624.11666521607549
 20
-723.03424354562082
 42
-0.0147980727469403
 10
623.9961805555555
 20
-723.03781020820168
 10
557.75112847222226
 20
-723.03781020820168
 42
-0.0148802412313905
 10
557.63064498696303
 20
-723.03422376743617
 10
557.48300288636426
 20
-723.0254262255911
 42
-0.0877746720151464
 10
557.08420527554915
 20
-722.93010603934943
 10
556.94875670614942
 20
-722.87128131300983
 42
-0.0574823911894913
 10
556.55579920765956
 20
-722.64390530903256
 42
-0.0567735940970911
 10
556.22453174125394
 20
-722.33360264344947
 42
-0.0577553490710352
 10
555.97243467804458
 20
-721.95648198943934
 10
555.90435227818261
 20
-721.823728525972
 42
-0.0881087675271638
 10
555.78473735226919
 20
-721.4344410948064
 10
555.76683299904607
 20
-721.28883018080751
 42
-0.0149014429713081
 10
555.75572916666681
 20
-721.16919041653512
 10
555.65651041666672
 20
-719.63129979153507
 42
0.0147083178925796
 10
555.62909364163227
 20
-719.3408610310446
 10
555.58481456310153
 20
-718.98424808180891
 42
0.0856710785439171
 10
555.29580250146751
 20
-718.03127619735301
 10
555.13492948876547
 20
-717.71092123485573
 42
0.0558694464661292
 10
554.52993209662498
 20
-716.78143933184083
 42
0.0552223610742878
 10
553.73495856947216
 20
-716.0077432854489
 42
0.0559609469859522
 10
552.78912732507092
 20
-715.42821146175982
 10
552.66122046916155
 20
-715.36832067293312
 42
0.057287263852857
 10
551.85190245719912
 20
-715.09700372445354
 10
551.64546686865242
 20
-715.05321554329998
 42
0.0291674425114365
 10
551.21400646241887
 20
-714.98769812702153
 10
551.14227557444178
 20
-714.98105265895663
 42
0.0145158847852338
 10
550.84991319444441
 20
-714.96250638875722
 10
550.30421006944448
 20
-714.91289701375717
 42
-0.0012567298441702
 10
547.48100487874672
 20
-714.79103852904916
 10
543.93659174392053
 20
-714.62912410392209
 42
-0.0092156978705191
 10
534.03657647691887
 20
-713.99385414766505
 10
530.50418672784747
 20
-713.70172776574884
 42
-0.0070716924571948
 10
519.15786166513419
 20
-712.60162364304347
 42
-0.0077977170857701
 10
507.84591640835708
 20
-711.16409591286083
 42
-0.0086115751079233
 10
496.58742744581355
 20
-709.35633079485876
 10
496.57876978944637
 20
-709.35478725084477
 42
-0.0094579970056259
 10
485.41402529757704
 20
-707.14560083864683
 10
485.40247329521662
 20
-707.14308707803059
 42
-0.0103463024265136
 10
474.35734151200711
 20
-704.49914003771153
 10
474.34538906256557
 20
-704.49601607049738
 42
-0.0112688543975678
 10
463.44902188493961
 20
-701.38412960910409
 10
463.43937875514905
 20
-701.38113902078987
 42
-0.0122165615772466
 10
452.7207424476469
 20
-697.76769454395333
 42
-0.0131808606748419
 10
442.20423010599325
 20
-693.61690418254625
 42
-0.0141204450258642
 10
431.93128637072471
 20
-688.89878073835655
 42
-0.0150409036346033
 10
421.94787156575035
 20
-683.5883541273339
 10
420.71542502053819
 20
-682.88443643202686
 42
-0.0159117972762183
 10
413.44261392395765
 20
-678.41782364659946
 10
413.17772435037853
 20
-678.24329736651418
 42
-0.0082877370183113
 10
406.65075835901712
 20
-673.78603654897756
 42
-0.0145675337654267
 10
400.33608425075931
 20
-669.03656323707537
 10
398.55486100912196
 20
-667.6137545469885
 42
-0.0205790792689775
 10
389.15239665150671
 20
-659.44749427041484
 10
387.75510529958581
 20
-658.12923623248832
 42
-0.0175573704801454
 10
380.46581898505883
 20
-650.75172277651859
 10
379.96506316485045
 20
-650.20798642092461
 42
-0.0137555409071873
 10
374.12097652891202
 20
-643.50109777534806
 42
-0.0023573494071115
 10
373.18220486111113
 20
-642.3509178470905
 42
-0.0023573494071115
  0
LWPOLYLINE
  5
199
100
AcDbEntity
  8
GAR70-0914
370
              15
390
0
  6
Continuous
 62
               7
100
AcDbPolyline
 90
       46
 70
             128
 10
770.87851562499998
 20
-555.53451159709061
 42
0.0043867009721311
 10
770.87812300464759
 20
-555.48976124829426
 10
770.8775396702066
 20
-555.45651996299341
 42
0.0176465791599589
 10
770.87166821640858
 20
-555.34549777498523
 10
770.86869742690419
 20
-555.31187426230429
 42
0.0176004670532887
 10
770.8472744196207
 20
-555.13904116793083
 10
770.84712718141861
 20
-555.13812013228596
 42
0.0175118928281004
 10
770.81398939089001
 20
-554.96904441964887
 10
770.81381629192435
 20
-554.96830031014019
 42
0.0173978541133284
 10
770.76936238382962
 20
-554.80342105697741
 10
770.7691817743663
 20
-554.80283333644661
 42
0.017268353985455
 10
770.71381431507007
 20
-554.64258957805612
 10
770.7136406719942
 20
-554.64213815699975
 42
0.0171334317891575
 10
770.64776580052649
 20
-554.48696800895402
 10
770.64761030987847
 20
-554.48663404070714
 42
0.0170023169695435
 10
770.57163705781693
 20
-554.33697400689312
 10
770.57150828689942
 20
-554.33674037513913
 42
0.0168829697604963
 10
770.48584790293796
 20
-554.1930250225065
 10
770.48575277768941
 20
-554.19287702691702
 42
0.0167823676474344
 10
770.39081753893959
 20
-554.05553826734808
 10
770.39076125192139
 20
-554.05546241336594
 42
0.0167047335481773
 10
770.28696536285395
 20
-553.92493146891957
 42
0.0166551937448566
 10
770.17470770818943
 20
-553.80162033458305
 42
0.0166401861555314
 10
770.05446283560889
 20
-553.6860226544934
 42
0.0166448513874644
 10
769.92675459349641
 20
-553.57863989942018
 10
769.92665187212413
 20
-553.57855920658153
 42
0.0166828692313799
 10
769.79186523467899
 20
-553.47976612113428
 10
769.79169153179942
 20
-553.47964750307301
 42
0.0167473419167649
 10
769.65025183450973
 20
-553.38985449626546
 10
769.64999814240127
 20
-553.38970511683522
 42
0.0168336829026997
 10
769.50233567397754
 20
-553.30932497372112
 10
769.50198917056355
 20
-553.30915120902944
 42
0.0169363438688481
 10
769.34853615043755
 20
-553.23859570964851
 10
769.34808201923488
 20
-553.23840526062588
 42
0.0170483178394689
 10
769.18927281890478
 20
-553.17808465452083
 10
769.18869427594552
 20
-553.17788719627538
 42
0.0171614135713484
 10
769.02496507768967
 20
-553.12820941190921
 10
769.02424381605226
 20
-553.12801733471542
 42
0.0172664812488599
 10
768.85603210219358
 20
-553.0893872816082
 10
768.8551489190894
 20
-553.08921632161912
 42
0.017381429497366
 10
768.68289158915184
 20
-553.0620448965816
 10
768.62708716879638
 20
-553.05522039213145
 42
0.0261013497136481
 10
768.47124511858806
 20
-553.04437218441501
 10
768.41559200609584
 20
-553.04340888225545
 42
0.0043268558664629
 10
768.37048611111106
 20
-553.04301854153493
 10
760.6700086805555
 20
-553.04301854153493
  0
LWPOLYLINE
  5
19A
100
AcDbEntity
  8
GAR70-0914
370
              15
390
0
  6
Continuous
 62
               7
100
AcDbPolyline
 90
       24
 70
             128
 10
373.18220486111113
 20
-642.3509178470905
 42
-0.0021188198575455
 10
372.74340626190508
 20
-641.8042182505344
 10
372.41643566950654
 20
-641.39329010677523
 42
-0.0084689698156734
 10
371.34953242131496
 20
-640.00480230495396
 10
371.03605953260887
 20
-639.5822170065079
 42
-0.0084556657511601
 10
369.40961187914195
 20
-637.31033700977332
 10
369.40856579645879
 20
-637.30882232944953
 42
-0.0084435136931532
 10
367.86185613727264
 20
-634.98634314056619
 10
367.86109641681776
 20
-634.98515952860907
 42
-0.0084329732171078
 10
366.3951200927113
 20
-632.61419953640564
 42
-0.0084272263552169
 10
365.01036821137768
 20
-630.19603165927299
 42
-0.0084190980111151
 10
363.70856631047377
 20
-627.73396813228464
 42
-0.0084133050196648
 10
362.4906752507643
 20
-625.23012392845919
 42
-0.0084092161045656
 10
361.35766056963246
 20
-622.68662578379917
 42
-0.0084075839657303
 10
360.3104945335881
 20
-620.10561688844166
 42
-0.0084078771731216
 10
359.35014077053154
 20
-617.48921850190368
 42
-0.0084147635745303
 10
358.47800488336259
 20
-614.84097483538949
 10
358.47756219706559
 20
-614.83955036650309
 42
-0.0084203245996779
 10
357.69423147417558
 20
-612.16058635495392
 10
357.69372481131586
 20
-612.15873862587557
 42
-0.0084276541147081
 10
357.00013917889999
 20
-609.45119499286909
 10
356.99959492021162
 20
-609.44891090203726
 42
-0.0084323166298609
 10
356.39644671202552
 20
-606.71372792836416
 42
-0.0021098624971812
 10
356.2598958333333
 20
-606.02583104153507
 42
-0.0021098624971812
  0
LINE
  5
19B
100
AcDbEntity
  8
GAR70-0914
370
              15
390
0
  6
Continuous
 62
               7
100
AcDbLine
 10
733.37851562499998
 20
-567.16558798597941
 30
0.0
 11
733.37851562499998
 21
-553.04301854153493
 31
0.0
  0
LINE
  5
19C
100
AcDbEntity
  8
GAR70-0914
370
              15
390
0
  6
Continuous
 62
               7
100
AcDbLine
 10
698.37851562499998
 20
-567.16558798597941
 30
0.0
 11
698.37851562499998
 21
-553.04301854153493
 31
0.0
  0
SPLINE
  5
19D
100
AcDbEntity
  8
GAR70-0914
370
              15
390
0
  6
Continuous
 62
               7
100
AcDbSpline
210
0.0
220
0.0
230
1.0
 70
              13
 71
               2
 72
             436
 73
             433
 74
               0
 42
0.000001
 43
0.000001
 40
0.0
 40
0.0
 40
0.0
 40
1.0
 40
1.0
 40
2.0
 40
2.0
 40
3.0
 40
3.0
 40
4.0
 40
4.0
 40
5.0
 40
5.0
 40
6.0
 40
6.0
 40
7.0
 40
7.0
 40
8.0
 40
8.0
 40
9.0
 40
9.0
 40
10.0
 40
10.0
 40
11.0
 40
11.0
 40
12.0
 40
12.0
 40
13.0
 40
13.0
 40
14.0
 40
14.0
 40
15.0
 40
15.0
 40
16.0
 40
16.0
 40
17.0
 40
17.0
 40
18.0
 40
18.0
 40
19.0
 40
19.0
 40
20.0
 40
20.0
 40
21.0
 40
21.0
 40
22.0
 40
22.0
 40
23.0
 40
23.0
 40
24.0
 40
24.0
 40
25.0
 40
25.0
 40
26.0
 40
26.0
 40
27.0
 40
27.0
 40
28.0
 40
28.0
 40
29.0
 40
29.0
 40
30.0
 40
30.0
 40
31.0
 40
31.0
 40
32.0
 40
32.0
 40
33.0
 40
33.0
 40
34.0
 40
34.0
 40
35.0
 40
35.0
 40
36.0
 40
36.0
 40
37.0
 40
37.0
 40
38.0
 40
38.0
 40
39.0
 40
39.0
 40
40.0
 40
40.0
 40
41.0
 40
41.0
 40
42.0
 40
42.0
 40
43.0
 40
43.0
 40
44.0
 40
44.0
 40
45.0
 40
45.0
 40
46.0
 40
46.0
 40
47.0
 40
47.0
 40
48.0
 40
48.0
 40
49.0
 40
49.0
 40
50.0
 40
50.0
 40
51.0
 40
51.0
 40
52.0
 40
52.0
 40
53.0
 40
53.0
 40
54.0
 40
54.0
 40
55.0
 40
55.0
 40
56.0
 40
56.0
 40
57.0
 40
57.0
 40
58.0
 40
58.0
 40
59.0
 40
59.0
 40
60.0
 40
60.0
 40
61.0
 40
61.0
 40
62.0
 40
62.0
 40
63.0
 40
63.0
 40
64.0
 40
64.0
 40
65.0
 40
65.0
 40
66.0
 40
66.0
 40
67.0
 40
67.0
 40
68.0
 40
68.0
 40
69.0
 40
69.0
 40
70.0
 40
70.0
 40
71.0
 40
71.0
 40
72.0
 40
72.0
 40
73.0
 40
73.0
 40
74.0
 40
74.0
 40
75.0
 40
75.0
 40
76.0
 40
76.0
 40
77.0
 40
77.0
 40
78.0
 40
78.0
 40
79.0
 40
79.0
 40
80.0
 40
80.0
 40
81.0
 40
81.0
 40
82.0
 40
82.0
 40
83.0
 40
83.0
 40
84.0
 40
84.0
 40
85.0
 40
85.0
 40
86.0
 40
86.0
 40
87.0
 40
87.0
 40
88.0
 40
88.0
 40
89.0
 40
89.0
 40
90.0
 40
90.0
 40
91.0
 40
91.0
 40
92.0
 40
92.0
 40
93.0
 40
93.0
 40
94.0
 40
94.0
 40
95.0
 40
95.0
 40
96.0
 40
96.0
 40
97.0
 40
97.0
 40
98.0
 40
98.0
 40
99.0
 40
99.0
 40
100.0
 40
100.0
 40
101.0
 40
101.0
 40
102.0
 40
102.0
 40
103.0
 40
103.0
 40
104.0
 40
104.0
 40
105.0
 40
105.0
 40
106.0
 40
106.0
 40
107.0
 40
107.0
 40
108.0
 40
108.0
 40
109.0
 40
109.0
 40
110.0
 40
110.0
 40
111.0
 40
111.0
 40
112.0
 40
112.0
 40
113.0
 40
113.0
 40
114.0
 40
114.0
 40
115.0
 40
115.0
 40
116.0
 40
116.0
 40
117.0
 40
117.0
 40
118.0
 40
118.0
 40
119.0
 40
119.0
 40
120.0
 40
120.0
 40
121.0
 40
121.0
 40
122.0
 40
122.0
 40
123.0
 40
123.0
 40
124.0
 40
124.0
 40
125.0
 40
125.0
 40
126.0
 40
126.0
 40
127.0
 40
127.0
 40
128.0
 40
128.0
 40
129.0
 40
129.0
 40
130.0
 40
130.0
 40
131.0
 40
131.0
 40
132.0
 40
132.0
 40
133.0
 40
133.0
 40
134.0
 40
134.0
 40
135.0
 40
135.0
 40
136.0
 40
136.0
 40
137.0
 40
137.0
 40
138.0
 40
138.0
 40
139.0
 40
139.0
 40
140.0
 40
140.0
 40
141.0
 40
141.0
 40
142.0
 40
142.0
 40
143.0
 40
143.0
 40
144.0
 40
144.0
 40
145.0
 40
145.0
 40
146.0
 40
146.0
 40
147.0
 40
147.0
 40
148.0
 40
148.0
 40
149.0
 40
149.0
 40
150.0
 40
150.0
 40
151.0
 40
151.0
 40
152.0
 40
152.0
 40
153.0
 40
153.0
 40
154.0
 40
154.0
 40
155.0
 40
155.0
 40
156.0
 40
156.0
 40
157.0
 40
157.0
 40
158.0
 40
158.0
 40
159.0
 40
159.0
 40
160.0
 40
160.0
 40
161.0
 40
161.0
 40
162.0
 40
162.0
 40
163.0
 40
163.0
 40
164.0
 40
164.0
 40
165.0
 40
165.0
 40
166.0
 40
166.0
 40
167.0
 40
167.0
 40
168.0
 40
168.0
 40
169.0
 40
169.0
 40
170.0
 40
170.0
 40
171.0
 40
171.0
 40
172.0
 40
172.0
 40
173.0
 40
173.0
 40
174.0
 40
174.0
 40
175.0
 40
175.0
 40
176.0
 40
176.0
 40
177.0
 40
177.0
 40
178.0
 40
178.0
 40
179.0
 40
179.0
 40
180.0
 40
180.0
 40
181.0
 40
181.0
 40
182.0
 40
182.0
 40
183.0
 40
183.0
 40
184.0
 40
184.0
 40
185.0
 40
185.0
 40
186.0
 40
186.0
 40
187.0
 40
187.0
 40
188.0
 40
188.0
 40
189.0
 40
189.0
 40
190.0
 40
190.0
 40
191.0
 40
191.0
 40
192.0
 40
192.0
 40
193.0
 40
193.0
 40
194.0
 40
194.0
 40
195.0
 40
195.0
 40
196.0
 40
196.0
 40
197.0
 40
197.0
 40
198.0
 40
198.0
 40
199.0
 40
199.0
 40
200.0
 40
200.0
 40
201.0
 40
201.0
 40
202.0
 40
202.0
 40
203.0
 40
203.0
 40
204.0
 40
204.0
 40
205.0
 40
205.0
 40
206.0
 40
206.0
 40
207.0
 40
207.0
 40
208.0
 40
208.0
 40
209.0
 40
209.0
 40
210.0
 40
210.0
 40
211.0
 40
211.0
 40
212.0
 40
212.0
 40
213.0
 40
213.0
 40
214.0
 40
214.0
 40
215.0
 40
215.0
 40
216.0
 40
216.0
 40
216.0
 10
-439.27630823184745
 20
-724.87981770833323
 30
0.0
 41
1.0
 10
-455.83757125268085
 20
-724.87981770833323
 30
0.0
 41
1.0
 10
-472.39883427351413
 20
-724.87981770833323
 30
0.0
 41
1.0
 10
-472.46409320446776
 20
-724.87981770833312
 30
0.0
 41
0.9994660139010964
 10
-472.52921278318956
 20
-724.87555525172866
 30
0.0
 41
1.0
 10
-472.60918864030714
 20
-724.87032036496998
 30
0.0
 41
1.0
 10
-472.68916449742471
 20
-724.86508547821131
 30
0.0
 41
1.0
 10
-472.91423579038201
 20
-724.8503532480895
 30
0.0
 41
0.9820414509724278
 10
-473.11782535264865
 20
-724.75326866819182
 30
0.0
 41
1.0
 10
-473.1898537050937
 20
-724.71892092334679
 30
0.0
 41
1.0
 10
-473.26188205753874
 20
-724.68457317850175
 30
0.0
 41
1.0
 10
-473.48550554952658
 20
-724.57793513412855
 30
0.0
 41
0.9923391823861749
 10
-473.67615575612876
 20
-724.41972123651169
 30
0.0
 41
1.0
 10
-473.86680596273118
 20
-724.26150733889472
 30
0.0
 41
0.9925112682969508
 10
-474.01340346003565
 20
-724.06178675292324
 30
0.0
 41
1.0
 10
-474.01354813472472
 20
-724.06158965192083
 30
0.0
 41
1.0
 10
-474.0136928094139
 20
-724.0613925509183
 30
0.0
 41
1.0
 10
-474.1605796560965
 20
-723.86127776294188
 30
0.0
 41
0.9922191808698373
 10
-474.25347046221441
 20
-723.63107573811601
 30
0.0
 41
1.0
 10
-474.27152852981897
 20
-723.58632422932044
 30
0.0
 41
1.0
 10
-474.28958659742364
 20
-723.54157272052487
 30
0.0
 41
1.0
 10
-474.34945423466945
 20
-723.39320872314443
 30
0.0
 41
0.9918190522546891
 10
-474.36980282033926
 20
-723.23452052330163
 30
0.0
 41
1.0
 10
-474.37585854435395
 20
-723.18729503263523
 30
0.0
 41
1.0
 10
-474.38191426836852
 20
-723.14006954196873
 30
0.0
 41
1.0
 10
-474.39015140600907
 20
-723.07583232345928
 30
0.0
 41
0.9994806601808456
 10
-474.39423357906969
 20
-723.01119791666656
 30
0.0
 41
1.0
 10
-475.28169017629193
 20
-709.15915798611104
 30
0.0
 41
1.0
 10
-476.16914677351417
 20
-695.30711805555563
 30
0.0
 41
1.0
 10
-476.18140133033364
 20
-695.1202360640583
 30
0.0
 41
0.9995289016752512
 10
-476.20509881315047
 20
-694.93445801848532
 30
0.0
 41
1.0
 10
-476.22257440485032
 20
-694.79745691603443
 30
0.0
 41
1.0
 10
-476.24004999655006
 20
-694.66045581358367
 30
0.0
 41
1.0
 10
-476.29869866276658
 20
-694.20067556310778
 30
0.0
 41
0.9925131644664742
 10
-476.46706966998636
 20
-693.76883213233168
 30
0.0
 41
1.0
 10
-476.51770094485005
 20
-693.63897139322478
 30
0.0
 41
1.0
 10
-476.56833221971385
 20
-693.50911065411776
 30
0.0
 41
1.0
 10
-476.82908481244544
 20
-692.84032393074756
 30
0.0
 41
0.9928418707982969
 10
-477.24100934475223
 20
-692.25245849065391
 30
0.0
 41
1.0
 10
-477.24169782333536
 20
-692.25147594959708
 30
0.0
 41
1.0
 10
-477.2423863019186
 20
-692.25049340854014
 30
0.0
 41
1.0
 10
-477.6529338770589
 20
-691.66459305056026
 30
0.0
 41
0.9930740661353154
 10
-478.1888684720285
 20
-691.19067042939787
 30
0.0
 41
1.0
 10
-478.72480306699811
 20
-690.7167478082356
 30
0.0
 41
0.9929786550382324
 10
-479.35707540119859
 20
-690.38199381447441
 30
0.0
 41
1.0
 10
-479.43655855678776
 20
-690.33991178378767
 30
0.0
 41
1.0
 10
-479.51604171237705
 20
-690.29782975310093
 30
0.0
 41
1.0
 10
-480.00132538216201
 20
-690.04089830476698
 30
0.0
 41
0.9926849529288142
 10
-480.53404814558871
 20
-689.90778006172809
 30
0.0
 41
1.0
 10
-480.66493839783243
 20
-689.87507284212757
 30
0.0
 41
1.0
 10
-480.79582865007626
 20
-689.84236562252693
 30
0.0
 41
1.0
 10
-481.06677090901576
 20
-689.77466181868897
 30
0.0
 41
0.9980973382089831
 10
-481.34398615469911
 20
-689.74082071507155
 30
0.0
 41
1.0
 10
-481.38967607993186
 20
-689.73524310879577
 30
0.0
 41
1.0
 10
-481.43536600516461
 20
-689.72966550251999
 30
0.0
 41
1.0
 10
-481.62120140038257
 20
-689.70697961145413
 30
0.0
 41
0.9995282224440489
 10
-481.80807906518078
 20
-689.69574652777771
 30
0.0
 41
1.0
 10
-483.18159981410565
 20
-689.64163291232444
 30
0.0
 41
0.9999975725104905
 10
-484.5548687586861
 20
-689.58146700041721
 30
0.0
 41
1.0
 10
-486.27353724357647
 20
-689.50616838023973
 30
0.0
 41
1.0
 10
-487.99220572846696
 20
-689.43086976006214
 30
0.0
 41
1.0
 10
-492.80281164282758
 20
-689.22010660779983
 30
0.0
 41
0.9998874402106842
 10
-497.60492807125286
 20
-688.86510213255781
 30
0.0
 41
1.0
 10
-500.00947288935697
 20
-688.68734214192239
 30
0.0
 41
1.0
 10
-502.41401770746108
 20
-688.50958215128708
 30
0.0
 41
1.0
 10
-512.02522377209652
 20
-687.79905769477421
 30
0.0
 41
0.9997343660225779
 10
-521.59347570419948
 20
-686.64637300935669
 30
0.0
 41
1.0
 10
-524.31794448389996
 20
-686.31815700286529
 30
0.0
 41
1.0
 10
-527.04241326360045
 20
-685.98994099637378
 30
0.0
 41
1.0
 10
-533.89564933425766
 20
-685.16433352697879
 30
0.0
 41
0.9996526543992528
 10
-540.69586312351373
 20
-683.97876836466605
 30
0.0
 41
1.0
 10
-542.00828008032875
 20
-683.74995852564507
 30
0.0
 41
1.0
 10
-543.32069703714376
 20
-683.52114868662397
 30
0.0
 41
1.0
 10
-547.49607691275696
 20
-682.79320320235581
 30
0.0
 41
0.9999558188704487
 10
-551.65703411849802
 20
-681.98689255138959
 30
0.0
 41
1.0
 10
-555.81799132422532
 20
-681.18058190042598
 30
0.0
 41
0.9997263526842283
 10
-559.93668132465223
 20
-680.18053469447284
 30
0.0
 41
1.0
 10
-560.64376971126046
 20
-680.00884860852898
 30
0.0
 41
1.0
 10
-561.35085809786881
 20
-679.83716252258512
 30
0.0
 41
1.0
 10
-566.83272784561439
 20
-678.50612558509692
 30
0.0
 41
0.9997052927513269
 10
-572.24353070836264
 20
-676.91057939627274
 30
0.0
 41
1.0
 10
-572.25735599517168
 20
-676.90650257362051
 30
0.0
 41
1.0
 10
-572.27118128198083
 20
-676.90242575096829
 30
0.0
 41
1.0
 10
-577.65433357111078
 20
-675.31503320744866
 30
0.0
 41
0.9996741651017694
 10
-582.94945858030155
 20
-673.45498084468318
 30
0.0
 41
1.0
 10
-582.96338477833172
 20
-673.45008890020495
 30
0.0
 41
1.0
 10
-582.97731097636176
 20
-673.44519695572671
 30
0.0
 41
1.0
 10
-588.24458358949278
 20
-671.59492848191758
 30
0.0
 41
0.9996392863266828
 10
-593.40490827694816
 20
-669.46450520795293
 30
0.0
 41
1.0
 10
-593.41783449627258
 20
-669.45916866032053
 30
0.0
 41
1.0
 10
-593.43076071559699
 20
-669.45383211268813
 30
0.0
 41
1.0
 10
-598.56523296440548
 20
-667.33408193398736
 30
0.0
 41
0.9995998559429126
 10
-603.57161595829405
 20
-664.92736728277384
 30
0.0
 41
1.0
 10
-603.58239681385305
 20
-664.9221846103618
 30
0.0
 41
1.0
 10
-603.59317766941217
 20
-664.91700193794975
 30
0.0
 41
1.0
 10
-608.57799895218318
 20
-662.52065263155998
 30
0.0
 41
0.9995562316045856
 10
-613.41127102254177
 20
-659.83170965832926
 30
0.0
 41
1.0
 10
-613.41875640663409
 20
-659.82754523913991
 30
0.0
 41
1.0
 10
-613.42624179072641
 20
-659.82338081995067
 30
0.0
 41
1.0
 10
-618.24454309289956
 20
-657.14276668509899
 30
0.0
 41
0.9995090780780462
 10
-622.88549735328479
 20
-654.16564338709611
 30
0.0
 41
1.0
 10
-622.88859617530022
 20
-654.16365552539764
 30
0.0
 41
1.0
 10
-622.89169499731554
 20
-654.16166766369929
 30
0.0
 41
1.0
 10
-627.52645161366991
 20
-651.18852008909334
 30
0.0
 41
0.999459586498113
 10
-631.95583423733126
 20
-647.91725963378974
 30
0.0
 41
1.0
 10
-636.38521686099261
 20
-644.64599917848602
 30
0.0
 41
0.9994095510897163
 10
-640.57947873951866
 20
-641.07826282505766
 30
0.0
 41
1.0
 10
-640.58159961614842
 20
-641.0764587582463
 30
0.0
 41
1.0
 10
-640.58372049277818
 20
-641.07465469143494
 30
0.0
 41
1.0
 10
-644.78222412456273
 20
-637.50331020438489
 30
0.0
 41
0.9993613834813702
 10
-648.71494174027862
 20
-633.64122963216175
 30
0.0
 41
1.0
 10
-648.72271421567746
 20
-633.63359676116283
 30
0.0
 41
1.0
 10
-648.73048669107618
 20
-633.62596389016392
 30
0.0
 41
1.0
 10
-652.67874925758872
 20
-629.74861757594397
 30
0.0
 41
0.9993180019290207
 10
-656.33009001504684
 20
-625.59045663540371
 30
0.0
 41
1.0
 10
-656.34372502270105
 20
-625.57492903608681
 30
0.0
 41
1.0
 10
-656.35736003035515
 20
-625.55940143676992
 30
0.0
 41
1.0
 10
-660.03597080312227
 20
-621.37018529759484
 30
0.0
 41
0.9992824737667703
 10
-663.38691950576151
 20
-616.91453137582982
 30
0.0
 41
1.0
 10
-663.40618933224334
 20
-616.88890887738103
 30
0.0
 41
1.0
 10
-663.42545915872518
 20
-616.86328637893212
 30
0.0
 41
1.0
 10
-666.81494751432831
 20
-612.35638746026905
 30
0.0
 41
0.9992544747442543
 10
-669.84659625772383
 20
-607.601403225544
 30
0.0
 41
1.0
 10
-670.40273333156108
 20
-606.72913099275206
 30
0.0
 41
1.0
 10
-670.95887040539833
 20
-605.85685875996023
 30
0.0
 41
1.0
 10
-672.97481948781694
 20
-602.69494690398074
 30
0.0
 41
0.999268571461583
 10
-674.74322447058012
 20
-599.38821421069667
 30
0.0
 41
1.0
 10
-674.75221266372967
 20
-599.37140722788979
 30
0.0
 41
1.0
 10
-674.7612008568791
 20
-599.35460024508291
 30
0.0
 41
1.0
 10
-676.5116294533409
 20
-596.08148151741739
 30
0.0
 41
0.9999108623295119
 10
-678.17403847535888
 20
-592.76279160719105
 30
0.0
 41
1.0
 10
-678.3375712563876
 20
-592.43632887557476
 30
0.0
 41
1.0
 10
-678.50110403741644
 20
-592.10986614395847
 30
0.0
 41
1.0
 10
-679.83644749737562
 20
-589.44410169696698
 30
0.0
 41
0.9992394223625758
 10
-680.95998739973845
 20
-586.68238115884299
 30
0.0
 41
1.0
 10
-681.47297035231679
 20
-585.42144191417185
 30
0.0
 41
1.0
 10
-681.98595330489513
 20
-584.16050266950072
 30
0.0
 41
1.0
 10
-682.08352730209708
 20
-583.92066062072922
 30
0.0
 41
0.9999987576274029
 10
-682.18034469018073
 20
-583.68051215277785
 30
0.0
 41
1.0
 10
-682.1913689957363
 20
-583.65295138888894
 30
0.0
 41
1.0
 10
-682.20239330129175
 20
-583.62539062500002
 30
0.0
 41
1.0
 10
-682.27573810037268
 20
-583.44492830540116
 30
0.0
 41
0.9999651628064931
 10
-682.35208522867038
 20
-583.26571551470886
 30
0.0
 41
1.0
 10
-682.44498438469543
 20
-583.04764946068133
 30
0.0
 41
1.0
 10
-682.5378835407206
 20
-582.82958340665391
 30
0.0
 41
1.0
 10
-682.80002898107011
 20
-582.21423850790256
 30
0.0
 41
0.9987469923063184
 10
-683.12237336600526
 20
-581.62818076858321
 30
0.0
 41
1.0
 10
-683.27795736358712
 20
-581.34531185521462
 30
0.0
 41
1.0
 10
-683.43354136116898
 20
-581.06244294184614
 30
0.0
 41
1.0
 10
-684.06705374126727
 20
-579.91064737579109
 30
0.0
 41
0.9983484452638287
 10
-684.82850478236674
 20
-578.83912356656799
 30
0.0
 41
1.0
 10
-685.06947018219091
 20
-578.50003392170061
 30
0.0
 41
1.0
 10
-685.31043558201497
 20
-578.16094427683311
 30
0.0
 41
1.0
 10
-685.80564770354192
 20
-577.46407533820047
 30
0.0
 41
0.9992574740042827
 10
-686.35304929689903
 20
-576.80740734101585
 30
0.0
 41
1.0
 10
-686.90045089025682
 20
-576.15073934383031
 30
0.0
 41
0.9972466898617581
 10
-687.34470916593591
 20
-575.42033127471484
 30
0.0
 41
1.0
 10
-687.5090882542396
 20
-575.15007449152404
 30
0.0
 41
1.0
 10
-687.6734673425434
 20
-574.87981770833323
 30
0.0
 41
1.0
 10
-703.91627233580653
 20
-574.87981770833323
 30
0.0
 41
1.0
 10
-720.15907732906965
 20
-574.87981770833323
 30
0.0
 41
1.0
 10
-719.71810510684747
 20
-568.87873263888878
 30
0.0
 41
1.0
 10
-719.27713288462519
 20
-562.87764756944443
 30
0.0
 41
1.0
 10
-719.27713288462519
 20
-562.6056162591974
 30
0.0
 41
0.9994394611484416
 10
-719.25892907139303
 20
-562.33419471447678
 30
0.0
 41
1.0
 10
-719.25446643487282
 20
-562.26765614465126
 30
0.0
 41
1.0
 10
-719.25000379835262
 20
-562.20111757482573
 30
0.0
 41
1.0
 10
-719.22287471208006
 20
-561.79661889045394
 30
0.0
 41
0.9977245989539457
 10
-719.1415727596941
 20
-561.39944743438161
 30
0.0
 41
1.0
 10
-719.10237369624201
 20
-561.20795450400192
 30
0.0
 41
1.0
 10
-719.06317463278992
 20
-561.01646157362222
 30
0.0
 41
1.0
 10
-718.9034745534999
 20
-560.23630425679005
 30
0.0
 41
0.9913247350697738
 10
-718.54599071743246
 20
-559.52471809806923
 30
0.0
 41
1.0
 10
-718.48813941955962
 20
-559.40956272969436
 30
0.0
 41
1.0
 10
-718.43028812168666
 20
-559.29440736131949
 30
0.0
 41
1.0
 10
-717.96678250074581
 20
-558.37178051480566
 30
0.0
 41
0.9917832309776262
 10
-717.28432518411296
 20
-557.59697100949097
 30
0.0
 41
1.0
 10
-717.19841413418396
 20
-557.49943421638432
 30
0.0
 41
1.0
 10
-717.11250308425497
 20
-557.40189742327766
 30
0.0
 41
1.0
 10
-716.60186786748034
 20
-556.82216150417662
 30
0.0
 41
0.9919347994963195
 10
-715.96186290031562
 20
-556.38945409435826
 30
0.0
 41
1.0
 10
-715.3218579331508
 20
-555.95674668453978
 30
0.0
 41
0.9979014515069109
 10
-714.63130076785694
 20
-555.61037569561688
 30
0.0
 41
1.0
 10
-714.62560995025331
 20
-555.60752128439617
 30
0.0
 41
1.0
 10
-714.61991913264967
 20
-555.60466687317546
 30
0.0
 41
1.0
 10
-713.9179803321482
 20
-555.25258706181091
 30
0.0
 41
0.9913622646700685
 10
-713.14863516796061
 20
-555.09515043468286
 30
0.0
 41
1.0
 10
-712.95291979791034
 20
-555.05509979269254
 30
0.0
 41
1.0
 10
-712.75720442786007
 20
-555.01504915070223
 30
0.0
 41
1.0
 10
-712.36002788305973
 20
-554.93377206143396
 30
0.0
 41
0.9977267087523852
 10
-711.95552919868828
 20
-554.90664297516139
 30
0.0
 41
1.0
 10
-711.88899062886333
 20
-554.90218033864119
 30
0.0
 41
1.0
 10
-711.82245205903837
 20
-554.89771770212099
 30
0.0
 41
1.0
 10
-711.55103051431797
 20
-554.87951388888882
 30
0.0
 41
0.9994394611484272
 10
-711.27899920406958
 20
-554.87951388888882
 30
0.0
 41
1.0
 10
-706.55978595228294
 20
-554.74233117544395
 30
0.0
 41
0.9999998473318817
 10
-701.84042401308557
 20
-554.61036262024186
 30
0.0
 41
1.0
 10
-698.25656511328759
 20
-554.51014638610923
 30
0.0
 41
1.0
 10
-694.67270621348962
 20
-554.40993015197648
 30
0.0
 41
1.0
 10
-682.78562647459171
 20
-554.07752912850594
 30
0.0
 41
0.9999978091498077
 10
-670.89725931413921
 20
-553.79489612835073
 30
0.0
 41
1.0
 10
-655.0920772912591
 20
-553.41914511453695
 30
0.0
 41
1.0
 10
-639.286895268379
 20
-553.04339410072305
 30
0.0
 41
1.0
 10
-595.78816406203339
 20
-552.00925907293697
 30
0.0
 41
0.9999759336254964
 10
-552.27927146769684
 20
-551.57877443247639
 30
0.0
 41
1.0
 10
-534.06070608655193
 20
-551.39851674030911
 30
0.0
 41
1.0
 10
-515.84214070540713
 20
-551.21825904814182
 30
0.0
 41
1.0
 10
-499.13174097743729
 20
-551.05292341236952
 30
0.0
 41
0.9999950155550123
 10
-482.42063037697187
 20
-550.99311175758669
 30
0.0
 41
1.0
 10
-476.42548785237113
 20
-550.97165421334387
 30
0.0
 41
1.0
 10
-470.43034532777051
 20
-550.95019666910105
 30
0.0
 41
1.0
 10
-465.70951977643188
 20
-550.93330010280329
 30
0.0
 41
0.9999998373274021
 10
-460.98867802351413
 20
-550.92178819444439
 30
0.0
 41
1.0
 10
-460.98592194712523
 20
-550.98793402777767
 30
0.0
 41
1.0
 10
-460.98316587073634
 20
-551.05407986111095
 30
0.0
 41
1.0
 10
-460.53111513528347
 20
-551.05373531024554
 30
0.0
 41
0.9999999255119948
 10
-460.07906426854754
 20
-551.05374000347524
 30
0.0
 41
1.0
 10
-457.252701002197
 20
-551.05376934701428
 30
0.0
 41
1.0
 10
-454.42633773584657
 20
-551.05379869055332
 30
0.0
 41
1.0
 10
-448.32156033642843
 20
-551.05386207086258
 30
0.0
 41
0.9999999849910751
 10
-442.21678324927416
 20
-551.05190845403649
 30
0.0
 41
1.0
 10
-437.24226463414516
 20
-551.0503165362444
 30
0.0
 41
1.0
 10
-432.26774601901616
 20
-551.0487246184523
 30
0.0
 41
1.0
 10
-427.51909369624445
 20
-551.04720498113636
 30
0.0
 41
0.9999998732639688
 10
-422.77044225464442
 20
-551.0504701666606
 30
0.0
 41
1.0
 10
-418.02179081216775
 20
-551.05373535218541
 30
0.0
 41
1.0
 10
-417.56945059295856
 20
-551.05407986111095
 30
0.0
 41
1.0
 10
-417.56393844018078
 20
-550.98793402777767
 30
0.0
 41
1.0
 10
-417.55842628740299
 20
-550.92178819444439
 30
0.0
 41
1.0
 10
-412.83787933276369
 20
-550.93330016371488
 30
0.0
 41
0.9999998296011551
 10
-408.11734904162915
 20
-550.95032505345432
 30
0.0
 41
1.0
 10
-402.12248450001778
 20
-550.97194590991126
 30
0.0
 41
1.0
 10
-396.1276199584064
 20
-550.99356676636808
 30
0.0
 41
1.0
 10
-379.41736058395827
 20
-551.05383336902219
 30
0.0
 41
0.9999950819523326
 10
-362.70780795681583
 20
-551.21891340854449
 30
0.0
 41
1.0
 10
-344.48947747415173
 20
-551.39889923959652
 30
0.0
 41
1.0
 10
-326.27114699148763
 20
-551.57888507064854
 30
0.0
 41
1.0
 10
-282.76427357794239
 20
-552.00870605645491
 30
0.0
 41
0.9999758642669074
 10
-239.2675728066001
 20
-553.04301854153493
 30
0.0
 41
1.0
 10
-223.46307305279379
 20
-553.41883535352133
 30
0.0
 41
1.0
 10
-207.65857329898748
 20
-553.79465216550761
 30
0.0
 41
1.0
 10
-195.77087203529007
 20
-554.07733102661473
 30
0.0
 41
0.9999978042635362
 10
-183.88445993512062
 20
-554.40983073845666
 30
0.0
 41
1.0
 10
-180.30078691934992
 20
-554.51007715722778
 30
0.0
 41
1.0
 10
-176.71711390357925
 20
-554.61032357599902
 30
0.0
 41
1.0
 10
-171.9980478349751
 20
-554.74233045029803
 30
0.0
 41
0.9999998495552613
 10
-167.27912941240308
 20
-554.87951388888882
 30
0.0
 41
1.0
 10
-167.00646591448009
 20
-554.87951388888882
 30
0.0
 41
0.9994421188169089
 10
-166.73441070217325
 20
-554.8977167610899
 30
0.0
 41
1.0
 10
-166.53443780992953
 20
-554.91109669588445
 30
0.0
 41
1.0
 10
-166.33446491768578
 20
-554.92447663067901
 30
0.0
 41
1.0
 10
-165.66246392089172
 20
-554.9694393724692
 30
0.0
 41
0.9910886386133329
 10
-165.02618166022756
 20
-555.19023763470329
 30
0.0
 41
1.0
 10
-164.83486141204688
 20
-555.25662826185101
 30
0.0
 41
1.0
 10
-164.64354116386616
 20
-555.32301888899872
 30
0.0
 41
1.0
 10
-163.66381514116949
 20
-555.66299662631798
 30
0.0
 41
0.9915618916107728
 10
-162.80441941469988
 20
-556.24341623896669
 30
0.0
 41
1.0
 10
-162.69447251273741
 20
-556.317672296198
 30
0.0
 41
1.0
 10
-162.5845256107749
 20
-556.39192835342919
 30
0.0
 41
1.0
 10
-161.94502368823009
 20
-556.82383585161563
 30
0.0
 41
0.9919265128785294
 10
-161.43474988332568
 20
-557.40273777764151
 30
0.0
 41
1.0
 10
-160.92447607842101
 20
-557.98163970366772
 30
0.0
 41
0.9979455828435058
 10
-160.49241615536977
 20
-558.62103865488757
 30
0.0
 41
1.0
 10
-160.49060733170722
 20
-558.62371550569242
 30
0.0
 41
1.0
 10
-160.48879850804468
 20
-558.62639235649726
 30
0.0
 41
1.0
 10
-160.05312093766827
 20
-559.27114500932691
 30
0.0
 41
0.9915664335934428
 10
-159.79778837500402
 20
-560.00621385719319
 30
0.0
 41
1.0
 10
-159.68888348012251
 20
-560.31973671840683
 30
0.0
 41
1.0
 10
-159.57997858524101
 20
-560.63325957962047
 30
0.0
 41
1.0
 10
-159.35985882366791
 20
-561.26695540691242
 30
0.0
 41
0.9910839088397305
 10
-159.31491512497993
 20
-561.93628579985045
 30
0.0
 41
1.0
 10
-159.30155583572591
 20
-562.13524090561145
 30
0.0
 41
1.0
 10
-159.28819654647191
 20
-562.33419601137246
 30
0.0
 41
1.0
 10
-159.26997142629196
 20
-562.60561619278792
 30
0.0
 41
0.9994381466239611
 10
-159.26997142629196
 20
-562.87764756944443
 30
0.0
 41
1.0
 10
-158.86670657492235
 20
-568.87873263888878
 30
0.0
 41
1.0
 10
-158.46344172355273
 20
-574.87981770833323
 30
0.0
 41
1.0
 10
-174.67405149874105
 20
-574.87981770833323
 30
0.0
 41
1.0
 10
-190.88466127392937
 20
-574.87981770833323
 30
0.0
 41
1.0
 10
-191.04905420186483
 20
-575.15021436527104
 30
0.0
 41
1.0
 10
-191.21344712980027
 20
-575.42061102220885
 30
0.0
 41
1.0
 10
-191.65736108590716
 20
-576.15076925472385
 30
0.0
 41
0.9972252356334257
 10
-192.2047642207298
 20
-576.80692506923867
 30
0.0
 41
1.0
 10
-192.75216735555298
 20
-577.46308088375417
 30
0.0
 41
0.9992456931154379
 10
-193.2469961918805
 20
-578.15974082064918
 30
0.0
 41
1.0
 10
-193.48817908769766
 20
-578.49929754945083
 30
0.0
 41
1.0
 10
-193.72936198351482
 20
-578.8388542782526
 30
0.0
 41
1.0
 10
-194.49007219751132
 20
-579.90984345829179
 30
0.0
 41
0.9983005550196076
 10
-195.12100352604864
 20
-581.06206891891577
 30
0.0
 41
1.0
 10
-195.27605290913598
 20
-581.34522469002241
 30
0.0
 41
1.0
 10
-195.43110229222336
 20
-581.62838046112893
 30
0.0
 41
1.0
 10
-195.7519348545859
 20
-582.21429437953964
 30
0.0
 41
0.9987223378892471
 10
-196.01198723663336
 20
-582.8296003290078
 30
0.0
 41
1.0
 10
-196.10414145483989
 20
-583.04764501017792
 30
0.0
 41
1.0
 10
-196.19629567304645
 20
-583.26568969134803
 30
0.0
 41
1.0
 10
-196.27203961868017
 20
-583.44490627847449
 30
0.0
 41
0.9999635193684687
 10
-196.34471100962529
 20
-583.62539062500002
 30
0.0
 41
1.0
 10
-196.35573531518088
 20
-583.65295138888894
 30
0.0
 41
1.0
 10
-196.36675962073647
 20
-583.68051215277785
 30
0.0
 41
1.0
 10
-196.46324939958365
 20
-583.92070278083656
 30
0.0
 41
0.9999980373042021
 10
-196.56069017526005
 20
-584.16050918287272
 30
0.0
 41
1.0
 10
-196.73136861350449
 20
-584.58055696981216
 30
0.0
 41
1.0
 10
-196.90204705174895
 20
-585.0006047567515
 30
0.0
 41
1.0
 10
-197.34084470391682
 20
-586.0805067326728
 30
0.0
 41
0.9998924374140878
 10
-197.81112747416861
 20
-587.1470740175414
 30
0.0
 41
1.0
 10
-198.32495952795918
 20
-588.31240792547203
 30
0.0
 41
1.0
 10
-198.83879158174977
 20
-589.47774183340255
 30
0.0
 41
1.0
 10
-200.33673845958285
 20
-592.87497693413252
 30
0.0
 41
0.999293744471323
 10
-202.08558890067874
 20
-596.15012171156081
 30
0.0
 41
1.0
 10
-202.52231703130602
 20
-596.9680006007834
 30
0.0
 41
1.0
 10
-202.95904516193329
 20
-597.78587949000587
 30
0.0
 41
1.0
 10
-205.5813518642843
 20
-602.69678204588024
 30
0.0
 41
0.9992550679925857
 10
-208.57460421412549
 20
-607.39080981791619
 30
0.0
 41
1.0
 10
-208.6422825525394
 20
-607.49694320159062
 30
0.0
 41
1.0
 10
-208.70996089095334
 20
-607.60307658526517
 30
0.0
 41
1.0
 10
-211.74175751466842
 20
-612.35754960911117
 30
0.0
 41
0.9992567275297787
 10
-215.13082753479205
 20
-616.86432327779607
 30
0.0
 41
1.0
 10
-215.15010882009992
 20
-616.88996346475244
 30
0.0
 41
1.0
 10
-215.16939010540781
 20
-616.91560365170869
 30
0.0
 41
1.0
 10
-218.51989755491556
 20
-621.37109694648086
 30
0.0
 41
0.9992824978269383
 10
-222.19805085941971
 20
-625.560190993829
 30
0.0
 41
1.0
 10
-222.21169377681551
 20
-625.57572908028703
 30
0.0
 41
1.0
 10
-222.22533669421128
 20
-625.59126716674496
 30
0.0
 41
1.0
 10
-225.8762041639238
 20
-629.74928504117713
 30
0.0
 41
0.9993179464847473
 10
-229.8239958179185
 20
-633.6265117539391
 30
0.0
 41
1.0
 10
-229.83177262018054
 20
-633.63414954947473
 30
0.0
 41
1.0
 10
-229.83954942244256
 20
-633.64178734501024
 30
0.0
 41
1.0
 10
-233.77178747191309
 20
-637.50373846670107
 30
0.0
 41
0.9993613206405018
 10
-237.96981607750817
 20
-641.07497331905086
 30
0.0
 41
1.0
 10
-237.97193686349246
 20
-641.07677745750084
 30
0.0
 41
1.0
 10
-237.97405764947672
 20
-641.07858159595082
 30
0.0
 41
1.0
 10
-242.16784468310343
 20
-644.64620817140087
 30
0.0
 41
0.9994094832206093
 10
-246.59675896636884
 20
-647.91737422294216
 30
0.0
 41
1.0
 10
-251.02567324963442
 20
-651.18854027448356
 30
0.0
 41
0.9994595158781984
 10
-255.6599691087473
 20
-654.16160451117275
 30
0.0
 41
1.0
 10
-255.66307328185022
 20
-654.16359594769676
 30
0.0
 41
1.0
 10
-255.66617745495316
 20
-654.16558738422066
 30
0.0
 41
1.0
 10
-260.30668166027226
 20
-657.1426344939581
 30
0.0
 41
0.9995090045102476
 10
-265.12454160728089
 20
-659.82317815228305
 30
0.0
 41
1.0
 10
-265.13203755801578
 20
-659.82734872250023
 30
0.0
 41
1.0
 10
-265.13953350875067
 20
-659.83151929271742
 30
0.0
 41
1.0
 10
-269.97238535722909
 20
-662.52040409147685
 30
0.0
 41
0.9995561684064485
 10
-274.95679386712345
 20
-664.91669920202526
 30
0.0
 41
1.0
 10
-274.96759113450082
 20
-664.92189007652371
 30
0.0
 41
1.0
 10
-274.97838840187819
 20
-664.92708095102216
 30
0.0
 41
1.0
 10
-279.98439144652752
 20
-667.33375781056748
 30
0.0
 41
0.9995997640521508
 10
-285.11849598828644
 20
-669.4534583893286
 30
0.0
 41
1.0
 10
-285.13144162774051
 20
-669.45880321221262
 30
0.0
 41
1.0
 10
-285.1443872671947
 20
-669.46414803509651
 30
0.0
 41
1.0
 10
-290.30438308786245
 20
-671.59453825962578
 30
0.0
 41
0.9996393297635656
 10
-295.57131954886881
 20
-673.44480842741029
 30
0.0
 41
1.0
 10
-295.58527682553495
 20
-673.44971160648413
 30
0.0
 41
1.0
 10
-295.59923410220119
 20
-673.45461478555796
 30
0.0
 41
1.0
 10
-300.8940851165404
 20
-675.31469131149038
 30
0.0
 41
0.9996737466350186
 10
-306.27701702982063
 20
-676.90194553289098
 30
0.0
 41
1.0
 10
-306.29085658832867
 20
-676.90602637545385
 30
0.0
 41
1.0
 10
-306.30469614683682
 20
-676.91010721801661
 30
0.0
 41
1.0
 10
-311.71530717713324
 20
-678.50552312454283
 30
0.0
 41
0.9997063991122853
 10
-317.19685754735463
 20
-679.83693935348344
 30
0.0
 41
1.0
 10
-317.90401850396518
 20
-680.00870199553083
 30
0.0
 41
1.0
 10
-318.61117946057573
 20
-680.1804646375781
 30
0.0
 41
1.0
 10
-322.72967096129651
 20
-681.18080688611462
 30
0.0
 41
0.9997253322254855
 10
-326.89051397695221
 20
-681.98705886582411
 30
0.0
 41
1.0
 10
-331.05135699261189
 20
-682.79331084553428
 30
0.0
 41
0.9999549946107935
 10
-335.22674859474637
 20
-683.52047095478906
 30
0.0
 41
1.0
 10
-336.54027481304945
 20
-683.74922647269591
 30
0.0
 41
1.0
 10
-337.85380103135253
 20
-683.97798199060287
 30
0.0
 41
1.0
 10
-344.6562450700975
 20
-685.16265313567226
 30
0.0
 41
0.9996537423144368
 10
-351.51159303027646
 20
-685.98781673586814
 30
0.0
 41
1.0
 10
-354.23657794431392
 20
-686.31581735308089
 30
0.0
 41
1.0
 10
-356.96156285835127
 20
-686.64381797029364
 30
0.0
 41
1.0
 10
-366.5308828042356
 20
-687.7956565850277
 30
0.0
 41
0.9997367861832759
 10
-376.14296717289335
 20
-688.50730994929131
 30
0.0
 41
1.0
 10
-378.54790623327881
 20
-688.68536529166352
 30
0.0
 41
1.0
 10
-380.95284529366427
 20
-688.86342063403572
 30
0.0
 41
1.0
 10
-385.75505154155007
 20
-689.21896331355481
 30
0.0
 41
0.999887495194097
 10
-390.56576183408367
 20
-689.43029699649139
 30
0.0
 41
1.0
 10
-392.28445771258077
 20
-689.50579901340029
 30
0.0
 41
1.0
 10
-394.00315359107799
 20
-689.58130103030919
 30
0.0
 41
1.0
 10
-395.37647212661727
 20
-689.64163067942798
 30
0.0
 41
0.9999974414221219
 10
-396.75004955129191
 20
-689.69574652777771
 30
0.0
 41
1.0
 10
-396.93632440885028
 20
-689.70698431625931
 30
0.0
 41
0.999503548186775
 10
-397.1215216778993
 20
-689.72993169051131
 30
0.0
 41
1.0
 10
-397.34984425015455
 20
-689.75822262343183
 30
0.0
 41
1.0
 10
-397.57816682240968
 20
-689.78651355635225
 30
0.0
 41
1.0
 10
-398.22000923596977
 20
-689.8660427964453
 30
0.0
 41
0.983508055318156
 10
-398.79156630848138
 20
-690.1687127433122
 30
0.0
 41
1.0
 10
-398.99381982030968
 20
-690.27581676253067
 30
0.0
 41
1.0
 10
-399.19607333213798
 20
-690.38292078174902
 30
0.0
 41
1.0
 10
-399.82841190711076
 20
-690.71777777520356
 30
0.0
 41
0.992973486063061
 10
-400.36434526993503
 20
-691.19186290477012
 30
0.0
 41
1.0
 10
-400.9002786327593
 20
-691.66594803433668
 30
0.0
 41
0.9931186027897039
 10
-401.31123199502667
 20
-692.25169423663363
 30
0.0
 41
1.0
 10
-401.31197970255164
 20
-692.25275997032361
 30
0.0
 41
1.0
 10
-401.31272741007649
 20
-692.25382570401348
 30
0.0
 41
1.0
 10
-401.72517618739357
 20
-692.84170337369017
 30
0.0
 41
0.9928811950457679
 10
-401.98687619981217
 20
-693.51045388914042
 30
0.0
 41
1.0
 10
-402.03783747003092
 20
-693.64068076766375
 30
0.0
 41
1.0
 10
-402.08879874024967
 20
-693.77090764618708
 30
0.0
 41
1.0
 10
-402.25750040518915
 20
-694.20200936583524
 30
0.0
 41
0.9925521202618741
 10
-402.31694294339775
 20
-694.66111232715025
 30
0.0
 41
1.0
 10
-402.3346374978081
 20
-694.79777577682353
 30
0.0
 41
1.0
 10
-402.35233205221846
 20
-694.93443922649669
 30
0.0
 41
1.0
 10
-402.37638548160635
 20
-695.12021528846446
 30
0.0
 41
0.9995277849346307
 10
-402.38898184295851
 20
-695.30711805555563
 30
0.0
 41
1.0
 10
-403.27368236379186
 20
-709.15915798611104
 30
0.0
 41
1.0
 10
-404.15838288462521
 20
-723.01119791666656
 30
0.0
 41
1.0
 10
-404.1624652666851
 20
-723.07583563261653
 30
0.0
 41
0.9994467607850301
 10
-404.17083583190777
 20
-723.14005894461764
 30
0.0
 41
1.0
 10
-404.18114968523628
 20
-723.21919216951153
 30
0.0
 41
1.0
 10
-404.19146353856468
 20
-723.29832539440531
 30
0.0
 41
1.0
 10
-404.22046181044414
 20
-723.52081515619329
 30
0.0
 41
0.981962490733386
 10
-404.33000401129834
 20
-723.7166290987625
 30
0.0
 41
1.0
 10
-404.36875922508489
 20
-723.78590661142414
 30
0.0
 41
1.0
 10
-404.40751443887154
 20
-723.85518412408578
 30
0.0
 41
1.0
 10
-404.52839237164039
 20
-724.0712614385867
 30
0.0
 41
0.9924165444597995
 10
-404.69833526061132
 20
-724.25131780465188
 30
0.0
 41
1.0
 10
-404.86827814958224
 20
-724.43137417071716
 30
0.0
 41
0.9925915884347536
 10
-405.07663275903053
 20
-724.56512482377741
 30
0.0
 41
1.0
 10
-405.07690566971451
 20
-724.56530001540045
 30
0.0
 41
1.0
 10
-405.07717858039837
 20
-724.5654752070235
 30
0.0
 41
1.0
 10
-405.28607901121461
 20
-724.69957624332983
 30
0.0
 41
0.9922594090622887
 10
-405.52158458970962
 20
-724.77805936528239
 30
0.0
 41
1.0
 10
-405.56732998596829
 20
-724.79330419105804
 30
0.0
 41
1.0
 10
-405.61307538222695
 20
-724.80854901683358
 30
0.0
 41
1.0
 10
-405.76468233900573
 20
-724.85907260677902
 30
0.0
 41
0.9917728204409715
 10
-405.9241493032182
 20
-724.86944515755613
 30
0.0
 41
1.0
 10
-405.97162406952782
 20
-724.87253316030706
 30
0.0
 41
1.0
 10
-406.01909883583733
 20
-724.8756211630581
 30
0.0
 41
1.0
 10
-406.08361626743067
 20
-724.87981770833323
 30
0.0
 41
0.9994726744627978
 10
-406.14827003740299
 20
-724.87981770833323
 30
0.0
 41
1.0
 10
-422.71228913462528
 20
-724.87981770833323
 30
0.0
 41
1.0
 10
-439.27630823184745
 20
-724.87981770833323
 30
0.0
 41
1.0
  0
LWPOLYLINE
  5
19E
100
AcDbEntity
  8
GAR70-0914
370
              15
390
0
  6
Continuous
 62
               7
100
AcDbPolyline
 90
      188
 70
             128
 10
-480.30877350962521
 20
-576.0020833333333
 42
-0.0113413560190963
 10
-480.15363427471425
 20
-576.32431948942474
 10
-480.11411444710757
 20
-576.41140521372211
 42
-0.0182909256419846
 10
-479.90581899841754
 20
-576.91895463294918
 10
-479.86838051562847
 20
-577.02061515036758
 42
-0.0147292615167107
 10
-479.62516290027952
 20
-577.74627437416802
 10
-479.61818113720881
 20
-577.76933831256849
 42
-0.0125642277001098
 10
-479.40209496018133
 20
-578.55372256880946
 10
-479.34126444958429
 20
-578.79838412924187
 42
-0.0184735293189271
 10
-479.07087660882655
 20
-580.08751572139329
 10
-479.0247521238548
 20
-580.35653316775711
 42
-0.0131568923352361
 10
-478.75829675607201
 20
-582.20070576161368
 10
-478.75200098631478
 20
-582.25418706922403
 42
-0.0097278508017227
 10
-478.55966320575919
 20
-584.2160773620102
 10
-478.55731191484688
 20
-584.24605691533782
 42
-0.007298993541036
 10
-478.42804380574967
 20
-586.27353589012353
 10
-478.42676815852656
 20
-586.29950930562984
 42
-0.0054562935528551
 10
-478.35049126209913
 20
-588.29732237745111
 10
-478.34919352090901
 20
-588.34493554863229
 42
-0.0039584544196333
 10
-478.31238580406762
 20
-590.24864608904397
 10
-478.31153567539263
 20
-590.32311463437713
 42
-0.0025500753254416
 10
-478.30045139657773
 20
-592.07823602387543
 10
-478.3003280504696
 20
-592.17974136855753
 42
-0.0010355482036814
 10
-478.30165659130444
 20
-593.73190584896008
 10
-478.30203295310241
 20
-593.86048723732586
 42
0.0010182505972899
 10
-478.30318618163744
 20
-595.15548853797816
 10
-478.30290428170417
 20
-595.40147920683819
 42
0.0049507098433759
 10
-478.29403364957284
 20
-596.20441368433728
 10
-478.29186390085613
 20
-596.307973138958
 42
0.0071293272560839
 10
-478.27089193657366
 20
-596.9034018260196
 42
0.0047576822343471
 10
-478.23576970538136
 20
-597.49819725749296
 10
-478.22525053029608
 20
-597.65153042682959
 42
-0.0012235382394217
 10
-478.1656356138534
 20
-598.5528038710595
 10
-478.02467581071789
 20
-600.76609696685193
 42
0.0001852571056564
 10
-477.68337272138228
 20
-606.09397602740319
 10
-477.63189952385528
 20
-606.89285374661063
 42
0.0004118910683861
 10
-477.17997118040125
 20
-613.81798949728591
 10
-477.00271782811353
 20
-616.50013248382857
 42
0.002348905116417
 10
-476.13286523263696
 20
-628.78509549208002
 10
-475.53617853549611
 20
-636.685170429903
 42
0.0024276036191628
 10
-474.38509726433585
 20
-650.99961446604175
 10
-474.00698303535978
 20
-655.43224168685606
 42
0.0002988352814417
 10
-473.53937690705004
 20
-660.87556303585018
 42
0.0004924414744255
 10
-473.06315716701317
 20
-666.31813588959528
 10
-473.01529624562204
 20
-666.85898908720969
 42
0.0018236392502943
 10
-472.41420812849321
 20
-673.38060697233038
 10
-472.31002774626609
 20
-674.46753947593481
 42
0.0029070723386524
 10
-471.42642056300326
 20
-683.15429046779423
 10
-471.25117878480751
 20
-684.78295158450999
 42
0.0038756100087717
 10
-470.62568603497482
 20
-690.20099238079217
 10
-470.40330699444394
 20
-692.00443644504639
 42
0.0018691436120136
 10
-470.17382596781647
 20
-693.80988283909619
 10
-470.12782155152195
 20
-694.16131545430073
 42
-0.0019568210316824
 10
-469.98791396677393
 20
-695.26358629929143
 42
-0.0046828338908661
 10
-469.86266013651561
 20
-696.36757780608377
 10
-469.85741864731858
 20
-696.41798688697816
 42
-0.0034171773588512
 10
-469.74026936542691
 20
-697.624770316134
 10
-469.71676010763872
 20
-697.88545891493482
 42
0.0003386455117862
 10
-469.55966905447826
 20
-699.61431379440012
 10
-469.55384729638934
 20
-699.67790679856773
 42
0.0034479098989522
 10
-469.37115213485686
 20
-701.53258144209804
 10
-469.36656774037988
 20
-701.57604663156667
 42
0.006347206651466
 10
-469.13731854581033
 20
-703.51348150487695
 10
-469.13418855834311
 20
-703.53733481223537
 42
0.0093914905891221
 10
-468.83695318693401
 20
-705.51398254013839
 10
-468.79323970425742
 20
-705.77167048704939
 42
0.0131384755948858
 10
-468.50407297959191
 20
-707.24104235158734
 10
-468.50030647716687
 20
-707.25783929171757
 42
0.0078334188222189
 10
-468.15776315611959
 20
-708.680650644298
 10
-468.15466210573311
 20
-708.69269871785411
 42
0.0201536919199178
 10
-467.74051691983402
 20
-710.06934713140879
 10
-467.73102665193289
 20
-710.09682735739568
 42
0.0119374946247238
 10
-467.24946391817355
 20
-711.39031648325226
 10
-467.24340149452917
 20
-711.40548280214534
 42
0.0303553596090157
 10
-466.66913857286113
 20
-712.62224427657702
 10
-466.55342506169723
 20
-712.83322464642947
 42
0.0185664563999459
 10
-466.10903653283253
 20
-713.57662218053429
 10
-466.10401684047588
 20
-713.58435257541635
 42
0.0206991503996554
 10
-465.61343055737416
 20
-714.27546404511543
 10
-465.60900442366119
 20
-714.28118239502624
 42
0.0231964915884949
 10
-465.06920438226007
 20
-714.91548260445313
 10
-465.06629558628481
 20
-714.91859580217044
 42
0.0256322193080723
 10
-464.47349649365628
 20
-715.49120370758044
 10
-464.39482023153096
 20
-715.55976688410135
 42
0.0277902732599164
 10
-463.90897161701628
 20
-715.93781434181176
 10
-463.82437514057142
 20
-715.9963991666674
 42
0.0145619308214168
 10
-463.48017107906969
 20
-716.22022569444437
 42
0.0038667566960196
 10
-463.40504580584354
 20
-716.26323551246128
 10
-463.16018130124985
 20
-716.40091909986597
 42
0.0537272137865568
 10
-462.56762850530254
 20
-716.65485835044069
 10
-462.3823213646906
 20
-716.71167813203294
 42
0.0310643857693013
 10
-461.54911831615641
 20
-716.91153209995673
 10
-461.40102364837537
 20
-716.93745786675117
 42
0.0472985671295632
 10
-460.84743795316626
 20
-716.98115937964542
 10
-460.61150647509544
 20
-716.97744375803177
 42
0.0040818045735296
 10
-460.52565719018082
 20
-716.97539062499993
 10
-439.27630823184745
 20
-716.97539062499993
 10
-418.02695927351408
 20
-716.97539062499993
 42
0.0042049737660944
 10
-417.94109495902194
 20
-716.97742295418561
 10
-417.6616256533066
 20
-716.98168652261472
 42
0.0550174989634666
 10
-417.02349320126666
 20
-716.92109377186046
 10
-416.75084557565162
 20
-716.86452024165158
 42
0.031050313001554
 10
-416.09052884080506
 20
-716.68413428735232
 42
0.0306593004347419
 10
-415.45740067399129
 20
-716.42384361684844
 10
-415.4219316384382
 20
-716.40665086040826
 42
0.0400055300942329
 10
-414.76479072733287
 20
-716.0204527916203
 10
-414.73345760143127
 20
-715.99849323311503
 42
0.0260147491004652
 10
-414.08393022269763
 20
-715.49093976133099
 42
0.0259590970777963
 10
-413.49055603274883
 20
-714.91874112900803
 10
-413.48758189098896
 20
-714.91555919612847
 42
0.0231585906489123
 10
-412.94738746462963
 20
-714.2811352983756
 10
-412.94300579758067
 20
-714.2754783719945
 42
0.0207247899253547
 10
-412.45210779511569
 20
-713.58435065290087
 10
-412.44710038926348
 20
-713.57664318761363
 42
0.018307426863897
 10
-412.00206809054509
 20
-712.83344402288981
 10
-411.99708096684344
 20
-712.8243783995822
 42
0.0160804155410483
 10
-411.59472776692871
 20
-712.03380437230828
 10
-411.59014571380658
 20
-712.02403638825035
 42
0.0144499895689691
 10
-411.2281541589083
 20
-711.19051929943748
 10
-411.13490253437215
 20
-710.95760106203625
 42
0.0229836438964551
 10
-410.67172169030073
 20
-709.62648134506901
 10
-410.59718264908986
 20
-709.37568993891591
 42
0.0172999303498746
 10
-410.11089405192899
 20
-707.50485443462719
 10
-410.10518674429829
 20
-707.47929688981537
 42
0.0129481402233229
 10
-409.72270578221321
 20
-705.53060924587817
 10
-409.71985718341739
 20
-705.5138047216002
 42
0.0094003722854822
 10
-409.42290979836423
 20
-703.53722004087626
 10
-409.41978506822545
 20
-703.51337804971695
 42
0.0063695412811237
 10
-409.19093338485516
 20
-701.57597854721848
 10
-409.18636118126472
 20
-701.53252693548484
 42
0.0034426523110834
 10
-409.00410569491271
 20
-699.6778602782623
 10
-408.99829995887342
 20
-699.61428553201745
 42
0.0003394935989317
 10
-408.84159992732702
 20
-697.88540707046457
 10
-408.81814975124985
 20
-697.6247113568445
 42
-0.0035692664083044
 10
-408.70090937772761
 20
-696.41795486004878
 10
-408.69565213944554
 20
-696.36758094723814
 42
-0.0045599445763892
 10
-408.57024283960243
 20
-695.26355295368091
 42
-0.0022440061185263
 10
-408.42981776304327
 20
-694.16129893546588
 10
-408.38344176023418
 20
-693.80986332968973
 42
0.0019603941128554
 10
-408.15239634534407
 20
-692.00446244893317
 10
-407.99593596444811
 20
-690.74259929337381
 42
0.0030821034256593
 10
-407.48575926836679
 20
-686.40942135330317
 10
-407.3042818523453
 20
-684.7817062241877
 42
0.0032365943392617
 10
-406.50703795483412
 20
-677.18479239709598
 10
-406.45346503204075
 20
-676.64036885392147
 42
0.002142321870403
 10
-405.63555027404686
 20
-667.94642637292691
 10
-405.53823876391505
 20
-666.86226458236524
 42
0.0010150494060905
 10
-404.96550139735052
 20
-660.33246216455143
 42
0.0000689884661971
 10
-404.40692132174615
 20
-653.80141996089583
 10
-403.88552020480779
 20
-647.69515948439312
 42
0.0036530383315681
 10
-402.42206144811792
 20
-628.9408269719595
 10
-401.86403805640543
 20
-621.04649952466946
 42
0.0004175711950056
 10
-401.65234225762731
 20
-618.01566499183616
 42
0.0008063964144657
 10
-401.44806656554056
 20
-614.9843242082178
 10
-401.23115075356429
 20
-611.68612528360552
 42
0.0006892905864727
 10
-400.64810978734249
 20
-602.63037955006598
 10
-400.39122575429747
 20
-598.55281420194342
 42
-0.0010215849292855
 10
-400.33259543177144
 20
-597.6515151868316
 10
-400.32230672510252
 20
-597.4981881175953
 42
0.0039297256412588
 10
-400.28708719572364
 20
-596.90338622235413
 42
0.00752777146424
 10
-400.26550718786143
 20
-596.30798259951302
 10
-400.26331402805533
 20
-596.20441628591948
 42
0.0048351366998716
 10
-400.25407726569608
 20
-595.40146579463124
 10
-400.25362642909033
 20
-595.1554864814118
 42
0.0010931199922472
 10
-400.25408410439854
 20
-593.86048904017355
 10
-400.25441066038559
 20
-593.73190660485886
 42
-0.000988106754339
 10
-400.25528521767558
 20
-592.17974356535171
 10
-400.25514180753191
 20
-592.07823363837667
 42
-0.0025356200024804
 10
-400.24376140895492
 20
-590.32310672978713
 10
-400.2429008309648
 20
-590.24863483158367
 42
-0.0039485874273466
 10
-400.20586430129504
 20
-588.34491432820323
 10
-400.20456164880102
 20
-588.29729634826492
 42
-0.0054653980556019
 10
-400.12804706772977
 20
-586.29946876379165
 10
-400.12676848212561
 20
-586.27350796817234
 42
-0.007313714870411
 10
-399.99715715276454
 20
-584.24595171452472
 10
-399.99480400866446
 20
-584.2160236363992
 42
-0.0097512064178287
 10
-399.80197123195819
 20
-582.25398058308042
 10
-399.76985328847627
 20
-581.98182255138681
 42
-0.0134981384255956
 10
-399.56495879584827
 20
-580.57338901995001
 10
-399.55598698727385
 20
-580.52157624522204
 42
-0.0080607724455614
 10
-399.31012293993763
 20
-579.22626462552876
 10
-399.30364364477646
 20
-579.19489783748224
 42
-0.0225396479361595
 10
-398.99506890258533
 20
-577.98020116235989
 10
-398.92432016651549
 20
-577.74640118901993
 42
-0.0150873472901526
 10
-398.68055094928752
 20
-577.0205791996317
 10
-398.6762534612177
 20
-577.00895753557802
 42
-0.0183576774434962
 10
-398.39401958675728
 20
-576.32410202089613
 42
-0.0113719373943832
 10
-398.23833080129191
 20
-576.0020833333333
 42
-0.0113719373943832
  0
LWPOLYLINE
  5
19F
100
AcDbEntity
  8
GAR70-0914
370
              15
390
0
  6
Continuous
 62
               7
100
AcDbPolyline
 90
        3
 70
             128
 10
-687.02552723184749
 20
-574.87981770833323
 10
-439.27630823184745
 20
-574.87981770833323
 10
-191.53260123184751
 20
-574.87981770833323
  0
LWPOLYLINE
  5
1A0
100
AcDbEntity
  8
GAR70-0914
370
              15
390
0
  6
Continuous
 62
               7
100
AcDbPolyline
 90
        3
 70
             128
 10
-711.27899923184748
 20
-554.8795143333333
 10
-439.27630823184745
 20
-554.8795143333333
 10
-167.27912923184746
 20
-554.8795143333333
  0
LWPOLYLINE
  5
1A1
100
AcDbEntity
  8
GAR70-0914
370
               5
390
0
  6
STYLE_01
 62
               7
100
AcDbPolyline
 90
       84
 70
             128
 10
789.73443395565243
 20
190.88107638888889
 10
789.73443395565243
 20
577.99956597222217
 42
0.0189425857710378
 10
789.71423785543391
 20
578.51288793941262
 10
789.68488239008866
 20
578.89236323099317
 42
0.0735009724945174
 10
789.40471210669466
 20
580.12246108816134
 10
789.26645910192735
 20
580.47819083483091
 42
0.0697948698524733
 10
788.30656689387229
 20
582.19407128118507
 42
0.0681603513665008
 10
786.91601590031325
 20
583.58428876564847
 10
786.72022859967137
 20
583.73284033767345
 42
0.0701235830857754
 10
785.42977699068831
 20
584.45306220311272
 10
785.20468546380096
 20
584.54011713936347
 42
0.036623928268557
 10
784.24137567325158
 20
584.83369745859909
 10
784.12244951215996
 20
584.86061712006642
 42
0.0375099734490004
 10
783.36701988953098
 20
584.97295082809285
 10
783.2410077160273
 20
584.98211988234732
 42
0.0188835938015399
 10
782.72848777509694
 20
585.0
 10
236.73873083065254
 20
585.0
 42
0.0190479233805313
 10
236.22560284806559
 20
584.98192773645417
 10
235.84642831426797
 20
584.95408569841197
 42
0.0740754948048339
 10
234.61682725220132
 20
584.67760250860749
 10
234.26177648587571
 20
584.54027591059469
 42
0.0701958435454257
 10
232.54625634796278
 20
583.58244063576876
 42
0.0682019517487764
 10
231.15602609462425
 20
582.19171906438476
 10
231.00778816618637
 20
581.99635788023204
 42
0.0696650014154452
 10
230.28508265385418
 20
580.70432413925232
 10
230.19753631224438
 20
580.47920538243193
 42
0.0362521206932951
 10
229.90084441244679
 20
579.51468378964375
 10
229.87346271048725
 20
579.39556666160286
 42
0.0371001644068222
 10
229.75776241039941
 20
578.63914276273158
 10
229.74794647062063
 20
578.5129259963818
 42
0.0186842412753087
 10
229.72727249731926
 20
577.99956597222217
 10
229.72727249731926
 20
190.88107638888889
 10
229.72727249731926
 20
189.99913194444454
 42
0.0091251104360344
 10
229.75794624302117
 20
188.31853904715993
 10
229.80321808683502
 20
187.07874599267265
 42
0.0367440245624643
 10
230.25873814038343
 20
182.9526473725974
 10
230.48943644425623
 20
181.70895092866724
 42
0.0363000720728386
 10
232.11593112769575
 20
175.49429515974137
 10
232.12883842268627
 20
175.45643287183171
 42
0.0356906323394542
 10
234.59899318573358
 20
169.61228889198824
 10
234.60936951388638
 20
169.59192465730226
 42
0.0351345060983716
 10
237.85627719201986
 20
164.19349579590963
 10
237.86123690472604
 20
164.18642558563747
 42
0.0347927468701529
 10
241.81803757816007
 20
159.30624576907061
 42
0.0347193053286495
 10
246.41477720569534
 20
155.01927880198147
 42
0.034929432251852
 10
251.56390215054705
 20
151.41000647814408
 10
251.57693953593426
 20
151.40216430989219
 42
0.0353908988796687
 10
257.20768432284922
 20
148.53641313985335
 10
257.23590063384631
 20
148.52448256468054
 42
0.0359918006606743
 10
263.27431722379708
 20
146.46915507911942
 10
264.07268931797887
 20
146.26008245313662
 42
0.0365013954015578
 10
268.92274512977338
 20
145.36171795009992
 10
270.13355195479744
 20
145.22776695586091
 42
0.0183906578818744
 10
272.63443131383849
 20
145.04386117807869
 10
273.04858434054256
 20
145.02868514534842
 42
0.0091570438119756
 10
274.72848777509705
 20
144.99791666666667
 10
275.25214228898597
 20
144.99791666666667
 10
509.73360930287481
 20
144.99791666666667
 10
744.20956416398576
 20
144.99791666666667
 10
744.73873083065257
 20
144.99791666666667
 42
0.0091570195091881
 10
746.41861769175227
 20
145.02868476012284
 10
746.8327589402769
 20
145.04386032094911
 42
0.0183836017853713
 10
749.33360218727921
 20
145.22772772757585
 10
750.54568873306414
 20
145.36178556018152
 42
0.0365360736602535
 10
755.39816152951221
 20
146.26080329402978
 10
756.19512470164511
 20
146.46960082518481
 42
0.0359919563358363
 10
762.23276954018718
 20
148.52541029061641
 10
762.26108103076547
 20
148.53738480932199
 42
0.0353884385843584
 10
767.8908253548409
 20
151.40337762447248
 10
767.90365570905215
 20
151.41109702560246
 42
0.0349376810757818
 10
773.05210170104317
 20
155.02079557948829
 42
0.0346899412332084
 10
777.64785387887503
 20
159.30801349399573
 42
0.0347898866411367
 10
781.60348084459508
 20
164.18812673297023
 10
781.60861055622809
 20
164.19544134655152
 42
0.0351402843896301
 10
784.85463393152827
 20
169.59416339089634
 10
784.86500309453493
 20
169.61452140516755
 42
0.035691200045446
 10
787.33415592121844
 20
175.45885276695142
 10
787.34708406073116
 20
175.49679584033404
 42
0.0362965540128672
 10
788.97262783856047
 20
181.71165115588204
 10
789.20329044788537
 20
182.95615478077517
 42
0.0366913096513675
 10
789.65839352789703
 20
187.07994162619926
 10
789.70370433080677
 20
188.31854172216359
 42
0.0091417456549296
 10
789.73443395565243
 20
189.99913194444454
 10
789.73443395565243
 20
190.88107638888889
  0
CIRCLE
  5
1A2
100
AcDbEntity
  8
GAR70-0914
370
               5
390
0
  6
STYLE_01
 62
               7
100
AcDbCircle
 10
509.73360930287481
 20
530.0
 30
0.0
 40
17.5
  0
LWPOLYLINE
  5
1A3
100
AcDbEntity
  8
GAR70-0914
370
               5
390
0
  6
STYLE_01
 62
               7
100
AcDbPolyline
 90
      141
 70
             128
 10
533.70044958065262
 20
404.99999973611102
 42
0.0057611061350602
 10
533.69422213691735
 20
405.54045471977952
 10
533.68498849289574
 20
405.94107707533431
 42
0.0231666938574766
 10
533.59207045898245
 20
407.27839749468501
 10
533.54501759651373
 20
407.68328095430911
 42
0.0230304982881658
 10
533.20817770194287
 20
409.74759621702356
 10
533.20564436786697
 20
409.759611442287
 42
0.0228181974445783
 10
532.68736584965757
 20
411.76070815494893
 10
532.68462983525944
 20
411.76958257794456
 42
0.0225744422048932
 10
531.99334088687829
 20
413.69803892181437
 10
531.99076518169409
 20
413.7043167964739
 42
0.0223292037369957
 10
531.13501547155863
 20
415.55075506962601
 10
531.13285272476207
 20
415.55492313301113
 42
0.0221092712611585
 10
530.12128181683863
 20
417.31003772927647
 10
530.11971139848504
 20
417.31250370579187
 42
0.0219361848444057
 10
528.96100985996657
 20
418.96707482648731
 10
528.9601771019361
 20
418.96815943226113
 42
0.0218255425341851
 10
527.66304772257195
 20
420.51305379632913
 42
0.0217875832379166
 10
526.23622387138892
 20
421.93915523672808
 42
0.0218228253557323
 10
524.69056206859614
 20
423.23561828490028
 10
524.68935052955339
 20
423.23654755465327
 42
0.0219306355979733
 10
523.03383003015051
 20
424.39472741039128
 10
523.03122811373817
 20
424.39638268177532
 42
0.022100758419223
 10
521.27496279967738
 20
425.40755737929385
 10
521.27065064596138
 20
425.40979250715611
 42
0.0223172154438923
 10
519.4228417110121
 20
426.26525293488601
 10
519.41641218751704
 20
426.26788794500396
 42
0.0225597997665195
 10
517.48634482243449
 20
426.95897318449636
 10
517.47731407951221
 20
426.9617541352676
 42
0.0227959904822036
 10
515.47435198277958
 20
427.4799065772504
 10
515.46217310855047
 20
427.4824713545305
 42
0.0230193282680315
 10
513.39570667326336
 20
427.8191990845753
 10
513.37982763363891
 20
427.82104128658239
 42
0.0230970526735189
 10
511.25928828260965
 20
427.96825693992878
 10
511.24177091285128
 20
427.96866212900568
 42
0.0231157130496641
 10
509.10062973891309
 20
427.91920021957219
 10
509.0841500402114
 20
427.91805601668659
 42
0.0230866439110041
 10
506.98948152220578
 20
427.67507227216879
 10
506.9755204894135
 20
427.67279560651014
 42
0.0229082904009699
 10
504.93964326658306
 20
427.24426997379385
 10
504.92910938787566
 20
427.24154354290044
 42
0.0226805805971114
 10
502.96143323824072
 20
426.63584284946853
 10
502.95376796075584
 20
426.63309703715322
 42
0.0224361941505622
 10
501.06367697681048
 20
425.85873034420251
 10
501.05836282246935
 20
425.8562692993894
 42
0.022204060376767
 10
499.25518143985482
 20
424.92185368955722
 10
499.25177046535441
 20
424.91988933262712
 42
0.0220084565906435
 10
497.54474284456023
 20
423.83411254254293
 10
497.54287142475175
 20
423.83280310930161
 42
0.0218680445758194
 10
495.94115428504131
 20
422.6043843269706
 42
0.021786812291777
 10
494.45321256705643
 20
421.24152556988076
 42
0.0218037627391562
 10
493.08972405751786
 20
419.7543746910884
 42
0.02187249509677
 10
491.86072916185378
 20
418.15349720342817
 10
491.85950955849387
 20
418.15175591278944
 42
0.0220160269959092
 10
490.77329444177883
 20
416.44575626510357
 10
490.77140813631354
 20
416.4424841557377
 42
0.0222150038688618
 10
489.8366755111042
 20
414.64053812948441
 10
489.83428005447968
 20
414.63537097776964
 42
0.0224505829704644
 10
489.05970088766469
 20
412.74674291837493
 10
489.05700726024247
 20
412.7392313492868
 42
0.0226993828687469
 10
488.4511836494919
 20
410.77326528223227
 10
488.44849582568008
 20
410.76289186032795
 42
0.0229284598078035
 10
488.01991221149785
 20
408.7289972644777
 10
488.01765906312585
 20
408.71519638348002
 42
0.0231225629027368
 10
487.77470149988471
 20
406.62279455027863
 10
487.77356802958923
 20
406.60647883958256
 42
0.0231129474443393
 10
487.72406855891336
 20
404.46791459121334
 10
487.72446944076705
 20
404.45054518864492
 42
0.023159456210317
 10
487.87167322558355
 20
402.33244040957629
 10
487.87350042461298
 20
402.31671796380851
 42
0.0230298608844188
 10
488.2103429918767
 20
400.2524031625228
 10
488.21287631861867
 20
400.2403879733838
 42
0.0228181864993712
 10
488.73115482005267
 20
398.23929133085164
 10
488.7338907790562
 20
398.23041708686253
 42
0.0225744669397626
 10
489.42517988161126
 20
396.30196048419907
 10
489.42775588851634
 20
396.29568187553105
 42
0.0223291179473069
 10
490.28350489144668
 20
394.44924467417104
 10
490.28566608281176
 20
394.44507960572298
 42
0.0221095529353049
 10
491.29724021334118
 20
392.68996062599899
 10
491.29881828490602
 20
392.6874826366045
 42
0.0219353279886837
 10
492.457505305979
 20
391.03292924573771
 10
492.45830170323688
 20
391.03189199167423
 42
0.0218277965253305
 10
493.75549574078104
 20
389.48692670810408
 10
493.92632899659804
 20
389.30061638286998
 42
0.0217834608780269
 10
494.99593309166073
 20
388.23154999975486
 42
0.0109043466504881
 10
496.13389470380298
 20
387.23392550440235
 10
496.13464917051976
 20
387.23329263817675
 42
0.0218664902950298
 10
497.3361982944806
 20
386.3117952791174
 10
497.54487493869431
 20
386.16578596225838
 42
0.0220087298685198
 10
499.25191235132422
 20
385.0800182957513
 10
499.25532397557402
 20
385.07805359620545
 42
0.0222044694428673
 10
501.05851688364692
 20
384.14364977979324
 10
501.06383146331723
 20
384.14118859341363
 42
0.0224365509682785
 10
502.95393492655967
 20
383.36683731140226
 10
502.96160072569853
 20
383.36409139881357
 42
0.0226816157314159
 10
504.92929052502598
 20
382.75841252633882
 10
504.93982341721471
 20
382.75568650980028
 42
0.0229067478658042
 10
506.97571027260426
 20
382.32718237698612
 10
506.98967394581496
 20
382.32490539517801
 42
0.0230970249949579
 10
509.08435738128526
 20
382.08198091803331
 10
509.10082650724701
 20
382.08083826812231
 42
0.0230827801671749
 10
511.24196211530352
 20
382.03134147003061
 10
511.25948524799298
 20
382.03174535165215
 42
0.0231316934979068
 10
513.38002411817729
 20
382.17893341714989
 10
513.39591008455557
 20
382.18077732939321
 42
0.023006197314306
 10
515.46235929703857
 20
382.51756603047977
 10
515.47453587944881
 20
382.52013037365805
 42
0.0227984741705511
 10
517.47748807017649
 20
383.03829901943107
 10
517.4865193929852
 20
383.04108028469625
 42
0.0225585951139678
 10
519.41657314825579
 20
383.73218534048976
 10
519.42300275461696
 20
383.73482045163132
 42
0.0223168700478346
 10
521.27079872138017
 20
384.59029336457183
 10
521.27510737358273
 20
384.59252671875424
 42
0.0221006658032035
 10
523.03136634429984
 20
385.60371498506083
 10
523.03397960428595
 20
385.6053774992846
 42
0.0219295744344397
 10
524.68947339497379
 20
386.7635511412027
 10
524.69063682425303
 20
386.76444351542682
 42
0.0218249160150253
 10
526.23636229307124
 20
388.06097870270526
 10
526.42283799201448
 20
388.23179267926776
 42
0.0217837171669508
 10
527.49239454381598
 20
389.30082268132969
 42
0.0109067223365857
 10
528.49053996862301
 20
390.43824822116164
 10
528.49112245201616
 20
390.43894193706194
 42
0.0218698219047506
 10
529.41306519235695
 20
391.63987523256947
 10
529.70330466554287
 20
392.05426717577848
 42
0.0220170081628406
 10
530.51974513201333
 20
393.33657340112563
 42
0.01108195598722
 10
531.25011253183766
 20
394.6710380020503
 10
531.25198452579468
 20
394.67464597071103
 42
0.02232292025297
 10
531.89457970740261
 20
396.06121980129183
 10
531.89547339384558
 20
396.06339803832793
 42
0.0112625812918613
 10
532.44565956592385
 20
397.49542645347083
 10
532.44789051261091
 20
397.50164825820946
 42
0.0226859952726769
 10
532.90320455443816
 20
398.97918402987489
 10
532.90416178342036
 20
398.98287793640554
 42
0.0114506608727511
 10
533.25964594974437
 20
400.49661278784379
 10
533.26170489691879
 20
400.5063800460498
 42
0.0230080730982768
 10
533.51513130263572
 20
402.05945942192727
 10
533.545568426464
 20
402.32125542095866
 42
0.0115670381113343
 10
533.64459048070023
 20
403.38743316156751
 42
0.0115909016549719
 10
533.69414519719805
 20
404.45705091451566
 10
533.69420198584532
 20
404.45950721147733
 42
0.0057785330969637
 10
533.70044958065262
 20
404.99999973611102
 42
0.0057785330969637
  0
CIRCLE
  5
1A4
100
AcDbEntity
  8
GAR70-0914
370
               5
390
0
  6
STYLE_01
 62
               7
100
AcDbCircle
 10
609.73360930287481
 20
530.0
 30
0.0
 40
17.498329000000012
  0
CIRCLE
  5
1A5
100
AcDbEntity
  8
GAR70-0914
370
               5
390
0
  6
STYLE_01
 62
               7
100
AcDbCircle
 10
409.73360930287481
 20
530.0
 30
0.0
 40
17.498329000000012
  0
LINE
  5
1A6
100
AcDbEntity
  8
GAR70-0914
370
              15
390
0
  6
Continuous
 62
               7
100
AcDbLine
 10
260.66635873083067
 20
565.0
 30
0.0
 11
759.73443395565243
 21
565.0
 31
0.0
  0
LINE
  5
1A7
100
AcDbEntity
  8
GAR70-0914
370
              15
390
0
  6
Continuous
 62
               7
100
AcDbLine
 10
250.66635873083064
 20
555.0
 30
0.0
 11
250.66635873083064
 21
189.99791666666667
 31
0.0
  0
LINE
  5
1A8
100
AcDbEntity
  8
GAR70-0914
370
              15
390
0
  6
Continuous
 62
               7
100
AcDbLine
 10
769.73443395565243
 20
555.0
 30
0.0
 11
769.73443395565243
 21
189.99791666666667
 31
0.0
  0
LINE
  5
1A9
100
AcDbEntity
  8
GAR70-0914
370
              15
390
0
  6
Continuous
 62
               7
100
AcDbLine
 10
454.0
 20
159.99791666666667
 30
0.0
 11
566.4007926864831
 21
159.99791666666667
 31
0.0
  0
LINE
  5
1AA
100
AcDbEntity
  8
GAR70-0914
370
              15
390
0
  6
Continuous
 62
               7
100
AcDbLine
 10
275.66635873083067
 20
164.99791666666667
 30
0.0
 11
453.0
 21
164.99791666666667
 31
0.0
  0
LINE
  5
1AB
100
AcDbEntity
  8
GAR70-0914
370
              15
390
0
  6
Continuous
 62
               7
100
AcDbLine
 10
567.4007926864831
 20
164.99791666666667
 30
0.0
 11
744.73443395565243
 21
164.99791666666667
 31
0.0
  0
ARC
  5
1AC
100
AcDbEntity
  8
GAR70-0914
370
              15
390
0
  6
Continuous
 62
               7
100
AcDbCircle
 10
275.66635873083067
 20
189.99791666666667
 30
0.0
 40
25.0
100
AcDbArc
 50
180.0
 51
270.0
  0
ARC
  5
1AD
100
AcDbEntity
  8
GAR70-0914
370
              15
390
0
  6
Continuous
 62
               7
100
AcDbCircle
 10
744.73443395565243
 20
189.99791666666667
 30
0.0
 40
25.0
100
AcDbArc
 50
270.0
 51
0.0
  0
LINE
  5
1AE
100
AcDbEntity
  8
GAR70-0914
370
              15
390
0
  6
Continuous
 62
               7
100
AcDbLine
 10
453.0
 20
164.99791666666667
 30
0.0
 11
454.0
 21
159.99791666666667
 31
0.0
  0
LINE
  5
1AF
100
AcDbEntity
  8
GAR70-0914
370
              15
390
0
  6
Continuous
 62
               7
100
AcDbLine
 10
567.4007926864831
 20
164.99791666666667
 30
0.0
 11
566.4007926864831
 21
159.99791666666667
 31
0.0
  0
LINE
  5
1B0
100
AcDbEntity
  8
GAR70-0914
370
              15
390
0
  6
STYLE_01
 62
               7
100
AcDbLine
 10
567.35883096291673
 20
-673.04301854153493
 30
0.0
 11
613.30851142847916
 21
-673.04301854153493
 31
0.0
  0
LINE
  5
1B1
100
AcDbEntity
  8
GAR70-0914
370
              15
390
0
  6
STYLE_01
 62
               7
100
AcDbLine
 10
-472.44650098627017
 20
-673.04301854153493
 30
0.0
 11
-406.10591472942599
 21
-673.04301854153493
 31
0.0
  0
LWPOLYLINE
  5
1B2
100
AcDbEntity
  8
GAR70-0914
370
              15
390
0
  6
STYLE_01
 62
               7
100
AcDbPolyline
 90
       50
 70
             128
 10
567.35883096291627
 20
-673.39366172019209
 42
-0.0023240376315824
 10
562.38421328161326
 20
-673.04301854153505
 10
558.70394588194142
 20
-672.76641265309888
 42
-0.0015942303851404
 10
555.08642040325674
 20
-672.48292009182421
 10
547.23711484770126
 20
-671.97028988349086
 42
-0.0017989482758642
 10
545.01761588668637
 20
-671.8134917583177
 10
542.24413258708
 20
-671.60752591488381
 42
-0.0107742468206084
 10
534.49425935527552
 20
-670.86379306716242
 10
530.62754526138292
 20
-670.40844244732273
 42
-0.0143451000932751
 10
515.22522388611264
 20
-668.14500424130063
 10
513.03680326656581
 20
-667.75897927760423
 42
-0.0143333617774756
 10
497.77614304488657
 20
-664.61361422586094
 10
493.9856876084441
 20
-663.71839309718973
 42
-0.0107517359076789
 10
486.43816399950344
 20
-661.76359055471357
 10
483.75810531889283
 20
-661.00760944922081
 42
-0.0017925130630542
 10
481.61493602825703
 20
-660.39476905015761
 42
0.0093847154943277
 10
480.80464956992375
 20
-660.15223432793539
 42
-0.0033394570844932
 10
480.63395035089661
 20
-660.09185189173365
 10
477.1157356988823
 20
-658.82083215806085
 42
-0.0004925553050886
 10
469.91158225777428
 20
-656.21017326663218
 10
466.39588220881262
 20
-654.93222564737982
 42
-0.0020379202561715
 10
466.2275995318879
 20
-654.85507921991564
 10
464.66582068291814
 20
-654.13138956567616
 42
-0.0003115331824374
 10
461.37524633149849
 20
-652.60412768713604
 10
459.81437179214595
 20
-651.87849300849086
 42
-0.000513135909982
 10
452.36745338936817
 20
-647.86013363349093
 42
-0.0015289037905907
 10
451.70637571296754
 20
-647.4710082504522
 10
449.55687067133169
 20
-646.19689454159129
 42
-0.0204169782551078
 10
444.72611070635617
 20
-643.06017898313462
 10
440.65126222504546
 20
-640.17119993714289
 42
-0.0203877790626182
 10
436.09968603064658
 20
-636.65692468768998
 10
434.1885425269362
 20
-635.05284715473294
 42
-0.0014951915599495
 10
433.60408533381269
 20
-634.55930898071313
 42
0.0020007757382059
 10
432.36936311159036
 20
-633.48995134182439
 42
-0.0030190848971747
 10
430.30167396783793
 20
-631.66135004023658
 10
427.7417110897311
 20
-629.36970175756846
 42
-0.0184227750975995
 10
420.81134300945894
 20
-622.6898787977741
 10
418.42329143331699
 20
-620.21211665580017
 42
-0.0123808565029816
 10
411.03775876469331
 20
-612.15930551929102
 10
411.03262968359991
 20
-612.15342727387463
 42
-0.0124112424604197
 10
404.06525205937317
 20
-603.75649188014245
 42
-0.0124176622345055
 10
397.52272773282903
 20
-595.02331725656222
 42
-0.012398205098726
 10
391.42097835730067
 20
-585.97555293252788
 10
391.41572494916761
 20
-585.96733044041889
 42
-0.0123470484526883
 10
385.75890988250455
 20
-576.61208515241697
 10
384.73320940414931
 20
-574.81713282540159
 42
-0.012260008167059
 10
381.47028779631603
 20
-568.76744811473861
 10
380.53712996725039
 20
-566.93091929369064
 42
-0.0030403032238181
 10
379.30386831992382
 20
-564.466774258491
 10
376.55881623659047
 20
-558.89949995293534
  0
LINE
  5
1B3
100
AcDbEntity
  8
GAR70-0914
370
              15
390
0
  6
Continuous
 62
               7
100
AcDbLine
 10
567.35883096291673
 20
-772.02004698935696
 30
0.0
 11
567.35883096291673
 21
-769.895385128523
 31
0.0
  0
LINE
  5
1B4
100
AcDbEntity
  8
GAR70-0914
370
              15
390
0
  6
Continuous
 62
               7
100
AcDbLine
 10
613.30851142847916
 20
-771.54901623361877
 30
0.0
 11
613.30851142847916
 21
-770.46227422605784
 31
0.0
  0
LWPOLYLINE
  5
1B5
100
AcDbEntity
  8
GAR70-0914
370
              15
390
0
  6
STYLE_01
 62
               7
100
AcDbPolyline
 90
        4
 70
             128
 10
613.30851142847916
 20
-673.04301854153493
 10
625.99213825084894
 20
-670.95893046968831
 42
0.32615947547265
 10
646.66970394136638
 20
-649.94699373604385
 10
661.0
 20
-553.04301854153493
  0
LWPOLYLINE
  5
1B6
100
AcDbEntity
  8
GAR70-0914
370
              15
390
0
  6
STYLE_01
 62
               7
100
AcDbPolyline
 90
        4
 70
             128
 10
-668.0
 20
-554.8795143333333
 10
-607.59762059298771
 20
-632.52303383062213
 42
0.2011735049065309
 10
-553.67834533281302
 20
-662.86769205958421
 10
-475.0
 20
-672.0
  0
LWPOLYLINE
  5
1B7
100
AcDbEntity
  8
GAR70-0914
370
              15
390
0
  6
STYLE_01
 62
               7
100
AcDbPolyline
 90
        4
 70
             128
 10
-210.55261646369459
 20
-554.8795143333333
 10
-270.95499587070697
 20
-632.52303383062213
 42
-0.2011735049065325
 10
-324.87427113088177
 20
-662.86769205958421
 10
-403.55261646369456
 20
-672.0
  0
ARC
  5
1B8
100
AcDbEntity
  8
GAR70-0914
370
              15
390
0
  6
Continuous
 62
               7
100
AcDbCircle
 10
260.66635873083067
 20
555.0
 30
0.0
 40
10.0
100
AcDbArc
 50
90.0
 51
180.0
  0
ARC
  5
1B9
100
AcDbEntity
  8
GAR70-0914
370
              15
390
0
  6
Continuous
 62
               7
100
AcDbCircle
 10
759.73443395565243
 20
555.0
 30
0.0
 40
10.0
100
AcDbArc
 50
0.0
 51
90.0
  0
LINE
  5
1BA
100
AcDbEntity
  8
GAR70-0914
370
              15
390
0
  6
Continuous
 62
               7
100
AcDbLine
 10
769.73443395565243
 20
555.0
 30
0.0
 11
769.73443395565243
 21
189.99791666666667
 31
0.0
  0
ENDSEC
  0
SECTION
  2
OBJECTS
  0
DICTIONARY
  5
19
100
AcDbDictionary
280
               0
281
               1
  3
ACAD_GROUP
350
1A
  3
ACAD_MLINESTYLE
350
1B
  3
ACAD_LAYOUT
350
1E
  3
ACAD_PLOTSETTINGS
350
22
  3
ACAD_PLOTSTYLENAME
350
1F
  0
DICTIONARY
  5
1A
102
{ACAD_REACTORS
330
19
102
}
100
AcDbDictionary
280
               0
281
               1
  0
DICTIONARY
  5
1B
102
{ACAD_REACTORS
330
19
102
}
100
AcDbDictionary
280
               0
281
               1
  3
Standard
350
1C
  0
MLINESTYLE
  5
1C
102
{ACAD_REACTORS
330
1B
102
}
100
AcDbMlineStyle
  2
Standard
 70
               0
  3

 62
               0
 51
90.0
 52
90.0
 71
               2
 49
0.5
 62
             256
  6
ByLayer
 49
-0.5
 62
             256
  6
ByLayer
  0
ACDBDICTIONARYWDFLT
  5
1F
102
{ACAD_REACTORS
330
19
102
}
100
AcDbDictionary
281
               1
  3
Normal
350
1D
100
AcDbDictionaryWithDefault
340
1D
  0
ACDBPLACEHOLDER
  5
1D
102
{ACAD_REACTORS
330
1F
102
}
  0
LAYOUT
  5
20
102
{ACAD_REACTORS
330
1E
102
}
100
AcDbPlotSettings
  1

  2

  4

  6

 40
0.0
 41
0.0
 42
0.0
 43
0.0
 44
0.0
 45
0.0
 46
0.0
 47
0.0
 48
0.0
 49
0.0
140
0.0
141
0.0
142
1.0
143
1.0
 70
            1024
 72
               0
 73
               0
 74
               0
  7

 75
               0
147
1.0
148
0.0
149
0.0
100
AcDbLayout
  1
Model
 70
               0
 71
               0
 10
0.0
 20
0.0
 11
0.0
 21
0.0
 12
0.0
 22
0.0
 32
0.0
 14
0.0
 24
0.0
 34
0.0
 15
0.0
 25
0.0
 35
0.0
146
0.0
 13
0.0
 23
0.0
 33
0.0
 16
0.0
 26
0.0
 36
0.0
 17
0.0
 27
0.0
 37
0.0
 76
               0
330
A
331
0
345
0
346
0
  0
LAYOUT
  5
21
102
{ACAD_REACTORS
330
1E
102
}
100
AcDbPlotSettings
  1

  2

  4

  6

 40
0.0
 41
0.0
 42
0.0
 43
0.0
 44
0.0
 45
0.0
 46
0.0
 47
0.0
 48
0.0
 49
0.0
140
0.0
141
0.0
142
1.0
143
1.0
 70
               0
 72
               0
 73
               0
 74
               0
  7

 75
               0
147
1.0
148
0.0
149
0.0
100
AcDbLayout
  1
Layout1
 70
               0
 71
               0
 10
0.0
 20
0.0
 11
0.0
 21
0.0
 12
0.0
 22
0.0
 32
0.0
 14
0.0
 24
0.0
 34
0.0
 15
0.0
 25
0.0
 35
0.0
146
0.0
 13
0.0
 23
0.0
 33
0.0
 16
0.0
 26
0.0
 36
0.0
 17
0.0
 27
0.0
 37
0.0
 76
               0
330
B
331
0
345
0
346
0
  0
DICTIONARY
  5
1E
102
{ACAD_REACTORS
330
19
102
}
100
AcDbDictionary
280
               0
281
               1
  3
Layout1
350
21
  3
Model
350
20
  0
DICTIONARY
  5
22
102
{ACAD_REACTORS
330
19
102
}
100
AcDbDictionary
280
               0
281
               1
  0
ENDSEC
  0
EOF
