  0
SECTION
  2
HEADER
  9
$ACADVER
  1
AC1015
  9
$ACADMAINTVER
 70
               6
  9
$DWGCODEPAGE
  3
ANSI_932
  9
$INSBASE
 10
0.0
 20
0.0
 30
0.0
  9
$EXTMIN
 10
-975.00000000024124
 20
-1207.522815112412
 30
-14.834305555555554
  9
$EXTMAX
 10
975.00000000024124
 20
1630.0
 30
14.834305555555554
  9
$LIMMIN
 10
0.0
 20
0.0
  9
$LIMMAX
 10
0.0
 20
0.0
  9
$ORTHOMODE
 70
               0
  9
$REGENMODE
 70
               1
  9
$FILLMODE
 70
               1
  9
$QTEXTMODE
 70
               0
  9
$MIRRTEXT
 70
               1
  9
$LTSCALE
 40
50.799999999999997
  9
$ATTMODE
 70
               1
  9
$TEXTSIZE
 40
0.2
  9
$TRACEWID
 40
1.0
  9
$TEXTSTYLE
  7
Standard
  9
$CLAYER
  8
GAR70-0918
  9
$CELTYPE
  6
Continuous
  9
$CECOLOR
 62
             256
  9
$CELTSCALE
 40
1.0
  9
$DISPSILH
 70
               0
  9
$DIMSCALE
 40
1.0
  9
$DIMASZ
 40
22.4482421875
  9
$DIMEXO
 40
15.875
  9
$DIMDLI
 40
10.16
  9
$DIMRND
 40
0.0
  9
$DIMDLE
 40
1.5874999999999999
  9
$DIMEXE
 40
31.75
  9
$DIMTP
 40
0.0
  9
$DIMTM
 40
0.0
  9
$DIMTXT
 40
24.432617187500004
  9
$DIMCEN
 40
0.0
  9
$DIMTSZ
 40
0.0
  9
$DIMTOL
 70
               0
  9
$DIMLIM
 70
               0
  9
$DIMTIH
 70
               0
  9
$DIMTOH
 70
               0
  9
$DIMSE1
 70
               0
  9
$DIMSE2
 70
               0
  9
$DIMTAD
 70
               1
  9
$DIMZIN
 70
              11
  9
$DIMBLK
  1
VW_SLASH
  9
$DIMASO
 70
               1
  9
$DIMSHO
 70
               1
  9
$DIMPOST
  1
<>
  9
$DIMAPOST
  1
[]
  9
$DIMALT
 70
               0
  9
$DIMALTD
 70
               3
  9
$DIMALTF
 40
0.0393700787401575
  9
$DIMLFAC
 40
1.0
  9
$DIMTOFL
 70
               1
  9
$DIMTVP
 40
0.0
  9
$DIMTIX
 70
               1
  9
$DIMSOXD
 70
               0
  9
$DIMSAH
 70
               0
  9
$DIMBLK1
  1

  9
$DIMBLK2
  1

  9
$DIMSTYLE
  2
Arch
  9
$DIMCLRD
 70
               0
  9
$DIMCLRE
 70
               0
  9
$DIMCLRT
 70
               0
  9
$DIMTFAC
 40
1.0
  9
$DIMGAP
 40
1.5874999999999999
  9
$DIMJUST
 70
               0
  9
$DIMSD1
 70
               0
  9
$DIMSD2
 70
               0
  9
$DIMTOLJ
 70
               1
  9
$DIMTZIN
 70
              11
  9
$DIMALTZ
 70
              15
  9
$DIMALTTZ
 70
              15
  9
$DIMUPT
 70
               0
  9
$DIMDEC
 70
               1
  9
$DIMTDEC
 70
               1
  9
$DIMALTU
 70
               4
  9
$DIMALTTD
 70
               2
  9
$DIMTXSTY
  7
ＭＳ ゴシック
  9
$DIMAUNIT
 70
               0
  9
$DIMADEC
 70
               2
  9
$DIMALTRND
 40
0.0
  9
$DIMAZIN
 70
               0
  9
$DIMDSEP
 70
              46
  9
$DIMATFIT
 70
               0
  9
$DIMFRAC
 70
               2
  9
$DIMLDRBLK
  1

  9
$DIMLUNIT
 70
               2
  9
$DIMLWD
 70
              -2
  9
$DIMLWE
 70
              -2
  9
$DIMTMOVE
 70
               0
  9
$LUNITS
 70
               2
  9
$LUPREC
 70
               4
  9
$SKETCHINC
 40
0.1
  9
$FILLETRAD
 40
0.0
  9
$AUNITS
 70
               0
  9
$AUPREC
 70
               0
  9
$MENU
  1
acad
  9
$ELEVATION
 40
0.0
  9
$PELEVATION
 40
0.0
  9
$THICKNESS
 40
0.0
  9
$LIMCHECK
 70
               0
  9
$CHAMFERA
 40
0.0
  9
$CHAMFERB
 40
0.0
  9
$CHAMFERC
 40
0.0
  9
$CHAMFERD
 40
0.0
  9
$SKPOLY
 70
               0
  9
$TDCREATE
 40
2456122.681180555
  9
$TDUCREATE
 40
0.000000000
  9
$TDUPDATE
 40
2456122.681180555
  9
$TDUUPDATE
 40
0.000000000
  9
$TDINDWG
 40
0.0000000000
  9
$TDUSRTIMER
 40
0.0000000000
  9
$USRTIMER
 70
               1
  9
$ANGBASE
 50
0.0
  9
$ANGDIR
 70
               0
  9
$PDMODE
 70
               1
  9
$PDSIZE
 40
-2.0
  9
$PLINEWID
 40
0.0
  9
$SPLFRAME
 70
               0
  9
$SPLINETYPE
 70
               6
  9
$SPLINESEGS
 70
               8
  9
$HANDSEED
  5
16D
  9
$SURFTAB1
 70
               6
  9
$SURFTAB2
 70
               6
  9
$SURFTYPE
 70
               6
  9
$SURFU
 70
               6
  9
$SURFV
 70
               6
  9
$UCSBASE
  2

  9
$UCSNAME
  2

  9
$UCSORG
 10
0.0
 20
0.0
 30
0.0
  9
$UCSXDIR
 10
1.0
 20
0.0
 30
0.0
  9
$UCSYDIR
 10
0.0
 20
1.0
 30
0.0
  9
$UCSORTHOREF
  2

  9
$UCSORTHOVIEW
 70
               0
  9
$UCSORGTOP
 10
0.0
 20
0.0
 30
0.0
  9
$UCSORGBOTTOM
 10
0.0
 20
0.0
 30
0.0
  9
$UCSORGLEFT
 10
0.0
 20
0.0
 30
0.0
  9
$UCSORGRIGHT
 10
0.0
 20
0.0
 30
0.0
  9
$UCSORGFRONT
 10
0.0
 20
0.0
 30
0.0
  9
$UCSORGBACK
 10
0.0
 20
0.0
 30
0.0
  9
$PUCSBASE
  2

  9
$PUCSNAME
  2

  9
$PUCSORG
 10
0.0
 20
0.0
 30
0.0
  9
$PUCSXDIR
 10
1.0
 20
0.0
 30
0.0
  9
$PUCSYDIR
 10
0.0
 20
1.0
 30
0.0
  9
$PUCSORTHOREF
  2

  9
$PUCSORTHOVIEW
 70
               0
  9
$PUCSORGTOP
 10
0.0
 20
0.0
 30
0.0
  9
$PUCSORGBOTTOM
 10
0.0
 20
0.0
 30
0.0
  9
$PUCSORGLEFT
 10
0.0
 20
0.0
 30
0.0
  9
$PUCSORGRIGHT
 10
0.0
 20
0.0
 30
0.0
  9
$PUCSORGFRONT
 10
0.0
 20
0.0
 30
0.0
  9
$PUCSORGBACK
 10
0.0
 20
0.0
 30
0.0
  9
$USERI1
 70
               0
  9
$USERI2
 70
               0
  9
$USERI3
 70
               0
  9
$USERI4
 70
               0
  9
$USERI5
 70
               0
  9
$USERR1
 40
0.0
  9
$USERR2
 40
0.0
  9
$USERR3
 40
0.0
  9
$USERR4
 40
0.0
  9
$USERR5
 40
0.0
  9
$WORLDVIEW
 70
               1
  9
$SHADEDGE
 70
               3
  9
$SHADEDIF
 70
              70
  9
$TILEMODE
 70
               1
  9
$MAXACTVP
 70
              64
  9
$PINSBASE
 10
0.0
 20
0.0
 30
0.0
  9
$PLIMCHECK
 70
               0
  9
$PEXTMIN
 10
1.0000000000000000E+20
 20
1.0000000000000000E+20
 30
1.0000000000000000E+20
  9
$PEXTMAX
 10
-1.0000000000000000E+20
 20
-1.0000000000000000E+20
 30
-1.0000000000000000E+20
  9
$PLIMMIN
 10
0.0
 20
0.0
  9
$PLIMMAX
 10
12.0
 20
9.0
  9
$UNITMODE
 70
               0
  9
$VISRETAIN
 70
               0
  9
$PLINEGEN
 70
               1
  9
$PSLTSCALE
 70
               0
  9
$TREEDEPTH
 70
            3020
  9
$CMLSTYLE
  2
Standard
  9
$CMLJUST
 70
               0
  9
$CMLSCALE
 40
1.0
  9
$PROXYGRAPHICS
 70
               0
  9
$MEASUREMENT
 70
               1
  9
$CELWEIGHT
370
               0
  9
$ENDCAPS
280
               0
  9
$JOINSTYLE
280
               0
  9
$LWDISPLAY
290
               1
  9
$INSUNITS
 70
               4
  9
$HYPERLINKBASE
  1

  9
$STYLESHEET
  1

  9
$XEDIT
290
               1
  9
$CEPSNTYPE
380
               0
  9
$PSTYLEMODE
290
               1
  9
$FINGERPRINTGUID
  2

  9
$VERSIONGUID
  2

  9
$EXTNAMES
290
               1
  9
$PSVPSCALE
 40
0.0
  0
ENDSEC
  0
SECTION
  2
CLASSES
  0
CLASS
  1
LWPOLYLINE
  2
AcDbPolyline
  3
AutoCAD 2000
 90
        0
280
               0
281
               1
  0
CLASS
  1
IMAGE
  2
AcDbRasterImage
  3
ISM
 90
      127
280
               0
281
               1
  0
CLASS
  1
OLE2FRAME
  2
AcDbOle2Frame
  3
AutoCAD 2000
 90
        0
280
               0
281
               1
  0
CLASS
  1
HATCH
  2
AcDbHatch
  3
AutoCAD 2000
 90
        0
280
               0
281
               1
  0
CLASS
  1
DICTIONARYVAR
  2
AcDbDictionaryVar
  3
AutoCAD 2000
 90
        0
280
               0
281
               0
  0
CLASS
  1
RASTERVARIABLES
  2
AcDbRasterVariables
  3
ISM
 90
        0
280
               0
281
               0
  0
CLASS
  1
IMAGEDEF
  2
AcDbRasterImageDef
  3
ISM
 90
        0
280
               0
281
               0
  0
CLASS
  1
IMAGEDEF_REACTOR
  2
AcDbRasterImageDefReactor
  3
ISM
 90
        1
280
               0
281
               0
  0
CLASS
  1
IDBUFFER
  2
AcDbIdBuffer
  3
AutoCAD 2000
 90
        0
280
               0
281
               0
  0
CLASS
  1
SPATIAL_FILTER
  2
AcDbSpatialFilter
  3
AutoCAD 2000
 90
        0
280
               0
281
               0
  0
CLASS
  1
XRECORD
  2
AcDbXrecord
  3
AutoCAD 2000
 90
        0
280
               0
281
               0
  0
CLASS
  1
SORTENTSTABLE
  2
AcDbSortentsTable
  3
AutoCAD 2000
 90
        0
280
               0
281
               0
  0
CLASS
  1
LAYER_INDEX
  2
AcDbLayerIndex
  3
AutoCAD 2000
 90
        0
280
               0
281
               0
  0
CLASS
  1
SPATIAL_INDEX
  2
AcDbSpatialIndex
  3
AutoCAD 2000
 90
        0
280
               0
281
               0
  0
CLASS
  1
OBJECT_PTR
  2
CAseDLPNTableRecord
  3
"ASE-LPNTableRecord"
 90
        1
280
               0
281
               0
  0
CLASS
  1
LAYOUT
  2
AcDbLayout
  3
AutoCAD 2000
 90
        0
280
               0
281
               0
  0
CLASS
  1
PLOTSETTINGS
  2
AcDbPlotSettings
  3
AutoCAD 2000
 90
        0
280
               0
281
               0
  0
CLASS
  1
ACDBDICTIONARYWDFLT
  2
AcDbDictionaryWithDefault
  3
AutoCAD 2000
 90
        0
280
               0
281
               0
  0
CLASS
  1
ACDBPLACEHOLDER
  2
AcDbPlaceHolder
  3
AutoCAD 2000
 90
        0
280
               0
281
               0
  0
ENDSEC
  0
SECTION
  2
TABLES
  0
TABLE
  2
VPORT
  5
7
100
AcDbSymbolTable
 70
               1
  0
VPORT
  5
15
100
AcDbSymbolTableRecord
100
AcDbViewportTableRecord
  2
*ACTIVE
 70
               0
 10
0.0
 20
0.0
 11
1.0
 21
1.0
 12
0.0
 22
211.238592443794
 13
0.0
 23
0.0
 14
1.0
 24
1.0
 15
0.0
 25
0.0
 16
0.0
 26
0.0
 36
1.0
 17
0.0
 27
0.0
 37
0.0
 40
2837.522815112412
 41
0.688564
 42
50.0
 43
0.0
 44
0.0
 50
0.0
 51
0.0
 71
               0
 72
            2000
 73
               1
 74
               1
 75
               0
 76
               0
 77
               0
 78
               0
281
               0
 65
               0
110
0.0
120
0.0
130
0.0
111
1.0
121
0.0
131
0.0
112
0.0
122
1.0
132
0.0
345
0
346
0
 79
               0
146
0.0
  0
ENDTAB
  0
TABLE
  2
LTYPE
  5
4
100
AcDbSymbolTable
 70
              15
  0
LTYPE
  5
11
100
AcDbSymbolTableRecord
100
AcDbLinetypeTableRecord
  2
ByBlock
 70
              64
  3

 72
              65
 73
               0
 40
0.0
  0
LTYPE
  5
12
100
AcDbSymbolTableRecord
100
AcDbLinetypeTableRecord
  2
ByLayer
 70
              64
  3

 72
              65
 73
               0
 40
0.0
  0
LTYPE
  5
13
100
AcDbSymbolTableRecord
100
AcDbLinetypeTableRecord
  2
Continuous
 70
              64
  3
Solid line
 72
              65
 73
               0
 40
0.0
  0
LTYPE
  5
38
100
AcDbSymbolTableRecord
100
AcDbLinetypeTableRecord
  2
STYLE_01
 70
               0
  3

 72
              65
 73
               4
 40
0.4251957874015748
 49
0.2362208267716535
 74
               0
 49
-0.0629916535433071
 74
               0
 49
0.0629916535433071
 74
               0
 49
-0.0629916535433071
 74
               0
  0
LTYPE
  5
39
100
AcDbSymbolTableRecord
100
AcDbLinetypeTableRecord
  2
STYLE_02
 70
               0
  3

 72
              65
 73
               2
 40
0.6944250000000001
 49
0.48607
 74
               0
 49
-0.2083550000000001
 74
               0
  0
LTYPE
  5
3A
100
AcDbSymbolTableRecord
100
AcDbLinetypeTableRecord
  2
STYLE_03
 70
               0
  3

 72
              65
 73
               2
 40
1.25
 49
1.0416400000000001
 74
               0
 49
-0.2083599999999999
 74
               0
  0
LTYPE
  5
3B
100
AcDbSymbolTableRecord
100
AcDbLinetypeTableRecord
  2
STYLE_04
 70
               0
  3

 72
              65
 73
               2
 40
1.5277099999999999
 49
1.3194249999999998
 74
               0
 49
-0.208285
 74
               0
  0
LTYPE
  5
3C
100
AcDbSymbolTableRecord
100
AcDbLinetypeTableRecord
  2
STYLE_05
 70
               0
  3

 72
              65
 73
               2
 40
0.20828
 49
0.069425
 74
               0
 49
-0.138855
 74
               0
  0
LTYPE
  5
3D
100
AcDbSymbolTableRecord
100
AcDbLinetypeTableRecord
  2
STYLE_06
 70
               0
  3

 72
              65
 73
               4
 40
1.0416400000000001
 49
0.625
 74
               0
 49
-0.20828
 74
               0
 49
0.06943
 74
               0
 49
-0.13893
 74
               0
  0
LTYPE
  5
3E
100
AcDbSymbolTableRecord
100
AcDbLinetypeTableRecord
  2
STYLE_07
 70
               0
  3

 72
              65
 73
               6
 40
1.875
 49
0.625
 74
               0
 49
-0.20828
 74
               0
 49
0.6250000000000001
 74
               0
 49
-0.2083599999999999
 74
               0
 49
0.06943
 74
               0
 49
-0.1389299999999999
 74
               0
  0
LTYPE
  5
3F
100
AcDbSymbolTableRecord
100
AcDbLinetypeTableRecord
  2
STYLE_08
 70
               0
  3

 72
              65
 73
               6
 40
1.25
 49
0.625
 74
               0
 49
-0.20828
 74
               0
 49
0.06943
 74
               0
 49
-0.13893
 74
               0
 49
0.0694299999999999
 74
               0
 49
-0.13893
 74
               0
  0
LTYPE
  5
40
100
AcDbSymbolTableRecord
100
AcDbLinetypeTableRecord
  2
STYLE_09
 70
               0
  3

 72
              65
 73
               4
 40
5.0
 49
3.75
 74
               0
 49
-0.2777849999999998
 74
               0
 49
0.6944300000000003
 74
               0
 49
-0.2777849999999998
 74
               0
  0
LTYPE
  5
41
100
AcDbSymbolTableRecord
100
AcDbLinetypeTableRecord
  2
STYLE_10
 70
               0
  3

 72
              65
 73
               6
 40
5.9375
 49
3.75
 74
               0
 49
-0.2777849999999998
 74
               0
 49
0.6944300000000003
 74
               0
 49
-0.2777849999999998
 74
               0
 49
0.625
 74
               0
 49
-0.3125
 74
               0
  0
LTYPE
  5
42
100
AcDbSymbolTableRecord
100
AcDbLinetypeTableRecord
  2
STYLE_11
 70
               0
  3

 72
              65
 73
               2
 40
0.3690944881889764
 49
0.2460629921259843
 74
               0
 49
-0.1230314960629922
 74
               0
  0
LTYPE
  5
43
100
AcDbSymbolTableRecord
100
AcDbLinetypeTableRecord
  2
STYLE_12
 70
               0
  3

 72
              65
 73
               2
 40
0.3937007874015748
 49
0.1968503937007874
 74
               0
 49
-0.1968503937007874
 74
               0
  0
ENDTAB
  0
TABLE
  2
LAYER
  5
2
100
AcDbSymbolTable
 70
               5
  0
LAYER
  5
14
100
AcDbSymbolTableRecord
100
AcDbLayerTableRecord
  2
0
 70
               0
 62
               7
  6
Continuous
290
               1
370
              -3
390
1D
  0
LAYER
  5
44
100
AcDbSymbolTableRecord
100
AcDbLayerTableRecord
  2
Defpoints
 70
               0
 62
               7
  6
Continuous
290
               0
370
              -3
390
1D
  0
LAYER
  5
45
100
AcDbSymbolTableRecord
100
AcDbLayerTableRecord
  2
template
 70
               0
 62
               7
  6
Continuous
290
               1
370
              -3
390
1D
  0
LAYER
  5
46
100
AcDbSymbolTableRecord
100
AcDbLayerTableRecord
  2
notes
 70
               0
 62
               7
  6
Continuous
290
               1
370
              -3
390
1D
  0
LAYER
  5
47
100
AcDbSymbolTableRecord
100
AcDbLayerTableRecord
  2
GAR70-0918
 70
               0
 62
               7
  6
Continuous
290
               1
370
              -3
390
1D
  0
ENDTAB
  0
TABLE
  2
STYLE
  5
3
100
AcDbSymbolTable
 70
               3
  0
STYLE
  5
17
100
AcDbSymbolTableRecord
100
AcDbTextStyleTableRecord
  2
Standard
 70
               0
 40
0.0
 41
1.0
 50
0.0
 71
               0
 42
0.0
  3
txt
  4
BIGFONT.SHX
  0
STYLE
  5
36
100
AcDbSymbolTableRecord
100
AcDbTextStyleTableRecord
  2
MS-Gothic
 70
               0
 40
0.0
 41
1.0
 50
0.0
 71
               0
 42
0.0
  3

  4
MS-Gothic
1001
ACAD
1000
MS-Gothic
1071
        0
  0
STYLE
  5
37
100
AcDbSymbolTableRecord
100
AcDbTextStyleTableRecord
  2
ＭＳ ゴシック
 70
               0
 40
0.0
 41
1.0
 50
0.0
 71
               0
 42
0.0
  3

  4
ＭＳ ゴシック
1001
ACAD
1000
ＭＳ ゴシック
1071
        0
  0
ENDTAB
  0
TABLE
  2
VIEW
  5
5
100
AcDbSymbolTable
 70
               0
  0
ENDTAB
  0
TABLE
  2
UCS
  5
6
100
AcDbSymbolTable
 70
               0
  0
ENDTAB
  0
TABLE
  2
APPID
  5
8
100
AcDbSymbolTable
 70
               1
  0
APPID
  5
16
100
AcDbSymbolTableRecord
100
AcDbRegAppTableRecord
  2
ACAD
 70
               0
  0
ENDTAB
  0
TABLE
  2
DIMSTYLE
  5
9
100
AcDbSymbolTable
 70
               3
100
AcDbDimStyleTable
 71
               0
  0
DIMSTYLE
105
18
100
AcDbSymbolTableRecord
100
AcDbDimStyleTableRecord
  2
Standard
 70
               0
  3

  4

 40
1.0
 41
0.18
 42
0.0625
 43
0.38
 44
0.18
 45
0.0
 46
0.0
 47
0.0
 48
0.0
 71
               0
 72
               0
 73
               1
 74
               1
 75
               0
 76
               0
 77
               0
 78
               0
 79
               0
140
0.18
141
0.09
142
0.0
143
25.399999999999999
144
1.0
145
0.0
146
1.0
147
0.09
148
0.0
170
               0
171
               2
172
               0
173
               0
174
               0
175
               0
176
               0
177
               0
178
               0
179
               0
271
               4
272
               4
273
               2
274
               2
275
               0
276
               0
277
               2
278
              46
279
               0
280
               0
281
               0
282
               0
283
               1
284
               0
285
               0
286
               0
288
               0
289
               3
340
17
341
0
342
0
343
0
344
0
371
              -2
372
              -2
  0
DIMSTYLE
105
50
100
AcDbSymbolTableRecord
100
AcDbDimStyleTableRecord
  2
tfrom線あり
 70
               0
  3
<>
  4
[]
 40
1.0
 41
9.9993896484374982
 42
24.999999999999996
 43
0.9999999999999999
 44
0.0
 45
0.0
 46
0.0
 47
0.0
 48
0.0
 71
               0
 72
               0
 73
               0
 74
               0
 75
               0
 76
               0
 77
               1
 78
              11
 79
               0
140
24.432617187500004
141
0.0
142
0.0
143
0.0393700787401575
144
1.0
145
0.0
146
1.0
147
0.4999999999999999
148
0.0
170
               0
171
               3
172
               0
173
               0
174
               1
175
               0
176
               0
177
               0
178
               0
179
               2
271
               1
272
               1
273
               4
274
               2
275
               0
276
               2
277
               2
278
              46
279
               0
280
               0
281
               0
282
               0
283
               1
284
              11
285
              15
286
              15
288
               0
289
               0
340
37
341
48
342
48
343
0
344
0
371
              -2
372
              -2
  0
DIMSTYLE
105
5A
100
AcDbSymbolTableRecord
100
AcDbDimStyleTableRecord
  2
Arch
 70
               0
  3
<>
  4
[]
 40
1.0
 41
22.4482421875
 42
15.875
 43
10.16
 44
31.75
 45
0.0
 46
1.5874999999999999
 47
0.0
 48
0.0
 71
               0
 72
               0
 73
               0
 74
               0
 75
               0
 76
               0
 77
               1
 78
              11
 79
               0
140
24.432617187500004
141
0.0
142
0.0
143
0.0393700787401575
144
1.0
145
0.0
146
1.0
147
1.5874999999999999
148
0.0
170
               0
171
               3
172
               1
173
               0
174
               1
175
               0
176
               0
177
               0
178
               0
179
               2
271
               1
272
               1
273
               4
274
               2
275
               0
276
               2
277
               2
278
              46
279
               0
280
               0
281
               0
282
               0
283
               1
284
              11
285
              15
286
              15
288
               0
289
               0
340
37
341
56
342
51
343
0
344
0
371
              -2
372
              -2
  0
ENDTAB
  0
TABLE
  2
BLOCK_RECORD
  5
1
100
AcDbSymbolTable
 70
              22
  0
BLOCK_RECORD
  5
A
100
AcDbSymbolTableRecord
100
AcDbBlockTableRecord
  2
*MODEL_SPACE
340
20
  0
BLOCK_RECORD
  5
B
100
AcDbSymbolTableRecord
100
AcDbBlockTableRecord
  2
*PAPER_SPACE
340
21
  0
BLOCK_RECORD
  5
48
100
AcDbSymbolTableRecord
100
AcDbBlockTableRecord
  2
_DOT
340
0
  0
BLOCK_RECORD
  5
51
100
AcDbSymbolTableRecord
100
AcDbBlockTableRecord
  2
VW_SLASH
340
0
  0
BLOCK_RECORD
  5
56
100
AcDbSymbolTableRecord
100
AcDbBlockTableRecord
  2
VW_FILLEDARROW
340
0
  0
BLOCK_RECORD
  5
23
100
AcDbSymbolTableRecord
100
AcDbBlockTableRecord
  2
グループ
340
0
102
{BLKREFS
331
13D
102
}
  0
BLOCK_RECORD
  5
24
100
AcDbSymbolTableRecord
100
AcDbBlockTableRecord
  2
*D4
340
0
  0
BLOCK_RECORD
  5
25
100
AcDbSymbolTableRecord
100
AcDbBlockTableRecord
  2
*D5
340
0
  0
BLOCK_RECORD
  5
26
100
AcDbSymbolTableRecord
100
AcDbBlockTableRecord
  2
*D6
340
0
  0
BLOCK_RECORD
  5
27
100
AcDbSymbolTableRecord
100
AcDbBlockTableRecord
  2
*D7
340
0
  0
BLOCK_RECORD
  5
28
100
AcDbSymbolTableRecord
100
AcDbBlockTableRecord
  2
*D8
340
0
  0
BLOCK_RECORD
  5
29
100
AcDbSymbolTableRecord
100
AcDbBlockTableRecord
  2
*D9
340
0
  0
BLOCK_RECORD
  5
2A
100
AcDbSymbolTableRecord
100
AcDbBlockTableRecord
  2
*D10
340
0
  0
BLOCK_RECORD
  5
2B
100
AcDbSymbolTableRecord
100
AcDbBlockTableRecord
  2
*D11
340
0
  0
BLOCK_RECORD
  5
2C
100
AcDbSymbolTableRecord
100
AcDbBlockTableRecord
  2
*D12
340
0
  0
BLOCK_RECORD
  5
2D
100
AcDbSymbolTableRecord
100
AcDbBlockTableRecord
  2
*D13
340
0
  0
BLOCK_RECORD
  5
2E
100
AcDbSymbolTableRecord
100
AcDbBlockTableRecord
  2
*D14
340
0
  0
BLOCK_RECORD
  5
2F
100
AcDbSymbolTableRecord
100
AcDbBlockTableRecord
  2
*D15
340
0
  0
BLOCK_RECORD
  5
30
100
AcDbSymbolTableRecord
100
AcDbBlockTableRecord
  2
*D16
340
0
  0
BLOCK_RECORD
  5
31
100
AcDbSymbolTableRecord
100
AcDbBlockTableRecord
  2
*D17
340
0
  0
BLOCK_RECORD
  5
32
100
AcDbSymbolTableRecord
100
AcDbBlockTableRecord
  2
813951D
340
0
102
{BLKREFS
331
15A
102
}
  0
BLOCK_RECORD
  5
33
100
AcDbSymbolTableRecord
100
AcDbBlockTableRecord
  2
813951D-2
340
0
102
{BLKREFS
331
15C
102
}
  0
BLOCK_RECORD
  5
34
100
AcDbSymbolTableRecord
100
AcDbBlockTableRecord
  2
813951V
340
0
102
{BLKREFS
331
16B
102
}
  0
BLOCK_RECORD
  5
35
100
AcDbSymbolTableRecord
100
AcDbBlockTableRecord
  2
813951S
340
0
102
{BLKREFS
331
16C
102
}
  0
ENDTAB
  0
ENDSEC
  0
SECTION
  2
BLOCKS
  0
BLOCK
  5
D
100
AcDbEntity
  8
0
390
0
100
AcDbBlockBegin
  2
*MODEL_SPACE
 70
               0
 10
0.0
 20
0.0
 30
0.0
  3
*MODEL_SPACE
  1

  0
ENDBLK
  5
E
100
AcDbEntity
  8
0
390
0
100
AcDbBlockEnd
  0
BLOCK
  5
F
100
AcDbEntity
 67
               1
  8
0
390
0
100
AcDbBlockBegin
  2
*PAPER_SPACE
 70
               0
 10
0.0
 20
0.0
 30
0.0
  3
*PAPER_SPACE
  1

  0
ENDBLK
  5
10
100
AcDbEntity
 67
               1
  8
0
390
0
100
AcDbBlockEnd
  0
BLOCK
  5
49
100
AcDbEntity
  8
0
390
0
100
AcDbBlockBegin
  2
_DOT
 70
               0
 10
0.0
 20
0.0
 30
0.0
  3
_DOT
  1

  0
POLYLINE
  5
4A
100
AcDbEntity
  8
0
370
              -2
390
0
  6
ByBlock
 62
               0
100
AcDb2dPolyline
 66
               1
 10
0.0
 20
0.0
 30
0.0
 70
               1
 40
0.5
 41
0.5
  0
VERTEX
  5
4B
100
AcDbEntity
  8
0
370
              -2
390
0
  6
ByBlock
 62
               0
100
AcDbVertex
100
AcDb2dVertex
 10
-0.25
 20
0.0
 30
0.0
 42
1.0
  0
VERTEX
  5
4C
100
AcDbEntity
  8
0
370
              -2
390
0
  6
ByBlock
 62
               0
100
AcDbVertex
100
AcDb2dVertex
 10
0.25
 20
0.0
 30
0.0
 42
1.0
  0
SEQEND
  5
4D
100
AcDbEntity
  8
0
390
0
  0
LINE
  5
4E
100
AcDbEntity
  8
0
370
              -2
390
0
  6
ByBlock
 62
               0
100
AcDbLine
 10
-0.5
 20
0.0
 30
0.0
 11
-1.0
 21
0.0
 31
0.0
  0
ENDBLK
  5
4F
100
AcDbEntity
  8
0
390
0
100
AcDbBlockEnd
  0
BLOCK
  5
52
100
AcDbEntity
  8
0
370
              -2
390
0
  6
ByBlock
 62
               0
100
AcDbBlockBegin
  2
VW_SLASH
 70
               0
 10
0.0
 20
0.0
 30
0.0
  3
VW_SLASH
  1

  0
LINE
  5
53
100
AcDbEntity
  8
0
370
              -2
390
0
  6
ByBlock
 62
               0
100
AcDbLine
 10
0.0
 20
0.0
 30
0.0
 11
-1.0
 21
0.0
 31
0.0
  0
LINE
  5
54
100
AcDbEntity
  8
0
370
              20
390
0
  6
ByBlock
 62
               0
100
AcDbLine
 10
-0.4987813153181721
 20
-0.4987813153181719
 30
0.0
 11
0.4987813153181721
 21
0.4987813153181719
 31
0.0
  0
ENDBLK
  5
55
100
AcDbEntity
  8
0
390
0
100
AcDbBlockEnd
  0
BLOCK
  5
57
100
AcDbEntity
  8
0
370
              -2
390
0
  6
ByBlock
 62
               0
100
AcDbBlockBegin
  2
VW_FILLEDARROW
 70
               0
 10
0.0
 20
0.0
 30
0.0
  3
VW_FILLEDARROW
  1

  0
SOLID
  5
58
100
AcDbEntity
  8
0
370
              -2
390
0
 62
               0
100
AcDbTrace
 10
0.0
 20
0.0
 30
0.0
 11
-1.4107666015625
 21
-0.3780137715974714
 31
0.0
 12
-1.4107666015625
 22
0.3780137715974717
 32
0.0
 13
-1.4107666015625
 23
0.3780137715974717
 33
0.0
  0
ENDBLK
  5
59
100
AcDbEntity
  8
0
390
0
100
AcDbBlockEnd
  0
BLOCK
  5
5B
100
AcDbEntity
  8
template
390
0
100
AcDbBlockBegin
  2
グループ
 70
               0
 10
0.0
 20
0.0
 30
0.0
  3
グループ
  1

  0
LWPOLYLINE
  5
5C
100
AcDbEntity
  8
0
370
              15
390
0
  6
Continuous
 62
               7
100
AcDbPolyline
 90
        8
 70
             129
 10
887.42506280307452
 20
-890.48666116498566
 10
887.42506280307452
 20
-896.48404985856155
 10
877.92386588507134
 20
-896.48404985856155
 10
877.92386588507134
 20
-920.93501312206968
 10
869.56848862328843
 20
-920.93501312206968
 10
869.56848862328843
 20
-896.48404985856155
 10
860.23553167697901
 20
-896.48404985856155
 10
860.23553167697901
 20
-890.48666116498566
  0
LWPOLYLINE
  5
5D
100
AcDbEntity
  8
0
370
              15
390
0
  6
Continuous
 62
               7
100
AcDbPolyline
 90
      101
 70
             128
 10
900.15335463363158
 20
-891.21490965792214
 10
900.16870466241562
 20
-891.2105489012373
 42
-0.0222221607822167
 10
900.45870923908763
 20
-891.141924435992
 10
900.47450300308208
 20
-891.1389210128948
 42
-0.0146883565589232
 10
900.7372057083054
 20
-891.09691782594587
 42
-0.0127458844180085
 10
901.00184467545864
 20
-891.06938085787351
 10
901.06429975377114
 20
-891.0644874352854
 42
-0.0198099018566985
 10
901.45514886324236
 20
-891.0494022778887
 10
901.50696033269185
 20
-891.04945605355374
 42
-0.0147617382760772
 10
902.00158379366803
 20
-891.06457607879838
 10
902.07427524854074
 20
-891.06894868568588
 42
-0.0162624549008274
 10
902.46442887800572
 20
-891.10518156095827
 10
902.58596126927023
 20
-891.12046811995572
 42
-0.0080020874656344
 10
902.73154030035641
 20
-891.14115096722321
 10
902.76985977095205
 20
-891.14722224503419
 42
-0.0053821929674539
 10
902.83834387626621
 20
-891.15882976885564
 10
902.11193817706771
 20
-893.33975822456955
 42
0.0108667757394318
 10
902.04462110693532
 20
-893.3265711093494
 10
902.00715308374731
 20
-893.3200733667552
 42
0.0170663203312913
 10
901.86393629683403
 20
-893.3002437694638
 10
901.79606096414886
 20
-893.29319659887619
 42
0.0220162375271462
 10
901.51568155629377
 20
-893.2765142381063
 10
901.43782598924156
 20
-893.27531487083979
 42
0.0282606915783807
 10
901.10218966566345
 20
-893.28911814780872
 10
901.0582763918884
 20
-893.29341813781264
 42
0.016967721368931
 10
900.81235189693211
 20
-893.32595518736412
 42
0.0190576269870603
 10
900.56944393434969
 20
-893.37610205947101
 10
900.56318474624129
 20
-893.37764503357971
 42
0.0213685642848039
 10
900.31280026176819
 20
-893.45084531868326
 10
900.30731036684733
 20
-893.45270831474386
 42
0.023759529758511
 10
900.05381548194725
 20
-893.55239283664014
 10
900.04871340791897
 20
-893.55468461211763
 42
0.0261857468827405
 10
899.79654263168868
 20
-893.68422094949233
 10
899.78611644260343
 20
-893.69028642395972
 42
0.0272553062010974
 10
899.54968666736363
 20
-893.84565862990507
 10
899.51492365385172
 20
-893.87131977799902
 42
0.0325996893178885
 10
899.36476831020263
 20
-893.99806765096832
 10
899.3410588810824
 20
-894.02088567947828
 42
0.0138050960638108
 10
899.24917572486947
 20
-894.11433534103276
 42
0.0125280103806234
 10
899.16233319203411
 20
-894.21249866763515
 10
899.13865274712748
 20
-894.24065716582049
 42
0.0205218024733475
 10
899.01355267161352
 20
-894.40245048004988
 10
898.99108633112655
 20
-894.43411020987674
 42
0.0163110129583297
 10
898.83537595187704
 20
-894.66944064494396
 10
898.83265205582438
 20
-894.67386440693213
 42
0.0131897341894988
 10
898.68585153491711
 20
-894.92699649929898
 10
898.68415143955212
 20
-894.93011473843194
 42
0.0107895576065849
 10
898.5463747373426
 20
-895.19632994806432
 10
898.54564184781623
 20
-895.1978241807135
 42
0.0091371507215631
 10
898.41716189916804
 20
-895.4723493784702
 10
898.38741626775743
 20
-895.53905588563225
 42
0.0135418326352596
 10
898.21570232868316
 20
-895.95399367090749
 10
898.18209752025325
 20
-896.04185981317733
 42
0.0092834542411447
 10
898.01086846033058
 20
-896.51575831148762
 10
897.98525133260989
 20
-896.5909993812902
 42
0.0054261043583346
 10
897.87761318432013
 20
-896.91876335434586
 10
897.86008719815038
 20
-896.97415151655139
 42
0.0008225090813134
 10
897.7914171463126
 20
-897.19242027472478
 10
896.80672801437913
 20
-900.21731156798137
 10
900.03935185445289
 20
-900.21731156798137
 10
899.53515942459944
 20
-902.12178986633421
 10
896.27910314261635
 20
-902.12178986633421
 10
890.4499541102623
 20
-920.93501293233908
 10
888.6248564999521
 20
-920.93501293233908
 10
894.45953453545303
 20
-902.12178986633421
 10
892.05441816641269
 20
-902.12178986633421
 10
892.55861059626613
 20
-900.21731156798137
 10
894.98715940721604
 20
-900.21731156798137
 10
895.8473143254048
 20
-897.5808985672827
 42
-0.0005863560636771
 10
895.88404900359455
 20
-897.46407214703481
 10
895.96013683726869
 20
-897.2230798476055
 42
-0.0087522378931911
 10
896.15960498072081
 20
-896.6278037604726
 10
896.25186925614378
 20
-896.36766359193302
 42
-0.0077400953827487
 10
896.50980291527026
 20
-895.67465891439792
 10
896.52556788684728
 20
-895.63422803101662
 42
-0.0082369946333214
 10
896.77265235746108
 20
-895.03014896481614
 42
-0.0085725238362343
 10
897.03989845346553
 20
-894.43472292552588
 10
897.14152805447236
 20
-894.21830182354199
 42
-0.0168109410596615
 10
897.42847248320129
 20
-893.6570942974397
 10
897.55431587361909
 20
-893.43013026451638
 42
-0.0007817726861045
 10
897.60860022371696
 20
-893.33258601941111
 10
897.60872852972966
 20
-893.33235631068294
 42
-0.003662614216491
 10
897.66361639375555
 20
-893.2357584307058
 42
-0.0080221150687535
 10
897.72074064915785
 20
-893.14047919596032
 10
897.75144060052344
 20
-893.09108824683085
 42
-0.0202139325573015
 10
897.87909634032917
 20
-892.90310664615095
 10
897.93316380551778
 20
-892.83002778190871
 42
-0.0249323791797415
 10
898.19232659923978
 20
-892.51398253975128
 10
898.21646641336383
 20
-892.48736826684194
 42
-0.0242132121537103
 10
898.55614715490572
 20
-892.14748478063791
 10
898.60405872765557
 20
-892.10397564445248
 42
-0.025101752785915
 10
898.88804042829713
 20
-891.87098289868686
 10
898.88948590510654
 20
-891.86991364111111
 42
-0.0130868069042821
 10
899.1877465550682
 20
-891.66113317256554
 10
899.1893083742126
 20
-891.66009973228938
 42
-0.0290329526387398
 10
899.50041951560422
 20
-891.47927423066153
 10
899.53026507759364
 20
-891.46417184782024
 42
-0.0160250190039735
 10
899.79616949135504
 20
-891.34015573760848
 42
-0.0267600374787835
 10
900.07144556882224
 20
-891.23940741705997
 10
900.09818148834461
 20
-891.2312148582339
 42
-0.0049981587727298
 10
900.15335463363158
 20
-891.21490965792214
 42
-0.0049981587727298
  0
LWPOLYLINE
  5
5E
100
AcDbEntity
  8
0
370
              15
390
0
  6
Continuous
 62
               7
100
AcDbPolyline
 90
      118
 70
             128
 10
919.96772219807849
 20
-900.29129489580896
 10
921.84284412257784
 20
-900.29129489580896
 10
921.00480521697818
 20
-902.97286142220923
 42
-0.0010587229227086
 10
921.03626103255283
 20
-902.93595688885068
 10
921.09445512318189
 20
-902.86797463267817
 42
-0.0071874740410439
 10
921.24483034128275
 20
-902.69733394064576
 10
921.38655311454227
 20
-902.54109779933583
 42
-0.014811805351022
 10
921.83668240725513
 20
-902.07348395332269
 10
921.92390474215358
 20
-901.98808663247235
 42
-0.0086273358696918
 10
922.25945354316514
 20
-901.67071099845293
 10
922.3032872593916
 20
-901.63066135411941
 42
-0.0103138323110415
 10
922.5613109616246
 20
-901.4044982167818
 10
922.6070853679397
 20
-901.36601616953169
 42
-0.0060206748565207
 10
922.7799334320639
 20
-901.22422151876685
 10
922.78196456295393
 20
-901.22259581313233
 42
-0.0067069027305421
 10
922.95425737761241
 20
-901.08844517934062
 10
922.95680614354296
 20
-901.08651500946189
 42
-0.0076184352032789
 10
923.12771140940981
 20
-900.96114013422152
 42
-0.0089652861677223
 10
923.30267237214855
 20
-900.84150687388581
 10
923.33902409228642
 20
-900.81759566040751
 42
-0.0156916245940922
 10
923.53498358944921
 20
-900.69733317393161
 42
-0.0023299011058257
 10
923.73524563340868
 20
-900.58415523440203
 10
923.75062976580898
 20
-900.57555523932592
 42
-0.0107669341493654
 10
923.98486659091157
 20
-900.45115510597577
 10
924.00713139198524
 20
-900.43993835602646
 42
-0.0078058045891302
 10
924.29072150993443
 20
-900.30257690038968
 10
924.30062859764712
 20
-900.29796777251954
 42
-0.0181829330473149
 10
924.61093800226513
 20
-900.1671040314227
 10
924.66499344482588
 20
-900.14658891148144
 42
-0.0208411536035931
 10
925.01407841227967
 20
-900.03049844898737
 10
925.02843451240994
 20
-900.02638000403317
 42
-0.022279981712755
 10
925.35715430632433
 20
-899.94773843789358
 10
925.36604326956001
 20
-899.94602642730877
 42
-0.0215509523891607
 10
925.68251423784113
 20
-899.89911073877397
 10
925.72499619889072
 20
-899.8946732119831
 42
-0.0182545924874945
 10
925.95910497819546
 20
-899.87882938659254
 10
925.99850599454555
 20
-899.87760484151329
 42
-0.007296285651802
 10
926.15442887423239
 20
-899.87503551299119
 10
926.18352854479861
 20
-899.87498067758736
 42
-0.0059227516329291
 10
926.28127804394933
 20
-899.87595438937774
 10
926.31052026145278
 20
-899.87659215598183
 42
-0.0011833111839168
 10
926.34977154515354
 20
-899.87754116029078
 10
925.5543849495466
 20
-902.41627510538979
 42
0.0143932051432937
 10
925.52798356719234
 20
-902.40607613534371
 10
925.52071159477862
 20
-902.40350491648746
 42
0.0234388603553031
 10
925.47888072884746
 20
-902.39088568077227
 10
925.4701990659338
 20
-902.38870471876703
 42
0.0199162742974442
 10
925.40991023185177
 20
-902.37608798343183
 10
925.38909629404759
 20
-902.37259078400371
 42
0.0293643550662401
 10
925.28602143528963
 20
-902.36144073835055
 10
925.26133625456816
 20
-902.36022912133171
 42
0.021460668687683
 10
925.10819533861684
 20
-902.35929056091413
 10
925.0988234277977
 20
-902.35963547245842
 42
0.0167564054176655
 10
924.92730323668616
 20
-902.37171251482675
 10
924.9188434439302
 20
-902.37259385525363
 42
0.0137677553250672
 10
924.73149013066882
 20
-902.39734316379668
 10
924.72413839115779
 20
-902.39852108376522
 42
0.0118497261476922
 10
924.52364062704919
 20
-902.4355384339558
 10
924.51749061980922
 20
-902.43682529667444
 42
0.010642114389581
 10
924.30660973252793
 20
-902.48565767224818
 10
924.30170092413505
 20
-902.48690501493434
 42
0.0099746379697566
 10
924.08324245496453
 20
-902.54707954325147
 10
924.02169441480237
 20
-902.56536142187974
 42
0.0191613675864161
 10
923.68570995228799
 20
-902.67933880216617
 10
923.59765017953828
 20
-902.71302571249191
 42
0.0205274080145377
 10
923.21234340764056
 20
-902.87885412031733
 10
923.15469412566245
 20
-902.9065220848878
 42
0.0181256912195033
 10
922.89641718499161
 20
-903.04220590386763
 10
922.84346180167859
 20
-903.07252351708189
 42
0.0140709242404817
 10
922.69850686704933
 20
-903.16101819051687
 10
922.67225799842447
 20
-903.17807500923652
 42
0.0086667884401794
 10
922.58333183688831
 20
-903.23807767711492
 42
0.0036408192029403
 10
922.49589859886271
 20
-903.30025853490156
 10
922.46067172438632
 20
-903.32569948082005
 42
0.0052260781273941
 10
922.30444302698879
 20
-903.44103186745929
 10
922.28823617073556
 20
-903.45325997807254
 42
0.0050024435901132
 10
922.10223282767959
 20
-903.59654254633256
 10
922.08691467116159
 20
-903.60858856878053
 42
0.0136138710271833
 10
921.87647340284286
 20
-903.78355507368826
 10
921.84280552704274
 20
-903.81313404640809
 42
0.0172815186919855
 10
921.57840198537792
 20
-904.0621307190338
 10
921.57583963953755
 20
-904.06471653617859
 42
0.0189403857992233
 10
921.32525784095878
 20
-904.33752180098259
 10
921.29262634741997
 20
-904.37586573248302
 42
0.0185044199506372
 10
921.10066990844257
 20
-904.61911431360318
 42
0.0088565243894813
 10
920.92220980181867
 20
-904.87263073374652
 10
920.91303182216552
 20
-904.88617211351334
 42
0.0157195347233397
 10
920.72981121582939
 20
-905.17569432283244
 10
920.68372827390624
 20
-905.25384651984007
 42
0.0095451879777721
 10
920.51864272376292
 20
-905.54644116220629
 10
920.50749480483023
 20
-905.56711183434402
 42
0.0100351706258578
 10
920.37545105567392
 20
-905.82416739482892
 42
0.008693591542269
 10
920.25311990388252
 20
-906.08600054022759
 10
920.24979916246548
 20
-906.09344286320515
 42
0.0072580174867539
 10
920.12945271051342
 20
-906.37403485480547
 10
920.12619107721412
 20
-906.38195488080623
 42
0.0060005122614865
 10
920.00699040887548
 20
-906.68156455140104
 10
920.0037794305299
 20
-906.68992607931591
 42
0.0049017786978813
 10
919.88487927166773
 20
-907.00885505993301
 10
919.88171346528202
 20
-907.01760799715044
 42
0.0039415167607688
 10
919.76227718722521
 20
-907.35615005956402
 10
919.7591460845731
 20
-907.36525326043989
 42
0.003103583875962
 10
919.6383412988888
 20
-907.72369312218711
 10
919.63523125434972
 20
-907.73311374358832
 42
0.0025070747155061
 10
919.51232990302174
 20
-908.11176096057136
 10
919.47503600660889
 20
-908.22865262578512
 42
0.0029081910284191
 10
919.28301770879705
 20
-908.84281628407962
 10
919.24221454028111
 20
-908.97603952635268
 42
0.000926645373234
 10
918.973797165973
 20
-909.85826398625443
 10
918.95290969333064
 20
-909.92737586549606
 42
-0.0005809993664875
 10
918.67557301273462
 20
-910.84118397215138
 10
918.60929121445349
 20
-911.05866890433799
 42
-0.001201870816936
 10
918.46230690503239
 20
-911.53683156883176
 10
918.40998705351478
 20
-911.70559070954278
 42
-0.0002691059603557
 10
918.36641757229836
 20
-911.84585833003962
 10
915.53346167400923
 20
-920.93501293233908
 10
913.7154727820307
 20
-920.93501293233908
 10
919.96772219807849
 20
-900.29129489580896
  0
SPLINE
  5
5F
100
AcDbEntity
  8
0
370
              15
390
0
  6
Continuous
 62
               7
100
AcDbSpline
210
0.0
220
0.0
230
1.0
 70
              13
 71
               2
 72
             782
 73
             779
 74
               0
 42
0.000001
 43
0.000001
 40
0.0
 40
0.0
 40
0.0
 40
1.0
 40
1.0
 40
2.0
 40
2.0
 40
3.0
 40
3.0
 40
4.0
 40
4.0
 40
5.0
 40
5.0
 40
6.0
 40
6.0
 40
7.0
 40
7.0
 40
8.0
 40
8.0
 40
9.0
 40
9.0
 40
10.0
 40
10.0
 40
11.0
 40
11.0
 40
12.0
 40
12.0
 40
13.0
 40
13.0
 40
14.0
 40
14.0
 40
15.0
 40
15.0
 40
16.0
 40
16.0
 40
17.0
 40
17.0
 40
18.0
 40
18.0
 40
19.0
 40
19.0
 40
20.0
 40
20.0
 40
21.0
 40
21.0
 40
22.0
 40
22.0
 40
23.0
 40
23.0
 40
24.0
 40
24.0
 40
25.0
 40
25.0
 40
26.0
 40
26.0
 40
27.0
 40
27.0
 40
28.0
 40
28.0
 40
29.0
 40
29.0
 40
30.0
 40
30.0
 40
31.0
 40
31.0
 40
32.0
 40
32.0
 40
33.0
 40
33.0
 40
34.0
 40
34.0
 40
35.0
 40
35.0
 40
36.0
 40
36.0
 40
37.0
 40
37.0
 40
38.0
 40
38.0
 40
39.0
 40
39.0
 40
40.0
 40
40.0
 40
41.0
 40
41.0
 40
42.0
 40
42.0
 40
43.0
 40
43.0
 40
44.0
 40
44.0
 40
45.0
 40
45.0
 40
46.0
 40
46.0
 40
47.0
 40
47.0
 40
48.0
 40
48.0
 40
49.0
 40
49.0
 40
50.0
 40
50.0
 40
51.0
 40
51.0
 40
52.0
 40
52.0
 40
53.0
 40
53.0
 40
54.0
 40
54.0
 40
55.0
 40
55.0
 40
56.0
 40
56.0
 40
57.0
 40
57.0
 40
58.0
 40
58.0
 40
59.0
 40
59.0
 40
60.0
 40
60.0
 40
61.0
 40
61.0
 40
62.0
 40
62.0
 40
63.0
 40
63.0
 40
64.0
 40
64.0
 40
65.0
 40
65.0
 40
66.0
 40
66.0
 40
67.0
 40
67.0
 40
68.0
 40
68.0
 40
69.0
 40
69.0
 40
70.0
 40
70.0
 40
71.0
 40
71.0
 40
72.0
 40
72.0
 40
73.0
 40
73.0
 40
74.0
 40
74.0
 40
75.0
 40
75.0
 40
76.0
 40
76.0
 40
77.0
 40
77.0
 40
78.0
 40
78.0
 40
79.0
 40
79.0
 40
80.0
 40
80.0
 40
81.0
 40
81.0
 40
82.0
 40
82.0
 40
83.0
 40
83.0
 40
84.0
 40
84.0
 40
85.0
 40
85.0
 40
86.0
 40
86.0
 40
87.0
 40
87.0
 40
88.0
 40
88.0
 40
89.0
 40
89.0
 40
90.0
 40
90.0
 40
91.0
 40
91.0
 40
92.0
 40
92.0
 40
93.0
 40
93.0
 40
94.0
 40
94.0
 40
95.0
 40
95.0
 40
96.0
 40
96.0
 40
97.0
 40
97.0
 40
98.0
 40
98.0
 40
99.0
 40
99.0
 40
100.0
 40
100.0
 40
101.0
 40
101.0
 40
102.0
 40
102.0
 40
103.0
 40
103.0
 40
104.0
 40
104.0
 40
105.0
 40
105.0
 40
106.0
 40
106.0
 40
107.0
 40
107.0
 40
108.0
 40
108.0
 40
109.0
 40
109.0
 40
110.0
 40
110.0
 40
111.0
 40
111.0
 40
112.0
 40
112.0
 40
113.0
 40
113.0
 40
114.0
 40
114.0
 40
115.0
 40
115.0
 40
116.0
 40
116.0
 40
117.0
 40
117.0
 40
118.0
 40
118.0
 40
119.0
 40
119.0
 40
120.0
 40
120.0
 40
121.0
 40
121.0
 40
122.0
 40
122.0
 40
123.0
 40
123.0
 40
124.0
 40
124.0
 40
125.0
 40
125.0
 40
126.0
 40
126.0
 40
127.0
 40
127.0
 40
128.0
 40
128.0
 40
129.0
 40
129.0
 40
130.0
 40
130.0
 40
131.0
 40
131.0
 40
132.0
 40
132.0
 40
133.0
 40
133.0
 40
134.0
 40
134.0
 40
135.0
 40
135.0
 40
136.0
 40
136.0
 40
137.0
 40
137.0
 40
138.0
 40
138.0
 40
139.0
 40
139.0
 40
140.0
 40
140.0
 40
141.0
 40
141.0
 40
142.0
 40
142.0
 40
143.0
 40
143.0
 40
144.0
 40
144.0
 40
145.0
 40
145.0
 40
146.0
 40
146.0
 40
147.0
 40
147.0
 40
148.0
 40
148.0
 40
149.0
 40
149.0
 40
150.0
 40
150.0
 40
151.0
 40
151.0
 40
152.0
 40
152.0
 40
153.0
 40
153.0
 40
154.0
 40
154.0
 40
155.0
 40
155.0
 40
156.0
 40
156.0
 40
157.0
 40
157.0
 40
158.0
 40
158.0
 40
159.0
 40
159.0
 40
160.0
 40
160.0
 40
161.0
 40
161.0
 40
162.0
 40
162.0
 40
163.0
 40
163.0
 40
164.0
 40
164.0
 40
165.0
 40
165.0
 40
166.0
 40
166.0
 40
167.0
 40
167.0
 40
168.0
 40
168.0
 40
169.0
 40
169.0
 40
170.0
 40
170.0
 40
171.0
 40
171.0
 40
172.0
 40
172.0
 40
173.0
 40
173.0
 40
174.0
 40
174.0
 40
175.0
 40
175.0
 40
176.0
 40
176.0
 40
177.0
 40
177.0
 40
178.0
 40
178.0
 40
179.0
 40
179.0
 40
180.0
 40
180.0
 40
181.0
 40
181.0
 40
182.0
 40
182.0
 40
183.0
 40
183.0
 40
184.0
 40
184.0
 40
185.0
 40
185.0
 40
186.0
 40
186.0
 40
187.0
 40
187.0
 40
188.0
 40
188.0
 40
189.0
 40
189.0
 40
190.0
 40
190.0
 40
191.0
 40
191.0
 40
192.0
 40
192.0
 40
193.0
 40
193.0
 40
194.0
 40
194.0
 40
195.0
 40
195.0
 40
196.0
 40
196.0
 40
197.0
 40
197.0
 40
198.0
 40
198.0
 40
199.0
 40
199.0
 40
200.0
 40
200.0
 40
201.0
 40
201.0
 40
202.0
 40
202.0
 40
203.0
 40
203.0
 40
204.0
 40
204.0
 40
205.0
 40
205.0
 40
206.0
 40
206.0
 40
207.0
 40
207.0
 40
208.0
 40
208.0
 40
209.0
 40
209.0
 40
210.0
 40
210.0
 40
211.0
 40
211.0
 40
212.0
 40
212.0
 40
213.0
 40
213.0
 40
214.0
 40
214.0
 40
215.0
 40
215.0
 40
216.0
 40
216.0
 40
217.0
 40
217.0
 40
218.0
 40
218.0
 40
219.0
 40
219.0
 40
220.0
 40
220.0
 40
221.0
 40
221.0
 40
222.0
 40
222.0
 40
223.0
 40
223.0
 40
224.0
 40
224.0
 40
225.0
 40
225.0
 40
226.0
 40
226.0
 40
227.0
 40
227.0
 40
228.0
 40
228.0
 40
229.0
 40
229.0
 40
230.0
 40
230.0
 40
231.0
 40
231.0
 40
232.0
 40
232.0
 40
233.0
 40
233.0
 40
234.0
 40
234.0
 40
235.0
 40
235.0
 40
236.0
 40
236.0
 40
237.0
 40
237.0
 40
238.0
 40
238.0
 40
239.0
 40
239.0
 40
240.0
 40
240.0
 40
241.0
 40
241.0
 40
242.0
 40
242.0
 40
243.0
 40
243.0
 40
244.0
 40
244.0
 40
245.0
 40
245.0
 40
246.0
 40
246.0
 40
247.0
 40
247.0
 40
248.0
 40
248.0
 40
249.0
 40
249.0
 40
250.0
 40
250.0
 40
251.0
 40
251.0
 40
252.0
 40
252.0
 40
253.0
 40
253.0
 40
254.0
 40
254.0
 40
255.0
 40
255.0
 40
256.0
 40
256.0
 40
257.0
 40
257.0
 40
258.0
 40
258.0
 40
259.0
 40
259.0
 40
260.0
 40
260.0
 40
261.0
 40
261.0
 40
262.0
 40
262.0
 40
263.0
 40
263.0
 40
264.0
 40
264.0
 40
265.0
 40
265.0
 40
266.0
 40
266.0
 40
267.0
 40
267.0
 40
268.0
 40
268.0
 40
269.0
 40
269.0
 40
270.0
 40
270.0
 40
271.0
 40
271.0
 40
272.0
 40
272.0
 40
273.0
 40
273.0
 40
274.0
 40
274.0
 40
275.0
 40
275.0
 40
276.0
 40
276.0
 40
277.0
 40
277.0
 40
278.0
 40
278.0
 40
279.0
 40
279.0
 40
280.0
 40
280.0
 40
281.0
 40
281.0
 40
282.0
 40
282.0
 40
283.0
 40
283.0
 40
284.0
 40
284.0
 40
285.0
 40
285.0
 40
286.0
 40
286.0
 40
287.0
 40
287.0
 40
288.0
 40
288.0
 40
289.0
 40
289.0
 40
290.0
 40
290.0
 40
291.0
 40
291.0
 40
292.0
 40
292.0
 40
293.0
 40
293.0
 40
294.0
 40
294.0
 40
295.0
 40
295.0
 40
296.0
 40
296.0
 40
297.0
 40
297.0
 40
298.0
 40
298.0
 40
299.0
 40
299.0
 40
300.0
 40
300.0
 40
301.0
 40
301.0
 40
302.0
 40
302.0
 40
303.0
 40
303.0
 40
304.0
 40
304.0
 40
305.0
 40
305.0
 40
306.0
 40
306.0
 40
307.0
 40
307.0
 40
308.0
 40
308.0
 40
309.0
 40
309.0
 40
310.0
 40
310.0
 40
311.0
 40
311.0
 40
312.0
 40
312.0
 40
313.0
 40
313.0
 40
314.0
 40
314.0
 40
315.0
 40
315.0
 40
316.0
 40
316.0
 40
317.0
 40
317.0
 40
318.0
 40
318.0
 40
319.0
 40
319.0
 40
320.0
 40
320.0
 40
321.0
 40
321.0
 40
322.0
 40
322.0
 40
323.0
 40
323.0
 40
324.0
 40
324.0
 40
325.0
 40
325.0
 40
326.0
 40
326.0
 40
327.0
 40
327.0
 40
328.0
 40
328.0
 40
329.0
 40
329.0
 40
330.0
 40
330.0
 40
331.0
 40
331.0
 40
332.0
 40
332.0
 40
333.0
 40
333.0
 40
334.0
 40
334.0
 40
335.0
 40
335.0
 40
336.0
 40
336.0
 40
337.0
 40
337.0
 40
338.0
 40
338.0
 40
339.0
 40
339.0
 40
340.0
 40
340.0
 40
341.0
 40
341.0
 40
342.0
 40
342.0
 40
343.0
 40
343.0
 40
344.0
 40
344.0
 40
345.0
 40
345.0
 40
346.0
 40
346.0
 40
347.0
 40
347.0
 40
348.0
 40
348.0
 40
349.0
 40
349.0
 40
350.0
 40
350.0
 40
351.0
 40
351.0
 40
352.0
 40
352.0
 40
353.0
 40
353.0
 40
354.0
 40
354.0
 40
355.0
 40
355.0
 40
356.0
 40
356.0
 40
357.0
 40
357.0
 40
358.0
 40
358.0
 40
359.0
 40
359.0
 40
360.0
 40
360.0
 40
361.0
 40
361.0
 40
362.0
 40
362.0
 40
363.0
 40
363.0
 40
364.0
 40
364.0
 40
365.0
 40
365.0
 40
366.0
 40
366.0
 40
367.0
 40
367.0
 40
368.0
 40
368.0
 40
369.0
 40
369.0
 40
370.0
 40
370.0
 40
371.0
 40
371.0
 40
372.0
 40
372.0
 40
373.0
 40
373.0
 40
374.0
 40
374.0
 40
375.0
 40
375.0
 40
376.0
 40
376.0
 40
377.0
 40
377.0
 40
378.0
 40
378.0
 40
379.0
 40
379.0
 40
380.0
 40
380.0
 40
381.0
 40
381.0
 40
382.0
 40
382.0
 40
383.0
 40
383.0
 40
384.0
 40
384.0
 40
385.0
 40
385.0
 40
386.0
 40
386.0
 40
387.0
 40
387.0
 40
388.0
 40
388.0
 40
389.0
 40
389.0
 40
389.0
 10
930.29642664881112
 20
-900.2803685324468
 30
0.0
 41
1.0
 10
931.1148507575316
 20
-900.2803685324468
 30
0.0
 41
1.0
 10
931.93327486625208
 20
-900.2803685324468
 30
0.0
 41
1.0
 10
931.51952113073537
 20
-901.6229947966965
 30
0.0
 41
1.0
 10
931.10576739521866
 20
-902.96562106094621
 30
0.0
 41
1.0
 10
931.12410689039712
 20
-902.93692028801786
 30
0.0
 41
0.9999957264382758
 10
931.14261388723958
 20
-902.90832723784899
 30
0.0
 41
1.0
 10
931.17304321136567
 20
-902.86131435949073
 30
0.0
 41
1.0
 10
931.20347253549176
 20
-902.81430148113236
 30
0.0
 41
1.0
 10
931.28283818059629
 20
-902.6916826742314
 30
0.0
 41
0.999539406908158
 10
931.369496572147
 20
-902.57410461249128
 30
0.0
 41
1.0
 10
931.40525343440822
 20
-902.52558971989583
 30
0.0
 41
1.0
 10
931.44101029666933
 20
-902.4770748273005
 30
0.0
 41
1.0
 10
931.57473696448733
 20
-902.29563455217362
 30
0.0
 41
0.9994460617143048
 10
931.72023744577564
 20
-902.12349215452355
 30
0.0
 41
1.0
 10
931.72462562675037
 20
-902.11830047414128
 30
0.0
 41
1.0
 10
931.72901380772521
 20
-902.1131087937589
 30
0.0
 41
1.0
 10
931.86573792706338
 20
-901.95134975687404
 30
0.0
 41
0.9994359394934227
 10
932.01301215741489
 20
-901.7991335557092
 30
0.0
 41
1.0
 10
932.01539551136966
 20
-901.79667022533454
 30
0.0
 41
1.0
 10
932.01777886532443
 20
-901.79420689495998
 30
0.0
 41
1.0
 10
932.16028638776709
 20
-901.6469173545438
 30
0.0
 41
0.9995293688567605
 10
932.31155806874847
 20
-901.50864414238072
 30
0.0
 41
1.0
 10
932.33085182801028
 20
-901.49100825673099
 30
0.0
 41
1.0
 10
932.35014558727221
 20
-901.47337237108115
 30
0.0
 41
1.0
 10
932.46282974972985
 20
-901.37037093021763
 30
0.0
 41
0.9997087614803049
 10
932.58035263868555
 20
-901.27292664941911
 30
0.0
 41
1.0
 10
932.59951871185785
 20
-901.25703507091384
 30
0.0
 41
1.0
 10
932.61868478503004
 20
-901.24114349240858
 30
0.0
 41
1.0
 10
932.69787552763751
 20
-901.17548236862365
 30
0.0
 41
0.9999595338696772
 10
932.77823479849576
 20
-901.11125663796588
 30
0.0
 41
1.0
 10
932.85859406935265
 20
-901.04703090730936
 30
0.0
 41
0.9999749417510054
 10
932.9398546036997
 20
-900.98394935336012
 30
0.0
 41
1.0
 10
932.96084074987425
 20
-900.96765806604913
 30
0.0
 41
1.0
 10
932.9818268960488
 20
-900.95136677873813
 30
0.0
 41
1.0
 10
933.06639478133707
 20
-900.88571776890785
 30
0.0
 41
0.9999792037124099
 10
933.15180238109679
 20
-900.82116498727169
 30
0.0
 41
1.0
 10
933.17262720703116
 20
-900.80542516499668
 30
0.0
 41
1.0
 10
933.19345203296541
 20
-900.78968534272178
 30
0.0
 41
1.0
 10
933.23720998088606
 20
-900.75661220561324
 30
0.0
 41
0.9999993373748346
 10
933.28089166700943
 20
-900.72343841020415
 30
0.0
 41
1.0
 10
933.32457335315212
 20
-900.6902646147804
 30
0.0
 41
0.9999160953817714
 10
933.36909976407151
 20
-900.65823354958252
 30
0.0
 41
1.0
 10
933.40192165149142
 20
-900.63462239399723
 30
0.0
 41
1.0
 10
933.43474353891133
 20
-900.61101123841195
 30
0.0
 41
1.0
 10
933.54491372466964
 20
-900.53175786204406
 30
0.0
 41
0.9980964527231474
 10
933.6640027181702
 20
-900.46667038918827
 30
0.0
 41
1.0
 10
933.7010353250987
 20
-900.44643040959488
 30
0.0
 41
1.0
 10
933.73806793202732
 20
-900.4261904300015
 30
0.0
 41
1.0
 10
933.91739494529998
 20
-900.3281801793006
 30
0.0
 41
0.9984572810573081
 10
934.10648351165867
 20
-900.25065791795419
 30
0.0
 41
1.0
 10
934.11012978105452
 20
-900.24916302561621
 30
0.0
 41
1.0
 10
934.11377605045038
 20
-900.24766813327824
 30
0.0
 41
1.0
 10
934.29557207801759
 20
-900.17313565660766
 30
0.0
 41
0.9987838528034013
 10
934.48382473657682
 20
-900.11687001644191
 30
0.0
 41
1.0
 10
934.48806268577596
 20
-900.11560336275159
 30
0.0
 41
1.0
 10
934.49230063497498
 20
-900.11433670906126
 30
0.0
 41
1.0
 10
934.67207739513651
 20
-900.06060437627605
 30
0.0
 41
0.9990652816206829
 10
934.85582332685192
 20
-900.02260069673434
 30
0.0
 41
1.0
 10
934.8610117278821
 20
-900.02152759362809
 30
0.0
 41
1.0
 10
934.86620012891228
 20
-900.02045449052184
 30
0.0
 41
1.0
 10
935.03956925856653
 20
-899.98459701719264
 30
0.0
 41
0.9992909934270534
 10
935.21514502502612
 20
-899.96188658472579
 30
0.0
 41
1.0
 10
935.390720791484
 20
-899.93917615225905
 30
0.0
 41
0.999455353944812
 10
935.56741222457708
 20
-899.92809684805297
 30
0.0
 41
1.0
 10
935.60284663237223
 20
-899.92587496000533
 30
0.0
 41
1.0
 10
935.63828104016739
 20
-899.92365307195757
 30
0.0
 41
1.0
 10
935.80450680673755
 20
-899.91323000954594
 30
0.0
 41
0.9990928098293337
 10
935.97101659864074
 20
-899.91698965078035
 30
0.0
 41
1.0
 10
936.00957843391302
 20
-899.91786034231336
 30
0.0
 41
1.0
 10
936.04814026918518
 20
-899.91873103384626
 30
0.0
 41
1.0
 10
936.13752639054383
 20
-899.92074929201476
 30
0.0
 41
0.9998382089204451
 10
936.22678207332967
 20
-899.92598141854273
 30
0.0
 41
1.0
 10
936.22721197954957
 20
-899.92600661944493
 30
0.0
 41
1.0
 10
936.22764188576946
 20
-899.92603182034725
 30
0.0
 41
1.0
 10
936.31603775611597
 20
-899.9312135450707
 30
0.0
 41
0.9997558016758812
 10
936.40411833331666
 20
-899.94029606043728
 30
0.0
 41
1.0
 10
936.40459447174749
 20
-899.94034515791998
 30
0.0
 41
1.0
 10
936.40507061017843
 20
-899.94039425540268
 30
0.0
 41
1.0
 10
936.4921989105186
 20
-899.94937857580408
 30
0.0
 41
0.9996565144181852
 10
936.57873676385952
 20
-899.96291588249301
 30
0.0
 41
1.0
 10
936.57920268923749
 20
-899.96298876822448
 30
0.0
 41
1.0
 10
936.57966861461534
 20
-899.96306165395583
 30
0.0
 41
1.0
 10
936.66527461720204
 20
-899.97645318918228
 30
0.0
 41
0.9995321806868134
 10
936.74990169752959
 20
-899.99505367761117
 30
0.0
 41
1.0
 10
936.75029089210125
 20
-899.99513922007691
 30
0.0
 41
1.0
 10
936.75068008667279
 20
-899.99522476254276
 30
0.0
 41
1.0
 10
936.8345287778576
 20
-900.01365416604017
 30
0.0
 41
0.9993819199219247
 10
936.91687531205389
 20
-900.037929549301
 30
0.0
 41
1.0
 10
936.91711374555223
 20
-900.03799983841043
 30
0.0
 41
1.0
 10
936.91735217905057
 20
-900.03807012751986
 30
0.0
 41
1.0
 10
936.99922184625029
 20
-900.06220493256183
 30
0.0
 41
0.9992088568505806
 10
937.07891436523823
 20
-900.09277016835608
 30
0.0
 41
1.0
 10
937.1585953561173
 20
-900.1233297690892
 30
0.0
 41
0.9990226101772218
 10
937.23526602602442
 20
-900.16080720070408
 30
0.0
 41
1.0
 10
937.31192516782244
 20
-900.19827899725772
 30
0.0
 41
0.9988424273973556
 10
937.38462879503481
 20
-900.24294377251056
 30
0.0
 41
1.0
 10
937.38489650341421
 20
-900.24310823658288
 30
0.0
 41
1.0
 10
937.38516421179361
 20
-900.2432727006551
 30
0.0
 41
1.0
 10
937.45840325576478
 20
-900.28826640405259
 30
0.0
 41
0.9986928844490555
 10
937.52666612247515
 20
-900.34050213833279
 30
0.0
 41
1.0
 10
937.52724741469751
 20
-900.34094695156034
 30
0.0
 41
1.0
 10
937.52782870691976
 20
-900.34139176478789
 30
0.0
 41
1.0
 10
937.59725415807463
 20
-900.39451712552307
 30
0.0
 41
0.9986007262278663
 10
937.66068032784096
 20
-900.45467789521615
 30
0.0
 41
1.0
 10
937.66157474329862
 20
-900.45552626305152
 30
0.0
 41
1.0
 10
937.66246915875615
 20
-900.45637463088701
 30
0.0
 41
1.0
 10
937.72768415943767
 20
-900.51823213625096
 30
0.0
 41
0.9985581491380825
 10
937.78589177113963
 20
-900.58672462652316
 30
0.0
 41
1.0
 10
937.79515022473515
 20
-900.59761898422448
 30
0.0
 41
1.0
 10
937.80440867833056
 20
-900.6085133419258
 30
0.0
 41
1.0
 10
937.88113319722379
 20
-900.69879454760098
 30
0.0
 41
0.9970460233521336
 10
937.94312509838346
 20
-900.79976163178276
 30
0.0
 41
1.0
 10
937.95759446346278
 20
-900.82332809086336
 30
0.0
 41
1.0
 10
937.97206382854199
 20
-900.84689454994395
 30
0.0
 41
1.0
 10
938.01180052855455
 20
-900.91161427397583
 30
0.0
 41
0.9988468816635772
 10
938.04514689930625
 20
-900.97984672640382
 30
0.0
 41
1.0
 10
938.05218292179779
 20
-900.99424364754145
 30
0.0
 41
1.0
 10
938.05921894428946
 20
-901.0086405686792
 30
0.0
 41
1.0
 10
938.07849327005783
 20
-901.04807917883147
 30
0.0
 41
0.9998431189998841
 10
938.09635859755269
 20
-901.08817573327246
 30
0.0
 41
1.0
 10
938.11422392505733
 20
-901.12827228773517
 30
0.0
 41
0.9999989989971345
 10
938.13220264849303
 20
-901.16831812534963
 30
0.0
 41
1.0
 10
938.13837496007557
 20
-901.18206634213607
 30
0.0
 41
1.0
 10
938.1445472716581
 20
-901.19581455892262
 30
0.0
 41
1.0
 10
938.17487061826955
 20
-901.26335683013417
 30
0.0
 41
0.9998790356324232
 10
938.20307849840879
 20
-901.33180958207436
 30
0.0
 41
1.0
 10
938.20991367969168
 20
-901.34839668349809
 30
0.0
 41
1.0
 10
938.21674886097446
 20
-901.36498378492195
 30
0.0
 41
1.0
 10
938.24030652335512
 20
-901.42215173980799
 30
0.0
 41
0.999822757456015
 10
938.26169527174477
 20
-901.4801660480864
 30
0.0
 41
1.0
 10
938.28308402013408
 20
-901.53818035636414
 30
0.0
 41
0.9996797971041401
 10
938.3015103050933
 20
-901.59720247548194
 30
0.0
 41
1.0
 10
938.30541410781893
 20
-901.60970693365095
 30
0.0
 41
1.0
 10
938.30931791054445
 20
-901.62221139181997
 30
0.0
 41
1.0
 10
938.33555180095482
 20
-901.70624242727627
 30
0.0
 41
0.9979274938733853
 10
938.35077632443392
 20
-901.79294678593692
 30
0.0
 41
1.0
 10
938.35300001169503
 20
-901.80561078675794
 30
0.0
 41
1.0
 10
938.35522369895625
 20
-901.81827478757896
 30
0.0
 41
1.0
 10
938.3661536386544
 20
-901.88052129486903
 30
0.0
 41
0.9994985982137972
 10
938.3731218038314
 20
-901.94333479601096
 30
0.0
 41
1.0
 10
938.38008996900862
 20
-902.00614829715778
 30
0.0
 41
0.999637261120276
 10
938.38366583477671
 20
-902.06924587584558
 30
0.0
 41
1.0
 10
938.38383441226574
 20
-902.0722204929225
 30
0.0
 41
1.0
 10
938.38400298975478
 20
-902.07519510999941
 30
0.0
 41
1.0
 10
938.38791601050127
 20
-902.14424192285151
 30
0.0
 41
0.9997730630736827
 10
938.38888432398949
 20
-902.21339274689137
 30
0.0
 41
1.0
 10
938.3889414304075
 20
-902.21747092602732
 30
0.0
 41
1.0
 10
938.38899853682551
 20
-902.22154910516315
 30
0.0
 41
1.0
 10
938.39008106314986
 20
-902.29885628748161
 30
0.0
 41
0.9998772614072991
 10
938.38874097641803
 20
-902.37615943404637
 30
0.0
 41
1.0
 10
938.38865171321936
 20
-902.38130859788089
 30
0.0
 41
1.0
 10
938.38856245002057
 20
-902.38645776171529
 30
0.0
 41
1.0
 10
938.38704383689151
 20
-902.47405923594476
 30
0.0
 41
0.9999415567326115
 10
938.38363152664579
 20
-902.56160739761503
 30
0.0
 41
1.0
 10
938.38339020597027
 20
-902.56779885735727
 30
0.0
 41
1.0
 10
938.38314888529476
 20
-902.57399031709951
 30
0.0
 41
1.0
 10
938.37925393369858
 20
-902.67392139824358
 30
0.0
 41
0.9999716810432749
 10
938.37385535058024
 20
-902.77378253646521
 30
0.0
 41
1.0
 10
938.37064255179121
 20
-902.8332117861255
 30
0.0
 41
1.0
 10
938.36742975300228
 20
-902.8926410357858
 30
0.0
 41
1.0
 10
938.35935584384947
 20
-903.04198943706956
 30
0.0
 41
0.9999819129899162
 10
938.34948605223269
 20
-903.19122991478457
 30
0.0
 41
1.0
 10
938.33961626061614
 20
-903.34047039249594
 30
0.0
 41
1.0
 10
938.33717694005236
 20
-903.37766343834551
 30
0.0
 41
1.0
 10
938.35987517389503
 20
-903.33892244099582
 30
0.0
 41
0.9999982128046612
 10
938.38271973267024
 20
-903.30026754700418
 30
0.0
 41
1.0
 10
938.40962929253931
 20
-903.25473433297566
 30
0.0
 41
1.0
 10
938.43653885240838
 20
-903.20920111894725
 30
0.0
 41
1.0
 10
938.51320253093149
 20
-903.07947979688197
 30
0.0
 41
0.9998609190060345
 10
938.59414984379157
 20
-902.9523874149553
 30
0.0
 41
1.0
 10
938.62379816527994
 20
-902.9058376819878
 30
0.0
 41
1.0
 10
938.6534464867683
 20
-902.8592879490202
 30
0.0
 41
1.0
 10
938.73571870700175
 20
-902.73011537903164
 30
0.0
 41
0.9999067609734385
 10
938.82148771646052
 20
-902.60323768959802
 30
0.0
 41
1.0
 10
938.8238924196587
 20
-902.5996804235474
 30
0.0
 41
1.0
 10
938.82629712285677
 20
-902.59612315749666
 30
0.0
 41
1.0
 10
938.90725672592112
 20
-902.47636000016155
 30
0.0
 41
0.9998784952147612
 10
938.99191033560601
 20
-902.35917878344776
 30
0.0
 41
1.0
 10
939.07656394528954
 20
-902.24199756673602
 30
0.0
 41
0.9998532968284202
 10
939.16518156611426
 20
-902.12778465826307
 30
0.0
 41
1.0
 10
939.18514335510304
 20
-902.10205733724604
 30
0.0
 41
1.0
 10
939.2051051440917
 20
-902.07633001622901
 30
0.0
 41
1.0
 10
939.32358919385069
 20
-901.92362440526028
 30
0.0
 41
0.9991551975795354
 10
939.45421364347465
 20
-901.78116484317638
 30
0.0
 41
1.0
 10
939.45772325945529
 20
-901.77733724155109
 30
0.0
 41
1.0
 10
939.46123287543594
 20
-901.77350963992569
 30
0.0
 41
1.0
 10
939.58483809309894
 20
-901.63870528109226
 30
0.0
 41
0.9997418144181668
 10
939.71444023279867
 20
-901.50965587048063
 30
0.0
 41
1.0
 10
939.84404237249862
 20
-901.38060645986866
 30
0.0
 41
0.9989238204633173
 10
939.98504492074881
 20
-901.26412149783039
 30
0.0
 41
1.0
 10
940.03029259888808
 20
-901.22674150622186
 30
0.0
 41
1.0
 10
940.07554027702724
 20
-901.18936151461332
 30
0.0
 41
1.0
 10
940.21578033424953
 20
-901.07350646132147
 30
0.0
 41
0.9990825084096566
 10
940.3654202668547
 20
-900.97007746348777
 30
0.0
 41
1.0
 10
940.37546563091587
 20
-900.96313425040535
 30
0.0
 41
1.0
 10
940.38551099497693
 20
-900.95619103732292
 30
0.0
 41
1.0
 10
940.51506019946305
 20
-900.86664846565213
 30
0.0
 41
0.9998164899825401
 10
940.64794440283504
 20
-900.78213422413842
 30
0.0
 41
1.0
 10
940.65978996335843
 20
-900.77460045761438
 30
0.0
 41
1.0
 10
940.67163552388172
 20
-900.76706669109035
 30
0.0
 41
1.0
 10
940.78082860620896
 20
-900.69761998262334
 30
0.0
 41
0.999747344913157
 10
940.89303256346079
 20
-900.63315102480624
 30
0.0
 41
1.0
 10
941.00523652071047
 20
-900.5686820669905
 30
0.0
 41
0.9999327861147022
 10
941.11890513147523
 20
-900.50683207530824
 30
0.0
 41
1.0
 10
941.1194571340352
 20
-900.50653171662952
 30
0.0
 41
1.0
 10
941.12000913659506
 20
-900.50623135795081
 30
0.0
 41
1.0
 10
941.23478175248079
 20
-900.44378064891066
 30
0.0
 41
0.999695642048326
 10
941.35249507832179
 20
-900.38706718193566
 30
0.0
 41
1.0
 10
941.38293548321622
 20
-900.37240120520482
 30
0.0
 41
1.0
 10
941.41337588811075
 20
-900.35773522847398
 30
0.0
 41
1.0
 10
941.51635299485213
 20
-900.30812157003197
 30
0.0
 41
0.9998070570176562
 10
941.62119938379033
 20
-900.26259098313199
 30
0.0
 41
1.0
 10
941.72604577272966
 20
-900.21706039623143
 30
0.0
 41
0.9997827436148515
 10
941.83269870933793
 20
-900.17593922492006
 30
0.0
 41
1.0
 10
941.85192155897084
 20
-900.16852765128704
 30
0.0
 41
1.0
 10
941.87114440860387
 20
-900.16111607765401
 30
0.0
 41
1.0
 10
942.01624304447739
 20
-900.10517175907682
 30
0.0
 41
0.9988031841976036
 10
942.166113407083
 20
-900.0636716949092
 30
0.0
 41
1.0
 10
942.19103065544471
 20
-900.05677194910277
 30
0.0
 41
1.0
 10
942.21594790380641
 20
-900.04987220329633
 30
0.0
 41
1.0
 10
942.3832179294543
 20
-900.00355406088954
 30
0.0
 41
0.9984748040550746
 10
942.55457483810392
 20
-899.97595982862435
 30
0.0
 41
1.0
 10
942.5593139743529
 20
-899.97519666811081
 30
0.0
 41
1.0
 10
942.56405311060189
 20
-899.97443350759738
 30
0.0
 41
1.0
 10
942.72593174675296
 20
-899.94836559635928
 30
0.0
 41
0.9984436495479321
 10
942.88970649047769
 20
-899.9404876425408
 30
0.0
 41
1.0
 10
942.91140369860864
 20
-899.93944395534118
 30
0.0
 41
1.0
 10
942.9331009067397
 20
-899.93840026814155
 30
0.0
 41
1.0
 10
943.05348123420197
 20
-899.93260968872232
 30
0.0
 41
0.9987954789335639
 10
943.17384947911216
 20
-899.93864621646458
 30
0.0
 41
1.0
 10
943.19381427160806
 20
-899.93964746080326
 30
0.0
 41
1.0
 10
943.21377906410407
 20
-899.94064870514194
 30
0.0
 41
1.0
 10
943.29421772402361
 20
-899.94468274420694
 30
0.0
 41
0.9997941595877096
 10
943.37442650211642
 20
-899.95197681012792
 30
0.0
 41
1.0
 10
943.45463528021037
 20
-899.95927087604889
 30
0.0
 41
0.9998589466236669
 10
943.53455382706466
 20
-899.96925473049896
 30
0.0
 41
1.0
 10
943.5669600288735
 20
-899.97330308741823
 30
0.0
 41
1.0
 10
943.59936623068234
 20
-899.9773514443375
 30
0.0
 41
1.0
 10
943.74409718115282
 20
-899.99543201262588
 30
0.0
 41
0.9993495063249595
 10
943.88714842491754
 20
-900.02389772236722
 30
0.0
 41
1.0
 10
943.92008212207134
 20
-900.03045118558236
 30
0.0
 41
1.0
 10
943.95301581922524
 20
-900.03700464879751
 30
0.0
 41
1.0
 10
944.062309642429
 20
-900.05875298293267
 30
0.0
 41
0.9996788715560925
 10
944.17036121438446
 20
-900.08601078229526
 30
0.0
 41
1.0
 10
944.17242421692231
 20
-900.08653120886788
 30
0.0
 41
1.0
 10
944.17448721946016
 20
-900.0870516354405
 30
0.0
 41
1.0
 10
944.27841278633969
 20
-900.11326858165774
 30
0.0
 41
0.9995480654491655
 10
944.38057502157028
 20
-900.14568353828258
 30
0.0
 41
1.0
 10
944.38226466369952
 20
-900.14621964319656
 30
0.0
 41
1.0
 10
944.38395430582875
 20
-900.14675574811054
 30
0.0
 41
1.0
 10
944.48273725679985
 20
-900.17809849490709
 30
0.0
 41
0.9993867959455852
 10
944.57908441524228
 20
-900.21627786419708
 30
0.0
 41
1.0
 10
944.58032736432756
 20
-900.21677040609347
 30
0.0
 41
1.0
 10
944.58157031341273
 20
-900.21726294798998
 30
0.0
 41
1.0
 10
944.67543157368493
 20
-900.25445723348707
 30
0.0
 41
0.9992050256522449
 10
944.76603124871815
 20
-900.29901113272558
 30
0.0
 41
1.0
 10
944.76676593143065
 20
-900.29937242518645
 30
0.0
 41
1.0
 10
944.76750061414327
 20
-900.29973371764731
 30
0.0
 41
1.0
 10
944.85663092375137
 20
-900.34356503196398
 30
0.0
 41
0.999022235074146
 10
944.94154098514525
 20
-900.39509829966232
 30
0.0
 41
1.0
 10
944.94172487042829
 20
-900.39520990256733
 30
0.0
 41
1.0
 10
944.94190875571132
 20
-900.39532150547234
 30
0.0
 41
1.0
 10
945.02645104653948
 20
-900.4466315673609
 30
0.0
 41
0.9988642743804836
 10
945.10572558115791
 20
-900.50575575488597
 30
0.0
 41
1.0
 10
945.18500011577669
 20
-900.56487994241127
 30
0.0
 41
0.9987681233311486
 10
945.25802390005299
 20
-900.63157063381209
 30
0.0
 41
1.0
 10
945.25835282801881
 20
-900.63187103502628
 30
0.0
 41
1.0
 10
945.25868175598453
 20
-900.63217143624047
 30
0.0
 41
1.0
 10
945.33236339619248
 20
-900.69946293006979
 30
0.0
 41
0.9987496570898171
 10
945.39895720151981
 20
-900.77377574415686
 30
0.0
 41
1.0
 10
945.39972937128005
 20
-900.77463741751455
 30
0.0
 41
1.0
 10
945.4005015410404
 20
-900.77549909087224
 30
0.0
 41
1.0
 10
945.46863968588832
 20
-900.8515352516747
 30
0.0
 41
0.9988147669827655
 10
945.52906194011348
 20
-900.93383625851709
 30
0.0
 41
1.0
 10
945.53018126619122
 20
-900.93536088986957
 30
0.0
 41
1.0
 10
945.53130059226896
 20
-900.93688552122217
 30
0.0
 41
1.0
 10
945.59396149864926
 20
-901.02223579076917
 30
0.0
 41
0.9989452636215355
 10
945.6485284116103
 20
-901.11297447992672
 30
0.0
 41
1.0
 10
945.64987713769619
 20
-901.11521726095316
 30
0.0
 41
1.0
 10
945.65122586378209
 20
-901.11746004197971
 30
0.0
 41
1.0
 10
945.70849022891525
 20
-901.21268429319105
 30
0.0
 41
0.9991046436070851
 10
945.7574994422373
 20
-901.31240872621709
 30
0.0
 41
1.0
 10
945.75896330382693
 20
-901.31538740628866
 30
0.0
 41
1.0
 10
945.76042716541644
 20
-901.31836608636036
 30
0.0
 41
1.0
 10
945.81236410191809
 20
-901.42404787953069
 30
0.0
 41
0.9992763831101107
 10
945.85611723047327
 20
-901.53337194148651
 30
0.0
 41
1.0
 10
945.85759650013665
 20
-901.5370681290201
 30
0.0
 41
1.0
 10
945.85907576979992
 20
-901.5407643165538
 30
0.0
 41
1.0
 10
945.90578743768151
 20
-901.65748075357612
 30
0.0
 41
0.9994163472883151
 10
945.94442046887082
 20
-901.77711434203911
 30
0.0
 41
1.0
 10
945.94565862111835
 20
-901.78094848582396
 30
0.0
 41
1.0
 10
945.94689677336578
 20
-901.78478262960891
 30
0.0
 41
1.0
 10
945.9867803343825
 20
-901.90828869108611
 30
0.0
 41
0.9997268055890849
 10
946.0208483902943
 20
-902.03352372303584
 30
0.0
 41
1.0
 10
946.02177857056324
 20
-902.03694308914226
 30
0.0
 41
1.0
 10
946.02270875083218
 20
-902.04036245524867
 30
0.0
 41
1.0
 10
946.05491644620565
 20
-902.15875875498341
 30
0.0
 41
0.9996701319000027
 10
946.08100206297672
 20
-902.27865270824964
 30
0.0
 41
1.0
 10
946.10708767974734
 20
-902.39854666151416
 30
0.0
 41
0.9995785451109849
 10
946.12617125708732
 20
-902.51975242254696
 30
0.0
 41
1.0
 10
946.13039103926087
 20
-902.54655357731099
 30
0.0
 41
1.0
 10
946.13461082143442
 20
-902.5733547320749
 30
0.0
 41
1.0
 10
946.16118579737304
 20
-902.74214070577818
 30
0.0
 41
0.9979925101216446
 10
946.16621138329924
 20
-902.91293203386954
 30
0.0
 41
1.0
 10
946.16703619572388
 20
-902.94096275735046
 30
0.0
 41
1.0
 10
946.16786100814852
 20
-902.9689934808315
 30
0.0
 41
1.0
 10
946.17123696922545
 20
-903.08372336196055
 30
0.0
 41
0.9995314902263439
 10
946.16758677708708
 20
-903.19844484571308
 30
0.0
 41
1.0
 10
946.1639365849486
 20
-903.31316632946618
 30
0.0
 41
0.9996245486944309
 10
946.15400748981756
 20
-903.42751560059219
 30
0.0
 41
1.0
 10
946.15384444182337
 20
-903.429393356726
 30
0.0
 41
1.0
 10
946.15368139382929
 20
-903.4312711128598
 30
0.0
 41
1.0
 10
946.14342620271009
 20
-903.54937589625297
 30
0.0
 41
0.9997286095001098
 10
946.12768087913889
 20
-903.6668748051452
 30
0.0
 41
1.0
 10
946.12728738648832
 20
-903.66981122984896
 30
0.0
 41
1.0
 10
946.12689389383775
 20
-903.67274765455272
 30
0.0
 41
1.0
 10
946.11036158496609
 20
-903.79611941284838
 30
0.0
 41
0.9998265533969643
 10
946.089246126234
 20
-903.91878988763403
 30
0.0
 41
1.0
 10
946.08856958409638
 20
-903.92272026614432
 30
0.0
 41
1.0
 10
946.08789304195875
 20
-903.9266506446545
 30
0.0
 41
1.0
 10
946.06542449895142
 20
-904.05718187646016
 30
0.0
 41
0.9999022530854668
 10
946.03931503434126
 20
-904.18703384509888
 30
0.0
 41
1.0
 10
946.03833639317622
 20
-904.19190098748481
 30
0.0
 41
1.0
 10
946.03735775201108
 20
-904.19676812987086
 30
0.0
 41
1.0
 10
946.00929100507005
 20
-904.33635438328474
 30
0.0
 41
0.9999524761934467
 10
945.97850803623544
 20
-904.47536687644879
 30
0.0
 41
1.0
 10
945.97723192906005
 20
-904.48112963575102
 30
0.0
 41
1.0
 10
945.97595582188455
 20
-904.48689239505325
 30
0.0
 41
1.0
 10
945.94262063869951
 20
-904.63743040682016
 30
0.0
 41
0.9999813588719854
 10
945.90744963790382
 20
-904.7875501194751
 30
0.0
 41
1.0
 10
945.90589571244686
 20
-904.79418270989913
 30
0.0
 41
1.0
 10
945.90434178699002
 20
-904.80081530032317
 30
0.0
 41
1.0
 10
945.86606293528007
 20
-904.96420019382833
 30
0.0
 41
0.999995523769588
 10
945.82680705729842
 20
-905.1273530974396
 30
0.0
 41
1.0
 10
945.81452542166517
 20
-905.17839728795821
 30
0.0
 41
1.0
 10
945.8022437860318
 20
-905.2294414784767
 30
0.0
 41
1.0
 10
945.73842463677556
 20
-905.49468276315793
 30
0.0
 41
0.9999993604245748
 10
945.67400568959465
 20
-905.7597790138957
 30
0.0
 41
1.0
 10
945.66928685405765
 20
-905.77919792189493
 30
0.0
 41
1.0
 10
945.66456801852064
 20
-905.79861682989417
 30
0.0
 41
1.0
 10
945.59071140026163
 20
-906.10255089664793
 30
0.0
 41
0.9999659914722934
 10
945.51185180437778
 20
-906.40522544320163
 30
0.0
 41
1.0
 10
945.50689911544578
 20
-906.42423458038934
 30
0.0
 41
1.0
 10
945.50194642651365
 20
-906.44324371757716
 30
0.0
 41
1.0
 10
945.41318145276864
 20
-906.78393653849525
 30
0.0
 41
0.9999441976023205
 10
945.31723841980454
 20
-907.12267796379604
 30
0.0
 41
1.0
 10
945.30053790137913
 20
-907.18164167632335
 30
0.0
 41
1.0
 10
945.28383738295372
 20
-907.24060538885055
 30
0.0
 41
1.0
 10
945.15449331313812
 20
-907.69727423920813
 30
0.0
 41
0.9999625120738841
 10
945.01726054581388
 20
-908.15163477320721
 30
0.0
 41
1.0
 10
944.9814706027322
 20
-908.27013079982999
 30
0.0
 41
1.0
 10
944.94568065965052
 20
-908.38862682645288
 30
0.0
 41
1.0
 10
944.87116045560981
 20
-908.63535390455422
 30
0.0
 41
0.9999793386313846
 10
944.79347443247116
 20
-908.8811025437933
 30
0.0
 41
1.0
 10
944.71578840933353
 20
-909.1268511830292
 30
0.0
 41
1.0
 10
944.70500885046295
 20
-909.16086908740431
 30
0.0
 41
1.0
 10
942.85463579719374
 20
-915.04794100987169
 30
0.0
 41
1.0
 10
941.00426274392453
 20
-920.93501293233908
 30
0.0
 41
1.0
 10
940.04300605390097
 20
-920.93501293233908
 30
0.0
 41
1.0
 10
939.08174936387741
 20
-920.93501293233908
 30
0.0
 41
1.0
 10
940.7006941425559
 20
-915.78698443054941
 30
0.0
 41
1.0
 10
942.3196389212344
 20
-910.63895592875974
 30
0.0
 41
1.0
 10
942.36480474441328
 20
-910.4949247064751
 30
0.0
 41
1.0
 10
942.40997056759215
 20
-910.35089348419058
 30
0.0
 41
1.0
 10
942.58027498495085
 20
-909.80780245504093
 30
0.0
 41
0.9999911657926857
 10
942.7460077966258
 20
-909.26329892369426
 30
0.0
 41
1.0
 10
942.77570374012112
 20
-909.16573498366085
 30
0.0
 41
1.0
 10
942.80539968361632
 20
-909.06817104362744
 30
0.0
 41
1.0
 10
942.91174060830053
 20
-908.71879539234851
 30
0.0
 41
0.9999952428159832
 10
943.01592419763097
 20
-908.36877036798091
 30
0.0
 41
1.0
 10
943.02098366796395
 20
-908.35177209370431
 30
0.0
 41
1.0
 10
943.02604313829681
 20
-908.33477381942771
 30
0.0
 41
1.0
 10
943.12010778695787
 20
-908.01874534362469
 30
0.0
 41
0.9999931687498577
 10
943.21183362482964
 20
-907.70203013036075
 30
0.0
 41
1.0
 10
943.21676888929017
 20
-907.68498942108624
 30
0.0
 41
1.0
 10
943.22170415375069
 20
-907.66794871181173
 30
0.0
 41
1.0
 10
943.30355946270458
 20
-907.38531491708591
 30
0.0
 41
0.9999893840796331
 10
943.38280668916013
 20
-907.10193878784389
 30
0.0
 41
1.0
 10
943.4620539156158
 20
-906.81856265860142
 30
0.0
 41
0.999983398005855
 10
943.53803015635424
 20
-906.53429207558565
 30
0.0
 41
1.0
 10
943.54703409307854
 20
-906.50060319709985
 30
0.0
 41
1.0
 10
943.55603802980272
 20
-906.46691431861404
 30
0.0
 41
1.0
 10
943.62500257866986
 20
-906.20887848631526
 30
0.0
 41
0.9999233658069989
 10
943.68755754989047
 20
-905.94921432759088
 30
0.0
 41
1.0
 10
943.75011252111062
 20
-905.68955016886844
 30
0.0
 41
1.0
 10
943.78959593996819
 20
-905.52574350444206
 30
0.0
 41
1.0
 10
943.79457454394458
 20
-905.50508854257555
 30
0.0
 41
1.0
 10
943.79955314792096
 20
-905.48443358070892
 30
0.0
 41
1.0
 10
943.82907935882554
 20
-905.36193684001682
 30
0.0
 41
0.9999868670849957
 10
943.85734844282206
 20
-905.23914389437027
 30
0.0
 41
1.0
 10
943.86124592997976
 20
-905.22221430695345
 30
0.0
 41
1.0
 10
943.86514341713746
 20
-905.20528471953651
 30
0.0
 41
1.0
 10
943.88561752681767
 20
-905.11635094872759
 30
0.0
 41
0.9999778173351988
 10
943.90490512493375
 20
-905.02715233149434
 30
0.0
 41
1.0
 10
943.92419272304971
 20
-904.9379537142612
 30
0.0
 41
0.9999602692861591
 10
943.94188708168201
 20
-904.84842542582714
 30
0.0
 41
1.0
 10
943.94509091375858
 20
-904.83221497094678
 30
0.0
 41
1.0
 10
943.94829474583514
 20
-904.81600451606641
 30
0.0
 41
1.0
 10
943.97239676862114
 20
-904.69405531786924
 30
0.0
 41
0.9995617985320292
 10
943.98924011583972
 20
-904.57089357016412
 30
0.0
 41
1.0
 10
943.99170460574601
 20
-904.5528727527975
 30
0.0
 41
1.0
 10
943.99416909565241
 20
-904.53485193543088
 30
0.0
 41
1.0
 10
944.01445235670053
 20
-904.38653688573049
 30
0.0
 41
0.9991121410639902
 10
944.02217771028882
 20
-904.23704078692413
 30
0.0
 41
1.0
 10
944.02309650031316
 20
-904.21926095035178
 30
0.0
 41
1.0
 10
944.0240152903375
 20
-904.20148111377932
 30
0.0
 41
1.0
 10
944.02990306387687
 20
-904.08754468812185
 30
0.0
 41
0.9989792494906026
 10
944.02548397175974
 20
-903.9735418522198
 30
0.0
 41
1.0
 10
944.02483599989114
 20
-903.95682560629211
 30
0.0
 41
1.0
 10
944.02418802802242
 20
-903.94010936036454
 30
0.0
 41
1.0
 10
944.02106487964238
 20
-903.85953901632092
 30
0.0
 41
0.9997820295393758
 10
944.01458088226673
 20
-903.77916929457729
 30
0.0
 41
1.0
 10
944.00809688489119
 20
-903.69879957283501
 30
0.0
 41
0.9998335105973467
 10
943.99868468937984
 20
-903.61871995638649
 30
0.0
 41
1.0
 10
943.99708976470333
 20
-903.60515022590164
 30
0.0
 41
1.0
 10
943.99549484002671
 20
-903.59158049541679
 30
0.0
 41
1.0
 10
943.98289279516257
 20
-903.48436141800278
 30
0.0
 41
0.999687645787892
 10
943.96494888236464
 20
-903.37790599028858
 30
0.0
 41
1.0
 10
943.96271721921903
 20
-903.36466625504499
 30
0.0
 41
1.0
 10
943.96048555607342
 20
-903.35142651980141
 30
0.0
 41
1.0
 10
943.94668973465241
 20
-903.26958037584279
 30
0.0
 41
0.9995547496494819
 10
943.92803641275975
 20
-903.18870287865161
 30
0.0
 41
1.0
 10
943.92766245588791
 20
-903.1870814679437
 30
0.0
 41
1.0
 10
943.92728849901596
 20
-903.1854600572359
 30
0.0
 41
1.0
 10
943.90938309086664
 20
-903.10782538145793
 30
0.0
 41
0.9994899427174927
 10
943.88655818218774
 20
-903.0314920986259
 30
0.0
 41
1.0
 10
943.8860996554472
 20
-903.02995864883792
 30
0.0
 41
1.0
 10
943.88564112870665
 20
-903.02842519905005
 30
0.0
 41
1.0
 10
943.86373327350873
 20
-902.95515881579274
 30
0.0
 41
0.9993784877591073
 10
943.83671763840175
 20
-902.88361811063282
 30
0.0
 41
1.0
 10
943.83618594742518
 20
-902.88221012791314
 30
0.0
 41
1.0
 10
943.83565425644861
 20
-902.88080214519334
 30
0.0
 41
1.0
 10
943.80970200329523
 20
-902.81207740547416
 30
0.0
 41
0.9992430832254969
 10
943.77848546813584
 20
-902.74557825340548
 30
0.0
 41
1.0
 10
943.77790335207885
 20
-902.74433819828732
 30
0.0
 41
1.0
 10
943.77732123602186
 20
-902.74309814316928
 30
0.0
 41
1.0
 10
943.74726893297623
 20
-902.67907910133636
 30
0.0
 41
0.99907896327976
 10
943.71183830619987
 20
-902.6178724895874
 30
0.0
 41
1.0
 10
943.71124260001841
 20
-902.61684340372915
 30
0.0
 41
1.0
 10
943.71064689383695
 20
-902.6158143178709
 30
0.0
 41
1.0
 10
943.67640767942351
 20
-902.55666587783844
 30
0.0
 41
0.9988874801120712
 10
943.63674840339115
 20
-902.50100616541999
 30
0.0
 41
1.0
 10
943.63619287732718
 20
-902.50022651374559
 30
0.0
 41
1.0
 10
943.63563735126309
 20
-902.49944686207118
 30
0.0
 41
1.0
 10
943.59708912735925
 20
-902.44534645300234
 30
0.0
 41
0.9986762060692808
 10
943.55318665608297
 20
-902.39549273856323
 30
0.0
 41
1.0
 10
943.55274269575045
 20
-902.3949885967462
 30
0.0
 41
1.0
 10
943.55229873541793
 20
-902.39448445492917
 30
0.0
 41
1.0
 10
943.50928418480646
 20
-902.34563902412378
 30
0.0
 41
0.9984621642488777
 10
943.46112662802898
 20
-902.30185572365303
 30
0.0
 41
1.0
 10
943.46087999351221
 20
-902.30163149148939
 30
0.0
 41
1.0
 10
943.46063335899555
 20
-902.30140725932574
 30
0.0
 41
1.0
 10
943.41296907125104
 20
-902.25807242318172
 30
0.0
 41
0.9982724693852402
 10
943.36055043940974
 20
-902.22062807266389
 30
0.0
 41
1.0
 10
943.30813180756877
 20
-902.18318372214628
 30
0.0
 41
0.998139918015734
 10
943.25154574417536
 20
-902.1523972027029
 30
0.0
 41
1.0
 10
943.25150008209675
 20
-902.15237235954555
 30
0.0
 41
1.0
 10
943.25145442001804
 20
-902.15234751638832
 30
0.0
 41
1.0
 10
943.1947770324673
 20
-902.12151131063047
 30
0.0
 41
0.998092708683733
 10
943.13473168140047
 20
-902.09789450177789
 30
0.0
 41
1.0
 10
943.1342915116893
 20
-902.09772137590312
 30
0.0
 41
1.0
 10
943.13385134197802
 20
-902.09754825002824
 30
0.0
 41
1.0
 10
943.07292565148896
 20
-902.07358518942601
 30
0.0
 41
0.998141135656349
 10
943.00953713009039
 20
-902.05721254792036
 30
0.0
 41
1.0
 10
943.00865501338819
 20
-902.05698470571474
 30
0.0
 41
1.0
 10
943.00777289668599
 20
-902.05675686350901
 30
0.0
 41
1.0
 10
942.94262014188359
 20
-902.03992853759223
 30
0.0
 41
0.9983031812934139
 10
942.87595271288865
 20
-902.03078917641596
 30
0.0
 41
1.0
 10
942.86708168748487
 20
-902.02957305774476
 30
0.0
 41
1.0
 10
942.85821066208098
 20
-902.02835693907343
 30
0.0
 41
1.0
 10
942.80386101957708
 20
-902.02090620908234
 30
0.0
 41
0.9983887708262577
 10
942.74901717028411
 20
-902.01966153544913
 30
0.0
 41
1.0
 10
942.74095376506693
 20
-902.01947853757429
 30
0.0
 41
1.0
 10
942.73289035984976
 20
-902.01929553969944
 30
0.0
 41
1.0
 10
942.69417332099158
 20
-902.01841686181592
 30
0.0
 41
0.9998869563079582
 10
942.65544736778861
 20
-902.01870273117561
 30
0.0
 41
1.0
 10
942.61672141456529
 20
-902.01898860053541
 30
0.0
 41
0.999997232016195
 10
942.57799723533344
 20
-902.01945670006478
 30
0.0
 41
1.0
 10
942.55864421877425
 20
-902.01969064015384
 30
0.0
 41
1.0
 10
942.53929120221505
 20
-902.01992458024301
 30
0.0
 41
1.0
 10
942.46186098984401
 20
-902.02086055995073
 30
0.0
 41
0.9997304945086436
 10
942.38455768360609
 20
-902.02538965373708
 30
0.0
 41
1.0
 10
942.37550804190221
 20
-902.02591985972708
 30
0.0
 41
1.0
 10
942.36645840019833
 20
-902.02645006571697
 30
0.0
 41
1.0
 10
942.27105581055457
 20
-902.0320395714831
 30
0.0
 41
0.9997888306415727
 10
942.17596347471431
 20
-902.04154453597175
 30
0.0
 41
1.0
 10
942.16724241313921
 20
-902.04241625060411
 30
0.0
 41
1.0
 10
942.1585213515641
 20
-902.04328796523646
 30
0.0
 41
1.0
 10
942.04598689257557
 20
-902.05453635898971
 30
0.0
 41
0.9984170238190535
 10
941.93542774522427
 20
-902.07835244092541
 30
0.0
 41
1.0
 10
941.89904661423748
 20
-902.08618947673165
 30
0.0
 41
1.0
 10
941.86266548325068
 20
-902.09402651253788
 30
0.0
 41
1.0
 10
941.74747441482964
 20
-902.11884037904747
 30
0.0
 41
0.9976592854198499
 10
941.63674624842531
 20
-902.15913905619459
 30
0.0
 41
1.0
 10
941.52601808202019
 20
-902.19943773334194
 30
0.0
 41
0.9993255074352403
 10
941.41854628322915
 20
-902.24775463183437
 30
0.0
 41
1.0
 10
941.41392110430604
 20
-902.24983400803399
 30
0.0
 41
1.0
 10
941.40929592538293
 20
-902.2519133842336
 30
0.0
 41
1.0
 10
941.29257376874637
 20
-902.30438903512504
 30
0.0
 41
0.9976475078275205
 10
941.18412642443673
 20
-902.37233702478272
 30
0.0
 41
1.0
 10
941.16578403030223
 20
-902.3838295035971
 30
0.0
 41
1.0
 10
941.14744163616774
 20
-902.39532198241136
 30
0.0
 41
1.0
 10
941.06323944461519
 20
-902.44807910318002
 30
0.0
 41
0.9995131336406546
 10
940.98249172965598
 20
-902.50598531513447
 30
0.0
 41
1.0
 10
940.90174401469585
 20
-902.56389152708971
 30
0.0
 41
0.9995810107605979
 10
940.82448236696416
 20
-902.62637320955798
 30
0.0
 41
1.0
 10
940.82151233575678
 20
-902.62877508102019
 30
0.0
 41
1.0
 10
940.81854230454951
 20
-902.63117695248252
 30
0.0
 41
1.0
 10
940.73534059440124
 20
-902.69846237787669
 30
0.0
 41
0.9996617837953915
 10
940.65574990726623
 20
-902.76998283343653
 30
0.0
 41
1.0
 10
940.64361915639051
 20
-902.78088356642604
 30
0.0
 41
1.0
 10
940.63148840551492
 20
-902.79178429941555
 30
0.0
 41
1.0
 10
940.56321287811522
 20
-902.85313691489091
 30
0.0
 41
0.9997267750051875
 10
940.49787936983012
 20
-902.91761345141754
 30
0.0
 41
1.0
 10
940.43254586154762
 20
-902.98208998794178
 30
0.0
 41
0.9999667288956912
 10
940.36827291840154
 20
-903.04762379483554
 30
0.0
 41
1.0
 10
940.29944547062553
 20
-903.11780145359455
 30
0.0
 41
1.0
 10
940.23061802284951
 20
-903.18797911235356
 30
0.0
 41
1.0
 10
940.02869018415311
 20
-903.39386823676375
 30
0.0
 41
0.9988205335175052
 10
939.8476845671737
 20
-903.61837246882408
 30
0.0
 41
1.0
 10
939.81704460226877
 20
-903.65637571925436
 30
0.0
 41
1.0
 10
939.78640463736383
 20
-903.69437896968452
 30
0.0
 41
1.0
 10
939.54411909057467
 20
-903.99488970260529
 30
0.0
 41
0.9997077826754933
 10
939.31664113946943
 20
-904.30675949682154
 30
0.0
 41
1.0
 10
939.31491772433901
 20
-904.309122280201
 30
0.0
 41
1.0
 10
939.31319430920871
 20
-904.31148506358045
 30
0.0
 41
1.0
 10
939.08226952784287
 20
-904.62808042455538
 30
0.0
 41
0.9989147567078688
 10
938.88180602495947
 20
-904.9647898857404
 30
0.0
 41
1.0
 10
938.85706487964922
 20
-905.00634646629851
 30
0.0
 41
1.0
 10
938.83232373433896
 20
-905.0479030468565
 30
0.0
 41
1.0
 10
938.67711243570454
 20
-905.30860443130462
 30
0.0
 41
0.9997476598181646
 10
938.53376744819843
 20
-905.57601417988121
 30
0.0
 41
1.0
 10
938.39042246069039
 20
-905.84342392846065
 30
0.0
 41
0.9996258967110681
 10
938.26191420875978
 20
-906.11827186508162
 30
0.0
 41
1.0
 10
938.2487142993059
 20
-906.14650326518631
 30
0.0
 41
1.0
 10
938.23551438985191
 20
-906.17473466529088
 30
0.0
 41
1.0
 10
938.09530566885508
 20
-906.47460706323727
 30
0.0
 41
0.9998735413944655
 10
937.9647043221371
 20
-906.77878666269976
 30
0.0
 41
1.0
 10
937.96126149407792
 20
-906.78680524816116
 30
0.0
 41
1.0
 10
937.95781866601885
 20
-906.79482383362256
 30
0.0
 41
1.0
 10
937.83410297541855
 20
-907.08296626216338
 30
0.0
 41
0.9999377418859428
 10
937.71684817324206
 20
-907.37379772984264
 30
0.0
 41
1.0
 10
937.59959337106955
 20
-907.66462919751234
 30
0.0
 41
0.9999508299505043
 10
937.48812942769598
 20
-907.95772887432349
 30
0.0
 41
1.0
 10
937.48504865903033
 20
-907.96582990029572
 30
0.0
 41
1.0
 10
937.48196789036467
 20
-907.97393092626794
 30
0.0
 41
1.0
 10
937.36434240966105
 20
-908.2832326550207
 30
0.0
 41
0.9999609228435928
 10
937.25220380678468
 20
-908.59456567104314
 30
0.0
 41
1.0
 10
937.24924779643698
 20
-908.60277251144726
 30
0.0
 41
1.0
 10
937.24629178608916
 20
-908.61097935185148
 30
0.0
 41
1.0
 10
937.12824116251454
 20
-908.93872604868966
 30
0.0
 41
0.9999674607402406
 10
937.01549363644392
 20
-909.26833466869164
 30
0.0
 41
1.0
 10
936.9640952458841
 20
-909.41859386437568
 30
0.0
 41
1.0
 10
936.91269685532427
 20
-909.56885306005972
 30
0.0
 41
1.0
 10
936.79668624856549
 20
-909.90800104256539
 30
0.0
 41
0.9999287532306895
 10
936.68880484459396
 20
-910.24982178154346
 30
0.0
 41
1.0
 10
936.64232758848175
 20
-910.39708432582916
 30
0.0
 41
1.0
 10
936.59585033236954
 20
-910.54434687011485
 30
0.0
 41
1.0
 10
936.58092344064323
 20
-910.59164252045571
 30
0.0
 41
0.9999998222737193
 10
936.56605293189295
 20
-910.63895592875974
 30
0.0
 41
1.0
 10
934.94539679509739
 20
-915.78698443054941
 30
0.0
 41
1.0
 10
933.32474065830183
 20
-920.93501293233908
 30
0.0
 41
1.0
 10
932.41943221441102
 20
-920.93501293233908
 30
0.0
 41
1.0
 10
931.5141237705202
 20
-920.93501293233908
 30
0.0
 41
1.0
 10
933.36620818190613
 20
-915.04794100987169
 30
0.0
 41
1.0
 10
935.21829259329206
 20
-909.16086908740431
 30
0.0
 41
1.0
 10
935.22841435159489
 20
-909.12882587395393
 30
0.0
 41
1.0
 10
935.30102202044463
 20
-908.89852633212809
 30
0.0
 41
1.0
 10
935.37362968929483
 20
-908.66822679030099
 30
0.0
 41
0.9999825681967871
 10
935.44351272850702
 20
-908.43708589523385
 30
0.0
 41
1.0
 10
935.49180379066456
 20
-908.27736131174845
 30
0.0
 41
1.0
 10
935.54009485282222
 20
-908.11763672826305
 30
0.0
 41
1.0
 10
935.63724720614096
 20
-907.79630150648222
 30
0.0
 41
0.9999672528963076
 10
935.72918601176673
 20
-907.47343596088763
 30
0.0
 41
1.0
 10
935.73197489543998
 20
-907.4636421154853
 30
0.0
 41
1.0
 10
935.73476377911322
 20
-907.45384827008297
 30
0.0
 41
1.0
 10
935.82112481739421
 20
-907.15057041528644
 30
0.0
 41
0.9999899749131455
 10
935.90476642692477
 20
-906.84653132684866
 30
0.0
 41
1.0
 10
935.91487234594308
 20
-906.80979608916732
 30
0.0
 41
1.0
 10
935.9249782649614
 20
-906.77306085148598
 30
0.0
 41
1.0
 10
935.98840803645976
 20
-906.54249223839554
 30
0.0
 41
0.9999214200503052
 10
936.04603746483713
 20
-906.31040589618692
 30
0.0
 41
1.0
 10
936.05880331701553
 20
-906.25899501079948
 30
0.0
 41
1.0
 10
936.07156916919394
 20
-906.20758412541204
 30
0.0
 41
1.0
 10
936.10366689321245
 20
-906.07831955398717
 30
0.0
 41
0.9999828681670872
 10
936.13424914521033
 20
-905.94868807951002
 30
0.0
 41
1.0
 10
936.16483139720629
 20
-905.81905660504071
 30
0.0
 41
0.999938984447846
 10
936.19254238599603
 20
-905.68878114913855
 30
0.0
 41
1.0
 10
936.19968012971572
 20
-905.65522504530327
 30
0.0
 41
1.0
 10
936.20681787343551
 20
-905.62166894146799
 30
0.0
 41
1.0
 10
936.24880434966565
 20
-905.42428127789128
 30
0.0
 41
0.9998933699441496
 10
936.28500861406815
 20
-905.22575167013053
 30
0.0
 41
1.0
 10
936.28638143928413
 20
-905.21822364943591
 30
0.0
 41
1.0
 10
936.28775426450011
 20
-905.21069562874141
 30
0.0
 41
1.0
 10
936.32670417933491
 20
-904.99710997959039
 30
0.0
 41
0.9996850305194059
 10
936.35488785559346
 20
-904.78183897415408
 30
0.0
 41
1.0
 10
936.35688288896279
 20
-904.7666006200318
 30
0.0
 41
1.0
 10
936.35887792233211
 20
-904.75136226590951
 30
0.0
 41
1.0
 10
936.3862857847912
 20
-904.54201703875424
 30
0.0
 41
0.9994697936707122
 10
936.40001034401087
 20
-904.33133184342364
 30
0.0
 41
1.0
 10
936.40048741326063
 20
-904.3240083712119
 30
0.0
 41
1.0
 10
936.40096448251029
 20
-904.31668489900028
 30
0.0
 41
1.0
 10
936.41373490323053
 20
-904.12064664809259
 30
0.0
 41
0.9991804893136814
 10
936.41060658695767
 20
-903.9242177981198
 30
0.0
 41
1.0
 10
936.41052270813566
 20
-903.9189509967091
 30
0.0
 41
1.0
 10
936.41043882931353
 20
-903.91368419529829
 30
0.0
 41
1.0
 10
936.40747827068481
 20
-903.72778894814826
 30
0.0
 41
0.9988448329322166
 10
936.38668672506105
 20
-903.54303635831297
 30
0.0
 41
1.0
 10
936.38509265135804
 20
-903.52887150254116
 30
0.0
 41
1.0
 10
936.3834985776549
 20
-903.51470664676935
 30
0.0
 41
1.0
 10
936.36589517943719
 20
-903.35828376847883
 30
0.0
 41
0.9985503209458636
 10
936.33157890713778
 20
-903.20465958439013
 30
0.0
 41
1.0
 10
936.32399291506658
 20
-903.17069925699002
 30
0.0
 41
1.0
 10
936.3164069229955
 20
-903.13673892958991
 30
0.0
 41
1.0
 10
936.29726263483838
 20
-903.05103540030098
 30
0.0
 41
0.9991036781370477
 10
936.27093777318714
 20
-902.96725831297567
 30
0.0
 41
1.0
 10
936.2669555477305
 20
-902.95458515046312
 30
0.0
 41
1.0
 10
936.26297332227387
 20
-902.94191198795045
 30
0.0
 41
1.0
 10
936.24461291153534
 20
-902.88348122564832
 30
0.0
 41
0.9998874504368088
 10
936.22450770385751
 20
-902.82562762342764
 30
0.0
 41
1.0
 10
936.20440249617934
 20
-902.76777402120547
 30
0.0
 41
0.9994041637544757
 10
936.18035388324563
 20
-902.71144531731647
 30
0.0
 41
1.0
 10
936.17615709902111
 20
-902.70161525283322
 30
0.0
 41
1.0
 10
936.17196031479648
 20
-902.69178518834997
 30
0.0
 41
1.0
 10
936.1440814838021
 20
-902.62648502238289
 30
0.0
 41
0.999184684070152
 10
936.11102512710909
 20
-902.56364699110304
 30
0.0
 41
1.0
 10
936.10988852071432
 20
-902.56148637464889
 30
0.0
 41
1.0
 10
936.10875191431967
 20
-902.55932575819486
 30
0.0
 41
1.0
 10
936.07796877041619
 20
-902.50080895982353
 30
0.0
 41
0.9989253167923861
 10
936.04189934636099
 20
-902.44539403143267
 30
0.0
 41
1.0
 10
936.0408452216866
 20
-902.44377453666993
 30
0.0
 41
1.0
 10
936.03979109701208
 20
-902.44215504190731
 30
0.0
 41
1.0
 10
936.00582992230591
 20
-902.38997910304226
 30
0.0
 41
0.9986467172836199
 10
935.96663276966865
 20
-902.34161306941292
 30
0.0
 41
1.0
 10
935.96575864096826
 20
-902.34053446713506
 30
0.0
 41
1.0
 10
935.96488451226776
 20
-902.33945586485709
 30
0.0
 41
1.0
 10
935.92743561703139
 20
-902.29324703578368
 30
0.0
 41
0.9984001104267745
 10
935.88500888651413
 20
-902.25156192841473
 30
0.0
 41
1.0
 10
935.88442174840452
 20
-902.25098505353321
 30
0.0
 41
1.0
 10
935.88383461029503
 20
-902.25040817865181
 30
0.0
 41
1.0
 10
935.84258215599664
 20
-902.20987682104567
 30
0.0
 41
0.9982442159083778
 10
935.79682605466144
 20
-902.17450825978563
 30
0.0
 41
1.0
 10
935.79661125919949
 20
-902.17434222714223
 30
0.0
 41
1.0
 10
935.79639646373755
 20
-902.17417619449895
 30
0.0
 41
1.0
 10
935.75106995332578
 20
-902.13913969852513
 30
0.0
 41
0.9982450060834482
 10
935.70191897425411
 20
-902.10970791549175
 30
0.0
 41
1.0
 10
935.65276799518267
 20
-902.08027613245849
 30
0.0
 41
0.9983922639636368
 10
935.60060168901794
 20
-902.05659649780421
 30
0.0
 41
1.0
 10
935.6003748116932
 20
-902.05649351232273
 30
0.0
 41
1.0
 10
935.60014793436858
 20
-902.05639052684114
 30
0.0
 41
1.0
 10
935.54752787355449
 20
-902.0325049212239
 30
0.0
 41
0.9986517147148092
 10
935.492714900686
 20
-902.0142038021022
 30
0.0
 41
1.0
 10
935.4920369792585
 20
-902.0139774556709
 30
0.0
 41
1.0
 10
935.49135905783112
 20
-902.01375110923959
 30
0.0
 41
1.0
 10
935.43519024210809
 20
-901.9949972972554
 30
0.0
 41
0.998943559895782
 10
935.37753685495727
 20
-901.98147959502091
 30
0.0
 41
1.0
 10
935.37645673537486
 20
-901.98122634476772
 30
0.0
 41
1.0
 10
935.37537661579256
 20
-901.98097309451464
 30
0.0
 41
1.0
 10
935.31556298947703
 20
-901.966948891774
 30
0.0
 41
0.9992249241240412
 10
935.25483148057913
 20
-901.95767354905865
 30
0.0
 41
1.0
 10
935.2534177922887
 20
-901.95745764065089
 30
0.0
 41
1.0
 10
935.25200410399839
 20
-901.95724173224312
 30
0.0
 41
1.0
 10
935.18844521851997
 20
-901.94753457271224
 30
0.0
 41
0.9994396597834072
 10
935.12437928198426
 20
-901.94210165036657
 30
0.0
 41
1.0
 10
935.10523861450542
 20
-901.94047848264779
 30
0.0
 41
1.0
 10
935.08609794702647
 20
-901.93885531492901
 30
0.0
 41
1.0
 10
934.98375067553332
 20
-901.9301760571459
 30
0.0
 41
0.9987693403120028
 10
934.88104705194576
 20
-901.93167912059891
 30
0.0
 41
1.0
 10
934.87079271771916
 20
-901.93182919237313
 30
0.0
 41
1.0
 10
934.86053838349255
 20
-901.93197926414734
 30
0.0
 41
1.0
 10
934.75098261731364
 20
-901.93358260843502
 30
0.0
 41
0.9989753644967003
 10
934.64202061729691
 20
-901.94508561536009
 30
0.0
 41
1.0
 10
934.53305861728131
 20
-901.95658862228504
 30
0.0
 41
0.9983190067306341
 10
934.42615980631695
 20
-901.98062361407142
 30
0.0
 41
1.0
 10
934.41725885470942
 20
-901.98262489263425
 30
0.0
 41
1.0
 10
934.408357903102
 20
-901.98462617119708
 30
0.0
 41
1.0
 10
934.28365718892189
 20
-902.01266372010934
 30
0.0
 41
0.9985539388302248
 10
934.16268743524267
 20
-902.05392739615559
 30
0.0
 41
1.0
 10
934.16034200428385
 20
-902.05472743997097
 30
0.0
 41
1.0
 10
934.15799657332491
 20
-902.05552748378636
 30
0.0
 41
1.0
 10
934.03233595772861
 20
-902.09839124746304
 30
0.0
 41
0.9988468746494283
 10
933.9113656154301
 20
-902.15310933252431
 30
0.0
 41
1.0
 10
933.90818279343944
 20
-902.15454900708517
 30
0.0
 41
1.0
 10
933.90499997144866
 20
-902.15598868164602
 30
0.0
 41
1.0
 10
933.77766398516962
 20
-902.21358611582889
 30
0.0
 41
0.9991322885919175
 10
933.65556340111118
 20
-902.28158144801171
 30
0.0
 41
1.0
 10
933.63796139006854
 20
-902.29138365000085
 30
0.0
 41
1.0
 10
933.6203593790259
 20
-902.30118585198989
 30
0.0
 41
1.0
 10
933.51818269796911
 20
-902.35808596777031
 30
0.0
 41
0.9993860037848776
 10
933.42024169389583
 20
-902.422001983359
 30
0.0
 41
1.0
 10
933.41462338104475
 20
-902.42566847805313
 30
0.0
 41
1.0
 10
933.40900506819378
 20
-902.42933497274726
 30
0.0
 41
1.0
 10
933.32230068982381
 20
-902.48591799894689
 30
0.0
 41
0.9998821494954326
 10
933.23737431400968
 20
-902.54513622902437
 30
0.0
 41
1.0
 10
933.15244793819329
 20
-902.60435445910343
 30
0.0
 41
0.9997976482744064
 10
933.06997230778609
 20
-902.66694086714836
 30
0.0
 41
1.0
 10
933.05533604298466
 20
-902.67804755692555
 30
0.0
 41
1.0
 10
933.04069977818335
 20
-902.68915424670263
 30
0.0
 41
1.0
 10
932.92895161817296
 20
-902.77395403430194
 30
0.0
 41
0.9998091630799696
 10
932.8206013401483
 20
-902.8630543850004
 30
0.0
 41
1.0
 10
932.80759558766795
 20
-902.87374948544891
 30
0.0
 41
1.0
 10
932.79458983518759
 20
-902.88444458589743
 30
0.0
 41
1.0
 10
932.66022805220518
 20
-902.99493513749076
 30
0.0
 41
0.9995035112316796
 10
932.53309217444189
 20
-903.11366895450578
 30
0.0
 41
1.0
 10
932.52344486405423
 20
-903.12267870066398
 30
0.0
 41
1.0
 10
932.51379755366668
 20
-903.1316884468223
 30
0.0
 41
1.0
 10
932.39037449090199
 20
-903.24695481857782
 30
0.0
 41
0.9994630424299187
 10
932.27476608511813
 20
-903.37005756181293
 30
0.0
 41
1.0
 10
932.27108324634571
 20
-903.37397914132703
 30
0.0
 41
1.0
 10
932.26740040757329
 20
-903.37790072084101
 30
0.0
 41
1.0
 10
932.1591576793337
 20
-903.49316030504872
 30
0.0
 41
0.9995160693749974
 10
932.05829164980219
 20
-903.61492772292036
 30
0.0
 41
1.0
 10
932.05635792972021
 20
-903.61726214713008
 30
0.0
 41
1.0
 10
932.05442420963823
 20
-903.61959657133968
 30
0.0
 41
1.0
 10
931.95742562026828
 20
-903.73669514079484
 30
0.0
 41
0.9996561470513843
 10
931.86669940160436
 20
-903.85871790324177
 30
0.0
 41
1.0
 10
931.86054173570392
 20
-903.86699969228198
 30
0.0
 41
1.0
 10
931.85438406980347
 20
-903.87528148132219
 30
0.0
 41
1.0
 10
931.77597318293965
 20
-903.98074066568961
 30
0.0
 41
0.9998349055174133
 10
931.70144590100631
 20
-904.08897924935468
 30
0.0
 41
1.0
 10
931.62691861907615
 20
-904.1972178330152
 30
0.0
 41
0.9999728109559406
 10
931.55399572316935
 20
-904.30654375856511
 30
0.0
 41
1.0
 10
931.55268050775487
 20
-904.30851552807178
 30
0.0
 41
1.0
 10
931.55136529234039
 20
-904.31048729757845
 30
0.0
 41
1.0
 10
931.47581196562533
 20
-904.42375676211077
 30
0.0
 41
0.9999972147430059
 10
931.40079415526782
 20
-904.53738160492117
 30
0.0
 41
1.0
 10
931.39582261262785
 20
-904.54491169342009
 30
0.0
 41
1.0
 10
931.390851069988
 20
-904.55244178191901
 30
0.0
 41
1.0
 10
931.30589017436682
 20
-904.68112680170316
 30
0.0
 41
0.9999371979005404
 10
931.22383482496161
 20
-904.81168371548233
 30
0.0
 41
1.0
 10
931.22032594060124
 20
-904.81726664354505
 30
0.0
 41
1.0
 10
931.21681705624098
 20
-904.82284957160778
 30
0.0
 41
1.0
 10
931.12774393811128
 20
-904.96457234151831
 30
0.0
 41
0.9998272025610434
 10
931.04400054722782
 20
-905.10950821826316
 30
0.0
 41
1.0
 10
931.02878537520508
 20
-905.13584133271752
 30
0.0
 41
1.0
 10
931.01357020318233
 20
-905.16217444717199
 30
0.0
 41
1.0
 10
930.8993964682528
 20
-905.35977655282636
 30
0.0
 41
0.9995217214838141
 10
930.79765677869796
 20
-905.56405888068696
 30
0.0
 41
1.0
 10
930.79001321606006
 20
-905.57940633039573
 30
0.0
 41
1.0
 10
930.78236965342217
 20
-905.5947537801045
 30
0.0
 41
1.0
 10
930.69546436083488
 20
-905.76925023818126
 30
0.0
 41
0.9998269762608324
 10
930.61510989456463
 20
-905.94685852490079
 30
0.0
 41
1.0
 10
930.53475542829676
 20
-906.12446681161464
 30
0.0
 41
0.9998944747387092
 10
930.45959463373583
 20
-906.30433453723447
 30
0.0
 41
1.0
 10
930.45464096413662
 20
-906.31618919217112
 30
0.0
 41
1.0
 10
930.4496872945374
 20
-906.32804384710766
 30
0.0
 41
1.0
 10
930.3690402339887
 20
-906.52104078711636
 30
0.0
 41
0.9999506734408306
 10
930.29224270508894
 20
-906.71560159196338
 30
0.0
 41
1.0
 10
930.27764273982575
 20
-906.75258951374985
 30
0.0
 41
1.0
 10
930.26304277456245
 20
-906.78957743553633
 30
0.0
 41
1.0
 10
930.21544517619054
 20
-906.9101623968063
 30
0.0
 41
0.9999912393912963
 10
930.16885873216279
 20
-907.03114159951542
 30
0.0
 41
1.0
 10
930.12227228814595
 20
-907.15212080219681
 30
0.0
 41
0.9999927113982804
 10
930.07661099375844
 20
-907.27345220968027
 30
0.0
 41
1.0
 10
930.06264256235454
 20
-907.31056919169566
 30
0.0
 41
1.0
 10
930.04867413095053
 20
-907.34768617371105
 30
0.0
 41
1.0
 10
929.97507597375659
 20
-907.54325154522201
 30
0.0
 41
0.9999487550949137
 10
929.90545234878164
 20
-907.74026691041456
 30
0.0
 41
1.0
 10
929.88185873885072
 20
-907.80703022069065
 30
0.0
 41
1.0
 10
929.85826512891981
 20
-907.87379353096662
 30
0.0
 41
1.0
 10
929.7635794945478
 20
-908.14172736579621
 30
0.0
 41
0.9999808436941378
 10
929.67221790590361
 20
-908.41081279706827
 30
0.0
 41
1.0
 10
929.58085631725703
 20
-908.67989822834761
 30
0.0
 41
0.9999873932921662
 10
929.49220160853451
 20
-908.94988758337502
 30
0.0
 41
1.0
 10
929.47210925166996
 20
-909.01107691611332
 30
0.0
 41
1.0
 10
929.4520168948053
 20
-909.07226624885175
 30
0.0
 41
1.0
 10
929.32317747235152
 20
-909.46463426936157
 30
0.0
 41
0.9999794883023471
 10
929.19937468739408
 20
-909.85862047563671
 30
0.0
 41
1.0
 10
929.18822242796318
 20
-909.89411108585273
 30
0.0
 41
1.0
 10
929.1770701685324
 20
-909.92960169606863
 30
0.0
 41
1.0
 10
929.03451200463041
 20
-910.38327444816923
 30
0.0
 41
0.99999827616921
 10
928.89363956460284
 20
-910.83747347033272
 30
0.0
 41
1.0
 10
927.30549923203012
 20
-915.8862432013359
 30
0.0
 41
1.0
 10
925.71735889945739
 20
-920.93501293233908
 30
0.0
 41
1.0
 10
924.76860828798112
 20
-920.93501293233908
 30
0.0
 41
1.0
 10
923.81985767650485
 20
-920.93501293233908
 30
0.0
 41
1.0
 10
927.05814216265799
 20
-910.60769073239294
 30
0.0
 41
1.0
 10
930.29642664881112
 20
-900.2803685324468
 30
0.0
 41
1.0
  0
LWPOLYLINE
  5
60
100
AcDbEntity
  8
0
370
              15
390
0
  6
Continuous
 62
               7
100
AcDbPolyline
 90
      232
 70
             128
 10
904.59288087498408
 20
-901.36471136396153
 42
0.0004370800685132
 10
904.54000370088602
 20
-901.43337800325219
 10
904.5007194697846
 20
-901.48448511611491
 42
0.003048199217879
 10
904.37038075263945
 20
-901.65620680849395
 10
904.331869080915
 20
-901.70759359224735
 42
0.0042058245757582
 10
904.12788403024024
 20
-901.98459933732772
 10
904.07547890774447
 20
-902.05703218410167
 42
0.0120948898741683
 10
903.77943499098569
 20
-902.48778178864666
 10
903.68324249185707
 20
-902.63526252388147
 42
0.0141601263949892
 10
903.37959844493912
 20
-903.13093186061064
 10
903.34006117751596
 20
-903.19977582803756
 42
0.0071131081302228
 10
903.13478885427469
 20
-903.56927862688076
 42
0.0068458791000072
 10
902.93990932743804
 20
-903.94437019034399
 10
902.9330974649738
 20
-903.95793190408062
 42
0.0064120880292167
 10
902.73495521492657
 20
-904.36535637900568
 10
902.72742052941248
 20
-904.38136823572063
 42
0.0058857236447469
 10
902.52466513754598
 20
-904.82574434674393
 10
902.51649021124695
 20
-904.84423450038935
 42
0.005318974189784
 10
902.30778589857277
 20
-905.33019797432348
 10
902.29903809289817
 20
-905.35117985250349
 42
0.0047503650416564
 10
902.08306436674593
 20
-905.88337928571684
 10
902.07379611839929
 20
-905.90685566182106
 42
0.0042071762173122
 10
901.84924873467719
 20
-906.48994925587533
 10
901.83949933232282
 20
-906.51591543076051
 42
0.0036680086483142
 10
901.60504468900479
 20
-907.15455081530843
 10
901.59483690916295
 20
-907.18299934963648
 42
0.0032573142628574
 10
901.34920462319167
 20
-907.88185200940302
 10
901.28055410235686
 20
-908.08131509343923
 42
0.0026133366647678
 10
900.93210890359762
 20
-909.11117837711458
 10
900.86885211609558
 20
-909.30140921251166
 42
0.0020592950742429
 10
900.65498904712979
 20
-909.95351286512073
 10
900.65193725597226
 20
-909.9629493535133
 42
0.0025609928533142
 10
900.45011675448086
 20
-910.59809457589631
 10
900.44752538735111
 20
-910.60639691684651
 42
0.0031362356242951
 10
900.25803460167731
 20
-911.22715977301618
 10
900.25590355875238
 20
-911.23430107921888
 42
0.0037229918028091
 10
900.07910317182359
 20
-911.84328638120155
 10
900.07742458261873
 20
-911.84923327137051
 42
0.004307762370659
 10
899.91368378055199
 20
-912.4490520031452
 42
0.0047654161825699
 10
899.76085505803553
 20
-913.05173809204905
 10
899.72639044919686
 20
-913.19329986919706
 42
0.0112969368445651
 10
899.53052609105407
 20
-914.08499202981716
 10
899.50251970195666
 20
-914.227820075919
 42
0.0130056762571184
 10
899.3016824583101
 20
-915.41476114756392
 10
899.28114270816297
 20
-915.5588392610415
 42
0.0138721532145251
 10
899.17743970362517
 20
-916.46566874686664
 10
899.15814421571781
 20
-916.68916646878529
 42
0.0071254697005963
 10
899.12479756979462
 20
-917.15235347763905
 10
899.11983659563009
 20
-917.23835747222233
 42
0.002888179920584
 10
899.10469830234149
 20
-917.53009918204157
 42
0.0060297297131129
 10
899.09476610256581
 20
-917.82204811815939
 10
899.09370382089867
 20
-917.87044049009353
 42
0.022952316415873
 10
899.10143484868445
 20
-918.19319533637304
 10
899.10566062220505
 20
-918.25359887039167
 42
0.0123673300674754
 10
899.12473926872326
 20
-918.45471959556403
 42
0.0128577674469857
 10
899.15393465912939
 20
-918.65461744548963
 10
899.16106053251656
 20
-918.69594626008779
 42
0.0285717853768105
 10
899.22555453421216
 20
-918.97406241140129
 10
899.23922305787812
 20
-919.020717180877
 42
0.0316283099159448
 10
899.35503363779287
 20
-919.33973168270472
 10
899.35808232954867
 20
-919.34671805503092
 42
0.0338984824236778
 10
899.50751404051562
 20
-919.63428401921942
 10
899.50982276988555
 20
-919.63807504849547
 42
0.0350228718356387
 10
899.69218306055905
 20
-919.895127033172
 10
899.69306831233371
 20
-919.89620611093562
 42
0.0347476747524657
 10
899.90749299957417
 20
-920.12339115815598
 42
0.0331337701914032
 10
900.1507363253213
 20
-920.31951982023406
 10
900.1518364238367
 20
-920.32029252340612
 42
0.0305233319088859
 10
900.42038111941042
 20
-920.48542069349742
 10
900.42361116391123
 20
-920.48714470535992
 42
0.0273744481146923
 10
900.71616487548499
 20
-920.62328284925002
 10
900.72126941062311
 20
-920.62532643371992
 42
0.024096440619963
 10
901.03674648626929
 20
-920.73431016000154
 10
901.04332981547884
 20
-920.73623489967645
 42
0.0209636179811055
 10
901.38072996813196
 20
-920.81970304760853
 10
901.38836242858008
 20
-920.82125496060985
 42
0.018138870469184
 10
901.74668482057825
 20
-920.88067105382379
 10
901.75496566895663
 20
-920.88173723764089
 42
0.0156086547583563
 10
902.13315303314459
 20
-920.91847342421772
 10
902.17634828547386
 20
-920.92131192669683
 42
0.0137148329031202
 10
902.50402143077145
 20
-920.93383218194799
 10
902.54995762072008
 20
-920.93432661506313
 42
0.0051057823880576
 10
902.78610320728967
 20
-920.93445686947211
 42
0.0052256693314036
 10
903.02220049106904
 20
-920.92970804500806
 10
903.09242727481774
 20
-920.9275610789939
 42
0.016150717904653
 10
903.46816435292271
 20
-920.90391070866724
 10
903.488177313292
 20
-920.90200051338002
 42
0.0101216737837225
 10
903.90220453478025
 20
-920.85400758301489
 10
903.93625782420952
 20
-920.84935988620487
 42
0.0245291776395237
 10
904.41304747976199
 20
-920.76028480812818
 10
904.49787079528198
 20
-920.74008888778337
 42
0.0143509212558228
 10
904.85450189922426
 20
-920.64428425400388
 42
0.015655785703601
 10
905.2047179639502
 20
-920.52727303818563
 10
905.21221917844628
 20
-920.52450287643092
 42
0.0170137333633935
 10
905.5688151741308
 20
-920.37884526155835
 10
905.57591909653502
 20
-920.37565742599622
 42
0.0183105364407548
 10
905.93526876469957
 20
-920.19832238417291
 10
905.94221552934005
 20
-920.19457194929987
 42
0.0194899958155347
 10
906.30069627032731
 20
-919.98259296740707
 10
906.30771014966081
 20
-919.97806762511414
 42
0.0204869852945705
 10
906.66172445175209
 20
-919.72854761003032
 10
906.66899006034168
 20
-919.72296754467993
 42
0.0212516938559927
 10
907.0149799914501
 20
-919.43306354778485
 10
907.06149668552564
 20
-919.39059623769117
 42
0.0215248918250412
 10
907.32152285441293
 20
-919.13183195869692
 10
907.36655258879682
 20
-919.08298783734358
 42
0.0114578554957066
 10
907.52134474247089
 20
-918.907164903889
 10
907.53253927845049
 20
-918.89384614035203
 42
0.0061531305134031
 10
907.65901392445198
 20
-918.73955660703791
 42
0.0006325587122713
 10
907.78339240865319
 20
-918.58355323129979
 10
907.80643254365521
 20
-918.55457971070268
 42
0.0041897761554521
 10
907.97488794763478
 20
-918.33906033463199
 10
908.03335006752013
 20
-918.26295898765579
 42
0.0092993880040253
 10
908.30996199474896
 20
-917.88868022376494
 10
908.39235648794124
 20
-917.77274322020571
 42
0.0159321727085633
 10
908.73896297058513
 20
-917.25056899944707
 10
908.78331910597603
 20
-917.17888943519404
 42
0.0085547317019427
 10
909.01783087130002
 20
-916.7850144859724
 42
0.0084601156890895
 10
909.23880704873898
 20
-916.3833876369464
 10
909.2469225225725
 20
-916.36802795466724
 42
0.0081429654285137
 10
909.47017179301042
 20
-915.92830644212518
 10
909.47903195719391
 20
-915.91012760010676
 42
0.0076574581327281
 10
909.70543946776593
 20
-915.4269447248422
 10
909.71491910848431
 20
-915.40588024655085
 42
0.0070682724206246
 10
909.94536401629512
 20
-914.87384294176024
 10
909.9553543002728
 20
-914.84985375275824
 42
0.0064559514443835
 10
910.19068750844781
 20
-914.26354148625603
 10
910.20109686661942
 20
-914.23660656079687
 42
0.0058311413905982
 10
910.44214360338265
 20
-913.59057446641202
 10
910.45289868076975
 20
-913.56069012525245
 42
0.0052312425818221
 10
910.70047995880918
 20
-912.84948771142206
 10
910.71152379519037
 20
-912.81666099934841
 42
0.0046680544797392
 10
910.9664522229267
 20
-912.03483468358763
 10
911.00844437296985
 20
-911.90185144629663
 42
0.0041666856444141
 10
911.21173038536335
 20
-911.23888267129564
 10
911.24939282603702
 20
-911.11230156360898
 42
0.0015170975156543
 10
911.37057940444026
 20
-910.70043321214848
 42
-0.0004887993112485
 10
911.49091917758903
 20
-910.28831480001941
 10
911.56739643505841
 20
-910.02735741416541
 42
0.0002583378926508
 10
911.84061100513304
 20
-909.09330071095087
 10
911.92238385467647
 20
-908.81320145148152
 42
0.0006636169672048
 10
912.11625161471079
 20
-908.1458485278165
 10
912.12134826907345
 20
-908.12821694488252
 42
0.0010589131324114
 10
912.30279696997445
 20
-907.49548560188782
 10
912.30777904046397
 20
-907.4779726948359
 42
0.0015655524463832
 10
912.47604924763766
 20
-906.87935601566664
 10
912.48087944804263
 20
-906.86196385676669
 42
0.0021640440476549
 10
912.63516942003855
 20
-906.29693683871233
 10
912.63980363946996
 20
-906.27967210871293
 42
0.0028763871850941
 10
912.77931935752144
 20
-905.74770415787157
 10
912.78370522169246
 20
-905.73058017970254
 42
0.0037310511948541
 10
912.90766191352554
 20
-905.23113258569333
 10
912.91173713381272
 20
-905.2141723144556
 42
0.0047652197767706
 10
913.01936103432308
 20
-904.74669454614263
 10
913.0230516336469
 20
-904.72993499099073
 42
0.0060276699303059
 10
913.11358173280018
 20
-904.29385919584843
 10
913.11680042309092
 20
-904.27735798153117
 42
0.0075824337757429
 10
913.18948973250474
 20
-903.8720908171133
 10
913.19213510988504
 20
-903.85593586966286
 42
0.0095130624608895
 10
913.24625034551616
 20
-903.48084651659087
 10
913.25323656939838
 20
-903.42491295847663
 42
0.0121054653223157
 10
913.27982789997668
 20
-903.16001713000037
 10
913.28069438973625
 20
-903.14861368707
 42
0.0069050827392118
 10
913.29578320777398
 20
-902.90567246022715
 10
913.29691850744257
 20
-902.88214620318104
 42
0.0169063976699777
 10
913.2997457864227
 20
-902.68595347588166
 10
913.29857513489139
 20
-902.62561771453306
 42
0.0052007732883306
 10
913.2963216862986
 20
-902.55002432438027
 42
0.0054038123296853
 10
913.27635817445776
 20
-902.43000602835912
 10
913.27127231858924
 20
-902.40134754178939
 42
0.0112050460466294
 10
913.23588795652984
 20
-902.22502110344647
 10
913.21806299448997
 20
-902.14547951672944
 42
0.0240764468006584
 10
913.12716562834373
 20
-901.81524248122798
 10
913.10860686553019
 20
-901.75862231623353
 42
0.0256812331838694
 10
912.96524394534094
 20
-901.38689810997698
 10
912.95983451951986
 20
-901.37476677498807
 42
0.026836050121412
 10
912.79040727866959
 20
-901.04377364096649
 10
912.78487087103485
 20
-901.03425397065473
 42
0.0274670231730776
 10
912.59266989462117
 20
-900.74196659573704
 10
912.58728859465782
 20
-900.73468744819468
 42
0.0275035967098076
 10
912.3757157150967
 20
-900.4791715578915
 10
912.37064621413003
 20
-900.47369247026097
 42
0.0269557673531454
 10
912.1432426706906
 20
-900.25305018429867
 10
912.13849961290759
 20
-900.24892022983761
 42
0.0259124802209369
 10
911.89894478147721
 20
-900.06122970268575
 10
911.89441393629511
 20
-900.05804420035531
 42
0.0245162152997492
 10
911.64649758320058
 20
-899.90131119124476
 10
911.64197103687695
 20
-899.89875099404424
 42
0.0229282588848723
 10
911.38955148004902
 20
-899.77088280154499
 10
911.38477098621377
 20
-899.76873050178369
 42
0.0212984135683842
 10
911.13173303375049
 20
-899.66753158454071
 10
911.12642874878009
 20
-899.66566802178045
 42
0.019755546235641
 10
910.87665041105799
 20
-899.58885260381589
 42
0.018351189678202
 10
910.62172168559243
 20
-899.53126969685025
 10
910.5353564888735
 20
-899.51506690646602
 42
0.0338057877144405
 10
910.24984913961157
 20
-899.48125850132533
 10
910.15884373456799
 20
-899.47667884606369
 42
0.0091990524485639
 10
910.05299662593552
 20
-899.47330299014152
 42
0.0028333980806699
 10
909.94708270993692
 20
-899.47247488262485
 10
909.94616725689332
 20
-899.47247291280087
 42
-0.0023619827818759
 10
909.83842124176522
 20
-899.47173207172239
 10
909.80201607161155
 20
-899.47130976525955
 42
0.0008824598483883
 10
909.62146008173454
 20
-899.46953398702101
 10
909.57759864935565
 20
-899.46918002549569
 42
0.0038132665761741
 10
909.30931575349075
 20
-899.46906108942892
 10
909.29278209868335
 20
-899.46917985557252
 42
0.0060665569344365
 10
908.99150160708371
 20
-899.47500015499361
 10
908.97725127506669
 20
-899.47544846296091
 42
0.0080356953332049
 10
908.64779255872907
 20
-899.49111618502786
 10
908.63572254364021
 20
-899.49188476796849
 42
0.0098996399102334
 10
908.28295945899208
 20
-899.52136999716618
 10
908.27291374961464
 20
-899.5224102933646
 42
0.0117740981371554
 10
907.90175689126295
 20
-899.5697025408947
 10
907.89353419478334
 20
-899.57094765746501
 42
0.0137435215136748
 10
907.50894537529916
 20
-899.64004463102663
 10
907.50228833617496
 20
-899.64143052726035
 42
0.0158359869385541
 10
907.10929124236804
 20
-899.73632261574244
 10
907.10387805550533
 20
-899.73781255661174
 42
0.0180554124023701
 10
906.7075630108983
 20
-899.86245057284839
 10
906.70300622280956
 20
-899.86406660911666
 42
0.020365743128487
 10
906.30852870499371
 20
-900.02232695063412
 10
906.30438516599088
 20
-900.02418857207408
 42
0.0226819684659814
 10
905.91694910978867
 20
-900.21983115074454
 10
905.9127493187691
 20
-900.22219674266512
 42
0.0248634984598253
 10
905.53756737758977
 20
-900.45882338861122
 10
905.48937244880108
 20
-900.49268043044015
 42
0.0267044190887866
 10
905.21507975188729
 20
-900.70812080630617
 42
0.0139303002203802
 10
904.95891258594861
 20
-900.94535964721831
 10
904.95405920022768
 20
-900.95011231007834
 42
0.0283460963432271
 10
904.70998660600139
 20
-901.21784297052193
 10
904.67031810084382
 20
-901.26664454799607
 42
0.0070695364826256
 10
904.59288087498408
 20
-901.36471136396153
 42
0.0070695364826256
  0
LWPOLYLINE
  5
61
100
AcDbEntity
  8
0
370
              15
390
0
  6
Continuous
 62
               7
100
AcDbPolyline
 90
      226
 70
             128
 10
901.06406043773768
 20
-917.08630017014616
 42
-0.0026277636614081
 10
901.06398255393754
 20
-917.0195282444015
 10
901.06419991216967
 20
-916.96637302695967
 42
-0.0088680296730262
 10
901.06797652846285
 20
-916.79335724455495
 10
901.07032288757523
 20
-916.73407721910303
 42
-0.0077381705614383
 10
901.08636899833789
 20
-916.44281672331078
 10
901.08723690951138
 20
-916.43052848961975
 42
-0.0068872530534877
 10
901.11386898925934
 20
-916.1153067375518
 10
901.11507321344561
 20
-916.10306575853178
 42
-0.0062130021482148
 10
901.15266693027502
 20
-915.76419606728052
 10
901.15417083380862
 20
-915.75202219537664
 42
-0.0056726929670231
 10
901.20309269331142
 20
-915.38982697325991
 10
901.20486613895525
 20
-915.37773317301821
 42
-0.0052341884490552
 10
901.26547672521679
 20
-914.99253991749072
 10
901.26749471399182
 20
-914.98053498750801
 42
-0.0049768450171366
 10
901.34023339541818
 20
-914.57269042007545
 10
901.36448241014
 20
-914.4441424370691
 42
-0.0089029805625344
 10
901.50156326193394
 20
-913.78236698965088
 10
901.53430863725339
 20
-913.63733555912336
 42
-0.0080318257098382
 10
901.76385725159412
 20
-912.69162592726923
 10
901.77584217804224
 20
-912.64549529207966
 42
-0.0074265721319562
 10
902.05985371689258
 20
-911.61543071369761
 10
902.07973326000956
 20
-911.54729665310708
 42
-0.0069711922702544
 10
902.40703783851552
 20
-910.48102891278154
 10
902.4669897856237
 20
-910.29500755440256
 42
-0.0052070422893065
 10
902.69641501088029
 20
-909.60773547737949
 10
902.71369620305575
 20
-909.55770819675274
 42
-0.0009167004448923
 10
902.91678809034192
 20
-908.97325234860841
 42
-0.0025162726944841
 10
903.12388572059297
 20
-908.3902110844781
 10
903.1611103324143
 20
-908.28706153852863
 42
-0.0028212681456549
 10
903.40928625137303
 20
-907.61133090636963
 10
903.41911701412982
 20
-907.58502346167654
 42
-0.0031964916822652
 10
903.65540927178608
 20
-906.96481869956574
 10
903.66504372578754
 20
-906.94000870941602
 42
-0.0036281836450798
 10
903.89014968688639
 20
-906.37256802852949
 10
903.89958809703978
 20
-906.34927059703659
 42
-0.004126916683179
 10
904.11420579370292
 20
-905.83182970104849
 10
904.14683875011747
 20
-905.75495125470184
 42
-0.0047472213057529
 10
904.3038835556772
 20
-905.39452978680379
 10
904.31077763689029
 20
-905.37910918946079
 42
-0.0025651659997533
 10
904.45913567073558
 20
-905.05178113372335
 42
-0.0057144634994465
 10
904.61288536450365
 20
-904.72697146036774
 10
904.64091606991269
 20
-904.6694630779574
 42
-0.0065388068373043
 10
904.82438309764802
 20
-904.30523058130143
 10
904.8328415534296
 20
-904.28897100192592
 42
-0.0074510843023297
 10
905.00902379930437
 20
-903.9622827208093
 10
905.01720346983177
 20
-903.94764194354707
 42
-0.0084648979860732
 10
905.18683732293539
 20
-903.65573293257944
 10
905.19469344942513
 20
-903.64272594092586
 42
-0.0095638542806523
 10
905.35852889701778
 20
-903.38283706895004
 10
905.36600384069061
 20
-903.37146770749291
 42
-0.0107191626804136
 10
905.52480542107719
 20
-903.14085647295065
 10
905.53182215480592
 20
-903.13112038058921
 42
-0.0118458573900517
 10
905.68637025332077
 20
-902.92704818527523
 42
-0.0129184518193709
 10
905.85082287692228
 20
-902.73088766910462
 10
905.88096764928628
 20
-902.69676159020412
 42
-0.0217742579635604
 10
906.05757997162061
 20
-902.51355481995529
 10
906.06832551608056
 20
-902.50333798675274
 42
-0.0097266568649142
 10
906.23438313493671
 20
-902.35149041231512
 42
-0.0187720905719188
 10
906.40873071082581
 20
-902.20942155892635
 10
906.43943670149827
 20
-902.1862624765314
 42
-0.0179428207521719
 10
906.6718574214965
 20
-902.0237102994181
 10
906.67550974841151
 20
-902.02134636453081
 42
-0.017004787770009
 10
906.91127338594265
 20
-901.87988585037897
 10
906.91505637468845
 20
-901.87778754534315
 42
-0.016019078836319
 10
907.15196492232462
 20
-901.7561362433546
 42
-0.0151102861488941
 10
907.39599670477321
 20
-901.64945346729894
 10
907.44838320698318
 20
-901.62841333440497
 42
-0.0271945441889971
 10
907.8070457660433
 20
-901.50654852369837
 10
907.87611056652861
 20
-901.48719898243291
 42
-0.0237596594019413
 10
908.29190741355183
 20
-901.39174827045122
 10
908.35997026728205
 20
-901.37949358232447
 42
-0.0213715440559491
 10
908.64584519872756
 20
-901.34054655081468
 10
908.70599236494286
 20
-901.33495683611409
 42
-0.0101465655805698
 10
908.87348489693977
 20
-901.32281329284956
 10
908.8828252831421
 20
-901.32232637785205
 42
-0.0100375910887158
 10
909.03197938370067
 20
-901.31755055992676
 10
909.04223865338099
 20
-901.31742812091227
 42
-0.0103625633378407
 10
909.17094664803585
 20
-901.31855955443893
 10
909.19321229930006
 20
-901.3192169129037
 42
-0.011568925025471
 10
909.27726303683062
 20
-901.32364641914933
 42
-0.0072438037401263
 10
909.3611013162789
 20
-901.33123561889988
 10
909.37790182574258
 20
-901.3330021616232
 42
-0.0217917313129468
 10
909.49447158905753
 20
-901.35042205434445
 10
909.56007167962412
 20
-901.36316866275877
 42
-0.033294355675313
 10
909.76446384465123
 20
-901.41720895406547
 10
909.79463641320012
 20
-901.42737703118348
 42
-0.0184824084808649
 10
909.93314146966679
 20
-901.47982804657045
 42
-0.0198002050690627
 10
910.06721581016632
 20
-901.54271210676995
 10
910.06910244754306
 20
-901.5436898936498
 42
-0.0212242342980323
 10
910.20124138994493
 20
-901.61945263244297
 10
910.20305668548838
 20
-901.62059843465136
 42
-0.02260906057866
 10
910.33156058670863
 20
-901.71007807821468
 10
910.33340502844749
 20
-901.71149033120332
 42
-0.0238457052241167
 10
910.45658710974033
 20
-901.81548622706543
 10
910.45853983829954
 20
-901.81730110483181
 42
-0.0248160564149222
 10
910.57474134560005
 20
-901.93657570604034
 10
910.5768449790022
 20
-901.93896103974498
 42
-0.0254109591451499
 10
910.68445019686897
 20
-902.07424942571049
 10
910.68669821878223
 20
-902.0773909741099
 42
-0.0255528488282445
 10
910.78414489757949
 20
-902.22941802834407
 10
910.78647599749559
 20
-902.23349963995156
 42
-0.0252146793229804
 10
910.87225702350474
 20
-902.40300188594836
 10
910.87455926266239
 20
-902.40818396786131
 42
-0.0244265635943925
 10
910.94721395642432
 20
-902.59593053990909
 10
910.95646035789127
 20
-902.62379595824279
 42
-0.0231319612910454
 10
911.00238313688419
 20
-902.78709700504737
 42
-0.0112130424352915
 10
911.03701915942236
 20
-902.95330060523543
 10
911.03822168453485
 20
-902.95979719212323
 42
-0.0210527881242131
 10
911.06390815990528
 20
-903.1408528375589
 10
911.06741875472767
 20
-903.17625838611161
 42
-0.0190029892419339
 10
911.08286022827247
 20
-903.42979423238739
 10
911.08367020471633
 20
-903.46526984675324
 42
-0.0137974553666803
 10
911.08212135188114
 20
-903.79030125347469
 10
911.08127589692526
 20
-903.81641999807732
 42
-0.0081336634216156
 10
911.06641656170268
 20
-904.12176746567843
 42
-0.0073526923570242
 10
911.04210802832756
 20
-904.42651570996907
 10
911.04084660454532
 20
-904.4398523846296
 42
-0.0066886138693416
 10
911.00511101849941
 20
-904.77043842812213
 10
911.00345392902886
 20
-904.78406004711837
 42
-0.0061359187352452
 10
910.95560332697721
 20
-905.14082402722352
 10
910.95356582590512
 20
-905.15471883004761
 42
-0.0056698610064514
 10
910.89291549513587
 20
-905.53799739889837
 10
910.89051006181501
 20
-905.55215651811636
 42
-0.0052721077272535
 10
910.81637786101351
 20
-905.96228385780375
 10
910.8136147121736
 20
-905.97670049318026
 42
-0.0049289272177573
 10
910.72532059407251
 20
-906.41400900430733
 10
910.72220809939097
 20
-906.42867785711837
 42
-0.004741595670961
 10
910.61897010785742
 20
-906.89347461453406
 10
910.58420189749882
 20
-907.04328170991243
 42
-0.0084404470902993
 10
910.39418545392857
 20
-907.80350573443832
 10
910.38805876594142
 20
-907.82636985859722
 42
-0.0039635940258588
 10
910.16660508165489
 20
-908.62735872285384
 10
910.153228286478
 20
-908.67429033943631
 42
-0.0072475040836878
 10
909.88578139861386
 20
-909.56351005582951
 10
909.81556907178765
 20
-909.78525040579768
 42
-0.0051345458826572
 10
909.52880969972853
 20
-910.65957559360936
 10
909.50728343298306
 20
-910.72300186067457
 42
-0.0019150016603953
 10
909.25175002609444
 20
-911.46655098096539
 10
909.24528242168094
 20
-911.48513844593629
 42
-0.0021524362751172
 10
908.99680437063432
 20
-912.18946426759499
 10
908.98759394994579
 20
-912.21521784587435
 42
-0.0024331286820927
 10
908.75133869090189
 20
-912.86581715401485
 10
908.7422907383559
 20
-912.89036046035687
 42
-0.0027449721791028
 10
908.5176761675159
 20
-913.48949033929352
 10
908.50878616011494
 20
-913.51281292916872
 42
-0.0031083229765409
 10
908.2952436735136
 20
-914.0627369667252
 10
908.2865075418506
 20
-914.08482668255135
 42
-0.0035311343282109
 10
908.08346635624628
 20
-914.5878098083133
 10
908.07488101710089
 20
-914.60865253181805
 42
-0.0040245640949481
 10
907.88176921330421
 20
-915.06696185441638
 10
907.8733330996954
 20
-915.08654122250186
 42
-0.0046015135850527
 10
907.68957680653739
 20
-915.50244625213077
 10
907.68129062871071
 20
-915.52074339157934
 42
-0.0052768638270986
 10
907.50631310975359
 20
-915.89651627585295
 10
907.49818089912833
 20
-915.91350961439264
 42
-0.0060672675642946
 10
907.33140128636069
 20
-916.25142523751015
 10
907.32343180587679
 20
-916.26709049651208
 42
-0.006990464886786
 10
907.16426341187753
 20
-916.56942630317121
 10
907.15647201227489
 20
-916.58373685238359
 42
-0.0080637022770159
 10
907.00432015192087
 20
-916.85277215555175
 10
906.99673111928689
 20
-916.86570002115707
 42
-0.0093006455668767
 10
906.85099044275819
 20
-917.10371441965549
 10
906.84363977601549
 20
-917.11523238882717
 42
-0.0107060778049344
 10
906.70369123257603
 20
-917.3245027062078
 10
906.69662946429946
 20
-917.33458824876936
 42
-0.0122723111421066
 10
906.56183574609827
 20
-917.51738157826253
 10
906.56150952254109
 20
-917.51780196607615
 42
-0.0141836319613601
 10
906.41792791957027
 20
-917.69237172390172
 10
906.41098016392073
 20
-917.70034672416375
 42
-0.0175957477219311
 10
906.27107399588363
 20
-917.84996761257139
 42
-0.0080466359667908
 10
906.12361023085384
 20
-917.99229014072193
 10
906.07757568633588
 20
-918.03531057881378
 42
-0.0269600260396532
 10
905.8242954403529
 20
-918.24763383732329
 10
905.75772830405992
 20
-918.29758525194416
 42
-0.0178362839760482
 10
905.51778381440022
 20
-918.46460317819924
 10
905.51053884339694
 20
-918.46927169040589
 42
-0.0174650732642141
 10
905.27420264595844
 20
-918.61013265536326
 42
-0.0169240130171307
 10
905.02873640010023
 20
-918.73442491514095
 10
904.98275024454279
 20
-918.75578687070788
 42
-0.0318883036833941
 10
904.63239938892161
 20
-918.89212518021839
 10
904.56403385375904
 20
-918.91382580069319
 42
-0.0284435909908098
 10
904.1879837274671
 20
-919.01004323616803
 10
904.15282556696866
 20
-919.01693683199642
 42
-0.0243909341005676
 10
903.8393821060497
 20
-919.06265786302652
 10
903.78910137927892
 20
-919.06750340992824
 42
-0.0196639292934174
 10
903.57350580175125
 20
-919.07975169544193
 10
903.52168173058658
 20
-919.08065495617871
 42
-0.0100501510691523
 10
903.40925844892354
 20
-919.08035455782533
 10
903.37759858757943
 20
-919.07963348593989
 42
-0.0019752031101169
 10
903.32850625089804
 20
-919.07832132573026
 10
903.32574594767198
 20
-919.07823663390388
 42
0.0065378752017612
 10
903.28216937292109
 20
-919.07746974268935
 42
-0.0167974694695273
 10
903.23863854998865
 20
-919.07580984416325
 10
903.23455921072718
 20
-919.07551683326824
 42
-0.0081283276262258
 10
903.18299941299392
 20
-919.07096983963049
 10
903.17125983911012
 20
-919.06974192205166
 42
-0.0126703440177203
 10
903.09654154331804
 20
-919.06000713098047
 10
903.07375367563998
 20
-919.05644887506492
 42
-0.0117852088432093
 10
902.95421468980669
 20
-919.03488587990762
 10
902.89883423804463
 20
-919.02354233967321
 42
-0.0251774592293747
 10
902.67199019903683
 20
-918.96504433024029
 10
902.62727100918369
 20
-918.9510775109045
 42
-0.0146525199890301
 10
902.44087802164722
 20
-918.88681098370694
 42
-0.0166929435856623
 10
902.25890036552232
 20
-918.81100385065304
 10
902.25424373424732
 20
-918.80887895003821
 42
-0.0191684358428219
 10
902.06906010299747
 20
-918.71564286624823
 10
902.06572751724104
 20
-918.71380161869524
 42
-0.0221181781821978
 10
901.88241721333861
 20
-918.60166812032458
 10
901.88006740933042
 20
-918.60008382233377
 42
-0.0254984685385636
 10
901.70377725894502
 20
-918.46767267236373
 10
901.68129511124334
 20
-918.44892036342753
 42
-0.0292492648800142
 10
901.55652617240025
 20
-918.33182756378415
 42
-0.0159048957497621
 10
901.44268617495095
 20
-918.20380757218618
 10
901.44136738437078
 20
-918.20222595916516
 42
-0.0343813379568752
 10
901.33873012274432
 20
-918.06035463339538
 10
901.30723859138402
 20
-918.00985124130227
 42
-0.036911727569922
 10
901.22134608948636
 20
-917.84637400035331
 42
-0.0191751379908922
 10
901.15415270392896
 20
-917.6739693943465
 10
901.15238938016978
 20
-917.66887604967246
 42
-0.0378178042226289
 10
901.1025946613853
 20
-917.4799352735896
 10
901.09659936565583
 20
-917.44737465539708
 42
-0.0184846046475476
 10
901.07588216636088
 20
-917.30562183484949
 42
-0.0179866351328416
 10
901.06554916128744
 20
-917.16273102177036
 10
901.0654927188416
 20
-917.16117333515535
 42
-0.0085497186140216
 10
901.06406043773768
 20
-917.08630017014616
 42
-0.0085497186140216
  0
ENDBLK
  5
62
100
AcDbEntity
  8
template
390
0
100
AcDbBlockEnd
  0
BLOCK
  5
63
100
AcDbEntity
  8
notes
390
0
100
AcDbBlockBegin
  2
*D4
 70
               1
 10
0.0
 20
0.0
 30
0.0
  3
*D4
  1

  0
LINE
  5
64
100
AcDbEntity
  8
0
370
              -2
390
0
  6
Continuous
 62
               0
100
AcDbLine
 10
717.11745013467817
 20
-141.75980707877548
 30
0.0
 11
717.11745013467817
 21
-48.759183163845051
 31
0.0
  0
LINE
  5
65
100
AcDbEntity
  8
0
370
              -2
390
0
  6
Continuous
 62
               0
100
AcDbLine
 10
637.11745013467817
 20
-123.75918316384505
 30
0.0
 11
637.11745013467817
 21
-48.759183163845051
 31
0.0
  0
LINE
  5
66
100
AcDbEntity
  8
0
370
              -2
390
0
  6
Continuous
 62
               0
100
AcDbLine
 10
717.11745013467817
 20
-48.759183163845051
 30
0.0
 11
637.11745013467817
 21
-48.759183163845051
 31
0.0
  0
CIRCLE
  5
67
102
{ACAD_REACTORS
330
68
102
}
100
AcDbEntity
  8
0
370
              -2
390
0
  6
Continuous
 62
               0
100
AcDbCircle
 10
717.11745013467817
 20
-48.759183163845051
 30
0.0
 40
4.99969482421875
  0
HATCH
  5
68
100
AcDbEntity
  8
0
370
              -2
390
0
  6
Continuous
 62
               0
100
AcDbHatch
 10
0.0
 20
0.0
 30
0.0
210
0.0
220
0.0
230
1.0
  2
SOLID
 70
               1
 71
               1
 91
        1
 92
        1
 93
        1
 72
               2
 10
717.11745013467817
 20
-48.759183163845051
 40
4.99969482421875
 50
0.0
 51
360.0
 73
               0
 97
        1
330
67
 75
               0
 76
               1
 98
        1
 10
0.0
 20
0.0
  0
CIRCLE
  5
69
102
{ACAD_REACTORS
330
6A
102
}
100
AcDbEntity
  8
0
370
              -2
390
0
  6
Continuous
 62
               0
100
AcDbCircle
 10
637.11745013467817
 20
-48.759183163845051
 30
0.0
 40
4.99969482421875
  0
HATCH
  5
6A
100
AcDbEntity
  8
0
370
              -2
390
0
  6
Continuous
 62
               0
100
AcDbHatch
 10
0.0
 20
0.0
 30
0.0
210
0.0
220
0.0
230
1.0
  2
SOLID
 70
               1
 71
               1
 91
        1
 92
        1
 93
        1
 72
               2
 10
637.11745013467817
 20
-48.759183163845051
 40
4.99969482421875
 50
0.0
 51
360.0
 73
               0
 97
        1
330
69
 75
               0
 76
               1
 98
        1
 10
0.0
 20
0.0
  0
MTEXT
  5
6B
100
AcDbEntity
  8
0
390
0
 62
               0
100
AcDbMText
 10
661.24245013467817
 20
-14.881565976345058
 30
0.0
 40
24.432617187500004
 41
0.0
 71
               1
 72
               1
  1
80
  7
ＭＳ ゴシック
 73
               1
 44
0.7828267384257843
  0
POINT
  5
6C
100
AcDbEntity
  8
Defpoints
370
               0
390
0
 62
               0
100
AcDbPoint
 10
637.11745013467817
 20
-148.75918316384505
 30
0.0
  0
POINT
  5
6D
100
AcDbEntity
  8
Defpoints
370
               0
390
0
 62
               0
100
AcDbPoint
 10
717.11745013467817
 20
-166.75980707877548
 30
0.0
  0
POINT
  5
6E
100
AcDbEntity
  8
Defpoints
370
               0
390
0
 62
               0
100
AcDbPoint
 10
717.11745013467817
 20
-48.759183163845051
 30
0.0
  0
ENDBLK
  5
6F
100
AcDbEntity
  8
notes
390
0
100
AcDbBlockEnd
  0
BLOCK
  5
70
100
AcDbEntity
  8
notes
390
0
100
AcDbBlockBegin
  2
*D5
 70
               1
 10
0.0
 20
0.0
 30
0.0
  3
*D5
  1

  0
LINE
  5
71
100
AcDbEntity
  8
0
370
              -2
390
0
  6
Continuous
 62
               0
100
AcDbLine
 10
537.11810117634536
 20
-359.27757509092817
 30
0.0
 11
537.11810117634536
 21
-434.27757509092817
 31
0.0
  0
LINE
  5
72
100
AcDbEntity
  8
0
370
              -2
390
0
  6
Continuous
 62
               0
100
AcDbLine
 10
717.11745013467817
 20
-193.76140755620602
 30
0.0
 11
717.11745013467817
 21
-434.27757509092817
 31
0.0
  0
LINE
  5
73
100
AcDbEntity
  8
0
370
              -2
390
0
  6
Continuous
 62
               0
100
AcDbLine
 10
537.11810117634536
 20
-434.27757509092817
 30
0.0
 11
717.11745013467817
 21
-434.27757509092817
 31
0.0
  0
CIRCLE
  5
74
102
{ACAD_REACTORS
330
75
102
}
100
AcDbEntity
  8
0
370
              -2
390
0
  6
Continuous
 62
               0
100
AcDbCircle
 10
537.11810117634536
 20
-434.27757509092817
 30
0.0
 40
4.99969482421875
  0
HATCH
  5
75
100
AcDbEntity
  8
0
370
              -2
390
0
  6
Continuous
 62
               0
100
AcDbHatch
 10
0.0
 20
0.0
 30
0.0
210
0.0
220
0.0
230
1.0
  2
SOLID
 70
               1
 71
               1
 91
        1
 92
        1
 93
        1
 72
               2
 10
537.11810117634536
 20
-434.27757509092817
 40
4.99969482421875
 50
0.0
 51
360.0
 73
               0
 97
        1
330
74
 75
               0
 76
               1
 98
        1
 10
0.0
 20
0.0
  0
CIRCLE
  5
76
102
{ACAD_REACTORS
330
77
102
}
100
AcDbEntity
  8
0
370
              -2
390
0
  6
Continuous
 62
               0
100
AcDbCircle
 10
717.11745013467817
 20
-434.27757509092817
 30
0.0
 40
4.99969482421875
  0
HATCH
  5
77
100
AcDbEntity
  8
0
370
              -2
390
0
  6
Continuous
 62
               0
100
AcDbHatch
 10
0.0
 20
0.0
 30
0.0
210
0.0
220
0.0
230
1.0
  2
SOLID
 70
               1
 71
               1
 91
        1
 92
        1
 93
        1
 72
               2
 10
717.11745013467817
 20
-434.27757509092817
 40
4.99969482421875
 50
0.0
 51
360.0
 73
               0
 97
        1
330
76
 75
               0
 76
               1
 98
        1
 10
0.0
 20
0.0
  0
MTEXT
  5
78
100
AcDbEntity
  8
0
390
0
 62
               0
100
AcDbMText
 10
603.30527397333617
 20
-400.39995790342823
 30
0.0
 40
24.432617187500004
 41
0.0
 71
               1
 72
               1
  1
180
  7
ＭＳ ゴシック
 73
               1
 44
0.7828267384257843
  0
POINT
  5
79
100
AcDbEntity
  8
Defpoints
370
               0
390
0
 62
               0
100
AcDbPoint
 10
717.11745013467817
 20
-168.76140755620602
 30
0.0
  0
POINT
  5
7A
100
AcDbEntity
  8
Defpoints
370
               0
390
0
 62
               0
100
AcDbPoint
 10
537.11810117634536
 20
-334.27757509092817
 30
0.0
  0
POINT
  5
7B
100
AcDbEntity
  8
Defpoints
370
               0
390
0
 62
               0
100
AcDbPoint
 10
537.11810117634536
 20
-434.27757509092817
 30
0.0
  0
ENDBLK
  5
7C
100
AcDbEntity
  8
notes
390
0
100
AcDbBlockEnd
  0
BLOCK
  5
7D
100
AcDbEntity
  8
notes
390
0
100
AcDbBlockBegin
  2
*D6
 70
               1
 10
0.0
 20
0.0
 30
0.0
  3
*D6
  1

  0
LINE
  5
7E
100
AcDbEntity
  8
0
370
              -2
390
0
  6
Continuous
 62
               0
100
AcDbLine
 10
557.6980076437012
 20
-148.75918316384505
 30
0.0
 11
538.68818489829937
 21
-148.75918316384505
 31
0.0
  0
LINE
  5
7F
100
AcDbEntity
  8
0
370
              -2
390
0
  6
Continuous
 62
               0
100
AcDbLine
 10
557.6980076437012
 20
-268.75918316384502
 30
0.0
 11
538.68818489829937
 21
-268.75918316384502
 31
0.0
  0
LINE
  5
80
100
AcDbEntity
  8
0
370
              -2
390
0
  6
Continuous
 62
               0
100
AcDbLine
 10
538.68818489829937
 20
-148.75918316384505
 30
0.0
 11
538.68818489829937
 21
20.113592443794005
 31
0.0
  0
LINE
  5
81
100
AcDbEntity
  8
0
370
              -2
390
0
  6
Continuous
 62
               0
100
AcDbLine
 10
538.68818489829937
 20
-148.75918316384505
 30
0.0
 11
538.68818489829937
 21
-268.75918316384502
 31
0.0
  0
CIRCLE
  5
82
102
{ACAD_REACTORS
330
83
102
}
100
AcDbEntity
  8
0
370
              -2
390
0
  6
Continuous
 62
               0
100
AcDbCircle
 10
538.68818489829937
 20
-148.75918316384505
 30
0.0
 40
4.99969482421875
  0
HATCH
  5
83
100
AcDbEntity
  8
0
370
              -2
390
0
  6
Continuous
 62
               0
100
AcDbHatch
 10
0.0
 20
0.0
 30
0.0
210
0.0
220
0.0
230
1.0
  2
SOLID
 70
               1
 71
               1
 91
        1
 92
        1
 93
        1
 72
               2
 10
538.68818489829937
 20
-148.75918316384505
 40
4.99969482421875
 50
0.0
 51
360.0
 73
               0
 97
        1
330
82
 75
               0
 76
               1
 98
        1
 10
0.0
 20
0.0
  0
CIRCLE
  5
84
102
{ACAD_REACTORS
330
85
102
}
100
AcDbEntity
  8
0
370
              -2
390
0
  6
Continuous
 62
               0
100
AcDbCircle
 10
538.68818489829937
 20
-268.75918316384502
 30
0.0
 40
4.99969482421875
  0
HATCH
  5
85
100
AcDbEntity
  8
0
370
              -2
390
0
  6
Continuous
 62
               0
100
AcDbHatch
 10
0.0
 20
0.0
 30
0.0
210
0.0
220
0.0
230
1.0
  2
SOLID
 70
               1
 71
               1
 91
        1
 92
        1
 93
        1
 72
               2
 10
538.68818489829937
 20
-268.75918316384502
 40
4.99969482421875
 50
0.0
 51
360.0
 73
               0
 97
        1
330
84
 75
               0
 76
               1
 98
        1
 10
0.0
 20
0.0
  0
MTEXT
  5
86
100
AcDbEntity
  8
0
390
0
 62
               0
100
AcDbMText
 10
504.81056771079943
 20
-122.761407556206
 30
0.0
 40
24.432617187500004
 41
0.0
 71
               1
 72
               1
  1
120(深さ)
  7
ＭＳ ゴシック
 11
0.0
 21
1.0
 31
0.0
 73
               1
 44
0.7828267384257843
  0
POINT
  5
87
100
AcDbEntity
  8
Defpoints
370
               0
390
0
 62
               0
100
AcDbPoint
 10
532.6980076437012
 20
-268.75918316384502
 30
0.0
  0
POINT
  5
88
100
AcDbEntity
  8
Defpoints
370
               0
390
0
 62
               0
100
AcDbPoint
 10
532.6980076437012
 20
-148.75918316384505
 30
0.0
  0
POINT
  5
89
100
AcDbEntity
  8
Defpoints
370
               0
390
0
 62
               0
100
AcDbPoint
 10
538.68818489829937
 20
-148.75918316384505
 30
0.0
  0
ENDBLK
  5
8A
100
AcDbEntity
  8
notes
390
0
100
AcDbBlockEnd
  0
BLOCK
  5
8B
100
AcDbEntity
  8
notes
390
0
100
AcDbBlockBegin
  2
*D7
 70
               1
 10
0.0
 20
0.0
 30
0.0
  3
*D7
  1

  0
LINE
  5
8C
100
AcDbEntity
  8
0
370
              -2
390
0
  6
Continuous
 62
               0
100
AcDbLine
 10
-106.59759103643512
 20
-148.75918316384505
 30
0.0
 11
-17.6597137325804
 21
-148.75918316384505
 31
0.0
  0
LINE
  5
8D
100
AcDbEntity
  8
0
370
              -2
390
0
  6
Continuous
 62
               0
100
AcDbLine
 10
-347.58343498003251
 20
-333.77145529926167
 30
0.0
 11
-17.659713732580371
 21
-333.77145529926167
 31
0.0
  0
LINE
  5
8E
100
AcDbEntity
  8
0
370
              -2
390
0
  6
Continuous
 62
               0
100
AcDbLine
 10
-17.6597137325804
 20
-148.75918316384505
 30
0.0
 11
-17.659713732580371
 21
-333.77145529926167
 31
0.0
  0
CIRCLE
  5
8F
102
{ACAD_REACTORS
330
90
102
}
100
AcDbEntity
  8
0
370
              -2
390
0
  6
Continuous
 62
               0
100
AcDbCircle
 10
-17.6597137325804
 20
-148.75918316384505
 30
0.0
 40
4.99969482421875
  0
HATCH
  5
90
100
AcDbEntity
  8
0
370
              -2
390
0
  6
Continuous
 62
               0
100
AcDbHatch
 10
0.0
 20
0.0
 30
0.0
210
0.0
220
0.0
230
1.0
  2
SOLID
 70
               1
 71
               1
 91
        1
 92
        1
 93
        1
 72
               2
 10
-17.6597137325804
 20
-148.75918316384505
 40
4.99969482421875
 50
0.0
 51
360.0
 73
               0
 97
        1
330
8F
 75
               0
 76
               1
 98
        1
 10
0.0
 20
0.0
  0
CIRCLE
  5
91
102
{ACAD_REACTORS
330
92
102
}
100
AcDbEntity
  8
0
370
              -2
390
0
  6
Continuous
 62
               0
100
AcDbCircle
 10
-17.659713732580371
 20
-333.77145529926167
 30
0.0
 40
4.99969482421875
  0
HATCH
  5
92
100
AcDbEntity
  8
0
370
              -2
390
0
  6
Continuous
 62
               0
100
AcDbHatch
 10
0.0
 20
0.0
 30
0.0
210
0.0
220
0.0
230
1.0
  2
SOLID
 70
               1
 71
               1
 91
        1
 92
        1
 93
        1
 72
               2
 10
-17.659713732580371
 20
-333.77145529926167
 40
4.99969482421875
 50
0.0
 51
360.0
 73
               0
 97
        1
330
91
 75
               0
 76
               1
 98
        1
 10
0.0
 20
0.0
  0
MTEXT
  5
93
100
AcDbEntity
  8
0
390
0
 62
               0
100
AcDbMText
 10
-51.537330920080393
 20
-265.07782091372889
 30
0.0
 40
24.432617187500004
 41
0.0
 71
               1
 72
               1
  1
185
  7
ＭＳ ゴシック
 11
0.0
 21
1.0
 31
0.0
 73
               1
 44
0.7828267384257843
  0
POINT
  5
94
100
AcDbEntity
  8
Defpoints
370
               0
390
0
 62
               0
100
AcDbPoint
 10
-372.58343498003251
 20
-333.77145529926167
 30
0.0
  0
POINT
  5
95
100
AcDbEntity
  8
Defpoints
370
               0
390
0
 62
               0
100
AcDbPoint
 10
-131.59759103643512
 20
-148.75918316384505
 30
0.0
  0
POINT
  5
96
100
AcDbEntity
  8
Defpoints
370
               0
390
0
 62
               0
100
AcDbPoint
 10
-17.6597137325804
 20
-148.75918316384505
 30
0.0
  0
ENDBLK
  5
97
100
AcDbEntity
  8
notes
390
0
100
AcDbBlockEnd
  0
BLOCK
  5
98
100
AcDbEntity
  8
notes
390
0
100
AcDbBlockBegin
  2
*D8
 70
               1
 10
0.0
 20
0.0
 30
0.0
  3
*D8
  1

  0
LINE
  5
99
100
AcDbEntity
  8
0
370
              -2
390
0
  6
Continuous
 62
               0
100
AcDbLine
 10
263.36103567858743
 20
-148.76140755620602
 30
0.0
 11
177.12363503051148
 21
-148.76140755620602
 31
0.0
  0
LINE
  5
9A
100
AcDbEntity
  8
0
370
              -2
390
0
  6
Continuous
 62
               0
100
AcDbLine
 10
251.84815671074159
 20
-168.76140755620602
 30
0.0
 11
177.12363503051148
 21
-168.76140755620602
 31
0.0
  0
LINE
  5
9B
100
AcDbEntity
  8
0
370
              -2
390
0
  6
Continuous
 62
               0
100
AcDbLine
 10
177.12363503051148
 20
-148.76140755620602
 30
0.0
 11
177.12363503051148
 21
-168.76140755620602
 31
0.0
  0
CIRCLE
  5
9C
102
{ACAD_REACTORS
330
9D
102
}
100
AcDbEntity
  8
0
370
              -2
390
0
  6
Continuous
 62
               0
100
AcDbCircle
 10
177.12363503051148
 20
-148.76140755620602
 30
0.0
 40
4.99969482421875
  0
HATCH
  5
9D
100
AcDbEntity
  8
0
370
              -2
390
0
  6
Continuous
 62
               0
100
AcDbHatch
 10
0.0
 20
0.0
 30
0.0
210
0.0
220
0.0
230
1.0
  2
SOLID
 70
               1
 71
               1
 91
        1
 92
        1
 93
        1
 72
               2
 10
177.12363503051148
 20
-148.76140755620602
 40
4.99969482421875
 50
0.0
 51
360.0
 73
               0
 97
        1
330
9C
 75
               0
 76
               1
 98
        1
 10
0.0
 20
0.0
  0
CIRCLE
  5
9E
102
{ACAD_REACTORS
330
9F
102
}
100
AcDbEntity
  8
0
370
              -2
390
0
  6
Continuous
 62
               0
100
AcDbCircle
 10
177.12363503051148
 20
-168.76140755620602
 30
0.0
 40
4.99969482421875
  0
HATCH
  5
9F
100
AcDbEntity
  8
0
370
              -2
390
0
  6
Continuous
 62
               0
100
AcDbHatch
 10
0.0
 20
0.0
 30
0.0
210
0.0
220
0.0
230
1.0
  2
SOLID
 70
               1
 71
               1
 91
        1
 92
        1
 93
        1
 72
               2
 10
177.12363503051148
 20
-168.76140755620602
 40
4.99969482421875
 50
0.0
 51
360.0
 73
               0
 97
        1
330
9E
 75
               0
 76
               1
 98
        1
 10
0.0
 20
0.0
  0
MTEXT
  5
A0
100
AcDbEntity
  8
0
390
0
 62
               0
100
AcDbMText
 10
143.24601784301149
 20
-174.63640755620602
 30
0.0
 40
24.432617187500004
 41
0.0
 71
               1
 72
               1
  1
20
  7
ＭＳ ゴシック
 11
0.0
 21
1.0
 31
0.0
 73
               1
 44
0.7828267384257843
  0
POINT
  5
A1
100
AcDbEntity
  8
Defpoints
370
               0
390
0
 62
               0
100
AcDbPoint
 10
276.84815671074159
 20
-168.76140755620602
 30
0.0
  0
POINT
  5
A2
100
AcDbEntity
  8
Defpoints
370
               0
390
0
 62
               0
100
AcDbPoint
 10
288.36103567858743
 20
-148.76140755620602
 30
0.0
  0
POINT
  5
A3
100
AcDbEntity
  8
Defpoints
370
               0
390
0
 62
               0
100
AcDbPoint
 10
177.12363503051148
 20
-148.76140755620602
 30
0.0
  0
ENDBLK
  5
A4
100
AcDbEntity
  8
notes
390
0
100
AcDbBlockEnd
  0
BLOCK
  5
A5
100
AcDbEntity
  8
notes
390
0
100
AcDbBlockBegin
  2
*D9
 70
               1
 10
0.0
 20
0.0
 30
0.0
  3
*D9
  1

  0
LINE
  5
A6
100
AcDbEntity
  8
0
370
              -2
390
0
  6
Continuous
 62
               0
100
AcDbLine
 10
-438.64141208293302
 20
583.54827144379396
 30
0.0
 11
-777.21901314403954
 21
583.54827144379396
 31
0.0
  0
LINE
  5
A7
100
AcDbEntity
  8
0
370
              -2
390
0
  6
Continuous
 62
               0
100
AcDbLine
 10
-582.8201178615243
 20
623.54827144379396
 30
0.0
 11
-777.21901314403954
 21
623.54827144379396
 31
0.0
  0
LINE
  5
A8
100
AcDbEntity
  8
0
370
              -2
390
0
  6
Continuous
 62
               0
100
AcDbLine
 10
-777.21901314403954
 20
583.54827144379396
 30
0.0
 11
-777.21901314403954
 21
623.54827144379396
 31
0.0
  0
CIRCLE
  5
A9
102
{ACAD_REACTORS
330
AA
102
}
100
AcDbEntity
  8
0
370
              -2
390
0
  6
Continuous
 62
               0
100
AcDbCircle
 10
-777.21901314403954
 20
583.54827144379396
 30
0.0
 40
4.99969482421875
  0
HATCH
  5
AA
100
AcDbEntity
  8
0
370
              -2
390
0
  6
Continuous
 62
               0
100
AcDbHatch
 10
0.0
 20
0.0
 30
0.0
210
0.0
220
0.0
230
1.0
  2
SOLID
 70
               1
 71
               1
 91
        1
 92
        1
 93
        1
 72
               2
 10
-777.21901314403954
 20
583.54827144379396
 40
4.99969482421875
 50
0.0
 51
360.0
 73
               0
 97
        1
330
A9
 75
               0
 76
               1
 98
        1
 10
0.0
 20
0.0
  0
CIRCLE
  5
AB
102
{ACAD_REACTORS
330
AC
102
}
100
AcDbEntity
  8
0
370
              -2
390
0
  6
Continuous
 62
               0
100
AcDbCircle
 10
-777.21901314403954
 20
623.54827144379396
 30
0.0
 40
4.99969482421875
  0
HATCH
  5
AC
100
AcDbEntity
  8
0
370
              -2
390
0
  6
Continuous
 62
               0
100
AcDbHatch
 10
0.0
 20
0.0
 30
0.0
210
0.0
220
0.0
230
1.0
  2
SOLID
 70
               1
 71
               1
 91
        1
 92
        1
 93
        1
 72
               2
 10
-777.21901314403954
 20
623.54827144379396
 40
4.99969482421875
 50
0.0
 51
360.0
 73
               0
 97
        1
330
AB
 75
               0
 76
               1
 98
        1
 10
0.0
 20
0.0
  0
MTEXT
  5
AD
100
AcDbEntity
  8
0
390
0
 62
               0
100
AcDbMText
 10
-811.09663033153947
 20
584.42332544379394
 30
0.0
 40
24.432617187500004
 41
0.0
 71
               1
 72
               1
  1
40
  7
ＭＳ ゴシック
 11
0.0
 21
1.0
 31
0.0
 73
               1
 44
0.7828267384257843
  0
POINT
  5
AE
100
AcDbEntity
  8
Defpoints
370
               0
390
0
 62
               0
100
AcDbPoint
 10
-557.8201178615243
 20
623.54827144379396
 30
0.0
  0
POINT
  5
AF
100
AcDbEntity
  8
Defpoints
370
               0
390
0
 62
               0
100
AcDbPoint
 10
-413.64141208293302
 20
583.54827144379396
 30
0.0
  0
POINT
  5
B0
100
AcDbEntity
  8
Defpoints
370
               0
390
0
 62
               0
100
AcDbPoint
 10
-777.21901314403954
 20
583.54827144379396
 30
0.0
  0
ENDBLK
  5
B1
100
AcDbEntity
  8
notes
390
0
100
AcDbBlockEnd
  0
BLOCK
  5
B2
100
AcDbEntity
  8
notes
390
0
100
AcDbBlockBegin
  2
*D10
 70
               1
 10
0.0
 20
0.0
 30
0.0
  3
*D10
  1

  0
LINE
  5
B3
100
AcDbEntity
  8
0
370
              -2
390
0
  6
Continuous
 62
               0
100
AcDbLine
 10
-454.34743305824315
 20
1023.5489764437941
 30
0.0
 11
-777.21901314403954
 21
1023.5489764437941
 31
0.0
  0
LINE
  5
B4
100
AcDbEntity
  8
0
370
              -2
390
0
  6
Continuous
 62
               0
100
AcDbLine
 10
-665.65993305824418
 20
913.54897644379412
 30
0.0
 11
-777.21901314403954
 21
913.54897644379412
 31
0.0
  0
LINE
  5
B5
100
AcDbEntity
  8
0
370
              -2
390
0
  6
Continuous
 62
               0
100
AcDbLine
 10
-777.21901314403954
 20
1023.5489764437941
 30
0.0
 11
-777.21901314403954
 21
913.54897644379412
 31
0.0
  0
CIRCLE
  5
B6
102
{ACAD_REACTORS
330
B7
102
}
100
AcDbEntity
  8
0
370
              -2
390
0
  6
Continuous
 62
               0
100
AcDbCircle
 10
-777.21901314403954
 20
1023.5489764437941
 30
0.0
 40
4.99969482421875
  0
HATCH
  5
B7
100
AcDbEntity
  8
0
370
              -2
390
0
  6
Continuous
 62
               0
100
AcDbHatch
 10
0.0
 20
0.0
 30
0.0
210
0.0
220
0.0
230
1.0
  2
SOLID
 70
               1
 71
               1
 91
        1
 92
        1
 93
        1
 72
               2
 10
-777.21901314403954
 20
1023.5489764437941
 40
4.99969482421875
 50
0.0
 51
360.0
 73
               0
 97
        1
330
B6
 75
               0
 76
               1
 98
        1
 10
0.0
 20
0.0
  0
CIRCLE
  5
B8
102
{ACAD_REACTORS
330
B9
102
}
100
AcDbEntity
  8
0
370
              -2
390
0
  6
Continuous
 62
               0
100
AcDbCircle
 10
-777.21901314403954
 20
913.54897644379412
 30
0.0
 40
4.99969482421875
  0
HATCH
  5
B9
100
AcDbEntity
  8
0
370
              -2
390
0
  6
Continuous
 62
               0
100
AcDbHatch
 10
0.0
 20
0.0
 30
0.0
210
0.0
220
0.0
230
1.0
  2
SOLID
 70
               1
 71
               1
 91
        1
 92
        1
 93
        1
 72
               2
 10
-777.21901314403954
 20
913.54897644379412
 40
4.99969482421875
 50
0.0
 51
360.0
 73
               0
 97
        1
330
B8
 75
               0
 76
               1
 98
        1
 10
0.0
 20
0.0
  0
MTEXT
  5
BA
100
AcDbEntity
  8
0
390
0
 62
               0
100
AcDbMText
 10
-811.09663033153947
 20
944.73647476161864
 30
0.0
 40
24.432617187500004
 41
0.0
 71
               1
 72
               1
  1
110
  7
ＭＳ ゴシック
 11
0.0
 21
1.0
 31
0.0
 73
               1
 44
0.7828267384257843
  0
POINT
  5
BB
100
AcDbEntity
  8
Defpoints
370
               0
390
0
 62
               0
100
AcDbPoint
 10
-640.65993305824418
 20
913.54897644379412
 30
0.0
  0
POINT
  5
BC
100
AcDbEntity
  8
Defpoints
370
               0
390
0
 62
               0
100
AcDbPoint
 10
-429.34743305824315
 20
1023.5489764437941
 30
0.0
  0
POINT
  5
BD
100
AcDbEntity
  8
Defpoints
370
               0
390
0
 62
               0
100
AcDbPoint
 10
-777.21901314403954
 20
1023.5489764437941
 30
0.0
  0
ENDBLK
  5
BE
100
AcDbEntity
  8
notes
390
0
100
AcDbBlockEnd
  0
BLOCK
  5
BF
100
AcDbEntity
  8
notes
390
0
100
AcDbBlockBegin
  2
*D11
 70
               1
 10
0.0
 20
0.0
 30
0.0
  3
*D11
  1

  0
LINE
  5
C0
100
AcDbEntity
  8
0
370
              -2
390
0
  6
Continuous
 62
               0
100
AcDbLine
 10
-663.21841386826304
 20
913.54897644379412
 30
0.0
 11
-777.21901314403954
 21
913.54897644379412
 31
0.0
  0
LINE
  5
C1
100
AcDbEntity
  8
0
370
              -2
390
0
  6
Continuous
 62
               0
100
AcDbLine
 10
-663.21841386826304
 20
623.54827144379396
 30
0.0
 11
-777.21901314403954
 21
623.54827144379396
 31
0.0
  0
LINE
  5
C2
100
AcDbEntity
  8
0
370
              -2
390
0
  6
Continuous
 62
               0
100
AcDbLine
 10
-777.21901314403954
 20
913.54897644379412
 30
0.0
 11
-777.21901314403954
 21
623.54827144379396
 31
0.0
  0
CIRCLE
  5
C3
102
{ACAD_REACTORS
330
C4
102
}
100
AcDbEntity
  8
0
370
              -2
390
0
  6
Continuous
 62
               0
100
AcDbCircle
 10
-777.21901314403954
 20
913.54897644379412
 30
0.0
 40
4.99969482421875
  0
HATCH
  5
C4
100
AcDbEntity
  8
0
370
              -2
390
0
  6
Continuous
 62
               0
100
AcDbHatch
 10
0.0
 20
0.0
 30
0.0
210
0.0
220
0.0
230
1.0
  2
SOLID
 70
               1
 71
               1
 91
        1
 92
        1
 93
        1
 72
               2
 10
-777.21901314403954
 20
913.54897644379412
 40
4.99969482421875
 50
0.0
 51
360.0
 73
               0
 97
        1
330
C3
 75
               0
 76
               1
 98
        1
 10
0.0
 20
0.0
  0
CIRCLE
  5
C5
102
{ACAD_REACTORS
330
C6
102
}
100
AcDbEntity
  8
0
370
              -2
390
0
  6
Continuous
 62
               0
100
AcDbCircle
 10
-777.21901314403954
 20
623.54827144379396
 30
0.0
 40
4.99969482421875
  0
HATCH
  5
C6
100
AcDbEntity
  8
0
370
              -2
390
0
  6
Continuous
 62
               0
100
AcDbHatch
 10
0.0
 20
0.0
 30
0.0
210
0.0
220
0.0
230
1.0
  2
SOLID
 70
               1
 71
               1
 91
        1
 92
        1
 93
        1
 72
               2
 10
-777.21901314403954
 20
623.54827144379396
 40
4.99969482421875
 50
0.0
 51
360.0
 73
               0
 97
        1
330
C5
 75
               0
 76
               1
 98
        1
 10
0.0
 20
0.0
  0
MTEXT
  5
C7
100
AcDbEntity
  8
0
390
0
 62
               0
100
AcDbMText
 10
-811.09663033153947
 20
744.73612226161856
 30
0.0
 40
24.432617187500004
 41
0.0
 71
               1
 72
               1
  1
290
  7
ＭＳ ゴシック
 11
0.0
 21
1.0
 31
0.0
 73
               1
 44
0.7828267384257843
  0
POINT
  5
C8
100
AcDbEntity
  8
Defpoints
370
               0
390
0
 62
               0
100
AcDbPoint
 10
-638.21841386826304
 20
623.54827144379396
 30
0.0
  0
POINT
  5
C9
100
AcDbEntity
  8
Defpoints
370
               0
390
0
 62
               0
100
AcDbPoint
 10
-638.21841386826304
 20
913.54897644379412
 30
0.0
  0
POINT
  5
CA
100
AcDbEntity
  8
Defpoints
370
               0
390
0
 62
               0
100
AcDbPoint
 10
-777.21901314403954
 20
913.54897644379412
 30
0.0
  0
ENDBLK
  5
CB
100
AcDbEntity
  8
notes
390
0
100
AcDbBlockEnd
  0
BLOCK
  5
CC
100
AcDbEntity
  8
notes
390
0
100
AcDbBlockBegin
  2
*D12
 70
               1
 10
0.0
 20
0.0
 30
0.0
  3
*D12
  1

  0
LINE
  5
CD
100
AcDbEntity
  8
0
370
              -2
390
0
  6
Continuous
 62
               0
100
AcDbLine
 10
-117.21874114403897
 20
828.55206844379404
 30
0.0
 11
-117.21874114403897
 21
1123.5489764437941
 31
0.0
  0
LINE
  5
CE
100
AcDbEntity
  8
0
370
              -2
390
0
  6
Continuous
 62
               0
100
AcDbLine
 10
-677.21901314403954
 20
828.55206844379404
 30
0.0
 11
-677.21901314403954
 21
1123.5489764437941
 31
0.0
  0
LINE
  5
CF
100
AcDbEntity
  8
0
370
              -2
390
0
  6
Continuous
 62
               0
100
AcDbLine
 10
-117.21874114403897
 20
1123.5489764437941
 30
0.0
 11
-677.21901314403954
 21
1123.5489764437941
 31
0.0
  0
CIRCLE
  5
D0
102
{ACAD_REACTORS
330
D1
102
}
100
AcDbEntity
  8
0
370
              -2
390
0
  6
Continuous
 62
               0
100
AcDbCircle
 10
-117.21874114403897
 20
1123.5489764437941
 30
0.0
 40
4.99969482421875
  0
HATCH
  5
D1
100
AcDbEntity
  8
0
370
              -2
390
0
  6
Continuous
 62
               0
100
AcDbHatch
 10
0.0
 20
0.0
 30
0.0
210
0.0
220
0.0
230
1.0
  2
SOLID
 70
               1
 71
               1
 91
        1
 92
        1
 93
        1
 72
               2
 10
-117.21874114403897
 20
1123.5489764437941
 40
4.99969482421875
 50
0.0
 51
360.0
 73
               0
 97
        1
330
D0
 75
               0
 76
               1
 98
        1
 10
0.0
 20
0.0
  0
CIRCLE
  5
D2
102
{ACAD_REACTORS
330
D3
102
}
100
AcDbEntity
  8
0
370
              -2
390
0
  6
Continuous
 62
               0
100
AcDbCircle
 10
-677.21901314403954
 20
1123.5489764437941
 30
0.0
 40
4.99969482421875
  0
HATCH
  5
D3
100
AcDbEntity
  8
0
370
              -2
390
0
  6
Continuous
 62
               0
100
AcDbHatch
 10
0.0
 20
0.0
 30
0.0
210
0.0
220
0.0
230
1.0
  2
SOLID
 70
               1
 71
               1
 91
        1
 92
        1
 93
        1
 72
               2
 10
-677.21901314403954
 20
1123.5489764437941
 40
4.99969482421875
 50
0.0
 51
360.0
 73
               0
 97
        1
330
D2
 75
               0
 76
               1
 98
        1
 10
0.0
 20
0.0
  0
MTEXT
  5
D4
100
AcDbEntity
  8
0
390
0
 62
               0
100
AcDbMText
 10
-421.03137882621434
 20
1157.4265936312941
 30
0.0
 40
24.432617187500004
 41
0.0
 71
               1
 72
               1
  1
560
  7
ＭＳ ゴシック
 73
               1
 44
0.7828267384257843
  0
POINT
  5
D5
100
AcDbEntity
  8
Defpoints
370
               0
390
0
 62
               0
100
AcDbPoint
 10
-677.21901314403954
 20
803.55206844379404
 30
0.0
  0
POINT
  5
D6
100
AcDbEntity
  8
Defpoints
370
               0
390
0
 62
               0
100
AcDbPoint
 10
-117.21874114403897
 20
803.55206844379404
 30
0.0
  0
POINT
  5
D7
100
AcDbEntity
  8
Defpoints
370
               0
390
0
 62
               0
100
AcDbPoint
 10
-117.21874114403897
 20
1123.5489764437941
 30
0.0
  0
ENDBLK
  5
D8
100
AcDbEntity
  8
notes
390
0
100
AcDbBlockEnd
  0
BLOCK
  5
D9
100
AcDbEntity
  8
notes
390
0
100
AcDbBlockBegin
  2
*D13
 70
               1
 10
0.0
 20
0.0
 30
0.0
  3
*D13
  1

  0
LINE
  5
DA
100
AcDbEntity
  8
0
370
              -2
390
0
  6
Continuous
 62
               0
100
AcDbLine
 10
-372.22232214403891
 20
1023.5489764437941
 30
0.0
 11
-17.2187411440392
 21
1023.5489764437941
 31
0.0
  0
LINE
  5
DB
100
AcDbEntity
  8
0
370
              -2
390
0
  6
Continuous
 62
               0
100
AcDbLine
 10
-372.22232214403891
 20
583.54827144379396
 30
0.0
 11
-17.2187411440392
 21
583.54827144379396
 31
0.0
  0
LINE
  5
DC
100
AcDbEntity
  8
0
370
              -2
390
0
  6
Continuous
 62
               0
100
AcDbLine
 10
-17.2187411440392
 20
1023.5489764437941
 30
0.0
 11
-17.2187411440392
 21
583.54827144379396
 31
0.0
  0
CIRCLE
  5
DD
102
{ACAD_REACTORS
330
DE
102
}
100
AcDbEntity
  8
0
370
              -2
390
0
  6
Continuous
 62
               0
100
AcDbCircle
 10
-17.2187411440392
 20
1023.5489764437941
 30
0.0
 40
4.99969482421875
  0
HATCH
  5
DE
100
AcDbEntity
  8
0
370
              -2
390
0
  6
Continuous
 62
               0
100
AcDbHatch
 10
0.0
 20
0.0
 30
0.0
210
0.0
220
0.0
230
1.0
  2
SOLID
 70
               1
 71
               1
 91
        1
 92
        1
 93
        1
 72
               2
 10
-17.2187411440392
 20
1023.5489764437941
 40
4.99969482421875
 50
0.0
 51
360.0
 73
               0
 97
        1
330
DD
 75
               0
 76
               1
 98
        1
 10
0.0
 20
0.0
  0
CIRCLE
  5
DF
102
{ACAD_REACTORS
330
E0
102
}
100
AcDbEntity
  8
0
370
              -2
390
0
  6
Continuous
 62
               0
100
AcDbCircle
 10
-17.2187411440392
 20
583.54827144379396
 30
0.0
 40
4.99969482421875
  0
HATCH
  5
E0
100
AcDbEntity
  8
0
370
              -2
390
0
  6
Continuous
 62
               0
100
AcDbHatch
 10
0.0
 20
0.0
 30
0.0
210
0.0
220
0.0
230
1.0
  2
SOLID
 70
               1
 71
               1
 91
        1
 92
        1
 93
        1
 72
               2
 10
-17.2187411440392
 20
583.54827144379396
 40
4.99969482421875
 50
0.0
 51
360.0
 73
               0
 97
        1
330
DF
 75
               0
 76
               1
 98
        1
 10
0.0
 20
0.0
  0
MTEXT
  5
E1
100
AcDbEntity
  8
0
390
0
 62
               0
100
AcDbMText
 10
-51.096358331539207
 20
779.73612226161856
 30
0.0
 40
24.432617187500004
 41
0.0
 71
               1
 72
               1
  1
440
  7
ＭＳ ゴシック
 11
0.0
 21
1.0
 31
0.0
 73
               1
 44
0.7828267384257843
  0
POINT
  5
E2
100
AcDbEntity
  8
Defpoints
370
               0
390
0
 62
               0
100
AcDbPoint
 10
-397.22232214403891
 20
583.54827144379396
 30
0.0
  0
POINT
  5
E3
100
AcDbEntity
  8
Defpoints
370
               0
390
0
 62
               0
100
AcDbPoint
 10
-397.22232214403891
 20
1023.5489764437941
 30
0.0
  0
POINT
  5
E4
100
AcDbEntity
  8
Defpoints
370
               0
390
0
 62
               0
100
AcDbPoint
 10
-17.2187411440392
 20
1023.5489764437941
 30
0.0
  0
ENDBLK
  5
E5
100
AcDbEntity
  8
notes
390
0
100
AcDbBlockEnd
  0
BLOCK
  5
E6
100
AcDbEntity
  8
notes
390
0
100
AcDbBlockBegin
  2
*D14
 70
               1
 10
0.0
 20
0.0
 30
0.0
  3
*D14
  1

  0
LINE
  5
E7
100
AcDbEntity
  8
0
370
              -2
390
0
  6
Continuous
 62
               0
100
AcDbLine
 10
-637.21901314403954
 20
666.41783658281133
 30
0.0
 11
-637.21901314403954
 21
483.54827144379396
 31
0.0
  0
LINE
  5
E8
100
AcDbEntity
  8
0
370
              -2
390
0
  6
Continuous
 62
               0
100
AcDbLine
 10
-157.21901314403902
 20
666.41783658281133
 30
0.0
 11
-157.21901314403902
 21
483.54827144379396
 31
0.0
  0
LINE
  5
E9
100
AcDbEntity
  8
0
370
              -2
390
0
  6
Continuous
 62
               0
100
AcDbLine
 10
-637.21901314403954
 20
483.54827144379396
 30
0.0
 11
-157.21901314403902
 21
483.54827144379396
 31
0.0
  0
CIRCLE
  5
EA
102
{ACAD_REACTORS
330
EB
102
}
100
AcDbEntity
  8
0
370
              -2
390
0
  6
Continuous
 62
               0
100
AcDbCircle
 10
-637.21901314403954
 20
483.54827144379396
 30
0.0
 40
4.99969482421875
  0
HATCH
  5
EB
100
AcDbEntity
  8
0
370
              -2
390
0
  6
Continuous
 62
               0
100
AcDbHatch
 10
0.0
 20
0.0
 30
0.0
210
0.0
220
0.0
230
1.0
  2
SOLID
 70
               1
 71
               1
 91
        1
 92
        1
 93
        1
 72
               2
 10
-637.21901314403954
 20
483.54827144379396
 40
4.99969482421875
 50
0.0
 51
360.0
 73
               0
 97
        1
330
EA
 75
               0
 76
               1
 98
        1
 10
0.0
 20
0.0
  0
CIRCLE
  5
EC
102
{ACAD_REACTORS
330
ED
102
}
100
AcDbEntity
  8
0
370
              -2
390
0
  6
Continuous
 62
               0
100
AcDbCircle
 10
-157.21901314403902
 20
483.54827144379396
 30
0.0
 40
4.99969482421875
  0
HATCH
  5
ED
100
AcDbEntity
  8
0
370
              -2
390
0
  6
Continuous
 62
               0
100
AcDbHatch
 10
0.0
 20
0.0
 30
0.0
210
0.0
220
0.0
230
1.0
  2
SOLID
 70
               1
 71
               1
 91
        1
 92
        1
 93
        1
 72
               2
 10
-157.21901314403902
 20
483.54827144379396
 40
4.99969482421875
 50
0.0
 51
360.0
 73
               0
 97
        1
330
EC
 75
               0
 76
               1
 98
        1
 10
0.0
 20
0.0
  0
MTEXT
  5
EE
100
AcDbEntity
  8
0
390
0
 62
               0
100
AcDbMText
 10
-421.03151482621479
 20
517.42588863129401
 30
0.0
 40
24.432617187500004
 41
0.0
 71
               1
 72
               1
  1
480
  7
ＭＳ ゴシック
 73
               1
 44
0.7828267384257843
  0
POINT
  5
EF
100
AcDbEntity
  8
Defpoints
370
               0
390
0
 62
               0
100
AcDbPoint
 10
-157.21901314403902
 20
691.41783658281133
 30
0.0
  0
POINT
  5
F0
100
AcDbEntity
  8
Defpoints
370
               0
390
0
 62
               0
100
AcDbPoint
 10
-637.21901314403954
 20
691.41783658281133
 30
0.0
  0
POINT
  5
F1
100
AcDbEntity
  8
Defpoints
370
               0
390
0
 62
               0
100
AcDbPoint
 10
-637.21901314403954
 20
483.54827144379396
 30
0.0
  0
ENDBLK
  5
F2
100
AcDbEntity
  8
notes
390
0
100
AcDbBlockEnd
  0
BLOCK
  5
F3
100
AcDbEntity
  8
notes
390
0
100
AcDbBlockBegin
  2
*D15
 70
               1
 10
0.0
 20
0.0
 30
0.0
  3
*D15
  1

  0
LINE
  5
F4
100
AcDbEntity
  8
0
370
              -2
390
0
  6
Continuous
 62
               0
100
AcDbLine
 10
-384.76622063972906
 20
967.67168503254084
 30
0.0
 11
-308.78310049033496
 21
1052.2385924437938
 31
0.0
  0
CIRCLE
  5
F5
102
{ACAD_REACTORS
330
F6
102
}
100
AcDbEntity
  8
0
370
              -2
390
0
  6
Continuous
 62
               0
100
AcDbCircle
 10
-384.76622063972906
 20
967.67168503254084
 30
0.0
 40
4.99969482421875
  0
HATCH
  5
F6
100
AcDbEntity
  8
0
370
              -2
390
0
  6
Continuous
 62
               0
100
AcDbHatch
 10
0.0
 20
0.0
 30
0.0
210
0.0
220
0.0
230
1.0
  2
SOLID
 70
               1
 71
               1
 91
        1
 92
        1
 93
        1
 72
               2
 10
-384.76622063972906
 20
967.67168503254084
 40
4.99969482421875
 50
0.0
 51
360.0
 73
               0
 97
        1
330
F5
 75
               0
 76
               1
 98
        1
 10
0.0
 20
0.0
  0
LINE
  5
F7
100
AcDbEntity
  8
0
370
              -2
390
0
  6
Continuous
 62
               0
100
AcDbLine
 10
-308.78310049033496
 20
1052.2385924437938
 30
0.0
 11
-185.28310049033496
 21
1052.2385924437938
 31
0.0
  0
MTEXT
  5
F8
100
AcDbEntity
  8
0
390
0
 62
               0
100
AcDbMText
 10
-248.78310049033496
 20
1086.1162096312937
 30
0.0
 40
24.432617187500004
 41
0.0
 71
               1
 72
               1
  1
φ35
  7
ＭＳ ゴシック
 73
               1
 44
0.7828267384257843
  0
POINT
  5
F9
100
AcDbEntity
  8
Defpoints
370
               0
390
0
 62
               0
100
AcDbPoint
 10
-408.15520594396997
 20
941.64045400678174
 30
0.0
  0
POINT
  5
FA
100
AcDbEntity
  8
Defpoints
370
               0
390
0
 62
               0
100
AcDbPoint
 10
-384.76622063972906
 20
967.67168503254084
 30
0.0
  0
ENDBLK
  5
FB
100
AcDbEntity
  8
notes
390
0
100
AcDbBlockEnd
  0
BLOCK
  5
FC
100
AcDbEntity
  8
notes
390
0
100
AcDbBlockBegin
  2
*D16
 70
               1
 10
0.0
 20
0.0
 30
0.0
  3
*D16
  1

  0
LINE
  5
FD
100
AcDbEntity
  8
0
370
              -2
390
0
  6
Continuous
 62
               0
100
AcDbLine
 10
487.54235829641385
 20
1008.4571587586081
 30
0.0
 11
825.0
 21
1008.4571587586081
 31
0.0
  0
LINE
  5
FE
100
AcDbEntity
  8
0
370
              -2
390
0
  6
Continuous
 62
               0
100
AcDbLine
 10
487.54235829641385
 20
598.4571587586081
 30
0.0
 11
825.0
 21
598.4571587586081
 31
0.0
  0
LINE
  5
FF
100
AcDbEntity
  8
0
370
              -2
390
0
  6
Continuous
 62
               0
100
AcDbLine
 10
825.0
 20
1008.4571587586081
 30
0.0
 11
825.0
 21
598.4571587586081
 31
0.0
  0
CIRCLE
  5
100
102
{ACAD_REACTORS
330
101
102
}
100
AcDbEntity
  8
0
370
              -2
390
0
  6
Continuous
 62
               0
100
AcDbCircle
 10
825.0
 20
1008.4571587586081
 30
0.0
 40
4.99969482421875
  0
HATCH
  5
101
100
AcDbEntity
  8
0
370
              -2
390
0
  6
Continuous
 62
               0
100
AcDbHatch
 10
0.0
 20
0.0
 30
0.0
210
0.0
220
0.0
230
1.0
  2
SOLID
 70
               1
 71
               1
 91
        1
 92
        1
 93
        1
 72
               2
 10
825.0
 20
1008.4571587586081
 40
4.99969482421875
 50
0.0
 51
360.0
 73
               0
 97
        1
330
100
 75
               0
 76
               1
 98
        1
 10
0.0
 20
0.0
  0
CIRCLE
  5
102
102
{ACAD_REACTORS
330
103
102
}
100
AcDbEntity
  8
0
370
              -2
390
0
  6
Continuous
 62
               0
100
AcDbCircle
 10
825.0
 20
598.4571587586081
 30
0.0
 40
4.99969482421875
  0
HATCH
  5
103
100
AcDbEntity
  8
0
370
              -2
390
0
  6
Continuous
 62
               0
100
AcDbHatch
 10
0.0
 20
0.0
 30
0.0
210
0.0
220
0.0
230
1.0
  2
SOLID
 70
               1
 71
               1
 91
        1
 92
        1
 93
        1
 72
               2
 10
825.0
 20
598.4571587586081
 40
4.99969482421875
 50
0.0
 51
360.0
 73
               0
 97
        1
330
102
 75
               0
 76
               1
 98
        1
 10
0.0
 20
0.0
  0
MTEXT
  5
104
100
AcDbEntity
  8
0
390
0
 62
               0
100
AcDbMText
 10
791.12238281249984
 20
779.64465707643262
 30
0.0
 40
24.432617187500004
 41
0.0
 71
               1
 72
               1
  1
410
  7
ＭＳ ゴシック
 11
0.0
 21
1.0
 31
0.0
 73
               1
 44
0.7828267384257843
  0
POINT
  5
105
100
AcDbEntity
  8
Defpoints
370
               0
390
0
 62
               0
100
AcDbPoint
 10
462.54235829641385
 20
598.4571587586081
 30
0.0
  0
POINT
  5
106
100
AcDbEntity
  8
Defpoints
370
               0
390
0
 62
               0
100
AcDbPoint
 10
462.54235829641385
 20
1008.4571587586081
 30
0.0
  0
POINT
  5
107
100
AcDbEntity
  8
Defpoints
370
               0
390
0
 62
               0
100
AcDbPoint
 10
825.0
 20
1008.4571587586081
 30
0.0
  0
ENDBLK
  5
108
100
AcDbEntity
  8
notes
390
0
100
AcDbBlockEnd
  0
BLOCK
  5
109
100
AcDbEntity
  8
notes
390
0
100
AcDbBlockBegin
  2
*D17
 70
               1
 10
0.0
 20
0.0
 30
0.0
  3
*D17
  1

  0
LINE
  5
10A
100
AcDbEntity
  8
0
370
              -2
390
0
  6
Continuous
 62
               0
100
AcDbLine
 10
727.54235829641379
 20
778.4571587586081
 30
0.0
 11
727.54235829641379
 21
481.238592443794
 31
0.0
  0
LINE
  5
10B
100
AcDbEntity
  8
0
370
              -2
390
0
  6
Continuous
 62
               0
100
AcDbLine
 10
197.54235829641382
 20
778.4571587586081
 30
0.0
 11
197.54235829641382
 21
481.238592443794
 31
0.0
  0
LINE
  5
10C
100
AcDbEntity
  8
0
370
              -2
390
0
  6
Continuous
 62
               0
100
AcDbLine
 10
727.54235829641379
 20
481.238592443794
 30
0.0
 11
197.54235829641382
 21
481.238592443794
 31
0.0
  0
CIRCLE
  5
10D
102
{ACAD_REACTORS
330
10E
102
}
100
AcDbEntity
  8
0
370
              -2
390
0
  6
Continuous
 62
               0
100
AcDbCircle
 10
727.54235829641379
 20
481.238592443794
 30
0.0
 40
4.99969482421875
  0
HATCH
  5
10E
100
AcDbEntity
  8
0
370
              -2
390
0
  6
Continuous
 62
               0
100
AcDbHatch
 10
0.0
 20
0.0
 30
0.0
210
0.0
220
0.0
230
1.0
  2
SOLID
 70
               1
 71
               1
 91
        1
 92
        1
 93
        1
 72
               2
 10
727.54235829641379
 20
481.238592443794
 40
4.99969482421875
 50
0.0
 51
360.0
 73
               0
 97
        1
330
10D
 75
               0
 76
               1
 98
        1
 10
0.0
 20
0.0
  0
CIRCLE
  5
10F
102
{ACAD_REACTORS
330
110
102
}
100
AcDbEntity
  8
0
370
              -2
390
0
  6
Continuous
 62
               0
100
AcDbCircle
 10
197.54235829641382
 20
481.238592443794
 30
0.0
 40
4.99969482421875
  0
HATCH
  5
110
100
AcDbEntity
  8
0
370
              -2
390
0
  6
Continuous
 62
               0
100
AcDbHatch
 10
0.0
 20
0.0
 30
0.0
210
0.0
220
0.0
230
1.0
  2
SOLID
 70
               1
 71
               1
 91
        1
 92
        1
 93
        1
 72
               2
 10
197.54235829641382
 20
481.238592443794
 40
4.99969482421875
 50
0.0
 51
360.0
 73
               0
 97
        1
330
10F
 75
               0
 76
               1
 98
        1
 10
0.0
 20
0.0
  0
MTEXT
  5
111
100
AcDbEntity
  8
0
390
0
 62
               0
100
AcDbMText
 10
438.72985661423832
 20
515.11620963129405
 30
0.0
 40
24.432617187500004
 41
0.0
 71
               1
 72
               1
  1
530
  7
ＭＳ ゴシック
 73
               1
 44
0.7828267384257843
  0
POINT
  5
112
100
AcDbEntity
  8
Defpoints
370
               0
390
0
 62
               0
100
AcDbPoint
 10
197.54235829641382
 20
803.4571587586081
 30
0.0
  0
POINT
  5
113
100
AcDbEntity
  8
Defpoints
370
               0
390
0
 62
               0
100
AcDbPoint
 10
727.54235829641379
 20
803.4571587586081
 30
0.0
  0
POINT
  5
114
100
AcDbEntity
  8
Defpoints
370
               0
390
0
 62
               0
100
AcDbPoint
 10
727.54235829641379
 20
481.238592443794
 30
0.0
  0
ENDBLK
  5
115
100
AcDbEntity
  8
notes
390
0
100
AcDbBlockEnd
  0
BLOCK
  5
116
100
AcDbEntity
  8
GAR70-0918
390
0
100
AcDbBlockBegin
  2
813951D
 70
               0
 10
0.0
 20
0.0
 30
0.0
  3
813951D
  1

  0
LWPOLYLINE
  5
117
100
AcDbEntity
  8
0
370
              15
390
0
  6
Continuous
 62
               7
100
AcDbPolyline
 90
       65
 70
             129
 10
-279.996691
 20
-219.99690799999999
 10
-278.69444399999998
 20
-241.198025
 10
-274.71880399999998
 20
-262.50938600000001
 10
-268.03531900000002
 20
-283.60715099999999
 10
-258.68533000000002
 20
-304.188151
 10
-246.77907999999999
 20
-323.93543799999998
 10
-232.50949399999999
 20
-342.57340499999998
 10
-216.14529099999999
 20
-359.84711399999998
 10
-197.98963800000001
 20
-375.56363900000002
 10
-177.987413
 20
-389.82633499999997
 10
-156.00081399999999
 20
-402.69032099999998
 10
-132.28477599999999
 20
-413.89377200000001
 10
-107.14936
 20
-423.250651
 10
-80.952854000000002
 20
-430.602485
 10
-54.094889000000002
 20
-435.85280999999998
 10
-26.981988000000001
 20
-438.97406699999999
 10
0.0
 20
-440.00070499999998
 10
26.981988000000001
 20
-438.97406699999999
 10
54.101779999999998
 20
-435.85280999999998
 10
80.959744000000001
 20
-430.602485
 10
107.15625
 20
-423.250651
 10
132.29166699999999
 20
-413.89377200000001
 10
156.00770399999999
 20
-402.69032099999998
 10
177.994303
 20
-389.82633499999997
 10
197.98963800000001
 20
-375.56363900000002
 10
216.15218100000001
 20
-359.84711399999998
 10
232.51638500000001
 20
-342.57340499999998
 10
246.77907999999999
 20
-323.93543799999998
 10
258.69222000000002
 20
-304.188151
 10
268.04220900000001
 20
-283.60715099999999
 10
274.72569399999998
 20
-262.50938600000001
 10
278.70133499999997
 20
-241.198025
 10
280.003581
 20
-219.99690799999999
 10
278.70133499999997
 20
-198.79579000000001
 10
274.72569399999998
 20
-177.491319
 10
268.04220900000001
 20
-156.386664
 10
258.69222000000002
 20
-135.80566400000001
 10
246.77907999999999
 20
-116.05837699999999
 10
232.51638500000001
 20
-97.427300000000002
 10
216.15218100000001
 20
-80.146700999999993
 10
197.98963800000001
 20
-64.437066000000002
 10
177.994303
 20
-50.167479999999998
 10
156.00770399999999
 20
-37.310383999999999
 10
132.29166699999999
 20
-26.100042999999999
 10
107.15625
 20
-16.743164
 10
80.959744000000001
 20
-9.3982200000000002
 10
54.101779999999998
 20
-4.1410049999999998
 10
26.981988000000001
 20
-1.0197480000000001
 10
0.0
 20
0.0
 10
-26.981988000000001
 20
-1.0197480000000001
 10
-54.094889000000002
 20
-4.1410049999999998
 10
-80.952854000000002
 20
-9.3982200000000002
 10
-107.14936
 20
-16.743164
 10
-132.28477599999999
 20
-26.100042999999999
 10
-156.00081399999999
 20
-37.310383999999999
 10
-177.987413
 20
-50.167479999999998
 10
-197.98963800000001
 20
-64.437066000000002
 10
-216.14529099999999
 20
-80.146700999999993
 10
-232.50949399999999
 20
-97.427300000000002
 10
-246.77907999999999
 20
-116.05837699999999
 10
-258.68533000000002
 20
-135.80566400000001
 10
-268.03531900000002
 20
-156.386664
 10
-274.71880399999998
 20
-177.491319
 10
-278.69444399999998
 20
-198.79579000000001
 10
-279.996691
 20
-219.99690799999999
  0
LWPOLYLINE
  5
118
100
AcDbEntity
  8
0
370
              15
390
0
  6
Continuous
 62
               7
100
AcDbPolyline
 90
      170
 70
             128
 10
-0.0000000000000036
 20
-400.1891818576388
 42
0.0033320690933839
 10
4.0671720722510685
 20
-400.17355225413667
 10
7.1128158694746224
 20
-400.14155061244185
 42
0.0133099842084407
 10
17.261135649327326
 20
-399.76461740915056
 10
20.307015195099098
 20
-399.57019821142489
 42
0.0132806183263871
 10
36.435461662142885
 20
-398.10977222164274
 10
36.44530874603609
 20
-398.10861619341733
 42
0.0132582997239641
 10
52.453968846250191
 20
-395.79746534630067
 42
0.0132430212604379
 10
68.31377338100701
 20
-392.64228994083805
 42
0.0132434710233746
 10
83.981600682717129
 20
-388.65230301962839
 42
0.0132550259834009
 10
99.423932148750168
 20
-383.83563278760698
 42
0.0132571653128009
 10
114.59587311002423
 20
-378.2052914897908
 10
116.4801398142135
 20
-377.44862044553003
 42
0.0133350445360619
 10
127.65251749334519
 20
-372.61226493499481
 10
129.66670157802295
 20
-371.67581335596611
 42
0.0063749994570582
 10
136.63898311565126
 20
-368.32543950548052
 42
0.0076054451951797
 10
143.51463719518944
 20
-364.78157458960737
 10
144.60561229782112
 20
-364.1980913219387
 42
0.0168510243810974
 10
153.43693586487899
 20
-359.08495076365693
 10
154.65993202858166
 20
-358.32071739255457
 42
0.0165948632199426
 10
165.45122248975463
 20
-351.068683576257
 10
165.46261975054179
 20
-351.06046252211024
 42
0.0165639777290478
 10
175.7274471559918
 20
-343.12646610573381
 10
175.7325947872082
 20
-343.12220769916325
 42
0.016536830266245
 10
185.44014386235506
 20
-334.53543001944684
 42
0.0165252302511331
 10
194.55911395535674
 20
-325.32607783879314
 42
0.0165363253847506
 10
203.04965431925305
 20
-315.53442168095444
 10
203.05393488273393
 20
-315.52914212109238
 42
0.0165669169901049
 10
210.8863248779883
 20
-305.18645700306979
 10
210.89441266655842
 20
-305.17500793893799
 42
0.0166649908960286
 10
218.03801603944891
 20
-294.31167402230614
 10
218.96302309067013
 20
-292.79739676537122
 42
0.0163938068725484
 10
223.66677102491786
 20
-284.49726059216397
 10
224.55021377369039
 20
-282.81184378147435
 42
0.009258472629867
 10
227.1198399417986
 20
-277.68068939302941
 42
0.0104701742707551
 10
229.48495082344388
 20
-272.4524176223884
 10
229.96058751988778
 20
-271.33949954033665
 42
0.0202503369805367
 10
232.8586931452019
 20
-263.71843654593897
 10
233.29123653257554
 20
-262.42573032932472
 42
0.0201539150402411
 10
236.28385222081062
 20
-252.11919829644418
 10
236.29020042342148
 20
-252.09351195972397
 42
0.0200272676719908
 10
238.43530667870675
 20
-241.63172202945694
 10
238.43816323859789
 20
-241.61426427562708
 42
0.0199252383499059
 10
239.73717386711951
 20
-231.04964738969113
 10
239.73793874300114
 20
-231.04039713233828
 42
0.0198592163173631
 10
240.19243165844151
 20
-220.4244351397457
 42
0.0198226184950138
 10
239.80403784194391
 20
-209.80778785838979
 42
0.0198386454653848
 10
238.57579211044251
 20
-199.25726680761909
 10
238.57493088802892
 20
-199.25177548277901
 42
0.0198891805246131
 10
236.51110451714206
 20
-188.82115255194671
 10
236.50794868723034
 20
-188.80797814339527
 42
0.0199763052021039
 10
233.61269094886816
 20
-178.54885379672484
 10
233.60588443413263
 20
-178.52796575854677
 42
0.0200944871635706
 10
229.88349100162429
 20
-168.49244422297033
 10
229.87142745890935
 20
-168.46353918922509
 42
0.0203407866094466
 10
225.32426678076737
 20
-158.7049294101821
 10
224.59671824560149
 20
-157.29619784389226
 42
0.0197283159109741
 10
220.76449964367106
 20
-150.54335664912225
 10
219.82531149344237
 20
-149.03067679289464
 42
0.0119291183432965
 10
217.52089880643052
 20
-145.50944767063206
 42
0.0144290508674725
 10
215.03448537114087
 20
-142.11497371036182
 10
214.59260031289372
 20
-141.54685009824223
 42
0.0273195516099895
 10
210.8916884473559
 20
-137.29026257009593
 10
210.23694389243823
 20
-136.61545116835251
 42
0.0271971855327407
 10
204.77865750320606
 20
-131.57005858238406
 10
204.77105024867137
 20
-131.56375790954826
 42
0.0270570039306706
 10
198.81434908602085
 20
-127.15066362641319
 42
0.0269993751996985
 10
192.41632882288971
 20
-123.40590083123061
 42
0.0270520682974532
 10
185.65177015830309
 20
-120.37315103706239
 10
185.64226890409765
 20
-120.36949453881249
 42
0.0272394027635794
 10
178.56975143013315
 20
-118.08127879237203
 10
177.66020480719845
 20
-117.8408364521714
 42
0.0270971408562484
 10
172.13759453812901
 20
-116.69682749854874
 42
0.0155347491381997
 10
166.53210925996717
 20
-116.02653401616647
 10
166.21535914872209
 20
-115.99860505841454
 42
0.007687000673345
 10
159.9485381616511
 20
-115.54300712324964
 10
157.4550595607451
 20
-115.40022781045077
 42
-0.0004593932397316
 10
146.19487853818779
 20
-114.74507735314592
 10
144.94978668312055
 20
-114.67148633837267
 42
0.0016612848277596
 10
131.19747552563737
 20
-113.90450128511014
 10
114.00296028989905
 20
-113.00283705468351
 42
0.008229584014557
 10
65.830566199552422
 20
-111.27114790922015
 10
40.008978392895592
 20
-110.76824815348496
 42
0.0041464245234383
 10
15.908344910994828
 20
-110.49877548021264
 10
7.300395814961286
 20
-110.47391670955763
 42
0.0006907038241037
 10
0.4134114583333286
 20
-110.4635416666666
 10
-0.4065212673611143
 20
-110.4635416666666
 42
0.0006927062745223
 10
-7.294229311062514
 20
-110.4739452766936
 10
-22.790150743184029
 20
-110.51881960010098
 42
0.0069011443715058
 10
-60.660957933231742
 20
-111.15124288981708
 10
-86.474915156845796
 20
-111.93881309203951
 42
0.0054596698428866
 10
-120.87584725343838
 20
-113.36448899160598
 10
-131.19124461162954
 20
-113.90487465893204
 42
0.0016748157011143
 10
-144.94324620183943
 20
-114.67149014977082
 10
-146.18825004146859
 20
-114.74507786537687
 42
-0.0004596152106627
 10
-157.44827830329285
 20
-115.40023162787465
 10
-159.941697178607
 20
-115.54300910994601
 42
0.0076868349996262
 10
-166.20848530829085
 20
-115.9986065712807
 10
-166.52440432648712
 20
-116.02646223995697
 42
0.0154860205804315
 10
-172.13159531653503
 20
-116.69640539782563
 42
0.0271893237005567
 10
-177.65576193866832
 20
-117.84067530817866
 10
-178.56472329420092
 20
-118.08113172739969
 42
0.0272021876340842
 10
-185.63693921762655
 20
-120.37002485888297
 10
-185.64629064862066
 20
-120.37362396503283
 42
0.0270539847380502
 10
-192.41095441790486
 20
-123.40665360562286
 42
0.0269988303422121
 10
-198.80885932821275
 20
-127.15161458686315
 42
0.0270544657661407
 10
-204.76527182766969
 20
-131.56474778442029
 10
-204.77300449295387
 20
-131.57115261918878
 42
0.0272128704193295
 10
-210.2310950303594
 20
-136.61690744666009
 10
-210.88628229081863
 20
-137.29229000533732
 42
0.0272803528191564
 10
-214.58607102204454
 20
-141.54764316984895
 10
-215.02747521403381
 20
-142.1150646326538
 42
0.0144471094276664
 10
-217.51400899099141
 20
-145.50944974739156
 42
0.012018243964731
 10
-219.81778435986774
 20
-149.03107898033807
 10
-220.03944013883734
 20
-149.38836788407173
 42
0.0095336918869631
 10
-222.61909237066709
 20
-153.72914928290729
 10
-223.38788146144992
 20
-155.08082296500788
 42
0.0203580532647192
 10
-227.12720067731402
 20
-162.32645706422977
 10
-227.70263356724578
 20
-163.56246066528095
 42
0.0201450091072839
 10
-231.83689540852538
 20
-173.46678276380737
 10
-231.84611356014787
 20
-173.49163799110119
 42
0.0200286712618868
 10
-235.15583107928259
 20
-183.64551843804895
 10
-235.16064732373641
 20
-183.66258543194945
 42
0.0199273195344758
 10
-237.64112141138219
 20
-194.01386125586885
 10
-237.64293025928001
 20
-194.02300290638019
 42
0.0198616628251237
 10
-239.28992258531525
 20
-204.52034293236167
 42
0.0198253298264379
 10
-240.09934880734528
 20
-215.11325362417563
 42
0.0198416868491151
 10
-240.06669045344239
 20
-225.7349886462078
 10
-240.06645381096291
 20
-225.74052040362039
 42
0.0198924343327949
 10
-239.18989807263222
 20
-236.33713497618481
 10
-239.18824674442169
 20
-236.3505685250804
 42
0.0199795759290613
 10
-237.46610832249152
 20
-246.87032006365106
 10
-237.46169630584942
 20
-246.89183978258694
 42
0.0200929651735089
 10
-234.89247863856431
 20
-257.28249998500712
 10
-234.88373733835485
 20
-257.31260600238005
 42
0.0201725394880764
 10
-231.46723168592533
 20
-267.522294832809
 10
-231.0260160269238
 20
-268.68299366270139
 42
0.0206313838129823
 10
-227.69929334270628
 20
-276.45339026310296
 42
0.0092013934739303
 10
-223.91260705577452
 20
-284.01676714266591
 10
-223.66043752847096
 20
-284.49810548220489
 42
0.0164851862415037
 10
-218.95644422546343
 20
-292.79933298845577
 10
-218.03142309818702
 20
-294.31312727343368
 42
0.0166304495220078
 10
-210.88692827613363
 20
-305.17593258762935
 10
-210.87881527423372
 20
-305.187417086317
 42
0.0165654413521603
 10
-203.04638724188879
 20
-315.5299888584816
 10
-203.04217341873598
 20
-315.535186052661
 42
0.0165370881292722
 10
-194.55147906703883
 20
-325.3268974127725
 42
0.0165252156637696
 10
-185.43244137731412
 20
-334.53618263829406
 42
0.016536010900147
 10
-175.724947027208
 20
-343.12280699423491
 10
-175.71971743649678
 20
-343.12713316327358
 42
0.0165634898671673
 10
-165.4548075006519
 20
-351.06113680145285
 10
-165.44343931968001
 20
-351.06933683702812
 42
0.0165619054530678
 10
-154.65258725563652
 20
-358.32206955294157
 10
-153.42901576036957
 20
-359.08688247854468
 42
0.0169283465985011
 10
-144.59863323475315
 20
-364.19918013750868
 42
0.0074583968838823
 10
-135.52533256370299
 20
-368.87707246089627
 10
-132.99673415143593
 20
-370.13335102109198
 42
0.0197729764968291
 10
-118.53997031423687
 20
-376.61651826963919
 10
-114.5876568682345
 20
-378.20441126130231
 42
0.013297346113905
 10
-99.41646949307335
 20
-383.83590557744139
 42
0.013243688460638
 10
-83.97441449203167
 20
-388.6525363131654
 42
0.0132406004907919
 10
-68.307104122516876
 20
-392.64246290798525
 42
0.0132488689661681
 10
-52.448120508499301
 20
-395.79758135461412
 42
0.0132586212092123
 10
-36.440349936649966
 20
-398.10872006092956
 10
-36.430712362594122
 20
-398.10985155635484
 42
0.013281184287875
 10
-20.303572460827887
 20
-399.57024607896506
 10
-20.288129319385561
 20
-399.57123188353438
 42
0.0133107071661514
 10
-4.0752697038509407
 20
-400.1734616695739
 10
-4.0668631327971498
 20
-400.1735500114292
 42
0.0033323064079875
 10
-0.0000000000000036
 20
-400.1891818576388
 42
0.0033323064079875
  0
LWPOLYLINE
  5
119
100
AcDbEntity
  8
0
370
              15
390
0
  6
Continuous
 62
               7
100
AcDbPolyline
 90
       13
 70
             129
 10
-12.498806
 20
-393.691732
 10
-10.900282000000001
 20
-395.40049900000002
 10
-6.111599
 20
-396.74408599999998
 10
0.0
 20
-397.19194900000002
 10
6.1184900000000004
 20
-396.74408599999998
 10
10.907171999999999
 20
-395.40049900000002
 10
12.505697
 20
-393.691732
 10
10.907171999999999
 20
-391.98296399999998
 10
6.1184900000000004
 20
-390.63937700000002
 10
0.0
 20
-390.19151499999998
 10
-6.111599
 20
-390.63937700000002
 10
-10.900282000000001
 20
-391.98296399999998
 10
-12.498806
 20
-393.691732
  0
CIRCLE
  5
11A
100
AcDbEntity
  8
0
370
              15
390
0
  6
Continuous
 62
               7
100
AcDbCircle
 10
0.0
 20
-179.999349
 30
0.0
 40
22.999457
  0
CIRCLE
  5
11B
100
AcDbEntity
  8
0
370
              15
390
0
  6
Continuous
 62
               7
100
AcDbCircle
 10
0.003445
 20
-179.999349
 30
0.0
 40
34.998725
  0
CIRCLE
  5
11C
100
AcDbEntity
  8
0
370
              15
390
0
  6
Continuous
 62
               7
100
AcDbCircle
 10
0.003445
 20
-67.000217000000006
 30
0.0
 40
17.497640000000001
  0
ENDBLK
  5
11D
100
AcDbEntity
  8
GAR70-0918
390
0
100
AcDbBlockEnd
  0
BLOCK
  5
11E
100
AcDbEntity
  8
GAR70-0918
390
0
100
AcDbBlockBegin
  2
813951D-2
 70
               0
 10
0.0
 20
0.0
 30
0.0
  3
813951D-2
  1

  0
LWPOLYLINE
  5
11F
100
AcDbEntity
  8
0
370
              15
390
0
  6
STYLE_12
 62
               7
100
AcDbPolyline
 90
       65
 70
             129
 10
-279.996691
 20
-219.99690799999999
 10
-278.69444399999998
 20
-241.198025
 10
-274.71880399999998
 20
-262.50938600000001
 10
-268.03531900000002
 20
-283.60715099999999
 10
-258.68533000000002
 20
-304.188151
 10
-246.77907999999999
 20
-323.93543799999998
 10
-232.50949399999999
 20
-342.57340499999998
 10
-216.14529099999999
 20
-359.84711399999998
 10
-197.98963800000001
 20
-375.56363900000002
 10
-177.987413
 20
-389.82633499999997
 10
-156.00081399999999
 20
-402.69032099999998
 10
-132.28477599999999
 20
-413.89377200000001
 10
-107.14936
 20
-423.250651
 10
-80.952854000000002
 20
-430.602485
 10
-54.094889000000002
 20
-435.85280999999998
 10
-26.981988000000001
 20
-438.97406699999999
 10
0.0
 20
-440.00070499999998
 10
26.981988000000001
 20
-438.97406699999999
 10
54.101779999999998
 20
-435.85280999999998
 10
80.959744000000001
 20
-430.602485
 10
107.15625
 20
-423.250651
 10
132.29166699999999
 20
-413.89377200000001
 10
156.00770399999999
 20
-402.69032099999998
 10
177.994303
 20
-389.82633499999997
 10
197.98963800000001
 20
-375.56363900000002
 10
216.15218100000001
 20
-359.84711399999998
 10
232.51638500000001
 20
-342.57340499999998
 10
246.77907999999999
 20
-323.93543799999998
 10
258.69222000000002
 20
-304.188151
 10
268.04220900000001
 20
-283.60715099999999
 10
274.72569399999998
 20
-262.50938600000001
 10
278.70133499999997
 20
-241.198025
 10
280.003581
 20
-219.99690799999999
 10
278.70133499999997
 20
-198.79579000000001
 10
274.72569399999998
 20
-177.491319
 10
268.04220900000001
 20
-156.386664
 10
258.69222000000002
 20
-135.80566400000001
 10
246.77907999999999
 20
-116.05837699999999
 10
232.51638500000001
 20
-97.427300000000002
 10
216.15218100000001
 20
-80.146700999999993
 10
197.98963800000001
 20
-64.437066000000002
 10
177.994303
 20
-50.167479999999998
 10
156.00770399999999
 20
-37.310383999999999
 10
132.29166699999999
 20
-26.100042999999999
 10
107.15625
 20
-16.743164
 10
80.959744000000001
 20
-9.3982200000000002
 10
54.101779999999998
 20
-4.1410049999999998
 10
26.981988000000001
 20
-1.0197480000000001
 10
0.0
 20
0.0
 10
-26.981988000000001
 20
-1.0197480000000001
 10
-54.094889000000002
 20
-4.1410049999999998
 10
-80.952854000000002
 20
-9.3982200000000002
 10
-107.14936
 20
-16.743164
 10
-132.28477599999999
 20
-26.100042999999999
 10
-156.00081399999999
 20
-37.310383999999999
 10
-177.987413
 20
-50.167479999999998
 10
-197.98963800000001
 20
-64.437066000000002
 10
-216.14529099999999
 20
-80.146700999999993
 10
-232.50949399999999
 20
-97.427300000000002
 10
-246.77907999999999
 20
-116.05837699999999
 10
-258.68533000000002
 20
-135.80566400000001
 10
-268.03531900000002
 20
-156.386664
 10
-274.71880399999998
 20
-177.491319
 10
-278.69444399999998
 20
-198.79579000000001
 10
-279.996691
 20
-219.99690799999999
  0
LWPOLYLINE
  5
120
100
AcDbEntity
  8
0
370
              15
390
0
  6
STYLE_12
 62
               7
100
AcDbPolyline
 90
      170
 70
             128
 10
-0.0000000000000036
 20
-400.1891818576388
 42
0.0033320690933839
 10
4.0671720722510685
 20
-400.17355225413667
 10
7.1128158694746224
 20
-400.14155061244185
 42
0.0133099842084407
 10
17.261135649327326
 20
-399.76461740915056
 10
20.307015195099098
 20
-399.57019821142489
 42
0.0132806183263871
 10
36.435461662142885
 20
-398.10977222164274
 10
36.44530874603609
 20
-398.10861619341733
 42
0.0132582997239641
 10
52.453968846250191
 20
-395.79746534630067
 42
0.0132430212604379
 10
68.31377338100701
 20
-392.64228994083805
 42
0.0132434710233746
 10
83.981600682717129
 20
-388.65230301962839
 42
0.0132550259834009
 10
99.423932148750168
 20
-383.83563278760698
 42
0.0132571653128009
 10
114.59587311002423
 20
-378.2052914897908
 10
116.4801398142135
 20
-377.44862044553003
 42
0.0133350445360619
 10
127.65251749334519
 20
-372.61226493499481
 10
129.66670157802295
 20
-371.67581335596611
 42
0.0063749994570582
 10
136.63898311565126
 20
-368.32543950548052
 42
0.0076054451951797
 10
143.51463719518944
 20
-364.78157458960737
 10
144.60561229782112
 20
-364.1980913219387
 42
0.0168510243810974
 10
153.43693586487899
 20
-359.08495076365693
 10
154.65993202858166
 20
-358.32071739255457
 42
0.0165948632199426
 10
165.45122248975463
 20
-351.068683576257
 10
165.46261975054179
 20
-351.06046252211024
 42
0.0165639777290478
 10
175.7274471559918
 20
-343.12646610573381
 10
175.7325947872082
 20
-343.12220769916325
 42
0.016536830266245
 10
185.44014386235506
 20
-334.53543001944684
 42
0.0165252302511331
 10
194.55911395535674
 20
-325.32607783879314
 42
0.0165363253847506
 10
203.04965431925305
 20
-315.53442168095444
 10
203.05393488273393
 20
-315.52914212109238
 42
0.0165669169901049
 10
210.8863248779883
 20
-305.18645700306979
 10
210.89441266655842
 20
-305.17500793893799
 42
0.0166649908960286
 10
218.03801603944891
 20
-294.31167402230614
 10
218.96302309067013
 20
-292.79739676537122
 42
0.0163938068725484
 10
223.66677102491786
 20
-284.49726059216397
 10
224.55021377369039
 20
-282.81184378147435
 42
0.009258472629867
 10
227.1198399417986
 20
-277.68068939302941
 42
0.0104701742707551
 10
229.48495082344388
 20
-272.4524176223884
 10
229.96058751988778
 20
-271.33949954033665
 42
0.0202503369805367
 10
232.8586931452019
 20
-263.71843654593897
 10
233.29123653257554
 20
-262.42573032932472
 42
0.0201539150402411
 10
236.28385222081062
 20
-252.11919829644418
 10
236.29020042342148
 20
-252.09351195972397
 42
0.0200272676719908
 10
238.43530667870675
 20
-241.63172202945694
 10
238.43816323859789
 20
-241.61426427562708
 42
0.0199252383499059
 10
239.73717386711951
 20
-231.04964738969113
 10
239.73793874300114
 20
-231.04039713233828
 42
0.0198592163173631
 10
240.19243165844151
 20
-220.4244351397457
 42
0.0198226184950138
 10
239.80403784194391
 20
-209.80778785838979
 42
0.0198386454653848
 10
238.57579211044251
 20
-199.25726680761909
 10
238.57493088802892
 20
-199.25177548277901
 42
0.0198891805246131
 10
236.51110451714206
 20
-188.82115255194671
 10
236.50794868723034
 20
-188.80797814339527
 42
0.0199763052021039
 10
233.61269094886816
 20
-178.54885379672484
 10
233.60588443413263
 20
-178.52796575854677
 42
0.0200944871635706
 10
229.88349100162429
 20
-168.49244422297033
 10
229.87142745890935
 20
-168.46353918922509
 42
0.0203407866094466
 10
225.32426678076737
 20
-158.7049294101821
 10
224.59671824560149
 20
-157.29619784389226
 42
0.0197283159109741
 10
220.76449964367106
 20
-150.54335664912225
 10
219.82531149344237
 20
-149.03067679289464
 42
0.0119291183432965
 10
217.52089880643052
 20
-145.50944767063206
 42
0.0144290508674725
 10
215.03448537114087
 20
-142.11497371036182
 10
214.59260031289372
 20
-141.54685009824223
 42
0.0273195516099895
 10
210.8916884473559
 20
-137.29026257009593
 10
210.23694389243823
 20
-136.61545116835251
 42
0.0271971855327407
 10
204.77865750320606
 20
-131.57005858238406
 10
204.77105024867137
 20
-131.56375790954826
 42
0.0270570039306706
 10
198.81434908602085
 20
-127.15066362641319
 42
0.0269993751996985
 10
192.41632882288971
 20
-123.40590083123061
 42
0.0270520682974532
 10
185.65177015830309
 20
-120.37315103706239
 10
185.64226890409765
 20
-120.36949453881249
 42
0.0272394027635794
 10
178.56975143013315
 20
-118.08127879237203
 10
177.66020480719845
 20
-117.8408364521714
 42
0.0270971408562484
 10
172.13759453812901
 20
-116.69682749854874
 42
0.0155347491381997
 10
166.53210925996717
 20
-116.02653401616647
 10
166.21535914872209
 20
-115.99860505841454
 42
0.007687000673345
 10
159.9485381616511
 20
-115.54300712324964
 10
157.4550595607451
 20
-115.40022781045077
 42
-0.0004593932397316
 10
146.19487853818779
 20
-114.74507735314592
 10
144.94978668312055
 20
-114.67148633837267
 42
0.0016612848277596
 10
131.19747552563737
 20
-113.90450128511014
 10
114.00296028989905
 20
-113.00283705468351
 42
0.008229584014557
 10
65.830566199552422
 20
-111.27114790922015
 10
40.008978392895592
 20
-110.76824815348496
 42
0.0041464245234383
 10
15.908344910994828
 20
-110.49877548021264
 10
7.300395814961286
 20
-110.47391670955763
 42
0.0006907038241037
 10
0.4134114583333286
 20
-110.4635416666666
 10
-0.4065212673611143
 20
-110.4635416666666
 42
0.0006927062745223
 10
-7.294229311062514
 20
-110.4739452766936
 10
-22.790150743184029
 20
-110.51881960010098
 42
0.0069011443715058
 10
-60.660957933231742
 20
-111.15124288981708
 10
-86.474915156845796
 20
-111.93881309203951
 42
0.0054596698428866
 10
-120.87584725343838
 20
-113.36448899160598
 10
-131.19124461162954
 20
-113.90487465893204
 42
0.0016748157011143
 10
-144.94324620183943
 20
-114.67149014977082
 10
-146.18825004146859
 20
-114.74507786537687
 42
-0.0004596152106627
 10
-157.44827830329285
 20
-115.40023162787465
 10
-159.941697178607
 20
-115.54300910994601
 42
0.0076868349996262
 10
-166.20848530829085
 20
-115.9986065712807
 10
-166.52440432648712
 20
-116.02646223995697
 42
0.0154860205804315
 10
-172.13159531653503
 20
-116.69640539782563
 42
0.0271893237005567
 10
-177.65576193866832
 20
-117.84067530817866
 10
-178.56472329420092
 20
-118.08113172739969
 42
0.0272021876340842
 10
-185.63693921762655
 20
-120.37002485888297
 10
-185.64629064862066
 20
-120.37362396503283
 42
0.0270539847380502
 10
-192.41095441790486
 20
-123.40665360562286
 42
0.0269988303422121
 10
-198.80885932821275
 20
-127.15161458686315
 42
0.0270544657661407
 10
-204.76527182766969
 20
-131.56474778442029
 10
-204.77300449295387
 20
-131.57115261918878
 42
0.0272128704193295
 10
-210.2310950303594
 20
-136.61690744666009
 10
-210.88628229081863
 20
-137.29229000533732
 42
0.0272803528191564
 10
-214.58607102204454
 20
-141.54764316984895
 10
-215.02747521403381
 20
-142.1150646326538
 42
0.0144471094276664
 10
-217.51400899099141
 20
-145.50944974739156
 42
0.012018243964731
 10
-219.81778435986774
 20
-149.03107898033807
 10
-220.03944013883734
 20
-149.38836788407173
 42
0.0095336918869631
 10
-222.61909237066709
 20
-153.72914928290729
 10
-223.38788146144992
 20
-155.08082296500788
 42
0.0203580532647192
 10
-227.12720067731402
 20
-162.32645706422977
 10
-227.70263356724578
 20
-163.56246066528095
 42
0.0201450091072839
 10
-231.83689540852538
 20
-173.46678276380737
 10
-231.84611356014787
 20
-173.49163799110119
 42
0.0200286712618868
 10
-235.15583107928259
 20
-183.64551843804895
 10
-235.16064732373641
 20
-183.66258543194945
 42
0.0199273195344758
 10
-237.64112141138219
 20
-194.01386125586885
 10
-237.64293025928001
 20
-194.02300290638019
 42
0.0198616628251237
 10
-239.28992258531525
 20
-204.52034293236167
 42
0.0198253298264379
 10
-240.09934880734528
 20
-215.11325362417563
 42
0.0198416868491151
 10
-240.06669045344239
 20
-225.7349886462078
 10
-240.06645381096291
 20
-225.74052040362039
 42
0.0198924343327949
 10
-239.18989807263222
 20
-236.33713497618481
 10
-239.18824674442169
 20
-236.3505685250804
 42
0.0199795759290613
 10
-237.46610832249152
 20
-246.87032006365106
 10
-237.46169630584942
 20
-246.89183978258694
 42
0.0200929651735089
 10
-234.89247863856431
 20
-257.28249998500712
 10
-234.88373733835485
 20
-257.31260600238005
 42
0.0201725394880764
 10
-231.46723168592533
 20
-267.522294832809
 10
-231.0260160269238
 20
-268.68299366270139
 42
0.0206313838129823
 10
-227.69929334270628
 20
-276.45339026310296
 42
0.0092013934739303
 10
-223.91260705577452
 20
-284.01676714266591
 10
-223.66043752847096
 20
-284.49810548220489
 42
0.0164851862415037
 10
-218.95644422546343
 20
-292.79933298845577
 10
-218.03142309818702
 20
-294.31312727343368
 42
0.0166304495220078
 10
-210.88692827613363
 20
-305.17593258762935
 10
-210.87881527423372
 20
-305.187417086317
 42
0.0165654413521603
 10
-203.04638724188879
 20
-315.5299888584816
 10
-203.04217341873598
 20
-315.535186052661
 42
0.0165370881292722
 10
-194.55147906703883
 20
-325.3268974127725
 42
0.0165252156637696
 10
-185.43244137731412
 20
-334.53618263829406
 42
0.016536010900147
 10
-175.724947027208
 20
-343.12280699423491
 10
-175.71971743649678
 20
-343.12713316327358
 42
0.0165634898671673
 10
-165.4548075006519
 20
-351.06113680145285
 10
-165.44343931968001
 20
-351.06933683702812
 42
0.0165619054530678
 10
-154.65258725563652
 20
-358.32206955294157
 10
-153.42901576036957
 20
-359.08688247854468
 42
0.0169283465985011
 10
-144.59863323475315
 20
-364.19918013750868
 42
0.0074583968838823
 10
-135.52533256370299
 20
-368.87707246089627
 10
-132.99673415143593
 20
-370.13335102109198
 42
0.0197729764968291
 10
-118.53997031423687
 20
-376.61651826963919
 10
-114.5876568682345
 20
-378.20441126130231
 42
0.013297346113905
 10
-99.41646949307335
 20
-383.83590557744139
 42
0.013243688460638
 10
-83.97441449203167
 20
-388.6525363131654
 42
0.0132406004907919
 10
-68.307104122516876
 20
-392.64246290798525
 42
0.0132488689661681
 10
-52.448120508499301
 20
-395.79758135461412
 42
0.0132586212092123
 10
-36.440349936649966
 20
-398.10872006092956
 10
-36.430712362594122
 20
-398.10985155635484
 42
0.013281184287875
 10
-20.303572460827887
 20
-399.57024607896506
 10
-20.288129319385561
 20
-399.57123188353438
 42
0.0133107071661514
 10
-4.0752697038509407
 20
-400.1734616695739
 10
-4.0668631327971498
 20
-400.1735500114292
 42
0.0033323064079875
 10
-0.0000000000000036
 20
-400.1891818576388
 42
0.0033323064079875
  0
LWPOLYLINE
  5
121
100
AcDbEntity
  8
0
370
              15
390
0
  6
STYLE_12
 62
               7
100
AcDbPolyline
 90
       13
 70
             129
 10
-12.498806
 20
-393.691732
 10
-10.900282000000001
 20
-395.40049900000002
 10
-6.111599
 20
-396.74408599999998
 10
0.0
 20
-397.19194900000002
 10
6.1184900000000004
 20
-396.74408599999998
 10
10.907171999999999
 20
-395.40049900000002
 10
12.505697
 20
-393.691732
 10
10.907171999999999
 20
-391.98296399999998
 10
6.1184900000000004
 20
-390.63937700000002
 10
0.0
 20
-390.19151499999998
 10
-6.111599
 20
-390.63937700000002
 10
-10.900282000000001
 20
-391.98296399999998
 10
-12.498806
 20
-393.691732
  0
CIRCLE
  5
122
100
AcDbEntity
  8
0
370
              15
390
0
  6
STYLE_12
 62
               7
100
AcDbCircle
 10
0.0
 20
-179.999349
 30
0.0
 40
22.999457
  0
CIRCLE
  5
123
100
AcDbEntity
  8
0
370
              15
390
0
  6
STYLE_12
 62
               7
100
AcDbCircle
 10
0.003445
 20
-179.999349
 30
0.0
 40
34.998725
  0
CIRCLE
  5
124
100
AcDbEntity
  8
0
370
              15
390
0
  6
STYLE_12
 62
               7
100
AcDbCircle
 10
0.003445
 20
-67.000217000000006
 30
0.0
 40
17.497640000000001
  0
ENDBLK
  5
125
100
AcDbEntity
  8
GAR70-0918
390
0
100
AcDbBlockEnd
  0
BLOCK
  5
126
100
AcDbEntity
  8
GAR70-0918
390
0
100
AcDbBlockBegin
  2
813951V
 70
               0
 10
0.0
 20
0.0
 30
0.0
  3
813951V
  1

  0
LWPOLYLINE
  5
127
100
AcDbEntity
  8
0
370
              15
390
0
  6
Continuous
 62
               7
100
AcDbPolyline
 90
       49
 70
             128
 10
0.0
 20
850.0
 10
-269.10329861111097
 20
850.0
 10
-279.9966905381944
 20
850.0
 10
-279.9966905381944
 20
852.00160047743054
 10
-279.54882812499989
 20
860.52476671006934
 42
-0.0042295190996102
 10
-279.54673948305816
 20
860.5678531758839
 10
-279.53384891984439
 20
860.79416961879292
 42
-0.0211038575760204
 10
-279.48477042784026
 20
861.28779888819918
 10
-279.46081149470757
 20
861.45623018805895
 42
-0.0213993545138273
 10
-279.30777993194266
 20
862.27809708922393
 10
-279.21022064823853
 20
862.70068989916308
 42
-0.0659527243952679
 10
-278.61730026634143
 20
864.28263875856862
 10
-278.38475263508997
 20
864.71829200101706
 42
-0.0651964230127359
 10
-276.89075635819472
 20
866.8086826792528
 10
-276.66479549020028
 20
867.05088003058779
 42
-0.0636618364584777
 10
-275.19274128646327
 20
868.27304795582063
 42
-0.0320660942993166
 10
-273.50501921751345
 20
869.19867711302322
 10
-273.49737997229829
 20
869.20225060168468
 42
-0.064907199416196
 10
-271.65872764336137
 20
869.78698465672255
 10
-271.34345547203424
 20
869.843793285679
 42
-0.0333421927997715
 10
-270.02060083954598
 20
869.99206188183393
 10
-269.86089770425281
 20
869.99924646108457
 42
-0.0336560396116734
 10
-268.84907396021003
 20
869.97664877843795
 10
-268.68288420815708
 20
869.96171542179354
 42
-0.0167316746212753
 10
-268.00775824652771
 20
869.87820095486097
 10
-268.00775824652771
 20
870.00222439236097
 10
0.0
 20
870.00222439236097
 10
268.0146484375
 20
870.00222439236097
 10
268.0146484375
 20
869.87820095486097
 42
-0.0167466631312634
 10
268.68984337498057
 20
869.96170341002698
 10
269.18847379032854
 20
870.00647884787281
 42
-0.0669793222309685
 10
270.85381529018287
 20
869.93281909132554
 10
271.35137820016502
 20
869.84332550429451
 42
-0.065111981659874
 10
273.80057790404305
 20
869.06417308300422
 10
274.10063644316682
 20
868.92362848195489
 42
-0.063672518425284
 10
275.71676160716618
 20
867.89861953606942
 42
-0.0320739442355807
 10
277.11696273720776
 20
866.57705485827955
 10
277.1226362460169
 20
866.57096666924826
 42
-0.0649724569117318
 10
278.24443739672694
 20
865.00092284218988
 10
278.24781671083804
 20
864.99459689347532
 42
-0.033526920771016
 10
279.05179703331254
 20
863.21154020496988
 10
279.14593574457604
 20
862.95881598856454
 42
-0.0669046357116795
 10
279.47794163767827
 20
861.49451218034869
 10
279.52626461645093
 20
860.95514304151959
 42
-0.0025531148453264
 10
279.5626085069444
 20
860.52476671006934
 10
280.00358072916657
 20
852.00160047743054
 10
280.00358072916657
 20
850.0
 10
269.11707899305549
 20
850.0
 10
0.0
 20
850.0
  0
LWPOLYLINE
  5
128
100
AcDbEntity
  8
0
370
              15
390
0
  6
Continuous
 62
               7
100
AcDbPolyline
 90
      161
 70
             128
 10
-252.5323893229166
 20
850.0
 42
-0.0077910208628376
 10
-251.78302169373507
 20
849.29331474406979
 10
-250.85901665588949
 20
848.39432932983937
 42
-0.0462297127416895
 10
-248.52583953241668
 20
845.66180961228156
 10
-247.78593863204668
 20
844.61288560474156
 42
-0.0308781637670399
 10
-245.62593833587084
 20
841.11028787611883
 42
-0.0310309072159424
 10
-243.91493660258195
 20
837.36787893392693
 10
-243.91063043430324
 20
837.35666963148049
 42
-0.0313188574702134
 10
-242.67108983297817
 20
833.40783364126946
 10
-242.48048193597413
 20
832.63411346732244
 42
-0.0316207673323395
 10
-242.01371111190946
 20
830.04434945888397
 10
-241.92319134542538
 20
829.26139359512911
 42
-0.0079315671918594
 10
-241.818142361111
 20
828.20632595486109
 42
0.0066369955719802
 10
-241.71656135304258
 20
827.15860698860286
 10
-241.57259753795722
 20
825.8542451080084
 42
0.0394128644583191
 10
-240.88490344661062
 20
822.2534431496648
 10
-240.53826846521918
 20
820.98864857873423
 42
0.0261553061523761
 10
-239.22791510972888
 20
817.03180909572939
 42
0.0261024551610938
 10
-237.51150249871432
 20
813.23211390436177
 42
0.0261395188939326
 10
-235.407766951555
 20
809.6310271632068
 10
-234.97480017366431
 20
808.97159553525182
 42
0.026243035869763
 10
-233.42293359716766
 20
806.85855776287508
 10
-232.92475026234106
 20
806.24991855986718
 42
0.006581897576094
 10
-232.2476671006944
 20
805.444580078125
 10
-232.2407769097222
 20
805.44113498263903
 42
0.0036950724436478
 10
-229.78519210101831
 20
802.64134571004945
 10
-226.70320153410813
 20
799.17929451013288
 42
0.0220939037115969
 10
-217.65155062688009
 20
789.87371815837105
 10
-214.26701894936093
 20
786.68862946044248
 42
0.0146584447885734
 10
-203.26241236912298
 20
776.92463012218082
 10
-203.24376524605128
 20
776.90903765653684
 42
0.0145991149540723
 10
-191.7251479883268
 20
767.83530835412034
 10
-191.71088417622548
 20
767.82473199511981
 42
0.0145525151422948
 10
-179.71223116148718
 20
759.45784547445714
 10
-179.70247219141868
 20
759.45145419781886
 42
0.0145169451232225
 10
-167.25780218526771
 20
751.80803870577779
 42
0.0144905640275811
 10
-154.39577716519199
 20
744.90161485572355
 42
0.0144873591202981
 10
-141.16024600582836
 20
738.7543834520967
 42
0.0145007425282128
 10
-127.58554692480186
 20
733.38227248723911
 42
0.0145163773420256
 10
-113.71686019693009
 20
728.80441885809728
 10
-113.70567467260418
 20
728.80108346354427
 42
0.0145512426837217
 10
-99.571930538438266
 20
725.03070428458432
 10
-99.554600878723193
 20
725.02661752630684
 42
0.0145975870818726
 10
-85.190370323943569
 20
722.0789346193136
 10
-85.166398227037419
 20
722.07474045858839
 42
0.0146588323094096
 10
-70.606283559880055
 20
719.96508512895866
 10
-65.985105664815677
 20
719.43328067770358
 42
0.0220876693401606
 10
-53.038425133746088
 20
718.520225756032
 10
-48.406408455370233
 20
718.39865596739025
 42
0.0036935973682639
 10
-44.6828884548611
 20
718.32845052083314
 42
-0.0158544639735713
 10
-44.169146084200335
 20
718.30620391472041
 10
-43.791168871688285
 20
718.27780908844409
 42
-0.0633230570172343
 10
-42.554298047275331
 20
718.02520298576894
 10
-42.192069153659212
 20
717.90196504038192
 42
-0.0617622674196738
 10
-40.435017901541805
 20
717.05038363697622
 10
-40.224259609927138
 20
716.91390068902194
 42
-0.0605604281513704
 10
-39.10764688177143
 20
715.98167222490508
 42
-0.0304785415619534
 10
-38.173002434565909
 20
714.85667465165398
 10
-38.169579302196482
 20
714.85200236005198
 42
-0.0617033969499763
 10
-37.455275383870735
 20
713.57214717711781
 10
-37.218683308191132
 20
712.98962888999097
 42
-0.0632757055229451
 10
-36.895664243935258
 20
711.77251544122078
 10
-36.84556896157337
 20
711.39818050822998
 42
-0.0158750610842721
 10
-36.793619791666657
 20
710.88704427083326
 10
-35.139973958333329
 20
697.99205186631934
 42
0.016443260086473
 10
-35.120868192746151
 20
697.79886709626658
 10
-35.089548519336702
 20
697.56199970731655
 42
0.0953644018300687
 10
-34.880930237494027
 20
696.9358633483954
 10
-34.764597673983289
 20
696.72874947055823
 42
0.0619886926026746
 10
-34.328222256877005
 20
696.13722164874787
 42
0.0611858690080646
 10
-33.760801502255198
 20
695.66970038924012
 10
-33.759589361893333
 20
695.66892865070236
 42
0.0622429406237094
 10
-33.092822215078655
 20
695.35288701991419
 10
-32.954868561158321
 20
695.30743088161853
 42
0.0636815244223169
 10
-32.48680048878515
 20
695.2168742028075
 10
-32.344122514827227
 20
695.2077422623355
 42
0.0159805283626984
 10
-32.149631076388879
 20
695.20152452256946
 10
-22.999457465277771
 20
695.20152452256946
 10
0.0
 20
695.20152452256946
 10
22.999457465277771
 20
695.20152452256946
 10
32.156521267361107
 20
695.20152452256946
 42
0.0162736779860512
 10
32.350938905747036
 20
695.20785397889961
 10
32.589577840421171
 20
695.22340871297888
 42
0.0948851386586554
 10
33.229229800169065
 20
695.38966682182377
 10
33.444140437259293
 20
695.4917620898633
 42
0.0618615064447802
 10
34.063808147343096
 20
695.88638601158402
 42
0.0611201243641864
 10
34.568995765651415
 20
696.41995742852441
 10
34.569698513170295
 20
696.42090923235764
 42
0.0621702479596226
 10
34.930622848802912
 20
697.0634217173922
 10
34.985393400185487
 20
697.19756864610702
 42
0.0635460035856649
 10
35.108064893904896
 20
697.6573895067188
 10
35.127101855547771
 20
697.79883169702146
 42
0.0159331601771556
 10
35.146864149305543
 20
697.99205186631934
 10
36.800509982638879
 20
710.88704427083326
 42
-0.0158565717350252
 10
36.852440317048668
 20
711.39818302817696
 10
36.869180304504638
 20
711.52334228336531
 42
-0.0318984903364347
 10
37.018717597157256
 20
712.27360251799553
 10
37.114263806364818
 20
712.63203220806395
 42
-0.0625181355142049
 10
37.676905284911037
 20
714.01897544022893
 10
37.796487314956394
 20
714.23262988708689
 42
-0.0610717189383231
 10
38.946660309741162
 20
715.80268758403133
 10
39.115505667200345
 20
715.98239589131833
 42
-0.0605681647851452
 10
40.233992381203166
 20
716.91603670122322
 42
-0.0307751822325998
 10
41.510291329193493
 20
717.63505812478274
 10
41.520434565304704
 20
717.63997683215246
 42
-0.0623711125104874
 10
42.920784736976749
 20
718.11483953920754
 10
43.291718710893512
 20
718.19094077785303
 42
-0.0318649037361287
 10
44.050025885153275
 20
718.2967551395916
 10
44.176035397887368
 20
718.30621559625729
 42
-0.0158430764362528
 10
44.689778645833343
 20
718.32845052083314
 42
0.0036943841155759
 10
48.413298552946941
 20
718.39866182657101
 10
53.04696916929467
 20
718.52028961566987
 42
0.0220903318172307
 10
65.996937339309241
 20
719.43368661838463
 10
70.61415806860839
 20
719.96510020217477
 42
0.0146563589205696
 10
85.17429974489707
 20
722.07489094760217
 10
85.198252924048973
 20
722.07908189475768
 42
0.0145972551986101
 10
99.562554910965503
 20
725.02682790975859
 10
99.579847776490894
 20
725.03090603803344
 42
0.014550886247257
 10
113.71373778322476
 20
728.80135229436792
 10
113.72492580036638
 20
728.8046884462301
 42
0.0145155355804533
 10
127.59376068317444
 20
733.3825827411946
 42
0.0144893478350774
 10
141.1687343530055
 20
738.75476370001479
 42
0.0144863261505262
 10
154.40459419457267
 20
744.90206020762241
 42
0.0144998659450806
 10
167.26702489541412
 20
751.80852403094423
 42
0.0145156246542658
 10
179.71226208756428
 20
759.45199122788188
 10
179.72202936761565
 20
759.45838766842826
 42
0.0145505804737228
 10
191.7213167673618
 20
767.8252918139209
 10
191.73562570971339
 20
767.83590102224866
 42
0.0145969802257002
 10
203.25503740332093
 20
776.90965964504517
 10
203.27371744642562
 20
776.92527848824943
 42
0.0146582524026848
 10
214.27922367721328
 20
786.68935603327918
 10
217.66697259945622
 20
789.87723609473142
 42
0.0220867324272336
 10
226.71733316631523
 20
799.18053046537671
 10
229.79862841410176
 20
802.64134300347257
 42
0.0036934157167051
 10
232.2545572916666
 20
805.44113498263903
 10
232.2545572916666
 20
805.444580078125
 42
0.0065700567054943
 10
232.93168741613366
 20
806.24993569964658
 10
233.43019993260415
 20
806.85891822217854
 42
0.0262014466427848
 10
234.98293510405463
 20
808.97256055363653
 10
235.41589039266648
 20
809.63166777418667
 42
0.0261125344279119
 10
237.52099937248329
 20
813.23289310009795
 42
0.0260766938155156
 10
239.23898265178016
 20
817.0325897746776
 42
0.0261720608034291
 10
240.55078217659016
 20
820.98945538155999
 10
240.89877489432905
 20
822.25774182285829
 42
0.0394817688771071
 10
241.58649777745069
 20
825.855643008774
 10
241.73033123684675
 20
827.1586005970986
 42
0.0066416661107745
 10
241.83192274305549
 20
828.20632595486109
 42
-0.0079449794164078
 10
241.9361409259738
 20
829.26138489552136
 10
242.02612554898386
 20
830.04487683621846
 42
-0.0316962678824443
 10
242.49148502721667
 20
832.63573354632831
 10
242.68162520432216
 20
833.40905475823558
 42
-0.0313681023706577
 10
243.9196306137504
 20
837.35786458036478
 10
243.92392504148748
 20
837.36905179726159
 42
-0.0310641503270907
 10
245.63404882910234
 20
841.11139321735925
 10
245.63591847804594
 20
841.11489220862506
 42
-0.0308857519388784
 10
247.79117573801517
 20
844.61062533242693
 10
248.08768911306086
 20
845.03105968251236
 42
-0.0308274930362282
 10
250.01434203942421
 20
847.43376274789762
 10
250.35961742699658
 20
847.81379474461153
 42
-0.0154571051134102
 10
251.78974812856148
 20
849.29331113500484
 42
-0.0077377608696929
 10
252.53927951388891
 20
850.0
 42
-0.0077377608696929
  0
LWPOLYLINE
  5
129
100
AcDbEntity
  8
0
370
              15
390
0
  6
Continuous
 62
               7
100
AcDbPolyline
 90
       57
 70
             128
 10
28.001736111111111
 20
695.20152452256946
 10
27.67789713541665
 20
687.78047960069432
 42
-0.0057293438672252
 10
27.67193355843655
 20
687.69056553205814
 10
27.663393400990259
 20
687.58085624077933
 42
-0.0354887844430762
 10
27.617572089843513
 20
687.27484831313234
 10
27.593111230850031
 20
687.16524733357937
 42
-0.0240470237203257
 10
27.504286921656973
 20
686.84136452197481
 10
27.502855575154591
 20
686.83698304793427
 42
-0.0244621658175564
 10
27.386370250372835
 20
686.53183995560767
 10
27.384571080027815
 20
686.52774064200526
 42
-0.0251701866007483
 10
27.242436353650824
 20
686.24365820691582
 10
27.240313990577352
 20
686.23990140955254
 42
-0.026144874967554
 10
27.074471204373573
 20
685.97917002984855
 10
27.072108267769149
 20
685.97585173408129
 42
-0.027411430234499
 10
26.884448740481361
 20
685.74073052366884
 10
26.881988134557879
 20
685.73797220237464
 42
-0.028971461255035
 10
26.674330399733531
 20
685.53070580650842
 10
26.671996902381554
 20
685.52863206302425
 42
-0.0307885451124865
 10
26.446067644738932
 20
685.35148082442504
 10
26.444183270967706
 20
685.35018219131371
 42
-0.0327681730185603
 10
26.201609716218073
 20
685.20546795809844
 10
26.200592576659805
 20
685.20494822754927
 42
-0.0347393431228896
 10
25.942918595462597
 20
685.09511240942186
 42
-0.0364518568341285
 10
25.672336512231517
 20
685.02295375750521
 10
25.620596517212718
 20
685.01312418613031
 42
-0.0375230876561958
 10
25.445372416189869
 20
684.99328675349579
 10
25.392552788274127
 20
684.99129340892
 42
-0.0094304816745383
 10
25.321451822916661
 20
684.98995225694432
 10
0.0
 20
684.98995225694432
 10
-25.328342013888879
 20
684.98995225694432
 42
-0.0094550650469155
 10
-25.399244371548956
 20
684.99129314962511
 10
-25.451970416681142
 20
684.99328815418403
 42
-0.0376721619881986
 10
-25.626800815136207
 20
685.01315114768659
 10
-25.678343875363467
 20
685.02298036046398
 42
-0.0365394293785984
 10
-25.948149405587422
 20
685.09518302646154
 42
-0.0348049741970285
 10
-26.205015589096991
 20
685.20503126092115
 10
-26.206058960254936
 20
685.20556611442157
 42
-0.0328104515728051
 10
-26.447850259152936
 20
685.35026984662954
 10
-26.449764464646613
 20
685.35159320648211
 42
-0.0308077547429714
 10
-26.674954490908362
 20
685.52871570087973
 10
-26.677317372241198
 20
685.53082212784739
 42
-0.0289693713963951
 10
-26.884292819474936
 20
685.73804782563502
 10
-26.886779574261681
 20
685.74084413432229
 42
-0.0273905522728878
 10
-27.073824739751821
 20
685.97591865295851
 10
-27.07620908749977
 20
685.97927738207432
 42
-0.0261075054657334
 10
-27.241514760425702
 20
686.23996091760375
 10
-27.243653171581883
 20
686.24375773014003
 42
-0.0251198394974608
 10
-27.385335847730289
 20
686.5277948020439
 10
-27.387146110332395
 20
686.53193185063265
 42
-0.0243978425189144
 10
-27.503273760944509
 20
686.83703550958023
 10
-27.504710971390946
 20
686.84144766423606
 42
-0.0240169425065915
 10
-27.593251524652079
 20
687.16530093712333
 10
-27.617687155989032
 20
687.27516694343365
 42
-0.0352745800549107
 10
-27.663383131035182
 20
687.58097216645342
 10
-27.671928023965737
 20
687.69056655503948
 42
-0.0057603624169171
 10
-27.677897135416671
 20
687.78047960069432
 10
-28.001736111111111
 20
695.20152452256946
  0
LINE
  5
12A
100
AcDbEntity
  8
0
370
              15
390
0
  6
Continuous
 62
               7
100
AcDbLine
 10
36.800510000000003
 20
710.88704399999995
 30
0.0
 11
36.800510000000003
 21
850.0
 31
0.0
  0
LINE
  5
12B
100
AcDbEntity
  8
0
370
              15
390
0
  6
Continuous
 62
               7
100
AcDbLine
 10
-36.793619999999997
 20
710.88704399999995
 30
0.0
 11
-36.793619999999997
 21
850.0
 31
0.0
  0
ENDBLK
  5
12C
100
AcDbEntity
  8
GAR70-0918
390
0
100
AcDbBlockEnd
  0
BLOCK
  5
12D
100
AcDbEntity
  8
GAR70-0918
390
0
100
AcDbBlockBegin
  2
813951S
 70
               0
 10
0.0
 20
0.0
 30
0.0
  3
813951S
  1

  0
LINE
  5
12E
100
AcDbEntity
  8
0
370
              15
390
0
  6
Continuous
 62
               7
100
AcDbLine
 10
136.136393
 20
719.12082199999998
 30
0.0
 11
219.755751
 21
719.12082199999998
 31
0.0
  0
LWPOLYLINE
  5
12F
100
AcDbEntity
  8
0
370
              15
390
0
  6
Continuous
 62
               7
100
AcDbPolyline
 90
      145
 70
             128
 10
414.9962022569444
 20
850.0
 10
412.5295138888888
 20
802.90554470486109
 42
-0.0057868170912088
 10
412.51511055420258
 20
802.67983968492672
 10
412.48540333376934
 20
802.28607766880668
 42
-0.0452968625515975
 10
412.31838386412159
 20
801.28817734658799
 10
412.21847348042513
 20
800.90703453759158
 42
-0.0445850020535224
 10
411.61179744385896
 20
799.22140572845615
 10
411.4699694903934
 20
798.91586406255158
 42
-0.044017177450049
 10
410.91069432145571
 20
797.94485464804427
 42
-0.0127213500492334
 10
410.24274975915944
 20
797.04017330552608
 10
409.93422680804298
 20
796.64381365384907
 42
-0.0098492396801327
 10
408.59363076770592
 20
794.98982033726577
 10
407.51248010636465
 20
793.70836995354875
 42
-0.0038844429848643
 10
403.94465789154515
 20
789.54560455714295
 10
403.39788571862425
 20
788.91759722117968
 42
-0.0063679258142408
 10
398.63628847759179
 20
783.58718103021295
 10
397.43912015675198
 20
782.28087208234842
 42
-0.0119674379313684
 10
390.03085036648645
 20
774.5758248673809
 10
388.76346605938403
 20
773.31929205930373
 42
-0.0119746812047956
 10
378.46274290543664
 20
763.58467104459419
 10
378.45031732918807
 20
763.57347931502454
 42
-0.0119383579136499
 10
367.72135480232743
 20
754.36418179625616
 10
367.71163237907552
 20
754.35623160374428
 42
-0.0119112123805837
 10
356.57558146099484
 20
745.68436875409054
 10
356.56865424202277
 20
745.67923469382401
 42
-0.0118903692349657
 10
345.04666372835368
 20
737.55700553050247
 42
-0.0118813833059265
 10
333.15570438683699
 20
729.99380646040117
 42
-0.0118718980624768
 10
320.92391672849874
 20
723.00654699578581
 42
-0.0118710571083514
 10
308.37266984368824
 20
716.60708996798053
 42
-0.0118774212644987
 10
295.52312016719992
 20
710.80719214852661
 42
-0.0119002274636421
 10
282.40626563120401
 20
705.62223212192089
 10
282.39640919038277
 20
705.61860472317289
 42
-0.011924402908815
 10
269.02762742230078
 20
701.05749604266714
 10
269.01373879810274
 20
701.05312442572711
 42
-0.0119585132178996
 10
255.41448337188928
 20
697.1274476044365
 10
253.64548849400887
 20
696.66232136859844
 42
-0.0239996974125864
 10
243.31222411448914
 20
694.46933937510198
 10
241.61327502355098
 20
694.19318929249869
 42
0.0058842955454503
 10
234.58702806111137
 20
692.96609185831926
 42
-0.0052074445709217
 10
227.56234313440658
 20
691.72946583230544
 10
226.70175158497236
 20
691.58719130294662
 42
-0.0107648206150476
 10
221.33815975626072
 20
690.81869795930345
 10
219.61291680514543
 20
690.60930000623159
 42
0.0110901740527772
 10
217.68940556421725
 20
690.33242276269789
 10
216.878606676906
 20
690.19729591623548
 42
0.0288422625009141
 10
216.58665409908593
 20
690.13114780153933
 42
0.0487211566066479
 10
216.30927397095954
 20
690.0210516465969
 10
216.26743519262607
 20
689.99952408029617
 42
0.0487630592477159
 10
215.93790074444928
 20
689.78706510249924
 10
215.86100193646377
 20
689.72612834576364
 42
0.0957895207666551
 10
215.4857055363515
 20
689.28922691950754
 10
215.43851465949803
 20
689.20655672579608
 42
0.0492360639858286
 10
215.27761325390679
 20
688.84654812811254
 10
215.25458356248024
 20
688.77749614861909
 42
0.0499134620334838
 10
215.19962579260147
 20
688.53420873569439
 10
215.19049872521649
 20
688.46002828086512
 42
0.0125221751303867
 10
215.1806640625
 20
688.35935546874998
 10
215.1393229166666
 20
687.79435980902781
 42
-0.0137201989096833
 10
215.1230864508652
 20
687.6283587045732
 10
215.10776235985441
 20
687.5063439283831
 42
-0.0548946919795911
 10
215.01237445050103
 20
687.1072631240628
 10
214.97026273124558
 20
686.98982237563507
 42
-0.053584729381008
 10
214.69354833680785
 20
686.41896880993136
 10
214.69238240925841
 20
686.4171026256422
 42
-0.0524951977658926
 10
214.30437065580708
 20
685.92057223554184
 42
-0.0522071734969039
 10
213.82166575081379
 20
685.51543099150956
 10
213.82118350250266
 20
685.51510534156466
 42
-0.0532279329452422
 10
213.26352547744673
 20
685.21938650605068
 10
213.07142477569144
 20
685.142385561335
 42
-0.0816201644959584
 10
212.51867264185063
 20
685.0197379706425
 10
212.31532978995278
 20
685.00844724336559
 42
-0.0138680413307637
 10
212.1489800347222
 20
685.00383246527781
 10
202.99880642361109
 20
685.00383246527781
 10
156.99989149305549
 20
685.00383246527781
 10
147.83593749999989
 20
685.00383246527781
 42
-0.0139599855094174
 10
147.66958944726741
 20
685.00847780337813
 10
147.46525723981239
 20
685.01989883245324
 42
-0.0816770765966865
 10
146.91065747399188
 20
685.14323618110313
 10
146.72086728876332
 20
685.21944183265509
 42
-0.0531330102549003
 10
146.16328048529746
 20
685.51541195607626
 10
146.16275534865488
 20
685.51576673199929
 42
-0.0522011905775053
 10
145.6801789322439
 20
685.92096737625104
 42
-0.0524899977086517
 10
145.29229417961838
 20
686.41752045373516
 10
145.2910958025667
 20
686.41943930519642
 42
-0.053617370551837
 10
145.01449086697659
 20
686.99040990375011
 10
144.97235930608204
 20
687.10801731934237
 42
-0.0548012990247998
 10
144.87713697109496
 20
687.5066073870662
 10
144.86183701436241
 20
687.62835944961307
 42
-0.0137381132956472
 10
144.84559461805549
 20
687.79435980902781
 10
143.1368272569444
 20
711.74142795138891
 42
0.0125854629451998
 10
143.09886508341367
 20
712.14558540679434
 10
143.06327927172327
 20
712.44365800816536
 42
0.0503000797924014
 10
142.84539762276597
 20
713.42103044551857
 10
142.74984689835469
 20
713.70950431828931
 42
0.0493208185323193
 10
142.11767031950967
 20
715.13116488360151
 10
142.11546294606174
 20
715.13504729994509
 42
0.0485343703608961
 10
141.22407594660697
 20
716.39970192553369
 42
0.0482947791514035
 10
140.10607869748225
 20
717.46938712111546
 10
140.10468466099547
 20
717.47048431772942
 42
0.0489091666588744
 10
138.79840868048473
 20
718.3060404600709
 10
138.62248311436485
 20
718.39569756667481
 42
0.0490341202732136
 10
137.51290061511213
 20
718.83032368384386
 42
0.0289918428771284
 10
136.34563104787722
 20
719.08813321000946
 10
136.33899848497788
 20
719.08919954250439
 42
0.0045778956731945
 10
135.14184302562037
 20
719.27044106967355
 10
134.74776725267316
 20
719.32641583010627
 42
-0.0202331348845351
 10
132.77545861100126
 20
719.68849040318003
 10
132.58910662507299
 20
719.73055741806843
 42
-0.0155643898593225
 10
130.27737234193464
 20
720.32858958544114
 10
129.72661039686568
 20
720.48951339450184
 42
-0.0321913629698932
 10
126.40967524217427
 20
721.69514694262739
 10
125.87008217405923
 20
721.93159273635513
 42
-0.0316978818402103
 10
121.77201122366736
 20
724.04620152663256
 10
121.76019338810566
 20
724.05328132534805
 42
-0.0313320255336285
 10
117.98287657359653
 20
726.65072672556653
 10
117.97872071973552
 20
726.6539857174248
 42
-0.0311079282437785
 10
114.56200139922271
 20
729.69462773218402
 42
-0.0310328903289144
 10
111.54739264433783
 20
733.1367502867015
 42
-0.031186481402208
 10
108.9822196846859
 20
736.92772655622389
 10
108.97746168230171
 20
736.93580024211269
 42
-0.0314839678231155
 10
106.89777867345356
 20
741.03416036636304
 10
106.66646244350328
 20
741.57130733576685
 42
-0.0318662004840802
 10
105.48911097371823
 20
744.86891047463439
 42
-0.0161295849600615
 10
104.63185916023801
 20
748.26928675040335
 10
104.56418773657897
 20
748.57961570945747
 42
-0.0324166345913863
 10
104.11813356643015
 20
751.53313474499805
 10
104.04222358610147
 20
752.42318584955751
 42
-0.0081094914138637
 10
103.9592013888888
 20
753.62689887152783
 10
99.301432291666671
 20
842.42078993055554
 42
0.0138778810075611
 10
99.265618170392983
 20
842.86968974149283
 10
99.23005985844182
 20
843.19959984979027
 42
0.0556244008590435
 10
98.990040532426136
 20
844.28054090124522
 10
98.881063254150661
 20
844.59907792062052
 42
0.0543237718118492
 10
98.155326168902945
 20
846.14796106600738
 10
98.152330309831669
 20
846.15288362394324
 42
0.0532055453959029
 10
97.119766590805227
 20
847.50265056679427
 42
0.0528785632424743
 10
95.82625172920622
 20
848.60504735881966
 10
95.650753262013126
 20
848.72514828363819
 42
0.0535617349736506
 10
94.518855331443632
 20
849.33343067197188
 42
0.0273972117917993
 10
93.298590449006653
 20
849.75319743125704
 10
93.283486023942004
 20
849.75748417759928
 42
0.055315431039153
 10
91.985865963735748
 20
849.97491306383404
 10
91.760069878316997
 20
849.98745746164457
 10
91.759456566979352
 20
849.98749153496067
 42
0.0138757053032104
 10
91.308810763888886
 20
850.0
 42
0.0138757053032104
  0
LWPOLYLINE
  5
130
100
AcDbEntity
  8
0
370
              15
390
0
  6
Continuous
 62
               7
100
AcDbPolyline
 90
       48
 70
             128
 10
10.99674479166667
 20
850.0
 10
414.9962022569444
 20
850.0
 10
439.99381510416652
 20
850.0
 10
439.99381510416652
 20
852.00160047743054
 10
439.5528428819444
 20
860.52476671006934
 42
0.0080209871438788
 10
439.53025194632914
 20
860.84615689840211
 10
439.49573344565727
 20
861.24552968904675
 42
0.0476374718580164
 10
439.29386124735771
 20
862.34602592371743
 10
439.18437632990913
 20
862.73166911675969
 42
0.0316332252346932
 10
438.76204587650466
 20
863.92607877012301
 42
0.0316533236812808
 10
438.19236637463104
 20
865.05764164120183
 10
438.02940112257266
 20
865.33597957069355
 42
0.0639598778333327
 10
436.8690187892048
 20
866.8390720810396
 10
436.60854641702099
 20
867.09965984633982
 42
0.0576303786870306
 10
434.87845383017975
 20
868.47170263511305
 10
434.83746900266891
 20
868.49713349313924
 42
0.0530133829926639
 10
432.93300449300756
 20
869.41574497461659
 10
432.6801112399088
 20
869.5061990787143
 42
0.052674075280722
 10
431.14436017602941
 20
869.8791703731697
 10
430.68503353403736
 20
869.94062164448167
 42
0.026578281644494
 10
430.02572813331204
 20
869.99338053764177
 10
429.82723113835073
 20
869.99868320227995
 42
0.0066770312570647
 10
429.56206597222217
 20
870.00222439236097
 10
10.43174913194445
 20
870.00222439236097
 10
11.79600694444445
 20
869.90576171875
 42
0.0081207984660848
 10
11.476770859949772
 20
869.94495848236545
 10
11.078763546202321
 20
869.98727791435397
 42
0.0480039761841424
 10
9.9618017235610115
 20
869.99844339246818
 10
9.7261902198629535
 20
869.97814533484404
 42
0.0318523465399635
 10
8.1520632030580629
 20
869.74084867164788
 10
7.9989172893616987
 20
869.70767731369119
 42
0.063540481379216
 10
6.2142381070518038
 20
869.07593867597222
 10
5.7893801513747132
 20
868.86165952919441
 42
0.0482281646993985
 10
4.4400369072062684
 20
868.0090826242
 10
4.3134546620481791
 20
867.91086410056221
 42
0.0315094254112732
 10
3.3531450454687555
 20
867.063690358484
 10
3.3498202287824106
 20
867.06036230503059
 42
0.0320141301073218
 10
2.5108026958373566
 20
866.10549096899945
 42
0.0318428961147142
 10
1.8001764092055363
 20
865.05154095117314
 10
1.6395115671745502
 20
864.77705968506837
 42
0.0632489950418283
 10
0.896070813973945
 20
863.03442291328759
 10
0.6996064185123989
 20
862.34316461014771
 42
0.0477272392594856
 10
0.4979591465327808
 20
861.2445648605144
 10
0.4635484069705401
 20
860.84610979098761
 42
0.0080032737693256
 10
0.4409722222222286
 20
860.52476671006934
 10
0.0
 20
852.00160047743054
 10
0.0
 20
850.0
 10
10.99674479166667
 20
850.0
  0
LINE
  5
131
100
AcDbEntity
  8
0
370
              15
390
0
  6
Continuous
 62
               7
100
AcDbLine
 10
143.43999600000001
 20
708.65462200000002
 30
0.0
 11
143.357313
 21
708.65462200000002
 31
0.0
  0
LWPOLYLINE
  5
132
100
AcDbEntity
  8
0
370
              15
390
0
  6
Continuous
 62
               7
100
AcDbPolyline
 90
       97
 70
             128
 10
215.1806640625
 20
687.83935546875
 10
215.1806640625
 20
712.65782335069434
 10
215.1806640625
 20
712.94721137152783
 42
-0.0068173826467744
 10
215.18255115561291
 20
713.08560798976544
 10
215.18911041528503
 20
713.32608647291261
 42
-0.0544052318731607
 10
215.27259818242129
 20
713.93630301467942
 10
215.33076357756221
 20
714.16926453027872
 42
-0.0542283474660225
 10
215.70460991263269
 20
715.18387806248165
 10
215.7340599828853
 20
715.24311410066628
 42
-0.0544332398779404
 10
216.24667019100505
 20
716.04261791996714
 10
216.39578972872548
 20
716.22743813838588
 42
-0.0412159055893322
 10
216.72607971966312
 20
716.57405687673793
 10
216.85398390842909
 20
716.68786138393762
 42
-0.0069035138200465
 10
216.95833333333329
 20
716.77815755208337
 10
221.36805555555549
 20
720.47819010416674
 42
-0.0048591236663789
 10
221.43962603260081
 20
720.53687647912989
 10
221.67496882792952
 20
720.72605815992006
 42
-0.0644541745467606
 10
222.26440285898343
 20
721.08611239664788
 10
222.53808594571183
 20
721.20820935443271
 42
-0.0365314914798822
 10
223.23531023422589
 20
721.46003027629285
 42
-0.0390966509866468
 10
223.96222593360639
 20
721.6039148829268
 10
224.5325309910283
 20
721.6710965159939
 42
-0.0010297769891823
 10
226.41177269305396
 20
721.88854703055699
 10
227.68781115237471
 20
722.03353716199945
 42
0.0067098879205432
 10
232.11202282328443
 20
722.59647213771768
 10
234.25661951344804
 20
722.89864708592961
 42
0.0108942441693587
 10
242.93162020307943
 20
724.31434414737407
 10
244.37678474043204
 20
724.5826302487377
 42
0.0110666436860813
 10
255.728789712831
 20
726.95108258830578
 10
255.7549301997673
 20
726.95714310611879
 42
0.0110582733552573
 10
266.9390755851548
 20
729.81214729915393
 10
266.9590551633737
 20
729.81772093955283
 42
0.0110485233358974
 10
277.96639920935479
 20
733.15222226696119
 10
277.98048386973579
 20
733.15683111532246
 42
0.0110259393791384
 10
288.80200069484079
 20
736.96403802746249
 10
288.81048794762893
 20
736.9672359940048
 42
0.0109909424855248
 10
299.43712193137594
 20
741.24033243229303
 42
0.0109410526519637
 10
309.86300757016949
 20
745.97384267077291
 42
0.0108890445346706
 10
320.07090497325794
 20
751.15730541864309
 42
0.0108204583255994
 10
330.04592975157669
 20
756.77982250044613
 10
330.05206444078493
 20
756.78345749716959
 42
0.0107450747577712
 10
339.78753172546305
 20
762.83837933539724
 10
339.79773779261222
 20
762.84503527094171
 42
0.0106621322983756
 10
349.28528806362903
 20
769.32484782040513
 10
349.29918341286248
 20
769.33477907158931
 42
0.0105725849428964
 10
358.5304719870561
 20
776.23201114443486
 10
358.54764430598107
 20
776.24541654663017
 42
0.0104773043375479
 10
367.5142822695226
 20
783.5525914281277
 10
367.53443833353441
 20
783.56973234086286
 42
0.0103377536300689
 10
376.22884499781702
 20
791.27888254653021
 10
377.31026300808691
 20
792.27844115092796
 42
0.0104724848426389
 10
383.64514473635114
 20
798.3847214283154
 10
385.04247741784144
 20
799.78925960020479
 42
0.0038035011753453
 10
388.42849630387275
 20
803.24491981925814
 10
389.15794778279252
 20
804.00079144184815
 42
0.0081890938618699
 10
391.02601308167903
 20
806.00106381803596
 10
391.09910603762205
 20
806.0819454748364
 42
0.0122996732676281
 10
392.7412426289747
 20
807.99145371258373
 42
0.0219267412389928
 10
394.24794761515705
 20
810.00746959273988
 10
394.48403505275382
 20
810.35406697705139
 42
0.0219731041428901
 10
396.2378365172583
 20
813.1888967886108
 10
396.23883626296674
 20
813.19068372005063
 42
0.0218985419926632
 10
397.73568498099178
 20
816.16463888529643
 42
0.0218824023619528
 10
398.96709211656264
 20
819.25889251635454
 42
0.021981552439625
 10
399.92301625517217
 20
822.44990126039988
 10
400.12832053727118
 20
823.26376174205598
 42
0.0327834776939744
 10
400.73318972085417
 20
826.55856856622165
 10
400.83950997331499
 20
827.47086934279434
 42
0.0124882399789259
 10
400.9776715009894
 20
828.98422804156326
 10
400.98858959763589
 20
829.14924528770871
 42
0.0020236601815885
 10
401.06230617500091
 20
830.33631917689308
 42
-0.0092079278789979
 10
401.1530558120964
 20
831.52202004796084
 10
401.21762091367407
 20
832.20102259049168
 42
-0.0308138671864107
 10
401.61463629961332
 20
834.71856676042773
 10
401.89041043281634
 20
835.96336683063691
 42
-0.0309040028369713
 10
402.73208190986122
 20
838.8924847832991
 42
-0.0154904751548886
 10
403.84305756794163
 20
841.73510362634113
 10
403.99451339245235
 20
842.08981114816299
 42
-0.0310274482561574
 10
405.02471298828721
 20
844.14025290828829
 10
405.47463783985273
 20
844.91235293439433
 42
-0.003901792927553
 10
405.73578559027771
 20
845.35256618923597
 42
-0.0192219497782555
 10
405.77387986985053
 20
845.42628148396057
 10
405.80418957131593
 20
845.47978563763445
 42
-0.0281516951052866
 10
405.91548569830127
 20
845.65277288634309
 10
405.99011496618857
 20
845.75556134959584
 42
-0.0293378581996621
 10
406.28127634086229
 20
846.11075538603916
 10
406.37190085097382
 20
846.20895311436141
 42
-0.0290338205723428
 10
406.89446826773963
 20
846.71307393018969
 10
407.0018011575371
 20
846.80521428889483
 42
-0.0277537011143776
 10
407.80241538821087
 20
847.41877169100587
 10
407.92992929360423
 20
847.50570859402956
 42
-0.025874103178565
 10
409.05510987724142
 20
848.19040044523922
 10
409.29638696933432
 20
848.32062425574816
 42
-0.0233750211811434
 10
410.60797290366742
 20
848.95125178387457
 10
410.78561880315345
 20
849.02666077091146
 42
-0.0108732281843775
 10
411.78004162119305
 20
849.42349237631834
 42
-0.0155237376283624
 10
413.48036024305549
 20
850.0
 42
-0.0155237376283624
  0
ENDBLK
  5
133
100
AcDbEntity
  8
GAR70-0918
390
0
100
AcDbBlockEnd
  0
ENDSEC
  0
SECTION
  2
ENTITIES
  0
MTEXT
  5
134
100
AcDbEntity
  8
template
390
0
 62
               7
100
AcDbMText
 10
-967.99999999975921
 20
-923.41492187499955
 30
0.0
 40
16.288411458333332
 41
0.0
 71
               1
 72
               1
  1
品名
  7
ＭＳ ゴシック
 73
               1
 44
0.7828267384257843
  0
MTEXT
  5
135
100
AcDbEntity
  8
template
390
0
 62
               7
100
AcDbMText
 10
-967.99999999975921
 20
-1008.4149218749995
 30
0.0
 40
16.288411458333332
 41
0.0
 71
               1
 72
               1
  1
仕様
  7
ＭＳ ゴシック
 73
               1
 44
0.7828267384257843
  0
MTEXT
  5
136
100
AcDbEntity
  8
template
390
0
 62
               7
100
AcDbMText
 10
-914.99999999975921
 20
-951.9973828124995
 30
0.0
 40
24.432617187500004
 41
0.0
 71
               1
 72
               1
  1
洗面器 -LAUFEN,Laufen Pro-
  7
ＭＳ ゴシック
 73
               1
 44
0.7828267384257843
  0
LINE
  5
137
100
AcDbEntity
  8
template
370
               5
390
0
  6
Continuous
 62
               7
100
AcDbLine
 10
974.99999999975876
 20
-999.99999999999955
 30
0.0
 11
-975.00000000024124
 21
-999.99999999999955
 31
0.0
  0
LWPOLYLINE
  5
138
100
AcDbEntity
  8
template
370
               5
390
0
  6
Continuous
 62
               7
100
AcDbPolyline
 90
        5
 70
             128
 10
975.00000000024124
 20
1630.0
 10
-974.99999999975921
 20
1630.0
 10
-974.99999999975921
 20
-1169.9999999999995
 10
975.00000000024124
 20
-1169.9999999999995
 10
975.00000000024124
 20
1630.0
  0
LINE
  5
139
100
AcDbEntity
  8
template
370
               5
390
0
  6
Continuous
 62
               7
100
AcDbLine
 10
974.99999999975876
 20
-914.99999999999955
 30
0.0
 11
-975.00000000024124
 21
-914.99999999999955
 31
0.0
  0
LINE
  5
13A
100
AcDbEntity
  8
template
370
               5
390
0
  6
Continuous
 62
               7
100
AcDbLine
 10
975.00000000024124
 20
-1084.9999999999995
 30
0.0
 11
222.00000000024119
 21
-1084.9999999999995
 31
0.0
  0
MTEXT
  5
13B
100
AcDbEntity
  8
template
390
0
 62
               7
100
AcDbMText
 10
-974.99999999955639
 20
-1181.8538220568566
 30
0.0
 40
21.717881944444446
 41
0.0
 71
               1
 72
               1
  1
120711SH
  7
ＭＳ ゴシック
 73
               1
 44
0.7828267384257843
  0
MTEXT
  5
13C
100
AcDbEntity
  8
template
390
0
 62
               7
100
AcDbMText
 10
251.87140625250066
 20
-1114.9103944733072
 30
0.0
 40
24.432617187500004
 41
0.0
 71
               1
 72
               1
  1
大洋金物株式会社 ティーフォルム事業部
  7
ＭＳ ゴシック
 73
               1
 44
0.7828267384257843
  0
INSERT
  5
13D
100
AcDbEntity
  8
template
390
0
 62
               7
100
AcDbBlockReference
  2
グループ
 10
0.0034449999999993
 20
-220.00035249999999
 30
0.0
  0
MTEXT
  5
13E
100
AcDbEntity
  8
template
390
0
 62
               7
100
AcDbMText
 10
784.00000000049999
 20
-1036.9973828124996
 30
0.0
 40
24.432617187500004
 41
0.0
 71
               1
 72
               1
  1
1:10
  7
ＭＳ ゴシック
 73
               1
 44
0.7828267384257843
  0
MTEXT
  5
13F
100
AcDbEntity
  8
template
390
0
 62
               7
100
AcDbMText
 10
731.00000000049999
 20
-1008.4149218749995
 30
0.0
 40
16.288411458333332
 41
0.0
 71
               1
 72
               1
  1
縮尺
  7
ＭＳ ゴシック
 73
               1
 44
0.7828267384257843
  0
LINE
  5
140
100
AcDbEntity
  8
template
370
               5
390
0
  6
Continuous
 62
               7
100
AcDbLine
 10
724.00000000049999
 20
-1084.9999999999995
 30
0.0
 11
724.00000000049999
 21
-999.99999999999955
 31
0.0
  0
MTEXT
  5
141
100
AcDbEntity
  8
template
390
0
 62
               7
100
AcDbMText
 10
480.00000000049994
 20
-1008.4149218749995
 30
0.0
 40
16.288411458333332
 41
0.0
 71
               1
 72
               1
  1
容量
  7
ＭＳ ゴシック
 73
               1
 44
0.7828267384257843
  0
MTEXT
  5
142
100
AcDbEntity
  8
template
390
0
 62
               7
100
AcDbMText
 10
533.00000000049999
 20
-1036.9973828124996
 30
0.0
 40
24.432617187500004
 41
0.0
 71
               1
 72
               1
  1
4.5L
  7
ＭＳ ゴシック
 73
               1
 44
0.7828267384257843
  0
LINE
  5
143
100
AcDbEntity
  8
template
370
               5
390
0
  6
Continuous
 62
               7
100
AcDbLine
 10
473.00000000049994
 20
-1084.9999999999995
 30
0.0
 11
473.00000000049994
 21
-999.99999999999955
 31
0.0
  0
MTEXT
  5
144
100
AcDbEntity
  8
template
390
0
 62
               7
100
AcDbMText
 10
229.00000000049994
 20
-923.41492187499955
 30
0.0
 40
16.288411458333332
 41
0.0
 71
               1
 72
               1
  1
品番
  7
ＭＳ ゴシック
 73
               1
 44
0.7828267384257843
  0
MTEXT
  5
145
100
AcDbEntity
  8
template
390
0
 62
               7
100
AcDbMText
 10
229.00000000049994
 20
-1008.4149218749995
 30
0.0
 40
16.288411458333332
 41
0.0
 71
               1
 72
               1
  1
重量
  7
ＭＳ ゴシック
 73
               1
 44
0.7828267384257843
  0
MTEXT
  5
146
100
AcDbEntity
  8
template
390
0
 62
               7
100
AcDbMText
 10
282.00000000049994
 20
-951.9973828124995
 30
0.0
 40
24.432617187500004
 41
0.0
 71
               1
 72
               1
  1
GAR70-0918
  7
ＭＳ ゴシック
 73
               1
 44
0.7828267384257843
  0
MTEXT
  5
147
100
AcDbEntity
  8
template
390
0
 62
               7
100
AcDbMText
 10
282.00000000049994
 20
-1036.9973828124996
 30
0.0
 40
24.432617187500004
 41
0.0
 71
               1
 72
               1
  1
7.5kg
  7
ＭＳ ゴシック
 73
               1
 44
0.7828267384257843
  0
LINE
  5
148
100
AcDbEntity
  8
template
370
               5
390
0
  6
Continuous
 62
               7
100
AcDbLine
 10
222.00000000049994
 20
-1169.9999999999995
 30
0.0
 11
222.00000000049994
 21
-914.99999999999955
 31
0.0
  0
MTEXT
  5
149
100
AcDbEntity
  8
template
390
0
 62
               7
100
AcDbMText
 10
-914.99999999975921
 20
-1036.9973828124996
 30
0.0
 40
24.432617187500004
 41
0.0
 71
               1
 72
               1
  1
オーバーカウンター/オーバーフロー付き/型紙付属/\P陶器/ホワイト
  7
ＭＳ ゴシック
 73
               1
 44
1.3047112307096407
  0
DIMENSION
  5
14A
100
AcDbEntity
  8
notes
370
               5
390
0
  6
Continuous
 62
               7
100
AcDbDimension
  2
*D4
 10
717.11745013467817
 20
-48.759183163845051
 30
0.0
 11
677.11745013467817
 21
-48.759183163845051
 31
0.0
 71
               5
 72
               1
 41
1.0
 42
0.0
  3
tfrom線あり
100
AcDbAlignedDimension
 13
637.11745013467817
 23
-148.75918316384505
 33
0.0
 14
717.11745013467817
 24
-166.75980707877548
 34
0.0
100
AcDbRotatedDimension
1001
ACAD
1000
DSTYLE
1002
{
1070
             279
1070
               2
1070
             340
1005
36
1070
             147
1040
5.0
1002
}
  0
DIMENSION
  5
14B
100
AcDbEntity
  8
notes
370
               5
390
0
  6
Continuous
 62
               7
100
AcDbDimension
  2
*D5
 10
537.11810117634536
 20
-434.27757509092817
 30
0.0
 11
627.11777565551165
 21
-429.27757509092817
 31
0.0
 70
             128
 71
               5
 72
               1
 41
1.0
 42
0.0
  3
tfrom線あり
100
AcDbAlignedDimension
 13
717.11745013467817
 23
-168.76140755620602
 33
0.0
 14
537.11810117634536
 24
-334.27757509092817
 34
0.0
100
AcDbRotatedDimension
1001
ACAD
1000
DSTYLE
1002
{
1070
             279
1070
               2
1070
             340
1005
36
1070
             147
1040
5.0
1002
}
  0
DIMENSION
  5
14C
100
AcDbEntity
  8
notes
370
               5
390
0
  6
Continuous
 62
               7
100
AcDbDimension
  2
*D6
 10
538.68818489829937
 20
-148.75918316384505
 30
0.0
 11
543.68818489829937
 21
-122.761407556206
 31
0.0
 70
             128
 71
               5
 72
               1
 41
1.0
 42
0.0
  3
tfrom線あり
100
AcDbAlignedDimension
 13
532.6980076437012
 23
-268.75918316384502
 33
0.0
 14
532.6980076437012
 24
-148.75918316384505
 34
0.0
 50
90.0
100
AcDbRotatedDimension
1001
ACAD
1000
DSTYLE
1002
{
1070
             279
1070
               2
1070
             340
1005
36
1070
               3
1000
<>(深さ)
1070
             174
1070
               0
1070
             147
1040
5.0
1002
}
  0
DIMENSION
  5
14D
100
AcDbEntity
  8
notes
370
               5
390
0
  6
Continuous
 62
               7
100
AcDbDimension
  2
*D7
 10
-17.6597137325804
 20
-148.75918316384505
 30
0.0
 11
-17.6597137325804
 21
-241.26531923155338
 31
0.0
 71
               5
 72
               1
 41
1.0
 42
0.0
  3
tfrom線あり
100
AcDbAlignedDimension
 13
-372.58343498003251
 23
-333.77145529926167
 33
0.0
 14
-131.59759103643512
 24
-148.75918316384505
 34
0.0
 50
90.0
100
AcDbRotatedDimension
1001
ACAD
1000
DSTYLE
1002
{
1070
             279
1070
               2
1070
             340
1005
36
1070
             147
1040
5.0
1002
}
  0
DIMENSION
  5
14E
100
AcDbEntity
  8
notes
370
               5
390
0
  6
Continuous
 62
               7
100
AcDbDimension
  2
*D8
 10
177.12363503051148
 20
-148.76140755620602
 30
0.0
 11
177.12363503051148
 21
-158.76140755620602
 31
0.0
 71
               5
 72
               1
 41
1.0
 42
0.0
  3
tfrom線あり
100
AcDbAlignedDimension
 13
276.84815671074159
 23
-168.76140755620602
 33
0.0
 14
288.36103567858743
 24
-148.76140755620602
 34
0.0
 50
90.0
100
AcDbRotatedDimension
1001
ACAD
1000
DSTYLE
1002
{
1070
             279
1070
               2
1070
             340
1005
36
1070
             147
1040
5.0
1002
}
  0
DIMENSION
  5
14F
100
AcDbEntity
  8
notes
370
               5
390
0
  6
Continuous
 62
               7
100
AcDbDimension
  2
*D9
 10
-777.21901314403954
 20
583.54827144379396
 30
0.0
 11
-782.21901314403954
 21
600.29832544379394
 31
0.0
 70
             128
 71
               5
 72
               1
 41
1.0
 42
0.0
  3
tfrom線あり
100
AcDbAlignedDimension
 13
-557.8201178615243
 23
623.54827144379396
 33
0.0
 14
-413.64141208293302
 24
583.54827144379396
 34
0.0
 50
90.0
100
AcDbRotatedDimension
1001
ACAD
1000
DSTYLE
1002
{
1070
             279
1070
               2
1070
             340
1005
36
1070
             147
1040
5.0
1002
}
  0
DIMENSION
  5
150
100
AcDbEntity
  8
notes
370
               5
390
0
  6
Continuous
 62
               7
100
AcDbDimension
  2
*D10
 10
-777.21901314403954
 20
1023.5489764437941
 30
0.0
 11
-777.21901314403954
 21
968.54897644379412
 31
0.0
 71
               5
 72
               1
 41
1.0
 42
0.0
  3
tfrom線あり
100
AcDbAlignedDimension
 13
-640.65993305824418
 23
913.54897644379412
 33
0.0
 14
-429.34743305824315
 24
1023.5489764437941
 34
0.0
 50
90.0
100
AcDbRotatedDimension
1001
ACAD
1000
DSTYLE
1002
{
1070
             279
1070
               2
1070
             340
1005
36
1070
             147
1040
5.0
1002
}
  0
DIMENSION
  5
151
100
AcDbEntity
  8
notes
370
               5
390
0
  6
Continuous
 62
               7
100
AcDbDimension
  2
*D11
 10
-777.21901314403954
 20
913.54897644379412
 30
0.0
 11
-777.21901314403954
 21
768.54862394379404
 31
0.0
 71
               5
 72
               1
 41
1.0
 42
0.0
  3
tfrom線あり
100
AcDbAlignedDimension
 13
-638.21841386826304
 23
623.54827144379396
 33
0.0
 14
-638.21841386826304
 24
913.54897644379412
 34
0.0
 50
90.0
100
AcDbRotatedDimension
1001
ACAD
1000
DSTYLE
1002
{
1070
             279
1070
               2
1070
             340
1005
36
1070
             147
1040
5.0
1002
}
  0
DIMENSION
  5
152
100
AcDbEntity
  8
notes
370
               5
390
0
  6
Continuous
 62
               7
100
AcDbDimension
  2
*D12
 10
-117.21874114403897
 20
1123.5489764437941
 30
0.0
 11
-397.2188771440388
 21
1128.5489764437941
 31
0.0
 70
             128
 71
               5
 72
               1
 41
1.0
 42
0.0
  3
tfrom線あり
100
AcDbAlignedDimension
 13
-677.21901314403954
 23
803.55206844379404
 33
0.0
 14
-117.21874114403897
 24
803.55206844379404
 34
0.0
100
AcDbRotatedDimension
1001
ACAD
1000
DSTYLE
1002
{
1070
             279
1070
               2
1070
             340
1005
36
1070
             147
1040
5.0
1002
}
  0
DIMENSION
  5
153
100
AcDbEntity
  8
notes
370
               5
390
0
  6
Continuous
 62
               7
100
AcDbDimension
  2
*D13
 10
-17.2187411440392
 20
1023.5489764437941
 30
0.0
 11
-17.2187411440392
 21
803.54862394379404
 31
0.0
 71
               5
 72
               1
 41
1.0
 42
0.0
  3
tfrom線あり
100
AcDbAlignedDimension
 13
-397.22232214403891
 23
583.54827144379396
 33
0.0
 14
-397.22232214403891
 24
1023.5489764437941
 34
0.0
 50
90.0
100
AcDbRotatedDimension
1001
ACAD
1000
DSTYLE
1002
{
1070
             279
1070
               2
1070
             340
1005
36
1070
             147
1040
5.0
1002
}
  0
DIMENSION
  5
154
100
AcDbEntity
  8
notes
370
               5
390
0
  6
Continuous
 62
               7
100
AcDbDimension
  2
*D14
 10
-637.21901314403954
 20
483.54827144379396
 30
0.0
 11
-397.21901314403925
 21
483.54827144379396
 31
0.0
 71
               5
 72
               1
 41
1.0
 42
0.0
  3
tfrom線あり
100
AcDbAlignedDimension
 13
-157.21901314403902
 23
691.41783658281133
 33
0.0
 14
-637.21901314403954
 24
691.41783658281133
 34
0.0
100
AcDbRotatedDimension
1001
ACAD
1000
DSTYLE
1002
{
1070
             279
1070
               2
1070
             340
1005
36
1070
             147
1040
5.0
1002
}
  0
DIMENSION
  5
155
100
AcDbEntity
  8
notes
370
               5
390
0
  6
Continuous
 62
               7
100
AcDbDimension
  2
*D15
 10
-408.15520594396997
 20
941.64045400678174
 30
0.0
 11
-248.78310049033473
 21
1052.2385924437938
 31
0.0
 70
               3
 71
               5
 72
               1
 41
1.0
 42
0.0
  3
tfrom線あり
100
AcDbDiametricDimension
 15
-384.76622063972906
 25
967.67168503254084
 35
0.0
 40
113.68815407394345
1001
ACAD
1000
DSTYLE
1002
{
1070
             289
1070
               0
1070
             342
1005
48
1070
             340
1005
36
1070
              73
1070
               1
1070
              74
1070
               1
1070
              75
1070
               1
1070
              76
1070
               1
1070
               3
1000

1070
             174
1070
               0
1070
             147
1040
5.0
1002
}
  0
DIMENSION
  5
156
100
AcDbEntity
  8
notes
370
               5
390
0
  6
Continuous
 62
               7
100
AcDbDimension
  2
*D16
 10
825.0
 20
1008.4571587586081
 30
0.0
 11
825.0
 21
803.4571587586081
 31
0.0
 71
               5
 72
               1
 41
1.0
 42
0.0
  3
tfrom線あり
100
AcDbAlignedDimension
 13
462.54235829641385
 23
598.4571587586081
 33
0.0
 14
462.54235829641385
 24
1008.4571587586081
 34
0.0
 50
90.0
100
AcDbRotatedDimension
1001
ACAD
1000
DSTYLE
1002
{
1070
             279
1070
               2
1070
             340
1005
36
1070
             147
1040
5.0
1002
}
  0
DIMENSION
  5
157
100
AcDbEntity
  8
notes
370
               5
390
0
  6
Continuous
 62
               7
100
AcDbDimension
  2
*D17
 10
727.54235829641379
 20
481.238592443794
 30
0.0
 11
462.54235829641385
 21
481.238592443794
 31
0.0
 71
               5
 72
               1
 41
1.0
 42
0.0
  3
tfrom線あり
100
AcDbAlignedDimension
 13
197.54235829641382
 23
803.4571587586081
 33
0.0
 14
727.54235829641379
 24
803.4571587586081
 34
0.0
100
AcDbRotatedDimension
1001
ACAD
1000
DSTYLE
1002
{
1070
             279
1070
               2
1070
             340
1005
36
1070
             147
1040
5.0
1002
}
  0
MTEXT
  5
158
100
AcDbEntity
  8
notes
390
0
 62
               7
100
AcDbMText
 10
139.846042367894
 20
425.32773385836038
 30
0.0
 40
24.432617187500004
 41
0.0
 71
               1
 72
               1
  1
※陶器製品には寸法公差があります。\P洗面器の収め方をご確認の上、必ず現物に合わせて\Pカウンター切込を行ってください。
  7
MS-Gothic
 73
               1
 44
1.1742401076386764
  0
MTEXT
  5
159
100
AcDbEntity
  8
notes
390
0
 62
               7
100
AcDbMText
 10
327.12500000000011
 20
1240.1162096312939
 30
0.0
 40
24.432617187500004
 41
0.0
 71
               1
 72
               1
  1
カウンター切込寸法
  7
ＭＳ ゴシック
 73
               1
 44
0.7828267384257843
  0
INSERT
  5
15A
100
AcDbEntity
  8
GAR70-0918
390
0
 62
               7
100
AcDbBlockReference
  2
813951D
 10
-397.22232214403891
 20
1023.5489764437941
 30
0.0
  0
SPLINE
  5
15B
100
AcDbEntity
  8
GAR70-0918
370
              15
390
0
  6
Continuous
 62
               7
100
AcDbSpline
210
0.0
220
0.0
230
1.0
 70
               9
 71
               2
 72
              17
 73
              14
 74
               0
 42
0.000001
 43
0.000001
 40
0.0
 40
0.0
 40
0.0
 40
1.0
 40
2.0
 40
3.0
 40
4.0
 40
5.0
 40
6.0
 40
7.0
 40
8.0
 40
9.0
 40
10.0
 40
11.0
 40
12.0
 40
12.0
 40
12.0
 10
330.04235829641385
 20
980.9923665344179
 30
0.0
 10
391.53582230216631
 20
1008.4571587586081
 30
0.0
 10
533.54889429066134
 20
1008.4571587586081
 30
0.0
 10
656.53582230216625
 20
953.52757431022792
 30
0.0
 10
727.54235829641379
 20
858.38674320698829
 30
0.0
 10
727.54235829641379
 20
748.52757431022792
 30
0.0
 10
656.53582230216625
 20
653.38674320698829
 30
0.0
 10
533.54889429066134
 20
598.4571587586081
 30
0.0
 10
391.53582230216631
 20
598.4571587586081
 30
0.0
 10
268.54889429066134
 20
653.38674320698829
 30
0.0
 10
197.54235829641382
 20
748.52757431022792
 30
0.0
 10
197.54235829641382
 20
858.38674320698829
 30
0.0
 10
268.54889429066134
 20
953.52757431022792
 30
0.0
 10
330.04235829641385
 20
980.9923665344179
 30
0.0
  0
INSERT
  5
15C
100
AcDbEntity
  8
GAR70-0918
390
0
 62
               7
100
AcDbBlockReference
  2
813951D-2
 10
462.19999999999999
 20
1024.538592443794
 30
0.0
  0
LINE
  5
15D
100
AcDbEntity
  8
GAR70-0918
370
              15
390
0
  6
STYLE_12
 62
               7
100
AcDbLine
 10
-374.3031048806385
 20
-281.31337798591744
 30
0.0
 11
-374.3031048806385
 21
-334.0
 31
0.0
  0
LINE
  5
15E
100
AcDbEntity
  8
GAR70-0918
370
              15
390
0
  6
STYLE_12
 62
               7
100
AcDbLine
 10
-374.3031048806385
 20
-281.31337798591744
 30
0.0
 11
-359.78825765629716
 21
-268.74433078930542
 31
0.0
  0
LINE
  5
15F
100
AcDbEntity
  8
GAR70-0918
370
              15
390
0
  6
STYLE_12
 62
               7
100
AcDbLine
 10
-420.30306487087307
 20
-281.33432014041637
 30
0.0
 11
-434.81791209521464
 21
-268.76527294380412
 31
0.0
  0
LINE
  5
160
100
AcDbEntity
  8
GAR70-0918
370
              15
390
0
  6
STYLE_12
 62
               7
100
AcDbLine
 10
-420.21885723464186
 20
-281.13001310376967
 30
0.0
 11
-374.21889724440797
 21
-281.15569218555447
 31
0.0
  0
LINE
  5
161
100
AcDbEntity
  8
GAR70-0918
370
              15
390
0
  6
STYLE_12
 62
               7
100
AcDbLine
 10
-420.30306487087307
 20
-281.31337798591744
 30
0.0
 11
-420.30306487087307
 21
-333.62839155344494
 31
0.0
  0
LWPOLYLINE
  5
162
100
AcDbEntity
  8
GAR70-0918
370
               5
390
0
  6
STYLE_12
 62
               7
100
AcDbPolyline
 90
        3
 70
             128
 10
-637.21901314403954
 20
-148.75918316384505
 42
0.290098666315211
 10
-507.07373728385051
 20
-258.79222970636056
 10
-434.81791209521464
 20
-268.76527294380412
  0
LWPOLYLINE
  5
163
100
AcDbEntity
  8
GAR70-0918
370
               5
390
0
  6
STYLE_12
 62
               7
100
AcDbPolyline
 90
        3
 70
             128
 10
-157.21874133501041
 20
-148.75918316384505
 42
-0.2900986663152112
 10
-287.36401719519938
 20
-258.79222970636056
 10
-359.61984238383531
 20
-268.76527294380412
  0
LINE
  5
164
100
AcDbEntity
  8
GAR70-0918
370
              15
390
0
  6
STYLE_12
 62
               7
100
AcDbLine
 10
560.02416096013917
 20
-281.1522895317641
 30
0.0
 11
560.02416096013917
 21
-333.83891154584671
 31
0.0
  0
LINE
  5
165
100
AcDbEntity
  8
GAR70-0918
370
              15
390
0
  6
STYLE_12
 62
               7
100
AcDbLine
 10
560.02416096013917
 20
-281.1522895317641
 30
0.0
 11
574.53900818448051
 21
-268.58324233515208
 31
0.0
  0
LINE
  5
166
100
AcDbEntity
  8
GAR70-0918
370
              15
390
0
  6
STYLE_12
 62
               7
100
AcDbLine
 10
514.02420096990477
 20
-281.17323168626302
 30
0.0
 11
499.50935374556315
 21
-268.60418448965078
 31
0.0
  0
LINE
  5
167
100
AcDbEntity
  8
GAR70-0918
370
              15
390
0
  6
STYLE_12
 62
               7
100
AcDbLine
 10
514.10840860613598
 20
-280.96892464961633
 30
0.0
 11
560.1083685963697
 21
-280.99460373140113
 31
0.0
  0
LINE
  5
168
100
AcDbEntity
  8
GAR70-0918
370
              15
390
0
  6
STYLE_12
 62
               7
100
AcDbLine
 10
514.02420096990477
 20
-281.1522895317641
 30
0.0
 11
514.02420096990477
 21
-333.46730309929166
 31
0.0
  0
LWPOLYLINE
  5
169
100
AcDbEntity
  8
GAR70-0918
370
               5
390
0
  6
STYLE_12
 62
               7
100
AcDbPolyline
 90
        3
 70
             128
 10
574.33583015443128
 20
-268.75918316384502
 42
0.2971154056096769
 10
606.1321220881814
 20
-226.51703555284217
 10
611.39812030402277
 20
-148.75918316384505
  0
LWPOLYLINE
  5
16A
100
AcDbEntity
  8
GAR70-0918
370
               5
390
0
  6
STYLE_12
 62
               7
100
AcDbPolyline
 90
        5
 70
             128
 10
499.68834758978318
 20
-268.75918316384502
 10
473.7736234601428
 20
-266.81302514122785
 42
-0.1365922390768821
 10
381.5
 20
-233.5
 42
-0.1402682191160523
 10
320.38836288659974
 20
-157.01187714185323
 10
316.94390012324891
 20
-148.75918316384505
  0
INSERT
  5
16B
100
AcDbEntity
  8
GAR70-0918
390
0
 62
               7
100
AcDbBlockReference
  2
813951V
 10
-397.222322239525
 20
-1018.761407556206
 30
0.0
  0
INSERT
  5
16C
100
AcDbEntity
  8
GAR70-0918
390
0
 62
               7
100
AcDbBlockReference
  2
813951S
 10
717.11745013467817
 20
-1018.761407556206
 30
0.0
 41
-1.0
  0
ENDSEC
  0
SECTION
  2
OBJECTS
  0
DICTIONARY
  5
19
100
AcDbDictionary
280
               0
281
               1
  3
ACAD_GROUP
350
1A
  3
ACAD_MLINESTYLE
350
1B
  3
ACAD_LAYOUT
350
1E
  3
ACAD_PLOTSETTINGS
350
22
  3
ACAD_PLOTSTYLENAME
350
1F
  0
DICTIONARY
  5
1A
102
{ACAD_REACTORS
330
19
102
}
100
AcDbDictionary
280
               0
281
               1
  0
DICTIONARY
  5
1B
102
{ACAD_REACTORS
330
19
102
}
100
AcDbDictionary
280
               0
281
               1
  3
Standard
350
1C
  0
MLINESTYLE
  5
1C
102
{ACAD_REACTORS
330
1B
102
}
100
AcDbMlineStyle
  2
Standard
 70
               0
  3

 62
               0
 51
90.0
 52
90.0
 71
               2
 49
0.5
 62
             256
  6
ByLayer
 49
-0.5
 62
             256
  6
ByLayer
  0
ACDBDICTIONARYWDFLT
  5
1F
102
{ACAD_REACTORS
330
19
102
}
100
AcDbDictionary
281
               1
  3
Normal
350
1D
100
AcDbDictionaryWithDefault
340
1D
  0
ACDBPLACEHOLDER
  5
1D
102
{ACAD_REACTORS
330
1F
102
}
  0
LAYOUT
  5
20
102
{ACAD_REACTORS
330
1E
102
}
100
AcDbPlotSettings
  1

  2

  4

  6

 40
0.0
 41
0.0
 42
0.0
 43
0.0
 44
0.0
 45
0.0
 46
0.0
 47
0.0
 48
0.0
 49
0.0
140
0.0
141
0.0
142
1.0
143
1.0
 70
            1024
 72
               0
 73
               0
 74
               0
  7

 75
               0
147
1.0
148
0.0
149
0.0
100
AcDbLayout
  1
Model
 70
               0
 71
               0
 10
0.0
 20
0.0
 11
0.0
 21
0.0
 12
0.0
 22
0.0
 32
0.0
 14
0.0
 24
0.0
 34
0.0
 15
0.0
 25
0.0
 35
0.0
146
0.0
 13
0.0
 23
0.0
 33
0.0
 16
0.0
 26
0.0
 36
0.0
 17
0.0
 27
0.0
 37
0.0
 76
               0
330
A
331
0
345
0
346
0
  0
LAYOUT
  5
21
102
{ACAD_REACTORS
330
1E
102
}
100
AcDbPlotSettings
  1

  2

  4

  6

 40
0.0
 41
0.0
 42
0.0
 43
0.0
 44
0.0
 45
0.0
 46
0.0
 47
0.0
 48
0.0
 49
0.0
140
0.0
141
0.0
142
1.0
143
1.0
 70
               0
 72
               0
 73
               0
 74
               0
  7

 75
               0
147
1.0
148
0.0
149
0.0
100
AcDbLayout
  1
Layout1
 70
               0
 71
               0
 10
0.0
 20
0.0
 11
0.0
 21
0.0
 12
0.0
 22
0.0
 32
0.0
 14
0.0
 24
0.0
 34
0.0
 15
0.0
 25
0.0
 35
0.0
146
0.0
 13
0.0
 23
0.0
 33
0.0
 16
0.0
 26
0.0
 36
0.0
 17
0.0
 27
0.0
 37
0.0
 76
               0
330
B
331
0
345
0
346
0
  0
DICTIONARY
  5
1E
102
{ACAD_REACTORS
330
19
102
}
100
AcDbDictionary
280
               0
281
               1
  3
Layout1
350
21
  3
Model
350
20
  0
DICTIONARY
  5
22
102
{ACAD_REACTORS
330
19
102
}
100
AcDbDictionary
280
               0
281
               1
  0
ENDSEC
  0
EOF
