  0
SECTION
  2
HEADER
  9
$ACADVER
  1
AC1021
  9
$ACADMAINTVER
 70
    25
  9
$DWGCODEPAGE
  3
ANSI_932
  9
$LASTSAVEDBY
  1
ネルソン
  9
$INSBASE
 10
0.0
 20
0.0
 30
0.0
  9
$EXTMIN
 10
40.0
 20
41.19837821319445
 30
0.0
  9
$EXTMAX
 10
1990.000000000482
 20
2874.552903395052
 30
0.0
  9
$LIMMIN
 10
-10.0
 20
-0.9201746284776391
  9
$LIMMAX
 10
2040.0
 20
2924.552903395052
  9
$ORTHOMODE
 70
     0
  9
$REGENMODE
 70
     1
  9
$FILLMODE
 70
     1
  9
$QTEXTMODE
 70
     0
  9
$MIRRTEXT
 70
     1
  9
$LTSCALE
 40
50.8
  9
$ATTMODE
 70
     1
  9
$TEXTSIZE
 40
533.0403732820173
  9
$TRACEWID
 40
1.0
  9
$TEXTSTYLE
  7
Standard
  9
$CLAYER
  8
MODEL
  9
$CELTYPE
  6
Continuous
  9
$CECOLOR
 62
   256
  9
$CELTSCALE
 40
1.0
  9
$DISPSILH
 70
     0
  9
$DIMSCALE
 40
1.0
  9
$DIMASZ
 40
9.0
  9
$DIMEXO
 40
25.0
  9
$DIMDLI
 40
25.0
  9
$DIMRND
 40
0.0
  9
$DIMDLE
 40
0.0
  9
$DIMEXE
 40
0.0
  9
$DIMTP
 40
0.0
  9
$DIMTM
 40
0.0
  9
$DIMTXT
 40
24.4326171875
  9
$DIMCEN
 40
0.0
  9
$DIMTSZ
 40
0.0
  9
$DIMTOL
 70
     0
  9
$DIMLIM
 70
     0
  9
$DIMTIH
 70
     0
  9
$DIMTOH
 70
     0
  9
$DIMSE1
 70
     0
  9
$DIMSE2
 70
     0
  9
$DIMTAD
 70
     1
  9
$DIMZIN
 70
    11
  9
$DIMBLK
  1
DOT
  9
$DIMASO
 70
     1
  9
$DIMSHO
 70
     1
  9
$DIMPOST
  1
<>
  9
$DIMAPOST
  1
[]
  9
$DIMALT
 70
     0
  9
$DIMALTD
 70
     1
  9
$DIMALTF
 40
1.0
  9
$DIMLFAC
 40
1.0
  9
$DIMTOFL
 70
     0
  9
$DIMTVP
 40
0.0
  9
$DIMTIX
 70
     1
  9
$DIMSOXD
 70
     0
  9
$DIMSAH
 70
     0
  9
$DIMBLK1
  1

  9
$DIMBLK2
  1

  9
$DIMSTYLE
  2
JIS
  9
$DIMCLRD
 70
     0
  9
$DIMCLRE
 70
     0
  9
$DIMCLRT
 70
     0
  9
$DIMTFAC
 40
1.0
  9
$DIMGAP
 40
10.0
  9
$DIMJUST
 70
     0
  9
$DIMSD1
 70
     0
  9
$DIMSD2
 70
     0
  9
$DIMTOLJ
 70
     1
  9
$DIMTZIN
 70
    11
  9
$DIMALTZ
 70
    11
  9
$DIMALTTZ
 70
    11
  9
$DIMUPT
 70
     0
  9
$DIMDEC
 70
     0
  9
$DIMTDEC
 70
     1
  9
$DIMALTU
 70
     2
  9
$DIMALTTD
 70
     2
  9
$DIMTXSTY
  7
ＭＳ ゴシック
  9
$DIMAUNIT
 70
     0
  9
$DIMADEC
 70
     0
  9
$DIMALTRND
 40
0.0
  9
$DIMAZIN
 70
     0
  9
$DIMDSEP
 70
    46
  9
$DIMATFIT
 70
     0
  9
$DIMFRAC
 70
     2
  9
$DIMLDRBLK
  1
DOT
  9
$DIMLUNIT
 70
     2
  9
$DIMLWD
 70
    -2
  9
$DIMLWE
 70
    -2
  9
$DIMTMOVE
 70
     0
  9
$DIMFXL
 40
1.0
  9
$DIMFXLON
 70
     0
  9
$DIMJOGANG
 40
0.7853981633974483
  9
$DIMTFILL
 70
     0
  9
$DIMTFILLCLR
 70
     0
  9
$DIMARCSYM
 70
     0
  9
$DIMLTYPE
  6

  9
$DIMLTEX1
  6

  9
$DIMLTEX2
  6

  9
$LUNITS
 70
     2
  9
$LUPREC
 70
     0
  9
$SKETCHINC
 40
0.1
  9
$FILLETRAD
 40
5.0
  9
$AUNITS
 70
     0
  9
$AUPREC
 70
     0
  9
$MENU
  1
acad
  9
$ELEVATION
 40
0.0
  9
$PELEVATION
 40
0.0
  9
$THICKNESS
 40
0.0
  9
$LIMCHECK
 70
     0
  9
$CHAMFERA
 40
0.0
  9
$CHAMFERB
 40
0.0
  9
$CHAMFERC
 40
0.0
  9
$CHAMFERD
 40
0.0
  9
$SKPOLY
 70
     0
  9
$TDCREATE
 40
2447893.375
  9
$TDUCREATE
 40
0.0
  9
$TDUPDATE
 40
2456962.664964688
  9
$TDUUPDATE
 40
2456962.289964688
  9
$TDINDWG
 40
0.2780122917
  9
$TDUSRTIMER
 40
2456962.289714606
  9
$USRTIMER
 70
     1
  9
$ANGBASE
 50
0.0
  9
$ANGDIR
 70
     0
  9
$PDMODE
 70
     1
  9
$PDSIZE
 40
-2.0
  9
$PLINEWID
 40
0.0
  9
$SPLFRAME
 70
     0
  9
$SPLINETYPE
 70
     6
  9
$SPLINESEGS
 70
     8
  9
$HANDSEED
  5
4747
  9
$SURFTAB1
 70
     6
  9
$SURFTAB2
 70
     6
  9
$SURFTYPE
 70
     6
  9
$SURFU
 70
     6
  9
$SURFV
 70
     6
  9
$UCSBASE
  2

  9
$UCSNAME
  2

  9
$UCSORG
 10
0.0
 20
0.0
 30
0.0
  9
$UCSXDIR
 10
1.0
 20
0.0
 30
0.0
  9
$UCSYDIR
 10
0.0
 20
1.0
 30
0.0
  9
$UCSORTHOREF
  2

  9
$UCSORTHOVIEW
 70
     0
  9
$UCSORGTOP
 10
0.0
 20
0.0
 30
0.0
  9
$UCSORGBOTTOM
 10
0.0
 20
0.0
 30
0.0
  9
$UCSORGLEFT
 10
0.0
 20
0.0
 30
0.0
  9
$UCSORGRIGHT
 10
0.0
 20
0.0
 30
0.0
  9
$UCSORGFRONT
 10
0.0
 20
0.0
 30
0.0
  9
$UCSORGBACK
 10
0.0
 20
0.0
 30
0.0
  9
$PUCSBASE
  2

  9
$PUCSNAME
  2

  9
$PUCSORG
 10
0.0
 20
0.0
 30
0.0
  9
$PUCSXDIR
 10
1.0
 20
0.0
 30
0.0
  9
$PUCSYDIR
 10
0.0
 20
1.0
 30
0.0
  9
$PUCSORTHOREF
  2

  9
$PUCSORTHOVIEW
 70
     0
  9
$PUCSORGTOP
 10
0.0
 20
0.0
 30
0.0
  9
$PUCSORGBOTTOM
 10
0.0
 20
0.0
 30
0.0
  9
$PUCSORGLEFT
 10
0.0
 20
0.0
 30
0.0
  9
$PUCSORGRIGHT
 10
0.0
 20
0.0
 30
0.0
  9
$PUCSORGFRONT
 10
0.0
 20
0.0
 30
0.0
  9
$PUCSORGBACK
 10
0.0
 20
0.0
 30
0.0
  9
$USERI1
 70
     0
  9
$USERI2
 70
     0
  9
$USERI3
 70
     0
  9
$USERI4
 70
     0
  9
$USERI5
 70
     0
  9
$USERR1
 40
0.0
  9
$USERR2
 40
0.0
  9
$USERR3
 40
0.0
  9
$USERR4
 40
0.0
  9
$USERR5
 40
0.0
  9
$WORLDVIEW
 70
     1
  9
$SHADEDGE
 70
     3
  9
$SHADEDIF
 70
    70
  9
$TILEMODE
 70
     1
  9
$MAXACTVP
 70
    64
  9
$PINSBASE
 10
0.0
 20
0.0
 30
0.0
  9
$PLIMCHECK
 70
     0
  9
$PEXTMIN
 10
0.0
 20
0.0
 30
0.0
  9
$PEXTMAX
 10
0.0
 20
0.0
 30
0.0
  9
$PLIMMIN
 10
-7.5
 20
-20.0
  9
$PLIMMAX
 10
412.5
 20
277.0
  9
$UNITMODE
 70
     0
  9
$VISRETAIN
 70
     0
  9
$PLINEGEN
 70
     1
  9
$PSLTSCALE
 70
     0
  9
$TREEDEPTH
 70
  3020
  9
$CMLSTYLE
  2
Standard
  9
$CMLJUST
 70
     0
  9
$CMLSCALE
 40
1.0
  9
$PROXYGRAPHICS
 70
     0
  9
$MEASUREMENT
 70
     1
  9
$CELWEIGHT
370
     0
  9
$ENDCAPS
280
     0
  9
$JOINSTYLE
280
     0
  9
$LWDISPLAY
290
     1
  9
$INSUNITS
 70
     4
  9
$HYPERLINKBASE
  1

  9
$STYLESHEET
  1

  9
$XEDIT
290
     1
  9
$CEPSNTYPE
380
     0
  9
$PSTYLEMODE
290
     1
  9
$FINGERPRINTGUID
  2

  9
$VERSIONGUID
  2

  9
$EXTNAMES
290
     1
  9
$PSVPSCALE
 40
0.0
  9
$OLESTARTUP
290
     0
  9
$SORTENTS
280
   127
  9
$INDEXCTL
280
     0
  9
$HIDETEXT
280
     1
  9
$XCLIPFRAME
290
     0
  9
$HALOGAP
280
     0
  9
$OBSCOLOR
 70
   257
  9
$OBSLTYPE
280
     0
  9
$INTERSECTIONDISPLAY
280
     0
  9
$INTERSECTIONCOLOR
 70
   257
  9
$DIMASSOC
280
     2
  9
$PROJECTNAME
  1

  9
$CAMERADISPLAY
290
     0
  9
$LENSLENGTH
 40
50.0
  9
$CAMERAHEIGHT
 40
0.0
  9
$STEPSPERSEC
 40
2.0
  9
$STEPSIZE
 40
6.0
  9
$3DDWFPREC
 40
2.0
  9
$PSOLWIDTH
 40
0.25
  9
$PSOLHEIGHT
 40
4.0
  9
$LOFTANG1
 40
1.570796326794897
  9
$LOFTANG2
 40
1.570796326794897
  9
$LOFTMAG1
 40
0.0
  9
$LOFTMAG2
 40
0.0
  9
$LOFTPARAM
 70
     7
  9
$LOFTNORMALS
280
     1
  9
$LATITUDE
 40
37.795
  9
$LONGITUDE
 40
-122.394
  9
$NORTHDIRECTION
 40
0.0
  9
$TIMEZONE
 70
 -8000
  9
$LIGHTGLYPHDISPLAY
280
     1
  9
$TILEMODELIGHTSYNCH
280
     1
  9
$SOLIDHIST
280
     1
  9
$SHOWHIST
280
     1
  9
$DWFFRAME
280
     2
  9
$DGNFRAME
280
     2
  9
$REALWORLDSCALE
290
     1
  9
$INTERFERECOLOR
 62
   256
  9
$CSHADOW
280
     0
  9
$SHADOWPLANELOCATION
 40
0.0
  0
ENDSEC
  0
SECTION
  2
CLASSES
  0
CLASS
  1
LWPOLYLINE
  2
AcDbPolyline
  3
ObjectDBX Classes
 90
        0
 91
        1
280
     0
281
     1
  0
CLASS
  1
IMAGE
  2
AcDbRasterImage
  3
ISM
 90
      127
 91
        5
280
     0
281
     1
  0
CLASS
  1
OLE2FRAME
  2
AcDbOle2Frame
  3
ObjectDBX Classes
 90
        0
 91
        1
280
     0
281
     1
  0
CLASS
  1
HATCH
  2
AcDbHatch
  3
ObjectDBX Classes
 90
        0
 91
        1
280
     0
281
     1
  0
CLASS
  1
DICTIONARYVAR
  2
AcDbDictionaryVar
  3
ObjectDBX Classes
 90
        0
 91
        4
280
     0
281
     0
  0
CLASS
  1
RASTERVARIABLES
  2
AcDbRasterVariables
  3
ISM
 90
        0
 91
        5
280
     0
281
     0
  0
CLASS
  1
IMAGEDEF
  2
AcDbRasterImageDef
  3
ISM
 90
        0
 91
        4
280
     0
281
     0
  0
CLASS
  1
IMAGEDEF_REACTOR
  2
AcDbRasterImageDefReactor
  3
ISM
 90
        1
 91
        4
280
     0
281
     0
  0
CLASS
  1
IDBUFFER
  2
AcDbIdBuffer
  3
ObjectDBX Classes
 90
        0
 91
        4
280
     0
281
     0
  0
CLASS
  1
SPATIAL_FILTER
  2
AcDbSpatialFilter
  3
ObjectDBX Classes
 90
        0
 91
        4
280
     0
281
     0
  0
CLASS
  1
XRECORD
  2
AcDbXrecord
  3
ObjectDBX Classes
 90
        0
 91
        1
280
     0
281
     0
  0
CLASS
  1
SORTENTSTABLE
  2
AcDbSortentsTable
  3
ObjectDBX Classes
 90
        0
 91
        4
280
     0
281
     0
  0
CLASS
  1
LAYER_INDEX
  2
AcDbLayerIndex
  3
ObjectDBX Classes
 90
        0
 91
        4
280
     0
281
     0
  0
CLASS
  1
SPATIAL_INDEX
  2
AcDbSpatialIndex
  3
AutoCAD 2000
 90
        0
 91
        4
280
     0
281
     0
  0
CLASS
  1
OBJECT_PTR
  2
CAseDLPNTableRecord
  3
ASE-LPNTableRecord
 90
        1
 91
        4
280
     0
281
     0
  0
CLASS
  1
LAYOUT
  2
AcDbLayout
  3
ObjectDBX Classes
 90
        0
 91
        1
280
     0
281
     0
  0
CLASS
  1
PLOTSETTINGS
  2
AcDbPlotSettings
  3
ObjectDBX Classes
 90
        0
 91
        4
280
     0
281
     0
  0
CLASS
  1
ACDBDICTIONARYWDFLT
  2
AcDbDictionaryWithDefault
  3
ObjectDBX Classes
 90
        0
 91
        5
280
     0
281
     0
  0
CLASS
  1
ACDBPLACEHOLDER
  2
AcDbPlaceHolder
  3
ObjectDBX Classes
 90
        0
 91
        1
280
     0
281
     0
  0
CLASS
  1
SCALE
  2
AcDbScale
  3
ObjectDBX Classes
 90
     1153
 91
        5
280
     0
281
     0
  0
CLASS
  1
MATERIAL
  2
AcDbMaterial
  3
ObjectDBX Classes
 90
     1153
 91
        5
280
     0
281
     0
  0
CLASS
  1
VISUALSTYLE
  2
AcDbVisualStyle
  3
ObjectDBX Classes
 90
     4095
 91
        5
280
     0
281
     0
  0
CLASS
  1
TABLESTYLE
  2
AcDbTableStyle
  3
ObjectDBX Classes
 90
     4095
 91
        5
280
     0
281
     0
  0
CLASS
  1
DIMASSOC
  2
AcDbDimAssoc
  3
"AcDbDimAssoc|Product Desc:     AcDim ARX App For Dimension|Company:          Autodesk, Inc.|WEB Address:      www.autodesk.com"
 90
        0
 91
        4
280
     0
281
     0
  0
CLASS
  1
CELLSTYLEMAP
  2
AcDbCellStyleMap
  3
ObjectDBX Classes
 90
     1152
 91
        4
280
     0
281
     0
  0
CLASS
  1
SUN
  2
AcDbSun
  3
SCENEOE
 90
     1153
 91
        5
280
     0
281
     0
  0
ENDSEC
  0
SECTION
  2
TABLES
  0
TABLE
  2
VPORT
  5
7
330
0
100
AcDbSymbolTable
 70
     1
  0
VPORT
  5
15
330
7
100
AcDbSymbolTableRecord
100
AcDbViewportTableRecord
  2
*ACTIVE
 70
     0
 10
0.0
 20
0.0
 11
1.0
 21
1.0
 12
1015.000000000241
 22
1457.875640804123
 13
0.0
 23
0.0
 14
1.0
 24
1.0
 15
0.0
 25
0.0
 16
0.0
 26
0.0
 36
1.0
 17
0.0
 27
0.0
 37
0.0
 40
2890.021615685495
 41
2.631578947368421
 42
50.0
 43
0.0
 44
0.0
 50
0.0
 51
0.0
 71
    16
 72
  2000
 73
     1
 74
     1
 75
     0
 76
     0
 77
     0
 78
     0
281
     0
 65
     0
110
0.0
120
0.0
130
0.0
111
1.0
121
0.0
131
0.0
112
0.0
122
1.0
132
0.0
 79
     0
146
0.0
348
26C
 60
     3
 61
     5
292
     1
282
     1
141
0.0
142
0.0
 63
   256
361
68F
  0
ENDTAB
  0
TABLE
  2
LTYPE
  5
4
330
0
100
AcDbSymbolTable
 70
    16
  0
LTYPE
  5
11
330
4
100
AcDbSymbolTableRecord
100
AcDbLinetypeTableRecord
  2
ByBlock
 70
     0
  3

 72
    65
 73
     0
 40
0.0
  0
LTYPE
  5
12
330
4
100
AcDbSymbolTableRecord
100
AcDbLinetypeTableRecord
  2
ByLayer
 70
     0
  3

 72
    65
 73
     0
 40
0.0
  0
LTYPE
  5
13
330
4
100
AcDbSymbolTableRecord
100
AcDbLinetypeTableRecord
  2
Continuous
 70
     0
  3
Solid line
 72
    65
 73
     0
 40
0.0
  0
LTYPE
  5
45
330
4
100
AcDbSymbolTableRecord
100
AcDbLinetypeTableRecord
  2
STYLE_12
 70
     0
  3

 72
    65
 73
     2
 40
0.3937007874015748
 49
0.1968503937007874
 74
     0
 49
-0.1968503937007874
 74
     0
  0
LTYPE
  5
653
330
4
100
AcDbSymbolTableRecord
100
AcDbLinetypeTableRecord
  2
STYLE_25
 70
     0
  3

 72
    65
 73
     2
 40
0.3937007874015748
 49
0.1968503937007874
 74
     0
 49
-0.1968503937007874
 74
     0
  0
LTYPE
  5
421C
330
4
100
AcDbSymbolTableRecord
100
AcDbLinetypeTableRecord
  2
AI-LINETYPE-1
 70
     0
  3
Adobe Illustrator Linetype No. 1
 72
    65
 73
     4
 40
10.79998128138732
 49
6.000013207316245
 74
     0
 49
-1.599989358023693
 74
     0
 49
1.599989358023693
 74
     0
 49
-1.599989358023693
 74
     0
  0
LTYPE
  5
421D
330
4
100
AcDbSymbolTableRecord
100
AcDbLinetypeTableRecord
  2
AI-LINETYPE-2
 70
     0
  3
Adobe Illustrator Linetype No. 2
 72
    65
 73
     4
 40
10.79998128138732
 49
6.000013207316245
 74
     0
 49
-1.599989358023693
 74
     0
 49
1.599989358023693
 74
     0
 49
-1.599989358023693
 74
     0
  0
LTYPE
  5
421E
330
4
100
AcDbSymbolTableRecord
100
AcDbLinetypeTableRecord
  2
AI-LINETYPE-3
 70
     0
  3
Adobe Illustrator Linetype No. 3
 72
    65
 73
     4
 40
10.79998128138732
 49
6.000013207316245
 74
     0
 49
-1.599989358023693
 74
     0
 49
1.599989358023693
 74
     0
 49
-1.599989358023693
 74
     0
  0
LTYPE
  5
421F
330
4
100
AcDbSymbolTableRecord
100
AcDbLinetypeTableRecord
  2
AI-LINETYPE-4
 70
     0
  3
Adobe Illustrator Linetype No. 4
 72
    65
 73
     4
 40
10.79998128138732
 49
6.000013207316245
 74
     0
 49
-1.599989358023693
 74
     0
 49
1.599989358023693
 74
     0
 49
-1.599989358023693
 74
     0
  0
LTYPE
  5
4220
330
4
100
AcDbSymbolTableRecord
100
AcDbLinetypeTableRecord
  2
AI-LINETYPE-5
 70
     0
  3
Adobe Illustrator Linetype No. 5
 72
    65
 73
     4
 40
10.79998128138732
 49
6.000013207316245
 74
     0
 49
-1.599989358023693
 74
     0
 49
1.599989358023693
 74
     0
 49
-1.599989358023693
 74
     0
  0
LTYPE
  5
4221
330
4
100
AcDbSymbolTableRecord
100
AcDbLinetypeTableRecord
  2
AI-LINETYPE-6
 70
     0
  3
Adobe Illustrator Linetype No. 6
 72
    65
 73
     4
 40
10.79998128138732
 49
6.000013207316245
 74
     0
 49
-1.599989358023693
 74
     0
 49
1.599989358023693
 74
     0
 49
-1.599989358023693
 74
     0
  0
LTYPE
  5
4222
330
4
100
AcDbSymbolTableRecord
100
AcDbLinetypeTableRecord
  2
AI-LINETYPE-7
 70
     0
  3
Adobe Illustrator Linetype No. 7
 72
    65
 73
     6
 40
2.999953615093974
 49
0.4999922691823291
 74
     0
 49
-0.4999922691823291
 74
     0
 49
0.4999922691823291
 74
     0
 49
-0.4999922691823291
 74
     0
 49
0.4999922691823291
 74
     0
 49
-0.4999922691823291
 74
     0
  0
LTYPE
  5
4223
330
4
100
AcDbSymbolTableRecord
100
AcDbLinetypeTableRecord
  2
AI-LINETYPE-8
 70
     0
  3
Adobe Illustrator Linetype No. 8
 72
    65
 73
     6
 40
2.999953615093974
 49
0.4999922691823291
 74
     0
 49
-0.4999922691823291
 74
     0
 49
0.4999922691823291
 74
     0
 49
-0.4999922691823291
 74
     0
 49
0.4999922691823291
 74
     0
 49
-0.4999922691823291
 74
     0
  0
LTYPE
  5
4224
330
4
100
AcDbSymbolTableRecord
100
AcDbLinetypeTableRecord
  2
AI-LINETYPE-9
 70
     0
  3
Adobe Illustrator Linetype No. 9
 72
    65
 73
     6
 40
2.999953615093974
 49
0.4999922691823291
 74
     0
 49
-0.4999922691823291
 74
     0
 49
0.4999922691823291
 74
     0
 49
-0.4999922691823291
 74
     0
 49
0.4999922691823291
 74
     0
 49
-0.4999922691823291
 74
     0
  0
LTYPE
  5
4225
330
4
100
AcDbSymbolTableRecord
100
AcDbLinetypeTableRecord
  2
AI-LINETYPE-10
 70
     0
  3
Adobe Illustrator Linetype No. 10
 72
    65
 73
     6
 40
2.999953615093974
 49
0.4999922691823291
 74
     0
 49
-0.4999922691823291
 74
     0
 49
0.4999922691823291
 74
     0
 49
-0.4999922691823291
 74
     0
 49
0.4999922691823291
 74
     0
 49
-0.4999922691823291
 74
     0
  0
LTYPE
  5
4226
330
4
100
AcDbSymbolTableRecord
100
AcDbLinetypeTableRecord
  2
AI-LINETYPE-11
 70
     0
  3
Adobe Illustrator Linetype No. 11
 72
    65
 73
     6
 40
2.999953615093974
 49
0.4999922691823291
 74
     0
 49
-0.4999922691823291
 74
     0
 49
0.4999922691823291
 74
     0
 49
-0.4999922691823291
 74
     0
 49
0.4999922691823291
 74
     0
 49
-0.4999922691823291
 74
     0
  0
LTYPE
  5
4227
330
4
100
AcDbSymbolTableRecord
100
AcDbLinetypeTableRecord
  2
AI-LINETYPE-12
 70
     0
  3
Adobe Illustrator Linetype No. 12
 72
    65
 73
     6
 40
2.999953615093974
 49
0.4999922691823291
 74
     0
 49
-0.4999922691823291
 74
     0
 49
0.4999922691823291
 74
     0
 49
-0.4999922691823291
 74
     0
 49
0.4999922691823291
 74
     0
 49
-0.4999922691823291
 74
     0
  0
LTYPE
  5
4228
330
4
100
AcDbSymbolTableRecord
100
AcDbLinetypeTableRecord
  2
AI-LINETYPE-13
 70
     0
  3
Adobe Illustrator Linetype No. 13
 72
    65
 73
     6
 40
2.999953615093974
 49
0.4999922691823291
 74
     0
 49
-0.4999922691823291
 74
     0
 49
0.4999922691823291
 74
     0
 49
-0.4999922691823291
 74
     0
 49
0.4999922691823291
 74
     0
 49
-0.4999922691823291
 74
     0
  0
ENDTAB
  0
TABLE
  2
LAYER
  5
2
102
{ACAD_XDICTIONARY
360
2E1
102
}
330
0
100
AcDbSymbolTable
 70
     8
  0
LAYER
  5
14
330
2
100
AcDbSymbolTableRecord
100
AcDbLayerTableRecord
  2
0
 70
     0
 62
     7
  6
Continuous
370
    -3
390
1D
347
266
  0
LAYER
  5
4A
330
2
100
AcDbSymbolTableRecord
100
AcDbLayerTableRecord
  2
Defpoints
 70
     0
 62
     7
  6
Continuous
290
     0
370
     9
390
1D
347
266
  0
LAYER
  5
4B
330
2
100
AcDbSymbolTableRecord
100
AcDbLayerTableRecord
  2
template
 70
     0
 62
     7
  6
Continuous
370
    -3
390
1D
347
266
  0
LAYER
  5
4C
330
2
100
AcDbSymbolTableRecord
100
AcDbLayerTableRecord
  2
notes
 70
     0
 62
     7
  6
Continuous
370
    -3
390
1D
347
266
  0
LAYER
  5
4D
330
2
100
AcDbSymbolTableRecord
100
AcDbLayerTableRecord
  2
MODEL
 70
     0
 62
     7
  6
Continuous
370
    -3
390
1D
347
266
  0
LAYER
  5
382
330
2
100
AcDbSymbolTableRecord
100
AcDbLayerTableRecord
  2
レイヤー 1
 70
     0
 62
     7
  6
Continuous
370
    -3
390
1D
347
266
  0
LAYER
  5
5EB
330
2
100
AcDbSymbolTableRecord
100
AcDbLayerTableRecord
  2
Dim
 70
     0
 62
     7
  6
Continuous
370
     9
390
1D
347
266
1001
AcAecLayerStandard
1000

1000

  0
LAYER
  5
2226
330
2
100
AcDbSymbolTableRecord
100
AcDbLayerTableRecord
  2
STANDARD
 70
     0
 62
     7
  6
Continuous
370
    -3
390
1D
347
266
  0
ENDTAB
  0
TABLE
  2
STYLE
  5
3
330
0
100
AcDbSymbolTable
 70
     2
  0
STYLE
  5
17
330
3
100
AcDbSymbolTableRecord
100
AcDbTextStyleTableRecord
  2
Standard
 70
     0
 40
0.0
 41
1.0
 50
0.0
 71
     0
 42
533.0403732820173
  3
txt
  4
BIGFONT.SHX
  0
STYLE
  5
39
330
3
100
AcDbSymbolTableRecord
100
AcDbTextStyleTableRecord
  2
ＭＳ ゴシック
 70
     0
 40
0.0
 41
1.0
 50
0.0
 71
     0
 42
2.5
  3
msgothic.ttc
  4
ＭＳ ゴシック
1001
ACAD
1000
ＭＳ ゴシック
1071
        0
  0
ENDTAB
  0
TABLE
  2
VIEW
  5
5
330
0
100
AcDbSymbolTable
 70
     0
  0
ENDTAB
  0
TABLE
  2
UCS
  5
6
330
0
100
AcDbSymbolTable
 70
     0
  0
ENDTAB
  0
TABLE
  2
APPID
  5
8
330
0
100
AcDbSymbolTable
 70
     3
  0
APPID
  5
16
330
8
100
AcDbSymbolTableRecord
100
AcDbRegAppTableRecord
  2
ACAD
 70
     0
  0
APPID
  5
5C5
330
8
100
AcDbSymbolTableRecord
100
AcDbRegAppTableRecord
  2
AcAecLayerStandard
 70
     0
  0
APPID
  5
697
330
8
100
AcDbSymbolTableRecord
100
AcDbRegAppTableRecord
  2
ACAD_PSEXT
 70
     0
  0
ENDTAB
  0
TABLE
  2
DIMSTYLE
  5
9
330
0
100
AcDbSymbolTable
 70
     3
100
AcDbDimStyleTable
  0
DIMSTYLE
105
18
330
9
100
AcDbSymbolTableRecord
100
AcDbDimStyleTableRecord
  2
Standard
 70
     0
178
     0
340
17
  0
DIMSTYLE
105
5C
102
{ACAD_REACTORS
330
432D
330
4384
330
4393
330
43A2
330
43B4
330
44E4
330
450B
330
451E
330
4531
330
455D
330
4575
330
4589
330
45A8
330
463A
330
465C
330
4677
330
4686
102
}
330
9
100
AcDbSymbolTableRecord
100
AcDbDimStyleTableRecord
  2
JIS
 70
     0
  3
<>
  4
[]
 41
9.0
 42
0.0
 43
6.99999999999994
 44
19.9999999999962
 73
     0
 74
     0
 77
     1
 78
    11
140
24.4326171875
141
0.0
143
1.0
147
10.0
171
     1
174
     1
178
     0
179
     2
271
     1
272
     1
276
     2
284
    11
285
    11
286
    11
289
     0
340
39
341
4E
342
4E
  0
DIMSTYLE
105
4229
330
9
100
AcDbSymbolTableRecord
100
AcDbDimStyleTableRecord
  2
ISO-25
 70
     0
 41
2.5
 42
0.625
 43
3.75
 44
1.25
 73
     0
 74
     0
 77
     1
 78
     8
140
2.5
141
2.5
143
0.03937007874016
147
0.625
171
     3
172
     1
178
     0
271
     2
272
     2
274
     3
283
     0
284
     8
340
17
  0
ENDTAB
  0
TABLE
  2
BLOCK_RECORD
  5
1
330
0
100
AcDbSymbolTable
 70
    64
  0
BLOCK_RECORD
  5
A
330
1
100
AcDbSymbolTableRecord
100
AcDbBlockTableRecord
  2
*MODEL_SPACE
340
20
 70
     0
280
     1
281
     0
  0
BLOCK_RECORD
  5
B
330
1
100
AcDbSymbolTableRecord
100
AcDbBlockTableRecord
  2
*PAPER_SPACE
340
21
 70
     0
280
     1
281
     0
  0
BLOCK_RECORD
  5
4E
330
1
100
AcDbSymbolTableRecord
100
AcDbBlockTableRecord
  2
_DOT
340
0
102
{BLKREFS
331
3B74
331
3B75
331
3B83
331
3B84
331
3BA1
331
3BA2
331
3BB6
331
3BB7
331
3BC9
331
3BCA
331
3BD6
331
3BD7
331
3C3E
331
3C3F
331
3C7F
331
3C80
331
3C8E
331
3C8F
331
3CA7
331
3CA8
331
3F3B
331
3F3C
331
3F4A
331
3F4B
331
3F6B
331
3F6C
331
3F80
331
3F81
331
4026
331
4027
331
4088
331
4089
331
40DD
331
40DE
331
40EA
331
40EB
331
413E
331
413F
331
4328
331
4329
331
4336
331
4337
331
4345
331
4346
331
4354
331
4355
331
4362
331
4363
331
436F
331
4370
331
438D
331
438E
331
439C
331
439D
331
43AB
331
43AC
331
43BD
331
43BE
331
4408
331
4409
331
4414
331
4415
331
4420
331
4421
331
442C
331
442D
331
4438
331
4439
331
4498
331
4499
331
44B7
331
44B8
331
44CA
331
44CB
331
44D9
331
44DA
331
44ED
331
44EE
331
4505
331
4506
331
4512
331
4513
331
4527
331
4528
331
453A
331
453B
331
4548
331
4549
331
4566
331
4567
331
457E
331
457F
331
4592
331
4593
331
45A2
331
45A3
331
45B1
331
45B2
331
45C0
331
45C1
331
4643
331
4644
331
4665
331
4666
331
4680
331
4681
331
468F
331
4690
102
}
 70
     0
280
     1
281
     0
  0
BLOCK_RECORD
  5
58
330
1
100
AcDbSymbolTableRecord
100
AcDbBlockTableRecord
  2
VW_FILLEDARROW
340
0
 70
     0
280
     1
281
     0
  0
BLOCK_RECORD
  5
3A5
330
1
100
AcDbSymbolTableRecord
100
AcDbBlockTableRecord
  2
名称未設定-1
340
0
102
{BLKREFS
331
3D0
102
}
 70
     1
280
     1
281
     0
  0
BLOCK_RECORD
  5
3A8
330
1
100
AcDbSymbolTableRecord
100
AcDbBlockTableRecord
  2
block 2
340
0
102
{BLKREFS
331
3A7
102
}
 70
     0
280
     1
281
     0
  0
BLOCK_RECORD
  5
3AB
330
1
100
AcDbSymbolTableRecord
100
AcDbBlockTableRecord
  2
block 3
340
0
102
{BLKREFS
331
3AA
102
}
 70
     0
280
     1
281
     0
  0
BLOCK_RECORD
  5
3AE
330
1
100
AcDbSymbolTableRecord
100
AcDbBlockTableRecord
  2
block 4
340
0
102
{BLKREFS
331
3AD
102
}
 70
     0
280
     1
281
     0
  0
BLOCK_RECORD
  5
3BD
330
1
100
AcDbSymbolTableRecord
100
AcDbBlockTableRecord
  2
block 5
340
0
102
{BLKREFS
331
3BC
102
}
 70
     0
280
     1
281
     0
  0
BLOCK_RECORD
  5
3B6E
330
1
100
AcDbSymbolTableRecord
100
AcDbBlockTableRecord
  2
*D7
340
0
 70
     0
280
     1
281
     0
  0
BLOCK_RECORD
  5
3B7D
330
1
100
AcDbSymbolTableRecord
100
AcDbBlockTableRecord
  2
*D8
340
0
 70
     0
280
     1
281
     0
  0
BLOCK_RECORD
  5
3B9B
330
1
100
AcDbSymbolTableRecord
100
AcDbBlockTableRecord
  2
*D9
340
0
 70
     0
280
     1
281
     0
  0
BLOCK_RECORD
  5
3BB0
330
1
100
AcDbSymbolTableRecord
100
AcDbBlockTableRecord
  2
*D10
340
0
 70
     0
280
     1
281
     0
  0
BLOCK_RECORD
  5
3BC3
330
1
100
AcDbSymbolTableRecord
100
AcDbBlockTableRecord
  2
*D11
340
0
 70
     0
280
     1
281
     0
  0
BLOCK_RECORD
  5
3BD0
330
1
100
AcDbSymbolTableRecord
100
AcDbBlockTableRecord
  2
*D12
340
0
 70
     0
280
     1
281
     0
  0
BLOCK_RECORD
  5
3C38
330
1
100
AcDbSymbolTableRecord
100
AcDbBlockTableRecord
  2
*D13
340
0
 70
     0
280
     1
281
     0
  0
BLOCK_RECORD
  5
3C79
330
1
100
AcDbSymbolTableRecord
100
AcDbBlockTableRecord
  2
*D14
340
0
 70
     0
280
     1
281
     0
  0
BLOCK_RECORD
  5
3C88
330
1
100
AcDbSymbolTableRecord
100
AcDbBlockTableRecord
  2
*D15
340
0
 70
     0
280
     1
281
     0
  0
BLOCK_RECORD
  5
3CA1
330
1
100
AcDbSymbolTableRecord
100
AcDbBlockTableRecord
  2
*D16
340
0
 70
     0
280
     1
281
     0
  0
BLOCK_RECORD
  5
3F35
330
1
100
AcDbSymbolTableRecord
100
AcDbBlockTableRecord
  2
*D17
340
0
 70
     0
280
     1
281
     0
  0
BLOCK_RECORD
  5
3F44
330
1
100
AcDbSymbolTableRecord
100
AcDbBlockTableRecord
  2
*D18
340
0
 70
     0
280
     1
281
     0
  0
BLOCK_RECORD
  5
3F65
330
1
100
AcDbSymbolTableRecord
100
AcDbBlockTableRecord
  2
*D19
340
0
 70
     0
280
     1
281
     0
  0
BLOCK_RECORD
  5
3F7A
330
1
100
AcDbSymbolTableRecord
100
AcDbBlockTableRecord
  2
*D20
340
0
 70
     0
280
     1
281
     0
  0
BLOCK_RECORD
  5
4020
330
1
100
AcDbSymbolTableRecord
100
AcDbBlockTableRecord
  2
*D21
340
0
 70
     0
280
     1
281
     0
  0
BLOCK_RECORD
  5
4082
330
1
100
AcDbSymbolTableRecord
100
AcDbBlockTableRecord
  2
*D22
340
0
 70
     0
280
     1
281
     0
  0
BLOCK_RECORD
  5
40D7
330
1
100
AcDbSymbolTableRecord
100
AcDbBlockTableRecord
  2
*D23
340
0
 70
     0
280
     1
281
     0
  0
BLOCK_RECORD
  5
40E4
330
1
100
AcDbSymbolTableRecord
100
AcDbBlockTableRecord
  2
*D24
340
0
 70
     0
280
     1
281
     0
  0
BLOCK_RECORD
  5
4138
330
1
100
AcDbSymbolTableRecord
100
AcDbBlockTableRecord
  2
*D25
340
0
 70
     0
280
     1
281
     0
  0
BLOCK_RECORD
  5
424A
330
1
100
AcDbSymbolTableRecord
100
AcDbBlockTableRecord
  2
811431D
340
0
 70
     0
280
     1
281
     0
  0
BLOCK_RECORD
  5
4262
330
1
100
AcDbSymbolTableRecord
100
AcDbBlockTableRecord
  2
811431S
340
0
 70
     0
280
     1
281
     0
  0
BLOCK_RECORD
  5
4274
330
1
100
AcDbSymbolTableRecord
100
AcDbBlockTableRecord
  2
811431V
340
0
 70
     0
280
     1
281
     0
  0
BLOCK_RECORD
  5
4321
330
1
100
AcDbSymbolTableRecord
100
AcDbBlockTableRecord
  2
*D29
340
0
 70
     0
280
     1
281
     0
  0
BLOCK_RECORD
  5
4330
330
1
100
AcDbSymbolTableRecord
100
AcDbBlockTableRecord
  2
*D30
340
0
 70
     0
280
     1
281
     0
  0
BLOCK_RECORD
  5
433F
330
1
100
AcDbSymbolTableRecord
100
AcDbBlockTableRecord
  2
*D31
340
0
 70
     0
280
     1
281
     0
  0
BLOCK_RECORD
  5
434E
330
1
100
AcDbSymbolTableRecord
100
AcDbBlockTableRecord
  2
*D32
340
0
 70
     0
280
     1
281
     0
  0
BLOCK_RECORD
  5
435C
330
1
100
AcDbSymbolTableRecord
100
AcDbBlockTableRecord
  2
*D33
340
0
 70
     0
280
     1
281
     0
  0
BLOCK_RECORD
  5
4369
330
1
100
AcDbSymbolTableRecord
100
AcDbBlockTableRecord
  2
*D34
340
0
 70
     0
280
     1
281
     0
  0
BLOCK_RECORD
  5
4387
330
1
100
AcDbSymbolTableRecord
100
AcDbBlockTableRecord
  2
*D35
340
0
 70
     0
280
     1
281
     0
  0
BLOCK_RECORD
  5
4396
330
1
100
AcDbSymbolTableRecord
100
AcDbBlockTableRecord
  2
*D36
340
0
 70
     0
280
     1
281
     0
  0
BLOCK_RECORD
  5
43A5
330
1
100
AcDbSymbolTableRecord
100
AcDbBlockTableRecord
  2
*D37
340
0
 70
     0
280
     1
281
     0
  0
BLOCK_RECORD
  5
43B7
330
1
100
AcDbSymbolTableRecord
100
AcDbBlockTableRecord
  2
*D38
340
0
 70
     0
280
     1
281
     0
  0
BLOCK_RECORD
  5
4402
330
1
100
AcDbSymbolTableRecord
100
AcDbBlockTableRecord
  2
*D39
340
0
 70
     0
280
     1
281
     0
  0
BLOCK_RECORD
  5
440E
330
1
100
AcDbSymbolTableRecord
100
AcDbBlockTableRecord
  2
*D40
340
0
 70
     0
280
     1
281
     0
  0
BLOCK_RECORD
  5
441A
330
1
100
AcDbSymbolTableRecord
100
AcDbBlockTableRecord
  2
*D41
340
0
 70
     0
280
     1
281
     0
  0
BLOCK_RECORD
  5
4426
330
1
100
AcDbSymbolTableRecord
100
AcDbBlockTableRecord
  2
*D42
340
0
 70
     0
280
     1
281
     0
  0
BLOCK_RECORD
  5
4432
330
1
100
AcDbSymbolTableRecord
100
AcDbBlockTableRecord
  2
*D43
340
0
 70
     0
280
     1
281
     0
  0
BLOCK_RECORD
  5
4492
330
1
100
AcDbSymbolTableRecord
100
AcDbBlockTableRecord
  2
*D44
340
0
 70
     0
280
     1
281
     0
  0
BLOCK_RECORD
  5
44B1
330
1
100
AcDbSymbolTableRecord
100
AcDbBlockTableRecord
  2
*D45
340
0
 70
     0
280
     1
281
     0
  0
BLOCK_RECORD
  5
44C4
330
1
100
AcDbSymbolTableRecord
100
AcDbBlockTableRecord
  2
*D46
340
0
 70
     0
280
     1
281
     0
  0
BLOCK_RECORD
  5
44D3
330
1
100
AcDbSymbolTableRecord
100
AcDbBlockTableRecord
  2
*D47
340
0
 70
     0
280
     1
281
     0
  0
BLOCK_RECORD
  5
44E7
330
1
100
AcDbSymbolTableRecord
100
AcDbBlockTableRecord
  2
*D48
340
0
 70
     0
280
     1
281
     0
  0
BLOCK_RECORD
  5
44FF
330
1
100
AcDbSymbolTableRecord
100
AcDbBlockTableRecord
  2
*D49
340
0
 70
     0
280
     1
281
     0
  0
BLOCK_RECORD
  5
450C
330
1
100
AcDbSymbolTableRecord
100
AcDbBlockTableRecord
  2
*D50
340
0
 70
     0
280
     1
281
     0
  0
BLOCK_RECORD
  5
4521
330
1
100
AcDbSymbolTableRecord
100
AcDbBlockTableRecord
  2
*D51
340
0
 70
     0
280
     1
281
     0
  0
BLOCK_RECORD
  5
4534
330
1
100
AcDbSymbolTableRecord
100
AcDbBlockTableRecord
  2
*D52
340
0
 70
     0
280
     1
281
     0
  0
BLOCK_RECORD
  5
4543
330
1
100
AcDbSymbolTableRecord
100
AcDbBlockTableRecord
  2
*D53
340
0
 70
     0
280
     1
281
     0
  0
BLOCK_RECORD
  5
4560
330
1
100
AcDbSymbolTableRecord
100
AcDbBlockTableRecord
  2
*D54
340
0
 70
     0
280
     1
281
     0
  0
BLOCK_RECORD
  5
4578
330
1
100
AcDbSymbolTableRecord
100
AcDbBlockTableRecord
  2
*D55
340
0
 70
     0
280
     1
281
     0
  0
BLOCK_RECORD
  5
458C
330
1
100
AcDbSymbolTableRecord
100
AcDbBlockTableRecord
  2
*D56
340
0
 70
     0
280
     1
281
     0
  0
BLOCK_RECORD
  5
459B
330
1
100
AcDbSymbolTableRecord
100
AcDbBlockTableRecord
  2
*D57
340
0
 70
     0
280
     1
281
     0
  0
BLOCK_RECORD
  5
45AB
330
1
100
AcDbSymbolTableRecord
100
AcDbBlockTableRecord
  2
*D58
340
0
 70
     0
280
     1
281
     0
  0
BLOCK_RECORD
  5
45BA
330
1
100
AcDbSymbolTableRecord
100
AcDbBlockTableRecord
  2
*D59
340
0
 70
     0
280
     1
281
     0
  0
BLOCK_RECORD
  5
463D
330
1
100
AcDbSymbolTableRecord
100
AcDbBlockTableRecord
  2
*D60
340
0
 70
     0
280
     1
281
     0
  0
BLOCK_RECORD
  5
465F
330
1
100
AcDbSymbolTableRecord
100
AcDbBlockTableRecord
  2
*D61
340
0
 70
     0
280
     1
281
     0
  0
BLOCK_RECORD
  5
467A
330
1
100
AcDbSymbolTableRecord
100
AcDbBlockTableRecord
  2
*D62
340
0
 70
     0
280
     1
281
     0
  0
BLOCK_RECORD
  5
4689
330
1
100
AcDbSymbolTableRecord
100
AcDbBlockTableRecord
  2
*D63
340
0
 70
     0
280
     1
281
     0
  0
ENDTAB
  0
ENDSEC
  0
SECTION
  2
BLOCKS
  0
BLOCK
  5
D
330
A
100
AcDbEntity
  8
0
390
1D
100
AcDbBlockBegin
  2
*MODEL_SPACE
 70
     0
 10
0.0
 20
0.0
 30
0.0
  3
*MODEL_SPACE
  1
*MODEL_SPACE
  0
ENDBLK
  5
E
330
A
100
AcDbEntity
  8
0
390
1D
100
AcDbBlockEnd
  0
BLOCK
  5
F
330
B
100
AcDbEntity
 67
     1
  8
0
390
1D
100
AcDbBlockBegin
  2
*PAPER_SPACE
 70
     0
 10
0.0
 20
0.0
 30
0.0
  3
*PAPER_SPACE
  1
*PAPER_SPACE
  0
ENDBLK
  5
10
330
B
100
AcDbEntity
 67
     1
  8
0
390
1D
100
AcDbBlockEnd
  0
BLOCK
  5
2BB
330
4E
100
AcDbEntity
  8
0
390
1D
100
AcDbBlockBegin
  2
_DOT
 70
     0
 10
0.0
 20
0.0
 30
0.0
  3
_DOT
  1
_DOT
  0
POLYLINE
  5
2BD
330
4E
100
AcDbEntity
  8
0
  6
ByBlock
 62
     0
370
    -2
390
1D
100
AcDb2dPolyline
 66
     1
 10
0.0
 20
0.0
 30
0.0
 70
     1
 40
0.5
 41
0.5
  0
VERTEX
  5
2BE
330
2BD
100
AcDbEntity
  8
0
  6
ByBlock
 62
     0
370
    -2
390
1D
100
AcDbVertex
100
AcDb2dVertex
 10
-0.25
 20
0.0
 30
0.0
 42
1.0
  0
VERTEX
  5
2BF
330
2BD
100
AcDbEntity
  8
0
  6
ByBlock
 62
     0
370
    -2
390
1D
100
AcDbVertex
100
AcDb2dVertex
 10
0.25
 20
0.0
 30
0.0
 42
1.0
  0
SEQEND
  5
2C0
330
2BD
100
AcDbEntity
  8
0
390
1D
  0
LINE
  5
2C1
330
4E
100
AcDbEntity
  8
0
  6
ByBlock
 62
     0
370
    -2
390
1D
100
AcDbLine
 10
-0.5
 20
0.0
 30
0.0
 11
-1.0
 21
0.0
 31
0.0
  0
ENDBLK
  5
2C2
330
4E
100
AcDbEntity
  8
0
390
1D
100
AcDbBlockEnd
  0
BLOCK
  5
59
330
58
100
AcDbEntity
  8
0
  6
ByBlock
 62
     0
370
    -2
390
1D
100
AcDbBlockBegin
  2
VW_FILLEDARROW
 70
     0
 10
0.0
 20
0.0
 30
0.0
  3
VW_FILLEDARROW
  1
VW_FILLEDARROW
  0
SOLID
  5
5A
330
58
100
AcDbEntity
  8
0
 62
     0
370
    -2
390
1D
100
AcDbTrace
 10
0.0
 20
0.0
 30
0.0
 11
-0.9921874999999999
 21
-0.2658558393652545
 31
0.0
 12
-0.9921874999999999
 22
0.2658558393652548
 32
0.0
 13
-0.9921874999999999
 23
0.2658558393652548
 33
0.0
  0
ENDBLK
  5
5B
330
58
100
AcDbEntity
  8
0
390
1D
100
AcDbBlockEnd
  0
BLOCK
  5
3A6
330
3A5
100
AcDbEntity
  8
0
100
AcDbBlockBegin
  2
名称未設定-1
 70
     0
 10
0.0
 20
0.0
 30
0.0
  3
名称未設定-1
  1
名称未設定-1
  0
INSERT
  5
3A7
330
3A5
100
AcDbEntity
  8
レイヤー 1
100
AcDbBlockReference
  2
block 2
 10
0.0
 20
0.0
 30
0.0
  0
ENDBLK
  5
3CC
330
3A5
100
AcDbEntity
  8
0
100
AcDbBlockEnd
  0
BLOCK
  5
3A9
330
3A8
100
AcDbEntity
  8
0
100
AcDbBlockBegin
  2
block 2
 70
     0
 10
0.0
 20
0.0
 30
0.0
  3
block 2
  1
block 2
  0
INSERT
  5
3AA
330
3A8
100
AcDbEntity
  8
レイヤー 1
100
AcDbBlockReference
  2
block 3
 10
0.0
 20
0.0
 30
0.0
  0
ENDBLK
  5
3CB
330
3A8
100
AcDbEntity
  8
0
100
AcDbBlockEnd
  0
BLOCK
  5
3AC
330
3AB
100
AcDbEntity
  8
0
100
AcDbBlockBegin
  2
block 3
 70
     0
 10
0.0
 20
0.0
 30
0.0
  3
block 3
  1
block 3
  0
INSERT
  5
3AD
330
3AB
100
AcDbEntity
  8
レイヤー 1
100
AcDbBlockReference
  2
block 4
 10
0.0
 20
0.0
 30
0.0
  0
ENDBLK
  5
3CA
330
3AB
100
AcDbEntity
  8
0
100
AcDbBlockEnd
  0
BLOCK
  5
3AF
330
3AE
100
AcDbEntity
  8
0
100
AcDbBlockBegin
  2
block 4
 70
     0
 10
0.0
 20
0.0
 30
0.0
  3
block 4
  1
block 4
  0
POLYLINE
  5
3B0
330
3AE
100
AcDbEntity
  8
レイヤー 1
370
     0
100
AcDb2dPolyline
 66
     1
 10
0.0
 20
0.0
 30
0.0
  0
VERTEX
  5
3B1
330
3B0
100
AcDbEntity
  8
レイヤー 1
370
     0
100
AcDbVertex
100
AcDb2dVertex
 10
83.79545727667795
 20
167.6444858234922
 30
0.0
  0
VERTEX
  5
3B2
330
3B0
100
AcDbEntity
  8
レイヤー 1
370
     0
100
AcDbVertex
100
AcDb2dVertex
 10
83.79545727667795
 20
159.7968976406313
 30
0.0
  0
VERTEX
  5
3B3
330
3B0
100
AcDbEntity
  8
レイヤー 1
370
     0
100
AcDbVertex
100
AcDb2dVertex
 10
71.3631329975216
 20
159.7968976406313
 30
0.0
  0
VERTEX
  5
3B4
330
3B0
100
AcDbEntity
  8
レイヤー 1
370
     0
100
AcDbVertex
100
AcDb2dVertex
 10
71.3631329975216
 20
127.8027915271048
 30
0.0
  0
VERTEX
  5
3B5
330
3B0
100
AcDbEntity
  8
レイヤー 1
370
     0
100
AcDbVertex
100
AcDb2dVertex
 10
60.43011526263018
 20
127.8027915271048
 30
0.0
  0
VERTEX
  5
3B6
330
3B0
100
AcDbEntity
  8
レイヤー 1
370
     0
100
AcDbVertex
100
AcDb2dVertex
 10
60.43011526263018
 20
159.7968976406313
 30
0.0
  0
VERTEX
  5
3B7
330
3B0
100
AcDbEntity
  8
レイヤー 1
370
     0
100
AcDbVertex
100
AcDb2dVertex
 10
48.21793273020759
 20
159.7968976406313
 30
0.0
  0
VERTEX
  5
3B8
330
3B0
100
AcDbEntity
  8
レイヤー 1
370
     0
100
AcDbVertex
100
AcDb2dVertex
 10
48.21793273020759
 20
167.6444858234922
 30
0.0
  0
VERTEX
  5
3B9
330
3B0
100
AcDbEntity
  8
レイヤー 1
370
     0
100
AcDbVertex
100
AcDb2dVertex
 10
83.79545727667795
 20
167.6444858234922
 30
0.0
  0
SEQEND
  5
3BA
330
3B0
100
AcDbEntity
  8
レイヤー 1
370
     0
  0
HATCH
  5
3BB
330
3AE
100
AcDbEntity
  8
レイヤー 1
 62
   250
420
  2234388
100
AcDbHatch
 10
0.0
 20
0.0
 30
0.0
210
0.0
220
0.0
230
1.0
  2
SOLID
 70
     1
 71
     0
 91
        1
 92
        1
 93
        8
 72
     1
 10
83.79545727667795
 20
167.6444858234922
 11
83.79545727667795
 21
159.7968976406313
 72
     1
 10
83.79545727667795
 20
159.7968976406313
 11
71.3631329975216
 21
159.7968976406313
 72
     1
 10
71.3631329975216
 20
159.7968976406313
 11
71.3631329975216
 21
127.8027915271048
 72
     1
 10
71.3631329975216
 20
127.8027915271048
 11
60.43011526263018
 21
127.8027915271048
 72
     1
 10
60.43011526263018
 20
127.8027915271048
 11
60.43011526263018
 21
159.7968976406313
 72
     1
 10
60.43011526263018
 20
159.7968976406313
 11
48.21793273020759
 21
159.7968976406313
 72
     1
 10
48.21793273020759
 20
159.7968976406313
 11
48.21793273020759
 21
167.6444858234922
 72
     1
 10
48.21793273020759
 20
167.6444858234922
 11
83.79545727667795
 21
167.6444858234922
 97
        0
 75
     2
 76
     1
 98
        0
  0
INSERT
  5
3BC
330
3AE
100
AcDbEntity
  8
レイヤー 1
100
AcDbBlockReference
  2
block 5
 10
0.0
 20
0.0
 30
0.0
  0
ENDBLK
  5
3C9
330
3AE
100
AcDbEntity
  8
0
100
AcDbBlockEnd
  0
BLOCK
  5
3BE
330
3BD
100
AcDbEntity
  8
0
100
AcDbBlockBegin
  2
block 5
 70
     0
 10
0.0
 20
0.0
 30
0.0
  3
block 5
  1
block 5
  0
SPLINE
  5
3BF
330
3BD
100
AcDbEntity
  8
レイヤー 1
370
     0
100
AcDbSpline
210
0.0
220
0.0
230
1.0
 70
    11
 71
     3
 72
    56
 73
    52
 74
     0
 42
0.000000001
 43
0.0000000001
 40
0.0
 40
0.0
 40
0.0
 40
0.0
 40
1.0
 40
1.0
 40
1.0
 40
2.0
 40
2.0
 40
2.0
 40
3.0
 40
3.0
 40
3.0
 40
4.0
 40
4.0
 40
4.0
 40
5.0
 40
5.0
 40
5.0
 40
6.0
 40
6.0
 40
6.0
 40
7.0
 40
7.0
 40
7.0
 40
8.0
 40
8.0
 40
8.0
 40
9.0
 40
9.0
 40
9.0
 40
10.0
 40
10.0
 40
10.0
 40
11.0
 40
11.0
 40
11.0
 40
12.0
 40
12.0
 40
12.0
 40
13.0
 40
13.0
 40
13.0
 40
14.0
 40
14.0
 40
14.0
 40
15.0
 40
15.0
 40
15.0
 40
16.0
 40
16.0
 40
16.0
 40
17.0
 40
17.0
 40
17.0
 40
17.0
 10
100.4504378777679
 20
166.69157178364
 30
0.0
 10
101.9848844191641
 20
167.1313385124438
 30
0.0
 10
103.9637485713373
 20
166.7649523658846
 30
0.0
 10
103.9637485713373
 20
166.7649523658846
 30
0.0
 10
103.9637485713373
 20
166.7649523658846
 30
0.0
 10
103.0132460999156
 20
163.911205638077
 30
0.0
 10
103.0132460999156
 20
163.911205638077
 30
0.0
 10
103.0132460999156
 20
163.911205638077
 30
0.0
 10
101.0674548862189
 20
164.3601018759394
 30
0.0
 10
99.57090442016032
 20
163.1805004036133
 30
0.0
 10
98.40508333886608
 20
162.258247733807
 30
0.0
 10
97.65301849830304
 20
159.804132345923
 30
0.0
 10
97.3598406791005
 20
158.8699940888517
 30
0.0
 10
97.3598406791005
 20
158.8699940888517
 30
0.0
 10
96.07137411762282
 20
154.9119212747295
 30
0.0
 10
96.07137411762282
 20
154.9119212747295
 30
0.0
 10
96.07137411762282
 20
154.9119212747295
 30
0.0
 10
100.3012651448482
 20
154.9119212747295
 30
0.0
 10
100.3012651448482
 20
154.9119212747295
 30
0.0
 10
100.3012651448482
 20
154.9119212747295
 30
0.0
 10
99.64152892419852
 20
152.4199098115079
 30
0.0
 10
99.64152892419852
 20
152.4199098115079
 30
0.0
 10
99.64152892419852
 20
152.4199098115079
 30
0.0
 10
95.38097652692731
 20
152.4199098115079
 30
0.0
 10
95.38097652692731
 20
152.4199098115079
 30
0.0
 10
95.38097652692731
 20
152.4199098115079
 30
0.0
 10
87.75353009080013
 20
127.8027915271048
 30
0.0
 10
87.75353009080013
 20
127.8027915271048
 30
0.0
 10
87.75353009080013
 20
127.8027915271048
 30
0.0
 10
85.36538832498108
 20
127.8027915271048
 30
0.0
 10
85.36538832498108
 20
127.8027915271048
 30
0.0
 10
85.36538832498108
 20
127.8027915271048
 30
0.0
 10
93.00006946639998
 20
152.4199098115079
 30
0.0
 10
93.00006946639998
 20
152.4199098115079
 30
0.0
 10
93.00006946639998
 20
152.4199098115079
 30
0.0
 10
89.85297266450198
 20
152.4199098115079
 30
0.0
 10
89.85297266450198
 20
152.4199098115079
 30
0.0
 10
89.85297266450198
 20
152.4199098115079
 30
0.0
 10
90.51270888515164
 20
154.9119212747295
 30
0.0
 10
90.51270888515164
 20
154.9119212747295
 30
0.0
 10
90.51270888515164
 20
154.9119212747295
 30
0.0
 10
93.6904670570955
 20
154.9119212747295
 30
0.0
 10
93.6904670570955
 20
154.9119212747295
 30
0.0
 10
93.6904670570955
 20
154.9119212747295
 30
0.0
 10
94.81598049462158
 20
158.3616699146644
 30
0.0
 10
94.81598049462158
 20
158.3616699146644
 30
0.0
 10
95.7237637538445
 20
161.2605474231013
 30
0.0
 10
96.4968436907311
 20
162.8139420021662
 30
0.0
 10
97.15657991138076
 20
163.9844139654337
 30
0.0
 10
97.81183750494507
 20
165.1523021053827
 30
0.0
 10
99.1047826935081
 20
166.3084769129547
 30
0.0
 10
100.4504378777679
 20
166.69157178364
 30
0.0
  0
HATCH
  5
3C0
330
3BD
100
AcDbEntity
  8
レイヤー 1
 62
   250
420
  2234388
100
AcDbHatch
 10
0.0
 20
0.0
 30
0.0
210
0.0
220
0.0
230
1.0
  2
SOLID
 70
     1
 71
     0
 91
        1
 92
        1
 93
        1
 72
     4
 94
        3
 73
     0
 74
     1
 95
       56
 96
       52
 40
0.0
 40
0.0
 40
0.0
 40
0.0
 40
1.0
 40
1.0
 40
1.0
 40
2.0
 40
2.0
 40
2.0
 40
3.0
 40
3.0
 40
3.0
 40
4.0
 40
4.0
 40
4.0
 40
5.0
 40
5.0
 40
5.0
 40
6.0
 40
6.0
 40
6.0
 40
7.0
 40
7.0
 40
7.0
 40
8.0
 40
8.0
 40
8.0
 40
9.0
 40
9.0
 40
9.0
 40
10.0
 40
10.0
 40
10.0
 40
11.0
 40
11.0
 40
11.0
 40
12.0
 40
12.0
 40
12.0
 40
13.0
 40
13.0
 40
13.0
 40
14.0
 40
14.0
 40
14.0
 40
15.0
 40
15.0
 40
15.0
 40
16.0
 40
16.0
 40
16.0
 40
17.0
 40
17.0
 40
17.0
 40
17.0
 10
100.4504378777679
 20
166.69157178364
 10
101.9848844191641
 20
167.1313385124438
 10
103.9637485713373
 20
166.7649523658846
 10
103.9637485713373
 20
166.7649523658846
 10
103.9637485713373
 20
166.7649523658846
 10
103.0132460999156
 20
163.911205638077
 10
103.0132460999156
 20
163.911205638077
 10
103.0132460999156
 20
163.911205638077
 10
101.0674548862189
 20
164.3601018759394
 10
99.57090442016032
 20
163.1805004036133
 10
98.40508333886608
 20
162.258247733807
 10
97.65301849830304
 20
159.804132345923
 10
97.3598406791005
 20
158.8699940888517
 10
97.3598406791005
 20
158.8699940888517
 10
96.07137411762282
 20
154.9119212747295
 10
96.07137411762282
 20
154.9119212747295
 10
96.07137411762282
 20
154.9119212747295
 10
100.3012651448482
 20
154.9119212747295
 10
100.3012651448482
 20
154.9119212747295
 10
100.3012651448482
 20
154.9119212747295
 10
99.64152892419852
 20
152.4199098115079
 10
99.64152892419852
 20
152.4199098115079
 10
99.64152892419852
 20
152.4199098115079
 10
95.38097652692731
 20
152.4199098115079
 10
95.38097652692731
 20
152.4199098115079
 10
95.38097652692731
 20
152.4199098115079
 10
87.75353009080013
 20
127.8027915271048
 10
87.75353009080013
 20
127.8027915271048
 10
87.75353009080013
 20
127.8027915271048
 10
85.36538832498108
 20
127.8027915271048
 10
85.36538832498108
 20
127.8027915271048
 10
85.36538832498108
 20
127.8027915271048
 10
93.00006946639998
 20
152.4199098115079
 10
93.00006946639998
 20
152.4199098115079
 10
93.00006946639998
 20
152.4199098115079
 10
89.85297266450198
 20
152.4199098115079
 10
89.85297266450198
 20
152.4199098115079
 10
89.85297266450198
 20
152.4199098115079
 10
90.51270888515164
 20
154.9119212747295
 10
90.51270888515164
 20
154.9119212747295
 10
90.51270888515164
 20
154.9119212747295
 10
93.6904670570955
 20
154.9119212747295
 10
93.6904670570955
 20
154.9119212747295
 10
93.6904670570955
 20
154.9119212747295
 10
94.81598049462158
 20
158.3616699146644
 10
94.81598049462158
 20
158.3616699146644
 10
95.7237637538445
 20
161.2605474231013
 10
96.4968436907311
 20
162.8139420021662
 10
97.15657991138076
 20
163.9844139654337
 10
97.81183750494507
 20
165.1523021053827
 10
99.1047826935081
 20
166.3084769129547
 10
100.4504378777679
 20
166.69157178364
 97
        0
 75
     2
 76
     1
 98
        0
  0
SPLINE
  5
3C1
330
3BD
100
AcDbEntity
  8
レイヤー 1
370
     0
100
AcDbSpline
210
0.0
220
0.0
230
1.0
 70
    11
 71
     3
 72
    38
 73
    34
 74
     0
 42
0.000000001
 43
0.0000000001
 40
0.0
 40
0.0
 40
0.0
 40
0.0
 40
1.0
 40
1.0
 40
1.0
 40
2.0
 40
2.0
 40
2.0
 40
3.0
 40
3.0
 40
3.0
 40
4.0
 40
4.0
 40
4.0
 40
5.0
 40
5.0
 40
5.0
 40
6.0
 40
6.0
 40
6.0
 40
7.0
 40
7.0
 40
7.0
 40
8.0
 40
8.0
 40
8.0
 40
9.0
 40
9.0
 40
9.0
 40
10.0
 40
10.0
 40
10.0
 40
11.0
 40
11.0
 40
11.0
 40
11.0
 10
126.377554584636
 20
154.8151140277308
 30
0.0
 10
126.377554584636
 20
154.8151140277308
 30
0.0
 10
128.8311532078563
 20
154.8151140277308
 30
0.0
 10
128.8311532078563
 20
154.8151140277308
 30
0.0
 10
128.8311532078563
 20
154.8151140277308
 30
0.0
 10
127.7345785914971
 20
151.3062819612468
 30
0.0
 10
127.7345785914971
 20
151.3062819612468
 30
0.0
 10
128.571392836906
 20
152.2922689395754
 30
0.0
 10
129.8860421413442
 20
153.604506675583
 30
0.0
 10
131.0163787157314
 20
154.2664822097754
 30
0.0
 10
132.7044766171327
 20
155.2500576196734
 30
0.0
 10
133.6642808525008
 20
155.3847609420097
 30
0.0
 10
134.7284715499351
 20
155.3565111403944
 30
0.0
 10
134.7284715499351
 20
155.3565111403944
 30
0.0
 10
133.6877075172549
 20
152.0345756272799
 30
0.0
 10
133.6877075172549
 20
152.0345756272799
 30
0.0
 10
133.011434827367
 20
152.3184516825359
 30
0.0
 10
130.930940291334
 20
151.7768823149844
 30
0.0
 10
129.739280976855
 20
150.9162968950455
 30
0.0
 10
128.66613302525
 20
150.1454562717016
 30
0.0
 10
127.9192358313239
 20
149.4857200510519
 30
0.0
 10
127.0393578639405
 20
147.8282835196966
 30
0.0
 10
126.164647543194
 20
146.1699857139017
 30
0.0
 10
125.4742499524985
 20
143.5262176944419
 30
0.0
 10
124.2822461282437
 20
139.6959580071401
 30
0.0
 10
124.2822461282437
 20
139.6959580071401
 30
0.0
 10
120.5753209406769
 20
127.8027915271048
 30
0.0
 10
120.5753209406769
 20
127.8027915271048
 30
0.0
 10
120.5753209406769
 20
127.8027915271048
 30
0.0
 10
118.1964809388044
 20
127.8027915271048
 30
0.0
 10
118.1964809388044
 20
127.8027915271048
 30
0.0
 10
118.1964809388044
 20
127.8027915271048
 30
0.0
 10
126.377554584636
 20
154.8151140277308
 30
0.0
 10
126.377554584636
 20
154.8151140277308
 30
0.0
  0
HATCH
  5
3C2
330
3BD
100
AcDbEntity
  8
レイヤー 1
 62
   250
420
  2234388
100
AcDbHatch
 10
0.0
 20
0.0
 30
0.0
210
0.0
220
0.0
230
1.0
  2
SOLID
 70
     1
 71
     0
 91
        1
 92
        1
 93
        1
 72
     4
 94
        3
 73
     0
 74
     1
 95
       38
 96
       34
 40
0.0
 40
0.0
 40
0.0
 40
0.0
 40
1.0
 40
1.0
 40
1.0
 40
2.0
 40
2.0
 40
2.0
 40
3.0
 40
3.0
 40
3.0
 40
4.0
 40
4.0
 40
4.0
 40
5.0
 40
5.0
 40
5.0
 40
6.0
 40
6.0
 40
6.0
 40
7.0
 40
7.0
 40
7.0
 40
8.0
 40
8.0
 40
8.0
 40
9.0
 40
9.0
 40
9.0
 40
10.0
 40
10.0
 40
10.0
 40
11.0
 40
11.0
 40
11.0
 40
11.0
 10
126.377554584636
 20
154.8151140277308
 10
126.377554584636
 20
154.8151140277308
 10
128.8311532078563
 20
154.8151140277308
 10
128.8311532078563
 20
154.8151140277308
 10
128.8311532078563
 20
154.8151140277308
 10
127.7345785914971
 20
151.3062819612468
 10
127.7345785914971
 20
151.3062819612468
 10
128.571392836906
 20
152.2922689395754
 10
129.8860421413442
 20
153.604506675583
 10
131.0163787157314
 20
154.2664822097754
 10
132.7044766171327
 20
155.2500576196734
 10
133.6642808525008
 20
155.3847609420097
 10
134.7284715499351
 20
155.3565111403944
 10
134.7284715499351
 20
155.3565111403944
 10
133.6877075172549
 20
152.0345756272799
 10
133.6877075172549
 20
152.0345756272799
 10
133.011434827367
 20
152.3184516825359
 10
130.930940291334
 20
151.7768823149844
 10
129.739280976855
 20
150.9162968950455
 10
128.66613302525
 20
150.1454562717016
 10
127.9192358313239
 20
149.4857200510519
 10
127.0393578639405
 20
147.8282835196966
 10
126.164647543194
 20
146.1699857139017
 10
125.4742499524985
 20
143.5262176944419
 10
124.2822461282437
 20
139.6959580071401
 10
124.2822461282437
 20
139.6959580071401
 10
120.5753209406769
 20
127.8027915271048
 10
120.5753209406769
 20
127.8027915271048
 10
120.5753209406769
 20
127.8027915271048
 10
118.1964809388044
 20
127.8027915271048
 10
118.1964809388044
 20
127.8027915271048
 10
118.1964809388044
 20
127.8027915271048
 10
126.377554584636
 20
154.8151140277308
 10
126.377554584636
 20
154.8151140277308
 97
        0
 75
     2
 76
     1
 98
        0
  0
SPLINE
  5
3C3
330
3BD
100
AcDbEntity
  8
レイヤー 1
370
     0
100
AcDbSpline
210
0.0
220
0.0
230
1.0
 70
    11
 71
     3
 72
   104
 73
   100
 74
     0
 42
0.000000001
 43
0.0000000001
 40
0.0
 40
0.0
 40
0.0
 40
0.0
 40
1.0
 40
1.0
 40
1.0
 40
2.0
 40
2.0
 40
2.0
 40
3.0
 40
3.0
 40
3.0
 40
4.0
 40
4.0
 40
4.0
 40
5.0
 40
5.0
 40
5.0
 40
6.0
 40
6.0
 40
6.0
 40
7.0
 40
7.0
 40
7.0
 40
8.0
 40
8.0
 40
8.0
 40
9.0
 40
9.0
 40
9.0
 40
10.0
 40
10.0
 40
10.0
 40
11.0
 40
11.0
 40
11.0
 40
12.0
 40
12.0
 40
12.0
 40
13.0
 40
13.0
 40
13.0
 40
14.0
 40
14.0
 40
14.0
 40
15.0
 40
15.0
 40
15.0
 40
16.0
 40
16.0
 40
16.0
 40
17.0
 40
17.0
 40
17.0
 40
18.0
 40
18.0
 40
18.0
 40
19.0
 40
19.0
 40
19.0
 40
20.0
 40
20.0
 40
20.0
 40
21.0
 40
21.0
 40
21.0
 40
22.0
 40
22.0
 40
22.0
 40
23.0
 40
23.0
 40
23.0
 40
24.0
 40
24.0
 40
24.0
 40
25.0
 40
25.0
 40
25.0
 40
26.0
 40
26.0
 40
26.0
 40
27.0
 40
27.0
 40
27.0
 40
28.0
 40
28.0
 40
28.0
 40
29.0
 40
29.0
 40
29.0
 40
30.0
 40
30.0
 40
30.0
 40
31.0
 40
31.0
 40
31.0
 40
32.0
 40
32.0
 40
32.0
 40
33.0
 40
33.0
 40
33.0
 40
33.0
 10
139.8926730891197
 20
154.8294111834263
 30
0.0
 10
139.8926730891197
 20
154.8294111834263
 30
0.0
 10
142.0344903652445
 20
154.8294111834263
 30
0.0
 10
142.0344903652445
 20
154.8294111834263
 30
0.0
 10
142.0344903652445
 20
154.8294111834263
 30
0.0
 10
140.9516961399171
 20
151.3157559800812
 30
0.0
 10
140.9516961399171
 20
151.3157559800812
 30
0.0
 10
141.8928968473923
 20
152.7887075264977
 30
0.0
 10
142.7341897198865
 20
153.4484437471474
 30
0.0
 10
143.8552245303272
 20
154.2926649527359
 30
0.0
 10
144.9803934580775
 20
155.1296514530327
 30
0.0
 10
146.3139908001845
 20
155.3044901642492
 30
0.0
 10
147.241066606852
 20
155.3044901642492
 30
0.0
 10
148.3855280820469
 20
155.3044901642492
 30
0.0
 10
149.4969166187653
 20
155.0752189084569
 30
0.0
 10
150.0784491203092
 20
153.8172414621372
 30
0.0
 10
150.5228667310863
 20
152.833838307127
 30
0.0
 10
150.5414702589793
 20
152.7201500811143
 30
0.0
 10
150.4140016419347
 20
150.7765981809602
 30
0.0
 10
151.5818897818837
 20
152.7699317437168
 30
0.0
 10
152.4424752018226
 20
153.6256940267945
 30
0.0
 10
153.9038856707499
 20
154.4507949398263
 30
0.0
 10
155.4455669174378
 20
155.3044901642492
 30
0.0
 10
156.339225275853
 20
155.3659851592288
 30
0.0
 10
157.3748216618963
 20
155.2147453676543
 30
0.0
 10
158.911679771723
 20
154.9877134254046
 30
0.0
 10
159.8859534176746
 20
154.4390816074493
 30
0.0
 10
160.3965169054045
 20
152.7816450760939
 30
0.0
 10
160.9070803931344
 20
151.1219692311958
 30
0.0
 10
160.6328506116007
 20
150.2303779314354
 30
0.0
 10
159.9992971339115
 20
147.597634224801
 30
0.0
 10
159.7105979417943
 20
146.4014962832367
 30
0.0
 10
159.2947746424084
 20
144.9400858143094
 30
0.0
 10
158.7463150793409
 20
143.2092687007094
 30
0.0
 10
158.7463150793409
 20
143.2092687007094
 30
0.0
 10
153.9038856707499
 20
127.8027915271048
 30
0.0
 10
153.9038856707499
 20
127.8027915271048
 30
0.0
 10
153.9038856707499
 20
127.8027915271048
 30
0.0
 10
151.3882752878863
 20
127.8027915271048
 30
0.0
 10
151.3882752878863
 20
127.8027915271048
 30
0.0
 10
151.3882752878863
 20
127.8027915271048
 30
0.0
 10
155.6250565106276
 20
141.2751908193897
 30
0.0
 10
155.6250565106276
 20
141.2751908193897
 30
0.0
 10
156.5094131050963
 20
144.0936252951782
 30
0.0
 10
157.109893644309
 20
146.1506931664571
 30
0.0
 10
157.4220195011804
 20
147.4415712963654
 30
0.0
 10
157.8095929989511
 20
149.0530157726519
 30
0.0
 10
157.9656559273867
 20
149.5826995529385
 30
0.0
 10
157.7816877071116
 20
150.7529992613181
 30
0.0
 10
157.6111553680925
 20
151.8430281919372
 30
0.0
 10
157.0582171779396
 20
152.5547853887321
 30
0.0
 10
156.1170164704645
 20
152.5547853887321
 30
0.0
 10
155.1096698860365
 20
152.5547853887321
 30
0.0
 10
154.2962823053817
 20
152.4412694176073
 30
0.0
 10
153.156643967048
 20
151.2945686288697
 30
0.0
 10
152.0170056287143
 20
150.1476955852443
 30
0.0
 10
151.076149431015
 20
148.7930831468137
 30
0.0
 10
150.3337308641742
 20
147.2290087646991
 30
0.0
 10
149.5957909244188
 20
145.6683794803425
 30
0.0
 10
148.8530278478023
 20
143.6822806228776
 30
0.0
 10
148.0964843801539
 20
141.2751908193897
 30
0.0
 10
148.0964843801539
 20
141.2751908193897
 30
0.0
 10
143.8552245303272
 20
127.8027915271048
 30
0.0
 10
143.8552245303272
 20
127.8027915271048
 30
0.0
 10
143.8552245303272
 20
127.8027915271048
 30
0.0
 10
141.486030802177
 20
127.8027915271048
 30
0.0
 10
141.486030802177
 20
127.8027915271048
 30
0.0
 10
141.486030802177
 20
127.8027915271048
 30
0.0
 10
146.3329388378533
 20
143.2092687007094
 30
0.0
 10
146.3329388378533
 20
143.2092687007094
 30
0.0
 10
146.8483254624444
 20
144.8408669988801
 30
0.0
 10
147.2314203331297
 20
146.1837661049335
 30
0.0
 10
147.4867020769946
 20
147.224185627838
 30
0.0
 10
147.9169947869641
 20
149.0197705792876
 30
0.0
 10
148.0306830129768
 20
150.2400242051577
 30
0.0
 10
147.709255392159
 20
151.3157559800812
 30
0.0
 10
147.3874832615654
 20
152.3916600098926
 30
0.0
 10
146.8245542879144
 20
152.6683013598569
 30
0.0
 10
145.8840425999909
 20
152.6683013598569
 30
0.0
 10
145.0989048209514
 20
152.6683013598569
 30
0.0
 10
144.3282364524954
 20
152.3275811915945
 30
0.0
 10
143.4531816219731
 20
151.6538923250251
 30
0.0
 10
142.34627171234
 20
150.8074318058939
 30
0.0
 10
141.901854101563
 20
150.1097995099067
 30
0.0
 10
141.3578731655808
 20
149.289521733736
 30
0.0
 10
140.6299240093235
 20
148.192602607601
 30
0.0
 10
140.2850697237515
 20
147.455696197173
 30
0.0
 10
139.6652966370942
 20
145.8385673095858
 30
0.0
 10
139.0506911970739
 20
144.2214384219986
 30
0.0
 10
138.463991048893
 20
142.3252566160164
 30
0.0
 10
138.0571250036777
 20
141.0154304484394
 30
0.0
 10
138.0571250036777
 20
141.0154304484394
 30
0.0
 10
133.9009590684727
 20
127.8027915271048
 30
0.0
 10
133.9009590684727
 20
127.8027915271048
 30
0.0
 10
133.9009590684727
 20
127.8027915271048
 30
0.0
 10
131.4180771143097
 20
127.8027915271048
 30
0.0
 10
131.4180771143097
 20
127.8027915271048
 30
0.0
 10
131.4180771143097
 20
127.8027915271048
 30
0.0
 10
139.8926730891197
 20
154.8294111834263
 30
0.0
 10
139.8926730891197
 20
154.8294111834263
 30
0.0
  0
HATCH
  5
3C4
330
3BD
100
AcDbEntity
  8
レイヤー 1
 62
   250
420
  2234388
100
AcDbHatch
 10
0.0
 20
0.0
 30
0.0
210
0.0
220
0.0
230
1.0
  2
SOLID
 70
     1
 71
     0
 91
        1
 92
        1
 93
        1
 72
     4
 94
        3
 73
     0
 74
     1
 95
      104
 96
      100
 40
0.0
 40
0.0
 40
0.0
 40
0.0
 40
1.0
 40
1.0
 40
1.0
 40
2.0
 40
2.0
 40
2.0
 40
3.0
 40
3.0
 40
3.0
 40
4.0
 40
4.0
 40
4.0
 40
5.0
 40
5.0
 40
5.0
 40
6.0
 40
6.0
 40
6.0
 40
7.0
 40
7.0
 40
7.0
 40
8.0
 40
8.0
 40
8.0
 40
9.0
 40
9.0
 40
9.0
 40
10.0
 40
10.0
 40
10.0
 40
11.0
 40
11.0
 40
11.0
 40
12.0
 40
12.0
 40
12.0
 40
13.0
 40
13.0
 40
13.0
 40
14.0
 40
14.0
 40
14.0
 40
15.0
 40
15.0
 40
15.0
 40
16.0
 40
16.0
 40
16.0
 40
17.0
 40
17.0
 40
17.0
 40
18.0
 40
18.0
 40
18.0
 40
19.0
 40
19.0
 40
19.0
 40
20.0
 40
20.0
 40
20.0
 40
21.0
 40
21.0
 40
21.0
 40
22.0
 40
22.0
 40
22.0
 40
23.0
 40
23.0
 40
23.0
 40
24.0
 40
24.0
 40
24.0
 40
25.0
 40
25.0
 40
25.0
 40
26.0
 40
26.0
 40
26.0
 40
27.0
 40
27.0
 40
27.0
 40
28.0
 40
28.0
 40
28.0
 40
29.0
 40
29.0
 40
29.0
 40
30.0
 40
30.0
 40
30.0
 40
31.0
 40
31.0
 40
31.0
 40
32.0
 40
32.0
 40
32.0
 40
33.0
 40
33.0
 40
33.0
 40
33.0
 10
139.8926730891197
 20
154.8294111834263
 10
139.8926730891197
 20
154.8294111834263
 10
142.0344903652445
 20
154.8294111834263
 10
142.0344903652445
 20
154.8294111834263
 10
142.0344903652445
 20
154.8294111834263
 10
140.9516961399171
 20
151.3157559800812
 10
140.9516961399171
 20
151.3157559800812
 10
141.8928968473923
 20
152.7887075264977
 10
142.7341897198865
 20
153.4484437471474
 10
143.8552245303272
 20
154.2926649527359
 10
144.9803934580775
 20
155.1296514530327
 10
146.3139908001845
 20
155.3044901642492
 10
147.241066606852
 20
155.3044901642492
 10
148.3855280820469
 20
155.3044901642492
 10
149.4969166187653
 20
155.0752189084569
 10
150.0784491203092
 20
153.8172414621372
 10
150.5228667310863
 20
152.833838307127
 10
150.5414702589793
 20
152.7201500811143
 10
150.4140016419347
 20
150.7765981809602
 10
151.5818897818837
 20
152.7699317437168
 10
152.4424752018226
 20
153.6256940267945
 10
153.9038856707499
 20
154.4507949398263
 10
155.4455669174378
 20
155.3044901642492
 10
156.339225275853
 20
155.3659851592288
 10
157.3748216618963
 20
155.2147453676543
 10
158.911679771723
 20
154.9877134254046
 10
159.8859534176746
 20
154.4390816074493
 10
160.3965169054045
 20
152.7816450760939
 10
160.9070803931344
 20
151.1219692311958
 10
160.6328506116007
 20
150.2303779314354
 10
159.9992971339115
 20
147.597634224801
 10
159.7105979417943
 20
146.4014962832367
 10
159.2947746424084
 20
144.9400858143094
 10
158.7463150793409
 20
143.2092687007094
 10
158.7463150793409
 20
143.2092687007094
 10
153.9038856707499
 20
127.8027915271048
 10
153.9038856707499
 20
127.8027915271048
 10
153.9038856707499
 20
127.8027915271048
 10
151.3882752878863
 20
127.8027915271048
 10
151.3882752878863
 20
127.8027915271048
 10
151.3882752878863
 20
127.8027915271048
 10
155.6250565106276
 20
141.2751908193897
 10
155.6250565106276
 20
141.2751908193897
 10
156.5094131050963
 20
144.0936252951782
 10
157.109893644309
 20
146.1506931664571
 10
157.4220195011804
 20
147.4415712963654
 10
157.8095929989511
 20
149.0530157726519
 10
157.9656559273867
 20
149.5826995529385
 10
157.7816877071116
 20
150.7529992613181
 10
157.6111553680925
 20
151.8430281919372
 10
157.0582171779396
 20
152.5547853887321
 10
156.1170164704645
 20
152.5547853887321
 10
155.1096698860365
 20
152.5547853887321
 10
154.2962823053817
 20
152.4412694176073
 10
153.156643967048
 20
151.2945686288697
 10
152.0170056287143
 20
150.1476955852443
 10
151.076149431015
 20
148.7930831468137
 10
150.3337308641742
 20
147.2290087646991
 10
149.5957909244188
 20
145.6683794803425
 10
148.8530278478023
 20
143.6822806228776
 10
148.0964843801539
 20
141.2751908193897
 10
148.0964843801539
 20
141.2751908193897
 10
143.8552245303272
 20
127.8027915271048
 10
143.8552245303272
 20
127.8027915271048
 10
143.8552245303272
 20
127.8027915271048
 10
141.486030802177
 20
127.8027915271048
 10
141.486030802177
 20
127.8027915271048
 10
141.486030802177
 20
127.8027915271048
 10
146.3329388378533
 20
143.2092687007094
 10
146.3329388378533
 20
143.2092687007094
 10
146.8483254624444
 20
144.8408669988801
 10
147.2314203331297
 20
146.1837661049335
 10
147.4867020769946
 20
147.224185627838
 10
147.9169947869641
 20
149.0197705792876
 10
148.0306830129768
 20
150.2400242051577
 10
147.709255392159
 20
151.3157559800812
 10
147.3874832615654
 20
152.3916600098926
 10
146.8245542879144
 20
152.6683013598569
 10
145.8840425999909
 20
152.6683013598569
 10
145.0989048209514
 20
152.6683013598569
 10
144.3282364524954
 20
152.3275811915945
 10
143.4531816219731
 20
151.6538923250251
 10
142.34627171234
 20
150.8074318058939
 10
141.901854101563
 20
150.1097995099067
 10
141.3578731655808
 20
149.289521733736
 10
140.6299240093235
 20
148.192602607601
 10
140.2850697237515
 20
147.455696197173
 10
139.6652966370942
 20
145.8385673095858
 10
139.0506911970739
 20
144.2214384219986
 10
138.463991048893
 20
142.3252566160164
 10
138.0571250036777
 20
141.0154304484394
 10
138.0571250036777
 20
141.0154304484394
 10
133.9009590684727
 20
127.8027915271048
 10
133.9009590684727
 20
127.8027915271048
 10
133.9009590684727
 20
127.8027915271048
 10
131.4180771143097
 20
127.8027915271048
 10
131.4180771143097
 20
127.8027915271048
 10
131.4180771143097
 20
127.8027915271048
 10
139.8926730891197
 20
154.8294111834263
 10
139.8926730891197
 20
154.8294111834263
 97
        0
 75
     2
 76
     1
 98
        0
  0
SPLINE
  5
3C5
330
3BD
100
AcDbEntity
  8
レイヤー 1
370
     0
100
AcDbSpline
210
0.0
220
0.0
230
1.0
 70
    11
 71
     3
 72
    29
 73
    25
 74
     0
 42
0.000000001
 43
0.0000000001
 40
0.0
 40
0.0
 40
0.0
 40
0.0
 40
1.0
 40
1.0
 40
1.0
 40
2.0
 40
2.0
 40
2.0
 40
3.0
 40
3.0
 40
3.0
 40
4.0
 40
4.0
 40
4.0
 40
5.0
 40
5.0
 40
5.0
 40
6.0
 40
6.0
 40
6.0
 40
7.0
 40
7.0
 40
7.0
 40
8.0
 40
8.0
 40
8.0
 40
8.0
 10
101.6420971922469
 20
132.8388354296931
 30
0.0
 10
101.630039350094
 20
134.7164137077823
 30
0.0
 10
102.2236296937908
 20
138.0598810818841
 30
0.0
 10
103.7487744712405
 20
142.5378191476827
 30
0.0
 10
105.819967243327
 20
148.5896501242061
 30
0.0
 10
107.0602024361932
 20
150.8074318058939
 30
0.0
 10
108.1522984254671
 20
151.8833358357054
 30
0.0
 10
109.741177511439
 20
153.4532668840085
 30
0.0
 10
111.8740375333931
 20
153.5290590346837
 30
0.0
 10
112.5075910110823
 20
153.4532668840085
 30
0.0
 10
113.4012493694975
 20
153.3490526768302
 30
0.0
 10
114.6683563248758
 20
152.7580461564518
 30
0.0
 10
114.7493161221879
 20
150.7838328862519
 30
0.0
 10
114.8106388622796
 20
149.0909118479895
 30
0.0
 10
114.3186789024427
 20
145.9191825971221
 30
0.0
 10
112.6164561002338
 20
140.9489400617108
 30
0.0
 10
110.6444821435766
 20
135.1746117095912
 30
0.0
 10
109.4669477299053
 20
132.8960240524753
 30
0.0
 10
108.5212683953448
 20
131.9072809959403
 30
0.0
 10
106.7346406980658
 20
130.0538184021569
 30
0.0
 10
104.8222669326213
 20
130.2336525051225
 30
0.0
 10
104.5408024457958
 20
130.2336525051225
 30
0.0
 10
104.1721769856939
 20
130.2336525051225
 30
0.0
 10
101.6465758193322
 20
130.6305277668397
 30
0.0
 10
101.6420971922469
 20
132.8388354296931
 30
0.0
  0
SPLINE
  5
3C6
330
3BD
100
AcDbEntity
  8
レイヤー 1
370
     0
100
AcDbSpline
210
0.0
220
0.0
230
1.0
 70
    11
 71
     3
 72
    32
 73
    28
 74
     0
 42
0.000000001
 43
0.0000000001
 40
0.0
 40
0.0
 40
0.0
 40
0.0
 40
1.0
 40
1.0
 40
1.0
 40
2.0
 40
2.0
 40
2.0
 40
3.0
 40
3.0
 40
3.0
 40
4.0
 40
4.0
 40
4.0
 40
5.0
 40
5.0
 40
5.0
 40
6.0
 40
6.0
 40
6.0
 40
7.0
 40
7.0
 40
7.0
 40
8.0
 40
8.0
 40
8.0
 40
9.0
 40
9.0
 40
9.0
 40
9.0
 10
106.2595617172429
 20
153.4105476718098
 30
0.0
 10
104.8222669326213
 20
151.5474388043041
 30
0.0
 10
103.7177685914188
 20
149.8758773721411
 30
0.0
 10
101.9232171692965
 20
144.6141795664062
 30
0.0
 10
100.2754269116635
 20
139.7999999594306
 30
0.0
 10
99.22777268346732
 20
136.3052927937542
 30
0.0
 10
99.06964269637689
 20
132.039572749846
 30
0.0
 10
98.94665270641765
 20
128.8673267343149
 30
0.0
 10
100.8807305877373
 20
127.8027915271048
 30
0.0
 10
103.7129454545577
 20
127.8027915271048
 30
0.0
 10
104.9352661390825
 20
127.8027915271048
 30
0.0
 10
108.0151835347002
 20
127.8827177950895
 30
0.0
 10
110.2045431598849
 20
130.5926316915021
 30
0.0
 10
111.7417457794874
 20
132.4984597712065
 30
0.0
 10
113.155269389579
 20
134.475256864725
 30
0.0
 10
115.0562743324223
 20
140.9489400617108
 30
0.0
 10
116.6361961642235
 20
146.3680788349845
 30
0.0
 10
117.7282921534974
 20
149.8639917848761
 30
0.0
 10
117.6480213757369
 20
151.8595646611754
 30
0.0
 10
117.6480213757369
 20
151.8595646611754
 30
0.0
 10
117.6480213757369
 20
151.8595646611754
 30
0.0
 10
117.6480213757369
 20
151.8595646611754
 30
0.0
 10
117.13229024137
 20
155.18150017429
 30
0.0
 10
114.7162431837115
 20
155.886194920681
 30
0.0
 10
113.3351034925446
 20
155.886194920681
 30
0.0
 10
111.9829026225447
 20
155.886194920681
 30
0.0
 10
108.3414342923792
 20
156.1251124501957
 30
0.0
 10
106.2595617172429
 20
153.4105476718098
 30
0.0
  0
HATCH
  5
3C7
330
3BD
100
AcDbEntity
  8
レイヤー 1
 62
   250
420
  2234388
100
AcDbHatch
 10
0.0
 20
0.0
 30
0.0
210
0.0
220
0.0
230
1.0
  2
SOLID
 70
     1
 71
     0
 91
        2
 92
        1
 93
        1
 72
     4
 94
        3
 73
     0
 74
     1
 95
       29
 96
       25
 40
0.0
 40
0.0
 40
0.0
 40
0.0
 40
1.0
 40
1.0
 40
1.0
 40
2.0
 40
2.0
 40
2.0
 40
3.0
 40
3.0
 40
3.0
 40
4.0
 40
4.0
 40
4.0
 40
5.0
 40
5.0
 40
5.0
 40
6.0
 40
6.0
 40
6.0
 40
7.0
 40
7.0
 40
7.0
 40
8.0
 40
8.0
 40
8.0
 40
8.0
 10
101.6420971922469
 20
132.8388354296931
 10
101.630039350094
 20
134.7164137077823
 10
102.2236296937908
 20
138.0598810818841
 10
103.7487744712405
 20
142.5378191476827
 10
105.819967243327
 20
148.5896501242061
 10
107.0602024361932
 20
150.8074318058939
 10
108.1522984254671
 20
151.8833358357054
 10
109.741177511439
 20
153.4532668840085
 10
111.8740375333931
 20
153.5290590346837
 10
112.5075910110823
 20
153.4532668840085
 10
113.4012493694975
 20
153.3490526768302
 10
114.6683563248758
 20
152.7580461564518
 10
114.7493161221879
 20
150.7838328862519
 10
114.8106388622796
 20
149.0909118479895
 10
114.3186789024427
 20
145.9191825971221
 10
112.6164561002338
 20
140.9489400617108
 10
110.6444821435766
 20
135.1746117095912
 10
109.4669477299053
 20
132.8960240524753
 10
108.5212683953448
 20
131.9072809959403
 10
106.7346406980658
 20
130.0538184021569
 10
104.8222669326213
 20
130.2336525051225
 10
104.5408024457958
 20
130.2336525051225
 10
104.1721769856939
 20
130.2336525051225
 10
101.6465758193322
 20
130.6305277668397
 10
101.6420971922469
 20
132.8388354296931
 97
        0
 92
        1
 93
        1
 72
     4
 94
        3
 73
     0
 74
     1
 95
       32
 96
       28
 40
0.0
 40
0.0
 40
0.0
 40
0.0
 40
1.0
 40
1.0
 40
1.0
 40
2.0
 40
2.0
 40
2.0
 40
3.0
 40
3.0
 40
3.0
 40
4.0
 40
4.0
 40
4.0
 40
5.0
 40
5.0
 40
5.0
 40
6.0
 40
6.0
 40
6.0
 40
7.0
 40
7.0
 40
7.0
 40
8.0
 40
8.0
 40
8.0
 40
9.0
 40
9.0
 40
9.0
 40
9.0
 10
106.2595617172429
 20
153.4105476718098
 10
104.8222669326213
 20
151.5474388043041
 10
103.7177685914188
 20
149.8758773721411
 10
101.9232171692965
 20
144.6141795664062
 10
100.2754269116635
 20
139.7999999594306
 10
99.22777268346732
 20
136.3052927937542
 10
99.06964269637689
 20
132.039572749846
 10
98.94665270641765
 20
128.8673267343149
 10
100.8807305877373
 20
127.8027915271048
 10
103.7129454545577
 20
127.8027915271048
 10
104.9352661390825
 20
127.8027915271048
 10
108.0151835347002
 20
127.8827177950895
 10
110.2045431598849
 20
130.5926316915021
 10
111.7417457794874
 20
132.4984597712065
 10
113.155269389579
 20
134.475256864725
 10
115.0562743324223
 20
140.9489400617108
 10
116.6361961642235
 20
146.3680788349845
 10
117.7282921534974
 20
149.8639917848761
 10
117.6480213757369
 20
151.8595646611754
 10
117.6480213757369
 20
151.8595646611754
 10
117.6480213757369
 20
151.8595646611754
 10
117.6480213757369
 20
151.8595646611754
 10
117.13229024137
 20
155.18150017429
 10
114.7162431837115
 20
155.886194920681
 10
113.3351034925446
 20
155.886194920681
 10
111.9829026225447
 20
155.886194920681
 10
108.3414342923792
 20
156.1251124501957
 10
106.2595617172429
 20
153.4105476718098
 97
        0
 75
     2
 76
     1
 98
        0
  0
ENDBLK
  5
3C8
330
3BD
100
AcDbEntity
  8
0
100
AcDbBlockEnd
  0
BLOCK
  5
3B6F
330
3B6E
100
AcDbEntity
  8
0
100
AcDbBlockBegin
  2
*D7
 70
     1
 10
0.0
 20
0.0
 30
0.0
  3
*D7
  1
*D82
  0
LINE
  5
3B71
330
3B6E
100
AcDbEntity
  8
Dim
  6
Continuous
 62
     0
370
    -2
100
AcDbLine
 10
2545.073252769327
 20
960.1248001924378
 30
0.0
 11
2545.073252769327
 21
1030.658398309192
 31
0.0
  0
LINE
  5
3B72
330
3B6E
100
AcDbEntity
  8
Dim
  6
Continuous
 62
     0
370
    -2
100
AcDbLine
 10
2784.974093505051
 20
955.0683832879072
 30
0.0
 11
2784.974093505051
 21
1030.658398309192
 31
0.0
  0
LINE
  5
3B73
330
3B6E
100
AcDbEntity
  8
Dim
  6
Continuous
 62
     0
370
    -2
100
AcDbLine
 10
2554.073252769327
 20
1030.658398309192
 30
0.0
 11
2775.974093505051
 21
1030.658398309192
 31
0.0
  0
INSERT
  5
3B74
330
3B6E
100
AcDbEntity
  8
Dim
 62
     0
370
    -2
100
AcDbBlockReference
  2
_DOT
 10
2545.073252769327
 20
1030.658398309192
 30
0.0
 41
9.0
 42
9.0
 43
9.0
 50
180.0
  0
INSERT
  5
3B75
330
3B6E
100
AcDbEntity
  8
Dim
 62
     0
370
    -2
100
AcDbBlockReference
  2
_DOT
 10
2784.974093505051
 20
1030.658398309192
 30
0.0
 41
9.0
 42
9.0
 43
9.0
  0
MTEXT
  5
3B76
330
3B6E
100
AcDbEntity
  8
Dim
  6
Continuous
 62
     0
370
     0
100
AcDbMText
 10
2665.023673137189
 20
1052.874706902942
 30
0.0
 40
24.4326171875
 41
0.0
 46
0.0
 71
     5
 72
     1
  1
\A1;240
  7
ＭＳ ゴシック
 73
     1
 44
1.0
  0
POINT
  5
3B77
330
3B6E
100
AcDbEntity
  8
Defpoints
 62
     0
100
AcDbPoint
 10
2545.073252769327
 20
935.1248001924378
 30
0.0
  0
POINT
  5
3B78
330
3B6E
100
AcDbEntity
  8
Defpoints
 62
     0
100
AcDbPoint
 10
2784.974093505051
 20
930.0683832879072
 30
0.0
  0
POINT
  5
3B79
330
3B6E
100
AcDbEntity
  8
Defpoints
 62
     0
100
AcDbPoint
 10
2784.974093505051
 20
1030.658398309192
 30
0.0
  0
ENDBLK
  5
3B70
330
3B6E
100
AcDbEntity
  8
0
100
AcDbBlockEnd
  0
BLOCK
  5
3B7E
330
3B7D
100
AcDbEntity
  8
0
100
AcDbBlockBegin
  2
*D8
 70
     1
 10
0.0
 20
0.0
 30
0.0
  3
*D8
  1
*D83
  0
LINE
  5
3B80
330
3B7D
100
AcDbEntity
  8
Dim
  6
Continuous
 62
     0
370
    -2
100
AcDbLine
 10
2693.43151093701
 20
805.1704840789484
 30
0.0
 11
3068.955233298389
 21
805.1704840789484
 31
0.0
  0
LINE
  5
3B81
330
3B7D
100
AcDbEntity
  8
Dim
  6
Continuous
 62
     0
370
    -2
100
AcDbLine
 10
2931.991586093602
 20
985.1589871304254
 30
0.0
 11
3068.955233298389
 21
985.1589871304254
 31
0.0
  0
LINE
  5
3B82
330
3B7D
100
AcDbEntity
  8
Dim
  6
Continuous
 62
     0
370
    -2
100
AcDbLine
 10
3068.955233298389
 20
814.1704840789484
 30
0.0
 11
3068.955233298389
 21
976.1589871304254
 31
0.0
  0
INSERT
  5
3B83
330
3B7D
100
AcDbEntity
  8
Dim
 62
     0
370
    -2
100
AcDbBlockReference
  2
_DOT
 10
3068.955233298389
 20
805.1704840789484
 30
0.0
 41
9.0
 42
9.0
 43
9.0
 50
270.0
  0
INSERT
  5
3B84
330
3B7D
100
AcDbEntity
  8
Dim
 62
     0
370
    -2
100
AcDbBlockReference
  2
_DOT
 10
3068.955233298389
 20
985.1589871304254
 30
0.0
 41
9.0
 42
9.0
 43
9.0
 50
90.0
  0
MTEXT
  5
3B85
330
3B7D
100
AcDbEntity
  8
Dim
  6
Continuous
 62
     0
370
     0
100
AcDbMText
 10
3046.738924704639
 20
895.1647356046869
 30
0.0
 40
24.4326171875
 41
0.0
 46
0.0
 71
     5
 72
     1
  1
\A1;180
  7
ＭＳ ゴシック
 11
0.0
 21
1.0
 31
0.0
 73
     1
 44
1.0
  0
POINT
  5
3B86
330
3B7D
100
AcDbEntity
  8
Defpoints
 62
     0
100
AcDbPoint
 10
2668.43151093701
 20
805.1704840789484
 30
0.0
  0
POINT
  5
3B87
330
3B7D
100
AcDbEntity
  8
Defpoints
 62
     0
100
AcDbPoint
 10
2906.991586093602
 20
985.1589871304254
 30
0.0
  0
POINT
  5
3B88
330
3B7D
100
AcDbEntity
  8
Defpoints
 62
     0
100
AcDbPoint
 10
3068.955233298389
 20
985.1589871304254
 30
0.0
  0
ENDBLK
  5
3B7F
330
3B7D
100
AcDbEntity
  8
0
100
AcDbBlockEnd
  0
BLOCK
  5
3B9C
330
3B9B
100
AcDbEntity
  8
0
100
AcDbBlockBegin
  2
*D9
 70
     1
 10
0.0
 20
0.0
 30
0.0
  3
*D9
  1
*D85
  0
LINE
  5
3B9E
330
3B9B
100
AcDbEntity
  8
Dim
  6
Continuous
 62
     0
370
    -2
100
AcDbLine
 10
2520.073252769328
 20
930.0683832879072
 30
0.0
 11
2376.619106874173
 21
930.0683832879072
 31
0.0
  0
LINE
  5
3B9F
330
3B9B
100
AcDbEntity
  8
Dim
  6
Continuous
 62
     0
370
    -2
100
AcDbLine
 10
2399.939110591191
 20
985.1248001924378
 30
0.0
 11
2376.619106874173
 21
985.1248001924378
 31
0.0
  0
LINE
  5
3BA0
330
3B9B
100
AcDbEntity
  8
Dim
  6
Continuous
 62
     0
370
    -2
100
AcDbLine
 10
2376.619106874173
 20
939.0683832879072
 30
0.0
 11
2376.619106874173
 21
976.1248001924378
 31
0.0
  0
INSERT
  5
3BA1
330
3B9B
100
AcDbEntity
  8
Dim
 62
     0
370
    -2
100
AcDbBlockReference
  2
_DOT
 10
2376.619106874173
 20
930.0683832879072
 30
0.0
 41
9.0
 42
9.0
 43
9.0
 50
270.0
  0
INSERT
  5
3BA2
330
3B9B
100
AcDbEntity
  8
Dim
 62
     0
370
    -2
100
AcDbBlockReference
  2
_DOT
 10
2376.619106874173
 20
985.1248001924378
 30
0.0
 41
9.0
 42
9.0
 43
9.0
 50
90.0
  0
MTEXT
  5
3BA3
330
3B9B
100
AcDbEntity
  8
Dim
  6
Continuous
 62
     0
370
     0
100
AcDbMText
 10
2354.402798280423
 20
957.5965917401725
 30
0.0
 40
24.4326171875
 41
0.0
 46
0.0
 71
     5
 72
     1
  1
\A1;55
  7
ＭＳ ゴシック
 11
0.0
 21
1.0
 31
0.0
 73
     1
 44
1.0
  0
POINT
  5
3BA4
330
3B9B
100
AcDbEntity
  8
Defpoints
 62
     0
100
AcDbPoint
 10
2545.073252769328
 20
930.0683832879072
 30
0.0
  0
POINT
  5
3BA5
330
3B9B
100
AcDbEntity
  8
Defpoints
 62
     0
100
AcDbPoint
 10
2424.939110591191
 20
985.1248001924378
 30
0.0
  0
POINT
  5
3BA6
330
3B9B
100
AcDbEntity
  8
Defpoints
 62
     0
100
AcDbPoint
 10
2376.619106874173
 20
985.1248001924378
 30
0.0
  0
ENDBLK
  5
3B9D
330
3B9B
100
AcDbEntity
  8
0
100
AcDbBlockEnd
  0
BLOCK
  5
3BB1
330
3BB0
100
AcDbEntity
  8
0
100
AcDbBlockBegin
  2
*D10
 70
     1
 10
0.0
 20
0.0
 30
0.0
  3
*D10
  1
*D86
  0
LINE
  5
3BB3
330
3BB0
100
AcDbEntity
  8
Dim
  6
Continuous
 62
     0
370
    -2
100
AcDbLine
 10
3441.80782158181
 20
830.1704848854456
 30
0.0
 11
3340.369524906182
 21
830.1704848854456
 31
0.0
  0
LINE
  5
3BB4
330
3BB0
100
AcDbEntity
  8
Dim
  6
Continuous
 62
     0
370
    -2
100
AcDbLine
 10
3384.242418217296
 20
985.0097327842868
 30
0.0
 11
3340.369524906182
 21
985.0097327842868
 31
0.0
  0
LINE
  5
3BB5
330
3BB0
100
AcDbEntity
  8
Dim
  6
Continuous
 62
     0
370
    -2
100
AcDbLine
 10
3340.369524906182
 20
839.1704848854456
 30
0.0
 11
3340.369524906182
 21
976.0097327842868
 31
0.0
  0
INSERT
  5
3BB6
330
3BB0
100
AcDbEntity
  8
Dim
 62
     0
370
    -2
100
AcDbBlockReference
  2
_DOT
 10
3340.369524906182
 20
830.1704848854456
 30
0.0
 41
9.0
 42
9.0
 43
9.0
 50
270.0
  0
INSERT
  5
3BB7
330
3BB0
100
AcDbEntity
  8
Dim
 62
     0
370
    -2
100
AcDbBlockReference
  2
_DOT
 10
3340.369524906182
 20
985.0097327842868
 30
0.0
 41
9.0
 42
9.0
 43
9.0
 50
90.0
  0
MTEXT
  5
3BB8
330
3BB0
100
AcDbEntity
  8
Dim
  6
Continuous
 62
     0
370
     0
100
AcDbMText
 10
3318.153216312432
 20
907.5901088348662
 30
0.0
 40
24.4326171875
 41
0.0
 46
0.0
 71
     5
 72
     1
  1
\A1;155
  7
ＭＳ ゴシック
 11
0.0
 21
1.0
 31
0.0
 73
     1
 44
1.0
  0
POINT
  5
3BB9
330
3BB0
100
AcDbEntity
  8
Defpoints
 62
     0
100
AcDbPoint
 10
3466.80782158181
 20
830.1704848854456
 30
0.0
  0
POINT
  5
3BBA
330
3BB0
100
AcDbEntity
  8
Defpoints
 62
     0
100
AcDbPoint
 10
3409.242418217296
 20
985.0097327842868
 30
0.0
  0
POINT
  5
3BBB
330
3BB0
100
AcDbEntity
  8
Defpoints
 62
     0
100
AcDbPoint
 10
3340.369524906182
 20
985.0097327842868
 30
0.0
  0
ENDBLK
  5
3BB2
330
3BB0
100
AcDbEntity
  8
0
100
AcDbBlockEnd
  0
BLOCK
  5
3BC4
330
3BC3
100
AcDbEntity
  8
0
100
AcDbBlockBegin
  2
*D11
 70
     1
 10
0.0
 20
0.0
 30
0.0
  3
*D11
  1
*D87
  0
LINE
  5
3BC6
330
3BC3
100
AcDbEntity
  8
Dim
  6
Continuous
 62
     0
370
    -2
100
AcDbLine
 10
2659.787809403699
 20
2257.429001461474
 30
0.0
 11
2659.787809403699
 21
2380.877729177601
 31
0.0
  0
LINE
  5
3BC7
330
3BC3
100
AcDbEntity
  8
Dim
  6
Continuous
 62
     0
370
    -2
100
AcDbLine
 10
2559.787809403699
 20
2247.429011518177
 30
0.0
 11
2559.787809403699
 21
2380.877729177601
 31
0.0
  0
LINE
  5
3BC8
330
3BC3
100
AcDbEntity
  8
Dim
  6
Continuous
 62
     0
370
    -2
100
AcDbLine
 10
2650.787809403699
 20
2380.877729177601
 30
0.0
 11
2568.787809403699
 21
2380.877729177601
 31
0.0
  0
INSERT
  5
3BC9
330
3BC3
100
AcDbEntity
  8
Dim
 62
     0
370
    -2
100
AcDbBlockReference
  2
_DOT
 10
2659.787809403699
 20
2380.877729177601
 30
0.0
 41
9.0
 42
9.0
 43
9.0
  0
INSERT
  5
3BCA
330
3BC3
100
AcDbEntity
  8
Dim
 62
     0
370
    -2
100
AcDbBlockReference
  2
_DOT
 10
2559.787809403699
 20
2380.877729177601
 30
0.0
 41
9.0
 42
9.0
 43
9.0
 50
180.0
  0
MTEXT
  5
3BCB
330
3BC3
100
AcDbEntity
  8
Dim
  6
Continuous
 62
     0
370
     0
100
AcDbMText
 10
2609.787809403699
 20
2403.094037771351
 30
0.0
 40
24.4326171875
 41
0.0
 46
0.0
 71
     5
 72
     1
  1
\A1;100
  7
ＭＳ ゴシック
 73
     1
 44
1.0
  0
POINT
  5
3BCC
330
3BC3
100
AcDbEntity
  8
Defpoints
 62
     0
100
AcDbPoint
 10
2659.787809403699
 20
2232.429001461474
 30
0.0
  0
POINT
  5
3BCD
330
3BC3
100
AcDbEntity
  8
Defpoints
 62
     0
100
AcDbPoint
 10
2559.787809403699
 20
2222.429011518177
 30
0.0
  0
POINT
  5
3BCE
330
3BC3
100
AcDbEntity
  8
Defpoints
 62
     0
100
AcDbPoint
 10
2559.787809403699
 20
2380.877729177601
 30
0.0
  0
ENDBLK
  5
3BC5
330
3BC3
100
AcDbEntity
  8
0
100
AcDbBlockEnd
  0
BLOCK
  5
3BD1
330
3BD0
100
AcDbEntity
  8
0
100
AcDbBlockBegin
  2
*D12
 70
     1
 10
0.0
 20
0.0
 30
0.0
  3
*D12
  1
*D88
  0
LINE
  5
3BD3
330
3BD0
100
AcDbEntity
  8
Dim
  6
Continuous
 62
     0
370
    -2
100
AcDbLine
 10
2659.787809403699
 20
2257.429001461474
 30
0.0
 11
2659.787809403699
 21
2380.877729177601
 31
0.0
  0
LINE
  5
3BD4
330
3BD0
100
AcDbEntity
  8
Dim
  6
Continuous
 62
     0
370
    -2
100
AcDbLine
 10
2759.787809403699
 20
2247.429011518177
 30
0.0
 11
2759.787809403699
 21
2380.877729177601
 31
0.0
  0
LINE
  5
3BD5
330
3BD0
100
AcDbEntity
  8
Dim
  6
Continuous
 62
     0
370
    -2
100
AcDbLine
 10
2668.787809403699
 20
2380.877729177601
 30
0.0
 11
2750.787809403699
 21
2380.877729177601
 31
0.0
  0
INSERT
  5
3BD6
330
3BD0
100
AcDbEntity
  8
Dim
 62
     0
370
    -2
100
AcDbBlockReference
  2
_DOT
 10
2659.787809403699
 20
2380.877729177601
 30
0.0
 41
9.0
 42
9.0
 43
9.0
 50
180.0
  0
INSERT
  5
3BD7
330
3BD0
100
AcDbEntity
  8
Dim
 62
     0
370
    -2
100
AcDbBlockReference
  2
_DOT
 10
2759.787809403699
 20
2380.877729177601
 30
0.0
 41
9.0
 42
9.0
 43
9.0
  0
MTEXT
  5
3BD8
330
3BD0
100
AcDbEntity
  8
Dim
  6
Continuous
 62
     0
370
     0
100
AcDbMText
 10
2709.787809403699
 20
2403.094037771351
 30
0.0
 40
24.4326171875
 41
0.0
 46
0.0
 71
     5
 72
     1
  1
\A1;100
  7
ＭＳ ゴシック
 73
     1
 44
1.0
  0
POINT
  5
3BD9
330
3BD0
100
AcDbEntity
  8
Defpoints
 62
     0
100
AcDbPoint
 10
2659.787809403699
 20
2232.429001461474
 30
0.0
  0
POINT
  5
3BDA
330
3BD0
100
AcDbEntity
  8
Defpoints
 62
     0
100
AcDbPoint
 10
2759.787809403699
 20
2222.429011518177
 30
0.0
  0
POINT
  5
3BDB
330
3BD0
100
AcDbEntity
  8
Defpoints
 62
     0
100
AcDbPoint
 10
2759.787809403699
 20
2380.877729177601
 30
0.0
  0
ENDBLK
  5
3BD2
330
3BD0
100
AcDbEntity
  8
0
100
AcDbBlockEnd
  0
BLOCK
  5
3C39
330
3C38
100
AcDbEntity
  8
0
100
AcDbBlockBegin
  2
*D13
 70
     1
 10
0.0
 20
0.0
 30
0.0
  3
*D13
  1
*D91
  0
LINE
  5
3C3B
330
3C38
100
AcDbEntity
  8
Dim
  6
Continuous
 62
     0
370
    -2
100
AcDbLine
 10
3855.881165710382
 20
1010.864816939938
 30
0.0
 11
3855.881165710382
 21
1083.512322402838
 31
0.0
  0
LINE
  5
3C3C
330
3C38
100
AcDbEntity
  8
Dim
  6
Continuous
 62
     0
370
    -2
100
AcDbLine
 10
3795.881165710382
 20
1010.864816939938
 30
0.0
 11
3795.881165710382
 21
1083.512322402838
 31
0.0
  0
LINE
  5
3C3D
330
3C38
100
AcDbEntity
  8
Dim
  6
Continuous
 62
     0
370
    -2
100
AcDbLine
 10
3846.881165710382
 20
1083.512322402838
 30
0.0
 11
3804.881165710382
 21
1083.512322402838
 31
0.0
  0
INSERT
  5
3C3E
330
3C38
100
AcDbEntity
  8
Dim
 62
     0
370
    -2
100
AcDbBlockReference
  2
_DOT
 10
3855.881165710382
 20
1083.512322402838
 30
0.0
 41
9.0
 42
9.0
 43
9.0
  0
INSERT
  5
3C3F
330
3C38
100
AcDbEntity
  8
Dim
 62
     0
370
    -2
100
AcDbBlockReference
  2
_DOT
 10
3795.881165710382
 20
1083.512322402838
 30
0.0
 41
9.0
 42
9.0
 43
9.0
 50
180.0
  0
MTEXT
  5
3C40
330
3C38
100
AcDbEntity
  8
Dim
  6
Continuous
 62
     0
370
     0
100
AcDbMText
 10
3825.881165710382
 20
1105.728630996588
 30
0.0
 40
24.4326171875
 41
0.0
 46
0.0
 71
     5
 72
     1
  1
\A1;60
  7
ＭＳ ゴシック
 73
     1
 44
1.0
  0
POINT
  5
3C41
330
3C38
100
AcDbEntity
  8
Defpoints
 62
     0
100
AcDbPoint
 10
3855.881165710382
 20
985.8648169399376
 30
0.0
  0
POINT
  5
3C42
330
3C38
100
AcDbEntity
  8
Defpoints
 62
     0
100
AcDbPoint
 10
3795.881165710382
 20
985.8648169399376
 30
0.0
  0
POINT
  5
3C43
330
3C38
100
AcDbEntity
  8
Defpoints
 62
     0
100
AcDbPoint
 10
3795.881165710382
 20
1083.512322402838
 30
0.0
  0
ENDBLK
  5
3C3A
330
3C38
100
AcDbEntity
  8
0
100
AcDbBlockEnd
  0
BLOCK
  5
3C7A
330
3C79
100
AcDbEntity
  8
0
100
AcDbBlockBegin
  2
*D14
 70
     1
 10
0.0
 20
0.0
 30
0.0
  3
*D14
  1
*D93
  0
LINE
  5
3C7C
330
3C79
100
AcDbEntity
  8
Dim
  6
Continuous
 62
     0
370
    -2
100
AcDbLine
 10
2900.336995297071
 20
2292.429031925185
 30
0.0
 11
3080.248481350522
 21
2292.429031925185
 31
0.0
  0
LINE
  5
3C7D
330
3C79
100
AcDbEntity
  8
Dim
  6
Continuous
 62
     0
370
    -2
100
AcDbLine
 10
2907.516895861553
 20
1852.577667020429
 30
0.0
 11
3080.248481350522
 21
1852.577667020429
 31
0.0
  0
LINE
  5
3C7E
330
3C79
100
AcDbEntity
  8
Dim
  6
Continuous
 62
     0
370
    -2
100
AcDbLine
 10
3080.248481350522
 20
2283.429031925185
 30
0.0
 11
3080.248481350522
 21
1861.577667020429
 31
0.0
  0
INSERT
  5
3C7F
330
3C79
100
AcDbEntity
  8
Dim
 62
     0
370
    -2
100
AcDbBlockReference
  2
_DOT
 10
3080.248481350522
 20
2292.429031925185
 30
0.0
 41
9.0
 42
9.0
 43
9.0
 50
90.0
  0
INSERT
  5
3C80
330
3C79
100
AcDbEntity
  8
Dim
 62
     0
370
    -2
100
AcDbBlockReference
  2
_DOT
 10
3080.248481350522
 20
1852.577667020429
 30
0.0
 41
9.0
 42
9.0
 43
9.0
 50
270.0
  0
MTEXT
  5
3C81
330
3C79
100
AcDbEntity
  8
Dim
  6
Continuous
 62
     0
370
     0
100
AcDbMText
 10
3058.032172756772
 20
2072.503356283038
 30
0.0
 40
24.4326171875
 41
0.0
 46
0.0
 71
     5
 72
     1
  1
\A1;440
  7
ＭＳ ゴシック
 11
0.0
 21
1.0
 31
0.0
 73
     1
 44
1.0
  0
POINT
  5
3C82
330
3C79
100
AcDbEntity
  8
Defpoints
 62
     0
100
AcDbPoint
 10
2875.336995297071
 20
2292.429031925185
 30
0.0
  0
POINT
  5
3C83
330
3C79
100
AcDbEntity
  8
Defpoints
 62
     0
100
AcDbPoint
 10
2882.516895861553
 20
1852.577667020429
 30
0.0
  0
POINT
  5
3C84
330
3C79
100
AcDbEntity
  8
Defpoints
 62
     0
100
AcDbPoint
 10
3080.248481350522
 20
1852.577667020429
 30
0.0
  0
ENDBLK
  5
3C7B
330
3C79
100
AcDbEntity
  8
0
100
AcDbBlockEnd
  0
BLOCK
  5
3C89
330
3C88
100
AcDbEntity
  8
0
100
AcDbBlockBegin
  2
*D15
 70
     1
 10
0.0
 20
0.0
 30
0.0
  3
*D15
  1
*D94
  0
LINE
  5
3C8B
330
3C88
100
AcDbEntity
  8
Dim
  6
Continuous
 62
     0
370
    -2
100
AcDbLine
 10
2410.037435797313
 20
2114.121369809323
 30
0.0
 11
2410.037435797313
 21
2470.294690721189
 31
0.0
  0
LINE
  5
3C8C
330
3C88
100
AcDbEntity
  8
Dim
  6
Continuous
 62
     0
370
    -2
100
AcDbLine
 10
2909.534530216444
 20
2114.121369809323
 30
0.0
 11
2909.534530216444
 21
2470.294690721189
 31
0.0
  0
LINE
  5
3C8D
330
3C88
100
AcDbEntity
  8
Dim
  6
Continuous
 62
     0
370
    -2
100
AcDbLine
 10
2419.037435797313
 20
2470.294690721189
 30
0.0
 11
2900.534530216444
 21
2470.294690721189
 31
0.0
  0
INSERT
  5
3C8E
330
3C88
100
AcDbEntity
  8
Dim
 62
     0
370
    -2
100
AcDbBlockReference
  2
_DOT
 10
2410.037435797313
 20
2470.294690721189
 30
0.0
 41
9.0
 42
9.0
 43
9.0
 50
180.0
  0
INSERT
  5
3C8F
330
3C88
100
AcDbEntity
  8
Dim
 62
     0
370
    -2
100
AcDbBlockReference
  2
_DOT
 10
2909.534530216444
 20
2470.294690721189
 30
0.0
 41
9.0
 42
9.0
 43
9.0
  0
MTEXT
  5
3C90
330
3C88
100
AcDbEntity
  8
Dim
  6
Continuous
 62
     0
370
     0
100
AcDbMText
 10
2659.785983006879
 20
2492.510999314939
 30
0.0
 40
24.4326171875
 41
0.0
 46
0.0
 71
     5
 72
     1
  1
\A1;500
  7
ＭＳ ゴシック
 73
     1
 44
1.0
  0
POINT
  5
3C91
330
3C88
100
AcDbEntity
  8
Defpoints
 62
     0
100
AcDbPoint
 10
2410.037435797313
 20
2089.121369809323
 30
0.0
  0
POINT
  5
3C92
330
3C88
100
AcDbEntity
  8
Defpoints
 62
     0
100
AcDbPoint
 10
2909.534530216444
 20
2089.121369809323
 30
0.0
  0
POINT
  5
3C93
330
3C88
100
AcDbEntity
  8
Defpoints
 62
     0
100
AcDbPoint
 10
2909.534530216444
 20
2470.294690721189
 30
0.0
  0
ENDBLK
  5
3C8A
330
3C88
100
AcDbEntity
  8
0
100
AcDbBlockEnd
  0
BLOCK
  5
3CA2
330
3CA1
100
AcDbEntity
  8
0
100
AcDbBlockBegin
  2
*D16
 70
     1
 10
0.0
 20
0.0
 30
0.0
  3
*D16
  1
*D95
  0
LINE
  5
3CA4
330
3CA1
100
AcDbEntity
  8
Dim
  6
Continuous
 62
     0
370
    -2
100
AcDbLine
 10
3613.851683573612
 20
985.8648287897449
 30
0.0
 11
3638.851683573612
 21
985.8648287897449
 31
0.0
  0
LINE
  5
3CA5
330
3CA1
100
AcDbEntity
  8
Dim
  6
Continuous
 62
     0
370
    -2
100
AcDbLine
 10
3613.851683573612
 20
850.8648287897449
 30
0.0
 11
3638.851683573612
 21
850.8648287897449
 31
0.0
  0
LINE
  5
3CA6
330
3CA1
100
AcDbEntity
  8
Dim
  6
Continuous
 62
     0
370
    -2
100
AcDbLine
 10
3638.851683573612
 20
985.8648287897449
 30
0.0
 11
3638.851683573612
 21
1156.24074871162
 31
0.0
  0
INSERT
  5
3CA7
330
3CA1
100
AcDbEntity
  8
Dim
 62
     0
370
    -2
100
AcDbBlockReference
  2
_DOT
 10
3638.851683573612
 20
985.8648287897449
 30
0.0
 41
9.0
 42
9.0
 43
9.0
 50
90.0
  0
INSERT
  5
3CA8
330
3CA1
100
AcDbEntity
  8
Dim
 62
     0
370
    -2
100
AcDbBlockReference
  2
_DOT
 10
3638.851683573612
 20
850.8648287897449
 30
0.0
 41
9.0
 42
9.0
 43
9.0
 50
270.0
  0
MTEXT
  5
3CA9
330
3CA1
100
AcDbEntity
  8
Dim
  6
Continuous
 62
     0
370
     0
100
AcDbMText
 10
3614.473088358768
 20
1080.052788750682
 30
0.0
 40
24.4326171875
 41
0.0
 46
0.0
 71
     5
 72
     1
  1
\A1;135(深さ)
  7
ＭＳ ゴシック
 11
0.0
 21
1.0
 31
0.0
 73
     1
 44
1.0
  0
POINT
  5
3CAA
330
3CA1
100
AcDbEntity
  8
Defpoints
 62
     0
100
AcDbPoint
 10
3638.851683573612
 20
985.8648287897449
 30
0.0
  0
POINT
  5
3CAB
330
3CA1
100
AcDbEntity
  8
Defpoints
 62
     0
100
AcDbPoint
 10
3638.851683573612
 20
850.8648287897449
 30
0.0
  0
POINT
  5
3CAC
330
3CA1
100
AcDbEntity
  8
Defpoints
 62
     0
100
AcDbPoint
 10
3638.851683573612
 20
850.8648287897449
 30
0.0
  0
ENDBLK
  5
3CA3
330
3CA1
100
AcDbEntity
  8
0
100
AcDbBlockEnd
  0
BLOCK
  5
3F36
330
3F35
100
AcDbEntity
  8
0
100
AcDbBlockBegin
  2
*D17
 70
     1
 10
0.0
 20
0.0
 30
0.0
  3
*D17
  1
*D105
  0
LINE
  5
3F38
330
3F35
100
AcDbEntity
  8
Dim
  6
Continuous
 62
     0
370
    -2
100
AcDbLine
 10
2434.936978971625
 20
2010.109506413246
 30
0.0
 11
2434.936978971625
 21
1789.126745703904
 31
0.0
  0
LINE
  5
3F39
330
3F35
100
AcDbEntity
  8
Dim
  6
Continuous
 62
     0
370
    -2
100
AcDbLine
 10
2884.450008358116
 20
2010.109506413246
 30
0.0
 11
2884.450008358116
 21
1789.126745703904
 31
0.0
  0
LINE
  5
3F3A
330
3F35
100
AcDbEntity
  8
Dim
  6
Continuous
 62
     0
370
    -2
100
AcDbLine
 10
2443.936978971625
 20
1789.126745703904
 30
0.0
 11
2875.450008358116
 21
1789.126745703904
 31
0.0
  0
INSERT
  5
3F3B
330
3F35
100
AcDbEntity
  8
Dim
 62
     0
370
    -2
100
AcDbBlockReference
  2
_DOT
 10
2434.936978971625
 20
1789.126745703904
 30
0.0
 41
9.0
 42
9.0
 43
9.0
 50
180.0
  0
INSERT
  5
3F3C
330
3F35
100
AcDbEntity
  8
Dim
 62
     0
370
    -2
100
AcDbBlockReference
  2
_DOT
 10
2884.450008358116
 20
1789.126745703904
 30
0.0
 41
9.0
 42
9.0
 43
9.0
  0
MTEXT
  5
3F3D
330
3F35
100
AcDbEntity
  8
Dim
  6
Continuous
 62
     0
370
     0
100
AcDbMText
 10
2659.69349366487
 20
1811.343054297654
 30
0.0
 40
24.4326171875
 41
0.0
 46
0.0
 71
     5
 72
     1
  1
\A1;450
  7
ＭＳ ゴシック
 73
     1
 44
1.0
  0
POINT
  5
3F3E
330
3F35
100
AcDbEntity
  8
Defpoints
 62
     0
100
AcDbPoint
 10
2434.936978971625
 20
2035.109506413246
 30
0.0
  0
POINT
  5
3F3F
330
3F35
100
AcDbEntity
  8
Defpoints
 62
     0
100
AcDbPoint
 10
2884.450008358116
 20
2035.109506413246
 30
0.0
  0
POINT
  5
3F40
330
3F35
100
AcDbEntity
  8
Defpoints
 62
     0
100
AcDbPoint
 10
2884.450008358116
 20
1789.126745703904
 30
0.0
  0
ENDBLK
  5
3F37
330
3F35
100
AcDbEntity
  8
0
100
AcDbBlockEnd
  0
BLOCK
  5
3F45
330
3F44
100
AcDbEntity
  8
0
100
AcDbBlockBegin
  2
*D18
 70
     1
 10
0.0
 20
0.0
 30
0.0
  3
*D18
  1
*D106
  0
LINE
  5
3F47
330
3F44
100
AcDbEntity
  8
Dim
  6
Continuous
 62
     0
370
    -2
100
AcDbLine
 10
2449.137190266998
 20
2177.429001461474
 30
0.0
 11
2311.657927545507
 21
2177.429001461474
 31
0.0
  0
LINE
  5
3F48
330
3F44
100
AcDbEntity
  8
Dim
  6
Continuous
 62
     0
370
    -2
100
AcDbLine
 10
2448.221955276192
 20
1880.491943945472
 30
0.0
 11
2311.657927545507
 21
1880.491943945472
 31
0.0
  0
LINE
  5
3F49
330
3F44
100
AcDbEntity
  8
Dim
  6
Continuous
 62
     0
370
    -2
100
AcDbLine
 10
2311.657927545507
 20
2168.429001461474
 30
0.0
 11
2311.657927545507
 21
1889.491943945472
 31
0.0
  0
INSERT
  5
3F4A
330
3F44
100
AcDbEntity
  8
Dim
 62
     0
370
    -2
100
AcDbBlockReference
  2
_DOT
 10
2311.657927545507
 20
2177.429001461474
 30
0.0
 41
9.0
 42
9.0
 43
9.0
 50
90.0
  0
INSERT
  5
3F4B
330
3F44
100
AcDbEntity
  8
Dim
 62
     0
370
    -2
100
AcDbBlockReference
  2
_DOT
 10
2311.657927545507
 20
1880.491943945472
 30
0.0
 41
9.0
 42
9.0
 43
9.0
 50
270.0
  0
MTEXT
  5
3F4C
330
3F44
100
AcDbEntity
  8
Dim
  6
Continuous
 62
     0
370
     0
100
AcDbMText
 10
2289.441618951757
 20
2030.86234033531
 30
0.0
 40
24.4326171875
 41
0.0
 46
0.0
 71
     5
 72
     1
  1
\A1;300
  7
ＭＳ ゴシック
 11
0.0
 21
1.0
 31
0.0
 73
     1
 44
1.0
  0
POINT
  5
3F4D
330
3F44
100
AcDbEntity
  8
Defpoints
 62
     0
100
AcDbPoint
 10
2474.137190266998
 20
2177.429001461474
 30
0.0
  0
POINT
  5
3F4E
330
3F44
100
AcDbEntity
  8
Defpoints
 62
     0
100
AcDbPoint
 10
2473.221955276192
 20
1880.491943945472
 30
0.0
  0
POINT
  5
3F4F
330
3F44
100
AcDbEntity
  8
Defpoints
 62
     0
100
AcDbPoint
 10
2311.657927545507
 20
1880.491943945472
 30
0.0
  0
ENDBLK
  5
3F46
330
3F44
100
AcDbEntity
  8
0
100
AcDbBlockEnd
  0
BLOCK
  5
3F66
330
3F65
100
AcDbEntity
  8
0
100
AcDbBlockBegin
  2
*D19
 70
     1
 10
0.0
 20
0.0
 30
0.0
  3
*D19
  1
*D107
  0
LINE
  5
3F68
330
3F65
100
AcDbEntity
  8
Dim
  6
Continuous
 62
     0
370
    -2
100
AcDbLine
 10
3728.984810261801
 20
2272.429019370682
 30
0.0
 11
3883.55703976991
 21
2272.429019370682
 31
0.0
  0
LINE
  5
3F69
330
3F65
100
AcDbEntity
  8
Dim
  6
Continuous
 62
     0
370
    -2
100
AcDbLine
 10
3728.984814352211
 20
2292.429019980596
 30
0.0
 11
3883.55703976991
 21
2292.429019980596
 31
0.0
  0
LINE
  5
3F6A
330
3F65
100
AcDbEntity
  8
Dim
  6
Continuous
 62
     0
370
    -2
100
AcDbLine
 10
3883.55703976991
 20
2292.429019980596
 30
0.0
 11
3883.55703976991
 21
2359.454969199346
 31
0.0
  0
INSERT
  5
3F6B
330
3F65
100
AcDbEntity
  8
Dim
 62
     0
370
    -2
100
AcDbBlockReference
  2
_DOT
 10
3883.55703976991
 20
2272.429019370682
 30
0.0
 41
9.0
 42
9.0
 43
9.0
 50
270.0
  0
INSERT
  5
3F6C
330
3F65
100
AcDbEntity
  8
Dim
 62
     0
370
    -2
100
AcDbBlockReference
  2
_DOT
 10
3883.55703976991
 20
2292.429019980596
 30
0.0
 41
9.0
 42
9.0
 43
9.0
 50
90.0
  0
MTEXT
  5
3F6D
330
3F65
100
AcDbEntity
  8
Dim
  6
Continuous
 62
     0
370
     0
100
AcDbMText
 10
3861.34073117616
 20
2334.941994589971
 30
0.0
 40
24.4326171875
 41
0.0
 46
0.0
 71
     5
 72
     1
  1
\A1;20
  7
ＭＳ ゴシック
 11
0.0
 21
1.0
 31
0.0
 73
     1
 44
1.0
  0
POINT
  5
3F6E
330
3F65
100
AcDbEntity
  8
Defpoints
 62
     0
100
AcDbPoint
 10
3703.984810261801
 20
2272.429019370682
 30
0.0
  0
POINT
  5
3F6F
330
3F65
100
AcDbEntity
  8
Defpoints
 62
     0
100
AcDbPoint
 10
3703.984814352211
 20
2292.429019980596
 30
0.0
  0
POINT
  5
3F70
330
3F65
100
AcDbEntity
  8
Defpoints
 62
     0
100
AcDbPoint
 10
3883.55703976991
 20
2292.429019980596
 30
0.0
  0
ENDBLK
  5
3F67
330
3F65
100
AcDbEntity
  8
0
100
AcDbBlockEnd
  0
BLOCK
  5
3F7B
330
3F7A
100
AcDbEntity
  8
0
100
AcDbBlockBegin
  2
*D20
 70
     1
 10
0.0
 20
0.0
 30
0.0
  3
*D20
  1
*D108
  0
LINE
  5
3F7D
330
3F7A
100
AcDbEntity
  8
Dim
  6
Continuous
 62
     0
370
    -2
100
AcDbLine
 10
3728.984810261801
 20
2272.429019370682
 30
0.0
 11
3883.55703976991
 21
2272.429019370682
 31
0.0
  0
LINE
  5
3F7E
330
3F7A
100
AcDbEntity
  8
Dim
  6
Continuous
 62
     0
370
    -2
100
AcDbLine
 10
3728.984810261801
 20
2022.429019370682
 30
0.0
 11
3883.55703976991
 21
2022.429019370682
 31
0.0
  0
LINE
  5
3F7F
330
3F7A
100
AcDbEntity
  8
Dim
  6
Continuous
 62
     0
370
    -2
100
AcDbLine
 10
3883.55703976991
 20
2263.429019370682
 30
0.0
 11
3883.55703976991
 21
2031.429019370682
 31
0.0
  0
INSERT
  5
3F80
330
3F7A
100
AcDbEntity
  8
Dim
 62
     0
370
    -2
100
AcDbBlockReference
  2
_DOT
 10
3883.55703976991
 20
2272.429019370682
 30
0.0
 41
9.0
 42
9.0
 43
9.0
 50
90.0
  0
INSERT
  5
3F81
330
3F7A
100
AcDbEntity
  8
Dim
 62
     0
370
    -2
100
AcDbBlockReference
  2
_DOT
 10
3883.55703976991
 20
2022.429019370682
 30
0.0
 41
9.0
 42
9.0
 43
9.0
 50
270.0
  0
MTEXT
  5
3F82
330
3F7A
100
AcDbEntity
  8
Dim
  6
Continuous
 62
     0
370
     0
100
AcDbMText
 10
3861.34073117616
 20
2147.429019370682
 30
0.0
 40
24.4326171875
 41
0.0
 46
0.0
 71
     5
 72
     1
  1
\A1;250
  7
ＭＳ ゴシック
 11
0.0
 21
1.0
 31
0.0
 73
     1
 44
1.0
  0
POINT
  5
3F83
330
3F7A
100
AcDbEntity
  8
Defpoints
 62
     0
100
AcDbPoint
 10
3703.984810261801
 20
2272.429019370682
 30
0.0
  0
POINT
  5
3F84
330
3F7A
100
AcDbEntity
  8
Defpoints
 62
     0
100
AcDbPoint
 10
3703.984810261801
 20
2022.429019370682
 30
0.0
  0
POINT
  5
3F85
330
3F7A
100
AcDbEntity
  8
Defpoints
 62
     0
100
AcDbPoint
 10
3883.55703976991
 20
2022.429019370682
 30
0.0
  0
ENDBLK
  5
3F7C
330
3F7A
100
AcDbEntity
  8
0
100
AcDbBlockEnd
  0
BLOCK
  5
4021
330
4020
100
AcDbEntity
  8
0
100
AcDbBlockBegin
  2
*D21
 70
     1
 10
0.0
 20
0.0
 30
0.0
  3
*D21
  1
*D111
  0
LINE
  5
4023
330
4020
100
AcDbEntity
  8
MODEL
  6
Continuous
 62
     0
370
    -2
100
AcDbLine
 10
2534.787809403699
 20
2222.429011518177
 30
0.0
 11
2517.924460635551
 21
2222.429011518177
 31
0.0
  0
LINE
  5
4024
330
4020
100
AcDbEntity
  8
MODEL
  6
Continuous
 62
     0
370
    -2
100
AcDbLine
 10
2532.402462283093
 20
2292.429024605665
 30
0.0
 11
2517.924460635551
 21
2292.429024605665
 31
0.0
  0
LINE
  5
4025
330
4020
100
AcDbEntity
  8
MODEL
  6
Continuous
 62
     0
370
    -2
100
AcDbLine
 10
2517.924460635551
 20
2231.429011518177
 30
0.0
 11
2517.924460635551
 21
2283.429024605665
 31
0.0
  0
INSERT
  5
4026
330
4020
100
AcDbEntity
  8
MODEL
 62
     0
370
    -2
100
AcDbBlockReference
  2
_DOT
 10
2517.924460635551
 20
2222.429011518177
 30
0.0
 41
9.0
 42
9.0
 43
9.0
 50
270.0
  0
INSERT
  5
4027
330
4020
100
AcDbEntity
  8
MODEL
 62
     0
370
    -2
100
AcDbBlockReference
  2
_DOT
 10
2517.924460635551
 20
2292.429024605665
 30
0.0
 41
9.0
 42
9.0
 43
9.0
 50
90.0
  0
MTEXT
  5
4028
330
4020
100
AcDbEntity
  8
MODEL
  6
Continuous
 62
     0
370
     0
100
AcDbMText
 10
2495.708152041801
 20
2257.429018061921
 30
0.0
 40
24.4326171875
 41
0.0
 46
0.0
 71
     5
 72
     1
  1
\A1;70
  7
ＭＳ ゴシック
 11
0.0
 21
1.0
 31
0.0
 73
     1
 44
1.0
  0
POINT
  5
4029
330
4020
100
AcDbEntity
  8
Defpoints
 62
     0
100
AcDbPoint
 10
2559.787809403699
 20
2222.429011518177
 30
0.0
  0
POINT
  5
402A
330
4020
100
AcDbEntity
  8
Defpoints
 62
     0
100
AcDbPoint
 10
2557.402462283093
 20
2292.429024605665
 30
0.0
  0
POINT
  5
402B
330
4020
100
AcDbEntity
  8
Defpoints
 62
     0
100
AcDbPoint
 10
2517.924460635551
 20
2292.429024605665
 30
0.0
  0
ENDBLK
  5
4022
330
4020
100
AcDbEntity
  8
0
100
AcDbBlockEnd
  0
BLOCK
  5
4083
330
4082
100
AcDbEntity
  8
0
100
AcDbBlockBegin
  2
*D22
 70
     1
 10
0.0
 20
0.0
 30
0.0
  3
*D22
  1
*D113
  0
LINE
  5
4085
330
4082
100
AcDbEntity
  8
MODEL
  6
Continuous
 62
     0
370
    -2
100
AcDbLine
 10
3453.984810261801
 20
1997.429019370682
 30
0.0
 11
3453.984810261801
 21
1789.126745703904
 31
0.0
  0
LINE
  5
4086
330
4082
100
AcDbEntity
  8
MODEL
  6
Continuous
 62
     0
370
    -2
100
AcDbLine
 10
3703.984810261801
 20
1997.429019370682
 30
0.0
 11
3703.984810261801
 21
1789.126745703904
 31
0.0
  0
LINE
  5
4087
330
4082
100
AcDbEntity
  8
MODEL
  6
Continuous
 62
     0
370
    -2
100
AcDbLine
 10
3462.984810261801
 20
1789.126745703904
 30
0.0
 11
3694.984810261801
 21
1789.126745703904
 31
0.0
  0
INSERT
  5
4088
330
4082
100
AcDbEntity
  8
MODEL
 62
     0
370
    -2
100
AcDbBlockReference
  2
_DOT
 10
3453.984810261801
 20
1789.126745703904
 30
0.0
 41
9.0
 42
9.0
 43
9.0
 50
180.0
  0
INSERT
  5
4089
330
4082
100
AcDbEntity
  8
MODEL
 62
     0
370
    -2
100
AcDbBlockReference
  2
_DOT
 10
3703.984810261801
 20
1789.126745703904
 30
0.0
 41
9.0
 42
9.0
 43
9.0
  0
MTEXT
  5
408A
330
4082
100
AcDbEntity
  8
MODEL
  6
Continuous
 62
     0
370
     0
100
AcDbMText
 10
3578.984810261801
 20
1811.343054297654
 30
0.0
 40
24.4326171875
 41
0.0
 46
0.0
 71
     5
 72
     1
  1
\A1;250
  7
ＭＳ ゴシック
 73
     1
 44
1.0
  0
POINT
  5
408B
330
4082
100
AcDbEntity
  8
Defpoints
 62
     0
100
AcDbPoint
 10
3453.984810261801
 20
2022.429019370682
 30
0.0
  0
POINT
  5
408C
330
4082
100
AcDbEntity
  8
Defpoints
 62
     0
100
AcDbPoint
 10
3703.984810261801
 20
2022.429019370682
 30
0.0
  0
POINT
  5
408D
330
4082
100
AcDbEntity
  8
Defpoints
 62
     0
100
AcDbPoint
 10
3703.984810261801
 20
1789.126745703904
 30
0.0
  0
ENDBLK
  5
4084
330
4082
100
AcDbEntity
  8
0
100
AcDbBlockEnd
  0
BLOCK
  5
40D8
330
40D7
100
AcDbEntity
  8
0
100
AcDbBlockBegin
  2
*D23
 70
     1
 10
0.0
 20
0.0
 30
0.0
  3
*D23
  1
*D115
  0
LINE
  5
40DA
330
40D7
100
AcDbEntity
  8
MODEL
  6
Continuous
 62
     0
370
    -2
100
AcDbLine
 10
3635.893319800128
 20
780.8660207883322
 30
0.0
 11
3635.893319800128
 21
690.0666351105383
 31
0.0
  0
LINE
  5
40DB
330
40D7
100
AcDbEntity
  8
MODEL
  6
Continuous
 62
     0
370
    -2
100
AcDbLine
 10
3855.881149949254
 20
805.8645733472372
 30
0.0
 11
3855.881149949254
 21
690.0666351105383
 31
0.0
  0
LINE
  5
40DC
330
40D7
100
AcDbEntity
  8
MODEL
  6
Continuous
 62
     0
370
    -2
100
AcDbLine
 10
3644.893319800128
 20
690.0666351105383
 30
0.0
 11
3846.881149949254
 21
690.0666351105383
 31
0.0
  0
INSERT
  5
40DD
330
40D7
100
AcDbEntity
  8
MODEL
 62
     0
370
    -2
100
AcDbBlockReference
  2
_DOT
 10
3635.893319800128
 20
690.0666351105383
 30
0.0
 41
9.0
 42
9.0
 43
9.0
 50
180.0
  0
INSERT
  5
40DE
330
40D7
100
AcDbEntity
  8
MODEL
 62
     0
370
    -2
100
AcDbBlockReference
  2
_DOT
 10
3855.881149949254
 20
690.0666351105383
 30
0.0
 41
9.0
 42
9.0
 43
9.0
  0
MTEXT
  5
40DF
330
40D7
100
AcDbEntity
  8
MODEL
  6
Continuous
 62
     0
370
     0
100
AcDbMText
 10
3745.887234874691
 20
712.2829437042883
 30
0.0
 40
24.4326171875
 41
0.0
 46
0.0
 71
     5
 72
     1
  1
\A1;220
  7
ＭＳ ゴシック
 73
     1
 44
1.0
  0
POINT
  5
40E0
330
40D7
100
AcDbEntity
  8
Defpoints
 62
     0
100
AcDbPoint
 10
3635.893319800128
 20
805.8660207883322
 30
0.0
  0
POINT
  5
40E1
330
40D7
100
AcDbEntity
  8
Defpoints
 62
     0
100
AcDbPoint
 10
3855.881149949254
 20
830.8645733472372
 30
0.0
  0
POINT
  5
40E2
330
40D7
100
AcDbEntity
  8
Defpoints
 62
     0
100
AcDbPoint
 10
3855.881149949254
 20
690.0666351105383
 30
0.0
  0
ENDBLK
  5
40D9
330
40D7
100
AcDbEntity
  8
0
100
AcDbBlockEnd
  0
BLOCK
  5
40E5
330
40E4
100
AcDbEntity
  8
0
100
AcDbBlockBegin
  2
*D24
 70
     1
 10
0.0
 20
0.0
 30
0.0
  3
*D24
  1
*D116
  0
LINE
  5
40E7
330
40E4
100
AcDbEntity
  8
MODEL
  6
Continuous
 62
     0
370
    -2
100
AcDbLine
 10
3855.881149949254
 20
665.0666351105383
 30
0.0
 11
3855.881149949254
 21
609.2741697123615
 31
0.0
  0
LINE
  5
40E8
330
40E4
100
AcDbEntity
  8
MODEL
  6
Continuous
 62
     0
370
    -2
100
AcDbLine
 10
3486.225459619258
 20
801.6411328167648
 30
0.0
 11
3486.225459619258
 21
609.2741697123615
 31
0.0
  0
LINE
  5
40E9
330
40E4
100
AcDbEntity
  8
MODEL
  6
Continuous
 62
     0
370
    -2
100
AcDbLine
 10
3846.881149949254
 20
609.2741697123615
 30
0.0
 11
3495.225459619258
 21
609.2741697123615
 31
0.0
  0
INSERT
  5
40EA
330
40E4
100
AcDbEntity
  8
MODEL
 62
     0
370
    -2
100
AcDbBlockReference
  2
_DOT
 10
3855.881149949254
 20
609.2741697123615
 30
0.0
 41
9.0
 42
9.0
 43
9.0
  0
INSERT
  5
40EB
330
40E4
100
AcDbEntity
  8
MODEL
 62
     0
370
    -2
100
AcDbBlockReference
  2
_DOT
 10
3486.225459619258
 20
609.2741697123615
 30
0.0
 41
9.0
 42
9.0
 43
9.0
 50
180.0
  0
MTEXT
  5
40EC
330
40E4
100
AcDbEntity
  8
MODEL
  6
Continuous
 62
     0
370
     0
100
AcDbMText
 10
3671.053304784256
 20
631.4904783061115
 30
0.0
 40
24.4326171875
 41
0.0
 46
0.0
 71
     5
 72
     1
  1
\A1;370
  7
ＭＳ ゴシック
 73
     1
 44
1.0
  0
POINT
  5
40ED
330
40E4
100
AcDbEntity
  8
Defpoints
 62
     0
100
AcDbPoint
 10
3855.881149949254
 20
690.0666351105383
 30
0.0
  0
POINT
  5
40EE
330
40E4
100
AcDbEntity
  8
Defpoints
 62
     0
100
AcDbPoint
 10
3486.225459619258
 20
826.6411328167648
 30
0.0
  0
POINT
  5
40EF
330
40E4
100
AcDbEntity
  8
Defpoints
 62
     0
100
AcDbPoint
 10
3486.225459619258
 20
609.2741697123615
 30
0.0
  0
ENDBLK
  5
40E6
330
40E4
100
AcDbEntity
  8
0
100
AcDbBlockEnd
  0
BLOCK
  5
4139
330
4138
100
AcDbEntity
  8
0
100
AcDbBlockBegin
  2
*D25
 70
     1
 10
0.0
 20
0.0
 30
0.0
  3
*D25
  1
*D110
  0
LINE
  5
413B
330
4138
100
AcDbEntity
  8
MODEL
  6
Continuous
 62
     0
370
    -2
100
AcDbLine
 10
2419.239273912415
 20
2292.429001461474
 30
0.0
 11
2311.657927545507
 21
2292.429001461474
 31
0.0
  0
LINE
  5
413C
330
4138
100
AcDbEntity
  8
MODEL
  6
Continuous
 62
     0
370
    -2
100
AcDbLine
 10
2419.239273912415
 20
2177.429001461474
 30
0.0
 11
2311.657927545507
 21
2177.429001461474
 31
0.0
  0
LINE
  5
413D
330
4138
100
AcDbEntity
  8
MODEL
  6
Continuous
 62
     0
370
    -2
100
AcDbLine
 10
2311.657927545507
 20
2283.429001461474
 30
0.0
 11
2311.657927545507
 21
2186.429001461474
 31
0.0
  0
INSERT
  5
413E
330
4138
100
AcDbEntity
  8
MODEL
 62
     0
370
    -2
100
AcDbBlockReference
  2
_DOT
 10
2311.657927545507
 20
2292.429001461474
 30
0.0
 41
9.0
 42
9.0
 43
9.0
 50
90.0
  0
INSERT
  5
413F
330
4138
100
AcDbEntity
  8
MODEL
 62
     0
370
    -2
100
AcDbBlockReference
  2
_DOT
 10
2311.657927545507
 20
2177.429001461474
 30
0.0
 41
9.0
 42
9.0
 43
9.0
 50
270.0
  0
MTEXT
  5
4140
330
4138
100
AcDbEntity
  8
MODEL
  6
Continuous
 62
     0
370
     0
100
AcDbMText
 10
2289.441618951757
 20
2234.929001461474
 30
0.0
 40
24.4326171875
 41
0.0
 46
0.0
 71
     5
 72
     1
  1
\A1;115
  7
ＭＳ ゴシック
 11
0.0
 21
1.0
 31
0.0
 73
     1
 44
1.0
  0
POINT
  5
4141
330
4138
100
AcDbEntity
  8
Defpoints
 62
     0
100
AcDbPoint
 10
2444.239273912415
 20
2292.429001461474
 30
0.0
  0
POINT
  5
4142
330
4138
100
AcDbEntity
  8
Defpoints
 62
     0
100
AcDbPoint
 10
2444.239273912415
 20
2177.429001461474
 30
0.0
  0
POINT
  5
4143
330
4138
100
AcDbEntity
  8
Defpoints
 62
     0
100
AcDbPoint
 10
2311.657927545507
 20
2177.429001461474
 30
0.0
  0
ENDBLK
  5
413A
330
4138
100
AcDbEntity
  8
0
100
AcDbBlockEnd
  0
BLOCK
  5
424B
330
424A
100
AcDbEntity
  8
0
100
AcDbBlockBegin
  2
811431D
 70
     0
 10
0.0
 20
0.0
 30
0.0
  3
811431D
  1
811431D
  0
LWPOLYLINE
  5
424C
330
424A
100
AcDbEntity
  8
0
 62
     7
100
AcDbPolyline
 90
        3
 70
     0
 43
0.0
 10
210.002135012519
 20
-211.4683686183076
 10
210.002135012519
 20
-225.000712611581
 10
210.002135012519
 20
-238.5385687612673
  0
LWPOLYLINE
  5
424D
330
424A
100
AcDbEntity
  8
0
 62
     7
100
AcDbPolyline
 90
        3
 70
     0
 43
0.0
 10
223.5179425365543
 20
-225.000712611581
 10
210.002135012519
 20
-225.000712611581
 10
196.4697910192455
 20
-225.000712611581
  0
LWPOLYLINE
  5
424E
330
424A
100
AcDbEntity
  8
0
 62
     7
100
AcDbPolyline
 90
        3
 70
     0
 43
0.0
 10
-210.002135012519
 20
-211.4683686183076
 10
-210.002135012519
 20
-225.000712611581
 10
-210.002135012519
 20
-238.5330566048545
  0
LWPOLYLINE
  5
424F
330
424A
100
AcDbEntity
  8
0
 62
     7
100
AcDbPolyline
 90
        3
 70
     0
 43
0.0
 10
-196.480815332071
 20
-225.000712611581
 10
-210.002135012519
 20
-225.000712611581
 10
-223.5344790057925
 20
-225.000712611581
  0
LWPOLYLINE
  5
4250
330
424A
100
AcDbEntity
  8
0
  6
AI-LINETYPE-12
 62
     7
100
AcDbPolyline
 90
        2
 70
     0
 43
0.0
 10
0.0
 20
-59.72421473202388
 10
0.0
 20
-59.72421473202388
  0
SPLINE
  5
4251
330
424A
100
AcDbEntity
  8
0
  6
AI-LINETYPE-11
 62
     7
100
AcDbSpline
210
0.0
220
0.0
230
1.0
 70
     8
 71
     3
 72
    11
 73
     7
 74
     0
 42
0.000000001
 43
0.0000000001
 40
0.0
 40
0.0
 40
0.0
 40
0.0
 40
1.0
 40
1.0
 40
1.0
 40
2.0
 40
2.0
 40
2.0
 40
2.0
 10
-11.90625785151559
 20
-82.8477108834627
 30
0.0
 10
-20.27922344246568
 20
-78.5316924122883
 30
0.0
 10
-26.00084179888845
 20
-69.80043665451018
 30
0.0
 10
-26.00084179888845
 20
-59.72421473202388
 30
0.0
 10
-26.00084179888845
 20
-45.96036016941531
 30
0.0
 10
-15.30725835817537
 20
-34.6935124617774
 30
0.0
 10
-1.763890052076384
 20
-33.78400665367553
 30
0.0
  0
SPLINE
  5
4252
330
424A
100
AcDbEntity
  8
0
  6
AI-LINETYPE-10
 62
     7
100
AcDbSpline
210
0.0
220
0.0
230
1.0
 70
     8
 71
     3
 72
    11
 73
     7
 74
     0
 42
0.000000001
 43
0.0000000001
 40
0.0
 40
0.0
 40
0.0
 40
0.0
 40
1.0
 40
1.0
 40
1.0
 40
2.0
 40
2.0
 40
2.0
 40
2.0
 10
1.763890052076384
 20
-33.78400665367553
 30
0.0
 10
15.30174620176263
 20
-34.6935124617774
 30
0.0
 10
25.99532964247571
 20
-45.96036016941531
 30
0.0
 10
25.99532964247571
 20
-59.72421473202388
 30
0.0
 10
25.99532964247571
 20
-69.80043665451018
 30
0.0
 10
20.27371128605294
 20
-78.5316924122883
 30
0.0
 10
11.90625785151559
 20
-82.8477108834627
 30
0.0
  0
SPLINE
  5
4253
330
424A
100
AcDbEntity
  8
0
  6
AI-LINETYPE-9
 62
     7
100
AcDbSpline
210
0.0
220
0.0
230
1.0
 70
     8
 71
     3
 72
    11
 73
     7
 74
     0
 42
0.000000001
 43
0.0000000001
 40
0.0
 40
0.0
 40
0.0
 40
0.0
 40
1.0
 40
1.0
 40
1.0
 40
2.0
 40
2.0
 40
2.0
 40
2.0
 10
-11.90625785151559
 20
-178.1639195725403
 30
0.0
 10
-11.90625785151559
 20
-181.2066299123721
 30
0.0
 10
-6.581514756810008
 20
-183.676075985279
 30
0.0
 10
0.0
 20
-183.676075985279
 30
0.0
 10
6.57600260039727
 20
-183.676075985279
 30
0.0
 10
11.90625785151559
 20
-181.2066299123721
 30
0.0
 10
11.90625785151559
 20
-178.1639195725403
 30
0.0
  0
SPLINE
  5
4254
330
424A
100
AcDbEntity
  8
0
  6
AI-LINETYPE-8
 62
     7
100
AcDbSpline
210
0.0
220
0.0
230
1.0
 70
    11
 71
     3
 72
    23
 73
    19
 74
     0
 42
0.000000001
 43
0.0000000001
 40
0.0
 40
0.0
 40
0.0
 40
0.0
 40
1.0
 40
1.0
 40
1.0
 40
2.0
 40
2.0
 40
2.0
 40
3.0
 40
3.0
 40
3.0
 40
4.0
 40
4.0
 40
4.0
 40
5.0
 40
5.0
 40
5.0
 40
6.0
 40
6.0
 40
6.0
 40
6.0
 10
-1.763890052076384
 20
-43.11608746044214
 30
0.0
 10
-1.763890052076384
 20
-44.08622698908414
 30
0.0
 10
-0.9756516850547498
 20
-44.8799775125185
 30
0.0
 10
0.0
 20
-44.8799775125185
 30
0.0
 10
0.9701395286420115
 20
-44.8799775125185
 30
0.0
 10
1.763890052076384
 20
-44.08622698908414
 30
0.0
 10
1.763890052076384
 20
-43.11608746044214
 30
0.0
 10
1.763890052076384
 20
-43.11608746044214
 30
0.0
 10
1.763890052076384
 20
-32.72567262242967
 30
0.0
 10
1.763890052076384
 20
-32.72567262242967
 30
0.0
 10
1.763890052076384
 20
-31.74450878096223
 30
0.0
 10
0.9701395286420115
 20
-30.9617825703533
 30
0.0
 10
0.0
 20
-30.9617825703533
 30
0.0
 10
-0.9756516850547498
 20
-30.9617825703533
 30
0.0
 10
-1.763890052076384
 20
-31.74450878096223
 30
0.0
 10
-1.763890052076384
 20
-32.72567262242967
 30
0.0
 10
-1.763890052076384
 20
-32.72567262242967
 30
0.0
 10
-1.763890052076384
 20
-43.11608746044214
 30
0.0
 10
-1.763890052076384
 20
-43.11608746044214
 30
0.0
  0
SPLINE
  5
4255
330
424A
100
AcDbEntity
  8
0
  6
AI-LINETYPE-7
 62
     7
100
AcDbSpline
210
0.0
220
0.0
230
1.0
 70
    11
 71
     3
 72
    26
 73
    22
 74
     0
 42
0.000000001
 43
0.0000000001
 40
0.0
 40
0.0
 40
0.0
 40
0.0
 40
1.0
 40
1.0
 40
1.0
 40
2.0
 40
2.0
 40
2.0
 40
3.0
 40
3.0
 40
3.0
 40
4.0
 40
4.0
 40
4.0
 40
5.0
 40
5.0
 40
5.0
 40
6.0
 40
6.0
 40
6.0
 40
7.0
 40
7.0
 40
7.0
 40
7.0
 10
-11.90625785151559
 20
-59.72421473202388
 30
0.0
 10
-11.90625785151559
 20
-59.72421473202388
 30
0.0
 10
-11.90625785151559
 20
-184.7674829550012
 30
0.0
 10
-11.90625785151559
 20
-184.7674829550012
 30
0.0
 10
-11.90625785151559
 20
-184.7674829550012
 30
0.0
 10
-11.90625785151559
 20
-184.7674829550012
 30
0.0
 10
-11.90625785151559
 20
-184.7674829550012
 30
0.0
 10
-11.90625785151559
 20
-187.8157054512458
 30
0.0
 10
-6.581514756810008
 20
-190.27963936774
 30
0.0
 10
0.0
 20
-190.27963936774
 30
0.0
 10
6.57600260039727
 20
-190.27963936774
 30
0.0
 10
11.90625785151559
 20
-187.8157054512458
 30
0.0
 10
11.90625785151559
 20
-184.7674829550012
 30
0.0
 10
11.90625785151559
 20
-184.7674829550012
 30
0.0
 10
11.90625785151559
 20
-59.72421473202388
 30
0.0
 10
11.90625785151559
 20
-59.72421473202388
 30
0.0
 10
11.90625785151559
 20
-53.15372428803931
 30
0.0
 10
6.57600260039727
 20
-47.81795688050829
 30
0.0
 10
0.0
 20
-47.81795688050829
 30
0.0
 10
-6.581514756810008
 20
-47.81795688050829
 30
0.0
 10
-11.90625785151559
 20
-53.15372428803931
 30
0.0
 10
-11.90625785151559
 20
-59.72421473202388
 30
0.0
  0
SPLINE
  5
4256
330
424A
100
AcDbEntity
  8
0
 62
     7
100
AcDbSpline
210
0.0
220
0.0
230
1.0
 70
    11
 71
     3
 72
    17
 73
    13
 74
     0
 42
0.000000001
 43
0.0000000001
 40
0.0
 40
0.0
 40
0.0
 40
0.0
 40
1.0
 40
1.0
 40
1.0
 40
2.0
 40
2.0
 40
2.0
 40
3.0
 40
3.0
 40
3.0
 40
4.0
 40
4.0
 40
4.0
 40
4.0
 10
-23.0022287103586
 20
-225.000712611581
 30
0.0
 10
-23.0022287103586
 20
-212.3117285494565
 30
0.0
 10
-12.7055205313627
 20
-202.0039960576352
 30
0.0
 10
0.0
 20
-202.0039960576352
 30
0.0
 10
12.70000837494997
 20
-202.0039960576352
 30
0.0
 10
23.0022287103586
 20
-212.3117285494565
 30
0.0
 10
23.0022287103586
 20
-225.000712611581
 30
0.0
 10
23.0022287103586
 20
-237.7062331429438
 30
0.0
 10
12.70000837494997
 20
-248.0029413219396
 30
0.0
 10
0.0
 20
-248.0029413219396
 30
0.0
 10
-12.7055205313627
 20
-248.0029413219396
 30
0.0
 10
-23.0022287103586
 20
-237.7062331429438
 30
0.0
 10
-23.0022287103586
 20
-225.000712611581
 30
0.0
  0
SPLINE
  5
4257
330
424A
100
AcDbEntity
  8
0
 62
     7
100
AcDbSpline
210
0.0
220
0.0
230
1.0
 70
    11
 71
     3
 72
    17
 73
    13
 74
     0
 42
0.000000001
 43
0.0000000001
 40
0.0
 40
0.0
 40
0.0
 40
0.0
 40
1.0
 40
1.0
 40
1.0
 40
2.0
 40
2.0
 40
2.0
 40
3.0
 40
3.0
 40
3.0
 40
4.0
 40
4.0
 40
4.0
 40
4.0
 10
-37.46061498097221
 20
-225.000712611581
 30
0.0
 10
-37.46061498097221
 20
-204.3191017509854
 30
0.0
 10
-20.68712301700834
 20
-187.5456097870216
 30
0.0
 10
0.0
 20
-187.5456097870216
 30
0.0
 10
20.68712301700835
 20
-187.5456097870216
 30
0.0
 10
37.45510282455947
 20
-204.3191017509854
 30
0.0
 10
37.45510282455947
 20
-225.000712611581
 30
0.0
 10
37.45510282455947
 20
-245.6988599414149
 30
0.0
 10
20.68712301700835
 20
-262.4723519053787
 30
0.0
 10
0.0
 20
-262.4723519053787
 30
0.0
 10
-20.68712301700834
 20
-262.4723519053787
 30
0.0
 10
-37.46061498097221
 20
-245.6988599414149
 30
0.0
 10
-37.46061498097221
 20
-225.000712611581
 30
0.0
  0
LWPOLYLINE
  5
4258
330
424A
100
AcDbEntity
  8
0
  6
AI-LINETYPE-6
 62
     7
100
AcDbPolyline
 90
        3
 70
     0
 43
0.0
 10
-56.18541031504559
 20
-225.000712611581
 10
0.0
 20
-225.000712611581
 10
56.18541031504559
 20
-225.000712611581
  0
LWPOLYLINE
  5
4259
330
424A
100
AcDbEntity
  8
0
  6
AI-LINETYPE-5
 62
     7
100
AcDbPolyline
 90
        3
 70
     0
 43
0.0
 10
0.0
 20
-168.8208144529482
 10
0.0
 20
-225.000712611581
 10
0.0
 20
-281.1971472394521
  0
LWPOLYLINE
  5
425A
330
424A
100
AcDbEntity
  8
0
  6
AI-LINETYPE-4
 62
     7
100
AcDbPolyline
 90
        2
 70
     0
 43
0.0
 10
-100.0015416399055
 20
-36.43535388820282
 10
-100.0015416399055
 20
-88.93864371953894
  0
LWPOLYLINE
  5
425B
330
424A
100
AcDbEntity
  8
0
  6
AI-LINETYPE-3
 62
     7
100
AcDbPolyline
 90
        2
 70
     0
 43
0.0
 10
-73.75265280244383
 20
-62.68975488207729
 10
-126.2559426337799
 20
-62.68975488207729
  0
LWPOLYLINE
  5
425C
330
424A
100
AcDbEntity
  8
0
  6
AI-LINETYPE-2
 62
     7
100
AcDbPolyline
 90
        2
 70
     0
 43
0.0
 10
99.99602948349278
 20
-36.43535388820282
 10
99.99602948349278
 20
-88.93864371953894
  0
LWPOLYLINE
  5
425D
330
424A
100
AcDbEntity
  8
0
  6
AI-LINETYPE-1
 62
     7
100
AcDbPolyline
 90
        2
 70
     0
 43
0.0
 10
126.2504304773672
 20
-62.68975488207729
 10
73.74714064603108
 20
-62.68975488207729
  0
SPLINE
  5
425E
330
424A
100
AcDbEntity
  8
0
 62
     7
100
AcDbSpline
210
0.0
220
0.0
230
1.0
 70
    11
 71
     3
 72
    44
 73
    40
 74
     0
 42
0.000000001
 43
0.0000000001
 40
0.0
 40
0.0
 40
0.0
 40
0.0
 40
1.0
 40
1.0
 40
1.0
 40
2.0
 40
2.0
 40
2.0
 40
3.0
 40
3.0
 40
3.0
 40
4.0
 40
4.0
 40
4.0
 40
5.0
 40
5.0
 40
5.0
 40
6.0
 40
6.0
 40
6.0
 40
7.0
 40
7.0
 40
7.0
 40
8.0
 40
8.0
 40
8.0
 40
9.0
 40
9.0
 40
9.0
 40
10.0
 40
10.0
 40
10.0
 40
11.0
 40
11.0
 40
11.0
 40
12.0
 40
12.0
 40
12.0
 40
13.0
 40
13.0
 40
13.0
 40
13.0
 10
215.3985361405902
 20
-120.0437423566234
 30
0.0
 10
215.3985361405902
 20
-120.0437423566234
 30
0.0
 10
-213.166112793431
 20
-120.0437423566234
 30
0.0
 10
-213.166112793431
 20
-120.0437423566234
 30
0.0
 10
-213.166112793431
 20
-120.0437423566234
 30
0.0
 10
-213.0999669164781
 20
-120.0437423566234
 30
0.0
 10
-213.0999669164781
 20
-120.0437423566234
 30
0.0
 10
-217.449058326129
 20
-120.0161815745597
 30
0.0
 10
-221.0429843072346
 20
-123.6101075556654
 30
0.0
 10
-221.0154235251709
 20
-127.9647111217289
 30
0.0
 10
-221.0154235251709
 20
-127.9647111217289
 30
0.0
 10
-221.0154235251709
 20
-127.9371503396653
 30
0.0
 10
-221.0154235251709
 20
-127.9371503396653
 30
0.0
 10
-221.1918125303785
 20
-219.4003616962385
 30
0.0
 10
-221.1201544970129
 20
-275.9495743345249
 30
0.0
 10
-220.844546676376
 20
-367.374200596209
 30
0.0
 10
-220.866595302027
 20
-371.8169986648764
 30
0.0
 10
-217.2340842260322
 20
-375.6755081537935
 30
0.0
 10
-212.6755308726973
 20
-375.6203865896661
 30
0.0
 10
-212.6755308726973
 20
-375.6203865896661
 30
0.0
 10
214.9079542198565
 20
-375.6203865896661
 30
0.0
 10
214.9079542198565
 20
-375.6203865896661
 30
0.0
 10
214.9079542198565
 20
-375.6203865896661
 30
0.0
 10
214.8693691249673
 20
-375.6203865896661
 30
0.0
 10
214.8693691249673
 20
-375.6203865896661
 30
0.0
 10
219.3838252270003
 20
-375.6975567794444
 30
0.0
 10
223.0218484594078
 20
-371.8941688546547
 30
0.0
 10
223.0659457107098
 20
-367.374200596209
 30
0.0
 10
223.0659457107098
 20
-367.374200596209
 30
0.0
 10
223.0328727722333
 20
-367.4072735346854
 30
0.0
 10
223.0328727722333
 20
-367.4072735346854
 30
0.0
 10
223.3470656877594
 20
-275.9495743345249
 30
0.0
 10
223.4132115647123
 20
-219.4003616962385
 30
0.0
 10
223.2423347159174
 20
-127.9647111217289
 30
0.0
 10
223.2313104030919
 20
-123.5825467736016
 30
0.0
 10
219.7035302989391
 20
-120.0272058873852
 30
0.0
 10
215.3213659508118
 20
-120.0437423566234
 30
0.0
 10
215.3213659508118
 20
-120.0437423566234
 30
0.0
 10
215.3985361405902
 20
-120.0437423566234
 30
0.0
 10
215.3985361405902
 20
-120.0437423566234
 30
0.0
  0
SPLINE
  5
425F
330
424A
100
AcDbEntity
  8
0
 62
     7
100
AcDbSpline
210
0.0
220
0.0
230
1.0
 70
    11
 71
     3
 72
    32
 73
    28
 74
     0
 42
0.000000001
 43
0.0000000001
 40
0.0
 40
0.0
 40
0.0
 40
0.0
 40
1.0
 40
1.0
 40
1.0
 40
2.0
 40
2.0
 40
2.0
 40
3.0
 40
3.0
 40
3.0
 40
4.0
 40
4.0
 40
4.0
 40
5.0
 40
5.0
 40
5.0
 40
6.0
 40
6.0
 40
6.0
 40
7.0
 40
7.0
 40
7.0
 40
8.0
 40
8.0
 40
8.0
 40
9.0
 40
9.0
 40
9.0
 40
9.0
 10
243.8247267610837
 20
-425.0093080478048
 30
0.0
 10
243.8247267610837
 20
-425.0093080478048
 30
0.0
 10
-241.4930845984952
 20
-425.0313566734558
 30
0.0
 10
-241.4930845984952
 20
-425.0313566734558
 30
0.0
 10
-241.4930845984952
 20
-425.0313566734558
 30
0.0
 10
-241.4930845984952
 20
-425.0093080478048
 30
0.0
 10
-241.4930845984952
 20
-425.0093080478048
 30
0.0
 10
-245.2909603668722
 20
-425.0093080478048
 30
0.0
 10
-248.3281585502912
 20
-421.8894275181948
 30
0.0
 10
-248.3612314887676
 20
-418.086039593405
 30
0.0
 10
-248.9896173198198
 20
-268.6845521825353
 30
0.0
 10
-248.9896173198198
 20
-154.2301364284288
 30
0.0
 10
-248.3612314887676
 20
-4.867234112448272
 30
0.0
 10
-248.3061099246402
 20
-2.204862565095481
 30
0.0
 10
-246.2004661749741
 20
-0.0716580333656225
 30
0.0
 10
-243.5160460019703
 20
0.0
 30
0.0
 10
-243.5160460019703
 20
0.0
 30
0.0
 10
245.8476881645588
 20
0.0
 30
0.0
 10
245.8476881645588
 20
0.0
 30
0.0
 10
248.5321083375625
 20
-0.0716580333656225
 30
0.0
 10
250.632239930816
 20
-2.204862565095481
 30
0.0
 10
250.6928736513561
 20
-4.867234112448272
 30
0.0
 10
251.3212594824083
 20
-154.2301364284288
 30
0.0
 10
251.3212594824083
 20
-268.6845521825353
 30
0.0
 10
250.6928736513561
 20
-418.086039593405
 30
0.0
 10
250.6598007128797
 20
-421.8894275181948
 30
0.0
 10
247.6226025294606
 20
-425.0093080478048
 30
0.0
 10
243.8247267610837
 20
-425.0093080478048
 30
0.0
  0
ENDBLK
  5
4260
330
424A
100
AcDbEntity
  8
0
100
AcDbBlockEnd
  0
BLOCK
  5
4263
330
4262
100
AcDbEntity
  8
0
100
AcDbBlockBegin
  2
811431S
 70
     0
 10
0.0
 20
0.0
 30
0.0
  3
811431S
  1
811431S
  0
LWPOLYLINE
  5
4264
330
4262
100
AcDbEntity
  8
0
 62
     7
100
AcDbPolyline
 90
        2
 70
     0
 43
0.0
 10
-76.3102933779546
 20
603.104231297068
 10
-61.22352127628876
 20
623.526770806265
  0
LWPOLYLINE
  5
4265
330
4262
100
AcDbEntity
  8
0
 62
     7
100
AcDbPolyline
 90
        2
 70
     0
 43
0.0
 10
-56.63189498447742
 20
599.2843069030401
 10
-76.3102933779546
 20
603.104231297068
  0
LWPOLYLINE
  5
4266
330
4262
100
AcDbEntity
  8
0
 62
     7
100
AcDbPolyline
 90
        2
 70
     0
 43
0.0
 10
-66.65299534283639
 20
582.345450246694
 10
-56.63189498447742
 20
599.2843069030401
  0
LWPOLYLINE
  5
4267
330
4262
100
AcDbEntity
  8
0
 62
     7
100
AcDbPolyline
 90
        5
 70
     0
 43
0.0
 10
-57.58549804388121
 20
582.874617262317
 10
-74.39757510273427
 20
582.874617262317
 10
-73.44397204333046
 20
566.83975425766
 10
-57.58549804388121
 20
582.874617262317
 10
-57.58549804388121
 20
582.874617262317
  0
LWPOLYLINE
  5
4268
330
4262
100
AcDbEntity
  8
0
  6
AI-LINETYPE-6
 62
     7
100
AcDbPolyline
 90
        7
 70
     0
 43
0.0
 10
0.0
 20
580.0027837712802
 10
-20.00361562182874
 20
580.0027837712802
 10
-40.00171908724476
 20
580.0027837712802
 10
-40.00171908724476
 20
600.0008872366961
 10
-40.00171908724476
 20
620.0045028585249
 10
-20.00361562182874
 20
620.0045028585249
 10
0.0
 20
620.0045028585249
  0
LWPOLYLINE
  5
4269
330
4262
100
AcDbEntity
  8
0
  6
AI-LINETYPE-5
 62
     7
100
AcDbPolyline
 90
        5
 70
     0
 43
0.0
 10
55.00029668630677
 20
567.5012130271888
 10
0.0
 20
567.5012130271888
 10
0.0
 20
632.5005614462035
 10
55.00029668630677
 20
632.5005614462035
 10
55.00029668630677
 20
567.5012130271888
  0
SPLINE
  5
426A
330
4262
100
AcDbEntity
  8
0
  6
AI-LINETYPE-4
 62
     7
100
AcDbSpline
210
0.0
220
0.0
230
1.0
 70
    11
 71
     3
 72
    32
 73
    28
 74
     0
 42
0.000000001
 43
0.0000000001
 40
0.0
 40
0.0
 40
0.0
 40
0.0
 40
1.0
 40
1.0
 40
1.0
 40
2.0
 40
2.0
 40
2.0
 40
3.0
 40
3.0
 40
3.0
 40
4.0
 40
4.0
 40
4.0
 40
5.0
 40
5.0
 40
5.0
 40
6.0
 40
6.0
 40
6.0
 40
7.0
 40
7.0
 40
7.0
 40
8.0
 40
8.0
 40
8.0
 40
9.0
 40
9.0
 40
9.0
 40
9.0
 10
87.71494499591095
 20
933.0178169123049
 30
0.0
 10
86.74480546726895
 20
933.0178169123049
 30
0.0
 10
85.95105494383458
 20
932.2240663888704
 30
0.0
 10
85.95105494383458
 20
931.2539268602284
 30
0.0
 10
85.95105494383458
 20
930.2727630187609
 30
0.0
 10
86.74480546726895
 20
929.490036808152
 30
0.0
 10
87.71494499591095
 20
929.490036808152
 30
0.0
 10
87.71494499591095
 20
929.490036808152
 30
0.0
 10
95.60284082254003
 20
929.490036808152
 30
0.0
 10
95.60284082254003
 20
929.490036808152
 30
0.0
 10
96.01074039708271
 20
929.490036808152
 30
0.0
 10
96.34146978184702
 20
929.1593074233878
 30
0.0
 10
96.34146978184702
 20
928.7514078488451
 30
0.0
 10
96.34146978184702
 20
928.7514078488451
 30
0.0
 10
96.34146978184702
 20
907.9981389548839
 30
0.0
 10
96.34146978184702
 20
907.9981389548839
 30
0.0
 10
96.34146978184702
 20
907.9981389548839
 30
0.0
 10
99.8692498859998
 20
907.9981389548839
 30
0.0
 10
99.8692498859998
 20
907.9981389548839
 30
0.0
 10
99.8692498859998
 20
907.9981389548839
 30
0.0
 10
99.8692498859998
 20
928.7514078488451
 30
0.0
 10
99.8692498859998
 20
928.7514078488451
 30
0.0
 10
99.8692498859998
 20
931.0995864806717
 30
0.0
 10
97.9620437671922
 20
933.0178169123049
 30
0.0
 10
95.60284082254003
 20
933.0178169123049
 30
0.0
 10
95.60284082254003
 20
933.0178169123049
 30
0.0
 10
87.71494499591095
 20
933.0178169123049
 30
0.0
 10
87.71494499591095
 20
933.0178169123049
 30
0.0
  0
LWPOLYLINE
  5
426B
330
4262
100
AcDbEntity
  8
0
  6
AI-LINETYPE-3
 62
     7
100
AcDbPolyline
 90
        2
 70
     0
 43
0.0
 10
217.5648136107965
 20
1065.144206125651
 10
238.6763726715857
 20
1076.168518951128
  0
SPLINE
  5
426C
330
4262
100
AcDbEntity
  8
0
  6
AI-LINETYPE-2
 62
     7
100
AcDbSpline
210
0.0
220
0.0
230
1.0
 70
    11
 71
     3
 72
    35
 73
    31
 74
     0
 42
0.000000001
 43
0.0000000001
 40
0.0
 40
0.0
 40
0.0
 40
0.0
 40
1.0
 40
1.0
 40
1.0
 40
2.0
 40
2.0
 40
2.0
 40
3.0
 40
3.0
 40
3.0
 40
4.0
 40
4.0
 40
4.0
 40
5.0
 40
5.0
 40
5.0
 40
6.0
 40
6.0
 40
6.0
 40
7.0
 40
7.0
 40
7.0
 40
8.0
 40
8.0
 40
8.0
 40
9.0
 40
9.0
 40
9.0
 40
10.0
 40
10.0
 40
10.0
 40
10.0
 10
102.8182535668149
 20
1084.00129321363
 30
0.0
 10
102.8182535668149
 20
1084.00129321363
 30
0.0
 10
102.8182535668149
 20
907.9981389548839
 30
0.0
 10
102.8182535668149
 20
907.9981389548839
 30
0.0
 10
102.8182535668149
 20
907.9981389548839
 30
0.0
 10
126.6307692698461
 20
907.9981389548839
 30
0.0
 10
126.6307692698461
 20
907.9981389548839
 30
0.0
 10
126.6307692698461
 20
907.9981389548839
 30
0.0
 10
126.6307692698461
 20
1084.00129321363
 30
0.0
 10
126.6307692698461
 20
1084.00129321363
 30
0.0
 10
126.6307692698461
 20
1105.008121302577
 30
0.0
 10
143.7184541493361
 20
1122.095806182067
 30
0.0
 10
164.7252822382833
 20
1122.095806182067
 30
0.0
 10
178.9797187216256
 20
1122.095806182067
 30
0.0
 10
191.9332862915615
 20
1114.235471137502
 30
0.0
 10
198.5313375176098
 20
1101.585072170267
 30
0.0
 10
198.5313375176098
 20
1101.579560013854
 30
0.0
 10
224.1683769932575
 20
1052.493807158416
 30
0.0
 10
224.1683769932575
 20
1052.493807158416
 30
0.0
 10
224.1683769932575
 20
1052.493807158416
 30
0.0
 10
245.2799360540467
 20
1063.518119983893
 30
0.0
 10
245.2799360540467
 20
1063.518119983893
 30
0.0
 10
245.2799360540467
 20
1063.518119983893
 30
0.0
 10
219.6373844219862
 20
1112.603872839331
 30
0.0
 10
219.6373844219862
 20
1112.603872839331
 30
0.0
 10
208.927264512035
 20
1133.142167633196
 30
0.0
 10
187.8873634846113
 20
1145.908321885099
 30
0.0
 10
164.7252822382833
 20
1145.908321885099
 30
0.0
 10
130.5884975741925
 20
1145.908321885099
 30
0.0
 10
102.8182535668149
 20
1118.138077877721
 30
0.0
 10
102.8182535668149
 20
1084.00129321363
 30
0.0
  0
SPLINE
  5
426D
330
4262
100
AcDbEntity
  8
0
  6
AI-LINETYPE-1
 62
     7
100
AcDbSpline
210
0.0
220
0.0
230
1.0
 70
    11
 71
     3
 72
    23
 73
    19
 74
     0
 42
0.000000001
 43
0.0000000001
 40
0.0
 40
0.0
 40
0.0
 40
0.0
 40
1.0
 40
1.0
 40
1.0
 40
2.0
 40
2.0
 40
2.0
 40
3.0
 40
3.0
 40
3.0
 40
4.0
 40
4.0
 40
4.0
 40
5.0
 40
5.0
 40
5.0
 40
6.0
 40
6.0
 40
6.0
 40
6.0
 10
140.725353217219
 20
900.0
 30
0.0
 10
140.725353217219
 20
900.0
 30
0.0
 10
88.72366961944213
 20
900.0
 30
0.0
 10
88.72366961944213
 20
900.0
 30
0.0
 10
88.72366961944213
 20
900.0
 30
0.0
 10
88.72366961944213
 20
906.5043445670317
 30
0.0
 10
88.72366961944213
 20
906.5043445670317
 30
0.0
 10
88.72366961944213
 20
907.3311680289426
 30
0.0
 10
89.39615270179625
 20
907.9981389548839
 30
0.0
 10
90.22297616370705
 20
907.9981389548839
 30
0.0
 10
90.22297616370705
 20
907.9981389548839
 30
0.0
 10
139.2260466729541
 20
907.9981389548839
 30
0.0
 10
139.2260466729541
 20
907.9981389548839
 30
0.0
 10
140.0528701348649
 20
907.9981389548839
 30
0.0
 10
140.725353217219
 20
907.3311680289426
 30
0.0
 10
140.725353217219
 20
906.5043445670317
 30
0.0
 10
140.725353217219
 20
906.5043445670317
 30
0.0
 10
140.725353217219
 20
900.0
 30
0.0
 10
140.725353217219
 20
900.0
 30
0.0
  0
LWPOLYLINE
  5
426E
330
4262
100
AcDbEntity
  8
0
 62
     7
100
AcDbPolyline
 90
        2
 70
     0
 43
0.0
 10
277.9339506431107
 20
731.2177706419409
 10
277.9339506431107
 20
778.4404146298734
  0
SPLINE
  5
426F
330
4262
100
AcDbEntity
  8
0
 62
     7
100
AcDbSpline
210
0.0
220
0.0
230
1.0
 70
     8
 71
     3
 72
    29
 73
    25
 74
     0
 42
0.000000001
 43
0.0000000001
 40
0.0
 40
0.0
 40
0.0
 40
0.0
 40
1.0
 40
1.0
 40
1.0
 40
2.0
 40
2.0
 40
2.0
 40
3.0
 40
3.0
 40
3.0
 40
4.0
 40
4.0
 40
4.0
 40
5.0
 40
5.0
 40
5.0
 40
6.0
 40
6.0
 40
6.0
 40
7.0
 40
7.0
 40
7.0
 40
8.0
 40
8.0
 40
8.0
 40
8.0
 10
168.6609619169788
 20
759.9912271164368
 30
0.0
 10
171.2186024924895
 20
758.916356615953
 30
0.0
 10
173.9416077603824
 20
758.3100194105516
 30
0.0
 10
176.7583196872919
 20
758.0178751206765
 30
0.0
 10
176.7583196872919
 20
758.0178751206765
 30
0.0
 10
237.6841845172928
 20
753.7624903700423
 30
0.0
 10
237.6841845172928
 20
753.7624903700423
 30
0.0
 10
240.6717732929971
 20
753.5530284263582
 30
0.0
 10
243.0420005504748
 20
751.1442160739914
 30
0.0
 10
243.2018530864442
 20
748.1400908290487
 30
0.0
 10
243.2018530864442
 20
748.1400908290487
 30
0.0
 10
243.2128773992697
 20
747.82038575711
 30
0.0
 10
243.2128773992697
 20
747.82038575711
 30
0.0
 10
243.2955597454608
 20
746.2383968666539
 30
0.0
 10
244.5964286588671
 20
744.9981616737876
 30
0.0
 10
246.1839297057359
 20
744.9981616737876
 30
0.0
 10
246.1839297057359
 20
744.9981616737876
 30
0.0
 10
309.6839715804857
 20
744.9981616737876
 30
0.0
 10
309.6839715804857
 20
744.9981616737876
 30
0.0
 10
311.2714726273545
 20
744.9981616737876
 30
0.0
 10
312.5723415407608
 20
746.2383968666539
 30
0.0
 10
312.6550238869518
 20
747.82038575711
 30
0.0
 10
312.6550238869518
 20
747.82038575711
 30
0.0
 10
313.2944340308295
 20
760.0022514292625
 30
0.0
 10
313.2944340308295
 20
760.0022514292625
 30
0.0
  0
LWPOLYLINE
  5
4270
330
4262
100
AcDbEntity
  8
0
 62
     7
100
AcDbPolyline
 90
        2
 70
     0
 43
0.0
 10
237.6841845172928
 20
753.7624903700423
 10
251.2881865439319
 20
752.8088873106384
  0
SPLINE
  5
4271
330
4262
100
AcDbEntity
  8
0
 62
     7
100
AcDbSpline
210
0.0
220
0.0
230
1.0
 70
    11
 71
     3
 72
    32
 73
    28
 74
     0
 42
0.000000001
 43
0.0000000001
 40
0.0
 40
0.0
 40
0.0
 40
0.0
 40
1.0
 40
1.0
 40
1.0
 40
2.0
 40
2.0
 40
2.0
 40
3.0
 40
3.0
 40
3.0
 40
4.0
 40
4.0
 40
4.0
 40
5.0
 40
5.0
 40
5.0
 40
6.0
 40
6.0
 40
6.0
 40
7.0
 40
7.0
 40
7.0
 40
8.0
 40
8.0
 40
8.0
 40
9.0
 40
9.0
 40
9.0
 40
9.0
 10
60.2037723399321
 20
760.0022514292625
 30
0.0
 10
58.58319835458691
 20
760.0022514292625
 30
0.0
 10
57.26028081552962
 20
761.3141446554941
 30
0.0
 10
57.23272003346593
 20
762.9402307972521
 30
0.0
 10
57.23272003346593
 20
762.9402307972521
 30
0.0
 10
54.98927237348128
 20
892.8727817583288
 30
0.0
 10
54.98927237348128
 20
892.8727817583288
 30
0.0
 10
54.91761434011568
 20
896.7478277164842
 30
0.0
 10
57.97134899277292
 20
899.9283419666344
 30
0.0
 10
61.79678554321359
 20
900.0
 30
0.0
 10
61.79678554321359
 20
900.0
 30
0.0
 10
473.0587754976481
 20
900.0
 30
0.0
 10
473.0587754976481
 20
900.0
 30
0.0
 10
473.0973605925373
 20
900.0
 30
0.0
 10
473.1414578438392
 20
900.0
 30
0.0
 10
473.1800429387283
 20
900.0
 30
0.0
 10
477.005479489169
 20
899.9283419666344
 30
0.0
 10
480.0592141418262
 20
896.7478277164842
 30
0.0
 10
479.9875561084606
 20
892.8727817583288
 30
0.0
 10
479.9875561084606
 20
892.8727817583288
 30
0.0
 10
477.744108448476
 20
762.9402307972521
 30
0.0
 10
477.744108448476
 20
762.9402307972521
 30
0.0
 10
477.7165476664123
 20
761.3141446554941
 30
0.0
 10
476.393630127355
 20
760.0022514292625
 30
0.0
 10
474.7730561420098
 20
760.0022514292625
 30
0.0
 10
474.7730561420098
 20
760.0022514292625
 30
0.0
 10
60.2037723399321
 20
760.0022514292625
 30
0.0
 10
60.2037723399321
 20
760.0022514292625
 30
0.0
  0
ENDBLK
  5
4272
330
4262
100
AcDbEntity
  8
0
100
AcDbBlockEnd
  0
BLOCK
  5
4275
330
4274
100
AcDbEntity
  8
0
100
AcDbBlockBegin
  2
811431V
 70
     0
 10
0.0
 20
0.0
 30
0.0
  3
811431V
  1
811431V
  0
SPLINE
  5
4276
330
4274
100
AcDbEntity
  8
0
  6
AI-LINETYPE-13
 62
     7
100
AcDbSpline
210
0.0
220
0.0
230
1.0
 70
    11
 71
     3
 72
    29
 73
    25
 74
     0
 42
0.000000001
 43
0.0000000001
 40
0.0
 40
0.0
 40
0.0
 40
0.0
 40
1.0
 40
1.0
 40
1.0
 40
2.0
 40
2.0
 40
2.0
 40
3.0
 40
3.0
 40
3.0
 40
4.0
 40
4.0
 40
4.0
 40
5.0
 40
5.0
 40
5.0
 40
6.0
 40
6.0
 40
6.0
 40
7.0
 40
7.0
 40
7.0
 40
8.0
 40
8.0
 40
8.0
 40
8.0
 10
-97.818727700461
 20
685.2518983161129
 30
0.0
 10
-97.818727700461
 20
681.0295865039551
 30
0.0
 10
-101.236264676359
 20
677.6010252152316
 30
0.0
 10
-105.4696008013423
 20
677.6010252152316
 30
0.0
 10
-105.4696008013423
 20
677.6010252152316
 30
0.0
 10
-155.1727151750071
 20
677.6010252152316
 30
0.0
 10
-155.1727151750071
 20
677.6010252152316
 30
0.0
 10
-159.3895148307522
 20
677.6010252152316
 30
0.0
 10
-162.8235882758885
 20
681.0295865039551
 30
0.0
 10
-162.8235882758885
 20
685.2518983161129
 30
0.0
 10
-162.8235882758885
 20
685.2518983161129
 30
0.0
 10
-162.8235882758885
 20
734.9550126897777
 30
0.0
 10
-162.8235882758885
 20
734.9550126897777
 30
0.0
 10
-162.8235882758885
 20
739.1773245019355
 30
0.0
 10
-159.3895148307522
 20
742.6003736342464
 30
0.0
 10
-155.1727151750071
 20
742.6003736342464
 30
0.0
 10
-155.1727151750071
 20
742.6003736342464
 30
0.0
 10
-105.4696008013423
 20
742.6003736342464
 30
0.0
 10
-105.4696008013423
 20
742.6003736342464
 30
0.0
 10
-101.236264676359
 20
742.6003736342464
 30
0.0
 10
-97.818727700461
 20
739.1773245019355
 30
0.0
 10
-97.818727700461
 20
734.9550126897777
 30
0.0
 10
-97.818727700461
 20
734.9550126897777
 30
0.0
 10
-97.818727700461
 20
685.2518983161129
 30
0.0
 10
-97.818727700461
 20
685.2518983161129
 30
0.0
  0
LWPOLYLINE
  5
4277
330
4274
100
AcDbEntity
  8
0
  6
AI-LINETYPE-12
 62
     7
100
AcDbPolyline
 90
        5
 70
     0
 43
0.0
 10
194.7830711569475
 20
677.5900009024061
 10
9.72895606848381
 20
677.5900009024061
 10
9.72895606848381
 20
742.589349321421
 10
194.7830711569475
 20
742.589349321421
 10
194.7830711569475
 20
677.5900009024061
  0
SPLINE
  5
4278
330
4274
100
AcDbEntity
  8
0
  6
AI-LINETYPE-11
 62
     7
100
AcDbSpline
210
0.0
220
0.0
230
1.0
 70
    11
 71
     3
 72
    17
 73
    13
 74
     0
 42
0.000000001
 43
0.0000000001
 40
0.0
 40
0.0
 40
0.0
 40
0.0
 40
1.0
 40
1.0
 40
1.0
 40
2.0
 40
2.0
 40
2.0
 40
3.0
 40
3.0
 40
3.0
 40
4.0
 40
4.0
 40
4.0
 40
4.0
 10
-130.3128897535556
 20
707.1020863362091
 30
0.0
 10
-131.4153210361034
 20
707.1020863362091
 30
0.0
 10
-132.3138025313797
 20
706.2091169973455
 30
0.0
 10
-132.3138025313797
 20
705.1066857147977
 30
0.0
 10
-132.3138025313797
 20
704.00425443225
 30
0.0
 10
-131.4153210361034
 20
703.1057729369735
 30
0.0
 10
-130.3128897535556
 20
703.1057729369735
 30
0.0
 10
-129.2104584710079
 20
703.1057729369735
 30
0.0
 10
-128.3174891321442
 20
704.00425443225
 30
0.0
 10
-128.3174891321442
 20
705.1066857147977
 30
0.0
 10
-128.3174891321442
 20
706.2091169973455
 30
0.0
 10
-129.2104584710079
 20
707.1020863362091
 30
0.0
 10
-130.3128897535556
 20
707.1020863362091
 30
0.0
  0
LWPOLYLINE
  5
4279
330
4274
100
AcDbEntity
  8
0
 62
     7
100
AcDbPolyline
 90
        2
 70
     0
 43
0.0
 10
-190.9355859808558
 20
706.4571640359186
 10
-175.8433017227773
 20
726.8797035451155
  0
LWPOLYLINE
  5
427A
330
4274
100
AcDbEntity
  8
0
 62
     7
100
AcDbPolyline
 90
        2
 70
     0
 43
0.0
 10
-171.2571875873787
 20
702.6427517983035
 10
-190.9355859808558
 20
706.4571640359186
  0
LWPOLYLINE
  5
427B
330
4274
100
AcDbEntity
  8
0
 62
     7
100
AcDbPolyline
 90
        2
 70
     0
 43
0.0
 10
-181.2727757893249
 20
685.7038951419574
 10
-171.2571875873787
 20
702.6427517983035
  0
LWPOLYLINE
  5
427C
330
4274
100
AcDbEntity
  8
0
 62
     7
100
AcDbPolyline
 90
        5
 70
     0
 43
0.0
 10
-172.221814959608
 20
686.2275500011676
 10
-189.0173555492228
 20
686.2275500011676
 10
-188.0692646462317
 20
670.2037113093362
 10
-172.221814959608
 20
686.2275500011676
 10
-172.221814959608
 20
686.2275500011676
  0
SPLINE
  5
427D
330
4274
100
AcDbEntity
  8
0
  6
AI-LINETYPE-10
 62
     7
100
AcDbSpline
210
0.0
220
0.0
230
1.0
 70
    11
 71
     3
 72
    41
 73
    37
 74
     0
 42
0.000000001
 43
0.0000000001
 40
0.0
 40
0.0
 40
0.0
 40
0.0
 40
1.0
 40
1.0
 40
1.0
 40
2.0
 40
2.0
 40
2.0
 40
3.0
 40
3.0
 40
3.0
 40
4.0
 40
4.0
 40
4.0
 40
5.0
 40
5.0
 40
5.0
 40
6.0
 40
6.0
 40
6.0
 40
7.0
 40
7.0
 40
7.0
 40
8.0
 40
8.0
 40
8.0
 40
9.0
 40
9.0
 40
9.0
 40
10.0
 40
10.0
 40
10.0
 40
11.0
 40
11.0
 40
11.0
 40
12.0
 40
12.0
 40
12.0
 40
12.0
 10
-122.4194817705138
 20
720.8769652116432
 30
0.0
 10
-122.5297248987686
 20
721.0257934347871
 30
0.0
 10
-122.667528809087
 20
721.1029636245654
 30
0.0
 10
-122.816357032231
 20
721.1029636245654
 30
0.0
 10
-122.816357032231
 20
721.1029636245654
 30
0.0
 10
-137.8259589441185
 20
721.1029636245654
 30
0.0
 10
-137.8259589441185
 20
721.1029636245654
 30
0.0
 10
-137.9637628544369
 20
721.1029636245654
 30
0.0
 10
-138.1125910775809
 20
721.0257934347871
 30
0.0
 10
-138.2118098930102
 20
720.8714530552303
 30
0.0
 10
-138.2118098930102
 20
720.8714530552303
 30
0.0
 10
-149.0983188081691
 20
710.6629393788382
 30
0.0
 10
-149.0983188081691
 20
710.6629393788382
 30
0.0
 10
-149.3022685954404
 20
710.3542586197249
 30
0.0
 10
-149.3022685954404
 20
709.8581645425785
 30
0.0
 10
-149.0983188081691
 20
709.549483783465
 30
0.0
 10
-149.0983188081691
 20
709.549483783465
 30
0.0
 10
-138.2118098930102
 20
699.3354579506602
 30
0.0
 10
-138.2118098930102
 20
699.3354579506602
 30
0.0
 10
-138.1125910775809
 20
699.1866297275163
 30
0.0
 10
-137.9637628544369
 20
699.1039473813252
 30
0.0
 10
-137.8259589441185
 20
699.1039473813252
 30
0.0
 10
-137.8259589441185
 20
699.1039473813252
 30
0.0
 10
-122.816357032231
 20
699.1039473813252
 30
0.0
 10
-122.816357032231
 20
699.1039473813252
 30
0.0
 10
-122.667528809087
 20
699.1039473813252
 30
0.0
 10
-122.5297248987686
 20
699.1811175711036
 30
0.0
 10
-122.4194817705138
 20
699.3354579506602
 30
0.0
 10
-122.4194817705138
 20
699.3354579506602
 30
0.0
 10
-111.3235109116708
 20
709.8802131682293
 30
0.0
 10
-111.3235109116708
 20
709.8802131682293
 30
0.0
 10
-111.2408285654797
 20
710.0014806093097
 30
0.0
 10
-111.2408285654797
 20
710.205430396581
 30
0.0
 10
-111.3235109116708
 20
710.3266978376613
 30
0.0
 10
-111.3235109116708
 20
710.3266978376613
 30
0.0
 10
-122.4194817705138
 20
720.8769652116432
 30
0.0
 10
-122.4194817705138
 20
720.8769652116432
 30
0.0
  0
SPLINE
  5
427E
330
4274
100
AcDbEntity
  8
0
  6
AI-LINETYPE-9
 62
     7
100
AcDbSpline
210
0.0
220
0.0
230
1.0
 70
    11
 71
     3
 72
    17
 73
    13
 74
     0
 42
0.000000001
 43
0.0000000001
 40
0.0
 40
0.0
 40
0.0
 40
0.0
 40
1.0
 40
1.0
 40
1.0
 40
2.0
 40
2.0
 40
2.0
 40
3.0
 40
3.0
 40
3.0
 40
4.0
 40
4.0
 40
4.0
 40
4.0
 10
-137.8259589441185
 20
710.100699424739
 30
0.0
 10
-137.8259589441185
 20
711.2086428636994
 30
0.0
 10
-138.7189282829821
 20
712.101612202563
 30
0.0
 10
-139.8213595655299
 20
712.101612202563
 30
0.0
 10
-140.9237908480776
 20
712.101612202563
 30
0.0
 10
-141.822272343354
 20
711.2086428636994
 30
0.0
 10
-141.822272343354
 20
710.100699424739
 30
0.0
 10
-141.822272343354
 20
708.9982681421913
 30
0.0
 10
-140.9237908480776
 20
708.1052988033275
 30
0.0
 10
-139.8213595655299
 20
708.1052988033275
 30
0.0
 10
-138.7189282829821
 20
708.1052988033275
 30
0.0
 10
-137.8259589441185
 20
708.9982681421913
 30
0.0
 10
-137.8259589441185
 20
710.100699424739
 30
0.0
  0
SPLINE
  5
427F
330
4274
100
AcDbEntity
  8
0
  6
AI-LINETYPE-8
 62
     7
100
AcDbSpline
210
0.0
220
0.0
230
1.0
 70
    11
 71
     3
 72
    17
 73
    13
 74
     0
 42
0.000000001
 43
0.0000000001
 40
0.0
 40
0.0
 40
0.0
 40
0.0
 40
1.0
 40
1.0
 40
1.0
 40
2.0
 40
2.0
 40
2.0
 40
3.0
 40
3.0
 40
3.0
 40
4.0
 40
4.0
 40
4.0
 40
4.0
 10
-118.8200436329954
 20
710.100699424739
 30
0.0
 10
-118.8200436329954
 20
711.2086428636994
 30
0.0
 10
-119.7185251282718
 20
712.1071243589759
 30
0.0
 10
-120.8209564108196
 20
712.1071243589759
 30
0.0
 10
-121.9233876933673
 20
712.1071243589759
 30
0.0
 10
-122.816357032231
 20
711.2086428636994
 30
0.0
 10
-122.816357032231
 20
710.100699424739
 30
0.0
 10
-122.816357032231
 20
708.9982681421913
 30
0.0
 10
-121.9233876933673
 20
708.1052988033275
 30
0.0
 10
-120.8209564108196
 20
708.1052988033275
 30
0.0
 10
-119.7185251282718
 20
708.1052988033275
 30
0.0
 10
-118.8200436329954
 20
708.9982681421913
 30
0.0
 10
-118.8200436329954
 20
710.100699424739
 30
0.0
  0
SPLINE
  5
4280
330
4274
100
AcDbEntity
  8
0
  6
AI-LINETYPE-7
 62
     7
100
AcDbSpline
210
0.0
220
0.0
230
1.0
 70
     8
 71
     3
 72
    11
 73
     7
 74
     0
 42
0.000000001
 43
0.0000000001
 40
0.0
 40
0.0
 40
0.0
 40
0.0
 40
1.0
 40
1.0
 40
1.0
 40
2.0
 40
2.0
 40
2.0
 40
2.0
 10
-11.91177000792833
 20
1070.750069197406
 30
0.0
 10
-11.91177000792833
 20
1073.792779537238
 30
0.0
 10
-6.581514756810008
 20
1076.262225610145
 30
0.0
 10
0.0
 20
1076.262225610145
 30
0.0
 10
6.581514756810008
 20
1076.262225610145
 30
0.0
 10
11.91177000792832
 20
1073.792779537238
 30
0.0
 10
11.91177000792832
 20
1070.750069197406
 30
0.0
  0
SPLINE
  5
4281
330
4274
100
AcDbEntity
  8
0
  6
AI-LINETYPE-6
 62
     7
100
AcDbSpline
210
0.0
220
0.0
230
1.0
 70
    11
 71
     3
 72
    17
 73
    13
 74
     0
 42
0.000000001
 43
0.0000000001
 40
0.0
 40
0.0
 40
0.0
 40
0.0
 40
1.0
 40
1.0
 40
1.0
 40
2.0
 40
2.0
 40
2.0
 40
3.0
 40
3.0
 40
3.0
 40
4.0
 40
4.0
 40
4.0
 40
4.0
 10
11.91177000792832
 20
1058.099670230171
 30
0.0
 10
11.91177000792832
 20
1055.051447733927
 30
0.0
 10
6.581514756810008
 20
1052.587513817432
 30
0.0
 10
0.0
 20
1052.587513817432
 30
0.0
 10
-6.581514756810008
 20
1052.587513817432
 30
0.0
 10
-11.91177000792833
 20
1055.051447733927
 30
0.0
 10
-11.91177000792833
 20
1058.099670230171
 30
0.0
 10
-11.91177000792833
 20
1061.13686841359
 30
0.0
 10
-6.581514756810008
 20
1063.61182664291
 30
0.0
 10
0.0
 20
1063.61182664291
 30
0.0
 10
6.581514756810008
 20
1063.61182664291
 30
0.0
 10
11.91177000792832
 20
1061.13686841359
 30
0.0
 10
11.91177000792832
 20
1058.099670230171
 30
0.0
  0
SPLINE
  5
4282
330
4274
100
AcDbEntity
  8
0
  6
AI-LINETYPE-5
 62
     7
100
AcDbSpline
210
0.0
220
0.0
230
1.0
 70
    11
 71
     3
 72
    20
 73
    16
 74
     0
 42
0.000000001
 43
0.0000000001
 40
0.0
 40
0.0
 40
0.0
 40
0.0
 40
1.0
 40
1.0
 40
1.0
 40
2.0
 40
2.0
 40
2.0
 40
3.0
 40
3.0
 40
3.0
 40
4.0
 40
4.0
 40
4.0
 40
5.0
 40
5.0
 40
5.0
 40
5.0
 10
-11.91177000792833
 20
1134.0957706926
 30
0.0
 10
-11.91177000792833
 20
1134.0957706926
 30
0.0
 10
-11.91177000792833
 20
908.0918456139004
 30
0.0
 10
-11.91177000792833
 20
908.0918456139004
 30
0.0
 10
-11.91177000792833
 20
908.0918456139004
 30
0.0
 10
11.91177000792832
 20
908.0918456139004
 30
0.0
 10
11.91177000792832
 20
908.0918456139004
 30
0.0
 10
11.91177000792832
 20
908.0918456139004
 30
0.0
 10
11.91177000792832
 20
1134.0957706926
 30
0.0
 10
11.91177000792832
 20
1134.0957706926
 30
0.0
 10
11.91177000792832
 20
1140.671773292997
 30
0.0
 10
6.581514756810008
 20
1146.002028544115
 30
0.0
 10
0.0
 20
1146.002028544115
 30
0.0
 10
-6.581514756810008
 20
1146.002028544115
 30
0.0
 10
-11.91177000792833
 20
1140.671773292997
 30
0.0
 10
-11.91177000792833
 20
1134.0957706926
 30
0.0
  0
SPLINE
  5
4283
330
4274
100
AcDbEntity
  8
0
  6
AI-LINETYPE-4
 62
     7
100
AcDbSpline
210
0.0
220
0.0
230
1.0
 70
    11
 71
     3
 72
    23
 73
    19
 74
     0
 42
0.000000001
 43
0.0000000001
 40
0.0
 40
0.0
 40
0.0
 40
0.0
 40
1.0
 40
1.0
 40
1.0
 40
2.0
 40
2.0
 40
2.0
 40
3.0
 40
3.0
 40
3.0
 40
4.0
 40
4.0
 40
4.0
 40
5.0
 40
5.0
 40
5.0
 40
6.0
 40
6.0
 40
6.0
 40
6.0
 10
26.01737826812666
 20
900.0937066590166
 30
0.0
 10
26.01737826812666
 20
900.0937066590166
 30
0.0
 10
-26.02289042453941
 20
900.0937066590166
 30
0.0
 10
-26.02289042453941
 20
900.0937066590166
 30
0.0
 10
-26.02289042453941
 20
900.0937066590166
 30
0.0
 10
-26.02289042453941
 20
906.5980512260483
 30
0.0
 10
-26.02289042453941
 20
906.5980512260483
 30
0.0
 10
-26.02289042453941
 20
907.424874687959
 30
0.0
 10
-25.33938302935981
 20
908.0918456139004
 30
0.0
 10
-24.51255956744901
 20
908.0918456139004
 30
0.0
 10
-24.51255956744901
 20
908.0918456139004
 30
0.0
 10
24.52358388027448
 20
908.0918456139004
 30
0.0
 10
24.52358388027448
 20
908.0918456139004
 30
0.0
 10
25.35040734218529
 20
908.0918456139004
 30
0.0
 10
26.01737826812666
 20
907.424874687959
 30
0.0
 10
26.01737826812666
 20
906.5980512260483
 30
0.0
 10
26.01737826812666
 20
906.5980512260483
 30
0.0
 10
26.01737826812666
 20
900.0937066590166
 30
0.0
 10
26.01737826812666
 20
900.0937066590166
 30
0.0
  0
LWPOLYLINE
  5
4284
330
4274
100
AcDbEntity
  8
0
 62
     7
100
AcDbPolyline
 90
        3
 70
     0
 43
0.0
 10
0.0
 20
549.5150466524223
 10
0.0
 20
579.9972716148674
 10
0.0
 20
610.4794965773123
  0
SPLINE
  5
4285
330
4274
100
AcDbEntity
  8
0
  6
AI-LINETYPE-3
 62
     7
100
AcDbSpline
210
0.0
220
0.0
230
1.0
 70
    11
 71
     3
 72
    17
 73
    13
 74
     0
 42
0.000000001
 43
0.0000000001
 40
0.0
 40
0.0
 40
0.0
 40
0.0
 40
1.0
 40
1.0
 40
1.0
 40
2.0
 40
2.0
 40
2.0
 40
3.0
 40
3.0
 40
3.0
 40
4.0
 40
4.0
 40
4.0
 40
4.0
 10
19.9705426833523
 20
579.9972716148674
 30
0.0
 10
19.9705426833523
 20
591.0215844403449
 30
0.0
 10
11.00777635623917
 20
599.9788386110451
 30
0.0
 10
0.0
 20
599.9788386110451
 30
0.0
 10
-11.0243128254774
 20
599.9788386110451
 30
0.0
 10
-19.97054268335232
 20
591.0215844403449
 30
0.0
 10
-19.97054268335232
 20
579.9972716148674
 30
0.0
 10
-19.97054268335232
 20
568.9564223201517
 30
0.0
 10
-11.0243128254774
 20
559.9991681494514
 30
0.0
 10
0.0
 20
559.9991681494514
 30
0.0
 10
11.00777635623917
 20
559.9991681494514
 30
0.0
 10
19.9705426833523
 20
568.9564223201517
 30
0.0
 10
19.9705426833523
 20
579.9972716148674
 30
0.0
  0
LWPOLYLINE
  5
4286
330
4274
100
AcDbEntity
  8
0
 62
     7
100
AcDbPolyline
 90
        3
 70
     0
 43
0.0
 10
-74.35347785143234
 20
649.9961459002362
 10
-59.96674961418434
 20
649.9961459002362
 10
-45.5910456897618
 20
649.9961459002362
  0
SPLINE
  5
4287
330
4274
100
AcDbEntity
  8
0
  6
AI-LINETYPE-2
 62
     7
100
AcDbSpline
210
0.0
220
0.0
230
1.0
 70
    11
 71
     3
 72
    17
 73
    13
 74
     0
 42
0.000000001
 43
0.0000000001
 40
0.0
 40
0.0
 40
0.0
 40
0.0
 40
1.0
 40
1.0
 40
1.0
 40
2.0
 40
2.0
 40
2.0
 40
3.0
 40
3.0
 40
3.0
 40
4.0
 40
4.0
 40
4.0
 40
4.0
 10
-49.97872219430181
 20
649.9961459002362
 30
0.0
 10
-49.97872219430181
 20
655.5083023129748
 30
0.0
 10
-54.46010535785838
 20
659.9896854765313
 30
0.0
 10
-59.96674961418434
 20
659.9896854765313
 30
0.0
 10
-65.46788171409754
 20
659.9896854765313
 30
0.0
 10
-69.9437527212414
 20
655.5083023129748
 30
0.0
 10
-69.9437527212414
 20
649.9961459002362
 30
0.0
 10
-69.9437527212414
 20
644.4839894874974
 30
0.0
 10
-65.46788171409754
 20
640.0081184803537
 30
0.0
 10
-59.96674961418434
 20
640.0081184803537
 30
0.0
 10
-54.46010535785838
 20
640.0081184803537
 30
0.0
 10
-49.97872219430181
 20
644.4839894874974
 30
0.0
 10
-49.97872219430181
 20
649.9961459002362
 30
0.0
  0
LWPOLYLINE
  5
4288
330
4274
100
AcDbEntity
  8
0
 62
     7
100
AcDbPolyline
 90
        3
 70
     0
 43
0.0
 10
-59.96674961418434
 20
634.7550334190136
 10
-59.96674961418434
 20
649.9961459002362
 10
-59.96674961418434
 20
665.2372583814586
  0
LWPOLYLINE
  5
4289
330
4274
100
AcDbEntity
  8
0
 62
     7
100
AcDbPolyline
 90
        3
 70
     0
 43
0.0
 10
59.95572530135885
 20
634.7550334190136
 10
59.95572530135885
 20
649.9961459002362
 10
59.95572530135885
 20
665.2372583814586
  0
LWPOLYLINE
  5
428A
330
4274
100
AcDbEntity
  8
0
 62
     7
100
AcDbPolyline
 90
        3
 70
     0
 43
0.0
 10
44.72563713296182
 20
649.9961459002362
 10
59.95572530135885
 20
649.9961459002362
 10
75.18030131334314
 20
649.9961459002362
  0
SPLINE
  5
428B
330
4274
100
AcDbEntity
  8
0
  6
AI-LINETYPE-1
 62
     7
100
AcDbSpline
210
0.0
220
0.0
230
1.0
 70
    11
 71
     3
 72
    17
 73
    13
 74
     0
 42
0.000000001
 43
0.0000000001
 40
0.0
 40
0.0
 40
0.0
 40
0.0
 40
1.0
 40
1.0
 40
1.0
 40
2.0
 40
2.0
 40
2.0
 40
3.0
 40
3.0
 40
3.0
 40
4.0
 40
4.0
 40
4.0
 40
4.0
 10
69.94375272124137
 20
649.9961459002362
 30
0.0
 10
69.94375272124137
 20
655.5083023129748
 30
0.0
 10
65.46788171409754
 20
659.9896854765313
 30
0.0
 10
59.95572530135885
 20
659.9896854765313
 30
0.0
 10
54.4380567322074
 20
659.9896854765313
 30
0.0
 10
49.97321003788906
 20
655.5083023129748
 30
0.0
 10
49.97321003788906
 20
649.9961459002362
 30
0.0
 10
49.97321003788906
 20
644.4839894874974
 30
0.0
 10
54.4380567322074
 20
640.0081184803537
 30
0.0
 10
59.95572530135885
 20
640.0081184803537
 30
0.0
 10
65.46788171409754
 20
640.0081184803537
 30
0.0
 10
69.94375272124137
 20
644.4839894874974
 30
0.0
 10
69.94375272124137
 20
649.9961459002362
 30
0.0
  0
LWPOLYLINE
  5
428C
330
4274
100
AcDbEntity
  8
0
 62
     7
100
AcDbPolyline
 90
        3
 70
     0
 43
0.0
 10
30.46017633679406
 20
579.9972716148674
 10
0.0165364692382184
 20
579.9972716148674
 10
-30.45466418038133
 20
579.9972716148674
  0
SPLINE
  5
428D
330
4274
100
AcDbEntity
  8
0
 62
     7
100
AcDbSpline
210
0.0
220
0.0
230
1.0
 70
    11
 71
     3
 72
    38
 73
    34
 74
     0
 42
0.000000001
 43
0.0000000001
 40
0.0
 40
0.0
 40
0.0
 40
0.0
 40
1.0
 40
1.0
 40
1.0
 40
2.0
 40
2.0
 40
2.0
 40
3.0
 40
3.0
 40
3.0
 40
4.0
 40
4.0
 40
4.0
 40
5.0
 40
5.0
 40
5.0
 40
6.0
 40
6.0
 40
6.0
 40
7.0
 40
7.0
 40
7.0
 40
8.0
 40
8.0
 40
8.0
 40
9.0
 40
9.0
 40
9.0
 40
10.0
 40
10.0
 40
10.0
 40
11.0
 40
11.0
 40
11.0
 40
11.0
 10
-243.1191707402531
 20
900.0
 30
0.0
 10
-246.9501194471065
 20
900.0
 30
0.0
 10
-250.0479513510657
 20
896.9021680960409
 30
0.0
 10
-250.0479513510657
 20
893.0822437020129
 30
0.0
 10
-250.0479513510657
 20
893.0436586071236
 30
0.0
 10
-250.0479513510657
 20
893.0105856686473
 30
0.0
 10
-250.0479513510657
 20
892.9775127301709
 30
0.0
 10
-250.0479513510657
 20
892.9775127301709
 30
0.0
 10
-250.5330211153867
 20
892.9775127301709
 30
0.0
 10
-250.5330211153867
 20
892.9775127301709
 30
0.0
 10
-250.5330211153867
 20
892.9775127301709
 30
0.0
 10
-248.2730369861638
 20
762.9236943280139
 30
0.0
 10
-248.2730369861638
 20
762.9236943280139
 30
0.0
 10
-248.2509883605128
 20
761.3251689683196
 30
0.0
 10
-246.9280708214556
 20
760.0022514292625
 30
0.0
 10
-245.3130089925231
 20
760.0022514292625
 30
0.0
 10
-245.3130089925231
 20
760.0022514292625
 30
0.0
 10
244.7783298204875
 20
760.0022514292625
 30
0.0
 10
244.7783298204875
 20
760.0022514292625
 30
0.0
 10
246.4154402750708
 20
760.0022514292625
 30
0.0
 10
247.7383578141282
 20
761.3251689683196
 30
0.0
 10
247.7714307526046
 20
762.9236943280139
 30
0.0
 10
247.7714307526046
 20
762.9236943280139
 30
0.0
 10
249.998341943351
 20
892.9775127301709
 30
0.0
 10
249.998341943351
 20
892.9775127301709
 30
0.0
 10
250.0644878203039
 20
896.7974371241988
 30
0.0
 10
247.0383139497104
 20
899.9338541230471
 30
0.0
 10
243.2128773992697
 20
900.0
 30
0.0
 10
243.1412193659041
 20
900.0
 30
0.0
 10
243.1136585838404
 20
900.0
 30
0.0
 10
243.0695613325385
 20
900.0
 30
0.0
 10
243.0695613325385
 20
900.0
 30
0.0
 10
-243.1191707402531
 20
900.0
 30
0.0
 10
-243.1191707402531
 20
900.0
 30
0.0
  0
LWPOLYLINE
  5
428E
330
4274
100
AcDbEntity
  8
0
 62
     7
100
AcDbPolyline
 90
        2
 70
     0
 43
0.0
 10
0.0
 20
713.3969689595566
 10
0.0
 20
776.7867677060518
  0
SPLINE
  5
428F
330
4274
100
AcDbEntity
  8
0
 62
     7
100
AcDbSpline
210
0.0
220
0.0
230
1.0
 70
     8
 71
     3
 72
    20
 73
    16
 74
     0
 42
0.000000001
 43
0.0000000001
 40
0.0
 40
0.0
 40
0.0
 40
0.0
 40
1.0
 40
1.0
 40
1.0
 40
2.0
 40
2.0
 40
2.0
 40
3.0
 40
3.0
 40
3.0
 40
4.0
 40
4.0
 40
4.0
 40
5.0
 40
5.0
 40
5.0
 40
5.0
 10
-35.42111710825889
 20
760.0959580882791
 30
0.0
 10
-35.42111710825889
 20
760.0959580882791
 30
0.0
 10
-34.68800030536465
 20
747.9030681033009
 30
0.0
 10
-34.68800030536465
 20
747.9030681033009
 30
0.0
 10
-34.61083011558631
 20
746.3321035256704
 30
0.0
 10
-33.30996120217998
 20
745.0918683328043
 30
0.0
 10
-31.72246015531122
 20
745.0918683328043
 30
0.0
 10
-31.72246015531122
 20
745.0918683328043
 30
0.0
 10
31.71694799889849
 20
745.0918683328043
 30
0.0
 10
31.71694799889849
 20
745.0918683328043
 30
0.0
 10
33.29342473294175
 20
745.0918683328043
 30
0.0
 10
34.59429364634809
 20
746.3321035256704
 30
0.0
 10
34.67697599253915
 20
747.9030681033009
 30
0.0
 10
34.67697599253915
 20
747.9030681033009
 30
0.0
 10
35.41560495184615
 20
760.0959580882791
 30
0.0
 10
35.41560495184615
 20
760.0959580882791
 30
0.0
  0
SPLINE
  5
4290
330
4274
100
AcDbEntity
  8
0
 62
     7
100
AcDbSpline
210
0.0
220
0.0
230
1.0
 70
    11
 71
     3
 72
    35
 73
    31
 74
     0
 42
0.000000001
 43
0.0000000001
 40
0.0
 40
0.0
 40
0.0
 40
0.0
 40
1.0
 40
1.0
 40
1.0
 40
2.0
 40
2.0
 40
2.0
 40
3.0
 40
3.0
 40
3.0
 40
4.0
 40
4.0
 40
4.0
 40
5.0
 40
5.0
 40
5.0
 40
6.0
 40
6.0
 40
6.0
 40
7.0
 40
7.0
 40
7.0
 40
8.0
 40
8.0
 40
8.0
 40
9.0
 40
9.0
 40
9.0
 40
10.0
 40
10.0
 40
10.0
 40
10.0
 10
-250.0479513510657
 20
892.9775127301709
 30
0.0
 10
-250.0479513510657
 20
892.9775127301709
 30
0.0
 10
-247.804503691081
 20
763.0504739255069
 30
0.0
 10
-247.804503691081
 20
763.0504739255069
 30
0.0
 10
-247.7769429090173
 20
761.4078513145108
 30
0.0
 10
-246.45402536996
 20
760.0959580882791
 30
0.0
 10
-244.8279392282021
 20
760.0959580882791
 30
0.0
 10
-244.8279392282021
 20
760.0959580882791
 30
0.0
 10
244.7893541333129
 20
760.0959580882791
 30
0.0
 10
244.7893541333129
 20
760.0959580882791
 30
0.0
 10
246.4099281186581
 20
760.0959580882791
 30
0.0
 10
247.7328456577154
 20
761.4078513145108
 30
0.0
 10
247.7548942833664
 20
763.0504739255069
 30
0.0
 10
247.7548942833664
 20
763.0504739255069
 30
0.0
 10
249.998341943351
 20
892.9775127301709
 30
0.0
 10
249.998341943351
 20
892.9775127301709
 30
0.0
 10
250.0644878203039
 20
896.8415343755006
 30
0.0
 10
247.0217774804721
 20
900.0275607820636
 30
0.0
 10
243.1963409300315
 20
900.0937066590166
 30
0.0
 10
243.1577558351423
 20
900.0937066590166
 30
0.0
 10
243.1136585838404
 20
900.0937066590166
 30
0.0
 10
243.0805856453639
 20
900.0937066590166
 30
0.0
 10
243.0805856453639
 20
900.0937066590166
 30
0.0
 10
243.1963409300315
 20
900.0937066590166
 30
0.0
 10
243.1963409300315
 20
900.0937066590166
 30
0.0
 10
243.1963409300315
 20
900.0937066590166
 30
0.0
 10
-243.1191707402531
 20
900.0937066590166
 30
0.0
 10
-243.1191707402531
 20
900.0937066590166
 30
0.0
 10
-246.9501194471065
 20
900.0881945026038
 30
0.0
 10
-250.0920486023676
 20
896.8415343755006
 30
0.0
 10
-250.0479513510657
 20
892.9775127301709
 30
0.0
  0
ENDBLK
  5
4291
330
4274
100
AcDbEntity
  8
0
100
AcDbBlockEnd
  0
BLOCK
  5
4322
330
4321
100
AcDbEntity
  8
0
100
AcDbBlockBegin
  2
*D29
 70
     1
 10
0.0
 20
0.0
 30
0.0
  3
*D29
  1
*D29
  0
LINE
  5
4324
330
4321
100
AcDbEntity
  8
MODEL
  6
Continuous
 62
     0
370
    -2
100
AcDbLine
 10
821.4906593530003
 20
2207.931154673845
 30
0.0
 11
821.4906593530003
 21
2483.5984620896
 31
0.0
  0
LINE
  5
4325
330
4321
100
AcDbEntity
  8
MODEL
  6
Continuous
 62
     0
370
    -2
100
AcDbLine
 10
821.4906593530003
 20
2207.931154673845
 30
0.0
 11
821.4906593530003
 21
2483.5984620896
 31
0.0
  0
LINE
  5
4326
330
4321
100
AcDbEntity
  8
MODEL
  6
Continuous
 62
     0
370
    -2
100
AcDbLine
 10
812.4906593530003
 20
2483.5984620896
 30
0.0
 11
803.4906593530003
 21
2483.5984620896
 31
0.0
  0
LINE
  5
4327
330
4321
100
AcDbEntity
  8
MODEL
  6
Continuous
 62
     0
370
    -2
100
AcDbLine
 10
830.4906593530003
 20
2483.5984620896
 30
0.0
 11
839.4906593530003
 21
2483.5984620896
 31
0.0
  0
INSERT
  5
4328
330
4321
100
AcDbEntity
  8
MODEL
 62
     0
370
    -2
100
AcDbBlockReference
  2
_DOT
 10
821.4906593530003
 20
2483.5984620896
 30
0.0
 41
9.0
 42
9.0
 43
9.0
  0
INSERT
  5
4329
330
4321
100
AcDbEntity
  8
MODEL
 62
     0
370
    -2
100
AcDbBlockReference
  2
_DOT
 10
821.4906593530003
 20
2483.5984620896
 30
0.0
 41
9.0
 42
9.0
 43
9.0
 50
180.0
  0
MTEXT
  5
432A
330
4321
100
AcDbEntity
  8
MODEL
  6
Continuous
 62
     0
370
     0
100
AcDbMText
 10
821.4906593530003
 20
2505.81477068335
 30
0.0
 40
24.4326171875
 41
0.0
 46
0.0
 71
     5
 72
     1
  1
\A1;0
  7
ＭＳ ゴシック
 73
     1
 44
1.0
  0
POINT
  5
432B
330
4321
100
AcDbEntity
  8
Defpoints
 62
     0
100
AcDbPoint
 10
821.4906593530003
 20
2182.931154673845
 30
0.0
  0
POINT
  5
432C
330
4321
100
AcDbEntity
  8
Defpoints
 62
     0
100
AcDbPoint
 10
821.4906593530003
 20
2182.931154673845
 30
0.0
  0
POINT
  5
4383
330
4321
100
AcDbEntity
  8
Defpoints
 62
     0
100
AcDbPoint
 10
821.4906593530003
 20
2483.5984620896
 30
0.0
  0
ENDBLK
  5
4323
330
4321
100
AcDbEntity
  8
0
100
AcDbBlockEnd
  0
BLOCK
  5
4331
330
4330
100
AcDbEntity
  8
0
100
AcDbBlockBegin
  2
*D30
 70
     1
 10
0.0
 20
0.0
 30
0.0
  3
*D30
  1
*D30
  0
LINE
  5
4333
330
4330
100
AcDbEntity
  8
MODEL
  6
Continuous
 62
     0
370
    -2
100
AcDbLine
 10
841.7359403365309
 20
2317.490223551314
 30
0.0
 11
908.5112434555497
 21
2317.490223551314
 31
0.0
  0
LINE
  5
4334
330
4330
100
AcDbEntity
  8
MODEL
  6
Continuous
 62
     0
370
    -2
100
AcDbLine
 10
839.1534283267174
 20
1892.480915503509
 30
0.0
 11
908.5112434555497
 21
1892.480915503509
 31
0.0
  0
LINE
  5
4335
330
4330
100
AcDbEntity
  8
MODEL
  6
Continuous
 62
     0
370
    -2
100
AcDbLine
 10
908.5112434555497
 20
2308.490223551314
 30
0.0
 11
908.5112434555497
 21
1901.480915503509
 31
0.0
  0
INSERT
  5
4336
330
4330
100
AcDbEntity
  8
MODEL
 62
     0
370
    -2
100
AcDbBlockReference
  2
_DOT
 10
908.5112434555497
 20
2317.490223551314
 30
0.0
 41
9.0
 42
9.0
 43
9.0
 50
90.0
  0
INSERT
  5
4337
330
4330
100
AcDbEntity
  8
MODEL
 62
     0
370
    -2
100
AcDbBlockReference
  2
_DOT
 10
908.5112434555497
 20
1892.480915503509
 30
0.0
 41
9.0
 42
9.0
 43
9.0
 50
270.0
  0
MTEXT
  5
4338
330
4330
100
AcDbEntity
  8
MODEL
  6
Continuous
 62
     0
370
    13
100
AcDbMText
 10
886.2949348617997
 20
2104.985569527412
 30
0.0
 40
24.4326171875
 41
0.0
 46
0.0
 71
     5
 72
     1
  1
\A1;425
  7
ＭＳ ゴシック
 11
0.0
 21
1.0
 31
0.0
 73
     1
 44
1.0
  0
POINT
  5
4339
330
4330
100
AcDbEntity
  8
Defpoints
 62
     0
100
AcDbPoint
 10
816.7359403365309
 20
2317.490223551314
 30
0.0
  0
POINT
  5
433A
330
4330
100
AcDbEntity
  8
Defpoints
 62
     0
100
AcDbPoint
 10
814.1534283267174
 20
1892.480915503509
 30
0.0
  0
POINT
  5
433B
330
4330
100
AcDbEntity
  8
Defpoints
 62
     0
100
AcDbPoint
 10
908.5112434555497
 20
1892.480915503509
 30
0.0
  0
ENDBLK
  5
4332
330
4330
100
AcDbEntity
  8
0
100
AcDbBlockEnd
  0
BLOCK
  5
4340
330
433F
100
AcDbEntity
  8
0
100
AcDbBlockBegin
  2
*D31
 70
     1
 10
0.0
 20
0.0
 30
0.0
  3
*D31
  1
*D31
  0
LINE
  5
4342
330
433F
100
AcDbEntity
  8
MODEL
  6
Continuous
 62
     0
370
    -2
100
AcDbLine
 10
349.2177735000945
 20
2157.931154673845
 30
0.0
 11
349.2177735000945
 21
1878.46827210019
 31
0.0
  0
LINE
  5
4343
330
433F
100
AcDbEntity
  8
MODEL
  6
Continuous
 62
     0
370
    -2
100
AcDbLine
 10
793.8466441021881
 20
2157.931154673845
 30
0.0
 11
793.8466441021881
 21
1878.46827210019
 31
0.0
  0
LINE
  5
4344
330
433F
100
AcDbEntity
  8
MODEL
  6
Continuous
 62
     0
370
    -2
100
AcDbLine
 10
358.2177735000945
 20
1878.46827210019
 30
0.0
 11
784.8466441021881
 21
1878.46827210019
 31
0.0
  0
INSERT
  5
4345
330
433F
100
AcDbEntity
  8
MODEL
 62
     0
370
    -2
100
AcDbBlockReference
  2
_DOT
 10
349.2177735000945
 20
1878.46827210019
 30
0.0
 41
9.0
 42
9.0
 43
9.0
 50
180.0
  0
INSERT
  5
4346
330
433F
100
AcDbEntity
  8
MODEL
 62
     0
370
    -2
100
AcDbBlockReference
  2
_DOT
 10
793.8466441021881
 20
1878.46827210019
 30
0.0
 41
9.0
 42
9.0
 43
9.0
  0
MTEXT
  5
4347
330
433F
100
AcDbEntity
  8
MODEL
  6
Continuous
 62
     0
370
     0
100
AcDbMText
 10
571.5322088011412
 20
1900.68458069394
 30
0.0
 40
24.4326171875
 41
0.0
 46
0.0
 71
     5
 72
     1
  1
\A1;440
  7
ＭＳ ゴシック
 73
     1
 44
1.0
  0
POINT
  5
4348
330
433F
100
AcDbEntity
  8
Defpoints
 62
     0
100
AcDbPoint
 10
349.2177735000945
 20
2182.931154673845
 30
0.0
  0
POINT
  5
4349
330
433F
100
AcDbEntity
  8
Defpoints
 62
     0
100
AcDbPoint
 10
793.8466441021881
 20
2182.931154673845
 30
0.0
  0
POINT
  5
434A
330
433F
100
AcDbEntity
  8
Defpoints
 62
     0
100
AcDbPoint
 10
793.8466441021881
 20
1878.46827210019
 30
0.0
  0
ENDBLK
  5
4341
330
433F
100
AcDbEntity
  8
0
100
AcDbBlockEnd
  0
BLOCK
  5
434F
330
434E
100
AcDbEntity
  8
0
100
AcDbBlockBegin
  2
*D32
 70
     1
 10
0.0
 20
0.0
 30
0.0
  3
*D32
  1
*D32
  0
LINE
  5
4351
330
434E
100
AcDbEntity
  8
MODEL
  6
Continuous
 62
     0
370
    -2
100
AcDbLine
 10
545.3287015656338
 20
2287.888124928802
 30
0.0
 11
248.1189234550718
 21
2287.888124928802
 31
0.0
  0
LINE
  5
4352
330
434E
100
AcDbEntity
  8
MODEL
  6
Continuous
 62
     0
370
    -2
100
AcDbLine
 10
546.4449132392133
 20
2032.31148069576
 30
0.0
 11
248.1189234550718
 21
2032.31148069576
 31
0.0
  0
LINE
  5
4353
330
434E
100
AcDbEntity
  8
MODEL
  6
Continuous
 62
     0
370
    -2
100
AcDbLine
 10
248.1189234550718
 20
2278.888124928802
 30
0.0
 11
248.1189234550718
 21
2041.31148069576
 31
0.0
  0
INSERT
  5
4354
330
434E
100
AcDbEntity
  8
MODEL
 62
     0
370
    -2
100
AcDbBlockReference
  2
_DOT
 10
248.1189234550718
 20
2287.888124928802
 30
0.0
 41
9.0
 42
9.0
 43
9.0
 50
90.0
  0
INSERT
  5
4355
330
434E
100
AcDbEntity
  8
MODEL
 62
     0
370
    -2
100
AcDbBlockReference
  2
_DOT
 10
248.1189234550718
 20
2032.31148069576
 30
0.0
 41
9.0
 42
9.0
 43
9.0
 50
270.0
  0
MTEXT
  5
4356
330
434E
100
AcDbEntity
  8
MODEL
  6
Continuous
 62
     0
370
     0
100
AcDbMText
 10
225.9026148613218
 20
2160.099802812281
 30
0.0
 40
24.4326171875
 41
0.0
 46
0.0
 71
     5
 72
     1
  1
\A1;250
  7
ＭＳ ゴシック
 11
1.112062078899831E-16
 21
1.0
 31
0.0
 73
     1
 44
1.0
  0
POINT
  5
4357
330
434E
100
AcDbEntity
  8
Defpoints
 62
     0
100
AcDbPoint
 10
570.3287015656338
 20
2287.888124928802
 30
0.0
  0
POINT
  5
4358
330
434E
100
AcDbEntity
  8
Defpoints
 62
     0
100
AcDbPoint
 10
571.4449132392133
 20
2032.31148069576
 30
0.0
  0
POINT
  5
4359
330
434E
100
AcDbEntity
  8
Defpoints
 62
     0
100
AcDbPoint
 10
248.1189234550718
 20
2032.31148069576
 30
0.0
  0
ENDBLK
  5
4350
330
434E
100
AcDbEntity
  8
0
100
AcDbBlockEnd
  0
BLOCK
  5
435D
330
435C
100
AcDbEntity
  8
0
100
AcDbBlockBegin
  2
*D33
 70
     1
 10
0.0
 20
0.0
 30
0.0
  3
*D33
  1
*D33
  0
LINE
  5
435F
330
435C
100
AcDbEntity
  8
MODEL
  6
Continuous
 62
     0
370
    -2
100
AcDbLine
 10
545.3287015656338
 20
2407.931867285426
 30
0.0
 11
249.5276306940725
 21
2407.931867285426
 31
0.0
  0
LINE
  5
4360
330
435C
100
AcDbEntity
  8
MODEL
  6
Continuous
 62
     0
370
    -2
100
AcDbLine
 10
545.3287015656338
 20
2282.931867285426
 30
0.0
 11
249.5276306940725
 21
2282.931867285426
 31
0.0
  0
LINE
  5
4361
330
435C
100
AcDbEntity
  8
MODEL
  6
Continuous
 62
     0
370
    -2
100
AcDbLine
 10
249.5276306940725
 20
2398.931867285426
 30
0.0
 11
249.5276306940725
 21
2291.931867285426
 31
0.0
  0
INSERT
  5
4362
330
435C
100
AcDbEntity
  8
MODEL
 62
     0
370
    -2
100
AcDbBlockReference
  2
_DOT
 10
249.5276306940725
 20
2407.931867285426
 30
0.0
 41
9.0
 42
9.0
 43
9.0
 50
90.0
  0
INSERT
  5
4363
330
435C
100
AcDbEntity
  8
MODEL
 62
     0
370
    -2
100
AcDbBlockReference
  2
_DOT
 10
249.5276306940725
 20
2282.931867285426
 30
0.0
 41
9.0
 42
9.0
 43
9.0
 50
270.0
  0
MTEXT
  5
4364
330
435C
100
AcDbEntity
  8
MODEL
  6
Continuous
 62
     0
370
     0
100
AcDbMText
 10
227.3113221003225
 20
2345.431867285426
 30
0.0
 40
24.4326171875
 41
0.0
 46
0.0
 71
     5
 72
     1
  1
\A1;125
  7
ＭＳ ゴシック
 11
0.0
 21
1.0
 31
0.0
 73
     1
 44
1.0
  0
POINT
  5
4365
330
435C
100
AcDbEntity
  8
Defpoints
 62
     0
100
AcDbPoint
 10
570.3287015656338
 20
2407.931867285426
 30
0.0
  0
POINT
  5
4366
330
435C
100
AcDbEntity
  8
Defpoints
 62
     0
100
AcDbPoint
 10
570.3287015656338
 20
2282.931867285426
 30
0.0
  0
POINT
  5
4367
330
435C
100
AcDbEntity
  8
Defpoints
 62
     0
100
AcDbPoint
 10
249.5276306940725
 20
2282.931867285426
 30
0.0
  0
ENDBLK
  5
435E
330
435C
100
AcDbEntity
  8
0
100
AcDbBlockEnd
  0
BLOCK
  5
436A
330
4369
100
AcDbEntity
  8
0
100
AcDbBlockBegin
  2
*D34
 70
     1
 10
0.0
 20
0.0
 30
0.0
  3
*D34
  1
*D34
  0
LINE
  5
436C
330
4369
100
AcDbEntity
  8
MODEL
  6
Continuous
 62
     0
370
    -2
100
AcDbLine
 10
545.3287015656338
 20
1982.911481960013
 30
0.0
 11
244.5628020138529
 21
1982.911481960013
 31
0.0
  0
LINE
  5
436D
330
4369
100
AcDbEntity
  8
MODEL
  6
Continuous
 62
     0
370
    -2
100
AcDbLine
 10
369.9457517897433
 20
2032.911481960013
 30
0.0
 11
244.5628020138529
 21
2032.911481960013
 31
0.0
  0
LINE
  5
436E
330
4369
100
AcDbEntity
  8
MODEL
  6
Continuous
 62
     0
370
    -2
100
AcDbLine
 10
244.5628020138529
 20
1991.911481960013
 30
0.0
 11
244.5628020138529
 21
2023.911481960013
 31
0.0
  0
INSERT
  5
436F
330
4369
100
AcDbEntity
  8
MODEL
 62
     0
370
    -2
100
AcDbBlockReference
  2
_DOT
 10
244.5628020138529
 20
1982.911481960013
 30
0.0
 41
9.0
 42
9.0
 43
9.0
 50
270.0
  0
INSERT
  5
4370
330
4369
100
AcDbEntity
  8
MODEL
 62
     0
370
    -2
100
AcDbBlockReference
  2
_DOT
 10
244.5628020138529
 20
2032.911481960013
 30
0.0
 41
9.0
 42
9.0
 43
9.0
 50
90.0
  0
MTEXT
  5
4371
330
4369
100
AcDbEntity
  8
MODEL
  6
Continuous
 62
     0
370
     0
100
AcDbMText
 10
222.3464934201029
 20
2007.911481960013
 30
0.0
 40
24.4326171875
 41
0.0
 46
0.0
 71
     5
 72
     1
  1
\A1;50
  7
ＭＳ ゴシック
 11
0.0
 21
1.0
 31
0.0
 73
     1
 44
1.0
  0
POINT
  5
4372
330
4369
100
AcDbEntity
  8
Defpoints
 62
     0
100
AcDbPoint
 10
570.3287015656338
 20
1982.911481960013
 30
0.0
  0
POINT
  5
4373
330
4369
100
AcDbEntity
  8
Defpoints
 62
     0
100
AcDbPoint
 10
394.9457517897433
 20
2032.911481960013
 30
0.0
  0
POINT
  5
4374
330
4369
100
AcDbEntity
  8
Defpoints
 62
     0
100
AcDbPoint
 10
244.5628020138529
 20
2032.911481960013
 30
0.0
  0
ENDBLK
  5
436B
330
4369
100
AcDbEntity
  8
0
100
AcDbBlockEnd
  0
BLOCK
  5
4388
330
4387
100
AcDbEntity
  8
0
100
AcDbBlockBegin
  2
*D35
 70
     1
 10
0.0
 20
0.0
 30
0.0
  3
*D35
  1
*D35
  0
LINE
  5
438A
330
4387
100
AcDbEntity
  8
MODEL
  6
Continuous
 62
     0
370
    -2
100
AcDbLine
 10
335.3337381790174
 20
2192.490223551314
 30
0.0
 11
230.3546966046064
 21
2192.490223551314
 31
0.0
  0
LINE
  5
438B
330
4387
100
AcDbEntity
  8
MODEL
  6
Continuous
 62
     0
370
    -2
100
AcDbLine
 10
335.3337381790174
 20
1942.469838225901
 30
0.0
 11
230.3546966046064
 21
1942.469838225901
 31
0.0
  0
LINE
  5
438C
330
4387
100
AcDbEntity
  8
MODEL
  6
Continuous
 62
     0
370
    -2
100
AcDbLine
 10
230.3546966046064
 20
2183.490223551314
 30
0.0
 11
230.3546966046064
 21
1951.469838225901
 31
0.0
  0
INSERT
  5
438D
330
4387
100
AcDbEntity
  8
MODEL
 62
     0
370
    -2
100
AcDbBlockReference
  2
_DOT
 10
230.3546966046064
 20
2192.490223551314
 30
0.0
 41
9.0
 42
9.0
 43
9.0
 50
90.0
  0
INSERT
  5
438E
330
4387
100
AcDbEntity
  8
MODEL
 62
     0
370
    -2
100
AcDbBlockReference
  2
_DOT
 10
230.3546966046064
 20
1942.469838225901
 30
0.0
 41
9.0
 42
9.0
 43
9.0
 50
270.0
  0
MTEXT
  5
438F
330
4387
100
AcDbEntity
  8
MODEL
  6
Continuous
 62
     0
370
    13
100
AcDbMText
 10
208.1383880108564
 20
2067.480030888607
 30
0.0
 40
24.4326171875
 41
0.0
 46
0.0
 71
     5
 72
     1
  1
\A1;250
  7
ＭＳ ゴシック
 11
1.136775683047278E-16
 21
1.0
 31
0.0
 73
     1
 44
1.0
  0
POINT
  5
4390
330
4387
100
AcDbEntity
  8
Defpoints
 62
     0
100
AcDbPoint
 10
360.3337381790174
 20
2192.490223551314
 30
0.0
  0
POINT
  5
4391
330
4387
100
AcDbEntity
  8
Defpoints
 62
     0
100
AcDbPoint
 10
360.3337381790174
 20
1942.469838225901
 30
0.0
  0
POINT
  5
4392
330
4387
100
AcDbEntity
  8
Defpoints
 62
     0
100
AcDbPoint
 10
230.3546966046064
 20
1942.469838225901
 30
0.0
  0
ENDBLK
  5
4389
330
4387
100
AcDbEntity
  8
0
100
AcDbBlockEnd
  0
BLOCK
  5
4397
330
4396
100
AcDbEntity
  8
0
100
AcDbBlockBegin
  2
*D36
 70
     1
 10
0.0
 20
0.0
 30
0.0
  3
*D36
  1
*D36
  0
LINE
  5
4399
330
4396
100
AcDbEntity
  8
MODEL
  6
Continuous
 62
     0
370
    -2
100
AcDbLine
 10
350.3337381790174
 20
1927.469838225901
 30
0.0
 11
350.3337381790174
 21
1815.710194775093
 31
0.0
  0
LINE
  5
439A
330
4396
100
AcDbEntity
  8
MODEL
  6
Continuous
 62
     0
370
    -2
100
AcDbLine
 10
790.3236649522502
 20
1927.469838225901
 30
0.0
 11
790.3236649522502
 21
1815.710194775093
 31
0.0
  0
LINE
  5
439B
330
4396
100
AcDbEntity
  8
MODEL
  6
Continuous
 62
     0
370
    -2
100
AcDbLine
 10
359.3337381790174
 20
1815.710194775093
 30
0.0
 11
781.3236649522502
 21
1815.710194775093
 31
0.0
  0
INSERT
  5
439C
330
4396
100
AcDbEntity
  8
MODEL
 62
     0
370
    -2
100
AcDbBlockReference
  2
_DOT
 10
350.3337381790174
 20
1815.710194775093
 30
0.0
 41
9.0
 42
9.0
 43
9.0
 50
180.0
  0
INSERT
  5
439D
330
4396
100
AcDbEntity
  8
MODEL
 62
     0
370
    -2
100
AcDbBlockReference
  2
_DOT
 10
790.3236649522502
 20
1815.710194775093
 30
0.0
 41
9.0
 42
9.0
 43
9.0
  0
MTEXT
  5
439E
330
4396
100
AcDbEntity
  8
MODEL
  6
Continuous
 62
     0
370
    13
100
AcDbMText
 10
570.3287015656338
 20
1837.926503368843
 30
0.0
 40
24.4326171875
 41
0.0
 46
0.0
 71
     5
 72
     1
  1
\A1;440
  7
ＭＳ ゴシック
 73
     1
 44
1.0
  0
POINT
  5
439F
330
4396
100
AcDbEntity
  8
Defpoints
 62
     0
100
AcDbPoint
 10
350.3337381790174
 20
1952.469838225901
 30
0.0
  0
POINT
  5
43A0
330
4396
100
AcDbEntity
  8
Defpoints
 62
     0
100
AcDbPoint
 10
790.3236649522502
 20
1952.469838225901
 30
0.0
  0
POINT
  5
43A1
330
4396
100
AcDbEntity
  8
Defpoints
 62
     0
100
AcDbPoint
 10
790.3236649522502
 20
1815.710194775093
 30
0.0
  0
ENDBLK
  5
4398
330
4396
100
AcDbEntity
  8
0
100
AcDbBlockEnd
  0
BLOCK
  5
43A6
330
43A5
100
AcDbEntity
  8
0
100
AcDbBlockBegin
  2
*D37
 70
     1
 10
0.0
 20
0.0
 30
0.0
  3
*D37
  1
*D37
  0
LINE
  5
43A8
330
43A5
100
AcDbEntity
  8
MODEL
  6
Continuous
 62
     0
370
    -2
100
AcDbLine
 10
296.5846934104023
 20
2192.490223551314
 30
0.0
 11
230.3546966046065
 21
2192.490223551314
 31
0.0
  0
LINE
  5
43A9
330
43A5
100
AcDbEntity
  8
MODEL
  6
Continuous
 62
     0
370
    -2
100
AcDbLine
 10
298.4142727547026
 20
2317.490223551314
 30
0.0
 11
230.3546966046065
 21
2317.490223551314
 31
0.0
  0
LINE
  5
43AA
330
43A5
100
AcDbEntity
  8
MODEL
  6
Continuous
 62
     0
370
    -2
100
AcDbLine
 10
230.3546966046065
 20
2201.490223551314
 30
0.0
 11
230.3546966046065
 21
2308.490223551314
 31
0.0
  0
INSERT
  5
43AB
330
43A5
100
AcDbEntity
  8
MODEL
 62
     0
370
    -2
100
AcDbBlockReference
  2
_DOT
 10
230.3546966046065
 20
2192.490223551314
 30
0.0
 41
9.0
 42
9.0
 43
9.0
 50
270.0
  0
INSERT
  5
43AC
330
43A5
100
AcDbEntity
  8
MODEL
 62
     0
370
    -2
100
AcDbBlockReference
  2
_DOT
 10
230.3546966046065
 20
2317.490223551314
 30
0.0
 41
9.0
 42
9.0
 43
9.0
 50
90.0
  0
MTEXT
  5
43AD
330
43A5
100
AcDbEntity
  8
MODEL
  6
Continuous
 62
     0
370
    13
100
AcDbMText
 10
208.1383880108565
 20
2254.990223551314
 30
0.0
 40
24.4326171875
 41
0.0
 46
0.0
 71
     5
 72
     1
  1
\A1;125
  7
ＭＳ ゴシック
 11
0.0
 21
1.0
 31
0.0
 73
     1
 44
1.0
  0
POINT
  5
43AE
330
43A5
100
AcDbEntity
  8
Defpoints
 62
     0
100
AcDbPoint
 10
321.5846934104023
 20
2192.490223551314
 30
0.0
  0
POINT
  5
43AF
330
43A5
100
AcDbEntity
  8
Defpoints
 62
     0
100
AcDbPoint
 10
323.4142727547026
 20
2317.490223551314
 30
0.0
  0
POINT
  5
43B0
330
43A5
100
AcDbEntity
  8
Defpoints
 62
     0
100
AcDbPoint
 10
230.3546966046065
 20
2317.490223551314
 30
0.0
  0
ENDBLK
  5
43A7
330
43A5
100
AcDbEntity
  8
0
100
AcDbBlockEnd
  0
BLOCK
  5
43B8
330
43B7
100
AcDbEntity
  8
0
100
AcDbBlockBegin
  2
*D38
 70
     1
 10
0.0
 20
0.0
 30
0.0
  3
*D38
  1
*D38
  0
LINE
  5
43BA
330
43B7
100
AcDbEntity
  8
MODEL
  6
Continuous
 62
     0
370
    -2
100
AcDbLine
 10
321.5846934104023
 20
2329.821984923268
 30
0.0
 11
321.5846934104023
 21
2470.653138523554
 31
0.0
  0
LINE
  5
43BB
330
43B7
100
AcDbEntity
  8
MODEL
  6
Continuous
 62
     0
370
    -2
100
AcDbLine
 10
821.4022901424133
 20
2330.839891372386
 30
0.0
 11
821.4022901424133
 21
2470.653138523554
 31
0.0
  0
LINE
  5
43BC
330
43B7
100
AcDbEntity
  8
MODEL
  6
Continuous
 62
     0
370
    -2
100
AcDbLine
 10
330.5846934104023
 20
2470.653138523554
 30
0.0
 11
812.4022901424133
 21
2470.653138523554
 31
0.0
  0
INSERT
  5
43BD
330
43B7
100
AcDbEntity
  8
MODEL
 62
     0
370
    -2
100
AcDbBlockReference
  2
_DOT
 10
321.5846934104023
 20
2470.653138523554
 30
0.0
 41
9.0
 42
9.0
 43
9.0
 50
180.0
  0
INSERT
  5
43BE
330
43B7
100
AcDbEntity
  8
MODEL
 62
     0
370
    -2
100
AcDbBlockReference
  2
_DOT
 10
821.4022901424133
 20
2470.653138523554
 30
0.0
 41
9.0
 42
9.0
 43
9.0
  0
MTEXT
  5
43BF
330
43B7
100
AcDbEntity
  8
MODEL
  6
Continuous
 62
     0
370
    13
100
AcDbMText
 10
571.4934917764078
 20
2492.869447117304
 30
0.0
 40
24.4326171875
 41
0.0
 46
0.0
 71
     5
 72
     1
  1
\A1;500
  7
ＭＳ ゴシック
 73
     1
 44
1.0
  0
POINT
  5
43C0
330
43B7
100
AcDbEntity
  8
Defpoints
 62
     0
100
AcDbPoint
 10
321.5846934104023
 20
2304.821984923268
 30
0.0
  0
POINT
  5
43C1
330
43B7
100
AcDbEntity
  8
Defpoints
 62
     0
100
AcDbPoint
 10
821.4022901424133
 20
2305.839891372386
 30
0.0
  0
POINT
  5
43C2
330
43B7
100
AcDbEntity
  8
Defpoints
 62
     0
100
AcDbPoint
 10
821.4022901424133
 20
2470.653138523554
 30
0.0
  0
ENDBLK
  5
43B9
330
43B7
100
AcDbEntity
  8
0
100
AcDbBlockEnd
  0
BLOCK
  5
4403
330
4402
100
AcDbEntity
  8
0
100
AcDbBlockBegin
  2
*D39
 70
     1
 10
0.0
 20
0.0
 30
0.0
  3
*D39
  1
*D39
  0
LINE
  5
4405
330
4402
100
AcDbEntity
  8
MODEL
  6
Continuous
 62
     0
370
    -2
100
AcDbLine
 10
1761.416297609673
 20
2407.931867285427
 30
0.0
 11
1828.191600728692
 21
2407.931867285427
 31
0.0
  0
LINE
  5
4406
330
4402
100
AcDbEntity
  8
MODEL
  6
Continuous
 62
     0
370
    -2
100
AcDbLine
 10
1758.833785599859
 20
1982.922559237621
 30
0.0
 11
1828.191600728692
 21
1982.922559237621
 31
0.0
  0
LINE
  5
4407
330
4402
100
AcDbEntity
  8
MODEL
  6
Continuous
 62
     0
370
    -2
100
AcDbLine
 10
1828.191600728692
 20
2398.931867285427
 30
0.0
 11
1828.191600728692
 21
1991.922559237621
 31
0.0
  0
INSERT
  5
4408
330
4402
100
AcDbEntity
  8
MODEL
 62
     0
370
    -2
100
AcDbBlockReference
  2
_DOT
 10
1828.191600728692
 20
2407.931867285427
 30
0.0
 41
9.0
 42
9.0
 43
9.0
 50
90.0
  0
INSERT
  5
4409
330
4402
100
AcDbEntity
  8
MODEL
 62
     0
370
    -2
100
AcDbBlockReference
  2
_DOT
 10
1828.191600728692
 20
1982.922559237621
 30
0.0
 41
9.0
 42
9.0
 43
9.0
 50
270.0
  0
MTEXT
  5
440A
330
4402
100
AcDbEntity
  8
MODEL
  6
Continuous
 62
     0
370
     0
100
AcDbMText
 10
1805.975292134942
 20
2195.427213261524
 30
0.0
 40
24.4326171875
 41
0.0
 46
0.0
 71
     5
 72
     1
  1
\A1;425
  7
ＭＳ ゴシック
 11
0.0
 21
1.0
 31
0.0
 73
     1
 44
1.0
  0
POINT
  5
440B
330
4402
100
AcDbEntity
  8
Defpoints
 62
     0
100
AcDbPoint
 10
1736.416297609673
 20
2407.931867285427
 30
0.0
  0
POINT
  5
440C
330
4402
100
AcDbEntity
  8
Defpoints
 62
     0
100
AcDbPoint
 10
1733.833785599859
 20
1982.922559237621
 30
0.0
  0
POINT
  5
440D
330
4402
100
AcDbEntity
  8
Defpoints
 62
     0
100
AcDbPoint
 10
1828.191600728692
 20
1982.922559237621
 30
0.0
  0
ENDBLK
  5
4404
330
4402
100
AcDbEntity
  8
0
100
AcDbBlockEnd
  0
BLOCK
  5
440F
330
440E
100
AcDbEntity
  8
0
100
AcDbBlockBegin
  2
*D40
 70
     1
 10
0.0
 20
0.0
 30
0.0
  3
*D40
  1
*D40
  0
LINE
  5
4411
330
440E
100
AcDbEntity
  8
MODEL
  6
Continuous
 62
     0
370
    -2
100
AcDbLine
 10
1255.014095452159
 20
2282.931867285427
 30
0.0
 11
1172.251362471498
 21
2282.931867285427
 31
0.0
  0
LINE
  5
4412
330
440E
100
AcDbEntity
  8
MODEL
  6
Continuous
 62
     0
370
    -2
100
AcDbLine
 10
1255.014095452159
 20
2032.911481960013
 30
0.0
 11
1172.251362471498
 21
2032.911481960013
 31
0.0
  0
LINE
  5
4413
330
440E
100
AcDbEntity
  8
MODEL
  6
Continuous
 62
     0
370
    -2
100
AcDbLine
 10
1172.251362471498
 20
2273.931867285427
 30
0.0
 11
1172.251362471498
 21
2041.911481960013
 31
0.0
  0
INSERT
  5
4414
330
440E
100
AcDbEntity
  8
MODEL
 62
     0
370
    -2
100
AcDbBlockReference
  2
_DOT
 10
1172.251362471498
 20
2282.931867285427
 30
0.0
 41
9.0
 42
9.0
 43
9.0
 50
90.0
  0
INSERT
  5
4415
330
440E
100
AcDbEntity
  8
MODEL
 62
     0
370
    -2
100
AcDbBlockReference
  2
_DOT
 10
1172.251362471498
 20
2032.911481960013
 30
0.0
 41
9.0
 42
9.0
 43
9.0
 50
270.0
  0
MTEXT
  5
4416
330
440E
100
AcDbEntity
  8
MODEL
  6
Continuous
 62
     0
370
     0
100
AcDbMText
 10
1150.035053877748
 20
2157.92167462272
 30
0.0
 40
24.4326171875
 41
0.0
 46
0.0
 71
     5
 72
     1
  1
\A1;250
  7
ＭＳ ゴシック
 11
0.0
 21
1.0
 31
0.0
 73
     1
 44
1.0
  0
POINT
  5
4417
330
440E
100
AcDbEntity
  8
Defpoints
 62
     0
100
AcDbPoint
 10
1280.014095452159
 20
2282.931867285427
 30
0.0
  0
POINT
  5
4418
330
440E
100
AcDbEntity
  8
Defpoints
 62
     0
100
AcDbPoint
 10
1280.014095452159
 20
2032.911481960013
 30
0.0
  0
POINT
  5
4419
330
440E
100
AcDbEntity
  8
Defpoints
 62
     0
100
AcDbPoint
 10
1172.251362471498
 20
2032.911481960013
 30
0.0
  0
ENDBLK
  5
4410
330
440E
100
AcDbEntity
  8
0
100
AcDbBlockEnd
  0
BLOCK
  5
441B
330
441A
100
AcDbEntity
  8
0
100
AcDbBlockBegin
  2
*D41
 70
     1
 10
0.0
 20
0.0
 30
0.0
  3
*D41
  1
*D41
  0
LINE
  5
441D
330
441A
100
AcDbEntity
  8
MODEL
  6
Continuous
 62
     0
370
    -2
100
AcDbLine
 10
1270.014095452159
 20
2017.911481960013
 30
0.0
 11
1270.014095452159
 21
1906.151838509205
 31
0.0
  0
LINE
  5
441E
330
441A
100
AcDbEntity
  8
MODEL
  6
Continuous
 62
     0
370
    -2
100
AcDbLine
 10
1710.004022225392
 20
2017.911481960013
 30
0.0
 11
1710.004022225392
 21
1906.151838509205
 31
0.0
  0
LINE
  5
441F
330
441A
100
AcDbEntity
  8
MODEL
  6
Continuous
 62
     0
370
    -2
100
AcDbLine
 10
1279.014095452159
 20
1906.151838509205
 30
0.0
 11
1701.004022225392
 21
1906.151838509205
 31
0.0
  0
INSERT
  5
4420
330
441A
100
AcDbEntity
  8
MODEL
 62
     0
370
    -2
100
AcDbBlockReference
  2
_DOT
 10
1270.014095452159
 20
1906.151838509205
 30
0.0
 41
9.0
 42
9.0
 43
9.0
 50
180.0
  0
INSERT
  5
4421
330
441A
100
AcDbEntity
  8
MODEL
 62
     0
370
    -2
100
AcDbBlockReference
  2
_DOT
 10
1710.004022225392
 20
1906.151838509205
 30
0.0
 41
9.0
 42
9.0
 43
9.0
  0
MTEXT
  5
4422
330
441A
100
AcDbEntity
  8
MODEL
  6
Continuous
 62
     0
370
     0
100
AcDbMText
 10
1490.009058838776
 20
1928.368147102955
 30
0.0
 40
24.4326171875
 41
0.0
 46
0.0
 71
     5
 72
     1
  1
\A1;440
  7
ＭＳ ゴシック
 73
     1
 44
1.0
  0
POINT
  5
4423
330
441A
100
AcDbEntity
  8
Defpoints
 62
     0
100
AcDbPoint
 10
1270.014095452159
 20
2042.911481960013
 30
0.0
  0
POINT
  5
4424
330
441A
100
AcDbEntity
  8
Defpoints
 62
     0
100
AcDbPoint
 10
1710.004022225392
 20
2042.911481960013
 30
0.0
  0
POINT
  5
4425
330
441A
100
AcDbEntity
  8
Defpoints
 62
     0
100
AcDbPoint
 10
1710.004022225392
 20
1906.151838509205
 30
0.0
  0
ENDBLK
  5
441C
330
441A
100
AcDbEntity
  8
0
100
AcDbBlockEnd
  0
BLOCK
  5
4427
330
4426
100
AcDbEntity
  8
0
100
AcDbBlockBegin
  2
*D42
 70
     1
 10
0.0
 20
0.0
 30
0.0
  3
*D42
  1
*D42
  0
LINE
  5
4429
330
4426
100
AcDbEntity
  8
MODEL
  6
Continuous
 62
     0
370
    -2
100
AcDbLine
 10
1216.265050683544
 20
2282.931867285427
 30
0.0
 11
1172.251362471498
 21
2282.931867285427
 31
0.0
  0
LINE
  5
442A
330
4426
100
AcDbEntity
  8
MODEL
  6
Continuous
 62
     0
370
    -2
100
AcDbLine
 10
1218.084433115078
 20
2406.469767796948
 30
0.0
 11
1172.251362471498
 21
2406.469767796948
 31
0.0
  0
LINE
  5
442B
330
4426
100
AcDbEntity
  8
MODEL
  6
Continuous
 62
     0
370
    -2
100
AcDbLine
 10
1172.251362471498
 20
2291.931867285427
 30
0.0
 11
1172.251362471498
 21
2397.469767796948
 31
0.0
  0
INSERT
  5
442C
330
4426
100
AcDbEntity
  8
MODEL
 62
     0
370
    -2
100
AcDbBlockReference
  2
_DOT
 10
1172.251362471498
 20
2282.931867285427
 30
0.0
 41
9.0
 42
9.0
 43
9.0
 50
270.0
  0
INSERT
  5
442D
330
4426
100
AcDbEntity
  8
MODEL
 62
     0
370
    -2
100
AcDbBlockReference
  2
_DOT
 10
1172.251362471498
 20
2406.469767796948
 30
0.0
 41
9.0
 42
9.0
 43
9.0
 50
90.0
  0
MTEXT
  5
442E
330
4426
100
AcDbEntity
  8
MODEL
  6
Continuous
 62
     0
370
     0
100
AcDbMText
 10
1150.035053877748
 20
2344.700817541187
 30
0.0
 40
24.4326171875
 41
0.0
 46
0.0
 71
     5
 72
     1
  1
\A1;124
  7
ＭＳ ゴシック
 11
0.0
 21
1.0
 31
0.0
 73
     1
 44
1.0
  0
POINT
  5
442F
330
4426
100
AcDbEntity
  8
Defpoints
 62
     0
100
AcDbPoint
 10
1241.265050683544
 20
2282.931867285427
 30
0.0
  0
POINT
  5
4430
330
4426
100
AcDbEntity
  8
Defpoints
 62
     0
100
AcDbPoint
 10
1243.084433115078
 20
2406.469767796948
 30
0.0
  0
POINT
  5
4431
330
4426
100
AcDbEntity
  8
Defpoints
 62
     0
100
AcDbPoint
 10
1172.251362471498
 20
2406.469767796948
 30
0.0
  0
ENDBLK
  5
4428
330
4426
100
AcDbEntity
  8
0
100
AcDbBlockEnd
  0
BLOCK
  5
4433
330
4432
100
AcDbEntity
  8
0
100
AcDbBlockBegin
  2
*D43
 70
     1
 10
0.0
 20
0.0
 30
0.0
  3
*D43
  1
*D43
  0
LINE
  5
4435
330
4432
100
AcDbEntity
  8
MODEL
  6
Continuous
 62
     0
370
    -2
100
AcDbLine
 10
1241.265050683544
 20
2420.263628657381
 30
0.0
 11
1241.265050683544
 21
2483.613296478452
 31
0.0
  0
LINE
  5
4436
330
4432
100
AcDbEntity
  8
MODEL
  6
Continuous
 62
     0
370
    -2
100
AcDbLine
 10
1741.082647415555
 20
2421.281535106499
 30
0.0
 11
1741.082647415555
 21
2483.613296478452
 31
0.0
  0
LINE
  5
4437
330
4432
100
AcDbEntity
  8
MODEL
  6
Continuous
 62
     0
370
    -2
100
AcDbLine
 10
1250.265050683544
 20
2483.613296478452
 30
0.0
 11
1732.082647415555
 21
2483.613296478452
 31
0.0
  0
INSERT
  5
4438
330
4432
100
AcDbEntity
  8
MODEL
 62
     0
370
    -2
100
AcDbBlockReference
  2
_DOT
 10
1241.265050683544
 20
2483.613296478452
 30
0.0
 41
9.0
 42
9.0
 43
9.0
 50
180.0
  0
INSERT
  5
4439
330
4432
100
AcDbEntity
  8
MODEL
 62
     0
370
    -2
100
AcDbBlockReference
  2
_DOT
 10
1741.082647415555
 20
2483.613296478452
 30
0.0
 41
9.0
 42
9.0
 43
9.0
  0
MTEXT
  5
443A
330
4432
100
AcDbEntity
  8
MODEL
  6
Continuous
 62
     0
370
     0
100
AcDbMText
 10
1491.17384904955
 20
2505.829605072202
 30
0.0
 40
24.4326171875
 41
0.0
 46
0.0
 71
     5
 72
     1
  1
\A1;500
  7
ＭＳ ゴシック
 73
     1
 44
1.0
  0
POINT
  5
443B
330
4432
100
AcDbEntity
  8
Defpoints
 62
     0
100
AcDbPoint
 10
1241.265050683544
 20
2395.263628657381
 30
0.0
  0
POINT
  5
443C
330
4432
100
AcDbEntity
  8
Defpoints
 62
     0
100
AcDbPoint
 10
1741.082647415555
 20
2396.281535106499
 30
0.0
  0
POINT
  5
443D
330
4432
100
AcDbEntity
  8
Defpoints
 62
     0
100
AcDbPoint
 10
1741.082647415555
 20
2483.613296478452
 30
0.0
  0
ENDBLK
  5
4434
330
4432
100
AcDbEntity
  8
0
100
AcDbBlockEnd
  0
BLOCK
  5
4493
330
4492
100
AcDbEntity
  8
0
100
AcDbBlockBegin
  2
*D44
 70
     1
 10
0.0
 20
0.0
 30
0.0
  3
*D44
  1
*D45
  0
LINE
  5
4495
330
4492
100
AcDbEntity
  8
MODEL
  6
Continuous
 62
     0
370
    -2
100
AcDbLine
 10
595.328701565634
 20
1065.023533746553
 30
0.0
 11
667.8629160878365
 21
1065.023533746553
 31
0.0
  0
LINE
  5
4496
330
4492
100
AcDbEntity
  8
MODEL
  6
Continuous
 62
     0
370
    -2
100
AcDbLine
 10
595.3287015656434
 20
1175.023533746552
 30
0.0
 11
667.8629160878365
 21
1175.023533746552
 31
0.0
  0
LINE
  5
4497
330
4492
100
AcDbEntity
  8
MODEL
  6
Continuous
 62
     0
370
    -2
100
AcDbLine
 10
667.8629160878365
 20
1074.023533746553
 30
0.0
 11
667.8629160878365
 21
1166.023533746552
 31
0.0
  0
INSERT
  5
4498
330
4492
100
AcDbEntity
  8
MODEL
 62
     0
370
    -2
100
AcDbBlockReference
  2
_DOT
 10
667.8629160878365
 20
1065.023533746553
 30
0.0
 41
9.0
 42
9.0
 43
9.0
 50
270.0
  0
INSERT
  5
4499
330
4492
100
AcDbEntity
  8
MODEL
 62
     0
370
    -2
100
AcDbBlockReference
  2
_DOT
 10
667.8629160878365
 20
1175.023533746552
 30
0.0
 41
9.0
 42
9.0
 43
9.0
 50
90.0
  0
MTEXT
  5
449A
330
4492
100
AcDbEntity
  8
MODEL
  6
Continuous
 62
     0
370
     0
100
AcDbMText
 10
645.6466074940865
 20
1120.023533746552
 30
0.0
 40
24.4326171875
 41
0.0
 46
0.0
 71
     5
 72
     1
  1
\A1;110
  7
ＭＳ ゴシック
 11
0.0
 21
1.0
 31
0.0
 73
     1
 44
1.0
  0
POINT
  5
449B
330
4492
100
AcDbEntity
  8
Defpoints
 62
     0
100
AcDbPoint
 10
570.328701565634
 20
1065.023533746553
 30
0.0
  0
POINT
  5
449C
330
4492
100
AcDbEntity
  8
Defpoints
 62
     0
100
AcDbPoint
 10
570.3287015656434
 20
1175.023533746552
 30
0.0
  0
POINT
  5
449D
330
4492
100
AcDbEntity
  8
Defpoints
 62
     0
100
AcDbPoint
 10
667.8629160878365
 20
1175.023533746552
 30
0.0
  0
ENDBLK
  5
4494
330
4492
100
AcDbEntity
  8
0
100
AcDbBlockEnd
  0
BLOCK
  5
44B2
330
44B1
100
AcDbEntity
  8
0
100
AcDbBlockBegin
  2
*D45
 70
     1
 10
0.0
 20
0.0
 30
0.0
  3
*D45
  1
*D46
  0
LINE
  5
44B4
330
44B1
100
AcDbEntity
  8
MODEL
  6
Continuous
 62
     0
370
    -2
100
AcDbLine
 10
1337.972422829048
 20
1271.839621368785
 30
0.0
 11
1337.972422829048
 21
1276.49619801863
 31
0.0
  0
LINE
  5
44B5
330
44B1
100
AcDbEntity
  8
MODEL
  6
Continuous
 62
     0
370
    -2
100
AcDbLine
 10
1587.936345073971
 20
1232.744905397842
 30
0.0
 11
1587.936345073971
 21
1276.49619801863
 31
0.0
  0
LINE
  5
44B6
330
44B1
100
AcDbEntity
  8
MODEL
  6
Continuous
 62
     0
370
    -2
100
AcDbLine
 10
1346.972422829048
 20
1276.49619801863
 30
0.0
 11
1578.936345073971
 21
1276.49619801863
 31
0.0
  0
INSERT
  5
44B7
330
44B1
100
AcDbEntity
  8
MODEL
 62
     0
370
    -2
100
AcDbBlockReference
  2
_DOT
 10
1337.972422829048
 20
1276.49619801863
 30
0.0
 41
9.0
 42
9.0
 43
9.0
 50
180.0
  0
INSERT
  5
44B8
330
44B1
100
AcDbEntity
  8
MODEL
 62
     0
370
    -2
100
AcDbBlockReference
  2
_DOT
 10
1587.936345073971
 20
1276.49619801863
 30
0.0
 41
9.0
 42
9.0
 43
9.0
  0
MTEXT
  5
44B9
330
44B1
100
AcDbEntity
  8
MODEL
  6
Continuous
 62
     0
370
     0
100
AcDbMText
 10
1462.954383951509
 20
1298.71250661238
 30
0.0
 40
24.4326171875
 41
0.0
 46
0.0
 71
     5
 72
     1
  1
\A1;250
  7
ＭＳ ゴシック
 73
     1
 44
1.0
  0
POINT
  5
44BA
330
44B1
100
AcDbEntity
  8
Defpoints
 62
     0
100
AcDbPoint
 10
1337.972422829048
 20
1246.839621368785
 30
0.0
  0
POINT
  5
44BB
330
44B1
100
AcDbEntity
  8
Defpoints
 62
     0
100
AcDbPoint
 10
1587.936345073971
 20
1207.744905397842
 30
0.0
  0
POINT
  5
44BC
330
44B1
100
AcDbEntity
  8
Defpoints
 62
     0
100
AcDbPoint
 10
1587.936345073971
 20
1276.49619801863
 30
0.0
  0
ENDBLK
  5
44B3
330
44B1
100
AcDbEntity
  8
0
100
AcDbBlockEnd
  0
BLOCK
  5
44C5
330
44C4
100
AcDbEntity
  8
0
100
AcDbBlockBegin
  2
*D46
 70
     1
 10
0.0
 20
0.0
 30
0.0
  3
*D46
  1
*D47
  0
LINE
  5
44C7
330
44C4
100
AcDbEntity
  8
MODEL
  6
Continuous
 62
     0
370
    -2
100
AcDbLine
 10
1712.96325612993
 20
1197.775077462735
 30
0.0
 11
1712.96325612993
 21
1216.83627705679
 31
0.0
  0
LINE
  5
44C8
330
44C4
100
AcDbEntity
  8
MODEL
  6
Continuous
 62
     0
370
    -2
100
AcDbLine
 10
1587.936345073971
 20
1197.775077462735
 30
0.0
 11
1587.936345073971
 21
1216.83627705679
 31
0.0
  0
LINE
  5
44C9
330
44C4
100
AcDbEntity
  8
MODEL
  6
Continuous
 62
     0
370
    -2
100
AcDbLine
 10
1703.96325612993
 20
1216.83627705679
 30
0.0
 11
1596.936345073971
 21
1216.83627705679
 31
0.0
  0
INSERT
  5
44CA
330
44C4
100
AcDbEntity
  8
MODEL
 62
     0
370
    -2
100
AcDbBlockReference
  2
_DOT
 10
1712.96325612993
 20
1216.83627705679
 30
0.0
 41
9.0
 42
9.0
 43
9.0
  0
INSERT
  5
44CB
330
44C4
100
AcDbEntity
  8
MODEL
 62
     0
370
    -2
100
AcDbBlockReference
  2
_DOT
 10
1587.936345073971
 20
1216.83627705679
 30
0.0
 41
9.0
 42
9.0
 43
9.0
 50
180.0
  0
MTEXT
  5
44CC
330
44C4
100
AcDbEntity
  8
MODEL
  6
Continuous
 62
     0
370
     0
100
AcDbMText
 10
1650.449800601951
 20
1239.05258565054
 30
0.0
 40
24.4326171875
 41
0.0
 46
0.0
 71
     5
 72
     1
  1
\A1;125
  7
ＭＳ ゴシック
 73
     1
 44
1.0
  0
POINT
  5
44CD
330
44C4
100
AcDbEntity
  8
Defpoints
 62
     0
100
AcDbPoint
 10
1712.96325612993
 20
1172.775077462735
 30
0.0
  0
POINT
  5
44CE
330
44C4
100
AcDbEntity
  8
Defpoints
 62
     0
100
AcDbPoint
 10
1587.936345073971
 20
1172.775077462735
 30
0.0
  0
POINT
  5
44CF
330
44C4
100
AcDbEntity
  8
Defpoints
 62
     0
100
AcDbPoint
 10
1587.936345073971
 20
1216.83627705679
 30
0.0
  0
ENDBLK
  5
44C6
330
44C4
100
AcDbEntity
  8
0
100
AcDbBlockEnd
  0
BLOCK
  5
44D4
330
44D3
100
AcDbEntity
  8
0
100
AcDbBlockBegin
  2
*D47
 70
     1
 10
0.0
 20
0.0
 30
0.0
  3
*D47
  1
*D48
  0
LINE
  5
44D6
330
44D3
100
AcDbEntity
  8
MODEL
  6
Continuous
 62
     0
370
    -2
100
AcDbLine
 10
1490.009058838776
 20
1078.370241717409
 30
0.0
 11
1490.009058838776
 21
1216.83627705679
 31
0.0
  0
LINE
  5
44D7
330
44D3
100
AcDbEntity
  8
MODEL
  6
Continuous
 62
     0
370
    -2
100
AcDbLine
 10
1653.218498063556
 20
1160.083213385501
 30
0.0
 11
1653.218498063556
 21
1216.83627705679
 31
0.0
  0
LINE
  5
44D8
330
44D3
100
AcDbEntity
  8
MODEL
  6
Continuous
 62
     0
370
    -2
100
AcDbLine
 10
1499.009058838776
 20
1216.83627705679
 30
0.0
 11
1644.218498063556
 21
1216.83627705679
 31
0.0
  0
INSERT
  5
44D9
330
44D3
100
AcDbEntity
  8
MODEL
 62
     0
370
    -2
100
AcDbBlockReference
  2
_DOT
 10
1490.009058838776
 20
1216.83627705679
 30
0.0
 41
9.0
 42
9.0
 43
9.0
 50
180.0
  0
INSERT
  5
44DA
330
44D3
100
AcDbEntity
  8
MODEL
 62
     0
370
    -2
100
AcDbBlockReference
  2
_DOT
 10
1653.218498063556
 20
1216.83627705679
 30
0.0
 41
9.0
 42
9.0
 43
9.0
  0
MTEXT
  5
44DB
330
44D3
100
AcDbEntity
  8
MODEL
  6
Continuous
 62
     0
370
     0
100
AcDbMText
 10
1571.613778451166
 20
1239.05258565054
 30
0.0
 40
24.4326171875
 41
0.0
 46
0.0
 71
     5
 72
     1
  1
\A1;163
  7
ＭＳ ゴシック
 73
     1
 44
1.0
  0
POINT
  5
44DC
330
44D3
100
AcDbEntity
  8
Defpoints
 62
     0
100
AcDbPoint
 10
1490.009058838776
 20
1053.370241717409
 30
0.0
  0
POINT
  5
44DD
330
44D3
100
AcDbEntity
  8
Defpoints
 62
     0
100
AcDbPoint
 10
1653.218498063556
 20
1135.083213385501
 30
0.0
  0
POINT
  5
44DE
330
44D3
100
AcDbEntity
  8
Defpoints
 62
     0
100
AcDbPoint
 10
1653.218498063556
 20
1216.83627705679
 30
0.0
  0
ENDBLK
  5
44D5
330
44D3
100
AcDbEntity
  8
0
100
AcDbBlockEnd
  0
BLOCK
  5
44E8
330
44E7
100
AcDbEntity
  8
0
100
AcDbBlockBegin
  2
*D48
 70
     1
 10
0.0
 20
0.0
 30
0.0
  3
*D48
  1
*D49
  0
LINE
  5
44EA
330
44E7
100
AcDbEntity
  8
MODEL
  6
Continuous
 62
     0
370
    -2
100
AcDbLine
 10
1653.218498063556
 20
911.269566203694
 30
0.0
 11
1653.218498063556
 21
975.5191634466369
 31
0.0
  0
LINE
  5
44EB
330
44E7
100
AcDbEntity
  8
MODEL
  6
Continuous
 62
     0
370
    -2
100
AcDbLine
 10
1712.777481323745
 20
911.269566203694
 30
0.0
 11
1712.777481323745
 21
975.5191634466369
 31
0.0
  0
LINE
  5
44EC
330
44E7
100
AcDbEntity
  8
MODEL
  6
Continuous
 62
     0
370
    -2
100
AcDbLine
 10
1662.218498063556
 20
975.5191634466369
 30
0.0
 11
1703.777481323745
 21
975.5191634466369
 31
0.0
  0
INSERT
  5
44ED
330
44E7
100
AcDbEntity
  8
MODEL
 62
     0
370
    -2
100
AcDbBlockReference
  2
_DOT
 10
1653.218498063556
 20
975.5191634466369
 30
0.0
 41
9.0
 42
9.0
 43
9.0
 50
180.0
  0
INSERT
  5
44EE
330
44E7
100
AcDbEntity
  8
MODEL
 62
     0
370
    -2
100
AcDbBlockReference
  2
_DOT
 10
1712.777481323745
 20
975.5191634466369
 30
0.0
 41
9.0
 42
9.0
 43
9.0
  0
MTEXT
  5
44EF
330
44E7
100
AcDbEntity
  8
MODEL
  6
Continuous
 62
     0
370
    13
100
AcDbMText
 10
1683.090877096743
 20
997.7354720403869
 30
0.0
 40
24.4326171875
 41
0.0
 46
0.0
 71
     5
 72
     1
  1
\A1;60
  7
ＭＳ ゴシック
 73
     1
 44
1.0
  0
POINT
  5
44F0
330
44E7
100
AcDbEntity
  8
Defpoints
 62
     0
100
AcDbPoint
 10
1653.218498063556
 20
886.269566203694
 30
0.0
  0
POINT
  5
44F1
330
44E7
100
AcDbEntity
  8
Defpoints
 62
     0
100
AcDbPoint
 10
1712.777481323745
 20
886.269566203694
 30
0.0
  0
POINT
  5
44F2
330
44E7
100
AcDbEntity
  8
Defpoints
 62
     0
100
AcDbPoint
 10
1712.777481323745
 20
975.5191634466369
 30
0.0
  0
ENDBLK
  5
44E9
330
44E7
100
AcDbEntity
  8
0
100
AcDbBlockEnd
  0
BLOCK
  5
4500
330
44FF
100
AcDbEntity
  8
0
100
AcDbBlockBegin
  2
*D49
 70
     1
 10
0.0
 20
0.0
 30
0.0
  3
*D49
  1
*D50
  0
LINE
  5
4502
330
44FF
100
AcDbEntity
  8
MODEL
  6
Continuous
 62
     0
370
    -2
100
AcDbLine
 10
1712.777481323745
 20
997.2520483961883
 30
0.0
 11
1712.777481323745
 21
963.3360813909159
 31
0.0
  0
LINE
  5
4503
330
44FF
100
AcDbEntity
  8
MODEL
  6
Continuous
 62
     0
370
    -2
100
AcDbLine
 10
1490.009058838776
 20
994.927988761323
 30
0.0
 11
1490.009058838776
 21
963.3360813909159
 31
0.0
  0
LINE
  5
4504
330
44FF
100
AcDbEntity
  8
MODEL
  6
Continuous
 62
     0
370
    -2
100
AcDbLine
 10
1703.777481323745
 20
963.3360813909159
 30
0.0
 11
1499.009058838776
 21
963.3360813909159
 31
0.0
  0
INSERT
  5
4505
330
44FF
100
AcDbEntity
  8
MODEL
 62
     0
370
    -2
100
AcDbBlockReference
  2
_DOT
 10
1712.777481323745
 20
963.3360813909159
 30
0.0
 41
9.0
 42
9.0
 43
9.0
  0
INSERT
  5
4506
330
44FF
100
AcDbEntity
  8
MODEL
 62
     0
370
    -2
100
AcDbBlockReference
  2
_DOT
 10
1490.009058838776
 20
963.3360813909159
 30
0.0
 41
9.0
 42
9.0
 43
9.0
 50
180.0
  0
MTEXT
  5
4507
330
44FF
100
AcDbEntity
  8
MODEL
  6
Continuous
 62
     0
370
     0
100
AcDbMText
 10
1601.39327008126
 20
985.5523899846659
 30
0.0
 40
24.4326171875
 41
0.0
 46
0.0
 71
     5
 72
     1
  1
\A1;223
  7
ＭＳ ゴシック
 73
     1
 44
1.0
  0
POINT
  5
4508
330
44FF
100
AcDbEntity
  8
Defpoints
 62
     0
100
AcDbPoint
 10
1712.777481323745
 20
1022.252048396188
 30
0.0
  0
POINT
  5
4509
330
44FF
100
AcDbEntity
  8
Defpoints
 62
     0
100
AcDbPoint
 10
1490.009058838776
 20
1019.927988761323
 30
0.0
  0
POINT
  5
450A
330
44FF
100
AcDbEntity
  8
Defpoints
 62
     0
100
AcDbPoint
 10
1490.009058838776
 20
963.3360813909159
 30
0.0
  0
ENDBLK
  5
4501
330
44FF
100
AcDbEntity
  8
0
100
AcDbBlockEnd
  0
BLOCK
  5
450D
330
450C
100
AcDbEntity
  8
0
100
AcDbBlockBegin
  2
*D50
 70
     1
 10
0.0
 20
0.0
 30
0.0
  3
*D50
  1
*D51
  0
LINE
  5
450F
330
450C
100
AcDbEntity
  8
MODEL
  6
Continuous
 62
     0
370
    -2
100
AcDbLine
 10
1490.009058838776
 20
738.6071473144614
 30
0.0
 11
1490.009058838776
 21
695.7764762596578
 31
0.0
  0
LINE
  5
4510
330
450C
100
AcDbEntity
  8
MODEL
  6
Continuous
 62
     0
370
    -2
100
AcDbLine
 10
1715.009058838776
 20
738.6071473144614
 30
0.0
 11
1715.009058838776
 21
695.7764762596578
 31
0.0
  0
LINE
  5
4511
330
450C
100
AcDbEntity
  8
MODEL
  6
Continuous
 62
     0
370
    -2
100
AcDbLine
 10
1499.009058838776
 20
695.7764762596578
 30
0.0
 11
1706.009058838776
 21
695.7764762596578
 31
0.0
  0
INSERT
  5
4512
330
450C
100
AcDbEntity
  8
MODEL
 62
     0
370
    -2
100
AcDbBlockReference
  2
_DOT
 10
1490.009058838776
 20
695.7764762596578
 30
0.0
 41
9.0
 42
9.0
 43
9.0
 50
180.0
  0
INSERT
  5
4513
330
450C
100
AcDbEntity
  8
MODEL
 62
     0
370
    -2
100
AcDbBlockReference
  2
_DOT
 10
1715.009058838776
 20
695.7764762596578
 30
0.0
 41
9.0
 42
9.0
 43
9.0
  0
MTEXT
  5
4514
330
450C
100
AcDbEntity
  8
MODEL
  6
Continuous
 62
     0
370
    13
100
AcDbMText
 10
1602.509058838776
 20
717.9927848534078
 30
0.0
 40
24.4326171875
 41
0.0
 46
0.0
 71
     5
 72
     1
  1
\A1;225
  7
ＭＳ ゴシック
 73
     1
 44
1.0
  0
POINT
  5
4515
330
450C
100
AcDbEntity
  8
Defpoints
 62
     0
100
AcDbPoint
 10
1490.009058838776
 20
763.6071473144614
 30
0.0
  0
POINT
  5
4516
330
450C
100
AcDbEntity
  8
Defpoints
 62
     0
100
AcDbPoint
 10
1715.009058838776
 20
763.6071473144614
 30
0.0
  0
POINT
  5
4517
330
450C
100
AcDbEntity
  8
Defpoints
 62
     0
100
AcDbPoint
 10
1715.009058838776
 20
695.7764762596578
 30
0.0
  0
ENDBLK
  5
450E
330
450C
100
AcDbEntity
  8
0
100
AcDbBlockEnd
  0
BLOCK
  5
4522
330
4521
100
AcDbEntity
  8
0
100
AcDbBlockBegin
  2
*D51
 70
     1
 10
0.0
 20
0.0
 30
0.0
  3
*D51
  1
*D52
  0
LINE
  5
4524
330
4521
100
AcDbEntity
  8
MODEL
  6
Continuous
 62
     0
370
    -2
100
AcDbLine
 10
1465.009058838776
 20
793.6048958851991
 30
0.0
 11
1490.009058838777
 21
793.6048958851991
 31
0.0
  0
LINE
  5
4525
330
4521
100
AcDbEntity
  8
MODEL
  6
Continuous
 62
     0
370
    -2
100
AcDbLine
 10
1465.009058838777
 20
903.6048958851986
 30
0.0
 11
1490.009058838777
 21
903.6048958851986
 31
0.0
  0
LINE
  5
4526
330
4521
100
AcDbEntity
  8
MODEL
  6
Continuous
 62
     0
370
    -2
100
AcDbLine
 10
1490.009058838777
 20
903.6048958851986
 30
0.0
 11
1490.009058838777
 21
1073.980815807073
 31
0.0
  0
INSERT
  5
4527
330
4521
100
AcDbEntity
  8
MODEL
 62
     0
370
    -2
100
AcDbBlockReference
  2
_DOT
 10
1490.009058838777
 20
793.6048958851991
 30
0.0
 41
9.0
 42
9.0
 43
9.0
 50
270.0
  0
INSERT
  5
4528
330
4521
100
AcDbEntity
  8
MODEL
 62
     0
370
    -2
100
AcDbBlockReference
  2
_DOT
 10
1490.009058838777
 20
903.6048958851986
 30
0.0
 41
9.0
 42
9.0
 43
9.0
 50
90.0
  0
MTEXT
  5
4529
330
4521
100
AcDbEntity
  8
MODEL
  6
Continuous
 62
     0
370
    13
100
AcDbMText
 10
1465.630463623933
 20
997.792855846136
 30
0.0
 40
24.4326171875
 41
0.0
 46
0.0
 71
     5
 72
     1
  1
\A1;110(深さ)
  7
ＭＳ ゴシック
 11
0.0
 21
1.0
 31
0.0
 73
     1
 44
1.0
  0
POINT
  5
452A
330
4521
100
AcDbEntity
  8
Defpoints
 62
     0
100
AcDbPoint
 10
1490.009058838776
 20
793.6048958851991
 30
0.0
  0
POINT
  5
452B
330
4521
100
AcDbEntity
  8
Defpoints
 62
     0
100
AcDbPoint
 10
1490.009058838777
 20
903.6048958851986
 30
0.0
  0
POINT
  5
452C
330
4521
100
AcDbEntity
  8
Defpoints
 62
     0
100
AcDbPoint
 10
1490.009058838777
 20
903.6048958851986
 30
0.0
  0
ENDBLK
  5
4523
330
4521
100
AcDbEntity
  8
0
100
AcDbBlockEnd
  0
BLOCK
  5
4535
330
4534
100
AcDbEntity
  8
0
100
AcDbBlockBegin
  2
*D52
 70
     1
 10
0.0
 20
0.0
 30
0.0
  3
*D52
  1
*D53
  0
LINE
  5
4537
330
4534
100
AcDbEntity
  8
MODEL
  6
Continuous
 62
     0
370
    -2
100
AcDbLine
 10
1277.130510135353
 20
763.6071473144614
 30
0.0
 11
1223.750300104972
 21
763.6071473144614
 31
0.0
  0
LINE
  5
4538
330
4534
100
AcDbEntity
  8
MODEL
  6
Continuous
 62
     0
370
    -2
100
AcDbLine
 10
1465.009058838777
 20
903.6048958851986
 30
0.0
 11
1223.750300104972
 21
903.6048958851986
 31
0.0
  0
LINE
  5
4539
330
4534
100
AcDbEntity
  8
MODEL
  6
Continuous
 62
     0
370
    -2
100
AcDbLine
 10
1223.750300104972
 20
772.6071473144614
 30
0.0
 11
1223.750300104972
 21
894.6048958851986
 31
0.0
  0
INSERT
  5
453A
330
4534
100
AcDbEntity
  8
MODEL
 62
     0
370
    -2
100
AcDbBlockReference
  2
_DOT
 10
1223.750300104972
 20
763.6071473144614
 30
0.0
 41
9.0
 42
9.0
 43
9.0
 50
270.0
  0
INSERT
  5
453B
330
4534
100
AcDbEntity
  8
MODEL
 62
     0
370
    -2
100
AcDbBlockReference
  2
_DOT
 10
1223.750300104972
 20
903.6048958851986
 30
0.0
 41
9.0
 42
9.0
 43
9.0
 50
90.0
  0
MTEXT
  5
453C
330
4534
100
AcDbEntity
  8
MODEL
  6
Continuous
 62
     0
370
    13
100
AcDbMText
 10
1201.533991511222
 20
833.60602159983
 30
0.0
 40
24.4326171875
 41
0.0
 46
0.0
 71
     5
 72
     1
  1
\A1;140
  7
ＭＳ ゴシック
 11
0.0
 21
1.0
 31
0.0
 73
     1
 44
1.0
  0
POINT
  5
453D
330
4534
100
AcDbEntity
  8
Defpoints
 62
     0
100
AcDbPoint
 10
1302.130510135353
 20
763.6071473144614
 30
0.0
  0
POINT
  5
453E
330
4534
100
AcDbEntity
  8
Defpoints
 62
     0
100
AcDbPoint
 10
1490.009058838777
 20
903.6048958851986
 30
0.0
  0
POINT
  5
453F
330
4534
100
AcDbEntity
  8
Defpoints
 62
     0
100
AcDbPoint
 10
1223.750300104972
 20
903.6048958851986
 30
0.0
  0
ENDBLK
  5
4536
330
4534
100
AcDbEntity
  8
0
100
AcDbBlockEnd
  0
BLOCK
  5
4544
330
4543
100
AcDbEntity
  8
0
100
AcDbBlockBegin
  2
*D53
 70
     1
 10
0.0
 20
0.0
 30
0.0
  3
*D53
  1
*D54
  0
LINE
  5
4546
330
4543
100
AcDbEntity
  8
MODEL
  6
Continuous
 62
     0
370
    -2
100
AcDbLine
 10
1442.006830128417
 20
748.6030575589864
 30
0.0
 11
1223.750300104972
 21
748.6030575589864
 31
0.0
  0
LINE
  5
4547
330
4543
100
AcDbEntity
  8
MODEL
  6
Continuous
 62
     0
370
    -2
100
AcDbLine
 10
1277.130510135353
 20
763.6071473144614
 30
0.0
 11
1223.750300104972
 21
763.6071473144614
 31
0.0
  0
INSERT
  5
4548
330
4543
100
AcDbEntity
  8
MODEL
 62
     0
370
    -2
100
AcDbBlockReference
  2
_DOT
 10
1223.750300104972
 20
748.6030575589864
 30
0.0
 41
9.0
 42
9.0
 43
9.0
 50
270.0
  0
INSERT
  5
4549
330
4543
100
AcDbEntity
  8
MODEL
 62
     0
370
    -2
100
AcDbBlockReference
  2
_DOT
 10
1223.750300104972
 20
763.6071473144614
 30
0.0
 41
9.0
 42
9.0
 43
9.0
 50
90.0
  0
MTEXT
  5
454A
330
4543
100
AcDbEntity
  8
MODEL
  6
Continuous
 62
     0
370
     0
100
AcDbMText
 10
1201.533991511222
 20
756.1051024367239
 30
0.0
 40
24.4326171875
 41
0.0
 46
0.0
 71
     5
 72
     1
  1
\A1;15
  7
ＭＳ ゴシック
 11
0.0
 21
1.0
 31
0.0
 73
     1
 44
1.0
  0
POINT
  5
454B
330
4543
100
AcDbEntity
  8
Defpoints
 62
     0
100
AcDbPoint
 10
1467.006830128417
 20
748.6030575589864
 30
0.0
  0
POINT
  5
454C
330
4543
100
AcDbEntity
  8
Defpoints
 62
     0
100
AcDbPoint
 10
1302.130510135353
 20
763.6071473144614
 30
0.0
  0
POINT
  5
454D
330
4543
100
AcDbEntity
  8
Defpoints
 62
     0
100
AcDbPoint
 10
1223.750300104972
 20
763.6071473144614
 30
0.0
  0
ENDBLK
  5
4545
330
4543
100
AcDbEntity
  8
0
100
AcDbBlockEnd
  0
BLOCK
  5
4561
330
4560
100
AcDbEntity
  8
0
100
AcDbBlockBegin
  2
*D54
 70
     1
 10
0.0
 20
0.0
 30
0.0
  3
*D54
  1
*D55
  0
LINE
  5
4563
330
4560
100
AcDbEntity
  8
MODEL
  6
Continuous
 62
     0
370
    -2
100
AcDbLine
 10
620.5932850734454
 20
748.6967642180032
 30
0.0
 11
908.5112434555497
 21
748.6967642180032
 31
0.0
  0
LINE
  5
4564
330
4560
100
AcDbEntity
  8
MODEL
  6
Continuous
 62
     0
370
    -2
100
AcDbLine
 10
838.7032401771958
 20
903.6986025442154
 30
0.0
 11
908.5112434555497
 21
903.6986025442154
 31
0.0
  0
LINE
  5
4565
330
4560
100
AcDbEntity
  8
MODEL
  6
Continuous
 62
     0
370
    -2
100
AcDbLine
 10
908.5112434555497
 20
757.6967642180032
 30
0.0
 11
908.5112434555497
 21
894.6986025442154
 31
0.0
  0
INSERT
  5
4566
330
4560
100
AcDbEntity
  8
MODEL
 62
     0
370
    -2
100
AcDbBlockReference
  2
_DOT
 10
908.5112434555497
 20
748.6967642180032
 30
0.0
 41
9.0
 42
9.0
 43
9.0
 50
270.0
  0
INSERT
  5
4567
330
4560
100
AcDbEntity
  8
MODEL
 62
     0
370
    -2
100
AcDbBlockReference
  2
_DOT
 10
908.5112434555497
 20
903.6986025442154
 30
0.0
 41
9.0
 42
9.0
 43
9.0
 50
90.0
  0
MTEXT
  5
4568
330
4560
100
AcDbEntity
  8
MODEL
  6
Continuous
 62
     0
370
    13
100
AcDbMText
 10
886.2949348617997
 20
826.1976833811093
 30
0.0
 40
24.4326171875
 41
0.0
 46
0.0
 71
     5
 72
     1
  1
\A1;155
  7
ＭＳ ゴシック
 11
0.0
 21
1.0
 31
0.0
 73
     1
 44
1.0
  0
POINT
  5
4569
330
4560
100
AcDbEntity
  8
Defpoints
 62
     0
100
AcDbPoint
 10
595.5932850734454
 20
748.6967642180032
 30
0.0
  0
POINT
  5
456A
330
4560
100
AcDbEntity
  8
Defpoints
 62
     0
100
AcDbPoint
 10
813.7032401771958
 20
903.6986025442154
 30
0.0
  0
POINT
  5
456B
330
4560
100
AcDbEntity
  8
Defpoints
 62
     0
100
AcDbPoint
 10
908.5112434555497
 20
903.6986025442154
 30
0.0
  0
ENDBLK
  5
4562
330
4560
100
AcDbEntity
  8
0
100
AcDbBlockEnd
  0
BLOCK
  5
4579
330
4578
100
AcDbEntity
  8
0
100
AcDbBlockBegin
  2
*D55
 70
     1
 10
0.0
 20
0.0
 30
0.0
  3
*D55
  1
*D56
  0
LINE
  5
457B
330
4578
100
AcDbEntity
  8
MODEL
  6
Continuous
 62
     0
370
    -2
100
AcDbLine
 10
1245.400248407913
 20
2317.490223551314
 30
0.0
 11
1165.931978261626
 21
2317.490223551314
 31
0.0
  0
LINE
  5
457C
330
4578
100
AcDbEntity
  8
MODEL
  6
Continuous
 62
     0
370
    -2
100
AcDbLine
 10
1255.006923826257
 20
2092.489510939733
 30
0.0
 11
1165.931978261626
 21
2092.489510939733
 31
0.0
  0
LINE
  5
457D
330
4578
100
AcDbEntity
  8
MODEL
  6
Continuous
 62
     0
370
    -2
100
AcDbLine
 10
1165.931978261626
 20
2308.490223551314
 30
0.0
 11
1165.931978261626
 21
2101.489510939733
 31
0.0
  0
INSERT
  5
457E
330
4578
100
AcDbEntity
  8
MODEL
 62
     0
370
    -2
100
AcDbBlockReference
  2
_DOT
 10
1165.931978261626
 20
2317.490223551314
 30
0.0
 41
9.0
 42
9.0
 43
9.0
 50
90.0
  0
INSERT
  5
457F
330
4578
100
AcDbEntity
  8
MODEL
 62
     0
370
    -2
100
AcDbBlockReference
  2
_DOT
 10
1165.931978261626
 20
2092.489510939733
 30
0.0
 41
9.0
 42
9.0
 43
9.0
 50
270.0
  0
MTEXT
  5
4580
330
4578
100
AcDbEntity
  8
MODEL
  6
Continuous
 62
     0
370
    13
100
AcDbMText
 10
1143.715669667876
 20
2204.989867245524
 30
0.0
 40
24.4326171875
 41
0.0
 46
0.0
 71
     5
 72
     1
  1
\A1;225
  7
ＭＳ ゴシック
 11
0.0
 21
1.0
 31
0.0
 73
     1
 44
1.0
  0
POINT
  5
4581
330
4578
100
AcDbEntity
  8
Defpoints
 62
     0
100
AcDbPoint
 10
1270.400248407913
 20
2317.490223551314
 30
0.0
  0
POINT
  5
4582
330
4578
100
AcDbEntity
  8
Defpoints
 62
     0
100
AcDbPoint
 10
1280.006923826257
 20
2092.489510939733
 30
0.0
  0
POINT
  5
4583
330
4578
100
AcDbEntity
  8
Defpoints
 62
     0
100
AcDbPoint
 10
1165.931978261626
 20
2092.489510939733
 30
0.0
  0
ENDBLK
  5
457A
330
4578
100
AcDbEntity
  8
0
100
AcDbBlockEnd
  0
BLOCK
  5
458D
330
458C
100
AcDbEntity
  8
0
100
AcDbBlockBegin
  2
*D56
 70
     1
 10
0.0
 20
0.0
 30
0.0
  3
*D56
  1
*D57
  0
LINE
  5
458F
330
458C
100
AcDbEntity
  8
MODEL
  6
Continuous
 62
     0
370
    -2
100
AcDbLine
 10
1280.006923826257
 20
2067.489510939733
 30
0.0
 11
1280.006923826257
 21
1752.937808310783
 31
0.0
  0
LINE
  5
4590
330
458C
100
AcDbEntity
  8
MODEL
  6
Continuous
 62
     0
370
    -2
100
AcDbLine
 10
1700.011193851295
 20
2067.489510939733
 30
0.0
 11
1700.011193851295
 21
1752.937808310783
 31
0.0
  0
LINE
  5
4591
330
458C
100
AcDbEntity
  8
MODEL
  6
Continuous
 62
     0
370
    -2
100
AcDbLine
 10
1289.006923826257
 20
1752.937808310783
 30
0.0
 11
1691.011193851295
 21
1752.937808310783
 31
0.0
  0
INSERT
  5
4592
330
458C
100
AcDbEntity
  8
MODEL
 62
     0
370
    -2
100
AcDbBlockReference
  2
_DOT
 10
1280.006923826257
 20
1752.937808310783
 30
0.0
 41
9.0
 42
9.0
 43
9.0
 50
180.0
  0
INSERT
  5
4593
330
458C
100
AcDbEntity
  8
MODEL
 62
     0
370
    -2
100
AcDbBlockReference
  2
_DOT
 10
1700.011193851295
 20
1752.937808310783
 30
0.0
 41
9.0
 42
9.0
 43
9.0
  0
MTEXT
  5
4594
330
458C
100
AcDbEntity
  8
MODEL
  6
Continuous
 62
     0
370
    13
100
AcDbMText
 10
1490.009058838776
 20
1775.154116904533
 30
0.0
 40
24.4326171875
 41
0.0
 46
0.0
 71
     5
 72
     1
  1
\A1;420
  7
ＭＳ ゴシック
 73
     1
 44
1.0
  0
POINT
  5
4595
330
458C
100
AcDbEntity
  8
Defpoints
 62
     0
100
AcDbPoint
 10
1280.006923826257
 20
2092.489510939733
 30
0.0
  0
POINT
  5
4596
330
458C
100
AcDbEntity
  8
Defpoints
 62
     0
100
AcDbPoint
 10
1700.011193851295
 20
2092.489510939733
 30
0.0
  0
POINT
  5
4597
330
458C
100
AcDbEntity
  8
Defpoints
 62
     0
100
AcDbPoint
 10
1700.011193851295
 20
1752.937808310783
 30
0.0
  0
ENDBLK
  5
458E
330
458C
100
AcDbEntity
  8
0
100
AcDbBlockEnd
  0
BLOCK
  5
459C
330
459B
100
AcDbEntity
  8
0
100
AcDbBlockBegin
  2
*D57
 70
     1
 10
0.0
 20
0.0
 30
0.0
  3
*D57
  1
*D58
  0
LINE
  5
459E
330
459B
100
AcDbEntity
  8
MODEL
  6
Continuous
 62
     0
370
    -2
100
AcDbLine
 10
1700.011193851295
 20
2157.931154673845
 30
0.0
 11
1700.011193851295
 21
2111.471509125716
 31
0.0
  0
LINE
  5
459F
330
459B
100
AcDbEntity
  8
MODEL
  6
Continuous
 62
     0
370
    -2
100
AcDbLine
 10
1741.171016626142
 20
2157.931154673845
 30
0.0
 11
1741.171016626142
 21
2111.471509125716
 31
0.0
  0
LINE
  5
45A0
330
459B
100
AcDbEntity
  8
MODEL
  6
Continuous
 62
     0
370
    -2
100
AcDbLine
 10
1691.011193851295
 20
2111.471509125716
 30
0.0
 11
1682.011193851295
 21
2111.471509125716
 31
0.0
  0
LINE
  5
45A1
330
459B
100
AcDbEntity
  8
MODEL
  6
Continuous
 62
     0
370
    -2
100
AcDbLine
 10
1750.171016626142
 20
2111.471509125716
 30
0.0
 11
1759.171016626142
 21
2111.471509125716
 31
0.0
  0
INSERT
  5
45A2
330
459B
100
AcDbEntity
  8
MODEL
 62
     0
370
    -2
100
AcDbBlockReference
  2
_DOT
 10
1700.011193851295
 20
2111.471509125716
 30
0.0
 41
9.0
 42
9.0
 43
9.0
  0
INSERT
  5
45A3
330
459B
100
AcDbEntity
  8
MODEL
 62
     0
370
    -2
100
AcDbBlockReference
  2
_DOT
 10
1741.171016626142
 20
2111.471509125716
 30
0.0
 41
9.0
 42
9.0
 43
9.0
 50
180.0
  0
MTEXT
  5
45A4
330
459B
100
AcDbEntity
  8
MODEL
  6
Continuous
 62
     0
370
     0
100
AcDbMText
 10
1720.591105238718
 20
2133.687817719466
 30
0.0
 40
24.4326171875
 41
0.0
 46
0.0
 71
     5
 72
     1
  1
\A1;41
  7
ＭＳ ゴシック
 73
     1
 44
1.0
  0
POINT
  5
45A5
330
459B
100
AcDbEntity
  8
Defpoints
 62
     0
100
AcDbPoint
 10
1700.011193851295
 20
2182.931154673845
 30
0.0
  0
POINT
  5
45A6
330
459B
100
AcDbEntity
  8
Defpoints
 62
     0
100
AcDbPoint
 10
1741.171016626142
 20
2182.931154673845
 30
0.0
  0
POINT
  5
45A7
330
459B
100
AcDbEntity
  8
Defpoints
 62
     0
100
AcDbPoint
 10
1741.171016626142
 20
2111.471509125716
 30
0.0
  0
ENDBLK
  5
459D
330
459B
100
AcDbEntity
  8
0
100
AcDbBlockEnd
  0
BLOCK
  5
45AC
330
45AB
100
AcDbEntity
  8
0
100
AcDbBlockBegin
  2
*D58
 70
     1
 10
0.0
 20
0.0
 30
0.0
  3
*D58
  1
*D59
  0
LINE
  5
45AE
330
45AB
100
AcDbEntity
  8
MODEL
  6
Continuous
 62
     0
370
    -2
100
AcDbLine
 10
1665.009058838776
 20
2012.490223551314
 30
0.0
 11
1806.549590346342
 21
2012.490223551314
 31
0.0
  0
LINE
  5
45AF
330
45AB
100
AcDbEntity
  8
MODEL
  6
Continuous
 62
     0
370
    -2
100
AcDbLine
 10
1665.009058838776
 20
2282.490223551314
 30
0.0
 11
1806.549590346342
 21
2282.490223551314
 31
0.0
  0
LINE
  5
45B0
330
45AB
100
AcDbEntity
  8
MODEL
  6
Continuous
 62
     0
370
    -2
100
AcDbLine
 10
1806.549590346342
 20
2021.490223551314
 30
0.0
 11
1806.549590346342
 21
2273.490223551314
 31
0.0
  0
INSERT
  5
45B1
330
45AB
100
AcDbEntity
  8
MODEL
 62
     0
370
    -2
100
AcDbBlockReference
  2
_DOT
 10
1806.549590346342
 20
2012.490223551314
 30
0.0
 41
9.0
 42
9.0
 43
9.0
 50
270.0
  0
INSERT
  5
45B2
330
45AB
100
AcDbEntity
  8
MODEL
 62
     0
370
    -2
100
AcDbBlockReference
  2
_DOT
 10
1806.549590346342
 20
2282.490223551314
 30
0.0
 41
9.0
 42
9.0
 43
9.0
 50
90.0
  0
MTEXT
  5
45B3
330
45AB
100
AcDbEntity
  8
MODEL
  6
Continuous
 62
     0
370
    13
100
AcDbMText
 10
1784.333281752592
 20
2147.490223551314
 30
0.0
 40
24.4326171875
 41
0.0
 46
0.0
 71
     5
 72
     1
  1
\A1;270
  7
ＭＳ ゴシック
 11
0.0
 21
1.0
 31
0.0
 73
     1
 44
1.0
  0
POINT
  5
45B4
330
45AB
100
AcDbEntity
  8
Defpoints
 62
     0
100
AcDbPoint
 10
1640.009058838776
 20
2012.490223551314
 30
0.0
  0
POINT
  5
45B5
330
45AB
100
AcDbEntity
  8
Defpoints
 62
     0
100
AcDbPoint
 10
1640.009058838776
 20
2282.490223551314
 30
0.0
  0
POINT
  5
45B6
330
45AB
100
AcDbEntity
  8
Defpoints
 62
     0
100
AcDbPoint
 10
1806.549590346342
 20
2282.490223551314
 30
0.0
  0
ENDBLK
  5
45AD
330
45AB
100
AcDbEntity
  8
0
100
AcDbBlockEnd
  0
BLOCK
  5
45BB
330
45BA
100
AcDbEntity
  8
0
100
AcDbBlockBegin
  2
*D59
 70
     1
 10
0.0
 20
0.0
 30
0.0
  3
*D59
  1
*D60
  0
LINE
  5
45BD
330
45BA
100
AcDbEntity
  8
MODEL
  6
Continuous
 62
     0
370
    -2
100
AcDbLine
 10
1710.004022225392
 20
2256.822029224466
 30
0.0
 11
1710.004022225392
 21
2442.503458417492
 31
0.0
  0
LINE
  5
45BE
330
45BA
100
AcDbEntity
  8
MODEL
  6
Continuous
 62
     0
370
    -2
100
AcDbLine
 10
1270.014095452159
 20
2256.822029224466
 30
0.0
 11
1270.014095452159
 21
2442.503458417492
 31
0.0
  0
LINE
  5
45BF
330
45BA
100
AcDbEntity
  8
MODEL
  6
Continuous
 62
     0
370
    -2
100
AcDbLine
 10
1701.004022225392
 20
2442.503458417492
 30
0.0
 11
1279.014095452159
 21
2442.503458417492
 31
0.0
  0
INSERT
  5
45C0
330
45BA
100
AcDbEntity
  8
MODEL
 62
     0
370
    -2
100
AcDbBlockReference
  2
_DOT
 10
1710.004022225392
 20
2442.503458417492
 30
0.0
 41
9.0
 42
9.0
 43
9.0
  0
INSERT
  5
45C1
330
45BA
100
AcDbEntity
  8
MODEL
 62
     0
370
    -2
100
AcDbBlockReference
  2
_DOT
 10
1270.014095452159
 20
2442.503458417492
 30
0.0
 41
9.0
 42
9.0
 43
9.0
 50
180.0
  0
MTEXT
  5
45C2
330
45BA
100
AcDbEntity
  8
MODEL
  6
Continuous
 62
     0
370
     0
100
AcDbMText
 10
1490.009058838776
 20
2464.719767011242
 30
0.0
 40
24.4326171875
 41
0.0
 46
0.0
 71
     5
 72
     1
  1
\A1;440
  7
ＭＳ ゴシック
 73
     1
 44
1.0
  0
POINT
  5
45C3
330
45BA
100
AcDbEntity
  8
Defpoints
 62
     0
100
AcDbPoint
 10
1710.004022225392
 20
2231.822029224466
 30
0.0
  0
POINT
  5
45C4
330
45BA
100
AcDbEntity
  8
Defpoints
 62
     0
100
AcDbPoint
 10
1270.014095452159
 20
2231.822029224466
 30
0.0
  0
POINT
  5
45C5
330
45BA
100
AcDbEntity
  8
Defpoints
 62
     0
100
AcDbPoint
 10
1270.014095452159
 20
2442.503458417492
 30
0.0
  0
ENDBLK
  5
45BC
330
45BA
100
AcDbEntity
  8
0
100
AcDbBlockEnd
  0
BLOCK
  5
463E
330
463D
100
AcDbEntity
  8
0
100
AcDbBlockBegin
  2
*D60
 70
     1
 10
0.0
 20
0.0
 30
0.0
  3
*D60
  1
*D62
  0
LINE
  5
4640
330
463D
100
AcDbEntity
  8
MODEL
  6
Continuous
 62
     0
370
    -2
100
AcDbLine
 10
1766.895487711746
 20
2317.490223551314
 30
0.0
 11
1806.812683813384
 21
2317.490223551314
 31
0.0
  0
LINE
  5
4641
330
463D
100
AcDbEntity
  8
MODEL
  6
Continuous
 62
     0
370
    -2
100
AcDbLine
 10
1665.009058838776
 20
2282.490223551314
 30
0.0
 11
1806.812683813384
 21
2282.490223551314
 31
0.0
  0
LINE
  5
4642
330
463D
100
AcDbEntity
  8
MODEL
  6
Continuous
 62
     0
370
    -2
100
AcDbLine
 10
1806.812683813384
 20
2308.490223551314
 30
0.0
 11
1806.812683813384
 21
2291.490223551314
 31
0.0
  0
INSERT
  5
4643
330
463D
100
AcDbEntity
  8
MODEL
 62
     0
370
    -2
100
AcDbBlockReference
  2
_DOT
 10
1806.812683813384
 20
2317.490223551314
 30
0.0
 41
9.0
 42
9.0
 43
9.0
 50
90.0
  0
INSERT
  5
4644
330
463D
100
AcDbEntity
  8
MODEL
 62
     0
370
    -2
100
AcDbBlockReference
  2
_DOT
 10
1806.812683813384
 20
2282.490223551314
 30
0.0
 41
9.0
 42
9.0
 43
9.0
 50
270.0
  0
MTEXT
  5
4645
330
463D
100
AcDbEntity
  8
MODEL
  6
Continuous
 62
     0
370
    13
100
AcDbMText
 10
1784.596375219634
 20
2299.680187219295
 30
0.0
 40
24.4326171875
 41
0.0
 46
0.0
 71
     5
 72
     1
  1
\A1;35
  7
ＭＳ ゴシック
 11
0.0
 21
1.0
 31
0.0
 73
     1
 44
1.0
  0
POINT
  5
4646
330
463D
100
AcDbEntity
  8
Defpoints
 62
     0
100
AcDbPoint
 10
1741.895487711746
 20
2317.490223551314
 30
0.0
  0
POINT
  5
4647
330
463D
100
AcDbEntity
  8
Defpoints
 62
     0
100
AcDbPoint
 10
1640.009058838776
 20
2282.490223551314
 30
0.0
  0
POINT
  5
464A
330
463D
100
AcDbEntity
  8
Defpoints
 62
     0
100
AcDbPoint
 10
1806.812683813384
 20
2282.490223551314
 30
0.0
  0
ENDBLK
  5
463F
330
463D
100
AcDbEntity
  8
0
100
AcDbBlockEnd
  0
BLOCK
  5
4660
330
465F
100
AcDbEntity
  8
0
100
AcDbBlockBegin
  2
*D61
 70
     1
 10
0.0
 20
0.0
 30
0.0
  3
*D61
  1
*D63
  0
LINE
  5
4662
330
465F
100
AcDbEntity
  8
MODEL
  6
Continuous
 62
     0
370
    -2
100
AcDbLine
 10
1340.009058838776
 20
1987.490223551314
 30
0.0
 11
1340.009058838776
 21
1821.976025956836
 31
0.0
  0
LINE
  5
4663
330
465F
100
AcDbEntity
  8
MODEL
  6
Continuous
 62
     0
370
    -2
100
AcDbLine
 10
1640.009058838776
 20
1987.490223551314
 30
0.0
 11
1640.009058838776
 21
1821.976025956836
 31
0.0
  0
LINE
  5
4664
330
465F
100
AcDbEntity
  8
MODEL
  6
Continuous
 62
     0
370
    -2
100
AcDbLine
 10
1349.009058838776
 20
1821.976025956836
 30
0.0
 11
1631.009058838776
 21
1821.976025956836
 31
0.0
  0
INSERT
  5
4665
330
465F
100
AcDbEntity
  8
MODEL
 62
     0
370
    -2
100
AcDbBlockReference
  2
_DOT
 10
1340.009058838776
 20
1821.976025956836
 30
0.0
 41
9.0
 42
9.0
 43
9.0
 50
180.0
  0
INSERT
  5
4666
330
465F
100
AcDbEntity
  8
MODEL
 62
     0
370
    -2
100
AcDbBlockReference
  2
_DOT
 10
1640.009058838776
 20
1821.976025956836
 30
0.0
 41
9.0
 42
9.0
 43
9.0
  0
MTEXT
  5
4667
330
465F
100
AcDbEntity
  8
MODEL
  6
Continuous
 62
     0
370
    13
100
AcDbMText
 10
1490.009058838776
 20
1844.192334550586
 30
0.0
 40
24.4326171875
 41
0.0
 46
0.0
 71
     5
 72
     1
  1
\A1;300
  7
ＭＳ ゴシック
 73
     1
 44
1.0
  0
POINT
  5
4668
330
465F
100
AcDbEntity
  8
Defpoints
 62
     0
100
AcDbPoint
 10
1340.009058838776
 20
2012.490223551314
 30
0.0
  0
POINT
  5
4669
330
465F
100
AcDbEntity
  8
Defpoints
 62
     0
100
AcDbPoint
 10
1640.009058838776
 20
2012.490223551314
 30
0.0
  0
POINT
  5
466A
330
465F
100
AcDbEntity
  8
Defpoints
 62
     0
100
AcDbPoint
 10
1640.009058838776
 20
1821.976025956836
 30
0.0
  0
ENDBLK
  5
4661
330
465F
100
AcDbEntity
  8
0
100
AcDbBlockEnd
  0
BLOCK
  5
467B
330
467A
100
AcDbEntity
  8
0
100
AcDbBlockBegin
  2
*D62
 70
     1
 10
0.0
 20
0.0
 30
0.0
  3
*D62
  1
*D62
  0
LINE
  5
467D
330
467A
100
AcDbEntity
  8
MODEL
  6
Continuous
 62
     0
370
    -2
100
AcDbLine
 10
470.3271599257282
 20
2279.803224747443
 30
0.0
 11
470.3271599257282
 21
2375.818201503414
 31
0.0
  0
LINE
  5
467E
330
467A
100
AcDbEntity
  8
MODEL
  6
Continuous
 62
     0
370
    -2
100
AcDbLine
 10
570.3287015656338
 20
2282.76600881929
 30
0.0
 11
570.3287015656338
 21
2375.818201503414
 31
0.0
  0
LINE
  5
467F
330
467A
100
AcDbEntity
  8
MODEL
  6
Continuous
 62
     0
370
    -2
100
AcDbLine
 10
479.3271599257282
 20
2375.818201503414
 30
0.0
 11
561.3287015656338
 21
2375.818201503414
 31
0.0
  0
INSERT
  5
4680
330
467A
100
AcDbEntity
  8
MODEL
 62
     0
370
    -2
100
AcDbBlockReference
  2
_DOT
 10
470.3271599257282
 20
2375.818201503414
 30
0.0
 41
9.0
 42
9.0
 43
9.0
 50
180.0
  0
INSERT
  5
4681
330
467A
100
AcDbEntity
  8
MODEL
 62
     0
370
    -2
100
AcDbBlockReference
  2
_DOT
 10
570.3287015656338
 20
2375.818201503414
 30
0.0
 41
9.0
 42
9.0
 43
9.0
  0
MTEXT
  5
4682
330
467A
100
AcDbEntity
  8
MODEL
  6
Continuous
 62
     0
370
    13
100
AcDbMText
 10
520.327930745681
 20
2398.034510097164
 30
0.0
 40
24.4326171875
 41
0.0
 46
0.0
 71
     5
 72
     1
  1
\A1;100
  7
ＭＳ ゴシック
 73
     1
 44
1.0
  0
POINT
  5
4683
330
467A
100
AcDbEntity
  8
Defpoints
 62
     0
100
AcDbPoint
 10
470.3271599257282
 20
2254.803224747443
 30
0.0
  0
POINT
  5
4684
330
467A
100
AcDbEntity
  8
Defpoints
 62
     0
100
AcDbPoint
 10
570.3287015656338
 20
2257.76600881929
 30
0.0
  0
POINT
  5
4685
330
467A
100
AcDbEntity
  8
Defpoints
 62
     0
100
AcDbPoint
 10
570.3287015656338
 20
2375.818201503414
 30
0.0
  0
ENDBLK
  5
467C
330
467A
100
AcDbEntity
  8
0
100
AcDbBlockEnd
  0
BLOCK
  5
468A
330
4689
100
AcDbEntity
  8
0
100
AcDbBlockBegin
  2
*D63
 70
     1
 10
0.0
 20
0.0
 30
0.0
  3
*D63
  1
*D63
  0
LINE
  5
468C
330
4689
100
AcDbEntity
  8
MODEL
  6
Continuous
 62
     0
370
    -2
100
AcDbLine
 10
570.3287015656338
 20
2282.76600881929
 30
0.0
 11
570.3287015656338
 21
2375.818201503414
 31
0.0
  0
LINE
  5
468D
330
4689
100
AcDbEntity
  8
MODEL
  6
Continuous
 62
     0
370
    -2
100
AcDbLine
 10
670.3274871273329
 20
2279.800468669236
 30
0.0
 11
670.3274871273329
 21
2375.818201503414
 31
0.0
  0
LINE
  5
468E
330
4689
100
AcDbEntity
  8
MODEL
  6
Continuous
 62
     0
370
    -2
100
AcDbLine
 10
579.3287015656338
 20
2375.818201503414
 30
0.0
 11
661.3274871273329
 21
2375.818201503414
 31
0.0
  0
INSERT
  5
468F
330
4689
100
AcDbEntity
  8
MODEL
 62
     0
370
    -2
100
AcDbBlockReference
  2
_DOT
 10
570.3287015656338
 20
2375.818201503414
 30
0.0
 41
9.0
 42
9.0
 43
9.0
 50
180.0
  0
INSERT
  5
4690
330
4689
100
AcDbEntity
  8
MODEL
 62
     0
370
    -2
100
AcDbBlockReference
  2
_DOT
 10
670.3274871273329
 20
2375.818201503414
 30
0.0
 41
9.0
 42
9.0
 43
9.0
  0
MTEXT
  5
4691
330
4689
100
AcDbEntity
  8
MODEL
  6
Continuous
 62
     0
370
    13
100
AcDbMText
 10
620.3280943464833
 20
2398.034510097164
 30
0.0
 40
24.4326171875
 41
0.0
 46
0.0
 71
     5
 72
     1
  1
\A1;100
  7
ＭＳ ゴシック
 73
     1
 44
1.0
  0
POINT
  5
4692
330
4689
100
AcDbEntity
  8
Defpoints
 62
     0
100
AcDbPoint
 10
570.3287015656338
 20
2257.76600881929
 30
0.0
  0
POINT
  5
4693
330
4689
100
AcDbEntity
  8
Defpoints
 62
     0
100
AcDbPoint
 10
670.3274871273329
 20
2254.800468669236
 30
0.0
  0
POINT
  5
4694
330
4689
100
AcDbEntity
  8
Defpoints
 62
     0
100
AcDbPoint
 10
670.3274871273329
 20
2375.818201503414
 30
0.0
  0
ENDBLK
  5
468B
330
4689
100
AcDbEntity
  8
0
100
AcDbBlockEnd
  0
ENDSEC
  0
SECTION
  2
ENTITIES
  0
MTEXT
  5
177
330
A
100
AcDbEntity
  8
template
370
    20
390
1D
100
AcDbMText
 10
47.00000000048203
 20
321.1379815200517
 30
0.0
 40
16.28841145833333
 41
0.0
 46
0.0
 71
     1
 72
     1
  1
品名
  7
ＭＳ ゴシック
 73
     1
 44
0.7828267384257843
  0
MTEXT
  5
178
330
A
100
AcDbEntity
  8
template
370
    20
390
1D
100
AcDbMText
 10
47.00000000048203
 20
236.1379815200515
 30
0.0
 40
16.28841145833333
 41
0.0
 46
0.0
 71
     1
 72
     1
  1
仕様
  7
ＭＳ ゴシック
 73
     1
 44
0.7828267384257843
  0
LINE
  5
179
330
A
100
AcDbEntity
  8
template
  6
Continuous
370
    20
390
1D
100
AcDbLine
 10
1990.0
 20
244.5529033950516
 30
0.0
 11
40.0
 21
244.5529033950516
 31
0.0
  0
LWPOLYLINE
  5
17A
330
A
100
AcDbEntity
  8
template
  6
Continuous
370
    20
390
1D
100
AcDbPolyline
 90
        5
 70
   128
 43
0.0
 10
1990.0
 20
2874.552903395052
 10
40.0
 20
2874.552903395052
 10
40.0
 20
74.55290339505154
 10
1990.0
 20
74.55290339505154
 10
1990.0
 20
2874.552903395052
  0
LINE
  5
17B
330
A
100
AcDbEntity
  8
template
  6
Continuous
370
    20
390
1D
100
AcDbLine
 10
1990.0
 20
329.5529033950515
 30
0.0
 11
40.0
 21
329.5529033950515
 31
0.0
  0
LINE
  5
17C
330
A
100
AcDbEntity
  8
template
  6
Continuous
370
    20
390
1D
100
AcDbLine
 10
1990.000000000482
 20
159.5529033950516
 30
0.0
 11
1237.000000000482
 21
159.5529033950516
 31
0.0
  0
MTEXT
  5
17D
330
A
100
AcDbEntity
  8
template
370
    20
390
1D
100
AcDbMText
 10
40.00000000068576
 20
62.69908133819445
 30
0.0
 40
21.71788194444445
 41
0.0
 46
21.71788194444445
 71
     1
 72
     1
  1
{141016HO}
  7
ＭＳ ゴシック
 73
     1
 44
0.7828267384257843
1001
ACAD
1000
ACAD_MTEXT_DEFINED_HEIGHT_BEGIN
1070
    46
1040
21.71788194444445
1000
ACAD_MTEXT_DEFINED_HEIGHT_END
  0
MTEXT
  5
17E
330
A
100
AcDbEntity
  8
template
370
    20
390
1D
100
AcDbMText
 10
1266.871406252743
 20
129.6425089217435
 30
0.0
 40
24.4326171875
 41
0.0
 46
0.0
 71
     1
 72
     1
  1
大洋金物株式会社 ティーフォルム事業部
  7
ＭＳ ゴシック
 73
     1
 44
0.7828267384257843
  0
MTEXT
  5
180
330
A
100
AcDbEntity
  8
template
370
    20
390
1D
100
AcDbMText
 10
1802.089894676016
 20
204.0242123822379
 30
0.0
 40
24.4326171875
 41
0.0
 46
0.0
 71
     1
 72
     1
  1
1:10
  7
ＭＳ ゴシック
 73
     1
 44
0.7828267384257843
  0
MTEXT
  5
181
330
A
100
AcDbEntity
  8
template
370
    20
390
1D
100
AcDbMText
 10
1746.000000000742
 20
236.1379815200515
 30
0.0
 40
16.28841145833333
 41
0.0
 46
0.0
 71
     1
 72
     1
  1
縮尺
  7
ＭＳ ゴシック
 73
     1
 44
0.7828267384257843
  0
LINE
  5
182
330
A
100
AcDbEntity
  8
template
  6
Continuous
370
    20
390
1D
100
AcDbLine
 10
1739.000000000742
 20
159.5529033950516
 30
0.0
 11
1739.000000000742
 21
244.5529033950516
 31
0.0
  0
MTEXT
  5
183
330
A
100
AcDbEntity
  8
template
370
    20
390
1D
100
AcDbMText
 10
1495.000000000742
 20
236.1379815200515
 30
0.0
 40
16.28841145833333
 41
0.0
 46
0.0
 71
     1
 72
     1
  1
容量
  7
ＭＳ ゴシック
 73
     1
 44
0.7828267384257843
  0
LINE
  5
184
330
A
100
AcDbEntity
  8
template
  6
Continuous
370
    20
390
1D
100
AcDbLine
 10
1488.000000000742
 20
159.5529033950516
 30
0.0
 11
1488.000000000742
 21
244.5529033950516
 31
0.0
  0
MTEXT
  5
185
330
A
100
AcDbEntity
  8
template
370
    20
390
1D
100
AcDbMText
 10
1244.000000000742
 20
321.1379815200517
 30
0.0
 40
16.28841145833333
 41
0.0
 46
0.0
 71
     1
 72
     1
  1
品番
  7
ＭＳ ゴシック
 73
     1
 44
0.7828267384257843
  0
MTEXT
  5
186
330
A
100
AcDbEntity
  8
template
370
    20
390
1D
100
AcDbMText
 10
1244.000000000742
 20
236.1379815200515
 30
0.0
 40
16.28841145833333
 41
0.0
 46
0.0
 71
     1
 72
     1
  1
重量
  7
ＭＳ ゴシック
 73
     1
 44
0.7828267384257843
  0
MTEXT
  5
187
330
A
100
AcDbEntity
  8
template
370
    20
390
1D
100
AcDbMText
 10
1297.000000000742
 20
292.5555205825515
 30
0.0
 40
24.4326171875
 41
0.0
 46
24.4326171875
 71
     1
 72
     1
  1
{GAR70-1506}
  7
ＭＳ ゴシック
 73
     1
 44
0.7828267384257843
1001
ACAD
1000
ACAD_MTEXT_DEFINED_HEIGHT_BEGIN
1070
    46
1040
24.4326171875
1000
ACAD_MTEXT_DEFINED_HEIGHT_END
  0
LINE
  5
188
330
A
100
AcDbEntity
  8
template
  6
Continuous
370
    20
390
1D
100
AcDbLine
 10
1237.000000000742
 20
74.55290339505154
 30
0.0
 11
1237.000000000742
 21
329.5529033950515
 31
0.0
  0
MTEXT
  5
189
330
A
100
AcDbEntity
  8
template
370
    20
390
1D
100
AcDbMText
 10
100.000000000482
 20
292.5555205825515
 30
0.0
 40
24.4326171875
 41
0.0
 46
24.4326171875
 71
     1
 72
     1
  1
{洗面器・手洗器 -LAUFEN,Living City-}
  7
ＭＳ ゴシック
 73
     1
 44
0.7828267384257843
1001
ACAD
1000
ACAD_MTEXT_DEFINED_HEIGHT_BEGIN
1070
    46
1040
24.4326171875
1000
ACAD_MTEXT_DEFINED_HEIGHT_END
  0
MTEXT
  5
18A
330
A
100
AcDbEntity
  8
template
370
    20
390
1D
100
AcDbMText
 10
100.000000000482
 20
207.5555205825515
 30
0.0
 40
24.4326171875
 41
0.0
 46
79.29651640808025
 71
     1
 72
     1
  1
{カウンター置き/オーバーフロー付き/カウンター固定金具,型紙付属/\P陶器,背面釉薬あり/ホワイト}
  7
ＭＳ ゴシック
 73
     1
 44
1.304711230709641
1001
ACAD
1000
ACAD_MTEXT_DEFINED_HEIGHT_BEGIN
1070
    46
1040
79.29651640808025
1000
ACAD_MTEXT_DEFINED_HEIGHT_END
  0
MTEXT
  5
1A6
330
A
100
AcDbEntity
  8
template
370
    20
390
1D
100
AcDbMText
 10
1297.000000000742
 20
207.5555205825515
 30
0.0
 40
24.4326171875
 41
0.0
 46
24.4326171875
 71
     1
 72
     1
  1
{16kg}
  7
ＭＳ ゴシック
 73
     1
 44
0.7828267384257843
1001
ACAD
1000
ACAD_MTEXT_DEFINED_HEIGHT_BEGIN
1070
    46
1040
24.4326171875
1000
ACAD_MTEXT_DEFINED_HEIGHT_END
  0
MTEXT
  5
374
330
A
100
AcDbEntity
  8
template
370
    20
390
1D
100
AcDbMText
 10
1549.098684948396
 20
204.242570220137
 30
0.0
 40
24.4326171875
 41
0.0
 46
24.4326171875
 71
     1
 72
     1
  1
{7L}
  7
ＭＳ ゴシック
 73
     1
 44
0.7828267384257843
1001
ACAD
1000
ACAD_MTEXT_DEFINED_HEIGHT_BEGIN
1070
    46
1040
24.4326171875
1000
ACAD_MTEXT_DEFINED_HEIGHT_END
  0
INSERT
  5
3D0
330
A
100
AcDbEntity
  8
0
  6
Continuous
370
    20
100
AcDbBlockReference
  2
名称未設定-1
 10
1838.559250554905
 20
3.352995645277105
 30
0.0
 41
0.7619999999999999
 42
0.7619999999999999
 43
0.7619999999999999
  0
SPLINE
  5
42A5
330
A
100
AcDbEntity
  8
0
 62
     7
370
    20
100
AcDbSpline
210
0.0
220
0.0
230
1.0
 70
    11
 71
     3
 72
    17
 73
    13
 74
     0
 42
0.000000001
 43
0.0000000001
 40
0.0
 40
0.0
 40
0.0
 40
0.0
 40
1.0
 40
1.0
 40
1.0
 40
2.0
 40
2.0
 40
2.0
 40
3.0
 40
3.0
 40
3.0
 40
4.0
 40
4.0
 40
4.0
 40
4.0
 10
547.3264728552751
 20
2092.489510939733
 30
0.0
 10
547.3264728552751
 20
2105.178495001857
 30
0.0
 10
557.623181034271
 20
2115.486227493678
 30
0.0
 10
570.3287015656338
 20
2115.486227493678
 30
0.0
 10
583.0287099405838
 20
2115.486227493678
 30
0.0
 10
593.3309302759924
 20
2105.178495001857
 30
0.0
 10
593.3309302759924
 20
2092.489510939733
 30
0.0
 10
593.3309302759924
 20
2079.78399040837
 30
0.0
 10
583.0287099405838
 20
2069.487282229374
 30
0.0
 10
570.3287015656338
 20
2069.487282229374
 30
0.0
 10
557.623181034271
 20
2069.487282229374
 30
0.0
 10
547.3264728552751
 20
2079.78399040837
 30
0.0
 10
547.3264728552751
 20
2092.489510939733
 30
0.0
  0
SPLINE
  5
42A6
330
A
100
AcDbEntity
  8
0
 62
     7
370
    20
100
AcDbSpline
210
0.0
220
0.0
230
1.0
 70
    11
 71
     3
 72
    17
 73
    13
 74
     0
 42
0.000000001
 43
0.0000000001
 40
0.0
 40
0.0
 40
0.0
 40
0.0
 40
1.0
 40
1.0
 40
1.0
 40
2.0
 40
2.0
 40
2.0
 40
3.0
 40
3.0
 40
3.0
 40
4.0
 40
4.0
 40
4.0
 40
4.0
 10
532.8680865846616
 20
2092.489510939733
 30
0.0
 10
532.8680865846616
 20
2113.171121800328
 30
0.0
 10
549.6415785486254
 20
2129.944613764292
 30
0.0
 10
570.3287015656338
 20
2129.944613764292
 30
0.0
 10
591.0158245826422
 20
2129.944613764292
 30
0.0
 10
607.7838043901932
 20
2113.171121800328
 30
0.0
 10
607.7838043901932
 20
2092.489510939733
 30
0.0
 10
607.7838043901932
 20
2071.791363609899
 30
0.0
 10
591.0158245826422
 20
2055.017871645935
 30
0.0
 10
570.3287015656338
 20
2055.017871645935
 30
0.0
 10
549.6415785486254
 20
2055.017871645935
 30
0.0
 10
532.8680865846616
 20
2071.791363609899
 30
0.0
 10
532.8680865846616
 20
2092.489510939733
 30
0.0
  0
SPLINE
  5
42AE
330
A
100
AcDbEntity
  8
0
 62
     7
370
    20
100
AcDbSpline
210
0.0
220
0.0
230
1.0
 70
    11
 71
     3
 72
    32
 73
    28
 74
     0
 42
0.000000001
 43
0.0000000001
 40
0.0
 40
0.0
 40
0.0
 40
0.0
 40
1.0
 40
1.0
 40
1.0
 40
2.0
 40
2.0
 40
2.0
 40
3.0
 40
3.0
 40
3.0
 40
4.0
 40
4.0
 40
4.0
 40
5.0
 40
5.0
 40
5.0
 40
6.0
 40
6.0
 40
6.0
 40
7.0
 40
7.0
 40
7.0
 40
8.0
 40
8.0
 40
8.0
 40
9.0
 40
9.0
 40
9.0
 40
9.0
 10
814.1534283267174
 20
1892.480915503509
 30
0.0
 10
814.1534283267174
 20
1892.480915503509
 30
0.0
 10
328.8356169671385
 20
1892.458866877858
 30
0.0
 10
328.8356169671385
 20
1892.458866877858
 30
0.0
 10
328.8356169671385
 20
1892.458866877858
 30
0.0
 10
328.8356169671385
 20
1892.480915503509
 30
0.0
 10
328.8356169671385
 20
1892.480915503509
 30
0.0
 10
325.0377411987615
 20
1892.480915503509
 30
0.0
 10
322.0005430153426
 20
1895.600796033119
 30
0.0
 10
321.9674700768662
 20
1899.404183957909
 30
0.0
 10
321.339084245814
 20
2048.805671368779
 30
0.0
 10
321.339084245814
 20
2163.260087122885
 30
0.0
 10
321.9674700768662
 20
2312.622989438866
 30
0.0
 10
322.0225916409936
 20
2315.285360986218
 30
0.0
 10
324.1282353906597
 20
2317.418565517948
 30
0.0
 10
326.8126555636635
 20
2317.490223551314
 30
0.0
 10
326.8126555636635
 20
2317.490223551314
 30
0.0
 10
816.1763897301926
 20
2317.490223551314
 30
0.0
 10
816.1763897301926
 20
2317.490223551314
 30
0.0
 10
818.8608099031962
 20
2317.418565517948
 30
0.0
 10
820.9609414964498
 20
2315.285360986218
 30
0.0
 10
821.02157521699
 20
2312.622989438866
 30
0.0
 10
821.6499610480421
 20
2163.260087122885
 30
0.0
 10
821.6499610480421
 20
2048.805671368779
 30
0.0
 10
821.02157521699
 20
1899.404183957909
 30
0.0
 10
820.9885022785134
 20
1895.600796033119
 30
0.0
 10
817.9513040950944
 20
1892.480915503509
 30
0.0
 10
814.1534283267174
 20
1892.480915503509
 30
0.0
  0
SPLINE
  5
42BA
330
A
100
AcDbEntity
  8
0
 62
     7
370
    20
100
AcDbSpline
210
0.0
220
0.0
230
1.0
 70
     8
 71
     3
 72
    29
 73
    25
 74
     0
 42
0.000000001
 43
0.0000000001
 40
0.0
 40
0.0
 40
0.0
 40
0.0
 40
1.0
 40
1.0
 40
1.0
 40
2.0
 40
2.0
 40
2.0
 40
3.0
 40
3.0
 40
3.0
 40
4.0
 40
4.0
 40
4.0
 40
5.0
 40
5.0
 40
5.0
 40
6.0
 40
6.0
 40
6.0
 40
7.0
 40
7.0
 40
7.0
 40
8.0
 40
8.0
 40
8.0
 40
8.0
 10
1599.282047564908
 20
763.5961230016358
 30
0.0
 10
1596.724406989397
 20
762.5212525011518
 30
0.0
 10
1594.001401721504
 20
761.9149152957505
 30
0.0
 10
1591.184689794594
 20
761.6227710058754
 30
0.0
 10
1591.184689794594
 20
761.6227710058754
 30
0.0
 10
1530.258824964593
 20
757.3673862552412
 30
0.0
 10
1530.258824964593
 20
757.3673862552412
 30
0.0
 10
1527.271236188889
 20
757.1579243115573
 30
0.0
 10
1524.901008931412
 20
754.7491119591903
 30
0.0
 10
1524.741156395442
 20
751.7449867142476
 30
0.0
 10
1524.741156395442
 20
751.7449867142476
 30
0.0
 10
1524.730132082617
 20
751.425281642309
 30
0.0
 10
1524.730132082617
 20
751.425281642309
 30
0.0
 10
1524.647449736426
 20
749.8432927518528
 30
0.0
 10
1523.346580823019
 20
748.6030575589865
 30
0.0
 10
1521.75907977615
 20
748.6030575589865
 30
0.0
 10
1521.75907977615
 20
748.6030575589865
 30
0.0
 10
1458.2590379014
 20
748.6030575589865
 30
0.0
 10
1458.2590379014
 20
748.6030575589865
 30
0.0
 10
1456.671536854532
 20
748.6030575589865
 30
0.0
 10
1455.370667941125
 20
749.8432927518528
 30
0.0
 10
1455.287985594935
 20
751.425281642309
 30
0.0
 10
1455.287985594935
 20
751.425281642309
 30
0.0
 10
1454.648575451057
 20
763.6071473144614
 30
0.0
 10
1454.648575451057
 20
763.6071473144614
 30
0.0
  0
SPLINE
  5
42BC
330
A
100
AcDbEntity
  8
0
 62
     7
370
    20
100
AcDbSpline
210
0.0
220
0.0
230
1.0
 70
    11
 71
     3
 72
    32
 73
    28
 74
     0
 42
0.000000001
 43
0.0000000001
 40
0.0
 40
0.0
 40
0.0
 40
0.0
 40
1.0
 40
1.0
 40
1.0
 40
2.0
 40
2.0
 40
2.0
 40
3.0
 40
3.0
 40
3.0
 40
4.0
 40
4.0
 40
4.0
 40
5.0
 40
5.0
 40
5.0
 40
6.0
 40
6.0
 40
6.0
 40
7.0
 40
7.0
 40
7.0
 40
8.0
 40
8.0
 40
8.0
 40
9.0
 40
9.0
 40
9.0
 40
9.0
 10
1707.739237141954
 20
763.6071473144614
 30
0.0
 10
1709.3598111273
 20
763.6071473144614
 30
0.0
 10
1710.682728666357
 20
764.9190405406932
 30
0.0
 10
1710.71028944842
 20
766.5451266824509
 30
0.0
 10
1710.71028944842
 20
766.5451266824509
 30
0.0
 10
1712.953737108405
 20
896.4776776435276
 30
0.0
 10
1712.953737108405
 20
896.4776776435276
 30
0.0
 10
1713.025395141771
 20
900.3527236016832
 30
0.0
 10
1709.971660489113
 20
903.5332378518331
 30
0.0
 10
1706.146223938673
 20
903.6048958851986
 30
0.0
 10
1706.146223938673
 20
903.6048958851986
 30
0.0
 10
1294.884233984238
 20
903.6048958851986
 30
0.0
 10
1294.884233984238
 20
903.6048958851986
 30
0.0
 10
1294.845648889349
 20
903.6048958851986
 30
0.0
 10
1294.801551638047
 20
903.6048958851986
 30
0.0
 10
1294.762966543158
 20
903.6048958851986
 30
0.0
 10
1290.937529992717
 20
903.5332378518331
 30
0.0
 10
1287.88379534006
 20
900.3527236016832
 30
0.0
 10
1287.955453373426
 20
896.4776776435276
 30
0.0
 10
1287.955453373426
 20
896.4776776435276
 30
0.0
 10
1290.19890103341
 20
766.5451266824509
 30
0.0
 10
1290.19890103341
 20
766.5451266824509
 30
0.0
 10
1290.226461815474
 20
764.9190405406932
 30
0.0
 10
1291.549379354531
 20
763.6071473144614
 30
0.0
 10
1293.169953339876
 20
763.6071473144614
 30
0.0
 10
1293.169953339876
 20
763.6071473144614
 30
0.0
 10
1707.739237141954
 20
763.6071473144614
 30
0.0
 10
1707.739237141954
 20
763.6071473144614
 30
0.0
  0
SPLINE
  5
42D4
330
A
100
AcDbEntity
  8
0
 62
     7
370
    20
100
AcDbSpline
210
0.0
220
0.0
230
1.0
 70
    11
 71
     3
 72
    38
 73
    34
 74
     0
 42
0.000000001
 43
0.0000000001
 40
0.0
 40
0.0
 40
0.0
 40
0.0
 40
1.0
 40
1.0
 40
1.0
 40
2.0
 40
2.0
 40
2.0
 40
3.0
 40
3.0
 40
3.0
 40
4.0
 40
4.0
 40
4.0
 40
5.0
 40
5.0
 40
5.0
 40
6.0
 40
6.0
 40
6.0
 40
7.0
 40
7.0
 40
7.0
 40
8.0
 40
8.0
 40
8.0
 40
9.0
 40
9.0
 40
9.0
 40
10.0
 40
10.0
 40
10.0
 40
11.0
 40
11.0
 40
11.0
 40
11.0
 10
327.4768704113985
 20
903.6048958851989
 30
0.0
 10
323.6459217045451
 20
903.6048958851989
 30
0.0
 10
320.548089800586
 20
900.5070639812398
 30
0.0
 10
320.548089800586
 20
896.6871395872117
 30
0.0
 10
320.548089800586
 20
896.6485544923223
 30
0.0
 10
320.548089800586
 20
896.6154815538462
 30
0.0
 10
320.548089800586
 20
896.5824086153698
 30
0.0
 10
320.548089800586
 20
896.5824086153698
 30
0.0
 10
320.063020036265
 20
896.5824086153698
 30
0.0
 10
320.063020036265
 20
896.5824086153698
 30
0.0
 10
320.063020036265
 20
896.5824086153698
 30
0.0
 10
322.3230041654879
 20
766.5285902132127
 30
0.0
 10
322.3230041654879
 20
766.5285902132127
 30
0.0
 10
322.3450527911389
 20
764.9300648535184
 30
0.0
 10
323.6679703301961
 20
763.6071473144614
 30
0.0
 10
325.2830321591285
 20
763.6071473144614
 30
0.0
 10
325.2830321591285
 20
763.6071473144614
 30
0.0
 10
815.3743709721391
 20
763.6071473144614
 30
0.0
 10
815.3743709721391
 20
763.6071473144614
 30
0.0
 10
817.0114814267224
 20
763.6071473144614
 30
0.0
 10
818.3343989657799
 20
764.9300648535184
 30
0.0
 10
818.3674719042563
 20
766.5285902132127
 30
0.0
 10
818.3674719042563
 20
766.5285902132127
 30
0.0
 10
820.5943830950027
 20
896.5824086153698
 30
0.0
 10
820.5943830950027
 20
896.5824086153698
 30
0.0
 10
820.6605289719555
 20
900.4023330093976
 30
0.0
 10
817.6343551013622
 20
903.5387500082459
 30
0.0
 10
813.8089185509214
 20
903.6048958851989
 30
0.0
 10
813.7372605175558
 20
903.6048958851989
 30
0.0
 10
813.709699735492
 20
903.6048958851989
 30
0.0
 10
813.6656024841902
 20
903.6048958851989
 30
0.0
 10
813.6656024841902
 20
903.6048958851989
 30
0.0
 10
327.4768704113985
 20
903.6048958851989
 30
0.0
 10
327.4768704113985
 20
903.6048958851989
 30
0.0
  0
SPLINE
  5
42D6
330
A
100
AcDbEntity
  8
0
 62
     7
370
    20
100
AcDbSpline
210
0.0
220
0.0
230
1.0
 70
     8
 71
     3
 72
    20
 73
    16
 74
     0
 42
0.000000001
 43
0.0000000001
 40
0.0
 40
0.0
 40
0.0
 40
0.0
 40
1.0
 40
1.0
 40
1.0
 40
2.0
 40
2.0
 40
2.0
 40
3.0
 40
3.0
 40
3.0
 40
4.0
 40
4.0
 40
4.0
 40
5.0
 40
5.0
 40
5.0
 40
5.0
 10
535.1749240433928
 20
763.7008539734779
 30
0.0
 10
535.1749240433928
 20
763.7008539734779
 30
0.0
 10
535.908040846287
 20
751.5079639884998
 30
0.0
 10
535.908040846287
 20
751.5079639884998
 30
0.0
 10
535.9852110360654
 20
749.9369994108692
 30
0.0
 10
537.2860799494717
 20
748.6967642180032
 30
0.0
 10
538.8735809963405
 20
748.6967642180032
 30
0.0
 10
538.8735809963405
 20
748.6967642180032
 30
0.0
 10
602.3129891505503
 20
748.6967642180032
 30
0.0
 10
602.3129891505503
 20
748.6967642180032
 30
0.0
 10
603.8894658845934
 20
748.6967642180032
 30
0.0
 10
605.1903347979999
 20
749.9369994108692
 30
0.0
 10
605.2730171441908
 20
751.5079639884998
 30
0.0
 10
605.2730171441908
 20
751.5079639884998
 30
0.0
 10
606.0116461034979
 20
763.7008539734779
 30
0.0
 10
606.0116461034979
 20
763.7008539734779
 30
0.0
  0
SPLINE
  5
42D7
330
A
100
AcDbEntity
  8
0
 62
     7
370
    20
100
AcDbSpline
210
0.0
220
0.0
230
1.0
 70
    11
 71
     3
 72
    35
 73
    31
 74
     0
 42
0.000000001
 43
0.0000000001
 40
0.0
 40
0.0
 40
0.0
 40
0.0
 40
1.0
 40
1.0
 40
1.0
 40
2.0
 40
2.0
 40
2.0
 40
3.0
 40
3.0
 40
3.0
 40
4.0
 40
4.0
 40
4.0
 40
5.0
 40
5.0
 40
5.0
 40
6.0
 40
6.0
 40
6.0
 40
7.0
 40
7.0
 40
7.0
 40
8.0
 40
8.0
 40
8.0
 40
9.0
 40
9.0
 40
9.0
 40
10.0
 40
10.0
 40
10.0
 40
10.0
 10
320.548089800586
 20
896.5824086153698
 30
0.0
 10
320.548089800586
 20
896.5824086153698
 30
0.0
 10
322.7915374605707
 20
766.6553698107057
 30
0.0
 10
322.7915374605707
 20
766.6553698107057
 30
0.0
 10
322.8190982426344
 20
765.0127471997096
 30
0.0
 10
324.1420157816917
 20
763.7008539734779
 30
0.0
 10
325.7681019234495
 20
763.7008539734779
 30
0.0
 10
325.7681019234495
 20
763.7008539734779
 30
0.0
 10
815.3853952849645
 20
763.7008539734779
 30
0.0
 10
815.3853952849645
 20
763.7008539734779
 30
0.0
 10
817.0059692703098
 20
763.7008539734779
 30
0.0
 10
818.3288868093671
 20
765.0127471997096
 30
0.0
 10
818.3509354350181
 20
766.6553698107057
 30
0.0
 10
818.3509354350181
 20
766.6553698107057
 30
0.0
 10
820.5943830950027
 20
896.5824086153698
 30
0.0
 10
820.5943830950027
 20
896.5824086153698
 30
0.0
 10
820.6605289719555
 20
900.4464302606996
 30
0.0
 10
817.6178186321238
 20
903.6324566672624
 30
0.0
 10
813.7923820816832
 20
903.6986025442154
 30
0.0
 10
813.753796986794
 20
903.6986025442154
 30
0.0
 10
813.709699735492
 20
903.6986025442154
 30
0.0
 10
813.6766267970156
 20
903.6986025442154
 30
0.0
 10
813.6766267970156
 20
903.6986025442154
 30
0.0
 10
813.7923820816832
 20
903.6986025442154
 30
0.0
 10
813.7923820816832
 20
903.6986025442154
 30
0.0
 10
813.7923820816832
 20
903.6986025442154
 30
0.0
 10
327.4768704113985
 20
903.6986025442154
 30
0.0
 10
327.4768704113985
 20
903.6986025442154
 30
0.0
 10
323.6459217045451
 20
903.6930903878026
 30
0.0
 10
320.503992549284
 20
900.4464302606996
 30
0.0
 10
320.548089800586
 20
896.5824086153698
 30
0.0
  0
LINE
  5
42FC
330
A
100
AcDbEntity
  8
0
 62
     7
370
    20
100
AcDbLine
 10
1530.258824964593
 20
757.3673862552412
 30
0.0
 11
1516.654822937954
 21
756.4137831958371
 31
0.0
  0
DIMENSION
  5
432D
330
A
100
AcDbEntity
  8
MODEL
  6
Continuous
370
    13
100
AcDbDimension
  2
*D30
 10
908.5112434555497
 20
1892.480915503509
 30
0.0
 11
886.2949348617997
 21
2104.985569527412
 31
0.0
 70
    32
 71
     5
 42
425.009308047805
 73
     0
 74
     0
 75
     0
  3
JIS
100
AcDbAlignedDimension
 13
816.7359403365309
 23
2317.490223551314
 33
0.0
 14
814.1534283267174
 24
1892.480915503509
 34
0.0
 50
90.0
100
AcDbRotatedDimension
1001
ACAD
1000
DSTYLE
1002
{
1070
   179
1070
     0
1070
   271
1070
     0
1070
    43
1040
25.0
1070
    44
1040
0.0
1070
    42
1040
25.0
1002
}
  0
LINE
  5
4378
330
A
100
AcDbEntity
  8
MODEL
  6
Continuous
370
    20
100
AcDbLine
 10
360.3337381790174
 20
2192.490223551314
 30
0.0
 11
570.3287015656338
 21
2192.490223551314
 31
0.0
  0
LINE
  5
4379
330
A
100
AcDbEntity
  8
MODEL
  6
Continuous
370
    20
100
AcDbLine
 10
350.3337381790174
 20
2182.490223551314
 30
0.0
 11
350.3337381790174
 21
1952.469838225901
 31
0.0
  0
ARC
  5
437A
330
A
100
AcDbEntity
  8
MODEL
  6
Continuous
370
    20
100
AcDbCircle
 10
360.3337381790174
 20
2182.490223551314
 30
0.0
 40
10.0
100
AcDbArc
 50
90.0
 51
180.0
  0
LINE
  5
437C
330
A
100
AcDbEntity
  8
MODEL
  6
Continuous
370
    20
100
AcDbLine
 10
360.3337381790174
 20
1942.469838225901
 30
0.0
 11
570.3287015656338
 21
1942.469838225901
 31
0.0
  0
ARC
  5
437D
330
A
100
AcDbEntity
  8
MODEL
  6
Continuous
370
    20
100
AcDbCircle
 10
360.3337381790174
 20
1952.469838225901
 30
0.0
 40
10.0
100
AcDbArc
 50
180.0
 51
270.0
  0
LINE
  5
437E
330
A
100
AcDbEntity
  8
MODEL
  6
Continuous
370
    20
100
AcDbLine
 10
780.3236649522502
 20
2192.490223551314
 30
0.0
 11
570.3287015656338
 21
2192.490223551314
 31
0.0
  0
ARC
  5
437F
330
A
100
AcDbEntity
  8
MODEL
  6
Continuous
370
    20
100
AcDbCircle
 10
780.3236649522502
 20
2182.490223551314
 30
0.0
 40
10.0
100
AcDbArc
 50
0.0
 51
90.0
  0
LINE
  5
4380
330
A
100
AcDbEntity
  8
MODEL
  6
Continuous
370
    20
100
AcDbLine
 10
790.3236649522502
 20
2182.490223551314
 30
0.0
 11
790.3236649522502
 21
1952.469838225901
 31
0.0
  0
LINE
  5
4381
330
A
100
AcDbEntity
  8
MODEL
  6
Continuous
370
    20
100
AcDbLine
 10
780.3236649522502
 20
1942.469838225901
 30
0.0
 11
570.3287015656338
 21
1942.469838225901
 31
0.0
  0
ARC
  5
4382
330
A
100
AcDbEntity
  8
MODEL
  6
Continuous
370
    20
100
AcDbCircle
 10
780.3236649522502
 20
1952.469838225901
 30
0.0
 40
10.0
100
AcDbArc
 50
270.0
 51
0.0
  0
DIMENSION
  5
4384
330
A
100
AcDbEntity
  8
MODEL
  6
Continuous
370
    13
100
AcDbDimension
  2
*D35
 10
230.3546966046064
 20
1942.469838225901
 30
0.0
 11
230.3546966046064
 21
2067.480030888607
 31
0.0
 70
   160
 71
     5
 42
250.0203853254131
 73
     0
 74
     0
 75
     0
  3
JIS
100
AcDbAlignedDimension
 13
360.3337381790174
 23
2192.490223551314
 33
0.0
 14
360.3337381790174
 24
1942.469838225901
 34
0.0
 50
90.0
100
AcDbRotatedDimension
1001
ACAD
1000
DSTYLE
1002
{
1070
   179
1070
     0
1070
   271
1070
     0
1070
    43
1040
25.0
1070
    44
1040
0.0
1070
    42
1040
25.0
1002
}
  0
DIMENSION
  5
4393
330
A
100
AcDbEntity
  8
MODEL
  6
Continuous
370
    13
100
AcDbDimension
  2
*D36
 10
790.3236649522502
 20
1815.710194775093
 30
0.0
 11
570.3287015656338
 21
1837.926503368843
 31
0.0
 70
    32
 71
     5
 42
439.9899267732328
 73
     0
 74
     0
 75
     0
  3
JIS
100
AcDbAlignedDimension
 13
350.3337381790174
 23
1952.469838225901
 33
0.0
 14
790.3236649522502
 24
1952.469838225901
 34
0.0
100
AcDbRotatedDimension
1001
ACAD
1000
DSTYLE
1002
{
1070
   179
1070
     0
1070
   271
1070
     0
1070
    43
1040
25.0
1070
    44
1040
0.0
1070
    42
1040
25.0
1002
}
  0
DIMENSION
  5
43A2
330
A
100
AcDbEntity
  8
MODEL
  6
Continuous
370
    13
100
AcDbDimension
  2
*D37
 10
230.3546966046065
 20
2317.490223551314
 30
0.0
 11
230.3546966046065
 21
2254.990223551314
 31
0.0
 70
   160
 71
     5
 42
125.0
 73
     0
 74
     0
 75
     0
  3
JIS
100
AcDbAlignedDimension
 13
321.5846934104023
 23
2192.490223551314
 33
0.0
 14
323.4142727547026
 24
2317.490223551314
 34
0.0
 50
90.0
100
AcDbRotatedDimension
1001
ACAD
1000
DSTYLE
1002
{
1070
   179
1070
     0
1070
   271
1070
     0
1070
    43
1040
25.0
1070
    44
1040
0.0
1070
    42
1040
25.0
1002
}
  0
DIMENSION
  5
43B4
330
A
100
AcDbEntity
  8
MODEL
  6
Continuous
370
    13
100
AcDbDimension
  2
*D38
 10
821.4022901424133
 20
2470.653138523554
 30
0.0
 11
571.4934917764078
 21
2470.653138523554
 31
0.0
 70
   160
 71
     5
 42
499.8175967320111
 73
     0
 74
     0
 75
     0
  3
JIS
100
AcDbAlignedDimension
 13
321.5846934104023
 23
2304.821984923268
 33
0.0
 14
821.4022901424133
 24
2305.839891372386
 34
0.0
100
AcDbRotatedDimension
1001
ACAD
1000
DSTYLE
1002
{
1070
   179
1070
     0
1070
   271
1070
     0
1070
    43
1040
25.0
1070
    44
1040
0.0
1070
    42
1040
25.0
1002
}
  0
SPLINE
  5
43DA
330
A
100
AcDbEntity
  8
0
  6
STYLE_12
 62
     7
370
    20
100
AcDbSpline
210
0.0
220
0.0
230
1.0
 70
    11
 71
     3
 72
    17
 73
    13
 74
     0
 42
0.000000001
 43
0.0000000001
 40
0.0
 40
0.0
 40
0.0
 40
0.0
 40
1.0
 40
1.0
 40
1.0
 40
2.0
 40
2.0
 40
2.0
 40
3.0
 40
3.0
 40
3.0
 40
4.0
 40
4.0
 40
4.0
 40
4.0
 10
1467.006830128417
 20
2092.489510939733
 30
0.0
 10
1467.006830128417
 20
2105.178495001858
 30
0.0
 10
1477.303538307413
 20
2115.486227493679
 30
0.0
 10
1490.009058838776
 20
2115.486227493679
 30
0.0
 10
1502.709067213726
 20
2115.486227493679
 30
0.0
 10
1513.011287549134
 20
2105.178495001858
 30
0.0
 10
1513.011287549134
 20
2092.489510939733
 30
0.0
 10
1513.011287549134
 20
2079.78399040837
 30
0.0
 10
1502.709067213726
 20
2069.487282229374
 30
0.0
 10
1490.009058838776
 20
2069.487282229374
 30
0.0
 10
1477.303538307413
 20
2069.487282229374
 30
0.0
 10
1467.006830128417
 20
2079.78399040837
 30
0.0
 10
1467.006830128417
 20
2092.489510939733
 30
0.0
  0
SPLINE
  5
43DC
330
A
100
AcDbEntity
  8
0
  6
STYLE_12
 62
     7
370
    20
100
AcDbSpline
210
0.0
220
0.0
230
1.0
 70
    11
 71
     3
 72
    32
 73
    28
 74
     0
 42
0.000000001
 43
0.0000000001
 40
0.0
 40
0.0
 40
0.0
 40
0.0
 40
1.0
 40
1.0
 40
1.0
 40
2.0
 40
2.0
 40
2.0
 40
3.0
 40
3.0
 40
3.0
 40
4.0
 40
4.0
 40
4.0
 40
5.0
 40
5.0
 40
5.0
 40
6.0
 40
6.0
 40
6.0
 40
7.0
 40
7.0
 40
7.0
 40
8.0
 40
8.0
 40
8.0
 40
9.0
 40
9.0
 40
9.0
 40
9.0
 10
1733.833785599859
 20
1892.480915503509
 30
0.0
 10
1733.833785599859
 20
1892.480915503509
 30
0.0
 10
1248.51597424028
 20
1892.458866877859
 30
0.0
 10
1248.51597424028
 20
1892.458866877859
 30
0.0
 10
1248.51597424028
 20
1892.458866877859
 30
0.0
 10
1248.51597424028
 20
1892.480915503509
 30
0.0
 10
1248.51597424028
 20
1892.480915503509
 30
0.0
 10
1244.718098471903
 20
1892.480915503509
 30
0.0
 10
1241.680900288485
 20
1895.600796033119
 30
0.0
 10
1241.647827350008
 20
1899.404183957909
 30
0.0
 10
1241.019441518956
 20
2048.805671368779
 30
0.0
 10
1241.019441518956
 20
2163.260087122885
 30
0.0
 10
1241.647827350008
 20
2312.622989438866
 30
0.0
 10
1241.702948914136
 20
2315.285360986218
 30
0.0
 10
1243.808592663802
 20
2317.418565517949
 30
0.0
 10
1246.493012836806
 20
2317.490223551314
 30
0.0
 10
1246.493012836806
 20
2317.490223551314
 30
0.0
 10
1735.856747003334
 20
2317.490223551314
 30
0.0
 10
1735.856747003334
 20
2317.490223551314
 30
0.0
 10
1738.541167176338
 20
2317.418565517949
 30
0.0
 10
1740.641298769592
 20
2315.285360986218
 30
0.0
 10
1740.701932490132
 20
2312.622989438866
 30
0.0
 10
1741.330318321184
 20
2163.260087122885
 30
0.0
 10
1741.330318321184
 20
2048.805671368779
 30
0.0
 10
1740.701932490132
 20
1899.404183957909
 30
0.0
 10
1740.668859551655
 20
1895.600796033119
 30
0.0
 10
1737.631661368236
 20
1892.480915503509
 30
0.0
 10
1733.833785599859
 20
1892.480915503509
 30
0.0
  0
LINE
  5
43DD
330
A
100
AcDbEntity
  8
0
 62
     7
370
    20
100
AcDbLine
 10
1700.011193851295
 20
2106.021854933006
 30
0.0
 11
1700.011193851295
 21
2092.489510939733
 31
0.0
  0
LINE
  5
43DE
102
{ACAD_REACTORS
330
458B
102
}
330
A
100
AcDbEntity
  8
0
 62
     7
370
    20
100
AcDbLine
 10
1700.011193851295
 20
2092.489510939733
 30
0.0
 11
1700.011193851295
 21
2078.951654790047
 31
0.0
  0
LINE
  5
43DF
330
A
100
AcDbEntity
  8
0
 62
     7
370
    20
100
AcDbLine
 10
1713.52700137533
 20
2092.489510939733
 30
0.0
 11
1700.011193851295
 21
2092.489510939733
 31
0.0
  0
LINE
  5
43E0
330
A
100
AcDbEntity
  8
0
 62
     7
370
    20
100
AcDbLine
 10
1700.011193851295
 20
2092.489510939733
 30
0.0
 11
1686.478849858021
 21
2092.489510939733
 31
0.0
  0
LINE
  5
43E1
102
{ACAD_REACTORS
330
458B
102
}
330
A
100
AcDbEntity
  8
0
 62
     7
370
    20
100
AcDbLine
 10
1280.006923826257
 20
2106.021854933006
 30
0.0
 11
1280.006923826257
 21
2092.489510939733
 31
0.0
  0
LINE
  5
43E2
330
A
100
AcDbEntity
  8
0
 62
     7
370
    20
100
AcDbLine
 10
1280.006923826257
 20
2092.489510939733
 30
0.0
 11
1280.006923826257
 21
2078.95716694646
 31
0.0
  0
LINE
  5
43E3
330
A
100
AcDbEntity
  8
0
 62
     7
370
    20
100
AcDbLine
 10
1293.528243506705
 20
2092.489510939733
 30
0.0
 11
1280.006923826257
 21
2092.489510939733
 31
0.0
  0
LINE
  5
43E4
330
A
100
AcDbEntity
  8
0
 62
     7
370
    20
100
AcDbLine
 10
1280.006923826257
 20
2092.489510939733
 30
0.0
 11
1266.474579832983
 21
2092.489510939733
 31
0.0
  0
CIRCLE
  5
443E
102
{ACAD_REACTORS
330
4679
330
4688
102
}
330
A
100
AcDbEntity
  8
MODEL
  6
Continuous
370
    20
100
AcDbCircle
 10
570.3287015656338
 20
2257.76600881929
 30
0.0
 40
17.5
  0
CIRCLE
  5
443F
102
{ACAD_REACTORS
330
4688
102
}
330
A
100
AcDbEntity
  8
MODEL
  6
STYLE_12
370
    20
100
AcDbCircle
 10
670.3274871273329
 20
2254.800468669236
 30
0.0
 40
17.5
  0
CIRCLE
  5
4440
102
{ACAD_REACTORS
330
4679
102
}
330
A
100
AcDbEntity
  8
MODEL
  6
STYLE_12
370
    20
100
AcDbCircle
 10
470.3271599257282
 20
2254.803224747443
 30
0.0
 40
17.5
  0
LINE
  5
4482
330
A
100
AcDbEntity
  8
MODEL
  6
STYLE_12
370
    20
100
AcDbLine
 10
547.3264728552751
 20
793.6986025442161
 30
0.0
 11
547.3264728552751
 21
748.6967642180034
 31
0.0
  0
LINE
  5
4483
330
A
100
AcDbEntity
  8
MODEL
  6
STYLE_12
370
    20
100
AcDbLine
 10
570.328701565634
 20
793.6986025442161
 30
0.0
 11
781.4884049465259
 21
803.1654248567959
 31
0.0
  0
LINE
  5
4484
330
A
100
AcDbEntity
  8
MODEL
  6
STYLE_12
370
    20
100
AcDbLine
 10
593.3309302759925
 20
793.6986025442161
 30
0.0
 11
593.3309302759925
 21
748.6967642180034
 31
0.0
  0
ARC
  5
4485
330
A
100
AcDbEntity
  8
MODEL
  6
STYLE_12
370
    20
100
AcDbCircle
 10
-1290.740368561853
 20
944.0299959373601
 30
0.0
 40
2081.454811635127
100
AcDbArc
 50
356.2482593970599
 51
358.8897365273434
  0
LINE
  5
4486
102
{ACAD_REACTORS
330
4520
102
}
330
A
100
AcDbEntity
  8
MODEL
  6
STYLE_12
370
    20
100
AcDbLine
 10
1490.009058838776
 20
793.6048958851991
 30
0.0
 11
1353.406367059043
 21
797.4746984348144
 31
0.0
  0
ARC
  5
4487
330
A
100
AcDbEntity
  8
MODEL
  6
STYLE_12
370
    20
100
AcDbCircle
 10
1752.147390664459
 20
895.2696819914954
 30
0.0
 40
414.2588318577147
100
AcDbArc
 50
178.8470859991654
 51
193.1054534452986
  0
ARC
  5
4488
330
A
100
AcDbEntity
  8
MODEL
  6
STYLE_12
370
    20
100
AcDbCircle
 10
-1526.9141563301
 20
976.4504380419919
 30
0.0
 40
3115.702187165729
100
AcDbArc
 50
356.7803308605429
 51
358.6602947861949
  0
LINE
  5
4489
330
A
100
AcDbEntity
  8
MODEL
  6
STYLE_12
370
    20
100
AcDbLine
 10
1513.011287549134
 20
793.6048958851991
 30
0.0
 11
1513.011287549134
 21
748.6030575589864
 31
0.0
  0
LINE
  5
448A
330
A
100
AcDbEntity
  8
MODEL
  6
STYLE_12
370
    20
100
AcDbLine
 10
1490.009058838776
 20
793.6048958851991
 30
0.0
 11
1579.054033336566
 21
796.7432614544632
 31
0.0
  0
LINE
  5
448B
330
A
100
AcDbEntity
  8
MODEL
  6
STYLE_12
370
    20
100
AcDbLine
 10
1467.006830128417
 20
793.6048958851991
 30
0.0
 11
1467.006830128417
 21
748.6030575589864
 31
0.0
  0
LINE
  5
44A1
330
A
100
AcDbEntity
  8
MODEL
  6
STYLE_12
370
    20
100
AcDbLine
 10
570.8633807376693
 20
793.6986025442161
 30
0.0
 11
359.7036773567775
 21
803.1654248567959
 31
0.0
  0
ARC
  5
44A2
330
A
100
AcDbEntity
  8
MODEL
  6
STYLE_12
370
    20
100
AcDbCircle
 10
2431.932450865157
 20
944.0299959373601
 30
0.0
 40
2081.454811635127
100
AcDbArc
 50
181.1102634726566
 51
183.7517406029401
  0
ARC
  5
44BF
330
A
100
AcDbEntity
  8
MODEL
  6
STYLE_12
370
    20
100
AcDbCircle
 10
1578.877919065268
 20
801.7401588682042
 30
0.0
 40
5.0
100
AcDbArc
 50
272.0185384213922
 51
356.780330860542
  0
ARC
  5
44C0
330
A
100
AcDbEntity
  8
MODEL
  6
STYLE_12
370
    20
100
AcDbCircle
 10
1353.547954703645
 20
802.4726933266584
 30
0.0
 40
5.0
100
AcDbArc
 50
193.1054534452991
 51
268.3773081893142
  0
ARC
  5
44C1
330
A
100
AcDbEntity
  8
MODEL
  6
STYLE_12
370
    20
100
AcDbCircle
 10
781.2644672696151
 20
808.1604075311259
 30
0.0
 40
5.0
100
AcDbArc
 50
272.5669954397849
 51
356.248259397059
  0
ARC
  5
44C2
330
A
100
AcDbEntity
  8
MODEL
  6
STYLE_12
370
    20
100
AcDbCircle
 10
359.9276150336882
 20
808.1604075311259
 30
0.0
 40
5.0
100
AcDbArc
 50
183.751740602941
 51
267.4330045602151
  0
DIMENSION
  5
44E4
330
A
100
AcDbEntity
  8
MODEL
  6
Continuous
370
    13
100
AcDbDimension
  2
*D48
 10
1712.777481323745
 20
975.5191634466369
 30
0.0
 11
1683.090877096743
 21
975.5191634466369
 31
0.0
 70
   160
 71
     5
 42
59.55898326018905
 73
     0
 74
     0
 75
     0
  3
JIS
100
AcDbAlignedDimension
 13
1653.218498063556
 23
886.269566203694
 33
0.0
 14
1712.777481323745
 24
886.269566203694
 34
0.0
100
AcDbRotatedDimension
1001
ACAD
1000
DSTYLE
1002
{
1070
   179
1070
     0
1070
   271
1070
     0
1070
    43
1040
25.0
1070
    44
1040
0.0
1070
    42
1040
25.0
1002
}
  0
LINE
  5
44F4
330
A
100
AcDbEntity
  8
MODEL
  6
Continuous
370
    20
100
AcDbLine
 10
1635.718498063556
 20
902.6738214340307
 30
0.0
 11
1635.718498063556
 21
893.744608027979
 31
0.0
  0
LINE
  5
44F5
330
A
100
AcDbEntity
  8
MODEL
  6
Continuous
370
    20
100
AcDbLine
 10
1670.718498063556
 20
902.6738214340307
 30
0.0
 11
1670.718498063556
 21
893.744608027979
 31
0.0
  0
DIMENSION
  5
450B
330
A
100
AcDbEntity
  8
MODEL
  6
Continuous
370
    13
100
AcDbDimension
  2
*D50
 10
1715.009058838776
 20
695.7764762596578
 30
0.0
 11
1602.509058838776
 21
717.9927848534078
 31
0.0
 70
    32
 71
     5
 42
225.0
 73
     0
 74
     0
 75
     0
  3
JIS
100
AcDbAlignedDimension
 13
1490.009058838776
 23
763.6071473144614
 33
0.0
 14
1715.009058838776
 24
763.6071473144614
 34
0.0
100
AcDbRotatedDimension
1001
ACAD
1000
DSTYLE
1002
{
1070
   179
1070
     0
1070
   271
1070
     0
1070
    43
1040
25.0
1070
    44
1040
0.0
1070
    42
1040
25.0
1002
}
  0
DIMENSION
  5
451E
102
{ACAD_REACTORS
330
4520
102
}
102
{ACAD_XDICTIONARY
360
451F
102
}
330
A
100
AcDbEntity
  8
MODEL
  6
Continuous
370
    13
100
AcDbDimension
  2
*D51
 10
1490.009058838777
 20
903.6048958851986
 30
0.0
 11
1490.009058838777
 21
997.792855846136
 31
0.0
 70
   160
 71
     5
 42
109.9999999999995
 73
     0
 74
     1
 75
     1
  3
JIS
100
AcDbAlignedDimension
 13
1490.009058838776
 23
793.6048958851991
 33
0.0
 14
1490.009058838777
 24
903.6048958851986
 34
0.0
 50
90.0
100
AcDbRotatedDimension
1001
ACAD
1000
DSTYLE
1002
{
1070
     3
1000
<>(深さ)
1070
   179
1070
     0
1070
   271
1070
     0
1070
    43
1040
25.0
1070
    44
1040
0.0
1070
    42
1040
25.0
1002
}
  0
LINE
  5
4530
330
A
100
AcDbEntity
  8
MODEL
  6
Continuous
370
    13
100
AcDbLine
 10
1490.009058838777
 20
798.1048958851991
 30
0.0
 11
1490.009058838777
 21
901.3548958851986
 31
0.0
  0
DIMENSION
  5
4531
330
A
100
AcDbEntity
  8
MODEL
  6
Continuous
370
    13
100
AcDbDimension
  2
*D52
 10
1223.750300104972
 20
903.6048958851986
 30
0.0
 11
1201.533991511222
 21
833.60602159983
 31
0.0
 70
    32
 71
     5
 42
139.9977485707373
 73
     0
 74
     0
 75
     0
  3
JIS
100
AcDbAlignedDimension
 13
1302.130510135353
 23
763.6071473144614
 33
0.0
 14
1490.009058838777
 24
903.6048958851986
 34
0.0
 50
90.0
100
AcDbRotatedDimension
1001
ACAD
1000
DSTYLE
1002
{
1070
   179
1070
     0
1070
   271
1070
     0
1070
    43
1040
25.0
1070
    44
1040
0.0
1070
    42
1040
25.0
1002
}
  0
DIMENSION
  5
455D
330
A
100
AcDbEntity
  8
MODEL
  6
Continuous
370
    13
100
AcDbDimension
  2
*D54
 10
908.5112434555497
 20
903.6986025442154
 30
0.0
 11
886.2949348617997
 21
826.1976833811093
 31
0.0
 70
    32
 71
     5
 42
155.0018383262122
 73
     0
 74
     0
 75
     0
  3
JIS
100
AcDbAlignedDimension
 13
595.5932850734454
 23
748.6967642180032
 33
0.0
 14
813.7032401771958
 24
903.6986025442154
 34
0.0
 50
90.0
100
AcDbRotatedDimension
1001
ACAD
1000
DSTYLE
1002
{
1070
   179
1070
     0
1070
   271
1070
     0
1070
    43
1040
25.0
1070
    44
1040
0.0
1070
    42
1040
25.0
1002
}
  0
DIMENSION
  5
4575
330
A
100
AcDbEntity
  8
MODEL
  6
Continuous
370
    13
100
AcDbDimension
  2
*D55
 10
1165.931978261626
 20
2092.489510939733
 30
0.0
 11
1143.715669667876
 21
2204.989867245524
 31
0.0
 70
    32
 71
     5
 42
225.0007126115811
 73
     0
 74
     0
 75
     0
  3
JIS
100
AcDbAlignedDimension
 13
1270.400248407913
 23
2317.490223551314
 33
0.0
 14
1280.006923826257
 24
2092.489510939733
 34
0.0
 50
90.0
100
AcDbRotatedDimension
1001
ACAD
1000
DSTYLE
1002
{
1070
   179
1070
     0
1070
   271
1070
     0
1070
    43
1040
25.0
1070
    44
1040
0.0
1070
    42
1040
25.0
1002
}
  0
DIMENSION
  5
4589
102
{ACAD_REACTORS
330
458B
102
}
102
{ACAD_XDICTIONARY
360
458A
102
}
330
A
100
AcDbEntity
  8
MODEL
  6
Continuous
370
    13
100
AcDbDimension
  2
*D56
 10
1700.011193851295
 20
1752.937808310783
 30
0.0
 11
1490.009058838776
 21
1752.937808310783
 31
0.0
 70
   160
 71
     5
 42
420.0042700250381
 73
     0
 74
     0
 75
     0
  3
JIS
100
AcDbAlignedDimension
 13
1280.006923826257
 23
2092.489510939733
 33
0.0
 14
1700.011193851295
 24
2092.489510939733
 34
0.0
100
AcDbRotatedDimension
1001
ACAD
1000
DSTYLE
1002
{
1070
   179
1070
     0
1070
   271
1070
     0
1070
    43
1040
25.0
1070
    44
1040
0.0
1070
    42
1040
25.0
1002
}
  0
DIMENSION
  5
45A8
330
A
100
AcDbEntity
  8
MODEL
  6
Continuous
370
    13
100
AcDbDimension
  2
*D58
 10
1806.549590346342
 20
2282.490223551314
 30
0.0
 11
1784.333281752592
 21
2147.490223551314
 31
0.0
 70
    32
 71
     5
 42
270.0
 73
     0
 74
     0
 75
     0
  3
JIS
100
AcDbAlignedDimension
 13
1640.009058838776
 23
2012.490223551314
 33
0.0
 14
1640.009058838776
 24
2282.490223551314
 34
0.0
 50
90.0
100
AcDbRotatedDimension
1001
ACAD
1000
DSTYLE
1002
{
1070
   179
1070
     0
1070
   271
1070
     0
1070
    43
1040
25.0
1070
    44
1040
0.0
1070
    42
1040
25.0
1002
}
  0
MTEXT
  5
460B
330
A
100
AcDbEntity
  8
template
370
    13
390
1D
100
AcDbMText
 10
1340.120301484769
 20
2528.483214953209
 30
0.0
 40
24.4326171875
 41
0.0
 46
24.4326171875
 71
     1
 72
     1
  1
{カウンター切込寸法}
  7
ＭＳ ゴシック
 73
     1
 44
0.7828267384257843
1001
ACAD
1000
ACAD_MTEXT_DEFINED_HEIGHT_BEGIN
1070
    46
1040
24.4326171875
1000
ACAD_MTEXT_DEFINED_HEIGHT_END
  0
MTEXT
  5
460C
330
A
100
AcDbEntity
  8
template
370
    13
390
1D
100
AcDbMText
 10
208.7736096244113
 20
1498.574887726945
 30
0.0
 40
24.4326171875
 41
0.0
 46
57.65392117297314
 71
     1
 72
     1
  1
{＝%%c30もしくはφ35の水栓取付用穴あけ加工を承ります。\P 必要な場合、ご注文の際にご指示ください。}
  7
ＭＳ ゴシック
 73
     1
 44
0.7828267384257843
1001
ACAD
1000
ACAD_MTEXT_DEFINED_HEIGHT_BEGIN
1070
    46
1040
57.65392117297314
1000
ACAD_MTEXT_DEFINED_HEIGHT_END
  0
CIRCLE
  5
460D
330
A
100
AcDbEntity
  8
MODEL
  6
STYLE_12
370
    13
100
AcDbCircle
 10
176.4143952705001
 20
1482.849427637013
 30
0.0
 40
17.5
  0
MTEXT
  5
460E
330
A
100
AcDbEntity
  8
template
370
    13
390
1D
100
AcDbMText
 10
1093.752256970565
 20
1495.840347031816
 30
0.0
 40
24.4326171875
 41
0.0
 46
92.26788433813377
 71
     1
 72
     1
  1
{※陶器製品には寸法公差があります。\P　必ず現物を合わせて固定金具の穴あけ、\P　カウンターの切込を行ってください。}
  7
ＭＳ ゴシック
 73
     1
 44
0.7828267384257843
1001
ACAD
1000
ACAD_MTEXT_DEFINED_HEIGHT_BEGIN
1070
    46
1040
92.26788433813377
1000
ACAD_MTEXT_DEFINED_HEIGHT_END
  0
LINE
  5
460F
330
A
100
AcDbEntity
  8
MODEL
  6
Continuous
370
    13
100
AcDbLine
 10
1255.420627383802
 20
2069.326122900527
 30
0.0
 11
998.3246073270326
 21
1748.401166966585
 31
0.0
  0
MTEXT
  5
4610
330
A
100
AcDbEntity
  8
template
370
    13
390
1D
100
AcDbMText
 10
983.5044644241628
 20
1737.18267797893
 30
0.0
 40
24.4326171875
 41
0.0
 46
24.4326171875
 71
     1
 72
     1
  1
{固定金具用2ヶ所}
  7
ＭＳ ゴシック
 73
     1
 44
0.7828267384257843
1001
ACAD
1000
ACAD_MTEXT_DEFINED_HEIGHT_BEGIN
1070
    46
1040
24.4326171875
1000
ACAD_MTEXT_DEFINED_HEIGHT_END
  0
DIMENSION
  5
463A
330
A
100
AcDbEntity
  8
MODEL
  6
Continuous
370
    13
100
AcDbDimension
  2
*D60
 10
1806.812683813384
 20
2282.490223551314
 30
0.0
 11
1806.812683813384
 21
2299.680187219295
 31
0.0
 70
   160
 71
     5
 42
35.00000000000001
 73
     0
 74
     0
 75
     0
  3
JIS
100
AcDbAlignedDimension
 13
1741.895487711746
 23
2317.490223551314
 33
0.0
 14
1640.009058838776
 24
2282.490223551314
 34
0.0
 50
90.0
100
AcDbRotatedDimension
1001
ACAD
1000
DSTYLE
1002
{
1070
   179
1070
     0
1070
   271
1070
     0
1070
    43
1040
25.0
1070
    44
1040
0.0
1070
    42
1040
25.0
1002
}
  0
LINE
  5
464F
330
A
100
AcDbEntity
  8
MODEL
  6
Continuous
370
    20
100
AcDbLine
 10
1490.009058838776
 20
2282.490223551314
 30
0.0
 11
1640.009058838776
 21
2282.490223551314
 31
0.0
  0
LINE
  5
4655
102
{ACAD_REACTORS
330
465E
102
}
330
A
100
AcDbEntity
  8
MODEL
  6
Continuous
370
    20
100
AcDbLine
 10
1640.009058838776
 20
2282.490223551314
 30
0.0
 11
1640.009058838776
 21
2012.490223551314
 31
0.0
  0
LINE
  5
4656
330
A
100
AcDbEntity
  8
MODEL
  6
Continuous
370
    20
100
AcDbLine
 10
1640.009058838776
 20
2012.490223551314
 30
0.0
 11
1340.009058838776
 21
2012.490223551314
 31
0.0
  0
LINE
  5
4657
102
{ACAD_REACTORS
330
465E
102
}
330
A
100
AcDbEntity
  8
MODEL
  6
Continuous
370
    20
100
AcDbLine
 10
1340.009058838776
 20
2012.490223551314
 30
0.0
 11
1340.009058838776
 21
2282.490223551314
 31
0.0
  0
LINE
  5
4658
330
A
100
AcDbEntity
  8
MODEL
  6
Continuous
370
    20
100
AcDbLine
 10
1340.009058838776
 20
2282.490223551314
 30
0.0
 11
1490.009058838776
 21
2282.490223551314
 31
0.0
  0
DIMENSION
  5
465C
102
{ACAD_REACTORS
330
465E
102
}
102
{ACAD_XDICTIONARY
360
465D
102
}
330
A
100
AcDbEntity
  8
MODEL
  6
Continuous
370
    13
100
AcDbDimension
  2
*D61
 10
1640.009058838776
 20
1821.976025956836
 30
0.0
 11
1490.009058838776
 21
1844.192334550586
 31
0.0
 70
    32
 71
     5
 42
300.0
 73
     0
 74
     0
 75
     0
  3
JIS
100
AcDbAlignedDimension
 13
1340.009058838776
 23
2012.490223551314
 33
0.0
 14
1640.009058838776
 24
2012.490223551314
 34
0.0
100
AcDbRotatedDimension
1001
ACAD
1000
DSTYLE
1002
{
1070
   179
1070
     0
1070
   271
1070
     0
1070
    43
1040
25.0
1070
    44
1040
0.0
1070
    42
1040
25.0
1002
}
  0
DIMENSION
  5
4677
102
{ACAD_REACTORS
330
4679
102
}
102
{ACAD_XDICTIONARY
360
4678
102
}
330
A
100
AcDbEntity
  8
MODEL
  6
Continuous
370
    13
100
AcDbDimension
  2
*D62
 10
570.3287015656338
 20
2375.818201503414
 30
0.0
 11
520.327930745681
 21
2398.034510097164
 31
0.0
 70
    32
 71
     5
 42
100.0015416399056
 73
     0
 74
     0
 75
     0
  3
JIS
100
AcDbAlignedDimension
 13
470.3271599257282
 23
2254.803224747443
 33
0.0
 14
570.3287015656338
 24
2257.76600881929
 34
0.0
100
AcDbRotatedDimension
1001
ACAD
1000
DSTYLE
1002
{
1070
   179
1070
     0
1070
   271
1070
     0
1070
    43
1040
25.0
1070
    44
1040
0.0
1070
    42
1040
25.0
1002
}
  0
DIMENSION
  5
4686
102
{ACAD_REACTORS
330
4688
102
}
102
{ACAD_XDICTIONARY
360
4687
102
}
330
A
100
AcDbEntity
  8
MODEL
  6
Continuous
370
    13
100
AcDbDimension
  2
*D63
 10
670.3274871273329
 20
2375.818201503414
 30
0.0
 11
620.3280943464833
 21
2398.034510097164
 31
0.0
 70
    32
 71
     5
 42
99.99878556169915
 73
     0
 74
     0
 75
     0
  3
JIS
100
AcDbAlignedDimension
 13
570.3287015656338
 23
2257.76600881929
 33
0.0
 14
670.3274871273329
 24
2254.800468669236
 34
0.0
100
AcDbRotatedDimension
1001
ACAD
1000
DSTYLE
1002
{
1070
   179
1070
     0
1070
   271
1070
     0
1070
    43
1040
25.0
1070
    44
1040
0.0
1070
    42
1040
25.0
1002
}
  0
LINE
  5
46EE
330
A
100
AcDbEntity
  8
MODEL
  6
Continuous
370
    13
100
AcDbLine
 10
1681.820495714156
 20
2066.549934289577
 30
0.0
 11
998.3246073270326
 21
1748.401166966585
 31
0.0
  0
MTEXT
  5
4723
330
A
100
AcDbEntity
  8
template
 62
     0
370
    13
390
1D
100
AcDbMText
 10
750.6842669129427
 20
2390.748661237631
 30
0.0
 40
24.4326171875
 41
0.0
 46
24.4326171875
 71
     1
 72
     1
  1
{%%c35}
  7
ＭＳ ゴシック
 73
     1
 44
0.7828267384257843
1001
ACAD
1000
ACAD_MTEXT_DEFINED_HEIGHT_BEGIN
1070
    46
1040
24.4326171875
1000
ACAD_MTEXT_DEFINED_HEIGHT_END
  0
LINE
  5
4724
330
A
100
AcDbEntity
  8
Dim
  6
Continuous
 62
     0
370
    13
100
AcDbLine
 10
733.9803859605315
 20
2355.794869809469
 30
0.0
 11
587.8287015656338
 21
2257.76600881929
 31
0.0
  0
LINE
  5
4725
330
A
100
AcDbEntity
  8
MODEL
  6
ByBlock
 62
     0
370
    13
100
AcDbLine
 10
733.9803859605315
 20
2355.794869809469
 30
0.0
 11
802.6911428797341
 21
2355.794869809469
 31
0.0
  0
VIEWPORT
  5
349
330
B
100
AcDbEntity
 67
     1
  8
0
100
AcDbViewport
 10
202.5
 20
128.5
 30
0.0
 40
486.0
 41
308.4
 68
     1
 69
     1
 12
202.5
 22
128.5
 13
0.0
 23
0.0
 14
0.5
 24
0.5
 15
0.0
 25
0.0
 16
0.0
 26
0.0
 36
1.0
 17
0.0
 27
0.0
 37
0.0
 42
50.0
 43
0.0
 44
0.0
 45
308.4
 50
0.0
 51
0.0
 72
   100
 90
   557152
  1

281
     0
 71
     1
 74
     0
110
0.0
120
0.0
130
0.0
111
1.0
121
0.0
131
0.0
112
0.0
122
1.0
132
0.0
 79
     0
146
0.0
170
     0
 61
     5
348
26C
292
     1
282
     1
141
0.0
142
0.0
 63
   256
  0
VIEWPORT
  5
34A
330
B
100
AcDbEntity
 67
     1
  8
0
100
AcDbViewport
 10
202.5
 20
128.5
 30
0.0
 40
324.0
 41
205.6
 68
     2
 69
     2
 12
986.6781359294573
 22
1427.077061889956
 13
0.0
 23
0.0
 14
0.5
 24
0.5
 15
0.0
 25
0.0
 16
0.0
 26
0.0
 36
1.0
 17
0.0
 27
0.0
 37
0.0
 42
50.0
 43
0.0
 44
0.0
 45
2890.021615685494
 50
0.0
 51
0.0
 72
   100
 90
   557152
  1

281
     0
 71
     1
 74
     0
110
0.0
120
0.0
130
0.0
111
1.0
121
0.0
131
0.0
112
0.0
122
1.0
132
0.0
 79
     0
146
0.0
170
     0
 61
     5
348
26C
292
     1
282
     1
141
0.0
142
0.0
 63
   256
  0
ENDSEC
  0
SECTION
  2
OBJECTS
  0
DICTIONARY
  5
19
330
0
100
AcDbDictionary
281
     1
  3
ACAD_COLOR
350
38F
  3
ACAD_DETAILVIEWSTYLE
350
1EEA
  3
ACAD_GROUP
350
1A
  3
ACAD_IMAGE_VARS
350
27B
  3
ACAD_LAYOUT
350
1E
  3
ACAD_MATERIAL
350
263
  3
ACAD_MLEADERSTYLE
350
336
  3
ACAD_MLINESTYLE
350
1B
  3
ACAD_PLOTSETTINGS
350
22
  3
ACAD_PLOTSTYLENAME
350
1F
  3
ACAD_SCALELIST
350
241
  3
ACAD_SECTIONVIEWSTYLE
350
1EEB
  3
ACAD_TABLESTYLE
350
278
  3
ACAD_VISUALSTYLE
350
267
  3
ACDB_RECOMPOSE_DATA
350
4746
  3
AcDbVariableDictionary
350
330
  3
APPDATA
350
27A
  0
SUN
  5
68F
330
15
100
AcDbSun
 90
        1
290
     0
 63
     7
421
 16777215
 40
1.0
291
     1
 91
  2455826
 92
 54000000
292
     0
 70
     2
 71
   256
280
     1
  0
DICTIONARY
  5
2E1
330
2
100
AcDbDictionary
280
     1
281
     1
  3
ACAD_LAYERSTATES
360
2E2
  3
ACLYDICTIONARY
360
5EF
  0
DICTIONARY
  5
451F
330
451E
100
AcDbDictionary
280
     1
281
     1
  3
ACAD_DIMASSOC
360
4520
  0
DICTIONARY
  5
458A
330
4589
100
AcDbDictionary
280
     1
281
     1
  3
ACAD_DIMASSOC
360
458B
  0
DICTIONARY
  5
465D
330
465C
100
AcDbDictionary
280
     1
281
     1
  3
ACAD_DIMASSOC
360
465E
  0
DICTIONARY
  5
4678
330
4677
100
AcDbDictionary
280
     1
281
     1
  3
ACAD_DIMASSOC
360
4679
  0
DICTIONARY
  5
4687
330
4686
100
AcDbDictionary
280
     1
281
     1
  3
ACAD_DIMASSOC
360
4688
  0
DICTIONARY
  5
38F
102
{ACAD_REACTORS
330
19
102
}
330
19
100
AcDbDictionary
281
     1
  0
DICTIONARY
  5
1EEA
102
{ACAD_REACTORS
330
19
102
}
330
19
100
AcDbDictionary
281
     1
  0
DICTIONARY
  5
1A
102
{ACAD_REACTORS
330
19
102
}
330
19
100
AcDbDictionary
281
     1
  0
RASTERVARIABLES
  5
27B
102
{ACAD_REACTORS
330
19
102
}
330
19
100
AcDbRasterVariables
 90
        0
 70
     1
 71
     1
 72
     1
  0
DICTIONARY
  5
1E
102
{ACAD_REACTORS
330
19
102
}
330
19
100
AcDbDictionary
281
     1
  3
Layout1
350
21
  3
Model
350
20
  0
DICTIONARY
  5
263
102
{ACAD_REACTORS
330
19
102
}
330
19
100
AcDbDictionary
281
     1
  3
ByBlock
350
4191
  3
ByLayer
350
264
  3
Global
350
266
  0
DICTIONARY
  5
336
102
{ACAD_REACTORS
330
19
102
}
330
19
100
AcDbDictionary
281
     1
  0
DICTIONARY
  5
1B
102
{ACAD_REACTORS
330
19
102
}
330
19
100
AcDbDictionary
281
     1
  3
Standard
350
1C
  0
DICTIONARY
  5
22
102
{ACAD_REACTORS
330
19
102
}
330
19
100
AcDbDictionary
281
     1
  0
ACDBDICTIONARYWDFLT
  5
1F
102
{ACAD_REACTORS
330
19
102
}
330
19
100
AcDbDictionary
281
     1
  3
Normal
350
1D
100
AcDbDictionaryWithDefault
340
1D
  0
DICTIONARY
  5
241
102
{ACAD_REACTORS
330
19
102
}
330
19
100
AcDbDictionary
281
     1
  3
A0
350
242
  3
A1
350
243
  3
A2
350
244
  3
A3
350
245
  3
A4
350
246
  3
A5
350
247
  3
A6
350
248
  3
A7
350
249
  3
A8
350
24A
  3
A9
350
24B
  3
B0
350
24C
  3
B1
350
24D
  3
B2
350
24E
  3
B3
350
24F
  3
B4
350
250
  3
B5
350
251
  3
B6
350
252
  3
B7
350
253
  3
B8
350
254
  3
B9
350
255
  3
C0
350
256
  3
C1
350
257
  3
C2
350
258
  3
C3
350
259
  3
C4
350
25A
  3
C5
350
25B
  3
C6
350
25C
  3
C7
350
25D
  3
C8
350
25E
  3
C9
350
25F
  3
D0
350
260
  3
D1
350
261
  3
D2
350
262
  0
DICTIONARY
  5
1EEB
102
{ACAD_REACTORS
330
19
102
}
330
19
100
AcDbDictionary
281
     1
  0
DICTIONARY
  5
278
102
{ACAD_REACTORS
330
19
102
}
330
19
100
AcDbDictionary
281
     1
  3
Standard
350
279
  0
DICTIONARY
  5
267
102
{ACAD_REACTORS
330
19
102
}
330
19
100
AcDbDictionary
281
     1
  3
2dWireframe
350
26C
  3
3D Hidden
350
26E
  3
3dWireframe
350
26D
  3
Basic
350
26F
  3
Brighten
350
273
  3
ColorChange
350
277
  3
Conceptual
350
271
  3
Dim
350
272
  3
EdgeColorOff
350
689
  3
Facepattern
350
276
  3
Flat
350
268
  3
FlatWithEdges
350
269
  3
Gouraud
350
26A
  3
GouraudWithEdges
350
26B
  3
Hidden
350
686
  3
JitterOff
350
687
  3
Linepattern
350
275
  3
OverhangOff
350
688
  3
Realistic
350
270
  3
Shaded
350
68E
  3
Shaded with edges
350
68D
  3
Shades of Gray
350
68A
  3
Sketchy
350
68B
  3
Thicken
350
274
  3
Wireframe
350
685
  3
X-Ray
350
68C
  0
XRECORD
  5
4746
102
{ACAD_REACTORS
330
19
102
}
330
19
100
AcDbXrecord
280
     1
 90
        1
330
279
  0
DICTIONARY
  5
330
102
{ACAD_REACTORS
330
19
102
}
330
19
100
AcDbDictionary
281
     1
  3
CANNOSCALE
350
331
  3
CTABLESTYLE
350
335
  3
XCLIPFRAME
350
64A
  0
DICTIONARY
  5
27A
102
{ACAD_REACTORS
330
19
102
}
330
19
100
AcDbDictionary
281
     1
  0
DICTIONARY
  5
2E2
102
{ACAD_REACTORS
330
2E1
102
}
330
2E1
100
AcDbDictionary
281
     1
  3
ARGON_LAYERP_11
350
3FF2
  0
DICTIONARY
  5
5EF
102
{ACAD_REACTORS
330
2E1
102
}
330
2E1
100
AcDbDictionary
281
     1
1001
ACAD
1000
<All
  0
DIMASSOC
  5
4520
102
{ACAD_REACTORS
330
451F
102
}
330
451F
100
AcDbDimAssoc
330
451E
 90
        1
 70
     0
 71
     1
  1
AcDbOsnapPointRef
 72
    13
331
4486
 73
     0
 91
        0
 40
0.0
 10
0.0
 20
0.0
 30
0.0
 75
     0
  0
DIMASSOC
  5
458B
102
{ACAD_REACTORS
330
458A
102
}
330
458A
100
AcDbDimAssoc
330
4589
 90
        3
 70
     0
 71
     1
  1
AcDbOsnapPointRef
 72
     1
331
43E1
 73
     0
 91
        0
 40
0.0
 10
0.0
 20
0.0
 30
0.0
 75
     0
  1
AcDbOsnapPointRef
 72
    13
331
43DE
 73
     0
 91
        0
 40
0.0
 10
0.0
 20
0.0
 30
0.0
 75
     0
  0
DIMASSOC
  5
465E
102
{ACAD_REACTORS
330
465D
102
}
330
465D
100
AcDbDimAssoc
330
465C
 90
        3
 70
     0
 71
     1
  1
AcDbOsnapPointRef
 72
    13
331
4657
 73
     0
 91
        0
 40
0.0
 10
0.0
 20
0.0
 30
0.0
 75
     0
  1
AcDbOsnapPointRef
 72
     1
331
4655
 73
     0
 91
        0
 40
0.0
 10
0.0
 20
0.0
 30
0.0
 75
     0
  0
DIMASSOC
  5
4679
102
{ACAD_REACTORS
330
4678
102
}
330
4678
100
AcDbDimAssoc
330
4677
 90
        3
 70
     0
 71
     1
  1
AcDbOsnapPointRef
 72
     3
331
4440
 73
     0
 91
        0
 40
0.0
 10
0.0
 20
0.0
 30
0.0
 75
     0
  1
AcDbOsnapPointRef
 72
     3
331
443E
 73
     0
 91
        0
 40
0.0
 10
0.0
 20
0.0
 30
0.0
 75
     0
  0
DIMASSOC
  5
4688
102
{ACAD_REACTORS
330
4687
102
}
330
4687
100
AcDbDimAssoc
330
4686
 90
        3
 70
     0
 71
     1
  1
AcDbOsnapPointRef
 72
     3
331
443E
 73
     0
 91
        0
 40
0.0
 10
0.0
 20
0.0
 30
0.0
 75
     0
  1
AcDbOsnapPointRef
 72
     3
331
443F
 73
     0
 91
        0
 40
0.0
 10
0.0
 20
0.0
 30
0.0
 75
     0
  0
LAYOUT
  5
21
102
{ACAD_REACTORS
330
1E
102
}
330
1E
100
AcDbPlotSettings
  1

  2
none_device
  4
ISO_A3_(420.00_x_297.00_MM)
  6

 40
7.5
 41
20.0
 42
7.5
 43
20.0
 44
420.0
 45
297.0
 46
0.0
 47
0.0
 48
0.0
 49
0.0
140
0.0
141
0.0
142
1.0
143
1.0
 70
     0
 72
     1
 73
     0
 74
     0
  7

 75
     0
 76
     0
 77
     2
 78
   300
147
1.0
148
0.0
149
0.0
100
AcDbLayout
  1
Layout1
 70
     0
 71
     0
 10
0.0
 20
0.0
 11
0.0
 21
0.0
 12
0.0
 22
0.0
 32
0.0
 14
0.0
 24
0.0
 34
0.0
 15
0.0
 25
0.0
 35
0.0
146
0.0
 13
0.0
 23
0.0
 33
0.0
 16
0.0
 26
0.0
 36
0.0
 17
0.0
 27
0.0
 37
0.0
 76
     0
330
B
331
349
  0
LAYOUT
  5
20
102
{ACAD_REACTORS
330
1E
102
}
330
1E
100
AcDbPlotSettings
  1

  2
none_device
  4
ISO_A3_(420.00_x_297.00_MM)
  6

 40
7.5
 41
20.0
 42
7.5
 43
20.0
 44
420.0
 45
297.0
 46
0.0
 47
0.0
 48
0.0
 49
0.0
140
0.0
141
0.0
142
1.0
143
1.0
 70
  1024
 72
     1
 73
     0
 74
     0
  7

 75
     0
 76
     0
 77
     2
 78
   300
147
1.0
148
0.0
149
0.0
100
AcDbLayout
  1
Model
 70
     0
 71
     1
 10
-10.0
 20
-0.9201746284776391
 11
2040.0
 21
2924.552903395052
 12
0.0
 22
0.0
 32
0.0
 14
40.0
 24
41.19837821319445
 34
0.0
 15
1990.000000000482
 25
2874.552903395052
 35
0.0
146
0.0
 13
0.0
 23
0.0
 33
0.0
 16
0.0
 26
0.0
 36
0.0
 17
0.0
 27
0.0
 37
0.0
 76
     0
330
A
331
15
  0
MATERIAL
  5
4191
102
{ACAD_REACTORS
330
263
102
}
330
263
100
AcDbMaterial
  1
ByBlock
 72
     1
 94
      127
  0
MATERIAL
  5
264
102
{ACAD_REACTORS
330
263
102
}
330
263
100
AcDbMaterial
  1
ByLayer
 72
     1
 94
      127
  0
MATERIAL
  5
266
102
{ACAD_REACTORS
330
263
102
}
330
263
100
AcDbMaterial
  1
Global
 72
     1
 94
      127
  0
MLINESTYLE
  5
1C
102
{ACAD_REACTORS
330
1B
102
}
330
1B
100
AcDbMlineStyle
  2
Standard
 70
     0
  3

 62
     0
 51
90.0
 52
90.0
 71
     2
 49
0.5
 62
   256
  6
BYLAYER
 49
-0.5
 62
   256
  6
BYLAYER
  0
ACDBPLACEHOLDER
  5
1D
102
{ACAD_REACTORS
330
1F
102
}
330
1F
  0
SCALE
  5
242
102
{ACAD_REACTORS
330
241
102
}
330
241
100
AcDbScale
 70
     0
300
1:1
140
1.0
141
1.0
290
     1
  0
SCALE
  5
243
102
{ACAD_REACTORS
330
241
102
}
330
241
100
AcDbScale
 70
     0
300
1:2
140
1.0
141
2.0
290
     0
  0
SCALE
  5
244
102
{ACAD_REACTORS
330
241
102
}
330
241
100
AcDbScale
 70
     0
300
1:4
140
1.0
141
4.0
290
     0
  0
SCALE
  5
245
102
{ACAD_REACTORS
330
241
102
}
330
241
100
AcDbScale
 70
     0
300
1:5
140
1.0
141
5.0
290
     0
  0
SCALE
  5
246
102
{ACAD_REACTORS
330
241
102
}
330
241
100
AcDbScale
 70
     0
300
1:8
140
1.0
141
8.0
290
     0
  0
SCALE
  5
247
102
{ACAD_REACTORS
330
241
102
}
330
241
100
AcDbScale
 70
     0
300
1:10
140
1.0
141
10.0
290
     0
  0
SCALE
  5
248
102
{ACAD_REACTORS
330
241
102
}
330
241
100
AcDbScale
 70
     0
300
1:16
140
1.0
141
16.0
290
     0
  0
SCALE
  5
249
102
{ACAD_REACTORS
330
241
102
}
330
241
100
AcDbScale
 70
     0
300
1:20
140
1.0
141
20.0
290
     0
  0
SCALE
  5
24A
102
{ACAD_REACTORS
330
241
102
}
330
241
100
AcDbScale
 70
     0
300
1:30
140
1.0
141
30.0
290
     0
  0
SCALE
  5
24B
102
{ACAD_REACTORS
330
241
102
}
330
241
100
AcDbScale
 70
     0
300
1:40
140
1.0
141
40.0
290
     0
  0
SCALE
  5
24C
102
{ACAD_REACTORS
330
241
102
}
330
241
100
AcDbScale
 70
     0
300
1:50
140
1.0
141
50.0
290
     0
  0
SCALE
  5
24D
102
{ACAD_REACTORS
330
241
102
}
330
241
100
AcDbScale
 70
     0
300
1:100
140
1.0
141
100.0
290
     0
  0
SCALE
  5
24E
102
{ACAD_REACTORS
330
241
102
}
330
241
100
AcDbScale
 70
     0
300
2:1
140
2.0
141
1.0
290
     0
  0
SCALE
  5
24F
102
{ACAD_REACTORS
330
241
102
}
330
241
100
AcDbScale
 70
     0
300
4:1
140
4.0
141
1.0
290
     0
  0
SCALE
  5
250
102
{ACAD_REACTORS
330
241
102
}
330
241
100
AcDbScale
 70
     0
300
8:1
140
8.0
141
1.0
290
     0
  0
SCALE
  5
251
102
{ACAD_REACTORS
330
241
102
}
330
241
100
AcDbScale
 70
     0
300
10:1
140
10.0
141
1.0
290
     0
  0
SCALE
  5
252
102
{ACAD_REACTORS
330
241
102
}
330
241
100
AcDbScale
 70
     0
300
100:1
140
100.0
141
1.0
290
     0
  0
SCALE
  5
253
102
{ACAD_REACTORS
330
241
102
}
330
241
100
AcDbScale
 70
     0
300
1/128" = 1'-0"
140
0.0078125
141
12.0
290
     0
  0
SCALE
  5
254
102
{ACAD_REACTORS
330
241
102
}
330
241
100
AcDbScale
 70
     0
300
1/64" = 1'-0"
140
0.015625
141
12.0
290
     0
  0
SCALE
  5
255
102
{ACAD_REACTORS
330
241
102
}
330
241
100
AcDbScale
 70
     0
300
1/32" = 1'-0"
140
0.03125
141
12.0
290
     0
  0
SCALE
  5
256
102
{ACAD_REACTORS
330
241
102
}
330
241
100
AcDbScale
 70
     0
300
1/16" = 1'-0"
140
0.0625
141
12.0
290
     0
  0
SCALE
  5
257
102
{ACAD_REACTORS
330
241
102
}
330
241
100
AcDbScale
 70
     0
300
3/32" = 1'-0"
140
0.09375
141
12.0
290
     0
  0
SCALE
  5
258
102
{ACAD_REACTORS
330
241
102
}
330
241
100
AcDbScale
 70
     0
300
1/8" = 1'-0"
140
0.125
141
12.0
290
     0
  0
SCALE
  5
259
102
{ACAD_REACTORS
330
241
102
}
330
241
100
AcDbScale
 70
     0
300
3/16" = 1'-0"
140
0.1875
141
12.0
290
     0
  0
SCALE
  5
25A
102
{ACAD_REACTORS
330
241
102
}
330
241
100
AcDbScale
 70
     0
300
1/4" = 1'-0"
140
0.25
141
12.0
290
     0
  0
SCALE
  5
25B
102
{ACAD_REACTORS
330
241
102
}
330
241
100
AcDbScale
 70
     0
300
3/8" = 1'-0"
140
0.375
141
12.0
290
     0
  0
SCALE
  5
25C
102
{ACAD_REACTORS
330
241
102
}
330
241
100
AcDbScale
 70
     0
300
1/2" = 1'-0"
140
0.5
141
12.0
290
     0
  0
SCALE
  5
25D
102
{ACAD_REACTORS
330
241
102
}
330
241
100
AcDbScale
 70
     0
300
3/4" = 1'-0"
140
0.75
141
12.0
290
     0
  0
SCALE
  5
25E
102
{ACAD_REACTORS
330
241
102
}
330
241
100
AcDbScale
 70
     0
300
1" = 1'-0"
140
1.0
141
12.0
290
     0
  0
SCALE
  5
25F
102
{ACAD_REACTORS
330
241
102
}
330
241
100
AcDbScale
 70
     0
300
1-1/2" = 1'-0"
140
1.5
141
12.0
290
     0
  0
SCALE
  5
260
102
{ACAD_REACTORS
330
241
102
}
330
241
100
AcDbScale
 70
     0
300
3" = 1'-0"
140
3.0
141
12.0
290
     0
  0
SCALE
  5
261
102
{ACAD_REACTORS
330
241
102
}
330
241
100
AcDbScale
 70
     0
300
6" = 1'-0"
140
6.0
141
12.0
290
     0
  0
SCALE
  5
262
102
{ACAD_REACTORS
330
241
102
}
330
241
100
AcDbScale
 70
     0
300
1'-0" = 1'-0"
140
12.0
141
12.0
290
     0
  0
TABLESTYLE
  5
279
102
{ACAD_REACTORS
330
278
102
}
102
{ACAD_XDICTIONARY
360
4744
102
}
330
278
100
AcDbTableStyle
  3
Standard
 70
     0
 71
     0
 40
0.06
 41
0.06
280
     0
281
     0
  7
Standard
140
4.5
170
     2
 62
     0
 63
   257
283
     0
 90
        4
 91
        0
  1

274
    -2
284
     1
 64
     0
275
    -2
285
     1
 65
     0
276
    -2
286
     1
 66
     0
277
    -2
287
     1
 67
     0
278
    -2
288
     1
 68
     0
279
    -2
289
     1
 69
     0
  7
Standard
140
6.0
170
     5
 62
     0
 63
   257
283
     0
 90
        4
 91
        0
  1

274
    -2
284
     1
 64
     0
275
    -2
285
     1
 65
     0
276
    -2
286
     1
 66
     0
277
    -2
287
     1
 67
     0
278
    -2
288
     1
 68
     0
279
    -2
289
     1
 69
     0
  7
Standard
140
4.5
170
     5
 62
     0
 63
   257
283
     0
 90
        4
 91
        0
  1

274
    -2
284
     1
 64
     0
275
    -2
285
     1
 65
     0
276
    -2
286
     1
 66
     0
277
    -2
287
     1
 67
     0
278
    -2
288
     1
 68
     0
279
    -2
289
     1
 69
     0
  0
VISUALSTYLE
  5
26C
102
{ACAD_REACTORS
330
267
102
}
330
267
100
AcDbVisualStyle
  2
2dWireframe
 70
     4
 71
     0
 72
     2
 73
     0
 90
        0
 40
-0.6
 41
-30.0
 62
     5
 63
     7
421
 16777215
 74
     1
 91
        4
 64
     7
 65
   257
 75
     1
175
     1
 42
1.0
 92
        0
 66
   257
 43
1.0
 76
     1
 77
     6
 78
     2
 67
     7
 79
     5
170
     0
171
     0
290
     0
174
     0
 93
        1
 44
0.0
173
     0
291
     0
 45
0.0
  0
VISUALSTYLE
  5
26E
102
{ACAD_REACTORS
330
267
102
}
330
267
100
AcDbVisualStyle
  2
3D Hidden
 70
     6
 71
     1
 72
     2
 73
     2
 90
        0
 40
-0.6
 41
-30.0
 62
     5
 63
     7
421
 16777215
 74
     2
 91
        2
 64
     7
 65
   257
 75
     2
175
     1
 42
40.0
 92
        0
 66
   257
 43
1.0
 76
     1
 77
     6
 78
     2
 67
     7
 79
     3
170
     0
171
     0
290
     0
174
     0
 93
        1
 44
0.0
173
     0
291
     0
 45
0.0
  0
VISUALSTYLE
  5
26D
102
{ACAD_REACTORS
330
267
102
}
330
267
100
AcDbVisualStyle
  2
3dWireframe
 70
     5
 71
     0
 72
     2
 73
     0
 90
        0
 40
-0.6
 41
-30.0
 62
     5
 63
     7
421
 16777215
 74
     1
 91
        4
 64
     7
 65
   257
 75
     1
175
     1
 42
1.0
 92
        0
 66
   257
 43
1.0
 76
     1
 77
     6
 78
     2
 67
     7
 79
     5
170
     0
171
     0
290
     0
174
     0
 93
        1
 44
0.0
173
     0
291
     0
 45
0.0
  0
VISUALSTYLE
  5
26F
102
{ACAD_REACTORS
330
267
102
}
330
267
100
AcDbVisualStyle
  2
Basic
 70
     7
 71
     1
 72
     0
 73
     1
 90
        0
 40
-0.6
 41
-30.0
 62
     5
 63
     7
421
 16777215
 74
     0
 91
        4
 64
     7
 65
   257
 75
     1
175
     1
 42
1.0
 92
        8
 66
     7
 43
1.0
 76
     1
 77
     6
 78
     2
 67
     7
 79
     5
170
     0
171
     0
290
     0
174
     0
 93
        1
 44
0.0
173
     0
291
     1
 45
0.0
  0
VISUALSTYLE
  5
273
102
{ACAD_REACTORS
330
267
102
}
330
267
100
AcDbVisualStyle
  2
Brighten
 70
    12
 71
     2
 72
     2
 73
     0
 90
        0
 40
-0.6
 41
-30.0
 62
     5
 63
     7
421
 16777215
 74
     1
 91
        4
 64
     7
 65
   257
 75
     1
175
     1
 42
1.0
 92
        8
 66
     7
 43
1.0
 76
     1
 77
     6
 78
     2
 67
     7
 79
     5
170
     0
171
     0
290
     0
174
     0
 93
        1
 44
50.0
173
     0
291
     1
 45
0.0
  0
VISUALSTYLE
  5
277
102
{ACAD_REACTORS
330
267
102
}
330
267
100
AcDbVisualStyle
  2
ColorChange
 70
    16
 71
     2
 72
     2
 73
     3
 90
        0
 40
-0.6
 41
-30.0
 62
     5
 63
     8
421
  8421504
 74
     1
 91
        4
 64
     7
 65
   257
 75
     1
175
     1
 42
1.0
 92
        8
 66
     8
424
  8421504
 43
1.0
 76
     1
 77
     6
 78
     2
 67
     7
 79
     5
170
     0
171
     0
290
     0
174
     0
 93
        1
 44
0.0
173
     0
291
     1
 45
0.0
  0
VISUALSTYLE
  5
271
102
{ACAD_REACTORS
330
267
102
}
330
267
100
AcDbVisualStyle
  2
Conceptual
 70
     9
 71
     3
 72
     2
 73
     0
 90
        0
 40
-0.6
 41
-30.0
 62
     5
 63
     7
421
 16777215
 74
     2
 91
        2
 64
     7
 65
   257
 75
     1
175
     1
 42
40.0
 92
        8
 66
     7
 43
1.0
 76
     1
 77
     6
 78
     2
 67
     7
 79
     3
170
     0
171
     0
290
     0
174
     0
 93
        1
 44
0.0
173
     0
291
     0
 45
0.0
  0
VISUALSTYLE
  5
272
102
{ACAD_REACTORS
330
267
102
}
330
267
100
AcDbVisualStyle
  2
Dim
 70
    11
 71
     2
 72
     2
 73
     0
 90
        0
 40
-0.6
 41
-30.0
 62
     5
 63
     7
421
 16777215
 74
     1
 91
        4
 64
     7
 65
   257
 75
     1
175
     1
 42
1.0
 92
        8
 66
     7
 43
1.0
 76
     1
 77
     6
 78
     2
 67
     7
 79
     5
170
     0
171
     0
290
     0
174
     0
 93
        1
 44
-50.0
173
     0
291
     1
 45
0.0
  0
VISUALSTYLE
  5
689
102
{ACAD_REACTORS
330
267
102
}
330
267
100
AcDbVisualStyle
  2
EdgeColorOff
 70
    22
 71
     2
 72
     2
 73
     0
 90
        0
 40
0.6
 41
30.0
 62
     5
 63
     7
421
 16777215
 74
     1
 91
        4
 64
     7
 65
   257
 75
     1
175
     1
 42
1.0
 92
        8
 66
     7
 43
1.0
 76
     1
 77
     6
 78
     2
 67
     7
 79
     5
170
     0
171
     0
290
     0
174
     0
 93
        1
 44
0.0
173
     0
291
     1
 45
0.0
  0
VISUALSTYLE
  5
276
102
{ACAD_REACTORS
330
267
102
}
330
267
100
AcDbVisualStyle
  2
Facepattern
 70
    15
 71
     2
 72
     2
 73
     0
 90
        0
 40
-0.6
 41
-30.0
 62
     5
 63
     7
421
 16777215
 74
     1
 91
        4
 64
     7
 65
   257
 75
     1
175
     1
 42
1.0
 92
        8
 66
     7
 43
1.0
 76
     1
 77
     6
 78
     2
 67
     7
 79
     5
170
     0
171
     0
290
     0
174
     0
 93
        1
 44
0.0
173
     0
291
     1
 45
0.0
  0
VISUALSTYLE
  5
268
102
{ACAD_REACTORS
330
267
102
}
330
267
100
AcDbVisualStyle
  2
Flat
 70
     0
 71
     2
 72
     1
 73
     1
 90
        2
 40
-0.6
 41
30.0
 62
     5
 63
     7
421
 16777215
 74
     0
 91
        4
 64
     7
 65
   257
 75
     1
175
     1
 42
1.0
 92
        8
 66
     7
 43
1.0
 76
     1
 77
     6
 78
     2
 67
     7
 79
     5
170
     0
171
     0
290
     0
174
     0
 93
       13
 44
0.0
173
     0
291
     1
 45
0.0
  0
VISUALSTYLE
  5
269
102
{ACAD_REACTORS
330
267
102
}
330
267
100
AcDbVisualStyle
  2
FlatWithEdges
 70
     1
 71
     2
 72
     1
 73
     1
 90
        2
 40
-0.6
 41
30.0
 62
     5
 63
     7
421
 16777215
 74
     1
 91
        4
 64
     7
 65
   257
 75
     1
175
     1
 42
1.0
 92
        0
 66
   257
 43
1.0
 76
     1
 77
     6
 78
     2
 67
     7
 79
     5
170
     0
171
     0
290
     0
174
     0
 93
       13
 44
0.0
173
     0
291
     1
 45
0.0
  0
VISUALSTYLE
  5
26A
102
{ACAD_REACTORS
330
267
102
}
330
267
100
AcDbVisualStyle
  2
Gouraud
 70
     2
 71
     2
 72
     2
 73
     1
 90
        2
 40
-0.6
 41
30.0
 62
     5
 63
     7
421
 16777215
 74
     0
 91
        4
 64
     7
 65
   257
 75
     1
175
     1
 42
1.0
 92
        0
 66
     7
 43
1.0
 76
     1
 77
     6
 78
     2
 67
     7
 79
     5
170
     0
171
     0
290
     0
174
     0
 93
       13
 44
0.0
173
     0
291
     1
 45
0.0
  0
VISUALSTYLE
  5
26B
102
{ACAD_REACTORS
330
267
102
}
330
267
100
AcDbVisualStyle
  2
GouraudWithEdges
 70
     3
 71
     2
 72
     2
 73
     1
 90
        2
 40
-0.6
 41
30.0
 62
     5
 63
     7
421
 16777215
 74
     1
 91
        4
 64
     7
 65
   257
 75
     1
175
     1
 42
1.0
 92
        0
 66
   257
 43
1.0
 76
     1
 77
     6
 78
     2
 67
     7
 79
     5
170
     0
171
     0
290
     0
174
     0
 93
       13
 44
0.0
173
     0
291
     1
 45
0.0
  0
VISUALSTYLE
  5
686
102
{ACAD_REACTORS
330
267
102
}
330
267
100
AcDbVisualStyle
  2
Hidden
 70
     6
 71
     1
 72
     2
 73
     2
 90
        0
 40
0.6
 41
30.0
 62
     5
 63
     7
421
 16777215
 74
     2
 91
        2
 64
     7
 65
   257
 75
     2
175
     1
 42
40.0
 92
        0
 66
   257
 43
1.0
 76
     1
 77
     6
 78
     2
 67
     7
 79
     3
170
     0
171
     0
290
     0
174
     0
 93
        1
 44
0.0
173
     0
291
     0
 45
0.0
  0
VISUALSTYLE
  5
687
102
{ACAD_REACTORS
330
267
102
}
330
267
100
AcDbVisualStyle
  2
JitterOff
 70
    20
 71
     2
 72
     2
 73
     0
 90
        0
 40
0.6
 41
30.0
 62
     5
 63
     7
421
 16777215
 74
     1
 91
        4
 64
     7
 65
   257
 75
     1
175
     1
 42
1.0
 92
       10
 66
     7
 43
1.0
 76
     1
 77
     6
 78
     2
 67
     7
 79
     5
170
     0
171
     0
290
     0
174
     0
 93
        1
 44
0.0
173
     0
291
     1
 45
0.0
  0
VISUALSTYLE
  5
275
102
{ACAD_REACTORS
330
267
102
}
330
267
100
AcDbVisualStyle
  2
Linepattern
 70
    14
 71
     2
 72
     2
 73
     0
 90
        0
 40
-0.6
 41
-30.0
 62
     5
 63
     7
421
 16777215
 74
     1
 91
        4
 64
     7
 65
   257
 75
     7
175
     7
 42
1.0
 92
        8
 66
     7
 43
1.0
 76
     1
 77
     6
 78
     2
 67
     7
 79
     5
170
     0
171
     0
290
     0
174
     0
 93
        1
 44
0.0
173
     0
291
     1
 45
0.0
  0
VISUALSTYLE
  5
688
102
{ACAD_REACTORS
330
267
102
}
330
267
100
AcDbVisualStyle
  2
OverhangOff
 70
    21
 71
     2
 72
     2
 73
     0
 90
        0
 40
0.6
 41
30.0
 62
     5
 63
     7
421
 16777215
 74
     1
 91
        4
 64
     7
 65
   257
 75
     1
175
     1
 42
1.0
 92
        9
 66
     7
 43
1.0
 76
     1
 77
     6
 78
     2
 67
     7
 79
     5
170
     0
171
     0
290
     0
174
     0
 93
        1
 44
0.0
173
     0
291
     1
 45
0.0
  0
VISUALSTYLE
  5
270
102
{ACAD_REACTORS
330
267
102
}
330
267
100
AcDbVisualStyle
  2
Realistic
 70
     8
 71
     2
 72
     2
 73
     0
 90
        0
 40
-0.6
 41
-30.0
 62
     5
 63
     7
421
 16777215
 74
     1
 91
        0
 64
     7
 65
   257
 75
     1
175
     1
 42
1.0
 92
        8
 66
     8
424
  7895160
 43
1.0
 76
     1
 77
     6
 78
     2
 67
     7
 79
     5
170
     0
171
     0
290
     0
174
     0
 93
       13
 44
0.0
173
     0
291
     0
 45
0.0
  0
VISUALSTYLE
  5
68E
102
{ACAD_REACTORS
330
267
102
}
330
267
100
AcDbVisualStyle
  2
Shaded
 70
    27
 71
     2
 72
     2
 73
     1
 90
        2
 40
0.6
 41
30.0
 62
     5
 63
     7
421
 16777215
 74
     0
 91
        4
 64
     7
 65
   257
 75
     1
175
     1
 42
1.0
 92
        8
 66
   257
 43
1.0
 76
     1
 77
     6
 78
     2
 67
     8
425
  7895160
 79
     3
170
     0
171
     0
290
     0
174
     0
 93
        5
 44
0.0
173
     0
291
     0
 45
0.0
  0
VISUALSTYLE
  5
68D
102
{ACAD_REACTORS
330
267
102
}
330
267
100
AcDbVisualStyle
  2
Shaded with edges
 70
    26
 71
     2
 72
     2
 73
     1
 90
        2
 40
0.6
 41
30.0
 62
     5
 63
     7
421
 16777215
 74
     1
 91
       10
 64
     7
 65
   257
 75
     2
175
     1
 42
1.0
 92
        8
 66
   257
 43
1.0
 76
     1
 77
     6
 78
     2
 67
     7
 79
     3
170
     0
171
     0
290
     0
174
     0
 93
        5
 44
0.0
173
     0
291
     0
 45
0.0
  0
VISUALSTYLE
  5
68A
102
{ACAD_REACTORS
330
267
102
}
330
267
100
AcDbVisualStyle
  2
Shades of Gray
 70
    23
 71
     2
 72
     2
 73
     3
 90
        0
 40
0.6
 41
30.0
 62
     5
 63
     7
421
 16777215
 74
     2
 91
        2
 64
     7
 65
     7
 75
     1
175
     1
 42
40.0
 92
        8
 66
     7
 43
1.0
 76
     1
 77
     6
 78
     2
 67
     7
 79
     3
170
     0
171
     0
290
     0
174
     0
 93
        1
 44
0.0
173
     0
291
     0
 45
0.0
  0
VISUALSTYLE
  5
68B
102
{ACAD_REACTORS
330
267
102
}
330
267
100
AcDbVisualStyle
  2
Sketchy
 70
    24
 71
     1
 72
     2
 73
     2
 90
        0
 40
0.6
 41
30.0
 62
     5
 63
     7
421
 16777215
 74
     2
 91
        2
 64
     7
 65
     7
 75
     1
175
     1
 42
40.0
 92
       11
 66
     7
 43
1.0
 76
     1
 77
     6
 78
     2
 67
     7
 79
     6
170
     0
171
     0
290
     0
174
     0
 93
        1
 44
0.0
173
     0
291
     0
 45
0.0
  0
VISUALSTYLE
  5
274
102
{ACAD_REACTORS
330
267
102
}
330
267
100
AcDbVisualStyle
  2
Thicken
 70
    13
 71
     2
 72
     2
 73
     0
 90
        0
 40
-0.6
 41
-30.0
 62
     5
 63
     7
421
 16777215
 74
     1
 91
        4
 64
     7
 65
   257
 75
     1
175
     1
 42
1.0
 92
       12
 66
     7
 43
1.0
 76
     1
 77
     6
 78
     2
 67
     7
 79
     5
170
     0
171
     0
290
     0
174
     0
 93
        1
 44
0.0
173
     0
291
     1
 45
0.0
  0
VISUALSTYLE
  5
685
102
{ACAD_REACTORS
330
267
102
}
330
267
100
AcDbVisualStyle
  2
Wireframe
 70
     5
 71
     0
 72
     2
 73
     0
 90
        0
 40
0.6
 41
30.0
 62
     5
 63
     7
421
 16777215
 74
     1
 91
        4
 64
     7
 65
   257
 75
     1
175
     1
 42
1.0
 92
        0
 66
   257
 43
1.0
 76
     1
 77
     6
 78
     2
 67
     7
 79
     3
170
     0
171
     0
290
     0
174
     0
 93
        1
 44
0.0
173
     0
291
     0
 45
0.0
  0
VISUALSTYLE
  5
68C
102
{ACAD_REACTORS
330
267
102
}
330
267
100
AcDbVisualStyle
  2
X-Ray
 70
    25
 71
     2
 72
     2
 73
     1
 90
        1
 40
0.5
 41
30.0
 62
     5
 63
     7
421
 16777215
 74
     1
 91
        0
 64
     7
 65
   257
 75
     1
175
     1
 42
1.0
 92
        8
 66
     7
 43
1.0
 76
     1
 77
     6
 78
     2
 67
     7
 79
     3
170
     0
171
     0
290
     0
174
     0
 93
       13
 44
0.0
173
     0
291
     0
 45
0.0
  0
DICTIONARYVAR
  5
331
102
{ACAD_REACTORS
330
330
102
}
330
330
100
DictionaryVariables
280
     0
  1
1:1
  0
DICTIONARYVAR
  5
335
102
{ACAD_REACTORS
330
330
102
}
330
330
100
DictionaryVariables
280
     0
  1
Standard
  0
DICTIONARYVAR
  5
64A
102
{ACAD_REACTORS
330
330
102
}
330
330
100
DictionaryVariables
280
     0
  1
0
  0
XRECORD
  5
3FF2
102
{ACAD_REACTORS
330
2E2
102
}
330
2E2
100
AcDbXrecord
280
     1
 91
     1023
301

290
     0
302
MODEL
330
14
 90
        8
 62
     7
370
    -3
331
13
  1
Color_7
330
4A
 90
        0
 62
     7
370
     9
331
13
  1
Color_7
330
4B
 90
        8
 62
     7
370
    -3
331
13
  1
Color_7
330
4C
 90
        8
 62
     7
370
    -3
331
13
  1
Color_7
330
4D
 90
        8
 62
     7
370
    -3
331
13
  1
Color_7
330
382
 90
        8
 62
     7
370
    -3
331
13
  1
Color_7
330
0
 90
        8
 62
     7
370
     9
331
45
  1
Color_7
330
5EB
 90
        9
 62
     7
370
     9
331
13
  1
Color_7
330
0
 90
        8
 62
     7
370
    35
331
13
  1
Color_7
330
0
 90
        8
 62
     7
370
    -3
331
0
  1
Color_7
330
0
 90
        8
 62
     7
370
    20
331
0
  1
Color_7
330
2226
 90
        8
 62
     7
370
    -3
331
13
  1
Color_7
  0
DICTIONARY
  5
4744
330
279
100
AcDbDictionary
280
     1
281
     1
  3
ACAD_ROUNDTRIP_2008_TABLESTYLE_CELLSTYLEMAP
360
4745
  0
CELLSTYLEMAP
  5
4745
102
{ACAD_REACTORS
330
4744
102
}
330
4744
100
AcDbCellStyleMap
 90
        3
300
CELLSTYLE
  1
TABLEFORMAT_BEGIN
 90
        5
170
     1
 91
        0
 92
    32768
 62
   257
 93
        1
300
CONTENTFORMAT
  1
CONTENTFORMAT_BEGIN
 90
        0
 91
        0
 92
        4
 93
        0
300

 40
0.0
140
1.0
 94
        5
 62
     0
340
17
144
6.0
309
CONTENTFORMAT_END
171
     1
301
MARGIN
  1
CELLMARGIN_BEGIN
 40
0.06
 40
0.06
 40
0.06
 40
0.06
 40
0.18
 40
0.18
309
CELLMARGIN_END
 94
        6
 95
        1
302
GRIDFORMAT
  1
GRIDFORMAT_BEGIN
 90
        0
 91
        1
 62
     0
 92
       -2
340
0
 93
        0
 40
0.045
309
GRIDFORMAT_END
 95
        2
302
GRIDFORMAT
  1
GRIDFORMAT_BEGIN
 90
        0
 91
        1
 62
     0
 92
       -2
340
0
 93
        0
 40
0.045
309
GRIDFORMAT_END
 95
        4
302
GRIDFORMAT
  1
GRIDFORMAT_BEGIN
 90
        0
 91
        1
 62
     0
 92
       -2
340
0
 93
        0
 40
0.045
309
GRIDFORMAT_END
 95
        8
302
GRIDFORMAT
  1
GRIDFORMAT_BEGIN
 90
        0
 91
        1
 62
     0
 92
       -2
340
0
 93
        0
 40
0.045
309
GRIDFORMAT_END
 95
       16
302
GRIDFORMAT
  1
GRIDFORMAT_BEGIN
 90
        0
 91
        1
 62
     0
 92
       -2
340
0
 93
        0
 40
0.045
309
GRIDFORMAT_END
 95
       32
302
GRIDFORMAT
  1
GRIDFORMAT_BEGIN
 90
        0
 91
        1
 62
     0
 92
       -2
340
0
 93
        0
 40
0.045
309
GRIDFORMAT_END
309
TABLEFORMAT_END
  1
CELLSTYLE_BEGIN
 90
        1
 91
        1
300
_TITLE
309
CELLSTYLE_END
300
CELLSTYLE
  1
TABLEFORMAT_BEGIN
 90
        5
170
     1
 91
        0
 92
        0
 62
   257
 93
        1
300
CONTENTFORMAT
  1
CONTENTFORMAT_BEGIN
 90
        0
 91
        0
 92
        4
 93
        0
300

 40
0.0
140
1.0
 94
        5
 62
     0
340
17
144
4.5
309
CONTENTFORMAT_END
171
     1
301
MARGIN
  1
CELLMARGIN_BEGIN
 40
0.06
 40
0.06
 40
0.06
 40
0.06
 40
0.18
 40
0.18
309
CELLMARGIN_END
 94
        6
 95
        1
302
GRIDFORMAT
  1
GRIDFORMAT_BEGIN
 90
        0
 91
        1
 62
     0
 92
       -2
340
0
 93
        0
 40
0.045
309
GRIDFORMAT_END
 95
        2
302
GRIDFORMAT
  1
GRIDFORMAT_BEGIN
 90
        0
 91
        1
 62
     0
 92
       -2
340
0
 93
        0
 40
0.045
309
GRIDFORMAT_END
 95
        4
302
GRIDFORMAT
  1
GRIDFORMAT_BEGIN
 90
        0
 91
        1
 62
     0
 92
       -2
340
0
 93
        0
 40
0.045
309
GRIDFORMAT_END
 95
        8
302
GRIDFORMAT
  1
GRIDFORMAT_BEGIN
 90
        0
 91
        1
 62
     0
 92
       -2
340
0
 93
        0
 40
0.045
309
GRIDFORMAT_END
 95
       16
302
GRIDFORMAT
  1
GRIDFORMAT_BEGIN
 90
        0
 91
        1
 62
     0
 92
       -2
340
0
 93
        0
 40
0.045
309
GRIDFORMAT_END
 95
       32
302
GRIDFORMAT
  1
GRIDFORMAT_BEGIN
 90
        0
 91
        1
 62
     0
 92
       -2
340
0
 93
        0
 40
0.045
309
GRIDFORMAT_END
309
TABLEFORMAT_END
  1
CELLSTYLE_BEGIN
 90
        2
 91
        1
300
_HEADER
309
CELLSTYLE_END
300
CELLSTYLE
  1
TABLEFORMAT_BEGIN
 90
        5
170
     1
 91
        0
 92
        0
 62
   257
 93
        1
300
CONTENTFORMAT
  1
CONTENTFORMAT_BEGIN
 90
        0
 91
        0
 92
        4
 93
        0
300

 40
0.0
140
1.0
 94
        2
 62
     0
340
17
144
4.5
309
CONTENTFORMAT_END
171
     1
301
MARGIN
  1
CELLMARGIN_BEGIN
 40
0.06
 40
0.06
 40
0.06
 40
0.06
 40
0.18
 40
0.18
309
CELLMARGIN_END
 94
        6
 95
        1
302
GRIDFORMAT
  1
GRIDFORMAT_BEGIN
 90
        0
 91
        1
 62
     0
 92
       -2
340
0
 93
        0
 40
0.045
309
GRIDFORMAT_END
 95
        2
302
GRIDFORMAT
  1
GRIDFORMAT_BEGIN
 90
        0
 91
        1
 62
     0
 92
       -2
340
0
 93
        0
 40
0.045
309
GRIDFORMAT_END
 95
        4
302
GRIDFORMAT
  1
GRIDFORMAT_BEGIN
 90
        0
 91
        1
 62
     0
 92
       -2
340
0
 93
        0
 40
0.045
309
GRIDFORMAT_END
 95
        8
302
GRIDFORMAT
  1
GRIDFORMAT_BEGIN
 90
        0
 91
        1
 62
     0
 92
       -2
340
0
 93
        0
 40
0.045
309
GRIDFORMAT_END
 95
       16
302
GRIDFORMAT
  1
GRIDFORMAT_BEGIN
 90
        0
 91
        1
 62
     0
 92
       -2
340
0
 93
        0
 40
0.045
309
GRIDFORMAT_END
 95
       32
302
GRIDFORMAT
  1
GRIDFORMAT_BEGIN
 90
        0
 91
        1
 62
     0
 92
       -2
340
0
 93
        0
 40
0.045
309
GRIDFORMAT_END
309
TABLEFORMAT_END
  1
CELLSTYLE_BEGIN
 90
        3
 91
        2
300
_DATA
309
CELLSTYLE_END
  0
ENDSEC
  0
EOF
