  0
SECTION
  2
HEADER
  9
$ACADVER
  1
AC1015
  9
$ACADMAINTVER
 70
               6
  9
$DWGCODEPAGE
  3
ANSI_932
  9
$INSBASE
 10
0.0
 20
0.0
 30
0.0
  9
$EXTMIN
 10
-974.96716638496719
 20
-1417.5228151124122
 30
-14.834305555555554
  9
$EXTMAX
 10
975.0328336155153
 20
1420.0
 30
14.834305555555554
  9
$LIMMIN
 10
0.0
 20
0.0
  9
$LIMMAX
 10
0.0
 20
0.0
  9
$ORTHOMODE
 70
               0
  9
$REGENMODE
 70
               1
  9
$FILLMODE
 70
               1
  9
$QTEXTMODE
 70
               0
  9
$MIRRTEXT
 70
               1
  9
$LTSCALE
 40
25.399999999999999
  9
$ATTMODE
 70
               1
  9
$TEXTSIZE
 40
0.2
  9
$TRACEWID
 40
1.0
  9
$TEXTSTYLE
  7
Standard
  9
$CLAYER
  8
GAR70-1701
  9
$CELTYPE
  6
Continuous
  9
$CECOLOR
 62
             256
  9
$CELTSCALE
 40
1.0
  9
$DISPSILH
 70
               0
  9
$DIMSCALE
 40
1.0
  9
$DIMASZ
 40
9.9993896484374982
  9
$DIMEXO
 40
24.999999999999996
  9
$DIMDLI
 40
0.9999999999999999
  9
$DIMRND
 40
0.0
  9
$DIMDLE
 40
0.0
  9
$DIMEXE
 40
0.0
  9
$DIMTP
 40
0.0
  9
$DIMTM
 40
0.0
  9
$DIMTXT
 40
24.432617187500004
  9
$DIMCEN
 40
0.0
  9
$DIMTSZ
 40
0.0
  9
$DIMTOL
 70
               0
  9
$DIMLIM
 70
               0
  9
$DIMTIH
 70
               0
  9
$DIMTOH
 70
               0
  9
$DIMSE1
 70
               0
  9
$DIMSE2
 70
               0
  9
$DIMTAD
 70
               1
  9
$DIMZIN
 70
              11
  9
$DIMBLK
  1
_DOT
  9
$DIMASO
 70
               1
  9
$DIMSHO
 70
               1
  9
$DIMPOST
  1
<>
  9
$DIMAPOST
  1
[]
  9
$DIMALT
 70
               0
  9
$DIMALTD
 70
               1
  9
$DIMALTF
 40
1.0
  9
$DIMLFAC
 40
1.0
  9
$DIMTOFL
 70
               0
  9
$DIMTVP
 40
0.0
  9
$DIMTIX
 70
               1
  9
$DIMSOXD
 70
               0
  9
$DIMSAH
 70
               0
  9
$DIMBLK1
  1

  9
$DIMBLK2
  1

  9
$DIMSTYLE
  2
tfrom線あり
  9
$DIMCLRD
 70
               0
  9
$DIMCLRE
 70
               0
  9
$DIMCLRT
 70
               0
  9
$DIMTFAC
 40
1.0
  9
$DIMGAP
 40
0.4999999999999999
  9
$DIMJUST
 70
               0
  9
$DIMSD1
 70
               0
  9
$DIMSD2
 70
               0
  9
$DIMTOLJ
 70
               1
  9
$DIMTZIN
 70
              11
  9
$DIMALTZ
 70
              11
  9
$DIMALTTZ
 70
              11
  9
$DIMUPT
 70
               0
  9
$DIMDEC
 70
               1
  9
$DIMTDEC
 70
               1
  9
$DIMALTU
 70
               2
  9
$DIMALTTD
 70
               2
  9
$DIMTXSTY
  7
ＭＳ ゴシック
  9
$DIMAUNIT
 70
               0
  9
$DIMADEC
 70
               2
  9
$DIMALTRND
 40
0.0
  9
$DIMAZIN
 70
               0
  9
$DIMDSEP
 70
              46
  9
$DIMATFIT
 70
               0
  9
$DIMFRAC
 70
               2
  9
$DIMLDRBLK
  1

  9
$DIMLUNIT
 70
               2
  9
$DIMLWD
 70
              -2
  9
$DIMLWE
 70
              -2
  9
$DIMTMOVE
 70
               0
  9
$LUNITS
 70
               2
  9
$LUPREC
 70
               4
  9
$SKETCHINC
 40
0.1
  9
$FILLETRAD
 40
0.0
  9
$AUNITS
 70
               0
  9
$AUPREC
 70
               0
  9
$MENU
  1
acad
  9
$ELEVATION
 40
0.0
  9
$PELEVATION
 40
0.0
  9
$THICKNESS
 40
0.0
  9
$LIMCHECK
 70
               0
  9
$CHAMFERA
 40
0.0
  9
$CHAMFERB
 40
0.0
  9
$CHAMFERC
 40
0.0
  9
$CHAMFERD
 40
0.0
  9
$SKPOLY
 70
               0
  9
$TDCREATE
 40
2456357.595000000
  9
$TDUCREATE
 40
0.000000000
  9
$TDUPDATE
 40
2456357.595000000
  9
$TDUUPDATE
 40
0.000000000
  9
$TDINDWG
 40
0.0000000000
  9
$TDUSRTIMER
 40
0.0000000000
  9
$USRTIMER
 70
               1
  9
$ANGBASE
 50
0.0
  9
$ANGDIR
 70
               0
  9
$PDMODE
 70
               1
  9
$PDSIZE
 40
-2.0
  9
$PLINEWID
 40
0.0
  9
$SPLFRAME
 70
               0
  9
$SPLINETYPE
 70
               6
  9
$SPLINESEGS
 70
               8
  9
$HANDSEED
  5
177
  9
$SURFTAB1
 70
               6
  9
$SURFTAB2
 70
               6
  9
$SURFTYPE
 70
               6
  9
$SURFU
 70
               6
  9
$SURFV
 70
               6
  9
$UCSBASE
  2

  9
$UCSNAME
  2

  9
$UCSORG
 10
0.0
 20
0.0
 30
0.0
  9
$UCSXDIR
 10
1.0
 20
0.0
 30
0.0
  9
$UCSYDIR
 10
0.0
 20
1.0
 30
0.0
  9
$UCSORTHOREF
  2

  9
$UCSORTHOVIEW
 70
               0
  9
$UCSORGTOP
 10
0.0
 20
0.0
 30
0.0
  9
$UCSORGBOTTOM
 10
0.0
 20
0.0
 30
0.0
  9
$UCSORGLEFT
 10
0.0
 20
0.0
 30
0.0
  9
$UCSORGRIGHT
 10
0.0
 20
0.0
 30
0.0
  9
$UCSORGFRONT
 10
0.0
 20
0.0
 30
0.0
  9
$UCSORGBACK
 10
0.0
 20
0.0
 30
0.0
  9
$PUCSBASE
  2

  9
$PUCSNAME
  2

  9
$PUCSORG
 10
0.0
 20
0.0
 30
0.0
  9
$PUCSXDIR
 10
1.0
 20
0.0
 30
0.0
  9
$PUCSYDIR
 10
0.0
 20
1.0
 30
0.0
  9
$PUCSORTHOREF
  2

  9
$PUCSORTHOVIEW
 70
               0
  9
$PUCSORGTOP
 10
0.0
 20
0.0
 30
0.0
  9
$PUCSORGBOTTOM
 10
0.0
 20
0.0
 30
0.0
  9
$PUCSORGLEFT
 10
0.0
 20
0.0
 30
0.0
  9
$PUCSORGRIGHT
 10
0.0
 20
0.0
 30
0.0
  9
$PUCSORGFRONT
 10
0.0
 20
0.0
 30
0.0
  9
$PUCSORGBACK
 10
0.0
 20
0.0
 30
0.0
  9
$USERI1
 70
               0
  9
$USERI2
 70
               0
  9
$USERI3
 70
               0
  9
$USERI4
 70
               0
  9
$USERI5
 70
               0
  9
$USERR1
 40
0.0
  9
$USERR2
 40
0.0
  9
$USERR3
 40
0.0
  9
$USERR4
 40
0.0
  9
$USERR5
 40
0.0
  9
$WORLDVIEW
 70
               1
  9
$SHADEDGE
 70
               3
  9
$SHADEDIF
 70
              70
  9
$TILEMODE
 70
               1
  9
$MAXACTVP
 70
              64
  9
$PINSBASE
 10
0.0
 20
0.0
 30
0.0
  9
$PLIMCHECK
 70
               0
  9
$PEXTMIN
 10
1.0000000000000000E+20
 20
1.0000000000000000E+20
 30
1.0000000000000000E+20
  9
$PEXTMAX
 10
-1.0000000000000000E+20
 20
-1.0000000000000000E+20
 30
-1.0000000000000000E+20
  9
$PLIMMIN
 10
0.0
 20
0.0
  9
$PLIMMAX
 10
12.0
 20
9.0
  9
$UNITMODE
 70
               0
  9
$VISRETAIN
 70
               0
  9
$PLINEGEN
 70
               1
  9
$PSLTSCALE
 70
               0
  9
$TREEDEPTH
 70
            3020
  9
$CMLSTYLE
  2
Standard
  9
$CMLJUST
 70
               0
  9
$CMLSCALE
 40
1.0
  9
$PROXYGRAPHICS
 70
               0
  9
$MEASUREMENT
 70
               1
  9
$CELWEIGHT
370
               0
  9
$ENDCAPS
280
               0
  9
$JOINSTYLE
280
               0
  9
$LWDISPLAY
290
               1
  9
$INSUNITS
 70
               4
  9
$HYPERLINKBASE
  1

  9
$STYLESHEET
  1

  9
$XEDIT
290
               1
  9
$CEPSNTYPE
380
               0
  9
$PSTYLEMODE
290
               1
  9
$FINGERPRINTGUID
  2

  9
$VERSIONGUID
  2

  9
$EXTNAMES
290
               1
  9
$PSVPSCALE
 40
0.0
  0
ENDSEC
  0
SECTION
  2
CLASSES
  0
CLASS
  1
LWPOLYLINE
  2
AcDbPolyline
  3
AutoCAD 2000
 90
        0
280
               0
281
               1
  0
CLASS
  1
IMAGE
  2
AcDbRasterImage
  3
ISM
 90
      127
280
               0
281
               1
  0
CLASS
  1
OLE2FRAME
  2
AcDbOle2Frame
  3
AutoCAD 2000
 90
        0
280
               0
281
               1
  0
CLASS
  1
HATCH
  2
AcDbHatch
  3
AutoCAD 2000
 90
        0
280
               0
281
               1
  0
CLASS
  1
DICTIONARYVAR
  2
AcDbDictionaryVar
  3
AutoCAD 2000
 90
        0
280
               0
281
               0
  0
CLASS
  1
RASTERVARIABLES
  2
AcDbRasterVariables
  3
ISM
 90
        0
280
               0
281
               0
  0
CLASS
  1
IMAGEDEF
  2
AcDbRasterImageDef
  3
ISM
 90
        0
280
               0
281
               0
  0
CLASS
  1
IMAGEDEF_REACTOR
  2
AcDbRasterImageDefReactor
  3
ISM
 90
        1
280
               0
281
               0
  0
CLASS
  1
IDBUFFER
  2
AcDbIdBuffer
  3
AutoCAD 2000
 90
        0
280
               0
281
               0
  0
CLASS
  1
SPATIAL_FILTER
  2
AcDbSpatialFilter
  3
AutoCAD 2000
 90
        0
280
               0
281
               0
  0
CLASS
  1
XRECORD
  2
AcDbXrecord
  3
AutoCAD 2000
 90
        0
280
               0
281
               0
  0
CLASS
  1
SORTENTSTABLE
  2
AcDbSortentsTable
  3
AutoCAD 2000
 90
        0
280
               0
281
               0
  0
CLASS
  1
LAYER_INDEX
  2
AcDbLayerIndex
  3
AutoCAD 2000
 90
        0
280
               0
281
               0
  0
CLASS
  1
SPATIAL_INDEX
  2
AcDbSpatialIndex
  3
AutoCAD 2000
 90
        0
280
               0
281
               0
  0
CLASS
  1
OBJECT_PTR
  2
CAseDLPNTableRecord
  3
"ASE-LPNTableRecord"
 90
        1
280
               0
281
               0
  0
CLASS
  1
LAYOUT
  2
AcDbLayout
  3
AutoCAD 2000
 90
        0
280
               0
281
               0
  0
CLASS
  1
PLOTSETTINGS
  2
AcDbPlotSettings
  3
AutoCAD 2000
 90
        0
280
               0
281
               0
  0
CLASS
  1
ACDBDICTIONARYWDFLT
  2
AcDbDictionaryWithDefault
  3
AutoCAD 2000
 90
        0
280
               0
281
               0
  0
CLASS
  1
ACDBPLACEHOLDER
  2
AcDbPlaceHolder
  3
AutoCAD 2000
 90
        0
280
               0
281
               0
  0
ENDSEC
  0
SECTION
  2
TABLES
  0
TABLE
  2
VPORT
  5
7
100
AcDbSymbolTable
 70
               1
  0
VPORT
  5
15
100
AcDbSymbolTableRecord
100
AcDbViewportTableRecord
  2
*ACTIVE
 70
               0
 10
0.0
 20
0.0
 11
1.0
 21
1.0
 12
0.0328336152740576
 22
1.2385924437937774
 13
0.0
 23
0.0
 14
1.0
 24
1.0
 15
0.0
 25
0.0
 16
0.0
 26
0.0
 36
1.0
 17
0.0
 27
0.0
 37
0.0
 40
2837.522815112412
 41
0.688564
 42
50.0
 43
0.0
 44
0.0
 50
0.0
 51
0.0
 71
               0
 72
            2000
 73
               1
 74
               1
 75
               0
 76
               0
 77
               0
 78
               0
281
               0
 65
               0
110
0.0
120
0.0
130
0.0
111
1.0
121
0.0
131
0.0
112
0.0
122
1.0
132
0.0
345
0
346
0
 79
               0
146
0.0
  0
ENDTAB
  0
TABLE
  2
LTYPE
  5
4
100
AcDbSymbolTable
 70
              19
  0
LTYPE
  5
11
100
AcDbSymbolTableRecord
100
AcDbLinetypeTableRecord
  2
ByBlock
 70
              64
  3

 72
              65
 73
               0
 40
0.0
  0
LTYPE
  5
12
100
AcDbSymbolTableRecord
100
AcDbLinetypeTableRecord
  2
ByLayer
 70
              64
  3

 72
              65
 73
               0
 40
0.0
  0
LTYPE
  5
13
100
AcDbSymbolTableRecord
100
AcDbLinetypeTableRecord
  2
Continuous
 70
              64
  3
Solid line
 72
              65
 73
               0
 40
0.0
  0
LTYPE
  5
39
100
AcDbSymbolTableRecord
100
AcDbLinetypeTableRecord
  2
STYLE_01
 70
               0
  3

 72
              65
 73
               2
 40
0.2083334707176832
 49
0.1388889804784555
 74
               0
 49
-0.0694444902392277
 74
               0
  0
LTYPE
  5
3A
100
AcDbSymbolTableRecord
100
AcDbLinetypeTableRecord
  2
STYLE_02
 70
               0
  3

 72
              65
 73
               2
 40
0.2083334707176832
 49
0.1388889804784555
 74
               0
 49
-0.0694444902392277
 74
               0
  0
LTYPE
  5
3B
100
AcDbSymbolTableRecord
100
AcDbLinetypeTableRecord
  2
STYLE_03
 70
               0
  3

 72
              65
 73
               2
 40
0.2083334707176832
 49
0.1388889804784555
 74
               0
 49
-0.0694444902392277
 74
               0
  0
LTYPE
  5
3C
100
AcDbSymbolTableRecord
100
AcDbLinetypeTableRecord
  2
STYLE_04
 70
               0
  3

 72
              65
 73
               2
 40
0.2083334707176832
 49
0.1388889804784555
 74
               0
 49
-0.0694444902392277
 74
               0
  0
LTYPE
  5
3D
100
AcDbSymbolTableRecord
100
AcDbLinetypeTableRecord
  2
STYLE_05
 70
               0
  3

 72
              65
 73
               2
 40
0.4166669414353664
 49
0.2777779609569109
 74
               0
 49
-0.1388889804784555
 74
               0
  0
LTYPE
  5
3E
100
AcDbSymbolTableRecord
100
AcDbLinetypeTableRecord
  2
STYLE_06
 70
               0
  3

 72
              65
 73
               4
 40
2.0832800000000002
 49
1.25
 74
               0
 49
-0.41656
 74
               0
 49
0.1388600000000001
 74
               0
 49
-0.2778600000000001
 74
               0
  0
LTYPE
  5
3F
100
AcDbSymbolTableRecord
100
AcDbLinetypeTableRecord
  2
STYLE_07
 70
               0
  3

 72
              65
 73
               6
 40
3.75
 49
1.25
 74
               0
 49
-0.41656
 74
               0
 49
1.2500000000000002
 74
               0
 49
-0.4167199999999999
 74
               0
 49
0.1388600000000001
 74
               0
 49
-0.2778599999999998
 74
               0
  0
LTYPE
  5
40
100
AcDbSymbolTableRecord
100
AcDbLinetypeTableRecord
  2
STYLE_08
 70
               0
  3

 72
              65
 73
               6
 40
2.5
 49
1.25
 74
               0
 49
-0.41656
 74
               0
 49
0.1388600000000001
 74
               0
 49
-0.2778600000000001
 74
               0
 49
0.1388599999999998
 74
               0
 49
-0.2778600000000001
 74
               0
  0
LTYPE
  5
41
100
AcDbSymbolTableRecord
100
AcDbLinetypeTableRecord
  2
STYLE_09
 70
               0
  3

 72
              65
 73
               4
 40
10.0
 49
7.5
 74
               0
 49
-0.5555699999999997
 74
               0
 49
1.3888600000000006
 74
               0
 49
-0.5555699999999997
 74
               0
  0
LTYPE
  5
42
100
AcDbSymbolTableRecord
100
AcDbLinetypeTableRecord
  2
STYLE_10
 70
               0
  3

 72
              65
 73
               6
 40
11.875
 49
7.5
 74
               0
 49
-0.5555699999999997
 74
               0
 49
1.3888600000000006
 74
               0
 49
-0.5555699999999997
 74
               0
 49
1.25
 74
               0
 49
-0.625
 74
               0
  0
LTYPE
  5
43
100
AcDbSymbolTableRecord
100
AcDbLinetypeTableRecord
  2
STYLE_11
 70
               0
  3

 72
              65
 73
               2
 40
0.1388889763779528
 49
0.0694444881889764
 74
               0
 49
-0.0694444881889764
 74
               0
  0
LTYPE
  5
44
100
AcDbSymbolTableRecord
100
AcDbLinetypeTableRecord
  2
STYLE_12
 70
               0
  3

 72
              65
 73
               2
 40
0.7874015748031495
 49
0.3937007874015748
 74
               0
 49
-0.3937007874015748
 74
               0
  0
LTYPE
  5
45
100
AcDbSymbolTableRecord
100
AcDbLinetypeTableRecord
  2
STYLE_13
 70
               0
  3

 72
              65
 73
               2
 40
1.1811023622047243
 49
0.5905511811023622
 74
               0
 49
-0.5905511811023622
 74
               0
  0
LTYPE
  5
46
100
AcDbSymbolTableRecord
100
AcDbLinetypeTableRecord
  2
STYLE_14
 70
               0
  3

 72
              65
 73
               2
 40
3.9370078740157477
 49
1.9685039370078738
 74
               0
 49
-1.9685039370078738
 74
               0
  0
LTYPE
  5
47
100
AcDbSymbolTableRecord
100
AcDbLinetypeTableRecord
  2
STYLE_15
 70
               0
  3

 72
              65
 73
               2
 40
1.033464566929134
 49
0.6889763779527559
 74
               0
 49
-0.344488188976378
 74
               0
  0
LTYPE
  5
48
100
AcDbSymbolTableRecord
100
AcDbLinetypeTableRecord
  2
STYLE_16
 70
               0
  3

 72
              65
 73
               2
 40
0.83328
 49
0.41656
 74
               0
 49
-0.41672
 74
               0
  0
ENDTAB
  0
TABLE
  2
LAYER
  5
2
100
AcDbSymbolTable
 70
               5
  0
LAYER
  5
14
100
AcDbSymbolTableRecord
100
AcDbLayerTableRecord
  2
0
 70
               0
 62
               7
  6
Continuous
290
               1
370
              -3
390
1D
  0
LAYER
  5
49
100
AcDbSymbolTableRecord
100
AcDbLayerTableRecord
  2
Defpoints
 70
               0
 62
               7
  6
Continuous
290
               0
370
              -3
390
1D
  0
LAYER
  5
4A
100
AcDbSymbolTableRecord
100
AcDbLayerTableRecord
  2
template
 70
               0
 62
               7
  6
Continuous
290
               1
370
              -3
390
1D
  0
LAYER
  5
4B
100
AcDbSymbolTableRecord
100
AcDbLayerTableRecord
  2
notes
 70
               0
 62
               7
  6
Continuous
290
               1
370
              -3
390
1D
  0
LAYER
  5
4C
100
AcDbSymbolTableRecord
100
AcDbLayerTableRecord
  2
GAR70-1701
 70
               0
 62
               7
  6
Continuous
290
               1
370
              -3
390
1D
  0
ENDTAB
  0
TABLE
  2
STYLE
  5
3
100
AcDbSymbolTable
 70
               2
  0
STYLE
  5
17
100
AcDbSymbolTableRecord
100
AcDbTextStyleTableRecord
  2
Standard
 70
               0
 40
0.0
 41
1.0
 50
0.0
 71
               0
 42
0.0
  3
txt
  4
BIGFONT.SHX
  0
STYLE
  5
38
100
AcDbSymbolTableRecord
100
AcDbTextStyleTableRecord
  2
ＭＳ ゴシック
 70
               0
 40
0.0
 41
1.0
 50
0.0
 71
               0
 42
0.0
  3

  4
ＭＳ ゴシック
1001
ACAD
1000
ＭＳ ゴシック
1071
        0
  0
ENDTAB
  0
TABLE
  2
VIEW
  5
5
100
AcDbSymbolTable
 70
               0
  0
ENDTAB
  0
TABLE
  2
UCS
  5
6
100
AcDbSymbolTable
 70
               0
  0
ENDTAB
  0
TABLE
  2
APPID
  5
8
100
AcDbSymbolTable
 70
               1
  0
APPID
  5
16
100
AcDbSymbolTableRecord
100
AcDbRegAppTableRecord
  2
ACAD
 70
               0
  0
ENDTAB
  0
TABLE
  2
DIMSTYLE
  5
9
100
AcDbSymbolTable
 70
               2
100
AcDbDimStyleTable
 71
               0
  0
DIMSTYLE
105
18
100
AcDbSymbolTableRecord
100
AcDbDimStyleTableRecord
  2
Standard
 70
               0
  3

  4

 40
1.0
 41
0.18
 42
0.0625
 43
0.38
 44
0.18
 45
0.0
 46
0.0
 47
0.0
 48
0.0
 71
               0
 72
               0
 73
               1
 74
               1
 75
               0
 76
               0
 77
               0
 78
               0
 79
               0
140
0.18
141
0.09
142
0.0
143
25.399999999999999
144
1.0
145
0.0
146
1.0
147
0.09
148
0.0
170
               0
171
               2
172
               0
173
               0
174
               0
175
               0
176
               0
177
               0
178
               0
179
               0
271
               4
272
               4
273
               2
274
               2
275
               0
276
               0
277
               2
278
              46
279
               0
280
               0
281
               0
282
               0
283
               1
284
               0
285
               0
286
               0
288
               0
289
               3
340
17
341
0
342
0
343
0
344
0
371
              -2
372
              -2
  0
DIMSTYLE
105
55
100
AcDbSymbolTableRecord
100
AcDbDimStyleTableRecord
  2
tfrom線あり
 70
               0
  3
<>
  4
[]
 40
1.0
 41
9.9993896484374982
 42
24.999999999999996
 43
0.9999999999999999
 44
0.0
 45
0.0
 46
0.0
 47
0.0
 48
0.0
 71
               0
 72
               0
 73
               0
 74
               0
 75
               0
 76
               0
 77
               1
 78
              11
 79
               0
140
24.432617187500004
141
0.0
142
0.0
143
1.0
144
1.0
145
0.0
146
1.0
147
0.4999999999999999
148
0.0
170
               0
171
               1
172
               0
173
               0
174
               1
175
               0
176
               0
177
               0
178
               0
179
               2
271
               1
272
               1
273
               2
274
               2
275
               0
276
               2
277
               2
278
              46
279
               0
280
               0
281
               0
282
               0
283
               1
284
              11
285
              11
286
              11
288
               0
289
               0
340
38
341
4D
342
4D
343
0
344
0
371
              -2
372
              -2
  0
ENDTAB
  0
TABLE
  2
BLOCK_RECORD
  5
1
100
AcDbSymbolTable
 70
              22
  0
BLOCK_RECORD
  5
A
100
AcDbSymbolTableRecord
100
AcDbBlockTableRecord
  2
*MODEL_SPACE
340
20
  0
BLOCK_RECORD
  5
B
100
AcDbSymbolTableRecord
100
AcDbBlockTableRecord
  2
*PAPER_SPACE
340
21
  0
BLOCK_RECORD
  5
4D
100
AcDbSymbolTableRecord
100
AcDbBlockTableRecord
  2
_DOT
340
0
  0
BLOCK_RECORD
  5
23
100
AcDbSymbolTableRecord
100
AcDbBlockTableRecord
  2
グループ
340
0
102
{BLKREFS
331
143
102
}
  0
BLOCK_RECORD
  5
24
100
AcDbSymbolTableRecord
100
AcDbBlockTableRecord
  2
*D2
340
0
  0
BLOCK_RECORD
  5
25
100
AcDbSymbolTableRecord
100
AcDbBlockTableRecord
  2
*D3
340
0
  0
BLOCK_RECORD
  5
26
100
AcDbSymbolTableRecord
100
AcDbBlockTableRecord
  2
*D4
340
0
  0
BLOCK_RECORD
  5
27
100
AcDbSymbolTableRecord
100
AcDbBlockTableRecord
  2
*D5
340
0
  0
BLOCK_RECORD
  5
28
100
AcDbSymbolTableRecord
100
AcDbBlockTableRecord
  2
*D6
340
0
  0
BLOCK_RECORD
  5
29
100
AcDbSymbolTableRecord
100
AcDbBlockTableRecord
  2
*D7
340
0
  0
BLOCK_RECORD
  5
2A
100
AcDbSymbolTableRecord
100
AcDbBlockTableRecord
  2
*D8
340
0
  0
BLOCK_RECORD
  5
2B
100
AcDbSymbolTableRecord
100
AcDbBlockTableRecord
  2
*D9
340
0
  0
BLOCK_RECORD
  5
2C
100
AcDbSymbolTableRecord
100
AcDbBlockTableRecord
  2
*D10
340
0
  0
BLOCK_RECORD
  5
2D
100
AcDbSymbolTableRecord
100
AcDbBlockTableRecord
  2
*D11
340
0
  0
BLOCK_RECORD
  5
2E
100
AcDbSymbolTableRecord
100
AcDbBlockTableRecord
  2
*D12
340
0
  0
BLOCK_RECORD
  5
2F
100
AcDbSymbolTableRecord
100
AcDbBlockTableRecord
  2
*D13
340
0
  0
BLOCK_RECORD
  5
30
100
AcDbSymbolTableRecord
100
AcDbBlockTableRecord
  2
*D14
340
0
  0
BLOCK_RECORD
  5
31
100
AcDbSymbolTableRecord
100
AcDbBlockTableRecord
  2
*D15
340
0
  0
BLOCK_RECORD
  5
32
100
AcDbSymbolTableRecord
100
AcDbBlockTableRecord
  2
815031D
340
0
102
{BLKREFS
331
160
102
}
  0
BLOCK_RECORD
  5
33
100
AcDbSymbolTableRecord
100
AcDbBlockTableRecord
  2
グループ-1
340
0
102
{BLKREFS
331
129
102
}
  0
BLOCK_RECORD
  5
34
100
AcDbSymbolTableRecord
100
AcDbBlockTableRecord
  2
グループ-2
340
0
102
{BLKREFS
331
12A
102
}
  0
BLOCK_RECORD
  5
35
100
AcDbSymbolTableRecord
100
AcDbBlockTableRecord
  2
815031V
340
0
102
{BLKREFS
331
161
102
}
  0
BLOCK_RECORD
  5
36
100
AcDbSymbolTableRecord
100
AcDbBlockTableRecord
  2
815031S
340
0
102
{BLKREFS
331
162
102
}
  0
BLOCK_RECORD
  5
37
100
AcDbSymbolTableRecord
100
AcDbBlockTableRecord
  2
*D21
340
0
  0
ENDTAB
  0
ENDSEC
  0
SECTION
  2
BLOCKS
  0
BLOCK
  5
D
100
AcDbEntity
  8
0
390
0
100
AcDbBlockBegin
  2
*MODEL_SPACE
 70
               0
 10
0.0
 20
0.0
 30
0.0
  3
*MODEL_SPACE
  1

  0
ENDBLK
  5
E
100
AcDbEntity
  8
0
390
0
100
AcDbBlockEnd
  0
BLOCK
  5
F
100
AcDbEntity
 67
               1
  8
0
390
0
100
AcDbBlockBegin
  2
*PAPER_SPACE
 70
               0
 10
0.0
 20
0.0
 30
0.0
  3
*PAPER_SPACE
  1

  0
ENDBLK
  5
10
100
AcDbEntity
 67
               1
  8
0
390
0
100
AcDbBlockEnd
  0
BLOCK
  5
4E
100
AcDbEntity
  8
0
390
0
100
AcDbBlockBegin
  2
_DOT
 70
               0
 10
0.0
 20
0.0
 30
0.0
  3
_DOT
  1

  0
POLYLINE
  5
4F
100
AcDbEntity
  8
0
370
              -2
390
0
  6
ByBlock
 62
               0
100
AcDb2dPolyline
 66
               1
 10
0.0
 20
0.0
 30
0.0
 70
               1
 40
0.5
 41
0.5
  0
VERTEX
  5
50
100
AcDbEntity
  8
0
370
              -2
390
0
  6
ByBlock
 62
               0
100
AcDbVertex
100
AcDb2dVertex
 10
-0.25
 20
0.0
 30
0.0
 42
1.0
  0
VERTEX
  5
51
100
AcDbEntity
  8
0
370
              -2
390
0
  6
ByBlock
 62
               0
100
AcDbVertex
100
AcDb2dVertex
 10
0.25
 20
0.0
 30
0.0
 42
1.0
  0
SEQEND
  5
52
100
AcDbEntity
  8
0
390
0
  0
LINE
  5
53
100
AcDbEntity
  8
0
370
              -2
390
0
  6
ByBlock
 62
               0
100
AcDbLine
 10
-0.5
 20
0.0
 30
0.0
 11
-1.0
 21
0.0
 31
0.0
  0
ENDBLK
  5
54
100
AcDbEntity
  8
0
390
0
100
AcDbBlockEnd
  0
BLOCK
  5
56
100
AcDbEntity
  8
template
390
0
100
AcDbBlockBegin
  2
グループ
 70
               0
 10
0.0
 20
0.0
 30
0.0
  3
グループ
  1

  0
LWPOLYLINE
  5
57
100
AcDbEntity
  8
0
370
              15
390
0
  6
Continuous
 62
               7
100
AcDbPolyline
 90
        8
 70
             129
 10
887.46349051680886
 20
-1115.4887167736886
 10
887.46349051680886
 20
-1121.4861054672645
 10
877.96229359880556
 20
-1121.4861054672645
 10
877.96229359880556
 20
-1145.9370687307733
 10
869.60691633702277
 20
-1145.9370687307733
 10
869.60691633702277
 20
-1121.4861054672645
 10
860.27395939071334
 20
-1121.4861054672645
 10
860.27395939071334
 20
-1115.4887167736886
  0
LWPOLYLINE
  5
58
100
AcDbEntity
  8
0
370
              15
390
0
  6
Continuous
 62
               7
100
AcDbPolyline
 90
      101
 70
             128
 10
900.1917823473658
 20
-1116.216965266625
 10
900.20713237615291
 20
-1116.2126045099394
 42
-0.0222221607812806
 10
900.49713695282185
 20
-1116.1439800446954
 10
900.51293071681403
 20
-1116.1409766215986
 42
-0.0146883565587322
 10
900.77563342203962
 20
-1116.098973434649
 42
-0.0127458844188348
 10
901.04027238918877
 20
-1116.0714364665769
 10
901.10272746750547
 20
-1116.0665430439883
 42
-0.0198099018569097
 10
901.49357657697806
 20
-1116.0514578865918
 10
901.54538804642607
 20
-1116.0515116622569
 42
-0.0147617382760692
 10
902.04001150740748
 20
-1116.066631687502
 10
902.11270296227701
 20
-1116.0710042943895
 42
-0.0162624549002875
 10
902.50285659173983
 20
-1116.1072371696616
 10
902.62438898299649
 20
-1116.1225237286578
 42
-0.0080020874666978
 10
902.76996801409064
 20
-1116.1432065759266
 10
902.80828748467991
 20
-1116.1492778537367
 42
-0.0053821929678678
 10
902.87677159000043
 20
-1116.1608853775592
 10
902.15036589080182
 20
-1118.3418138332731
 42
0.0108667757390153
 10
902.08304882067193
 20
-1118.3286267180533
 10
902.04558079748153
 20
-1118.3221289754588
 42
0.0170663203315095
 10
901.90236401056097
 20
-1118.3022993781665
 10
901.83448867788297
 20
-1118.2952522075796
 42
0.0220162375274541
 10
901.55410927002856
 20
-1118.2785698468094
 10
901.47625370297806
 20
-1118.2773704795429
 42
0.0282606915781499
 10
901.14061737939767
 20
-1118.2911737565119
 10
901.09670410562774
 20
-1118.2954737465152
 42
0.0169677213683959
 10
900.85077961066645
 20
-1118.3280107960677
 42
0.0190576269873473
 10
900.60787164808266
 20
-1118.3781576681749
 10
900.60161245997551
 20
-1118.3797006422833
 42
0.0213685642838702
 10
900.35122797550048
 20
-1118.452900927387
 10
900.34573808058155
 20
-1118.454763923447
 42
0.0237595297591813
 10
900.09224319568068
 20
-1118.5544484453435
 10
900.08714112165319
 20
-1118.5567402208208
 42
0.0261857468811042
 10
899.83497034542313
 20
-1118.6862765581952
 10
899.82454415633561
 20
-1118.6923420326641
 42
0.0272553062022403
 10
899.58811438109774
 20
-1118.8477142386082
 10
899.55335136759049
 20
-1118.8733753866986
 42
0.0325996893171694
 10
899.40319602393674
 20
-1119.0001232596717
 10
899.37948659481242
 20
-1119.0229412881856
 42
0.0138050960630025
 10
899.28760343860358
 20
-1119.1163909497363
 42
0.0125280103799905
 10
899.20076090577322
 20
-1119.2145542763324
 10
899.1770804608617
 20
-1119.2427127745236
 42
0.0205218024733515
 10
899.05198038534991
 20
-1119.4045060887502
 10
899.02951404486089
 20
-1119.4361658185796
 42
0.0163110129584383
 10
898.87380366560967
 20
-1119.6714962536494
 10
898.87107976955861
 20
-1119.675920015635
 42
0.0131897341900136
 10
898.72427924865394
 20
-1119.9290521079972
 10
898.72257915328623
 20
-1119.9321703471351
 42
0.0107895576061885
 10
898.58480245107535
 20
-1120.1983855567705
 10
898.58406956155045
 20
-1120.1998797894169
 42
0.0091371507213192
 10
898.45558961290317
 20
-1120.4744049871713
 10
898.42584398149165
 20
-1120.5411114943354
 42
0.0135418326351909
 10
898.25413004242091
 20
-1120.956049279602
 10
898.22052523398474
 20
-1121.043915421888
 42
0.0092834542413204
 10
898.04929617406492
 20
-1121.5178139201907
 10
898.02367904634832
 20
-1121.5930549899811
 42
0.0054261043583756
 10
897.91604089805423
 20
-1121.920818963049
 10
897.89851491188028
 20
-1121.976207125268
 42
0.0008225090816677
 10
897.82984486004682
 20
-1122.1944758834284
 10
896.84515572811335
 20
-1125.219367176685
 10
900.07777956818722
 20
-1125.219367176685
 10
899.57358713833378
 20
-1127.1238454750373
 10
896.31753085635046
 20
-1127.1238454750373
 10
890.48838182399663
 20
-1145.9370685410422
 10
888.66328421368632
 20
-1145.9370685410422
 10
894.49796224918725
 20
-1127.1238454750373
 10
892.09284588014691
 20
-1127.1238454750373
 10
892.59703831000036
 20
-1125.219367176685
 10
895.02558712095038
 20
-1125.219367176685
 10
895.88574203913902
 20
-1122.5829541759861
 42
-0.0005863560649789
 10
895.92247671732923
 20
-1122.4661277557364
 10
895.99856455100291
 20
-1122.2251354563089
 42
-0.0087522378927343
 10
896.19803269445856
 20
-1121.6298593691658
 10
896.29029696987607
 20
-1121.3697192006412
 42
-0.0077400953829576
 10
896.54823062900437
 20
-1120.6767145231011
 10
896.56399560058446
 20
-1120.6362836397118
 42
-0.0082369946328318
 10
896.81108007119519
 20
-1120.0322045735193
 42
-0.0085725238364205
 10
897.07832616719656
 20
-1119.4367785342354
 10
897.17995576820783
 20
-1119.2203574322423
 42
-0.0168109410595809
 10
897.46690019693551
 20
-1118.6591499061428
 10
897.59274358740856
 20
-1118.4321858731198
 42
-0.0007817726857317
 10
897.64702793745118
 20
-1118.3346416281142
 10
897.64715624346491
 20
-1118.3344119193841
 42
-0.0036626142156309
 10
897.70204410748966
 20
-1118.2378140394094
 42
-0.0080221150669297
 10
897.75916836289241
 20
-1118.142534804663
 10
897.78986831425755
 20
-1118.0931438555344
 42
-0.0202139325567087
 10
897.91752405406714
 20
-1117.9051622548488
 10
897.97159151925189
 20
-1117.8320833906121
 42
-0.0249323791800537
 10
898.23075431296945
 20
-1117.5160381484593
 10
898.25489412709805
 20
-1117.4894238755451
 42
-0.0242132121536247
 10
898.59457486864301
 20
-1117.1495403893384
 10
898.64248644139082
 20
-1117.1060312531549
 42
-0.0251017527860136
 10
898.92646814203135
 20
-1116.8730385073904
 10
898.92791361884599
 20
-1116.8719692498109
 42
-0.0130868069041813
 10
899.22617426880242
 20
-1116.6631887812689
 10
899.22773608794466
 20
-1116.6621553409941
 42
-0.0290329526390801
 10
899.53884722933844
 20
-1116.4813298393647
 10
899.56869279132934
 20
-1116.4662274565226
 42
-0.0160250190043801
 10
899.83459720508927
 20
-1116.3422113463116
 42
-0.0267600374776575
 10
900.1098732825609
 20
-1116.2414630257622
 10
900.13660920207883
 20
-1116.2332704669375
 42
-0.0049981587669831
 10
900.1917823473658
 20
-1116.216965266625
 42
-0.0049981587669831
  0
LWPOLYLINE
  5
59
100
AcDbEntity
  8
0
370
              15
390
0
  6
Continuous
 62
               7
100
AcDbPolyline
 90
      118
 70
             128
 10
920.00614991181271
 20
-1125.2933505045123
 10
921.88127183631218
 20
-1125.2933505045123
 10
921.04323293071229
 20
-1127.9749170309124
 42
-0.0010587229223678
 10
921.07468874624726
 20
-1127.9380124975999
 10
921.13288283691622
 20
-1127.8700302413813
 42
-0.0071874740400136
 10
921.2832580550222
 20
-1127.6993895493436
 10
921.42498082827649
 20
-1127.543153408039
 42
-0.0148118053510009
 10
921.87511012098832
 20
-1127.0755395620267
 10
921.96233245588974
 20
-1126.9901422411735
 42
-0.00862733586916
 10
922.29788125689947
 20
-1126.6727666071561
 10
922.34171497312377
 20
-1126.6327169628246
 42
-0.0103138323113484
 10
922.59973867535882
 20
-1126.4065538254847
 10
922.6455130816986
 20
-1126.368071778214
 42
-0.0060206748563363
 10
922.81836114579812
 20
-1126.22627712747
 10
922.82039227666951
 20
-1126.2246514218505
 42
-0.0067069027294493
 10
922.99268509134663
 20
-1126.0905007880438
 10
922.99523385727639
 20
-1126.0885706181655
 42
-0.0076184352040797
 10
923.16613912314392
 20
-1125.9631957429247
 42
-0.008965286166945
 10
923.34110008588016
 20
-1125.8435624825911
 10
923.37745180602337
 20
-1125.8196512691093
 42
-0.0156916245936717
 10
923.57341130318355
 20
-1125.6993887826347
 42
-0.0023299011056738
 10
923.77367334718963
 20
-1125.5862108430792
 10
923.7890574795432
 20
-1125.5776108480293
 42
-0.0107669341494447
 10
924.02329430463669
 20
-1125.4532107146838
 10
924.04555910571935
 20
-1125.4419939647298
 42
-0.0078058045894049
 10
924.32914922367161
 20
-1125.3046325090916
 10
924.33905631138123
 20
-1125.3000233812229
 42
-0.0181829330468449
 10
924.64936571599674
 20
-1125.1691596401272
 10
924.70342115856386
 20
-1125.1486445201838
 42
-0.0208411536029705
 10
925.0525061260139
 20
-1125.0325540576905
 10
925.06686222614167
 20
-1125.028435612737
 42
-0.0222799817134799
 10
925.39558202005855
 20
-1124.9497940465967
 10
925.40447098329923
 20
-1124.9480820360109
 42
-0.0215509523880165
 10
925.72094195157547
 20
-1124.9011663474776
 10
925.7634239126246
 20
-1124.8967288206866
 42
-0.0182545924871877
 10
925.99753269192956
 20
-1124.8808849952957
 10
926.03693370826113
 20
-1124.879660450217
 42
-0.0072962856541135
 10
926.19285658796662
 20
-1124.8770911216943
 10
926.22195625853556
 20
-1124.8770362862906
 42
-0.0059227516310942
 10
926.31970575768355
 20
-1124.8780099980809
 10
926.34894797522372
 20
-1124.8786477646859
 42
-0.0011833111900388
 10
926.38819925888788
 20
-1124.8795967689944
 10
925.59281266328071
 20
-1127.4183307140934
 42
0.0143932051512988
 10
925.56641128093031
 20
-1127.408131744048
 10
925.55913930851284
 20
-1127.4055605251906
 42
0.023438860349218
 10
925.5173084425802
 20
-1127.3929412894752
 10
925.50862677966802
 20
-1127.3907603274704
 42
0.0199162742977628
 10
925.4483379455861
 20
-1127.3781435921348
 10
925.42752400778181
 20
-1127.3746463927068
 42
0.0293643550671428
 10
925.32444914902317
 20
-1127.3634963470538
 10
925.29976396830239
 20
-1127.3622847300351
 42
0.0214606686877685
 10
925.14662305234731
 20
-1127.3613461696179
 10
925.13725114153192
 20
-1127.361691081162
 42
0.0167564054188254
 10
924.96573095042129
 20
-1127.3737681235302
 10
924.95727115766454
 20
-1127.3746494639572
 42
0.0137677553248997
 10
924.76991784439747
 20
-1127.3993987725009
 10
924.7625661048919
 20
-1127.4005766924686
 42
0.0118497261481064
 10
924.56206834079296
 20
-1127.4375940426571
 10
924.55591833354333
 20
-1127.4388809053778
 42
0.0106421143889346
 10
924.34503744625579
 20
-1127.4877132809531
 10
924.34012863786927
 20
-1127.4889606236377
 42
0.0099746379703545
 10
924.12167016871092
 20
-1127.5491351519513
 10
924.06012212853648
 20
-1127.5674170305831
 42
0.0191613675862024
 10
923.72413766602256
 20
-1127.6813944108696
 10
923.6360778932717
 20
-1127.7150813211956
 42
0.0205274080145394
 10
923.25077112137478
 20
-1127.8809097290207
 10
923.1931218393928
 20
-1127.9085776935931
 42
0.0181256912192104
 10
922.93484489872583
 20
-1128.0442615125708
 10
922.88188951541349
 20
-1128.0745791257846
 42
0.0140709242407324
 10
922.73693458078355
 20
-1128.16307379922
 10
922.71068571216529
 20
-1128.1801306179352
 42
0.008666788440394
 10
922.62175955062253
 20
-1128.2401332858183
 42
0.0036408192021551
 10
922.53432631260057
 20
-1128.3023141436024
 10
922.49909943812054
 20
-1128.3277550895234
 42
0.0052260781283622
 10
922.34287074072392
 20
-1128.4430874761617
 10
922.32666388446978
 20
-1128.4553155867757
 42
0.00500244358907
 10
922.14066054142256
 20
-1128.5985981550289
 10
922.12534238489582
 20
-1128.6106441774837
 42
0.0136138710272807
 10
921.91490111657276
 20
-1128.7856106823951
 10
921.88123324077696
 20
-1128.8151896551112
 42
0.0172815186909387
 10
921.61682969911658
 20
-1129.0641863277324
 10
921.61426735327177
 20
-1129.0667721448817
 42
0.0189403857988549
 10
921.36368555469528
 20
-1129.3395774096832
 10
921.3310540611559
 20
-1129.3779213411842
 42
0.0185044199505583
 10
921.13909762217668
 20
-1129.6211699223063
 42
0.0088565243898371
 10
920.96063751555448
 20
-1129.8746863424471
 10
920.95145953589974
 20
-1129.8882277222162
 42
0.0157195347231687
 10
920.76823892956133
 20
-1130.1777499315394
 10
920.72215598763557
 20
-1130.2559021285515
 42
0.0095451879786375
 10
920.55707043749715
 20
-1130.5484967709094
 10
920.54592251856639
 20
-1130.5691674430434
 42
0.0100351706257886
 10
920.41387876940826
 20
-1130.826223003532
 42
0.0086935915426882
 10
920.29154761761095
 20
-1131.0880561489437
 10
920.2882268761997
 20
-1131.0954984719083
 42
0.0072580174866612
 10
920.16788042425571
 20
-1131.3760904634892
 10
920.16461879094845
 20
-1131.3840104895094
 42
0.0060005122615316
 10
920.04541812260697
 20
-1131.6836201601111
 10
920.04220714426413
 20
-1131.691981688019
 42
0.0049017786979847
 10
919.92330698540161
 20
-1132.0109106686377
 10
919.92014117901624
 20
-1132.019663605854
 42
0.00394151676026
 10
919.80070490095966
 20
-1132.3582056682671
 10
919.79757379830744
 20
-1132.3673088691432
 42
0.0031035838759688
 10
919.67676901261962
 20
-1132.7257487309005
 10
919.67365896808394
 20
-1132.7351693522915
 42
0.0025070747152459
 10
919.55075761677438
 20
-1133.1138165692175
 10
919.51346372034322
 20
-1133.2307082344885
 42
0.0029081910285479
 10
919.32144542252558
 20
-1133.8448718928021
 10
919.28064225401533
 20
-1133.978095135056
 42
0.0009266453734961
 10
919.01222487969892
 20
-1134.8603195949852
 10
918.99133740702985
 20
-1134.9294314743152
 42
-0.000580999366583
 10
918.71400072646884
 20
-1135.8432395808545
 10
918.64771892821193
 20
-1136.0607245129615
 42
-0.0012018708168148
 10
918.50073461876673
 20
-1136.5388871775349
 10
918.4484147672905
 20
-1136.7076463181127
 42
-0.0002691059616707
 10
918.40484528603258
 20
-1136.8479139387425
 10
915.57188938774334
 20
-1145.9370685410422
 10
913.75390049576481
 20
-1145.9370685410422
 10
920.00614991181271
 20
-1125.2933505045123
  0
SPLINE
  5
5A
100
AcDbEntity
  8
0
370
              15
390
0
  6
Continuous
 62
               7
100
AcDbSpline
210
0.0
220
0.0
230
1.0
 70
              13
 71
               2
 72
             782
 73
             779
 74
               0
 42
0.000001
 43
0.000001
 40
0.0
 40
0.0
 40
0.0
 40
1.0
 40
1.0
 40
2.0
 40
2.0
 40
3.0
 40
3.0
 40
4.0
 40
4.0
 40
5.0
 40
5.0
 40
6.0
 40
6.0
 40
7.0
 40
7.0
 40
8.0
 40
8.0
 40
9.0
 40
9.0
 40
10.0
 40
10.0
 40
11.0
 40
11.0
 40
12.0
 40
12.0
 40
13.0
 40
13.0
 40
14.0
 40
14.0
 40
15.0
 40
15.0
 40
16.0
 40
16.0
 40
17.0
 40
17.0
 40
18.0
 40
18.0
 40
19.0
 40
19.0
 40
20.0
 40
20.0
 40
21.0
 40
21.0
 40
22.0
 40
22.0
 40
23.0
 40
23.0
 40
24.0
 40
24.0
 40
25.0
 40
25.0
 40
26.0
 40
26.0
 40
27.0
 40
27.0
 40
28.0
 40
28.0
 40
29.0
 40
29.0
 40
30.0
 40
30.0
 40
31.0
 40
31.0
 40
32.0
 40
32.0
 40
33.0
 40
33.0
 40
34.0
 40
34.0
 40
35.0
 40
35.0
 40
36.0
 40
36.0
 40
37.0
 40
37.0
 40
38.0
 40
38.0
 40
39.0
 40
39.0
 40
40.0
 40
40.0
 40
41.0
 40
41.0
 40
42.0
 40
42.0
 40
43.0
 40
43.0
 40
44.0
 40
44.0
 40
45.0
 40
45.0
 40
46.0
 40
46.0
 40
47.0
 40
47.0
 40
48.0
 40
48.0
 40
49.0
 40
49.0
 40
50.0
 40
50.0
 40
51.0
 40
51.0
 40
52.0
 40
52.0
 40
53.0
 40
53.0
 40
54.0
 40
54.0
 40
55.0
 40
55.0
 40
56.0
 40
56.0
 40
57.0
 40
57.0
 40
58.0
 40
58.0
 40
59.0
 40
59.0
 40
60.0
 40
60.0
 40
61.0
 40
61.0
 40
62.0
 40
62.0
 40
63.0
 40
63.0
 40
64.0
 40
64.0
 40
65.0
 40
65.0
 40
66.0
 40
66.0
 40
67.0
 40
67.0
 40
68.0
 40
68.0
 40
69.0
 40
69.0
 40
70.0
 40
70.0
 40
71.0
 40
71.0
 40
72.0
 40
72.0
 40
73.0
 40
73.0
 40
74.0
 40
74.0
 40
75.0
 40
75.0
 40
76.0
 40
76.0
 40
77.0
 40
77.0
 40
78.0
 40
78.0
 40
79.0
 40
79.0
 40
80.0
 40
80.0
 40
81.0
 40
81.0
 40
82.0
 40
82.0
 40
83.0
 40
83.0
 40
84.0
 40
84.0
 40
85.0
 40
85.0
 40
86.0
 40
86.0
 40
87.0
 40
87.0
 40
88.0
 40
88.0
 40
89.0
 40
89.0
 40
90.0
 40
90.0
 40
91.0
 40
91.0
 40
92.0
 40
92.0
 40
93.0
 40
93.0
 40
94.0
 40
94.0
 40
95.0
 40
95.0
 40
96.0
 40
96.0
 40
97.0
 40
97.0
 40
98.0
 40
98.0
 40
99.0
 40
99.0
 40
100.0
 40
100.0
 40
101.0
 40
101.0
 40
102.0
 40
102.0
 40
103.0
 40
103.0
 40
104.0
 40
104.0
 40
105.0
 40
105.0
 40
106.0
 40
106.0
 40
107.0
 40
107.0
 40
108.0
 40
108.0
 40
109.0
 40
109.0
 40
110.0
 40
110.0
 40
111.0
 40
111.0
 40
112.0
 40
112.0
 40
113.0
 40
113.0
 40
114.0
 40
114.0
 40
115.0
 40
115.0
 40
116.0
 40
116.0
 40
117.0
 40
117.0
 40
118.0
 40
118.0
 40
119.0
 40
119.0
 40
120.0
 40
120.0
 40
121.0
 40
121.0
 40
122.0
 40
122.0
 40
123.0
 40
123.0
 40
124.0
 40
124.0
 40
125.0
 40
125.0
 40
126.0
 40
126.0
 40
127.0
 40
127.0
 40
128.0
 40
128.0
 40
129.0
 40
129.0
 40
130.0
 40
130.0
 40
131.0
 40
131.0
 40
132.0
 40
132.0
 40
133.0
 40
133.0
 40
134.0
 40
134.0
 40
135.0
 40
135.0
 40
136.0
 40
136.0
 40
137.0
 40
137.0
 40
138.0
 40
138.0
 40
139.0
 40
139.0
 40
140.0
 40
140.0
 40
141.0
 40
141.0
 40
142.0
 40
142.0
 40
143.0
 40
143.0
 40
144.0
 40
144.0
 40
145.0
 40
145.0
 40
146.0
 40
146.0
 40
147.0
 40
147.0
 40
148.0
 40
148.0
 40
149.0
 40
149.0
 40
150.0
 40
150.0
 40
151.0
 40
151.0
 40
152.0
 40
152.0
 40
153.0
 40
153.0
 40
154.0
 40
154.0
 40
155.0
 40
155.0
 40
156.0
 40
156.0
 40
157.0
 40
157.0
 40
158.0
 40
158.0
 40
159.0
 40
159.0
 40
160.0
 40
160.0
 40
161.0
 40
161.0
 40
162.0
 40
162.0
 40
163.0
 40
163.0
 40
164.0
 40
164.0
 40
165.0
 40
165.0
 40
166.0
 40
166.0
 40
167.0
 40
167.0
 40
168.0
 40
168.0
 40
169.0
 40
169.0
 40
170.0
 40
170.0
 40
171.0
 40
171.0
 40
172.0
 40
172.0
 40
173.0
 40
173.0
 40
174.0
 40
174.0
 40
175.0
 40
175.0
 40
176.0
 40
176.0
 40
177.0
 40
177.0
 40
178.0
 40
178.0
 40
179.0
 40
179.0
 40
180.0
 40
180.0
 40
181.0
 40
181.0
 40
182.0
 40
182.0
 40
183.0
 40
183.0
 40
184.0
 40
184.0
 40
185.0
 40
185.0
 40
186.0
 40
186.0
 40
187.0
 40
187.0
 40
188.0
 40
188.0
 40
189.0
 40
189.0
 40
190.0
 40
190.0
 40
191.0
 40
191.0
 40
192.0
 40
192.0
 40
193.0
 40
193.0
 40
194.0
 40
194.0
 40
195.0
 40
195.0
 40
196.0
 40
196.0
 40
197.0
 40
197.0
 40
198.0
 40
198.0
 40
199.0
 40
199.0
 40
200.0
 40
200.0
 40
201.0
 40
201.0
 40
202.0
 40
202.0
 40
203.0
 40
203.0
 40
204.0
 40
204.0
 40
205.0
 40
205.0
 40
206.0
 40
206.0
 40
207.0
 40
207.0
 40
208.0
 40
208.0
 40
209.0
 40
209.0
 40
210.0
 40
210.0
 40
211.0
 40
211.0
 40
212.0
 40
212.0
 40
213.0
 40
213.0
 40
214.0
 40
214.0
 40
215.0
 40
215.0
 40
216.0
 40
216.0
 40
217.0
 40
217.0
 40
218.0
 40
218.0
 40
219.0
 40
219.0
 40
220.0
 40
220.0
 40
221.0
 40
221.0
 40
222.0
 40
222.0
 40
223.0
 40
223.0
 40
224.0
 40
224.0
 40
225.0
 40
225.0
 40
226.0
 40
226.0
 40
227.0
 40
227.0
 40
228.0
 40
228.0
 40
229.0
 40
229.0
 40
230.0
 40
230.0
 40
231.0
 40
231.0
 40
232.0
 40
232.0
 40
233.0
 40
233.0
 40
234.0
 40
234.0
 40
235.0
 40
235.0
 40
236.0
 40
236.0
 40
237.0
 40
237.0
 40
238.0
 40
238.0
 40
239.0
 40
239.0
 40
240.0
 40
240.0
 40
241.0
 40
241.0
 40
242.0
 40
242.0
 40
243.0
 40
243.0
 40
244.0
 40
244.0
 40
245.0
 40
245.0
 40
246.0
 40
246.0
 40
247.0
 40
247.0
 40
248.0
 40
248.0
 40
249.0
 40
249.0
 40
250.0
 40
250.0
 40
251.0
 40
251.0
 40
252.0
 40
252.0
 40
253.0
 40
253.0
 40
254.0
 40
254.0
 40
255.0
 40
255.0
 40
256.0
 40
256.0
 40
257.0
 40
257.0
 40
258.0
 40
258.0
 40
259.0
 40
259.0
 40
260.0
 40
260.0
 40
261.0
 40
261.0
 40
262.0
 40
262.0
 40
263.0
 40
263.0
 40
264.0
 40
264.0
 40
265.0
 40
265.0
 40
266.0
 40
266.0
 40
267.0
 40
267.0
 40
268.0
 40
268.0
 40
269.0
 40
269.0
 40
270.0
 40
270.0
 40
271.0
 40
271.0
 40
272.0
 40
272.0
 40
273.0
 40
273.0
 40
274.0
 40
274.0
 40
275.0
 40
275.0
 40
276.0
 40
276.0
 40
277.0
 40
277.0
 40
278.0
 40
278.0
 40
279.0
 40
279.0
 40
280.0
 40
280.0
 40
281.0
 40
281.0
 40
282.0
 40
282.0
 40
283.0
 40
283.0
 40
284.0
 40
284.0
 40
285.0
 40
285.0
 40
286.0
 40
286.0
 40
287.0
 40
287.0
 40
288.0
 40
288.0
 40
289.0
 40
289.0
 40
290.0
 40
290.0
 40
291.0
 40
291.0
 40
292.0
 40
292.0
 40
293.0
 40
293.0
 40
294.0
 40
294.0
 40
295.0
 40
295.0
 40
296.0
 40
296.0
 40
297.0
 40
297.0
 40
298.0
 40
298.0
 40
299.0
 40
299.0
 40
300.0
 40
300.0
 40
301.0
 40
301.0
 40
302.0
 40
302.0
 40
303.0
 40
303.0
 40
304.0
 40
304.0
 40
305.0
 40
305.0
 40
306.0
 40
306.0
 40
307.0
 40
307.0
 40
308.0
 40
308.0
 40
309.0
 40
309.0
 40
310.0
 40
310.0
 40
311.0
 40
311.0
 40
312.0
 40
312.0
 40
313.0
 40
313.0
 40
314.0
 40
314.0
 40
315.0
 40
315.0
 40
316.0
 40
316.0
 40
317.0
 40
317.0
 40
318.0
 40
318.0
 40
319.0
 40
319.0
 40
320.0
 40
320.0
 40
321.0
 40
321.0
 40
322.0
 40
322.0
 40
323.0
 40
323.0
 40
324.0
 40
324.0
 40
325.0
 40
325.0
 40
326.0
 40
326.0
 40
327.0
 40
327.0
 40
328.0
 40
328.0
 40
329.0
 40
329.0
 40
330.0
 40
330.0
 40
331.0
 40
331.0
 40
332.0
 40
332.0
 40
333.0
 40
333.0
 40
334.0
 40
334.0
 40
335.0
 40
335.0
 40
336.0
 40
336.0
 40
337.0
 40
337.0
 40
338.0
 40
338.0
 40
339.0
 40
339.0
 40
340.0
 40
340.0
 40
341.0
 40
341.0
 40
342.0
 40
342.0
 40
343.0
 40
343.0
 40
344.0
 40
344.0
 40
345.0
 40
345.0
 40
346.0
 40
346.0
 40
347.0
 40
347.0
 40
348.0
 40
348.0
 40
349.0
 40
349.0
 40
350.0
 40
350.0
 40
351.0
 40
351.0
 40
352.0
 40
352.0
 40
353.0
 40
353.0
 40
354.0
 40
354.0
 40
355.0
 40
355.0
 40
356.0
 40
356.0
 40
357.0
 40
357.0
 40
358.0
 40
358.0
 40
359.0
 40
359.0
 40
360.0
 40
360.0
 40
361.0
 40
361.0
 40
362.0
 40
362.0
 40
363.0
 40
363.0
 40
364.0
 40
364.0
 40
365.0
 40
365.0
 40
366.0
 40
366.0
 40
367.0
 40
367.0
 40
368.0
 40
368.0
 40
369.0
 40
369.0
 40
370.0
 40
370.0
 40
371.0
 40
371.0
 40
372.0
 40
372.0
 40
373.0
 40
373.0
 40
374.0
 40
374.0
 40
375.0
 40
375.0
 40
376.0
 40
376.0
 40
377.0
 40
377.0
 40
378.0
 40
378.0
 40
379.0
 40
379.0
 40
380.0
 40
380.0
 40
381.0
 40
381.0
 40
382.0
 40
382.0
 40
383.0
 40
383.0
 40
384.0
 40
384.0
 40
385.0
 40
385.0
 40
386.0
 40
386.0
 40
387.0
 40
387.0
 40
388.0
 40
388.0
 40
389.0
 40
389.0
 40
389.0
 10
930.33485436254534
 20
-1125.2824241411499
 30
0.0
 41
1.0
 10
931.15327847126582
 20
-1125.2824241411499
 30
0.0
 41
1.0
 10
931.9717025799863
 20
-1125.2824241411499
 30
0.0
 41
1.0
 10
931.55794884446959
 20
-1126.6250504053996
 30
0.0
 41
1.0
 10
931.14419510895277
 20
-1127.9676766696493
 30
0.0
 41
1.0
 10
931.16253460412668
 20
-1127.9389758967286
 30
0.0
 41
0.9999957264327855
 10
931.18104160098198
 20
-1127.91038284654
 30
0.0
 41
1.0
 10
931.21147092510409
 20
-1127.8633699681877
 30
0.0
 41
1.0
 10
931.24190024922609
 20
-1127.8163570898355
 30
0.0
 41
1.0
 10
931.3212658943313
 20
-1127.6937382829333
 30
0.0
 41
0.9995394069081691
 10
931.40792428588441
 20
-1127.5761602211899
 30
0.0
 41
1.0
 10
931.44368114814586
 20
-1127.5276453285942
 30
0.0
 41
1.0
 10
931.47943801040731
 20
-1127.4791304359983
 30
0.0
 41
1.0
 10
931.61316467822451
 20
-1127.2976901608733
 30
0.0
 41
0.9994460617143197
 10
931.75866515950975
 20
-1127.1255477632271
 30
0.0
 41
1.0
 10
931.76305334048584
 20
-1127.1203560828433
 30
0.0
 41
1.0
 10
931.76744152146193
 20
-1127.1151644024594
 30
0.0
 41
1.0
 10
931.90416564079896
 20
-1126.9534053655761
 30
0.0
 41
0.9994359394934432
 10
932.05143987114911
 20
-1126.8011891644128
 30
0.0
 41
1.0
 10
932.053823225104
 20
-1126.7987258340381
 30
0.0
 41
1.0
 10
932.05620657905888
 20
-1126.7962625036632
 30
0.0
 41
1.0
 10
932.19871410150176
 20
-1126.6489729632469
 30
0.0
 41
0.9995293688568102
 10
932.34998578248269
 20
-1126.5106997510838
 30
0.0
 41
1.0
 10
932.36927954174382
 20
-1126.4930638654346
 30
0.0
 41
1.0
 10
932.38857330100495
 20
-1126.4754279797855
 30
0.0
 41
1.0
 10
932.5012574634635
 20
-1126.372426538921
 30
0.0
 41
0.9997087614803791
 10
932.61878035241989
 20
-1126.274982258122
 30
0.0
 41
1.0
 10
932.63794642559401
 20
-1126.2590906796152
 30
0.0
 41
1.0
 10
932.65711249876824
 20
-1126.2431991011083
 30
0.0
 41
1.0
 10
932.73630324137048
 20
-1126.1775379773276
 30
0.0
 41
0.9999595338697759
 10
932.8166625122301
 20
-1126.113312246669
 30
0.0
 41
1.0
 10
932.89702178309244
 20
-1126.0490865160086
 30
0.0
 41
0.9999749417509287
 10
932.97828231744461
 20
-1125.9860049620554
 30
0.0
 41
1.0
 10
932.99926846360233
 20
-1125.9697136747575
 30
0.0
 41
1.0
 10
933.02025460976006
 20
-1125.9534223874596
 30
0.0
 41
1.0
 10
933.10482249505924
 20
-1125.8877733776205
 30
0.0
 41
0.9999792037124878
 10
933.19023009483112
 20
-1125.8232205959753
 30
0.0
 41
1.0
 10
933.21105492077925
 20
-1125.8074807736898
 30
0.0
 41
1.0
 10
933.23187974672737
 20
-1125.7917409514043
 30
0.0
 41
1.0
 10
933.27563769463632
 20
-1125.7586678143045
 30
0.0
 41
0.9999993373868592
 10
933.31931938074376
 20
-1125.7254940189075
 30
0.0
 41
1.0
 10
933.36300106688475
 20
-1125.692320223485
 30
0.0
 41
0.9999160953818327
 10
933.40752747780243
 20
-1125.6602891582884
 30
0.0
 41
1.0
 10
933.44034936522394
 20
-1125.636678002702
 30
0.0
 41
1.0
 10
933.47317125264556
 20
-1125.6130668471155
 30
0.0
 41
1.0
 10
933.58334143840352
 20
-1125.5338134707479
 30
0.0
 41
0.9980964527231261
 10
933.70243043190351
 20
-1125.4687259978923
 30
0.0
 41
1.0
 10
933.73946303883304
 20
-1125.4484860182984
 30
0.0
 41
1.0
 10
933.77649564576257
 20
-1125.4282460387044
 30
0.0
 41
1.0
 10
933.95582265903522
 20
-1125.3302357880034
 30
0.0
 41
0.9984572810572631
 10
934.14491122539289
 20
-1125.2527135266578
 30
0.0
 41
1.0
 10
934.14855749478738
 20
-1125.2512186343204
 30
0.0
 41
1.0
 10
934.15220376418176
 20
-1125.249723741983
 30
0.0
 41
1.0
 10
934.33399979175067
 20
-1125.1751912653117
 30
0.0
 41
0.9987838528034038
 10
934.52225245031104
 20
-1125.1189256251455
 30
0.0
 41
1.0
 10
934.52649039950802
 20
-1125.117658971456
 30
0.0
 41
1.0
 10
934.530728348705
 20
-1125.1163923177662
 30
0.0
 41
1.0
 10
934.71050510886846
 20
-1125.0626599849802
 30
0.0
 41
0.9990652816206959
 10
934.89425104058614
 20
-1125.0246563054377
 30
0.0
 41
1.0
 10
934.8994394416178
 20
-1125.0235832023311
 30
0.0
 41
1.0
 10
934.90462784264946
 20
-1125.0225100992245
 30
0.0
 41
1.0
 10
935.07799697230223
 20
-1124.9866526258957
 30
0.0
 41
0.9992909934270358
 10
935.25357273876034
 20
-1124.9639421934291
 30
0.0
 41
1.0
 10
935.429148505218
 20
-1124.9412317609626
 30
0.0
 41
0.9994553539448559
 10
935.6058399383104
 20
-1124.9301524567563
 30
0.0
 41
1.0
 10
935.64127434610623
 20
-1124.9279305687087
 30
0.0
 41
1.0
 10
935.67670875390206
 20
-1124.9257086806608
 30
0.0
 41
1.0
 10
935.84293452047166
 20
-1124.9152856182491
 30
0.0
 41
0.9990928098292841
 10
936.00944431237508
 20
-1124.9190452594835
 30
0.0
 41
1.0
 10
936.0480061476436
 20
-1124.9199159510163
 30
0.0
 41
1.0
 10
936.08656798291213
 20
-1124.9207866425493
 30
0.0
 41
1.0
 10
936.17595410427441
 20
-1124.9228049007179
 30
0.0
 41
0.9998382089204597
 10
936.2652097870639
 20
-1124.9280370272463
 30
0.0
 41
1.0
 10
936.2656396932822
 20
-1124.9280622281485
 30
0.0
 41
1.0
 10
936.2660695995005
 20
-1124.9280874290507
 30
0.0
 41
1.0
 10
936.35446546984861
 20
-1124.9332691537741
 30
0.0
 41
0.9997558016757525
 10
936.44254604705088
 20
-1124.9423516691409
 30
0.0
 41
1.0
 10
936.44302218548114
 20
-1124.9424007666235
 30
0.0
 41
1.0
 10
936.4434983239114
 20
-1124.942449864106
 30
0.0
 41
1.0
 10
936.53062662425236
 20
-1124.9514341845072
 30
0.0
 41
0.9996565144181756
 10
936.61716447759386
 20
-1124.9649714911961
 30
0.0
 41
1.0
 10
936.61763040297103
 20
-1124.9650443769274
 30
0.0
 41
1.0
 10
936.6180963283482
 20
-1124.9651172626586
 30
0.0
 41
1.0
 10
936.70370233093513
 20
-1124.9785087978851
 30
0.0
 41
0.9995321806867656
 10
936.78832941126382
 20
-1124.9971092863145
 30
0.0
 41
1.0
 10
936.78871860583581
 20
-1124.9971948287803
 30
0.0
 41
1.0
 10
936.78910780040781
 20
-1124.9972803712462
 30
0.0
 41
1.0
 10
936.87295649159216
 20
-1125.015709774744
 30
0.0
 41
0.9993819199219355
 10
936.955303025788
 20
-1125.0399851580046
 30
0.0
 41
1.0
 10
936.95554145928577
 20
-1125.0400554471139
 30
0.0
 41
1.0
 10
936.95577989278354
 20
-1125.0401257362232
 30
0.0
 41
1.0
 10
937.03764955998372
 20
-1125.064260541265
 30
0.0
 41
0.9992088568504394
 10
937.11734207897246
 20
-1125.0948257770597
 30
0.0
 41
1.0
 10
937.19702306985141
 20
-1125.1253853777928
 30
0.0
 41
0.9990226101773109
 10
937.27369373975864
 20
-1125.1628628094072
 30
0.0
 41
1.0
 10
937.35035288155632
 20
-1125.2003346059605
 30
0.0
 41
0.9988424273972253
 10
937.42305650876813
 20
-1125.2449993812131
 30
0.0
 41
1.0
 10
937.42332421714787
 20
-1125.2451638452858
 30
0.0
 41
1.0
 10
937.42359192552772
 20
-1125.2453283093582
 30
0.0
 41
1.0
 10
937.49683096949889
 20
-1125.2903220127557
 30
0.0
 41
0.9986928844490498
 10
937.56509383620869
 20
-1125.3425577470355
 30
0.0
 41
1.0
 10
937.56567512843128
 20
-1125.3430025602634
 30
0.0
 41
1.0
 10
937.56625642065387
 20
-1125.343447373491
 30
0.0
 41
1.0
 10
937.63568187180942
 20
-1125.3965727342265
 30
0.0
 41
0.9986007262277299
 10
937.69910804157541
 20
-1125.4567335039196
 30
0.0
 41
1.0
 10
937.70000245703295
 20
-1125.4575818717549
 30
0.0
 41
1.0
 10
937.70089687249038
 20
-1125.4584302395901
 30
0.0
 41
1.0
 10
937.76611187317167
 20
-1125.520287744954
 30
0.0
 41
0.9985581491381653
 10
937.82431948487374
 20
-1125.5887802352261
 30
0.0
 41
1.0
 10
937.83357793846926
 20
-1125.5996745929274
 30
0.0
 41
1.0
 10
937.84283639206478
 20
-1125.6105689506289
 30
0.0
 41
1.0
 10
937.91956091095778
 20
-1125.7008501563034
 30
0.0
 41
0.9970460233519979
 10
937.98155281211712
 20
-1125.8018172404848
 30
0.0
 41
1.0
 10
937.99602217719689
 20
-1125.8253836995664
 30
0.0
 41
1.0
 10
938.01049154227678
 20
-1125.8489501586482
 30
0.0
 41
1.0
 10
938.05022824228934
 20
-1125.9136698826808
 30
0.0
 41
0.9988468816637074
 10
938.08357461304035
 20
-1125.9819023351074
 30
0.0
 41
1.0
 10
938.09061063553247
 20
-1125.9962992562459
 30
0.0
 41
1.0
 10
938.09764665802459
 20
-1126.0106961773847
 30
0.0
 41
1.0
 10
938.11692098379217
 20
-1126.0501347875359
 30
0.0
 41
0.9998431189998307
 10
938.13478631128692
 20
-1126.0902313419758
 30
0.0
 41
1.0
 10
938.15265163876529
 20
-1126.1303278963796
 30
0.0
 41
0.9999989989960851
 10
938.17063036217382
 20
-1126.1703737339335
 30
0.0
 41
1.0
 10
938.17680267378307
 20
-1126.1841219507796
 30
0.0
 41
1.0
 10
938.18297498539232
 20
-1126.1978701676258
 30
0.0
 41
1.0
 10
938.21329833200093
 20
-1126.26541243883
 30
0.0
 41
0.9998790356322571
 10
938.24150621213698
 20
-1126.3338651907629
 30
0.0
 41
1.0
 10
938.24834139342317
 20
-1126.3504522921949
 30
0.0
 41
1.0
 10
938.25517657470937
 20
-1126.3670393936268
 30
0.0
 41
1.0
 10
938.27873423708968
 20
-1126.4242073485118
 30
0.0
 41
0.9998227574560491
 10
938.30012298547899
 20
-1126.4822216567895
 30
0.0
 41
1.0
 10
938.32151173386831
 20
-1126.5402359650675
 30
0.0
 41
0.9996797971041839
 10
938.33993801882775
 20
-1126.599258084186
 30
0.0
 41
1.0
 10
938.34384182155316
 20
-1126.6117625423544
 30
0.0
 41
1.0
 10
938.34774562427856
 20
-1126.6242670005231
 30
0.0
 41
1.0
 10
938.37397951468847
 20
-1126.7082980359774
 30
0.0
 41
0.9979274938734295
 10
938.3892040381678
 20
-1126.7950023946378
 30
0.0
 41
1.0
 10
938.3914277254288
 20
-1126.807666395458
 30
0.0
 41
1.0
 10
938.39365141268979
 20
-1126.820330396278
 30
0.0
 41
1.0
 10
938.40458135238873
 20
-1126.8825769035718
 30
0.0
 41
0.999498598213724
 10
938.41154951756562
 20
-1126.9453904047141
 30
0.0
 41
1.0
 10
938.41851768274273
 20
-1127.0082039058575
 30
0.0
 41
0.9996372611201899
 10
938.42209354851036
 20
-1127.0713014845373
 30
0.0
 41
1.0
 10
938.42226212599962
 20
-1127.0742761016199
 30
0.0
 41
1.0
 10
938.422430703489
 20
-1127.0772507187025
 30
0.0
 41
1.0
 10
938.42634372423549
 20
-1127.146297531548
 30
0.0
 41
0.9997730630734976
 10
938.42731203772337
 20
-1127.2154483555812
 30
0.0
 41
1.0
 10
938.42736914414149
 20
-1127.2195265347239
 30
0.0
 41
1.0
 10
938.42742625055962
 20
-1127.2236047138665
 30
0.0
 41
1.0
 10
938.42850877688375
 20
-1127.3009118961891
 30
0.0
 41
0.999877261407183
 10
938.42716869015214
 20
-1127.3782150427508
 30
0.0
 41
1.0
 10
938.42707942695347
 20
-1127.3833642065847
 30
0.0
 41
1.0
 10
938.42699016375468
 20
-1127.3885133704187
 30
0.0
 41
1.0
 10
938.42547155062516
 20
-1127.4761148446612
 30
0.0
 41
0.99994155673273
 10
938.42205924037933
 20
-1127.5636630063339
 30
0.0
 41
1.0
 10
938.42181791970415
 20
-1127.5698544660681
 30
0.0
 41
1.0
 10
938.42157659902887
 20
-1127.5760459258026
 30
0.0
 41
1.0
 10
938.41768164743223
 20
-1127.675977006955
 30
0.0
 41
0.9999716810422835
 10
938.41228306431367
 20
-1127.7758381451843
 30
0.0
 41
1.0
 10
938.40907026552486
 20
-1127.8352673948425
 30
0.0
 41
1.0
 10
938.40585746673594
 20
-1127.8946966445008
 30
0.0
 41
1.0
 10
938.39778355758278
 20
-1128.0440450457886
 30
0.0
 41
0.9999819129893109
 10
938.38791376596691
 20
-1128.1932855234882
 30
0.0
 41
1.0
 10
938.37804397435036
 20
-1128.3425260011995
 30
0.0
 41
1.0
 10
938.37560465378647
 20
-1128.3797190470489
 30
0.0
 41
1.0
 10
938.39830288767405
 20
-1128.3409780496236
 30
0.0
 41
0.9999982128090007
 10
938.42114744646722
 20
-1128.3023231556015
 30
0.0
 41
1.0
 10
938.44805700630491
 20
-1128.2567899416263
 30
0.0
 41
1.0
 10
938.4749665661426
 20
-1128.2112567276508
 30
0.0
 41
1.0
 10
938.55163024466697
 20
-1128.0815354055835
 30
0.0
 41
0.9998609190057637
 10
938.63257755752511
 20
-1127.9544430236599
 30
0.0
 41
1.0
 10
938.66222587900961
 20
-1127.9078932906982
 30
0.0
 41
1.0
 10
938.69187420049411
 20
-1127.8613435577367
 30
0.0
 41
1.0
 10
938.77414642073131
 20
-1127.7321709877415
 30
0.0
 41
0.9999067609730662
 10
938.85991543019486
 20
-1127.6052932983011
 30
0.0
 41
1.0
 10
938.86232013339941
 20
-1127.601736032241
 30
0.0
 41
1.0
 10
938.86472483660384
 20
-1127.5981787661808
 30
0.0
 41
1.0
 10
938.94568443966205
 20
-1127.4784156088554
 30
0.0
 41
0.999878495215121
 10
939.03033804934023
 20
-1127.3612343921509
 30
0.0
 41
1.0
 10
939.11499165901785
 20
-1127.2440531754471
 30
0.0
 41
0.9998532968283295
 10
939.20360927983654
 20
-1127.1298402669818
 30
0.0
 41
1.0
 10
939.22357106883067
 20
-1127.1041129459577
 30
0.0
 41
1.0
 10
939.24353285782479
 20
-1127.0783856249338
 30
0.0
 41
1.0
 10
939.36201690758355
 20
-1126.9256800139649
 30
0.0
 41
0.9991551975794989
 10
939.49264135720887
 20
-1126.7832204518795
 30
0.0
 41
1.0
 10
939.49615097318861
 20
-1126.7793928502551
 30
0.0
 41
1.0
 10
939.49966058916834
 20
-1126.7755652486308
 30
0.0
 41
1.0
 10
939.62326580683202
 20
-1126.6407608897964
 30
0.0
 41
0.9997418144180421
 10
939.75286794653289
 20
-1126.5117114791835
 30
0.0
 41
1.0
 10
939.88247008623262
 20
-1126.3826620685718
 30
0.0
 41
0.9989238204633069
 10
940.02347263448246
 20
-1126.2661771065339
 30
0.0
 41
1.0
 10
940.06872031262481
 20
-1126.2287971149231
 30
0.0
 41
1.0
 10
940.11396799076715
 20
-1126.191417123312
 30
0.0
 41
1.0
 10
940.25420804798682
 20
-1126.0755620700224
 30
0.0
 41
0.9990825084096566
 10
940.40384798058903
 20
-1125.9721330721909
 30
0.0
 41
1.0
 10
940.41389334464498
 20
-1125.9651898591121
 30
0.0
 41
1.0
 10
940.4239387087008
 20
-1125.9582466460333
 30
0.0
 41
1.0
 10
940.55348791319193
 20
-1125.8687040743584
 30
0.0
 41
0.9998164899825603
 10
940.68637211656926
 20
-1125.7841898328415
 30
0.0
 41
1.0
 10
940.69821767709368
 20
-1125.7766560663167
 30
0.0
 41
1.0
 10
940.71006323761799
 20
-1125.7691222997921
 30
0.0
 41
1.0
 10
940.81925631994409
 20
-1125.699675591326
 30
0.0
 41
0.9997473449129692
 10
940.9314602771949
 20
-1125.6352066335094
 30
0.0
 41
1.0
 10
941.04366423444878
 20
-1125.5707376756914
 30
0.0
 41
0.9999327861143444
 10
941.15733284521377
 20
-1125.5088876840089
 30
0.0
 41
1.0
 10
941.15788484777158
 20
-1125.5085873253315
 30
0.0
 41
1.0
 10
941.15843685032928
 20
-1125.5082869666539
 30
0.0
 41
1.0
 10
941.27320946621535
 20
-1125.4458362576138
 30
0.0
 41
0.9996956420484021
 10
941.3909227920567
 20
-1125.3891227906383
 30
0.0
 41
1.0
 10
941.42136319694941
 20
-1125.3744568139084
 30
0.0
 41
1.0
 10
941.45180360184213
 20
-1125.3597908371785
 30
0.0
 41
1.0
 10
941.55478070858578
 20
-1125.3101771787351
 30
0.0
 41
0.9998070570176488
 10
941.65962709752455
 20
-1125.2646465918351
 30
0.0
 41
1.0
 10
941.76447348646855
 20
-1125.2191160049329
 30
0.0
 41
0.9997827436147116
 10
941.87112642308136
 20
-1125.1779948336198
 30
0.0
 41
1.0
 10
941.89034927270973
 20
-1125.1705832599887
 30
0.0
 41
1.0
 10
941.9095721223382
 20
-1125.1631716863574
 30
0.0
 41
1.0
 10
942.05467075821173
 20
-1125.1072273677803
 30
0.0
 41
0.998803184197679
 10
942.20454112081654
 20
-1125.0657273036127
 30
0.0
 41
1.0
 10
942.22945836918007
 20
-1125.0588275578057
 30
0.0
 41
1.0
 10
942.2543756175437
 20
-1125.0519278119987
 30
0.0
 41
1.0
 10
942.42164564318989
 20
-1125.0056096695923
 30
0.0
 41
0.9984748040550282
 10
942.59300255183814
 20
-1124.9780154373275
 30
0.0
 41
1.0
 10
942.59774168808565
 20
-1124.9772522768144
 30
0.0
 41
1.0
 10
942.60248082433316
 20
-1124.9764891163011
 30
0.0
 41
1.0
 10
942.76435946048559
 20
-1124.9504212050626
 30
0.0
 41
0.998443649547978
 10
942.9281342042118
 20
-1124.9425432512439
 30
0.0
 41
1.0
 10
942.94983141234354
 20
-1124.9414995640443
 30
0.0
 41
1.0
 10
942.97152862047528
 20
-1124.9404558768447
 30
0.0
 41
1.0
 10
943.09190894793687
 20
-1124.9346652974252
 30
0.0
 41
0.9987954789335192
 10
943.21227719284639
 20
-1124.9407018251675
 30
0.0
 41
1.0
 10
943.23224198534058
 20
-1124.941703069506
 30
0.0
 41
1.0
 10
943.25220677783489
 20
-1124.9427043138446
 30
0.0
 41
1.0
 10
943.33264543775601
 20
-1124.9467383529097
 30
0.0
 41
0.9997941595876827
 10
943.41285421585064
 20
-1124.9540324188308
 30
0.0
 41
1.0
 10
943.49306299394379
 20
-1124.9613264847517
 30
0.0
 41
0.9998589466235844
 10
943.57298154079729
 20
-1124.9713103392016
 30
0.0
 41
1.0
 10
943.60538774260692
 20
-1124.975358696121
 30
0.0
 41
1.0
 10
943.63779394441656
 20
-1124.9794070530404
 30
0.0
 41
1.0
 10
943.78252489488762
 20
-1124.9974876213289
 30
0.0
 41
0.9993495063249382
 10
943.9255761386529
 20
-1125.0259533310705
 30
0.0
 41
1.0
 10
943.95850983580635
 20
-1125.0325067942856
 30
0.0
 41
1.0
 10
943.99144353295969
 20
-1125.0390602575008
 30
0.0
 41
1.0
 10
944.10073735616277
 20
-1125.0608085916356
 30
0.0
 41
0.9996788715560933
 10
944.20878892811868
 20
-1125.0880663909986
 30
0.0
 41
1.0
 10
944.21085193065892
 20
-1125.0885868175719
 30
0.0
 41
1.0
 10
944.21291493319916
 20
-1125.0891072441452
 30
0.0
 41
1.0
 10
944.31684050007675
 20
-1125.1153241903623
 30
0.0
 41
0.9995480654492099
 10
944.4190027353045
 20
-1125.1477391469862
 30
0.0
 41
1.0
 10
944.42069237743362
 20
-1125.1482752519
 30
0.0
 41
1.0
 10
944.42238201956275
 20
-1125.1488113568141
 30
0.0
 41
1.0
 10
944.52116497053441
 20
-1125.1801541036107
 30
0.0
 41
0.9993867959455798
 10
944.6175121289765
 20
-1125.2183334729002
 30
0.0
 41
1.0
 10
944.61875507806258
 20
-1125.2188260147968
 30
0.0
 41
1.0
 10
944.61999802714865
 20
-1125.2193185566937
 30
0.0
 41
1.0
 10
944.71385928741938
 20
-1125.2565128421902
 30
0.0
 41
0.9992050256522389
 10
944.80445896245237
 20
-1125.3010667414287
 30
0.0
 41
1.0
 10
944.80519364516476
 20
-1125.3014280338894
 30
0.0
 41
1.0
 10
944.80592832787704
 20
-1125.3017893263502
 30
0.0
 41
1.0
 10
944.89505863748582
 20
-1125.3456206406674
 30
0.0
 41
0.9990222350741363
 10
944.97996869887947
 20
-1125.3971539083659
 30
0.0
 41
1.0
 10
944.98015258416149
 20
-1125.3972655112702
 30
0.0
 41
1.0
 10
944.98033646944361
 20
-1125.3973771141748
 30
0.0
 41
1.0
 10
945.06487876027313
 20
-1125.4486871760641
 30
0.0
 41
0.9988642743805036
 10
945.14415329489202
 20
-1125.5078113635893
 30
0.0
 41
1.0
 10
945.22342782951091
 20
-1125.5669355511145
 30
0.0
 41
0.9987681233311129
 10
945.29645161378744
 20
-1125.6336262425154
 30
0.0
 41
1.0
 10
945.29678054175315
 20
-1125.6339266437294
 30
0.0
 41
1.0
 10
945.29710946971886
 20
-1125.6342270449436
 30
0.0
 41
1.0
 10
945.37079110992715
 20
-1125.7015185387736
 30
0.0
 41
0.9987496570898925
 10
945.43738491525505
 20
-1125.7758313528611
 30
0.0
 41
1.0
 10
945.43815708501484
 20
-1125.7766930262183
 30
0.0
 41
1.0
 10
945.43892925477462
 20
-1125.7775546995754
 30
0.0
 41
1.0
 10
945.50706739962334
 20
-1125.8535908603785
 30
0.0
 41
0.9988147669827007
 10
945.56748965384793
 20
-1125.9358918672206
 30
0.0
 41
1.0
 10
945.56860897992556
 20
-1125.9374164985729
 30
0.0
 41
1.0
 10
945.56972830600319
 20
-1125.9389411299253
 30
0.0
 41
1.0
 10
945.63238921238303
 20
-1126.0242913994718
 30
0.0
 41
0.9989452636215991
 10
945.68695612534395
 20
-1126.1150300886288
 30
0.0
 41
1.0
 10
945.68830485143008
 20
-1126.1172728696558
 30
0.0
 41
1.0
 10
945.68965357751631
 20
-1126.1195156506828
 30
0.0
 41
1.0
 10
945.74691794264822
 20
-1126.2147399018916
 30
0.0
 41
0.9991046436070442
 10
945.79592715597016
 20
-1126.3144643349176
 30
0.0
 41
1.0
 10
945.79739101756036
 20
-1126.3174430149907
 30
0.0
 41
1.0
 10
945.79885487915067
 20
-1126.3204216950635
 30
0.0
 41
1.0
 10
945.85079181565243
 20
-1126.4261034882343
 30
0.0
 41
0.9992763831101501
 10
945.89454494420681
 20
-1126.5354275501882
 30
0.0
 41
1.0
 10
945.89602421387053
 20
-1126.5391237377225
 30
0.0
 41
1.0
 10
945.89750348353414
 20
-1126.5428199252572
 30
0.0
 41
1.0
 10
945.94421515141562
 20
-1126.6595363622798
 30
0.0
 41
0.9994163472883819
 10
945.98284818260527
 20
-1126.7791699507434
 30
0.0
 41
1.0
 10
945.98408633485224
 20
-1126.7830040945269
 30
0.0
 41
1.0
 10
945.98532448709932
 20
-1126.7868382383103
 30
0.0
 41
1.0
 10
946.02520804811707
 20
-1126.9103442997907
 30
0.0
 41
0.9997268055890056
 10
946.05927610402841
 20
-1127.035579331739
 30
0.0
 41
1.0
 10
946.0602062842986
 20
-1127.0389986978498
 30
0.0
 41
1.0
 10
946.06113646456868
 20
-1127.0424180639609
 30
0.0
 41
1.0
 10
946.09334415994033
 20
-1127.1608143636893
 30
0.0
 41
0.9996701319000504
 10
946.11942977671083
 20
-1127.2807083169532
 30
0.0
 41
1.0
 10
946.14551539348076
 20
-1127.4006022702129
 30
0.0
 41
0.9995785451108817
 10
946.16459897082052
 20
-1127.5218080312447
 30
0.0
 41
1.0
 10
946.16881875299464
 20
-1127.5486091860121
 30
0.0
 41
1.0
 10
946.17303853516864
 20
-1127.5754103407792
 30
0.0
 41
1.0
 10
946.19961351110726
 20
-1127.7441963144811
 30
0.0
 41
0.9979925101216106
 10
946.20463909703346
 20
-1127.9149876425729
 30
0.0
 41
1.0
 10
946.2054639094581
 20
-1127.9430183660543
 30
0.0
 41
1.0
 10
946.20628872188274
 20
-1127.9710490895354
 30
0.0
 41
1.0
 10
946.2096646829599
 20
-1128.085778970664
 30
0.0
 41
0.9995314902263045
 10
946.2060144908213
 20
-1128.2005004544167
 30
0.0
 41
1.0
 10
946.20236429868271
 20
-1128.3152219381682
 30
0.0
 41
0.9996245486944718
 10
946.19243520355201
 20
-1128.4295712092926
 30
0.0
 41
1.0
 10
946.1922721555577
 20
-1128.4314489654278
 30
0.0
 41
1.0
 10
946.19210910756351
 20
-1128.4333267215629
 30
0.0
 41
1.0
 10
946.18185391644363
 20
-1128.5514315049595
 30
0.0
 41
0.9997286095001592
 10
946.16610859287221
 20
-1128.6689304138552
 30
0.0
 41
1.0
 10
946.16571510022209
 20
-1128.6718668385556
 30
0.0
 41
1.0
 10
946.16532160757197
 20
-1128.6748032632559
 30
0.0
 41
1.0
 10
946.14878929869951
 20
-1128.7981750215563
 30
0.0
 41
0.9998265533968613
 10
946.12767383996754
 20
-1128.9208454963402
 30
0.0
 41
1.0
 10
946.12699729783026
 20
-1128.9247758748488
 30
0.0
 41
1.0
 10
946.12632075569286
 20
-1128.9287062533576
 30
0.0
 41
1.0
 10
946.10385221268552
 20
-1129.0592374851642
 30
0.0
 41
0.9999022530853099
 10
946.07774274807673
 20
-1129.189089453796
 30
0.0
 41
1.0
 10
946.07676410691101
 20
-1129.1939565961852
 30
0.0
 41
1.0
 10
946.0757854657453
 20
-1129.1988237385742
 30
0.0
 41
1.0
 10
946.04771871880541
 20
-1129.338409991984
 30
0.0
 41
0.9999524761933817
 10
946.01693574997159
 20
-1129.477422485144
 30
0.0
 41
1.0
 10
946.0156596427953
 20
-1129.4831852444504
 30
0.0
 41
1.0
 10
946.01438353561889
 20
-1129.4889480037568
 30
0.0
 41
1.0
 10
945.98104835243078
 20
-1129.639486015536
 30
0.0
 41
0.9999813588722094
 10
945.94587735163634
 20
-1129.7896057281864
 30
0.0
 41
1.0
 10
945.94432342618029
 20
-1129.7962383186064
 30
0.0
 41
1.0
 10
945.94276950072435
 20
-1129.8028709090265
 30
0.0
 41
1.0
 10
945.90449064902009
 20
-1129.9662558025084
 30
0.0
 41
0.9999955237745822
 10
945.86523477104242
 20
-1130.1294087061021
 30
0.0
 41
1.0
 10
945.85295313540428
 20
-1130.1804528966409
 30
0.0
 41
1.0
 10
945.84067149976613
 20
-1130.2314970871798
 30
0.0
 41
1.0
 10
945.77685235050535
 20
-1130.4967383718795
 30
0.0
 41
0.9999993604213316
 10
945.71243340331489
 20
-1130.7618346226566
 30
0.0
 41
1.0
 10
945.70771456778493
 20
-1130.7812535306271
 30
0.0
 41
1.0
 10
945.70299573225486
 20
-1130.8006724385973
 30
0.0
 41
1.0
 10
945.62913911399596
 20
-1131.1046065053506
 30
0.0
 41
0.9999659914731182
 10
945.55027951810916
 20
-1131.4072810519153
 30
0.0
 41
1.0
 10
945.54532682917852
 20
-1131.4262901890979
 30
0.0
 41
1.0
 10
945.54037414024788
 20
-1131.4452993262803
 30
0.0
 41
1.0
 10
945.45160916650468
 20
-1131.7859921471922
 30
0.0
 41
0.9999441976029266
 10
945.35566613354217
 20
-1132.1247335724868
 30
0.0
 41
1.0
 10
945.33896561511506
 20
-1132.1836972850201
 30
0.0
 41
1.0
 10
945.32226509668794
 20
-1132.2426609975537
 30
0.0
 41
1.0
 10
945.1929210268753
 20
-1132.699329847901
 30
0.0
 41
0.9999625120734943
 10
945.05568825955027
 20
-1133.1536903819026
 30
0.0
 41
1.0
 10
945.0198983164687
 20
-1133.2721864085252
 30
0.0
 41
1.0
 10
944.98410837338724
 20
-1133.3906824351475
 30
0.0
 41
1.0
 10
944.90958816934494
 20
-1133.6374095132537
 30
0.0
 41
0.9999793386322153
 10
944.83190214620527
 20
-1133.8831581524964
 30
0.0
 41
1.0
 10
944.75421612306775
 20
-1134.1289067917326
 30
0.0
 41
1.0
 10
944.74343656419705
 20
-1134.1629246961072
 30
0.0
 41
1.0
 10
942.89306351092796
 20
-1140.0499966185748
 30
0.0
 41
1.0
 10
941.04269045765875
 20
-1145.9370685410422
 30
0.0
 41
1.0
 10
940.08143376763519
 20
-1145.9370685410422
 30
0.0
 41
1.0
 10
939.12017707761163
 20
-1145.9370685410422
 30
0.0
 41
1.0
 10
940.73912185629001
 20
-1140.7890400392528
 30
0.0
 41
1.0
 10
942.35806663496851
 20
-1135.6410115374633
 30
0.0
 41
1.0
 10
942.4032324581492
 20
-1135.4969803151728
 30
0.0
 41
1.0
 10
942.44839828133001
 20
-1135.3529490928822
 30
0.0
 41
1.0
 10
942.61870269869075
 20
-1134.8098580637266
 30
0.0
 41
0.9999911657871884
 10
942.78443551036003
 20
-1134.2653545323974
 30
0.0
 41
1.0
 10
942.81413145386955
 20
-1134.167790592317
 30
0.0
 41
1.0
 10
942.84382739737907
 20
-1134.0702266522367
 30
0.0
 41
1.0
 10
942.95016832204919
 20
-1133.7208510010046
 30
0.0
 41
0.9999952428157739
 10
943.0543519113653
 20
-1133.370825976684
 30
0.0
 41
1.0
 10
943.05941138169976
 20
-1133.3538277024022
 30
0.0
 41
1.0
 10
943.06447085203422
 20
-1133.3368294281202
 30
0.0
 41
1.0
 10
943.15853550069426
 20
-1133.0208009523208
 30
0.0
 41
0.9999931687530674
 10
943.25026133856386
 20
-1132.7040857390641
 30
0.0
 41
1.0
 10
943.25519660302257
 20
-1132.6870450297956
 30
0.0
 41
1.0
 10
943.26013186748139
 20
-1132.6700043205271
 30
0.0
 41
1.0
 10
943.34198717643699
 20
-1132.3873705257952
 30
0.0
 41
0.9999893840804029
 10
943.42123440289436
 20
-1132.103994396547
 30
0.0
 41
1.0
 10
943.50048162935309
 20
-1131.8206182672941
 30
0.0
 41
0.9999833980078222
 10
943.57645787008937
 20
-1131.5363476842856
 30
0.0
 41
1.0
 10
943.58546180681401
 20
-1131.5026588057985
 30
0.0
 41
1.0
 10
943.59446574353854
 20
-1131.4689699273113
 30
0.0
 41
1.0
 10
943.66343029240477
 20
-1131.2109340950155
 30
0.0
 41
0.9999233658066004
 10
943.72598526362469
 20
-1130.951269936294
 30
0.0
 41
1.0
 10
943.78854023484496
 20
-1130.6916057775716
 30
0.0
 41
1.0
 10
943.82802365370253
 20
-1130.5277991131454
 30
0.0
 41
1.0
 10
943.83300225767539
 20
-1130.5071441512937
 30
0.0
 41
1.0
 10
943.83798086164813
 20
-1130.486489189442
 30
0.0
 41
1.0
 10
943.86750707255624
 20
-1130.363992448735
 30
0.0
 41
0.999986867087294
 10
943.89577615655628
 20
-1130.2411995030739
 30
0.0
 41
1.0
 10
943.8996736437166
 20
-1130.2242699156454
 30
0.0
 41
1.0
 10
943.90357113087703
 20
-1130.207340328217
 30
0.0
 41
1.0
 10
943.92404524055439
 20
-1130.11840655742
 30
0.0
 41
0.999977817334457
 10
943.94333283866786
 20
-1130.0292079401979
 30
0.0
 41
1.0
 10
943.96262043678405
 20
-1129.9400093229647
 30
0.0
 41
0.9999602692864404
 10
943.98031479541862
 20
-1129.8504810345185
 30
0.0
 41
1.0
 10
943.98351862749405
 20
-1129.834270579644
 30
0.0
 41
1.0
 10
943.98672245956936
 20
-1129.8180601247698
 30
0.0
 41
1.0
 10
944.01082448235582
 20
-1129.6961109265703
 30
0.0
 41
0.9995617985320141
 10
944.02766782957451
 20
-1129.5729491788629
 30
0.0
 41
1.0
 10
944.03013231948046
 20
-1129.5549283614992
 30
0.0
 41
1.0
 10
944.0325968093864
 20
-1129.5369075441354
 30
0.0
 41
1.0
 10
944.05288007043475
 20
-1129.3885924944343
 30
0.0
 41
0.9991121410639607
 10
944.06060542402315
 20
-1129.2390963956273
 30
0.0
 41
1.0
 10
944.06152421404772
 20
-1129.221316559052
 30
0.0
 41
1.0
 10
944.06244300407218
 20
-1129.2035367224767
 30
0.0
 41
1.0
 10
944.06833077761121
 20
-1129.0896002968232
 30
0.0
 41
0.9989792494906168
 10
944.06391168549408
 20
-1128.9755974609229
 30
0.0
 41
1.0
 10
944.06326371362547
 20
-1128.9588812149959
 30
0.0
 41
1.0
 10
944.06261574175676
 20
-1128.9421649690692
 30
0.0
 41
1.0
 10
944.05949259337672
 20
-1128.8615946250272
 30
0.0
 41
0.9997820295393473
 10
944.05300859600106
 20
-1128.7812249032804
 30
0.0
 41
1.0
 10
944.04652459862496
 20
-1128.7008551815302
 30
0.0
 41
0.9998335105973464
 10
944.03711240311293
 20
-1128.6207755650801
 30
0.0
 41
1.0
 10
944.03551747843699
 20
-1128.6072058346003
 30
0.0
 41
1.0
 10
944.03392255376093
 20
-1128.5936361041204
 30
0.0
 41
1.0
 10
944.021320508896
 20
-1128.4864170266987
 30
0.0
 41
0.9996876457878868
 10
944.00337659609716
 20
-1128.3799615989817
 30
0.0
 41
1.0
 10
944.00114493295223
 20
-1128.366721863742
 30
0.0
 41
1.0
 10
943.99891326980719
 20
-1128.353482128502
 30
0.0
 41
1.0
 10
943.98511744838652
 20
-1128.2716359845447
 30
0.0
 41
0.9995547496494133
 10
943.96646412649397
 20
-1128.190758487355
 30
0.0
 41
1.0
 10
943.96609016962248
 20
-1128.1891370766484
 30
0.0
 41
1.0
 10
943.96571621275086
 20
-1128.1875156659416
 30
0.0
 41
1.0
 10
943.94781080460075
 20
-1128.1098809901609
 30
0.0
 41
0.999489942717507
 10
943.92498589592196
 20
-1128.0335477073295
 30
0.0
 41
1.0
 10
943.92452736918142
 20
-1128.0320142575415
 30
0.0
 41
1.0
 10
943.92406884244087
 20
-1128.0304808077537
 30
0.0
 41
1.0
 10
943.90216098724295
 20
-1127.957214424496
 30
0.0
 41
0.9993784877590464
 10
943.87514535213609
 20
-1127.885673719336
 30
0.0
 41
1.0
 10
943.87461366115963
 20
-1127.8842657366165
 30
0.0
 41
1.0
 10
943.87408197018306
 20
-1127.882857753897
 30
0.0
 41
1.0
 10
943.84812971703013
 20
-1127.8141330141789
 30
0.0
 41
0.9992430832255526
 10
943.81691318187018
 20
-1127.7476338621086
 30
0.0
 41
1.0
 10
943.8163310658133
 20
-1127.7463938069909
 30
0.0
 41
1.0
 10
943.81574894975654
 20
-1127.745153751873
 30
0.0
 41
1.0
 10
943.78569664671113
 20
-1127.6811347100411
 30
0.0
 41
0.9990789632799023
 10
943.75026601993409
 20
-1127.6199280982908
 30
0.0
 41
1.0
 10
943.74967031375252
 20
-1127.6188990124324
 30
0.0
 41
1.0
 10
943.74907460757095
 20
-1127.617869926574
 30
0.0
 41
1.0
 10
943.71483539315761
 20
-1127.5587214865416
 30
0.0
 41
0.9988874801122042
 10
943.67517611712537
 20
-1127.5030617741231
 30
0.0
 41
1.0
 10
943.67462059106094
 20
-1127.5022821224482
 30
0.0
 41
1.0
 10
943.67406506499651
 20
-1127.5015024707732
 30
0.0
 41
1.0
 10
943.63551684109291
 20
-1127.4474020617049
 30
0.0
 41
0.9986762060692809
 10
943.59161436981708
 20
-1127.3975483472664
 30
0.0
 41
1.0
 10
943.59117040948479
 20
-1127.3970442054497
 30
0.0
 41
1.0
 10
943.5907264491525
 20
-1127.396540063633
 30
0.0
 41
1.0
 10
943.54771189854068
 20
-1127.3476946328269
 30
0.0
 41
0.9984621642487869
 10
943.49955434176309
 20
-1127.3039113323559
 30
0.0
 41
1.0
 10
943.49930770724654
 20
-1127.3036871001925
 30
0.0
 41
1.0
 10
943.49906107273011
 20
-1127.3034628680291
 30
0.0
 41
1.0
 10
943.45139678498481
 20
-1127.2601280318845
 30
0.0
 41
0.9982724693851955
 10
943.39897815314384
 20
-1127.222683681367
 30
0.0
 41
1.0
 10
943.34655952130288
 20
-1127.1852393308498
 30
0.0
 41
0.9981399180158537
 10
943.28997345790924
 20
-1127.1544528114061
 30
0.0
 41
1.0
 10
943.28992779583064
 20
-1127.1544279682489
 30
0.0
 41
1.0
 10
943.28988213375214
 20
-1127.1544031250917
 30
0.0
 41
1.0
 10
943.23320474620255
 20
-1127.1235669193343
 30
0.0
 41
0.9980927086837326
 10
943.17315939513617
 20
-1127.0999501104816
 30
0.0
 41
1.0
 10
943.17271922542409
 20
-1127.0997769846065
 30
0.0
 41
1.0
 10
943.17227905571212
 20
-1127.0996038587314
 30
0.0
 41
1.0
 10
943.1113533652225
 20
-1127.0756407981289
 30
0.0
 41
0.998141135656099
 10
943.04796484382291
 20
-1127.0592681566234
 30
0.0
 41
1.0
 10
943.04708272712151
 20
-1127.0590403144179
 30
0.0
 41
1.0
 10
943.0462006104201
 20
-1127.0588124722124
 30
0.0
 41
1.0
 10
942.98104785561793
 20
-1127.0419841462958
 30
0.0
 41
0.9983031812934622
 10
942.91438042662355
 20
-1127.0328447851198
 30
0.0
 41
1.0
 10
942.90550940121943
 20
-1127.0316286664483
 30
0.0
 41
1.0
 10
942.89663837581543
 20
-1127.0304125477769
 30
0.0
 41
1.0
 10
942.84228873331131
 20
-1127.0229618177859
 30
0.0
 41
0.9983887708263139
 10
942.78744488401833
 20
-1127.0217171441527
 30
0.0
 41
1.0
 10
942.77938147880377
 20
-1127.0215341462779
 30
0.0
 41
1.0
 10
942.77131807358921
 20
-1127.021351148403
 30
0.0
 41
1.0
 10
942.7326010347283
 20
-1127.0204724705193
 30
0.0
 41
0.9998869563081343
 10
942.69387508152283
 20
-1127.020758339879
 30
0.0
 41
1.0
 10
942.65514912830963
 20
-1127.0210442092387
 30
0.0
 41
0.9999972320139495
 10
942.6164249490879
 20
-1127.021512308768
 30
0.0
 41
1.0
 10
942.5970719325187
 20
-1127.0217462488572
 30
0.0
 41
1.0
 10
942.57771891594939
 20
-1127.0219801889466
 30
0.0
 41
1.0
 10
942.50028870357892
 20
-1127.0229161686543
 30
0.0
 41
0.9997304945086566
 10
942.42298539734134
 20
-1127.0274452624403
 30
0.0
 41
1.0
 10
942.41393575563689
 20
-1127.0279754684302
 30
0.0
 41
1.0
 10
942.40488611393255
 20
-1127.0285056744201
 30
0.0
 41
1.0
 10
942.30948352428607
 20
-1127.0340951801861
 30
0.0
 41
0.9997888306416493
 10
942.21439118844341
 20
-1127.0436001446753
 30
0.0
 41
1.0
 10
942.20567012687093
 20
-1127.0444718593076
 30
0.0
 41
1.0
 10
942.19694906529833
 20
-1127.0453435739396
 30
0.0
 41
1.0
 10
942.08441460630888
 20
-1127.0565919676928
 30
0.0
 41
0.9984170238190286
 10
941.97385545895713
 20
-1127.0804080496289
 30
0.0
 41
1.0
 10
941.93747432797136
 20
-1127.0882450854349
 30
0.0
 41
1.0
 10
941.9010931969857
 20
-1127.0960821212409
 30
0.0
 41
1.0
 10
941.78590212856409
 20
-1127.1208959877506
 30
0.0
 41
0.9976592854198386
 10
941.67517396215953
 20
-1127.1611946648977
 30
0.0
 41
1.0
 10
941.56444579575191
 20
-1127.2014933420458
 30
0.0
 41
0.999325507435151
 10
941.45697399695882
 20
-1127.2498102405395
 30
0.0
 41
1.0
 10
941.45234881803799
 20
-1127.251889616738
 30
0.0
 41
1.0
 10
941.44772363911716
 20
-1127.2539689929367
 30
0.0
 41
1.0
 10
941.33100148247934
 20
-1127.3064446438289
 30
0.0
 41
0.9976475078275031
 10
941.22255413816856
 20
-1127.3743926334873
 30
0.0
 41
1.0
 10
941.2042117440335
 20
-1127.385885112302
 30
0.0
 41
1.0
 10
941.18586934989844
 20
-1127.3973775911168
 30
0.0
 41
1.0
 10
941.10166715834862
 20
-1127.4501347118837
 30
0.0
 41
0.9995131336407265
 10
941.0209194433902
 20
-1127.5080409238376
 30
0.0
 41
1.0
 10
940.94017172843064
 20
-1127.5659471357922
 30
0.0
 41
0.9995810107606125
 10
940.86291008070111
 20
-1127.628428818259
 30
0.0
 41
1.0
 10
940.85994004949248
 20
-1127.6308306897222
 30
0.0
 41
1.0
 10
940.85697001828385
 20
-1127.6332325611857
 30
0.0
 41
1.0
 10
940.77376830813682
 20
-1127.7005179865791
 30
0.0
 41
0.9996617837954988
 10
940.69417762100284
 20
-1127.7720384421377
 30
0.0
 41
1.0
 10
940.68204687012349
 20
-1127.7829391751307
 30
0.0
 41
1.0
 10
940.66991611924425
 20
-1127.7938399081233
 30
0.0
 41
1.0
 10
940.60164059184842
 20
-1127.855192523595
 30
0.0
 41
0.9997267750052697
 10
940.53630708356445
 20
-1127.9196690601207
 30
0.0
 41
1.0
 10
940.47097357529174
 20
-1127.984145596635
 30
0.0
 41
0.9999667288956248
 10
940.40670063215543
 20
-1128.0496794035187
 30
0.0
 41
1.0
 10
940.33787318436964
 20
-1128.1198570622878
 30
0.0
 41
1.0
 10
940.26904573658385
 20
-1128.1900347210567
 30
0.0
 41
1.0
 10
940.06711789788631
 20
-1128.3959238454684
 30
0.0
 41
0.9988205335174982
 10
939.88611228090701
 20
-1128.6204280775289
 30
0.0
 41
1.0
 10
939.85547231600253
 20
-1128.6584313279586
 30
0.0
 41
1.0
 10
939.82483235109817
 20
-1128.6964345783881
 30
0.0
 41
1.0
 10
939.58254680430798
 20
-1128.9969453113101
 30
0.0
 41
0.9997077826754504
 10
939.35506885320206
 20
-1129.3088151055276
 30
0.0
 41
1.0
 10
939.35334543807255
 20
-1129.3111778889058
 30
0.0
 41
1.0
 10
939.35162202294305
 20
-1129.313540672284
 30
0.0
 41
1.0
 10
939.12069724157823
 20
-1129.6301360332575
 30
0.0
 41
0.9989147567079074
 10
938.92023373869426
 20
-1129.9668454944429
 30
0.0
 41
1.0
 10
938.89549259338514
 20
-1130.0084020749991
 30
0.0
 41
1.0
 10
938.87075144807591
 20
-1130.0499586555552
 30
0.0
 41
1.0
 10
938.71554014944002
 20
-1130.3106600400054
 30
0.0
 41
0.9997476598182059
 10
938.57219516193254
 20
-1130.5780697885843
 30
0.0
 41
1.0
 10
938.42885017442268
 20
-1130.8454795371672
 30
0.0
 41
0.9996258967110048
 10
938.30034192249104
 20
-1131.1203274737913
 30
0.0
 41
1.0
 10
938.28714201304092
 20
-1131.1485588738879
 30
0.0
 41
1.0
 10
938.2739421035908
 20
-1131.1767902739844
 30
0.0
 41
1.0
 10
938.13373338259169
 20
-1131.4766626719359
 30
0.0
 41
0.9998735413944301
 10
938.00313203587143
 20
-1131.7808422714033
 30
0.0
 41
1.0
 10
937.9996892078093
 20
-1131.7888608568719
 30
0.0
 41
1.0
 10
937.99624637974705
 20
-1131.7968794423405
 30
0.0
 41
1.0
 10
937.87253068914788
 20
-1132.0850218708779
 30
0.0
 41
0.9999377418863901
 10
937.75527588697628
 20
-1132.3758533385458
 30
0.0
 41
1.0
 10
937.63802108480013
 20
-1132.6666848062241
 30
0.0
 41
0.9999508299510053
 10
937.52655714142338
 20
-1132.9597844830444
 30
0.0
 41
1.0
 10
937.52347637276114
 20
-1132.9678855090078
 30
0.0
 41
1.0
 10
937.52039560409889
 20
-1132.9759865349711
 30
0.0
 41
1.0
 10
937.40277012339698
 20
-1133.2852882637185
 30
0.0
 41
0.9999609228433192
 10
937.29063152051856
 20
-1133.5966212797468
 30
0.0
 41
1.0
 10
937.28767551017086
 20
-1133.6048281201506
 30
0.0
 41
1.0
 10
937.28471949982327
 20
-1133.6130349605546
 30
0.0
 41
1.0
 10
937.16666887625342
 20
-1133.9407816573794
 30
0.0
 41
0.999967460740575
 10
937.05392135018303
 20
-1134.2703902773806
 30
0.0
 41
1.0
 10
937.00252295962127
 20
-1134.4206494730706
 30
0.0
 41
1.0
 10
936.9511245690594
 20
-1134.5709086687605
 30
0.0
 41
1.0
 10
936.83511396230017
 20
-1134.9100566512675
 30
0.0
 41
0.9999287532307455
 10
936.7272325583283
 20
-1135.2518773902466
 30
0.0
 41
1.0
 10
936.68075530215947
 20
-1135.3991399347119
 30
0.0
 41
1.0
 10
936.63427804599064
 20
-1135.5464024791772
 30
0.0
 41
1.0
 10
936.61935115432675
 20
-1135.59369812932
 30
0.0
 41
0.9999998222603506
 10
936.60448064562706
 20
-1135.6410115374633
 30
0.0
 41
1.0
 10
934.98382450883162
 20
-1140.7890400392528
 30
0.0
 41
1.0
 10
933.36316837203617
 20
-1145.9370685410422
 30
0.0
 41
1.0
 10
932.45785992814524
 20
-1145.9370685410422
 30
0.0
 41
1.0
 10
931.55255148425431
 20
-1145.9370685410422
 30
0.0
 41
1.0
 10
933.40463589564035
 20
-1140.0499966185748
 30
0.0
 41
1.0
 10
935.2567203070264
 20
-1134.1629246961072
 30
0.0
 41
1.0
 10
935.26684206532912
 20
-1134.1308814826575
 30
0.0
 41
1.0
 10
935.33944973417886
 20
-1133.9005819408317
 30
0.0
 41
1.0
 10
935.41205740303326
 20
-1133.6702823989908
 30
0.0
 41
0.999982568196343
 10
935.48194044224908
 20
-1133.4391415039115
 30
0.0
 41
1.0
 10
935.53023150440617
 20
-1133.2794169204271
 30
0.0
 41
1.0
 10
935.57852256656338
 20
-1133.119692336943
 30
0.0
 41
1.0
 10
935.6756749198787
 20
-1132.7983571151738
 30
0.0
 41
0.9999672528969502
 10
935.76761372550095
 20
-1132.4754915695908
 30
0.0
 41
1.0
 10
935.7704026091684
 20
-1132.4656977242089
 30
0.0
 41
1.0
 10
935.77319149283585
 20
-1132.455903878827
 30
0.0
 41
1.0
 10
935.85955253112229
 20
-1132.1526260240116
 30
0.0
 41
0.9999899749146471
 10
935.94319414065899
 20
-1131.8485869355522
 30
0.0
 41
1.0
 10
935.95330005967708
 20
-1131.8118516978716
 30
0.0
 41
1.0
 10
935.96340597869528
 20
-1131.7751164601909
 30
0.0
 41
1.0
 10
936.02683575019489
 20
-1131.5445478470954
 30
0.0
 41
0.999921420050334
 10
936.08446517857146
 20
-1131.3124615048905
 30
0.0
 41
1.0
 10
936.09723103075044
 20
-1131.261050619501
 30
0.0
 41
1.0
 10
936.10999688292929
 20
-1131.2096397341115
 30
0.0
 41
1.0
 10
936.14209460694724
 20
-1131.0803751626895
 30
0.0
 41
0.9999828681665821
 10
936.17267685894456
 20
-1130.9507436882136
 30
0.0
 41
1.0
 10
936.20325911094028
 20
-1130.8211122137445
 30
0.0
 41
0.9999389844473519
 10
936.23097009973208
 20
-1130.6908367578326
 30
0.0
 41
1.0
 10
936.23810784345085
 20
-1130.6572806540019
 30
0.0
 41
1.0
 10
936.24524558716962
 20
-1130.6237245501711
 30
0.0
 41
1.0
 10
936.28723206339896
 20
-1130.4263368865975
 30
0.0
 41
0.9998933699442593
 10
936.32343632779964
 20
-1130.2278072788479
 30
0.0
 41
1.0
 10
936.32480915301699
 20
-1130.2202792581461
 30
0.0
 41
1.0
 10
936.32618197823422
 20
-1130.2127512374445
 30
0.0
 41
1.0
 10
936.36513189306913
 20
-1129.999165588293
 30
0.0
 41
0.9996850305193331
 10
936.3933155693278
 20
-1129.7838945828569
 30
0.0
 41
1.0
 10
936.39531060269724
 20
-1129.7686562287345
 30
0.0
 41
1.0
 10
936.39730563606656
 20
-1129.7534178746121
 30
0.0
 41
1.0
 10
936.42471349852588
 20
-1129.5440726474556
 30
0.0
 41
0.9994697936706294
 10
936.43843805774509
 20
-1129.3333874521268
 30
0.0
 41
1.0
 10
936.43891512699474
 20
-1129.3260639799159
 30
0.0
 41
1.0
 10
936.4393921962444
 20
-1129.3187405077051
 30
0.0
 41
1.0
 10
936.45216261696464
 20
-1129.1227022567966
 30
0.0
 41
0.9991804893136951
 10
936.44903430069189
 20
-1128.9262734068227
 30
0.0
 41
1.0
 10
936.44895042186977
 20
-1128.9210066054102
 30
0.0
 41
1.0
 10
936.44886654304764
 20
-1128.9157398039974
 30
0.0
 41
1.0
 10
936.44590598441914
 20
-1128.7298445568495
 30
0.0
 41
0.9988448329321468
 10
936.42511443879539
 20
-1128.5450919670159
 30
0.0
 41
1.0
 10
936.42352036509249
 20
-1128.5309271112458
 30
0.0
 41
1.0
 10
936.42192629138958
 20
-1128.5167622554757
 30
0.0
 41
1.0
 10
936.40432289317175
 20
-1128.3603393771837
 30
0.0
 41
0.9985503209458877
 10
936.37000662087212
 20
-1128.2067151930933
 30
0.0
 41
1.0
 10
936.36242062880115
 20
-1128.1727548656945
 30
0.0
 41
1.0
 10
936.35483463673029
 20
-1128.1387945382955
 30
0.0
 41
1.0
 10
936.33569034857305
 20
-1128.0530910090067
 30
0.0
 41
0.999103678137077
 10
936.30936548692125
 20
-1127.969313921679
 30
0.0
 41
1.0
 10
936.30538326146461
 20
-1127.9566407591665
 30
0.0
 41
1.0
 10
936.30140103600809
 20
-1127.9439675966541
 30
0.0
 41
1.0
 10
936.28304062526854
 20
-1127.8855368343484
 30
0.0
 41
0.9998874504367988
 10
936.26293541759173
 20
-1127.8276832321308
 30
0.0
 41
1.0
 10
936.24283020991277
 20
-1127.7698296299066
 30
0.0
 41
0.9994041637544098
 10
936.21878159697803
 20
-1127.7135009260155
 30
0.0
 41
1.0
 10
936.21458481275488
 20
-1127.7036708615356
 30
0.0
 41
1.0
 10
936.21038802853172
 20
-1127.6938407970556
 30
0.0
 41
1.0
 10
936.18250919753734
 20
-1127.6285406310885
 30
0.0
 41
0.9991846840702205
 10
936.14945284084331
 20
-1127.5657025998064
 30
0.0
 41
1.0
 10
936.14831623444832
 20
-1127.5635419833518
 30
0.0
 41
1.0
 10
936.14717962805332
 20
-1127.5613813668972
 30
0.0
 41
1.0
 10
936.11639648415053
 20
-1127.5028645685268
 30
0.0
 41
0.9989253167923465
 10
936.08032706009521
 20
-1127.4474496401358
 30
0.0
 41
1.0
 10
936.0792729354207
 20
-1127.4458301453731
 30
0.0
 41
1.0
 10
936.07821881074619
 20
-1127.4442106506103
 30
0.0
 41
1.0
 10
936.04425763604002
 20
-1127.3920347117453
 30
0.0
 41
0.998646717283656
 10
936.00506048340299
 20
-1127.343668678116
 30
0.0
 41
1.0
 10
936.00418635470237
 20
-1127.342590075838
 30
0.0
 41
1.0
 10
936.00331222600175
 20
-1127.3415114735599
 30
0.0
 41
1.0
 10
935.9658633307655
 20
-1127.2953026444866
 30
0.0
 41
0.9984001104266966
 10
935.92343660024835
 20
-1127.2536175371179
 30
0.0
 41
1.0
 10
935.92284946213874
 20
-1127.2530406622363
 30
0.0
 41
1.0
 10
935.92226232402913
 20
-1127.2524637873548
 30
0.0
 41
1.0
 10
935.88100986973097
 20
-1127.2119324297487
 30
0.0
 41
0.9982442159082879
 10
935.83525376839566
 20
-1127.1765638684888
 30
0.0
 41
1.0
 10
935.83503897293394
 20
-1127.1763978358456
 30
0.0
 41
1.0
 10
935.83482417747211
 20
-1127.1762318032024
 30
0.0
 41
1.0
 10
935.78949766705966
 20
-1127.1411953072281
 30
0.0
 41
0.9982450060835629
 10
935.74034668798822
 20
-1127.1117635241949
 30
0.0
 41
1.0
 10
935.69119570891644
 20
-1127.0823317411614
 30
0.0
 41
0.9983922639635514
 10
935.63902940275148
 20
-1127.0586521065072
 30
0.0
 41
1.0
 10
935.63880252542708
 20
-1127.0585491210259
 30
0.0
 41
1.0
 10
935.63857564810269
 20
-1127.0584461355445
 30
0.0
 41
1.0
 10
935.58595558729019
 20
-1127.0345605299281
 30
0.0
 41
0.9986517147150469
 10
935.53114261442329
 20
-1127.0162594108067
 30
0.0
 41
1.0
 10
935.53046469299431
 20
-1127.0160330643748
 30
0.0
 41
1.0
 10
935.52978677156534
 20
-1127.015806717943
 30
0.0
 41
1.0
 10
935.4736179558422
 20
-1126.9970529059585
 30
0.0
 41
0.9989435598956507
 10
935.41596456869036
 20
-1126.9835352037239
 30
0.0
 41
1.0
 10
935.41488444910851
 20
-1126.9832819534709
 30
0.0
 41
1.0
 10
935.41380432952678
 20
-1126.9830287032178
 30
0.0
 41
1.0
 10
935.35399070321068
 20
-1126.969004500477
 30
0.0
 41
0.9992249241240022
 10
935.29325919431199
 20
-1126.9597291577616
 30
0.0
 41
1.0
 10
935.29184550602236
 20
-1126.9595132493539
 30
0.0
 41
1.0
 10
935.29043181773261
 20
-1126.9592973409463
 30
0.0
 41
1.0
 10
935.22687293225522
 20
-1126.9495901814157
 30
0.0
 41
0.9994396597834158
 10
935.16280699572008
 20
-1126.9441572590702
 30
0.0
 41
1.0
 10
935.14366632824033
 20
-1126.9425340913513
 30
0.0
 41
1.0
 10
935.12452566076058
 20
-1126.9409109236326
 30
0.0
 41
1.0
 10
935.02217838926731
 20
-1126.9322316658495
 30
0.0
 41
0.9987693403120903
 10
934.91947476567987
 20
-1126.9337347293022
 30
0.0
 41
1.0
 10
934.9092204314511
 20
-1126.9338848010764
 30
0.0
 41
1.0
 10
934.89896609722234
 20
-1126.9340348728506
 30
0.0
 41
1.0
 10
934.78941033104559
 20
-1126.9356382171379
 30
0.0
 41
0.9989753644965563
 10
934.68044833103113
 20
-1126.9471412240632
 30
0.0
 41
1.0
 10
934.57148633101667
 20
-1126.9586442309881
 30
0.0
 41
0.9983190067306228
 10
934.46458752005321
 20
-1126.9826792227743
 30
0.0
 41
1.0
 10
934.45568656844466
 20
-1126.9846805013374
 30
0.0
 41
1.0
 10
934.44678561683622
 20
-1126.9866817799004
 30
0.0
 41
1.0
 10
934.32208490265634
 20
-1127.0147193288128
 30
0.0
 41
0.9985539388302611
 10
934.20111514897735
 20
-1127.0559830048592
 30
0.0
 41
1.0
 10
934.1987697180183
 20
-1127.0567830486746
 30
0.0
 41
1.0
 10
934.19642428705924
 20
-1127.0575830924899
 30
0.0
 41
1.0
 10
934.07076367145942
 20
-1127.1004468561675
 30
0.0
 41
0.9988468746493412
 10
933.94979332915875
 20
-1127.1551649412302
 30
0.0
 41
1.0
 10
933.94661050717082
 20
-1127.1566046157898
 30
0.0
 41
1.0
 10
933.943427685183
 20
-1127.1580442903494
 30
0.0
 41
1.0
 10
933.81609169890658
 20
-1127.215641724531
 30
0.0
 41
0.9991322885919493
 10
933.69399111485041
 20
-1127.2836370567125
 30
0.0
 41
1.0
 10
933.67638910380447
 20
-1127.2934392587035
 30
0.0
 41
1.0
 10
933.65878709275842
 20
-1127.3032414606946
 30
0.0
 41
1.0
 10
933.55661041170242
 20
-1127.3601415764742
 30
0.0
 41
0.9993860037848933
 10
933.45866940763005
 20
-1127.4240575920624
 30
0.0
 41
1.0
 10
933.45305109478045
 20
-1127.4277240867555
 30
0.0
 41
1.0
 10
933.44743278193073
 20
-1127.4313905814488
 30
0.0
 41
1.0
 10
933.36072840355928
 20
-1127.4879736076491
 30
0.0
 41
0.999882149495353
 10
933.27580202774379
 20
-1127.5471918377275
 30
0.0
 41
1.0
 10
933.19087565193138
 20
-1127.6064100678041
 30
0.0
 41
0.9997976482743834
 10
933.10840002153043
 20
-1127.6689964758439
 30
0.0
 41
1.0
 10
933.093763756724
 20
-1127.6801031656248
 30
0.0
 41
1.0
 10
933.07912749191757
 20
-1127.6912098554058
 30
0.0
 41
1.0
 10
932.96737933190491
 20
-1127.7760096430065
 30
0.0
 41
0.9998091630801483
 10
932.85902905387547
 20
-1127.8651099937092
 30
0.0
 41
1.0
 10
932.84602330139865
 20
-1127.8758050941549
 30
0.0
 41
1.0
 10
932.83301754892182
 20
-1127.8865001946006
 30
0.0
 41
1.0
 10
932.69865576593963
 20
-1127.9969907461941
 30
0.0
 41
0.999503511231755
 10
932.57151988817623
 20
-1128.1157245632089
 30
0.0
 41
1.0
 10
932.56187257778925
 20
-1128.1247343093664
 30
0.0
 41
1.0
 10
932.55222526740215
 20
-1128.1337440555242
 30
0.0
 41
1.0
 10
932.42880220463576
 20
-1128.2490104272811
 30
0.0
 41
0.9994630424299194
 10
932.31319379885235
 20
-1128.3721131705158
 30
0.0
 41
1.0
 10
932.30951096007936
 20
-1128.3760347500306
 30
0.0
 41
1.0
 10
932.30582812130638
 20
-1128.3799563295452
 30
0.0
 41
1.0
 10
932.19758539306804
 20
-1128.4952159137513
 30
0.0
 41
0.9995160693750079
 10
932.09671936353641
 20
-1128.6169833316235
 30
0.0
 41
1.0
 10
932.09478564345432
 20
-1128.6193177558332
 30
0.0
 41
1.0
 10
932.09285192337234
 20
-1128.6216521800429
 30
0.0
 41
1.0
 10
931.99585333400148
 20
-1128.7387507494998
 30
0.0
 41
0.9996561470513669
 10
931.90512711533859
 20
-1128.8607735119454
 30
0.0
 41
1.0
 10
931.89896944944167
 20
-1128.869055300981
 30
0.0
 41
1.0
 10
931.89281178354474
 20
-1128.8773370900165
 30
0.0
 41
1.0
 10
931.81440089667603
 20
-1128.9827962743902
 30
0.0
 41
0.999834905517498
 10
931.73987361474042
 20
-1129.0910348580578
 30
0.0
 41
1.0
 10
931.66534633280833
 20
-1129.1992734417213
 30
0.0
 41
0.9999728109569525
 10
931.59242343689971
 20
-1129.3085993672739
 30
0.0
 41
1.0
 10
931.59110822148716
 20
-1129.3105711367778
 30
0.0
 41
1.0
 10
931.58979300607461
 20
-1129.3125429062816
 30
0.0
 41
1.0
 10
931.51423967930441
 20
-1129.4258123708969
 30
0.0
 41
0.9999972147301891
 10
931.43922186891848
 20
-1129.5394372137509
 30
0.0
 41
1.0
 10
931.43425032632035
 20
-1129.5469673021867
 30
0.0
 41
1.0
 10
931.42927878372222
 20
-1129.5544973906221
 30
0.0
 41
1.0
 10
931.34431788810082
 20
-1129.6831824104065
 30
0.0
 41
0.9999371979003354
 10
931.26226253869982
 20
-1129.8137393241791
 30
0.0
 41
1.0
 10
931.25875365433751
 20
-1129.819322252245
 30
0.0
 41
1.0
 10
931.25524476997521
 20
-1129.8249051803109
 30
0.0
 41
1.0
 10
931.16617165184812
 20
-1129.9666279502171
 30
0.0
 41
0.9998272025610335
 10
931.08242826096432
 20
-1130.1115638269621
 30
0.0
 41
1.0
 10
931.06721308894043
 20
-1130.1378969414186
 30
0.0
 41
1.0
 10
931.05199791691643
 20
-1130.1642300558751
 30
0.0
 41
1.0
 10
930.93782418198521
 20
-1130.3618321615331
 30
0.0
 41
0.9995217214838156
 10
930.83608449242865
 20
-1130.5661144893973
 30
0.0
 41
1.0
 10
930.82844092979337
 20
-1130.5814619391008
 30
0.0
 41
1.0
 10
930.82079736715809
 20
-1130.5968093888041
 30
0.0
 41
1.0
 10
930.73389207456978
 20
-1130.7713058468826
 30
0.0
 41
0.9998269762608258
 10
930.65353760829885
 20
-1130.9489141336039
 30
0.0
 41
1.0
 10
930.57318314202746
 20
-1131.1265224203257
 30
0.0
 41
0.9998944747387333
 10
930.49802234746335
 20
-1131.3063901459536
 30
0.0
 41
1.0
 10
930.49306867787254
 20
-1131.3182448008699
 30
0.0
 41
1.0
 10
930.48811500828185
 20
-1131.3300994557862
 30
0.0
 41
1.0
 10
930.40746794772997
 20
-1131.5230963958024
 30
0.0
 41
0.9999506734405658
 10
930.33067041882305
 20
-1131.717657200667
 30
0.0
 41
1.0
 10
930.31607045354895
 20
-1131.754645122481
 30
0.0
 41
1.0
 10
930.30147048827496
 20
-1131.7916330442949
 30
0.0
 41
1.0
 10
930.25387288990919
 20
-1131.9122180055492
 30
0.0
 41
0.9999912393908398
 10
930.2072864458969
 20
-1132.0331972082188
 30
0.0
 41
1.0
 10
930.16070000187869
 20
-1132.1541764109038
 30
0.0
 41
0.9999927113952615
 10
930.11503870748879
 20
-1132.2755078183936
 30
0.0
 41
1.0
 10
930.10107027608683
 20
-1132.3126248004041
 30
0.0
 41
1.0
 10
930.08710184468487
 20
-1132.3497417824144
 30
0.0
 41
1.0
 10
930.01350368749399
 20
-1132.5453071539173
 30
0.0
 41
0.9999487550951857
 10
929.94388006252143
 20
-1132.7423225191023
 30
0.0
 41
1.0
 10
929.92028645258233
 20
-1132.8090858294017
 30
0.0
 41
1.0
 10
929.89669284264312
 20
-1132.8758491397009
 30
0.0
 41
1.0
 10
929.80200720827929
 20
-1133.1437829745064
 30
0.0
 41
0.9999808436928037
 10
929.71064561963772
 20
-1133.4128684057716
 30
0.0
 41
1.0
 10
929.61928403098977
 20
-1133.6819538370555
 30
0.0
 41
0.9999873932912217
 10
929.53062932227238
 20
-1133.9519431920673
 30
0.0
 41
1.0
 10
929.51053696540589
 20
-1134.0131325248112
 30
0.0
 41
1.0
 10
929.49044460853952
 20
-1134.0743218575553
 30
0.0
 41
1.0
 10
929.36160518608472
 20
-1134.4666898780674
 30
0.0
 41
0.9999794883033821
 10
929.23780240112683
 20
-1134.8606760843452
 30
0.0
 41
1.0
 10
929.22665014168501
 20
-1134.8961666945961
 30
0.0
 41
1.0
 10
929.21549788224308
 20
-1134.9316573048468
 30
0.0
 41
1.0
 10
929.07293971836282
 20
-1135.385330056879
 30
0.0
 41
0.9999982761760426
 10
928.93206727833694
 20
-1135.8395290790356
 30
0.0
 41
1.0
 10
927.34392694576434
 20
-1140.888298810039
 30
0.0
 41
1.0
 10
925.75578661319173
 20
-1145.9370685410422
 30
0.0
 41
1.0
 10
924.80703600171535
 20
-1145.9370685410422
 30
0.0
 41
1.0
 10
923.85828539023896
 20
-1145.9370685410422
 30
0.0
 41
1.0
 10
927.0965698763921
 20
-1135.6097463410961
 30
0.0
 41
1.0
 10
930.33485436254534
 20
-1125.2824241411499
 30
0.0
 41
1.0
  0
LWPOLYLINE
  5
5B
100
AcDbEntity
  8
0
370
              15
390
0
  6
Continuous
 62
               7
100
AcDbPolyline
 90
      232
 70
             128
 10
904.6313085887183
 20
-1126.3667669726651
 42
0.0004370800673067
 10
904.57843141489968
 20
-1126.4354336115916
 10
904.53914718351882
 20
-1126.486540724818
 42
0.0030481992174464
 10
904.40880846640528
 20
-1126.6582624171547
 10
904.37029679464922
 20
-1126.7096492009503
 42
0.0042058245762581
 10
904.166311743969
 20
-1126.9866549460385
 10
904.11390662147869
 20
-1127.0590877928048
 42
0.0120948898743795
 10
903.81786270471946
 20
-1127.4898373973504
 10
903.72167020559459
 20
-1127.6373181325798
 42
0.0141601263949539
 10
903.41802615867334
 20
-1128.132987469314
 10
903.37848889124177
 20
-1128.2018314367554
 42
0.0071131081303701
 10
903.17321656800891
 20
-1128.5713342355839
 42
0.006845879100363
 10
902.9783370411642
 20
-1128.9464257990633
 10
902.97152517870813
 20
-1128.9599875127838
 42
0.0064120880289321
 10
902.77338292866875
 20
-1129.3674119876921
 10
902.76584824314682
 20
-1129.3834238444238
 42
0.0058857236447069
 10
902.56309285127986
 20
-1129.827799955448
 10
902.55491792498117
 20
-1129.8462901090927
 42
0.0053189741895426
 10
902.3462136123137
 20
-1130.3322535830102
 10
902.33746580663228
 20
-1130.3532354612066
 42
0.0047503650417163
 10
902.12149208048163
 20
-1130.8854348944158
 10
902.1122238321334
 20
-1130.9089112705242
 42
0.0042071762169246
 10
901.88767644840107
 20
-1131.4920048646061
 10
901.87792704605704
 20
-1131.5179710394636
 42
0.0036680086485526
 10
901.64347240274253
 20
-1132.1566064240021
 10
901.63326462289717
 20
-1132.1850549583396
 42
0.0032573142629085
 10
901.38763233692953
 20
-1132.8839076180957
 10
901.3189818160821
 20
-1133.0833707021684
 42
0.0026133366651475
 10
900.97053661733185
 20
-1134.1132339858177
 10
900.90727982984026
 20
-1134.3034648211833
 42
0.0020592950738655
 10
900.69341676086401
 20
-1134.9555684738239
 10
900.69036496970364
 20
-1134.9650049622251
 42
0.0025609928534144
 10
900.48854446821508
 20
-1135.6001501845994
 10
900.48595310108954
 20
-1135.6084525255362
 42
0.0031362356242708
 10
900.29646231541142
 20
-1136.2292153817195
 10
900.29433127248512
 20
-1136.2363566879269
 42
0.0037229918028091
 10
900.1175308855577
 20
-1136.8453419899047
 10
900.11585229635807
 20
-1136.8512888800551
 42
0.0043077623707057
 10
899.95211149428621
 20
-1137.4511076118483
 42
0.0047654161823719
 10
899.79928277176998
 20
-1138.0537937007516
 10
899.76481816293108
 20
-1138.1953554779002
 42
0.0112969368443985
 10
899.56895380478772
 20
-1139.0870476385235
 10
899.54094741569088
 20
-1139.2298756846224
 42
0.0130056762570143
 10
899.34011017204421
 20
-1140.4168167562673
 10
899.3195704218972
 20
-1140.5608948697441
 42
0.0138721532144765
 10
899.21586741735928
 20
-1141.46772435557
 10
899.19657192945124
 20
-1141.6912220774971
 42
0.0071254697009216
 10
899.16322528352885
 20
-1142.1544090863422
 10
899.15826430936579
 20
-1142.2404130808973
 42
0.0028881799202405
 10
899.14312601607571
 20
-1142.5321547907452
 42
0.0060297297135192
 10
899.13319381630004
 20
-1142.8241037268633
 10
899.132131534633
 20
-1142.872496098794
 42
0.0229523164157654
 10
899.13986256241878
 20
-1143.1952509450766
 10
899.14408833593916
 20
-1143.2556544790921
 42
0.0123673300666883
 10
899.16316698245748
 20
-1143.4567752042676
 42
0.0128577674466876
 10
899.19236237286361
 20
-1143.6566730541938
 10
899.19948824625078
 20
-1143.6980018687914
 42
0.0285717853764428
 10
899.26398224794673
 20
-1143.9761180201053
 10
899.27765077161291
 20
-1144.0227727895817
 42
0.0316283099153442
 10
899.39346135152709
 20
-1144.3417872914076
 10
899.39651004328209
 20
-1144.3487736637319
 42
0.0338984824235347
 10
899.54594175424984
 20
-1144.6363396279223
 10
899.54825048361965
 20
-1144.6401306571981
 42
0.0350228718354458
 10
899.73061077429327
 20
-1144.8971826418751
 10
899.73149602606918
 20
-1144.8982617196402
 42
0.0347476747528735
 10
899.9459207133084
 20
-1145.1254467668591
 42
0.0331337701910885
 10
900.1891640390553
 20
-1145.321575428937
 10
900.19026413757092
 20
-1145.3223481321093
 42
0.0305233319080685
 10
900.45880883314385
 20
-1145.4874763022001
 10
900.46203887764545
 20
-1145.4892003140631
 42
0.0273744481156737
 10
900.75459258921956
 20
-1145.6253384579534
 10
900.75969712435733
 20
-1145.6273820424233
 42
0.0240964406197151
 10
901.07517420000249
 20
-1145.7363657687042
 10
901.08175752921306
 20
-1145.7382905083796
 42
0.0209636179814765
 10
901.41915768186561
 20
-1145.8217586563117
 10
901.4267901423143
 20
-1145.8233105693132
 42
0.0181388704696026
 10
901.78511253431532
 20
-1145.8827266625274
 10
901.79339338269097
 20
-1145.8837928463442
 42
0.0156086547586451
 10
902.17158074687757
 20
-1145.9205290329207
 10
902.21477599921116
 20
-1145.9233675354001
 42
0.0137148329027
 10
902.54244914450567
 20
-1145.9358877906511
 10
902.58838533443202
 20
-1145.9363822237663
 42
0.0051057823880372
 10
902.82453092102389
 20
-1145.9365124781757
 42
0.0052256693307688
 10
903.06062820479553
 20
-1145.9317636537116
 10
903.13085498855196
 20
-1145.9296166876973
 42
0.0161507179050478
 10
903.50659206665762
 20
-1145.9059663173703
 10
903.52660502702633
 20
-1145.9040561220831
 42
0.0101216737835456
 10
903.94063224852164
 20
-1145.8560631917169
 10
903.97468553794374
 20
-1145.851415494908
 42
0.0245291776397815
 10
904.45147519349428
 20
-1145.7623404168319
 10
904.53629850901746
 20
-1145.7421444964862
 42
0.0143509212559327
 10
904.89292961295848
 20
-1145.646339862707
 42
0.0156557857039044
 10
905.24314567768488
 20
-1145.5293286468886
 10
905.25064689218038
 20
-1145.526558485134
 42
0.0170137333632208
 10
905.60724288786469
 20
-1145.3809008702617
 10
905.61434681026924
 20
-1145.3777130346994
 42
0.0183105364406933
 10
905.97369647843368
 20
-1145.2003779928762
 10
905.98064324307427
 20
-1145.196627558003
 42
0.0194899958147727
 10
906.33912398405573
 20
-1144.9846485761138
 10
906.34613786339492
 20
-1144.9801232338173
 42
0.0204869852949481
 10
906.70015216548927
 20
-1144.7306032187312
 10
906.70741777407591
 20
-1144.7250231533831
 42
0.0212516938557088
 10
907.05340770518512
 20
-1144.4351191564872
 10
907.09992439925941
 20
-1144.3926518463948
 42
0.0215248918251187
 10
907.35995056814727
 20
-1144.1338875674001
 10
907.40498030253264
 20
-1144.0850434460449
 42
0.0114578554964937
 10
907.55977245620511
 20
-1143.9092205125921
 10
907.57096699218675
 20
-1143.8959017490527
 42
0.0061531305128753
 10
907.69744163818621
 20
-1143.741612215741
 42
0.0006325587128527
 10
907.82182012243879
 20
-1143.5856088399382
 10
907.84486025738943
 20
-1143.5566353194058
 42
0.0041897761550645
 10
908.0133156613557
 20
-1143.3411159433526
 10
908.07177778125435
 20
-1143.2650145963589
 42
0.0092993880037902
 10
908.34838970847568
 20
-1142.890735832478
 10
908.43078420167535
 20
-1142.7747988289086
 42
0.0159321727084718
 10
908.77739068431936
 20
-1142.2526246081502
 10
908.82174681971344
 20
-1142.1809450438921
 42
0.0085547317022965
 10
909.05625858503413
 20
-1141.7870700946755
 42
0.0084601156888278
 10
909.27723476247718
 20
-1141.3854432456419
 10
909.28535023630661
 20
-1141.3700835633704
 42
0.0081429654285146
 10
909.50859950674453
 20
-1140.9303620508288
 10
909.51745967092813
 20
-1140.9121832088103
 42
0.0076574581328414
 10
909.74386718149549
 20
-1140.4290003335557
 10
909.75334682221853
 20
-1140.407935855254
 42
0.0070682724201337
 10
909.98379173003093
 20
-1139.8758985504596
 10
909.99378201400702
 20
-1139.8519093614614
 42
0.0064559514448629
 10
910.22911522218863
 20
-1139.2655970949422
 10
910.23952458035365
 20
-1139.2386621695
 42
0.0058311413908564
 10
910.48057131711812
 20
-1138.5926300751119
 10
910.49132639450397
 20
-1138.562745733956
 42
0.0052312425819163
 10
910.73890767254409
 20
-1137.8515433201233
 10
910.7499515089246
 20
-1137.8187166080515
 42
0.004668054479812
 10
911.00487993666172
 20
-1137.0368902922885
 10
911.04687208670566
 20
-1136.9039070549952
 42
0.0041666856445124
 10
911.25015809909769
 20
-1136.2409382799992
 10
911.28782053975385
 20
-1136.1143571723715
 42
0.0015170975152472
 10
911.40900711817449
 20
-1135.7024888208518
 42
-0.0004887993114331
 10
911.52934689130927
 20
-1135.2903704087701
 10
911.60582414879264
 20
-1135.0294130228688
 42
0.0002583378927582
 10
911.87903871872788
 20
-1134.0953563201317
 10
911.96081156844411
 20
-1133.8152570600705
 42
0.0006636169672884
 10
912.1546793284449
 20
-1133.1479041365196
 10
912.1597759827871
 20
-1133.1302725536564
 42
0.0010589131322541
 10
912.34122468370856
 20
-1132.4975412105907
 10
912.34620675418705
 20
-1132.4800283035777
 42
0.001565552446104
 10
912.51447696137188
 20
-1131.8814116243698
 10
912.51930716178651
 20
-1131.8640194654354
 42
0.0021640440477992
 10
912.67359713377277
 20
-1131.2989924474159
 10
912.67823135321282
 20
-1131.2817277173845
 42
0.0028763871853908
 10
912.81774707125578
 20
-1130.7497597665749
 10
912.82213293541895
 20
-1130.7326357884363
 42
0.0037310511946347
 10
912.94608962725988
 20
-1130.2331881943965
 10
912.9501648475474
 20
-1130.2162279231572
 42
0.0047652197767386
 10
913.05778874805731
 20
-1129.748750154846
 10
913.06147934737851
 20
-1129.7319905997058
 42
0.0060276699300607
 10
913.15200944653429
 20
-1129.2959148045518
 10
913.15522813682264
 20
-1129.2794135902466
 42
0.0075824337760148
 10
913.22791744623896
 20
-1128.8741464258164
 10
913.23056282362018
 20
-1128.85799147836
 42
0.0095130624607494
 10
913.28467805925038
 20
-1128.482902125294
 10
913.29166428313215
 20
-1128.4269685671845
 42
0.0121054653226375
 10
913.3182556137109
 20
-1128.1620727387037
 10
913.3191221034707
 20
-1128.150669295771
 42
0.0069050827379765
 10
913.3342109215082
 20
-1127.9077280689303
 10
913.33534622117634
 20
-1127.8842018118928
 42
0.0169063976696568
 10
913.33817350015693
 20
-1127.6880090845848
 10
913.33700284862527
 20
-1127.6276733232155
 42
0.0052007732939028
 10
913.33474940003271
 20
-1127.5520799330836
 42
0.0054038123290727
 10
913.31478588819493
 20
-1127.4320616370799
 10
913.30970003232346
 20
-1127.4034031504925
 42
0.0112050460458748
 10
913.27431567026531
 20
-1127.2270767121554
 10
913.25649070822419
 20
-1127.1475351254326
 42
0.0240764468012997
 10
913.16559334207761
 20
-1126.8172980899303
 10
913.14703457926475
 20
-1126.7606779249381
 42
0.0256812331835511
 10
913.00367165907505
 20
-1126.3889537186803
 10
912.99826223325397
 20
-1126.3768223836912
 42
0.0268360501216091
 10
912.82883499240381
 20
-1126.0458292496696
 10
912.82329858476874
 20
-1126.0363095793573
 42
0.0274670231732347
 10
912.6310976083555
 20
-1125.7440222044402
 10
912.62571630839284
 20
-1125.7367430568988
 42
0.027503596710191
 10
912.41414342883104
 20
-1125.4812271665946
 10
912.40907392786437
 20
-1125.475748078964
 42
0.0269557673524298
 10
912.18167038442493
 20
-1125.2551057930018
 10
912.17692732664261
 20
-1125.2509758385413
 42
0.0259124802209506
 10
911.93737249521155
 20
-1125.0632853113889
 10
911.93284165003001
 20
-1125.0600998090588
 42
0.0245162152999382
 10
911.68492529693481
 20
-1124.9033667999479
 10
911.68039875061231
 20
-1124.9008066027479
 42
0.0229282588829616
 10
911.42797919378324
 20
-1124.7729384102481
 10
911.42319869994799
 20
-1124.7707861104868
 42
0.0212984135693415
 10
911.17016074748472
 20
-1124.6695871932438
 10
911.16485646251635
 20
-1124.6677236304843
 42
0.0197555462339049
 10
910.91507812479222
 20
-1124.590908212519
 42
0.0183511896788014
 10
910.66014939932688
 20
-1124.5333253055533
 10
910.57378420260522
 20
-1124.5171225151685
 42
0.0338057877152051
 10
910.28827685334579
 20
-1124.4833141100285
 10
910.19727144830802
 20
-1124.4787344547672
 42
0.0091990524494166
 10
910.09142433966986
 20
-1124.4753585988449
 42
0.0028333980778339
 10
909.98551042364579
 20
-1124.4745304913279
 10
909.98459497062754
 20
-1124.474528521504
 42
-0.0023619827806244
 10
909.87684895551763
 20
-1124.4737876804256
 10
909.84044378534577
 20
-1124.4733653739627
 42
0.000882459848058
 10
909.6598877955613
 20
-1124.4715895957249
 10
909.61602636308999
 20
-1124.4712356341988
 42
0.0038132665772496
 10
909.34774346720508
 20
-1124.4711166981322
 10
909.33120981241768
 20
-1124.4712354642757
 42
0.0060665569335053
 10
909.02992932083032
 20
-1124.4770557636964
 10
909.01567898880103
 20
-1124.477504071664
 42
0.0080356953335901
 10
908.68622027246158
 20
-1124.4931717937309
 10
908.67415025737455
 20
-1124.4939403766714
 42
0.0098996399107852
 10
908.32138717271744
 20
-1124.5234256058702
 10
908.31134146334898
 20
-1124.5244659020677
 42
0.0117740981366849
 10
907.9401846050016
 20
-1124.5717581495974
 10
907.93196190851768
 20
-1124.5730032661684
 42
0.0137435215132716
 10
907.54737308903236
 20
-1124.6421002397299
 10
907.54071604990918
 20
-1124.6434861359635
 42
0.015835986938505
 10
907.14771895610386
 20
-1124.7383782244451
 10
907.14230576923956
 20
-1124.7398681653149
 42
0.0180554124024902
 10
906.74599072462911
 20
-1124.8645061815528
 10
906.74143393654379
 20
-1124.8661222178198
 42
0.0203657431281409
 10
906.34695641873452
 20
-1125.0243825593348
 10
906.3428128797251
 20
-1125.0262441807777
 42
0.0226819684655179
 10
905.95537682352256
 20
-1125.2218867594479
 10
905.95117703250332
 20
-1125.2242523513682
 42
0.0248634984607396
 10
905.57599509132115
 20
-1125.4608789973163
 10
905.52780016254019
 20
-1125.49473603914
 42
0.026704419088432
 10
905.25350746562162
 20
-1125.7101764150093
 42
0.0139303002197112
 10
904.99734029968204
 20
-1125.9474152559221
 10
904.9924869139619
 20
-1125.9521679187815
 42
0.0283460963443838
 10
904.74841431973289
 20
-1126.2198985792288
 10
904.70874581457815
 20
-1126.2687001566997
 42
0.0070695364826206
 10
904.6313085887183
 20
-1126.3667669726651
 42
0.0070695364826206
  0
LWPOLYLINE
  5
5C
100
AcDbEntity
  8
0
370
              15
390
0
  6
Continuous
 62
               7
100
AcDbPolyline
 90
      226
 70
             128
 10
901.1024881514719
 20
-1142.0883557788491
 42
-0.0026277636637293
 10
901.10241026767164
 20
-1142.0215838531499
 10
901.10262762590389
 20
-1141.9684286356628
 42
-0.0088680296731726
 10
901.10640424219696
 20
-1141.7954128532594
 10
901.10875060130934
 20
-1141.7361328278062
 42
-0.0077381705620025
 10
901.12479671207177
 20
-1141.444872332019
 10
901.1256646232456
 20
-1141.4325840983229
 42
-0.0068872530535633
 10
901.15229670299311
 20
-1141.1173623462598
 10
901.15350092717983
 20
-1141.1051213672354
 42
-0.0062130021486571
 10
901.19109464400913
 20
-1140.7662516759847
 10
901.19259854754273
 20
-1140.7540778040802
 42
-0.0056726929662634
 10
901.24152040704621
 20
-1140.3918825819585
 10
901.24329385268948
 20
-1140.3797887817213
 42
-0.0052341884490512
 10
901.3039044389493
 20
-1139.9945955262042
 10
901.30592242772605
 20
-1139.9825905962111
 42
-0.004976845016873
 10
901.37866110915286
 20
-1139.5747460287762
 10
901.40291012387422
 20
-1139.4461980457727
 42
-0.0089029805623816
 10
901.5399909756685
 20
-1138.7844225983522
 10
901.5727363509875
 20
-1138.6393911678267
 42
-0.0080318257099376
 10
901.80228496532777
 20
-1137.6936815359745
 10
901.81426989177646
 20
-1137.6475509007828
 42
-0.0074265721317263
 10
902.09828143062941
 20
-1136.6174863223921
 10
902.11816097374174
 20
-1136.5493522618176
 42
-0.0069711922702076
 10
902.44546555224974
 20
-1135.4830845214851
 10
902.50541749935303
 20
-1135.2970631631213
 42
-0.0052070422896356
 10
902.73484272461451
 20
-1134.6097910860831
 10
902.75212391678713
 20
-1134.5597638054649
 42
-0.0009167004448015
 10
902.95521580407626
 20
-1133.975307957312
 42
-0.0025162726942028
 10
903.16231343435049
 20
-1133.3922666931167
 10
903.19953804614318
 20
-1133.2891171472468
 42
-0.0028212681457656
 10
903.44771396510737
 20
-1132.6133865150728
 10
903.45754472785495
 20
-1132.5870790704043
 42
-0.0031964916820981
 10
903.69383698552031
 20
-1131.9668743082691
 10
903.70347143952006
 20
-1131.942064318124
 42
-0.003628183645294
 10
903.9285774006205
 20
-1131.3746236372326
 10
903.93801581077525
 20
-1131.3513262057365
 42
-0.0041269166834884
 10
904.15263350743714
 20
-1130.8338853097516
 10
904.18526646385772
 20
-1130.7570068633911
 42
-0.0047472213057193
 10
904.34231126941154
 20
-1130.3965853955071
 10
904.3492053506294
 20
-1130.3811647981536
 42
-0.0025651659993232
 10
904.49756338446991
 20
-1130.0538367424267
 42
-0.0057144634992413
 10
904.65131307823515
 20
-1129.7290270690767
 10
904.67934378364339
 20
-1129.6715186866679
 42
-0.0065388068371398
 10
904.86281081138225
 20
-1129.307286190005
 10
904.87126926716155
 20
-1129.2910266106339
 42
-0.0074510843021984
 10
905.0474515130386
 20
-1128.9643383295129
 10
905.05563118356974
 20
-1128.9496975522438
 42
-0.0084648979862536
 10
905.22526503666973
 20
-1128.6577885412828
 10
905.23312116315833
 20
-1128.644781549631
 42
-0.0095638542806676
 10
905.396956610752
 20
-1128.3848926776534
 10
905.40443155442119
 20
-1128.373523316202
 42
-0.0107191626805827
 10
905.5632331348113
 20
-1128.1429120816538
 10
905.57024986854083
 20
-1128.1331759892912
 42
-0.0118458573904062
 10
905.72479796705488
 20
-1127.9291037939786
 42
-0.0129184518195805
 10
905.88925059065218
 20
-1127.7329432778131
 10
905.91939536301959
 20
-1127.6988171989087
 42
-0.0217742579632099
 10
906.09600768535483
 20
-1127.5156104286584
 10
906.10675322981217
 20
-1127.5053935954584
 42
-0.0097266568647515
 10
906.27281084867104
 20
-1127.3535460210182
 42
-0.0187720905718907
 10
906.44715842456128
 20
-1127.2114771676286
 10
906.47786441523135
 20
-1127.1883180852353
 42
-0.0179428207520635
 10
906.71028513523083
 20
-1127.0257659081212
 10
906.71393746214744
 20
-1127.0234019732329
 42
-0.017004787769893
 10
906.94970109967699
 20
-1126.8819414590821
 10
906.95348408842199
 20
-1126.8798431540467
 42
-0.0160190788372591
 10
907.19039263605885
 20
-1126.7581918520577
 42
-0.0151102861493652
 10
907.43442441850584
 20
-1126.6515090760029
 10
907.48681092071729
 20
-1126.6304689431083
 42
-0.0271945441887612
 10
907.84547347977684
 20
-1126.5086041324021
 10
907.91453828026499
 20
-1126.4892545911357
 42
-0.023759659402035
 10
908.33033512728616
 20
-1126.3938038791543
 10
908.39839798101548
 20
-1126.3815491910279
 42
-0.0213715440556063
 10
908.68427291246189
 20
-1126.3426021595178
 10
908.74442007867469
 20
-1126.3370124448174
 42
-0.010146565582051
 10
908.91191261067399
 20
-1126.3248689015527
 10
908.92125299687393
 20
-1126.3243819865554
 42
-0.0100375910877379
 10
909.07040709743478
 20
-1126.3196061686303
 10
909.08066636712192
 20
-1126.3194837296157
 42
-0.0103625633371802
 10
909.20937436176996
 20
-1126.3206151631425
 10
909.2316400130411
 20
-1126.3212725216076
 42
-0.0115689250226757
 10
909.31569075056484
 20
-1126.3257020278525
 42
-0.0072438037440603
 10
909.3995290299963
 20
-1126.3332912276012
 10
909.41632953947681
 20
-1126.3350577703261
 42
-0.0217917313133963
 10
909.53289930279334
 20
-1126.3524776630479
 10
909.59849939335788
 20
-1126.3652242714618
 42
-0.033294355675469
 10
909.80289155838545
 20
-1126.4192645627686
 10
909.83306412693514
 20
-1126.429432639887
 42
-0.0184824084792156
 10
909.97156918340102
 20
-1126.4818836552736
 42
-0.019800205069274
 10
910.10564352390031
 20
-1126.544767715473
 10
910.10753016127728
 20
-1126.5457455023529
 42
-0.0212242342976478
 10
910.23966910367892
 20
-1126.6215082411459
 10
910.2414843992226
 20
-1126.6226540433545
 42
-0.0226090605800814
 10
910.36998830044445
 20
-1126.7121336869191
 10
910.37183274218182
 20
-1126.7135459399065
 42
-0.0238457052241118
 10
910.49501482347443
 20
-1126.8175418357685
 10
910.49696755203377
 20
-1126.8193567135349
 42
-0.0248160564157578
 10
910.61316905933381
 20
-1126.9386313147431
 10
910.61527269273643
 20
-1126.9410166484481
 42
-0.0254109591454363
 10
910.7228779106016
 20
-1127.0763050344115
 10
910.72512593251645
 20
-1127.079446582813
 42
-0.0255528488286009
 10
910.8225726113136
 20
-1127.231473637047
 10
910.82490371122981
 20
-1127.2355552486547
 42
-0.0252146793219466
 10
910.91068473723908
 20
-1127.4050574946523
 10
910.9129869763965
 20
-1127.4102395765647
 42
-0.0244265635947584
 10
910.9856416701582
 20
-1127.5979861486117
 10
910.99488807162584
 20
-1127.6258515669474
 42
-0.0231319612906952
 10
911.04081085061841
 20
-1127.7891526137507
 42
-0.0112130424346792
 10
911.07544687315783
 20
-1127.9553562139452
 10
911.07664939826918
 20
-1127.9618528008268
 42
-0.0210527881238766
 10
911.10233587363984
 20
-1128.1429084462666
 10
911.10584646846178
 20
-1128.1783139948152
 42
-0.0190029892425873
 10
911.12128794200635
 20
-1128.4318498410842
 10
911.12209791845044
 20
-1128.4673254554564
 42
-0.0137974553662197
 10
911.12054906561502
 20
-1128.7923568621864
 10
911.11970361065949
 20
-1128.8184756067778
 42
-0.0081336634214893
 10
911.10484427543679
 20
-1129.123823074382
 42
-0.0073526923568619
 10
911.08053574206133
 20
-1129.4285713186766
 10
911.07927431827943
 20
-1129.4419079933332
 42
-0.0066886138693831
 10
911.04353873223317
 20
-1129.772494036828
 10
911.04188164276297
 20
-1129.786115655822
 42
-0.0061359187358706
 10
910.99403104071234
 20
-1130.1428796359203
 10
910.99199353963922
 20
-1130.1567744387512
 42
-0.0056698610065469
 10
910.93134320887407
 20
-1130.540053007579
 10
910.92893777554923
 20
-1130.5542121268199
 42
-0.0052721077271363
 10
910.85480557474978
 20
-1130.9643394664968
 10
910.85204242590783
 20
-1130.9787561018838
 42
-0.0049289272173546
 10
910.76374830780628
 20
-1131.4160646130131
 10
910.76063581312519
 20
-1131.430733465822
 42
-0.0047415956715098
 10
910.65739782159687
 20
-1131.8955302232152
 10
910.62262961123315
 20
-1132.0453373186158
 42
-0.008440447090532
 10
910.432613167662
 20
-1132.8055613431443
 10
910.42648647967565
 20
-1132.8284254673003
 42
-0.0039635940257239
 10
910.20503279539037
 20
-1133.629414331552
 10
910.19165600021211
 20
-1133.6763459481394
 42
-0.0072475040837797
 10
909.92420911235195
 20
-1134.5655656645206
 10
909.85399678552176
 20
-1134.7873060145018
 42
-0.00513454588291
 10
909.56723741346275
 20
-1135.6616312023129
 10
909.54571114669784
 20
-1135.7250574694351
 42
-0.0019150016602395
 10
909.29017773982855
 20
-1136.468606589669
 10
909.28371013543733
 20
-1136.4871940545756
 42
-0.0021524362752913
 10
909.03523208436854
 20
-1137.1915198762986
 10
909.02602166367899
 20
-1137.2172734545807
 42
-0.0024331286818874
 10
908.78976640463611
 20
-1137.867872762718
 10
908.78071845208967
 20
-1137.8924160690613
 42
-0.002744972179032
 10
908.55610388125012
 20
-1138.4915459479969
 10
908.54721387386417
 20
-1138.5148685378326
 42
-0.0031083229769494
 10
908.33367138724793
 20
-1139.0647925754288
 10
908.32493525556629
 20
-1139.0868822913021
 42
-0.0035311343280478
 10
908.1218940699805
 20
-1139.5898654170167
 10
908.11330873083364
 20
-1139.610708140525
 42
-0.0040245640951205
 10
907.92019692703843
 20
-1140.0690174631195
 10
907.91176081343349
 20
-1140.0885968311961
 42
-0.0046015135850075
 10
907.72800452027161
 20
-1140.5045018608337
 10
907.7197183424546
 20
-1140.5227990002609
 42
-0.0052768638271696
 10
907.5447408234877
 20
-1140.8985718845561
 10
907.53660861286346
 20
-1140.9155652230936
 42
-0.006067267564616
 10
907.3698290000948
 20
-1141.2534808462135
 10
907.36185951961727
 20
-1141.2691461052029
 42
-0.0069904648873768
 10
907.20269112561186
 20
-1141.5714819118743
 10
907.19489972599717
 20
-1141.5857924611087
 42
-0.0080637022765107
 10
907.0427478656552
 20
-1141.8548277642549
 10
907.03515883302339
 20
-1141.8677556298567
 42
-0.0093006455663528
 10
906.88941815649241
 20
-1142.1057700283586
 10
906.88206748975517
 20
-1142.1172879975218
 42
-0.0107060778062254
 10
906.74211894631026
 20
-1142.3265583149109
 10
906.73505717803187
 20
-1142.3366438574751
 42
-0.0122723111414798
 10
906.6002634598326
 20
-1142.5194371869657
 10
906.59993723628293
 20
-1142.5198575747697
 42
-0.0141836319638258
 10
906.45635563330438
 20
-1142.6944273326048
 10
906.44940787765643
 20
-1142.7024023328649
 42
-0.0175957477213586
 10
906.30950170961773
 20
-1142.8520232212745
 42
-0.0080466359665821
 10
906.16203794458329
 20
-1142.9943457494298
 10
906.1160034000701
 20
-1143.0373661875169
 42
-0.0269600260396811
 10
905.86272315408917
 20
-1143.2496894460246
 10
905.79615601779392
 20
-1143.2996408606471
 42
-0.0178362839758176
 10
905.55621152813433
 20
-1143.4666587869024
 10
905.54896655713208
 20
-1143.4713272991085
 42
-0.0174650732649946
 10
905.31263035969255
 20
-1143.6121882640664
 42
-0.0169240130163439
 10
905.06716411383627
 20
-1143.7364805238433
 10
905.02117795827712
 20
-1143.757842479411
 42
-0.0318883036843563
 10
904.67082710265834
 20
-1143.8941807889207
 10
904.60246156748974
 20
-1143.9158814093973
 42
-0.0284435909901779
 10
904.22641144120132
 20
-1144.0120988448712
 10
904.19125328070527
 20
-1144.0189924406991
 42
-0.0243909341018172
 10
903.87780981978381
 20
-1144.0647134717299
 10
903.82752909301007
 20
-1144.0695590186317
 42
-0.0196639292930216
 10
903.61193351548536
 20
-1144.0818073041451
 10
903.5601094443191
 20
-1144.0827105648818
 42
-0.0100501510680955
 10
903.44768616265765
 20
-1144.0824101665287
 10
903.41602630131388
 20
-1144.0816890946433
 42
-0.0019752031124531
 10
903.36693396463227
 20
-1144.0803769344338
 10
903.36417366139517
 20
-1144.0802922426071
 42
0.0065378752034438
 10
903.32059708665543
 20
-1144.0795253513925
 42
-0.0167974694633583
 10
903.27706626372094
 20
-1144.0778654528663
 10
903.27298692446152
 20
-1144.0775724419714
 42
-0.0081283276281829
 10
903.22142712672178
 20
-1144.0730254483335
 10
903.20968755284434
 20
-1144.0717975307552
 42
-0.0126703440168276
 10
903.13496925704783
 20
-1144.0620627396834
 10
903.1121813893742
 20
-1144.0585044837685
 42
-0.0117852088429872
 10
902.99264240354
 20
-1144.0369414886111
 10
902.93726195177874
 20
-1144.0255979483768
 42
-0.0251774592291272
 10
902.71041791277014
 20
-1143.9670999389436
 10
902.66569872291939
 20
-1143.9531331196085
 42
-0.0146525199881746
 10
902.47930573538133
 20
-1143.8888665924105
 42
-0.0166929435854472
 10
902.29732807925416
 20
-1143.8130594593556
 10
902.29267144798155
 20
-1143.8109345587418
 42
-0.0191684358442267
 10
902.10748781673283
 20
-1143.7176984749519
 10
902.10415523097527
 20
-1143.7158572273984
 42
-0.0221181781810398
 10
901.92084492707136
 20
-1143.6037237290266
 10
901.91849512306464
 20
-1143.6021394310367
 42
-0.0254984685381096
 10
901.74220497267891
 20
-1143.4697282810666
 10
901.71972282497745
 20
-1143.4509759721309
 42
-0.0292492648805153
 10
901.59495388613436
 20
-1143.3338831724877
 42
-0.0159048957502045
 10
901.48111388868585
 20
-1143.2058631808907
 10
901.47979509810489
 20
-1143.2042815678687
 42
-0.0343813379563146
 10
901.37715783647832
 20
-1143.0624102420986
 10
901.34566630511813
 20
-1143.0119068500055
 42
-0.0369117275704985
 10
901.25977380322058
 20
-1142.8484296090567
 42
-0.0191751379908045
 10
901.19258041766341
 20
-1142.6760250030502
 10
901.19081709390412
 20
-1142.6709316583758
 42
-0.0378178042236778
 10
901.14102237511986
 20
-1142.4819908822949
 10
901.13502707938926
 20
-1142.4494302640962
 42
-0.0184846046479276
 10
901.11430988009511
 20
-1142.3076774435526
 42
-0.0179866351324244
 10
901.10397687502143
 20
-1142.1647866304695
 10
901.10392043257571
 20
-1142.1632289438589
 42
-0.0085497186109472
 10
901.1024881514719
 20
-1142.0883557788491
 42
-0.0085497186109472
  0
ENDBLK
  5
5D
100
AcDbEntity
  8
template
390
0
100
AcDbBlockEnd
  0
BLOCK
  5
5E
100
AcDbEntity
  8
notes
390
0
100
AcDbBlockBegin
  2
*D2
 70
               1
 10
0.0
 20
0.0
 30
0.0
  3
*D2
  1

  0
LINE
  5
5F
100
AcDbEntity
  8
0
370
              -2
390
0
  6
Continuous
 62
               0
100
AcDbLine
 10
-245.68814252878792
 20
815.73715968448573
 30
0.0
 11
-245.68814252878792
 21
892.74358461872271
 31
0.0
  0
LINE
  5
60
100
AcDbEntity
  8
0
370
              -2
390
0
  6
Continuous
 62
               0
100
AcDbLine
 10
-695.65681149926831
 20
816.04509199932556
 30
0.0
 11
-695.65681149926831
 21
892.74358461872271
 31
0.0
  0
LINE
  5
61
100
AcDbEntity
  8
0
370
              -2
390
0
  6
Continuous
 62
               0
100
AcDbLine
 10
-245.68814252878792
 20
892.74358461872271
 30
0.0
 11
-695.65681149926831
 21
892.74358461872271
 31
0.0
  0
CIRCLE
  5
62
102
{ACAD_REACTORS
330
63
102
}
100
AcDbEntity
  8
0
370
              -2
390
0
  6
Continuous
 62
               0
100
AcDbCircle
 10
-245.68814252878792
 20
892.74358461872271
 30
0.0
 40
4.99969482421875
  0
HATCH
  5
63
100
AcDbEntity
  8
0
370
              -2
390
0
  6
Continuous
 62
               0
100
AcDbHatch
 10
0.0
 20
0.0
 30
0.0
210
0.0
220
0.0
230
1.0
  2
SOLID
 70
               1
 71
               1
 91
        1
 92
        1
 93
        1
 72
               2
 10
-245.68814252878792
 20
892.74358461872271
 40
4.99969482421875
 50
0.0
 51
360.0
 73
               0
 97
        1
330
62
 75
               0
 76
               1
 98
        1
 10
0.0
 20
0.0
  0
CIRCLE
  5
64
102
{ACAD_REACTORS
330
65
102
}
100
AcDbEntity
  8
0
370
              -2
390
0
  6
Continuous
 62
               0
100
AcDbCircle
 10
-695.65681149926831
 20
892.74358461872271
 30
0.0
 40
4.99969482421875
  0
HATCH
  5
65
100
AcDbEntity
  8
0
370
              -2
390
0
  6
Continuous
 62
               0
100
AcDbHatch
 10
0.0
 20
0.0
 30
0.0
210
0.0
220
0.0
230
1.0
  2
SOLID
 70
               1
 71
               1
 91
        1
 92
        1
 93
        1
 72
               2
 10
-695.65681149926831
 20
892.74358461872271
 40
4.99969482421875
 50
0.0
 51
360.0
 73
               0
 97
        1
330
64
 75
               0
 76
               1
 98
        1
 10
0.0
 20
0.0
  0
MTEXT
  5
66
100
AcDbEntity
  8
0
390
0
 62
               0
100
AcDbMText
 10
-494.48497869620365
 20
926.62120180622264
 30
0.0
 40
24.432617187500004
 41
0.0
 71
               1
 72
               1
  1
450
  7
ＭＳ ゴシック
 73
               1
 44
0.7828267384257843
  0
POINT
  5
67
100
AcDbEntity
  8
Defpoints
370
               0
390
0
 62
               0
100
AcDbPoint
 10
-695.65681149926831
 20
791.04509199932556
 30
0.0
  0
POINT
  5
68
100
AcDbEntity
  8
Defpoints
370
               0
390
0
 62
               0
100
AcDbPoint
 10
-245.68814252878792
 20
790.73715968448573
 30
0.0
  0
POINT
  5
69
100
AcDbEntity
  8
Defpoints
370
               0
390
0
 62
               0
100
AcDbPoint
 10
-245.68814252878792
 20
892.74358461872271
 30
0.0
  0
ENDBLK
  5
6A
100
AcDbEntity
  8
notes
390
0
100
AcDbBlockEnd
  0
BLOCK
  5
6B
100
AcDbEntity
  8
notes
390
0
100
AcDbBlockBegin
  2
*D3
 70
               1
 10
0.0
 20
0.0
 30
0.0
  3
*D3
  1

  0
LINE
  5
6C
100
AcDbEntity
  8
0
370
              -2
390
0
  6
Continuous
 62
               0
100
AcDbLine
 10
-222.53221136949514
 20
792.72834603606316
 30
0.0
 11
-145.68814252878792
 21
792.72834603606316
 31
0.0
  0
LINE
  5
6D
100
AcDbEntity
  8
0
370
              -2
390
0
  6
Continuous
 62
               0
100
AcDbLine
 10
-441.43200948790036
 20
382.76281485886955
 30
0.0
 11
-145.68814252878792
 21
382.76281485886955
 31
0.0
  0
LINE
  5
6E
100
AcDbEntity
  8
0
370
              -2
390
0
  6
Continuous
 62
               0
100
AcDbLine
 10
-145.68814252878792
 20
792.72834603606316
 30
0.0
 11
-145.68814252878792
 21
382.76281485886955
 31
0.0
  0
CIRCLE
  5
6F
102
{ACAD_REACTORS
330
70
102
}
100
AcDbEntity
  8
0
370
              -2
390
0
  6
Continuous
 62
               0
100
AcDbCircle
 10
-145.68814252878792
 20
792.72834603606316
 30
0.0
 40
4.99969482421875
  0
HATCH
  5
70
100
AcDbEntity
  8
0
370
              -2
390
0
  6
Continuous
 62
               0
100
AcDbHatch
 10
0.0
 20
0.0
 30
0.0
210
0.0
220
0.0
230
1.0
  2
SOLID
 70
               1
 71
               1
 91
        1
 92
        1
 93
        1
 72
               2
 10
-145.68814252878792
 20
792.72834603606316
 40
4.99969482421875
 50
0.0
 51
360.0
 73
               0
 97
        1
330
6F
 75
               0
 76
               1
 98
        1
 10
0.0
 20
0.0
  0
CIRCLE
  5
71
102
{ACAD_REACTORS
330
72
102
}
100
AcDbEntity
  8
0
370
              -2
390
0
  6
Continuous
 62
               0
100
AcDbCircle
 10
-145.68814252878792
 20
382.76281485886955
 30
0.0
 40
4.99969482421875
  0
HATCH
  5
72
100
AcDbEntity
  8
0
370
              -2
390
0
  6
Continuous
 62
               0
100
AcDbHatch
 10
0.0
 20
0.0
 30
0.0
210
0.0
220
0.0
230
1.0
  2
SOLID
 70
               1
 71
               1
 91
        1
 92
        1
 93
        1
 72
               2
 10
-145.68814252878792
 20
382.76281485886955
 40
4.99969482421875
 50
0.0
 51
360.0
 73
               0
 97
        1
330
71
 75
               0
 76
               1
 98
        1
 10
0.0
 20
0.0
  0
MTEXT
  5
73
100
AcDbEntity
  8
0
390
0
 62
               0
100
AcDbMText
 10
-179.56575971628791
 20
563.93307876529093
 30
0.0
 40
24.432617187500004
 41
0.0
 71
               1
 72
               1
  1
410
  7
ＭＳ ゴシック
 11
0.0
 21
1.0
 31
0.0
 73
               1
 44
0.7828267384257843
  0
POINT
  5
74
100
AcDbEntity
  8
Defpoints
370
               0
390
0
 62
               0
100
AcDbPoint
 10
-466.43200948790036
 20
382.76281485886955
 30
0.0
  0
POINT
  5
75
100
AcDbEntity
  8
Defpoints
370
               0
390
0
 62
               0
100
AcDbPoint
 10
-247.53221136949514
 20
792.72834603606316
 30
0.0
  0
POINT
  5
76
100
AcDbEntity
  8
Defpoints
370
               0
390
0
 62
               0
100
AcDbPoint
 10
-145.68814252878792
 20
792.72834603606316
 30
0.0
  0
ENDBLK
  5
77
100
AcDbEntity
  8
notes
390
0
100
AcDbBlockEnd
  0
BLOCK
  5
78
100
AcDbEntity
  8
notes
390
0
100
AcDbBlockBegin
  2
*D4
 70
               1
 10
0.0
 20
0.0
 30
0.0
  3
*D4
  1

  0
LINE
  5
79
100
AcDbEntity
  8
0
370
              -2
390
0
  6
Continuous
 62
               0
100
AcDbLine
 10
-715.1588141246134
 20
682.72834603606316
 30
0.0
 11
-795.67303128271169
 21
682.72834603606316
 31
0.0
  0
LINE
  5
7A
100
AcDbEntity
  8
0
370
              -2
390
0
  6
Continuous
 62
               0
100
AcDbLine
 10
-714.68334298395621
 20
452.72834603606316
 30
0.0
 11
-795.67303128271169
 21
452.72834603606316
 31
0.0
  0
LINE
  5
7B
100
AcDbEntity
  8
0
370
              -2
390
0
  6
Continuous
 62
               0
100
AcDbLine
 10
-795.67303128271169
 20
682.72834603606316
 30
0.0
 11
-795.67303128271169
 21
452.72834603606316
 31
0.0
  0
CIRCLE
  5
7C
102
{ACAD_REACTORS
330
7D
102
}
100
AcDbEntity
  8
0
370
              -2
390
0
  6
Continuous
 62
               0
100
AcDbCircle
 10
-795.67303128271169
 20
682.72834603606316
 30
0.0
 40
4.99969482421875
  0
HATCH
  5
7D
100
AcDbEntity
  8
0
370
              -2
390
0
  6
Continuous
 62
               0
100
AcDbHatch
 10
0.0
 20
0.0
 30
0.0
210
0.0
220
0.0
230
1.0
  2
SOLID
 70
               1
 71
               1
 91
        1
 92
        1
 93
        1
 72
               2
 10
-795.67303128271169
 20
682.72834603606316
 40
4.99969482421875
 50
0.0
 51
360.0
 73
               0
 97
        1
330
7C
 75
               0
 76
               1
 98
        1
 10
0.0
 20
0.0
  0
CIRCLE
  5
7E
102
{ACAD_REACTORS
330
7F
102
}
100
AcDbEntity
  8
0
370
              -2
390
0
  6
Continuous
 62
               0
100
AcDbCircle
 10
-795.67303128271169
 20
452.72834603606316
 30
0.0
 40
4.99969482421875
  0
HATCH
  5
7F
100
AcDbEntity
  8
0
370
              -2
390
0
  6
Continuous
 62
               0
100
AcDbHatch
 10
0.0
 20
0.0
 30
0.0
210
0.0
220
0.0
230
1.0
  2
SOLID
 70
               1
 71
               1
 91
        1
 92
        1
 93
        1
 72
               2
 10
-795.67303128271169
 20
452.72834603606316
 40
4.99969482421875
 50
0.0
 51
360.0
 73
               0
 97
        1
330
7E
 75
               0
 76
               1
 98
        1
 10
0.0
 20
0.0
  0
MTEXT
  5
80
100
AcDbEntity
  8
0
390
0
 62
               0
100
AcDbMText
 10
-829.55064847021174
 20
543.91584435388768
 30
0.0
 40
24.432617187500004
 41
0.0
 71
               1
 72
               1
  1
230
  7
ＭＳ ゴシック
 11
0.0
 21
1.0
 31
0.0
 73
               1
 44
0.7828267384257843
  0
POINT
  5
81
100
AcDbEntity
  8
Defpoints
370
               0
390
0
 62
               0
100
AcDbPoint
 10
-689.68334298395621
 20
452.72834603606316
 30
0.0
  0
POINT
  5
82
100
AcDbEntity
  8
Defpoints
370
               0
390
0
 62
               0
100
AcDbPoint
 10
-690.1588141246134
 20
682.72834603606316
 30
0.0
  0
POINT
  5
83
100
AcDbEntity
  8
Defpoints
370
               0
390
0
 62
               0
100
AcDbPoint
 10
-795.67303128271169
 20
682.72834603606316
 30
0.0
  0
ENDBLK
  5
84
100
AcDbEntity
  8
notes
390
0
100
AcDbBlockEnd
  0
BLOCK
  5
85
100
AcDbEntity
  8
notes
390
0
100
AcDbBlockBegin
  2
*D5
 70
               1
 10
0.0
 20
0.0
 30
0.0
  3
*D5
  1

  0
LINE
  5
86
100
AcDbEntity
  8
0
370
              -2
390
0
  6
Continuous
 62
               0
100
AcDbLine
 10
-718.67211850488752
 20
792.74358461872259
 30
0.0
 11
-747.68058690574981
 21
792.74358461872259
 31
0.0
  0
LINE
  5
87
100
AcDbEntity
  8
0
370
              -2
390
0
  6
Continuous
 62
               0
100
AcDbLine
 10
-720.65843679004615
 20
707.74358461872259
 30
0.0
 11
-747.68058690574981
 21
707.74358461872259
 31
0.0
  0
LINE
  5
88
100
AcDbEntity
  8
0
370
              -2
390
0
  6
Continuous
 62
               0
100
AcDbLine
 10
-747.68058690574981
 20
792.74358461872259
 30
0.0
 11
-747.68058690574981
 21
707.74358461872259
 31
0.0
  0
CIRCLE
  5
89
102
{ACAD_REACTORS
330
8A
102
}
100
AcDbEntity
  8
0
370
              -2
390
0
  6
Continuous
 62
               0
100
AcDbCircle
 10
-747.68058690574981
 20
792.74358461872259
 30
0.0
 40
4.99969482421875
  0
HATCH
  5
8A
100
AcDbEntity
  8
0
370
              -2
390
0
  6
Continuous
 62
               0
100
AcDbHatch
 10
0.0
 20
0.0
 30
0.0
210
0.0
220
0.0
230
1.0
  2
SOLID
 70
               1
 71
               1
 91
        1
 92
        1
 93
        1
 72
               2
 10
-747.68058690574981
 20
792.74358461872259
 40
4.99969482421875
 50
0.0
 51
360.0
 73
               0
 97
        1
330
89
 75
               0
 76
               1
 98
        1
 10
0.0
 20
0.0
  0
CIRCLE
  5
8B
102
{ACAD_REACTORS
330
8C
102
}
100
AcDbEntity
  8
0
370
              -2
390
0
  6
Continuous
 62
               0
100
AcDbCircle
 10
-747.68058690574981
 20
707.74358461872259
 30
0.0
 40
4.99969482421875
  0
HATCH
  5
8C
100
AcDbEntity
  8
0
370
              -2
390
0
  6
Continuous
 62
               0
100
AcDbHatch
 10
0.0
 20
0.0
 30
0.0
210
0.0
220
0.0
230
1.0
  2
SOLID
 70
               1
 71
               1
 91
        1
 92
        1
 93
        1
 72
               2
 10
-747.68058690574981
 20
707.74358461872259
 40
4.99969482421875
 50
0.0
 51
360.0
 73
               0
 97
        1
330
8B
 75
               0
 76
               1
 98
        1
 10
0.0
 20
0.0
  0
MTEXT
  5
8D
100
AcDbEntity
  8
0
390
0
 62
               0
100
AcDbMText
 10
-781.55820409324986
 20
734.36858461872259
 30
0.0
 40
24.432617187500004
 41
0.0
 71
               1
 72
               1
  1
85
  7
ＭＳ ゴシック
 11
0.0
 21
1.0
 31
0.0
 73
               1
 44
0.7828267384257843
  0
POINT
  5
8E
100
AcDbEntity
  8
Defpoints
370
               0
390
0
 62
               0
100
AcDbPoint
 10
-695.65843679004615
 20
707.74358461872259
 30
0.0
  0
POINT
  5
8F
100
AcDbEntity
  8
Defpoints
370
               0
390
0
 62
               0
100
AcDbPoint
 10
-693.67211850488752
 20
792.74358461872259
 30
0.0
  0
POINT
  5
90
100
AcDbEntity
  8
Defpoints
370
               0
390
0
 62
               0
100
AcDbPoint
 10
-747.68058690574981
 20
792.74358461872259
 30
0.0
  0
ENDBLK
  5
91
100
AcDbEntity
  8
notes
390
0
100
AcDbBlockEnd
  0
BLOCK
  5
92
100
AcDbEntity
  8
notes
390
0
100
AcDbBlockBegin
  2
*D6
 70
               1
 10
0.0
 20
0.0
 30
0.0
  3
*D6
  1

  0
LINE
  5
93
100
AcDbEntity
  8
0
370
              -2
390
0
  6
Continuous
 62
               0
100
AcDbLine
 10
-695.61814280361841
 20
426.78455085483631
 30
0.0
 11
-695.61814280361841
 21
282.76281485886955
 31
0.0
  0
LINE
  5
94
100
AcDbEntity
  8
0
370
              -2
390
0
  6
Continuous
 62
               0
100
AcDbLine
 10
-640.61814280361841
 20
378.81812917685943
 30
0.0
 11
-640.61814280361841
 21
282.76281485886955
 31
0.0
  0
LINE
  5
95
100
AcDbEntity
  8
0
370
              -2
390
0
  6
Continuous
 62
               0
100
AcDbLine
 10
-695.61814280361841
 20
282.76281485886955
 30
0.0
 11
-640.61814280361841
 21
282.76281485886955
 31
0.0
  0
CIRCLE
  5
96
102
{ACAD_REACTORS
330
97
102
}
100
AcDbEntity
  8
0
370
              -2
390
0
  6
Continuous
 62
               0
100
AcDbCircle
 10
-695.61814280361841
 20
282.76281485886955
 30
0.0
 40
4.99969482421875
  0
HATCH
  5
97
100
AcDbEntity
  8
0
370
              -2
390
0
  6
Continuous
 62
               0
100
AcDbHatch
 10
0.0
 20
0.0
 30
0.0
210
0.0
220
0.0
230
1.0
  2
SOLID
 70
               1
 71
               1
 91
        1
 92
        1
 93
        1
 72
               2
 10
-695.61814280361841
 20
282.76281485886955
 40
4.99969482421875
 50
0.0
 51
360.0
 73
               0
 97
        1
330
96
 75
               0
 76
               1
 98
        1
 10
0.0
 20
0.0
  0
CIRCLE
  5
98
102
{ACAD_REACTORS
330
99
102
}
100
AcDbEntity
  8
0
370
              -2
390
0
  6
Continuous
 62
               0
100
AcDbCircle
 10
-640.61814280361841
 20
282.76281485886955
 30
0.0
 40
4.99969482421875
  0
HATCH
  5
99
100
AcDbEntity
  8
0
370
              -2
390
0
  6
Continuous
 62
               0
100
AcDbHatch
 10
0.0
 20
0.0
 30
0.0
210
0.0
220
0.0
230
1.0
  2
SOLID
 70
               1
 71
               1
 91
        1
 92
        1
 93
        1
 72
               2
 10
-640.61814280361841
 20
282.76281485886955
 40
4.99969482421875
 50
0.0
 51
360.0
 73
               0
 97
        1
330
98
 75
               0
 76
               1
 98
        1
 10
0.0
 20
0.0
  0
MTEXT
  5
9A
100
AcDbEntity
  8
0
390
0
 62
               0
100
AcDbMText
 10
-683.99314280361841
 20
316.6404320463696
 30
0.0
 40
24.432617187500004
 41
0.0
 71
               1
 72
               1
  1
55
  7
ＭＳ ゴシック
 73
               1
 44
0.7828267384257843
  0
POINT
  5
9B
100
AcDbEntity
  8
Defpoints
370
               0
390
0
 62
               0
100
AcDbPoint
 10
-640.61814280361841
 20
403.81812917685943
 30
0.0
  0
POINT
  5
9C
100
AcDbEntity
  8
Defpoints
370
               0
390
0
 62
               0
100
AcDbPoint
 10
-695.61814280361841
 20
451.78455085483631
 30
0.0
  0
POINT
  5
9D
100
AcDbEntity
  8
Defpoints
370
               0
390
0
 62
               0
100
AcDbPoint
 10
-695.61814280361841
 20
282.76281485886955
 30
0.0
  0
ENDBLK
  5
9E
100
AcDbEntity
  8
notes
390
0
100
AcDbBlockEnd
  0
BLOCK
  5
9F
100
AcDbEntity
  8
notes
390
0
100
AcDbBlockBegin
  2
*D7
 70
               1
 10
0.0
 20
0.0
 30
0.0
  3
*D7
  1

  0
LINE
  5
A0
100
AcDbEntity
  8
0
370
              -2
390
0
  6
Continuous
 62
               0
100
AcDbLine
 10
-640.61814280361841
 20
353.81812917685943
 30
0.0
 11
-640.61814280361841
 21
282.76281485886955
 31
0.0
  0
LINE
  5
A1
100
AcDbEntity
  8
0
370
              -2
390
0
  6
Continuous
 62
               0
100
AcDbLine
 10
-300.61814280361841
 20
378.78455085483631
 30
0.0
 11
-300.61814280361841
 21
282.76281485886955
 31
0.0
  0
LINE
  5
A2
100
AcDbEntity
  8
0
370
              -2
390
0
  6
Continuous
 62
               0
100
AcDbLine
 10
-640.61814280361841
 20
282.76281485886955
 30
0.0
 11
-300.61814280361841
 21
282.76281485886955
 31
0.0
  0
CIRCLE
  5
A3
102
{ACAD_REACTORS
330
A4
102
}
100
AcDbEntity
  8
0
370
              -2
390
0
  6
Continuous
 62
               0
100
AcDbCircle
 10
-640.61814280361841
 20
282.76281485886955
 30
0.0
 40
4.99969482421875
  0
HATCH
  5
A4
100
AcDbEntity
  8
0
370
              -2
390
0
  6
Continuous
 62
               0
100
AcDbHatch
 10
0.0
 20
0.0
 30
0.0
210
0.0
220
0.0
230
1.0
  2
SOLID
 70
               1
 71
               1
 91
        1
 92
        1
 93
        1
 72
               2
 10
-640.61814280361841
 20
282.76281485886955
 40
4.99969482421875
 50
0.0
 51
360.0
 73
               0
 97
        1
330
A3
 75
               0
 76
               1
 98
        1
 10
0.0
 20
0.0
  0
CIRCLE
  5
A5
102
{ACAD_REACTORS
330
A6
102
}
100
AcDbEntity
  8
0
370
              -2
390
0
  6
Continuous
 62
               0
100
AcDbCircle
 10
-300.61814280361841
 20
282.76281485886955
 30
0.0
 40
4.99969482421875
  0
HATCH
  5
A6
100
AcDbEntity
  8
0
370
              -2
390
0
  6
Continuous
 62
               0
100
AcDbHatch
 10
0.0
 20
0.0
 30
0.0
210
0.0
220
0.0
230
1.0
  2
SOLID
 70
               1
 71
               1
 91
        1
 92
        1
 93
        1
 72
               2
 10
-300.61814280361841
 20
282.76281485886955
 40
4.99969482421875
 50
0.0
 51
360.0
 73
               0
 97
        1
330
A5
 75
               0
 76
               1
 98
        1
 10
0.0
 20
0.0
  0
MTEXT
  5
A7
100
AcDbEntity
  8
0
390
0
 62
               0
100
AcDbMText
 10
-480.49308858792534
 20
316.6404320463696
 30
0.0
 40
24.432617187500004
 41
0.0
 71
               1
 72
               1
  1
340
  7
ＭＳ ゴシック
 73
               1
 44
0.7828267384257843
  0
POINT
  5
A8
100
AcDbEntity
  8
Defpoints
370
               0
390
0
 62
               0
100
AcDbPoint
 10
-300.61814280361841
 20
403.78455085483631
 30
0.0
  0
POINT
  5
A9
100
AcDbEntity
  8
Defpoints
370
               0
390
0
 62
               0
100
AcDbPoint
 10
-640.61814280361841
 20
378.81812917685943
 30
0.0
  0
POINT
  5
AA
100
AcDbEntity
  8
Defpoints
370
               0
390
0
 62
               0
100
AcDbPoint
 10
-640.61814280361841
 20
282.76281485886955
 30
0.0
  0
ENDBLK
  5
AB
100
AcDbEntity
  8
notes
390
0
100
AcDbBlockEnd
  0
BLOCK
  5
AC
100
AcDbEntity
  8
notes
390
0
100
AcDbBlockBegin
  2
*D8
 70
               1
 10
0.0
 20
0.0
 30
0.0
  3
*D8
  1

  0
LINE
  5
AD
100
AcDbEntity
  8
0
370
              -2
390
0
  6
Continuous
 62
               0
100
AcDbLine
 10
-740.1588141246134
 20
682.72834603606316
 30
0.0
 11
-795.67303128271169
 21
682.72834603606316
 31
0.0
  0
LINE
  5
AE
100
AcDbEntity
  8
0
370
              -2
390
0
  6
Continuous
 62
               0
100
AcDbLine
 10
-743.82896244200447
 20
792.72834603606316
 30
0.0
 11
-795.67303128271169
 21
792.72834603606316
 31
0.0
  0
LINE
  5
AF
100
AcDbEntity
  8
0
370
              -2
390
0
  6
Continuous
 62
               0
100
AcDbLine
 10
-795.67303128271169
 20
682.72834603606316
 30
0.0
 11
-795.67303128271169
 21
792.72834603606316
 31
0.0
  0
CIRCLE
  5
B0
102
{ACAD_REACTORS
330
B1
102
}
100
AcDbEntity
  8
0
370
              -2
390
0
  6
Continuous
 62
               0
100
AcDbCircle
 10
-795.67303128271169
 20
682.72834603606316
 30
0.0
 40
4.99969482421875
  0
HATCH
  5
B1
100
AcDbEntity
  8
0
370
              -2
390
0
  6
Continuous
 62
               0
100
AcDbHatch
 10
0.0
 20
0.0
 30
0.0
210
0.0
220
0.0
230
1.0
  2
SOLID
 70
               1
 71
               1
 91
        1
 92
        1
 93
        1
 72
               2
 10
-795.67303128271169
 20
682.72834603606316
 40
4.99969482421875
 50
0.0
 51
360.0
 73
               0
 97
        1
330
B0
 75
               0
 76
               1
 98
        1
 10
0.0
 20
0.0
  0
CIRCLE
  5
B2
102
{ACAD_REACTORS
330
B3
102
}
100
AcDbEntity
  8
0
370
              -2
390
0
  6
Continuous
 62
               0
100
AcDbCircle
 10
-795.67303128271169
 20
792.72834603606316
 30
0.0
 40
4.99969482421875
  0
HATCH
  5
B3
100
AcDbEntity
  8
0
370
              -2
390
0
  6
Continuous
 62
               0
100
AcDbHatch
 10
0.0
 20
0.0
 30
0.0
210
0.0
220
0.0
230
1.0
  2
SOLID
 70
               1
 71
               1
 91
        1
 92
        1
 93
        1
 72
               2
 10
-795.67303128271169
 20
792.72834603606316
 40
4.99969482421875
 50
0.0
 51
360.0
 73
               0
 97
        1
330
B2
 75
               0
 76
               1
 98
        1
 10
0.0
 20
0.0
  0
MTEXT
  5
B4
100
AcDbEntity
  8
0
390
0
 62
               0
100
AcDbMText
 10
-829.55064847021174
 20
713.91584435388768
 30
0.0
 40
24.432617187500004
 41
0.0
 71
               1
 72
               1
  1
110
  7
ＭＳ ゴシック
 11
0.0
 21
1.0
 31
0.0
 73
               1
 44
0.7828267384257843
  0
POINT
  5
B5
100
AcDbEntity
  8
Defpoints
370
               0
390
0
 62
               0
100
AcDbPoint
 10
-718.82896244200447
 20
792.72834603606316
 30
0.0
  0
POINT
  5
B6
100
AcDbEntity
  8
Defpoints
370
               0
390
0
 62
               0
100
AcDbPoint
 10
-715.1588141246134
 20
682.72834603606316
 30
0.0
  0
POINT
  5
B7
100
AcDbEntity
  8
Defpoints
370
               0
390
0
 62
               0
100
AcDbPoint
 10
-795.67303128271169
 20
682.72834603606316
 30
0.0
  0
ENDBLK
  5
B8
100
AcDbEntity
  8
notes
390
0
100
AcDbBlockEnd
  0
BLOCK
  5
B9
100
AcDbEntity
  8
notes
390
0
100
AcDbBlockBegin
  2
*D9
 70
               1
 10
0.0
 20
0.0
 30
0.0
  3
*D9
  1

  0
LINE
  5
BA
100
AcDbEntity
  8
0
370
              -2
390
0
  6
Continuous
 62
               0
100
AcDbLine
 10
-561.35324117122991
 20
-385.17457291641301
 30
0.0
 11
-561.35324117122991
 21
-283.16500649399336
 31
0.0
  0
LINE
  5
BB
100
AcDbEntity
  8
0
370
              -2
390
0
  6
Continuous
 62
               0
100
AcDbLine
 10
-381.34826135683488
 20
-385.17457291641301
 30
0.0
 11
-381.34826135683488
 21
-283.16500649399336
 31
0.0
  0
LINE
  5
BC
100
AcDbEntity
  8
0
370
              -2
390
0
  6
Continuous
 62
               0
100
AcDbLine
 10
-561.35324117122991
 20
-283.16500649399336
 30
0.0
 11
-381.34826135683488
 21
-283.16500649399336
 31
0.0
  0
CIRCLE
  5
BD
102
{ACAD_REACTORS
330
BE
102
}
100
AcDbEntity
  8
0
370
              -2
390
0
  6
Continuous
 62
               0
100
AcDbCircle
 10
-561.35324117122991
 20
-283.16500649399336
 30
0.0
 40
4.99969482421875
  0
HATCH
  5
BE
100
AcDbEntity
  8
0
370
              -2
390
0
  6
Continuous
 62
               0
100
AcDbHatch
 10
0.0
 20
0.0
 30
0.0
210
0.0
220
0.0
230
1.0
  2
SOLID
 70
               1
 71
               1
 91
        1
 92
        1
 93
        1
 72
               2
 10
-561.35324117122991
 20
-283.16500649399336
 40
4.99969482421875
 50
0.0
 51
360.0
 73
               0
 97
        1
330
BD
 75
               0
 76
               1
 98
        1
 10
0.0
 20
0.0
  0
CIRCLE
  5
BF
102
{ACAD_REACTORS
330
C0
102
}
100
AcDbEntity
  8
0
370
              -2
390
0
  6
Continuous
 62
               0
100
AcDbCircle
 10
-381.34826135683488
 20
-283.16500649399336
 30
0.0
 40
4.99969482421875
  0
HATCH
  5
C0
100
AcDbEntity
  8
0
370
              -2
390
0
  6
Continuous
 62
               0
100
AcDbHatch
 10
0.0
 20
0.0
 30
0.0
210
0.0
220
0.0
230
1.0
  2
SOLID
 70
               1
 71
               1
 91
        1
 92
        1
 93
        1
 72
               2
 10
-381.34826135683488
 20
-283.16500649399336
 40
4.99969482421875
 50
0.0
 51
360.0
 73
               0
 97
        1
330
BF
 75
               0
 76
               1
 98
        1
 10
0.0
 20
0.0
  0
MTEXT
  5
C1
100
AcDbEntity
  8
0
390
0
 62
               0
100
AcDbMText
 10
-495.16325294620793
 20
-249.28738930649337
 30
0.0
 40
24.432617187500004
 41
0.0
 71
               1
 72
               1
  1
180
  7
ＭＳ ゴシック
 73
               1
 44
0.7828267384257843
  0
POINT
  5
C2
100
AcDbEntity
  8
Defpoints
370
               0
390
0
 62
               0
100
AcDbPoint
 10
-381.34826135683488
 20
-410.17457291641301
 30
0.0
  0
POINT
  5
C3
100
AcDbEntity
  8
Defpoints
370
               0
390
0
 62
               0
100
AcDbPoint
 10
-561.35324117122991
 20
-410.17457291641301
 30
0.0
  0
POINT
  5
C4
100
AcDbEntity
  8
Defpoints
370
               0
390
0
 62
               0
100
AcDbPoint
 10
-561.35324117122991
 20
-283.16500649399336
 30
0.0
  0
ENDBLK
  5
C5
100
AcDbEntity
  8
notes
390
0
100
AcDbBlockEnd
  0
BLOCK
  5
C6
100
AcDbEntity
  8
notes
390
0
100
AcDbBlockBegin
  2
*D10
 70
               1
 10
0.0
 20
0.0
 30
0.0
  3
*D10
  1

  0
LINE
  5
C7
100
AcDbEntity
  8
0
370
              -2
390
0
  6
Continuous
 62
               0
100
AcDbLine
 10
-609.77004842346969
 20
-428.16625144759212
 30
0.0
 11
-795.83015887567808
 21
-428.16625144759212
 31
0.0
  0
LINE
  5
C8
100
AcDbEntity
  8
0
370
              -2
390
0
  6
Continuous
 62
               0
100
AcDbLine
 10
-714.47851026340368
 20
-383.16500649399336
 30
0.0
 11
-795.83015887567808
 21
-383.16500649399336
 31
0.0
  0
LINE
  5
C9
100
AcDbEntity
  8
0
370
              -2
390
0
  6
Continuous
 62
               0
100
AcDbLine
 10
-795.83015887567808
 20
-428.16625144759212
 30
0.0
 11
-795.83015887567808
 21
-383.16500649399336
 31
0.0
  0
CIRCLE
  5
CA
102
{ACAD_REACTORS
330
CB
102
}
100
AcDbEntity
  8
0
370
              -2
390
0
  6
Continuous
 62
               0
100
AcDbCircle
 10
-795.83015887567808
 20
-428.16625144759212
 30
0.0
 40
4.99969482421875
  0
HATCH
  5
CB
100
AcDbEntity
  8
0
370
              -2
390
0
  6
Continuous
 62
               0
100
AcDbHatch
 10
0.0
 20
0.0
 30
0.0
210
0.0
220
0.0
230
1.0
  2
SOLID
 70
               1
 71
               1
 91
        1
 92
        1
 93
        1
 72
               2
 10
-795.83015887567808
 20
-428.16625144759212
 40
4.99969482421875
 50
0.0
 51
360.0
 73
               0
 97
        1
330
CA
 75
               0
 76
               1
 98
        1
 10
0.0
 20
0.0
  0
CIRCLE
  5
CC
102
{ACAD_REACTORS
330
CD
102
}
100
AcDbEntity
  8
0
370
              -2
390
0
  6
Continuous
 62
               0
100
AcDbCircle
 10
-795.83015887567808
 20
-383.16500649399336
 30
0.0
 40
4.99969482421875
  0
HATCH
  5
CD
100
AcDbEntity
  8
0
370
              -2
390
0
  6
Continuous
 62
               0
100
AcDbHatch
 10
0.0
 20
0.0
 30
0.0
210
0.0
220
0.0
230
1.0
  2
SOLID
 70
               1
 71
               1
 91
        1
 92
        1
 93
        1
 72
               2
 10
-795.83015887567808
 20
-383.16500649399336
 40
4.99969482421875
 50
0.0
 51
360.0
 73
               0
 97
        1
330
CC
 75
               0
 76
               1
 98
        1
 10
0.0
 20
0.0
  0
MTEXT
  5
CE
100
AcDbEntity
  8
0
390
0
 62
               0
100
AcDbMText
 10
-829.70777606317813
 20
-421.54062897079274
 30
0.0
 40
24.432617187500004
 41
0.0
 71
               1
 72
               1
  1
45
  7
ＭＳ ゴシック
 11
0.0
 21
1.0
 31
0.0
 73
               1
 44
0.7828267384257843
  0
POINT
  5
CF
100
AcDbEntity
  8
Defpoints
370
               0
390
0
 62
               0
100
AcDbPoint
 10
-689.47851026340368
 20
-383.16500649399336
 30
0.0
  0
POINT
  5
D0
100
AcDbEntity
  8
Defpoints
370
               0
390
0
 62
               0
100
AcDbPoint
 10
-584.77004842346969
 20
-428.16625144759212
 30
0.0
  0
POINT
  5
D1
100
AcDbEntity
  8
Defpoints
370
               0
390
0
 62
               0
100
AcDbPoint
 10
-795.83015887567808
 20
-428.16625144759212
 30
0.0
  0
ENDBLK
  5
D2
100
AcDbEntity
  8
notes
390
0
100
AcDbBlockEnd
  0
BLOCK
  5
D3
100
AcDbEntity
  8
notes
390
0
100
AcDbBlockBegin
  2
*D11
 70
               1
 10
0.0
 20
0.0
 30
0.0
  3
*D11
  1

  0
LINE
  5
D4
100
AcDbEntity
  8
0
370
              -2
390
0
  6
Continuous
 62
               0
100
AcDbLine
 10
-419.18058690574981
 20
-533.16500649399336
 30
0.0
 11
-146.75484070826383
 21
-533.16500649399336
 31
0.0
  0
LINE
  5
D5
100
AcDbEntity
  8
0
370
              -2
390
0
  6
Continuous
 62
               0
100
AcDbLine
 10
-227.31419189103462
 20
-383.16500649399336
 30
0.0
 11
-146.75484070826383
 21
-383.16500649399336
 31
0.0
  0
LINE
  5
D6
100
AcDbEntity
  8
0
370
              -2
390
0
  6
Continuous
 62
               0
100
AcDbLine
 10
-146.75484070826383
 20
-533.16500649399336
 30
0.0
 11
-146.75484070826383
 21
-383.16500649399336
 31
0.0
  0
CIRCLE
  5
D7
102
{ACAD_REACTORS
330
D8
102
}
100
AcDbEntity
  8
0
370
              -2
390
0
  6
Continuous
 62
               0
100
AcDbCircle
 10
-146.75484070826383
 20
-533.16500649399336
 30
0.0
 40
4.99969482421875
  0
HATCH
  5
D8
100
AcDbEntity
  8
0
370
              -2
390
0
  6
Continuous
 62
               0
100
AcDbHatch
 10
0.0
 20
0.0
 30
0.0
210
0.0
220
0.0
230
1.0
  2
SOLID
 70
               1
 71
               1
 91
        1
 92
        1
 93
        1
 72
               2
 10
-146.75484070826383
 20
-533.16500649399336
 40
4.99969482421875
 50
0.0
 51
360.0
 73
               0
 97
        1
330
D7
 75
               0
 76
               1
 98
        1
 10
0.0
 20
0.0
  0
CIRCLE
  5
D9
102
{ACAD_REACTORS
330
DA
102
}
100
AcDbEntity
  8
0
370
              -2
390
0
  6
Continuous
 62
               0
100
AcDbCircle
 10
-146.75484070826383
 20
-383.16500649399336
 30
0.0
 40
4.99969482421875
  0
HATCH
  5
DA
100
AcDbEntity
  8
0
370
              -2
390
0
  6
Continuous
 62
               0
100
AcDbHatch
 10
0.0
 20
0.0
 30
0.0
210
0.0
220
0.0
230
1.0
  2
SOLID
 70
               1
 71
               1
 91
        1
 92
        1
 93
        1
 72
               2
 10
-146.75484070826383
 20
-383.16500649399336
 40
4.99969482421875
 50
0.0
 51
360.0
 73
               0
 97
        1
330
D9
 75
               0
 76
               1
 98
        1
 10
0.0
 20
0.0
  0
MTEXT
  5
DB
100
AcDbEntity
  8
0
390
0
 62
               0
100
AcDbMText
 10
-180.63245789576382
 20
-481.9775081761689
 30
0.0
 40
24.432617187500004
 41
0.0
 71
               1
 72
               1
  1
150
  7
ＭＳ ゴシック
 11
0.0
 21
1.0
 31
0.0
 73
               1
 44
0.7828267384257843
  0
POINT
  5
DC
100
AcDbEntity
  8
Defpoints
370
               0
390
0
 62
               0
100
AcDbPoint
 10
-252.31419189103462
 20
-383.16500649399336
 30
0.0
  0
POINT
  5
DD
100
AcDbEntity
  8
Defpoints
370
               0
390
0
 62
               0
100
AcDbPoint
 10
-444.18058690574981
 20
-533.16500649399336
 30
0.0
  0
POINT
  5
DE
100
AcDbEntity
  8
Defpoints
370
               0
390
0
 62
               0
100
AcDbPoint
 10
-146.75484070826383
 20
-533.16500649399336
 30
0.0
  0
ENDBLK
  5
DF
100
AcDbEntity
  8
notes
390
0
100
AcDbBlockEnd
  0
BLOCK
  5
E0
100
AcDbEntity
  8
notes
390
0
100
AcDbBlockBegin
  2
*D12
 70
               1
 10
0.0
 20
0.0
 30
0.0
  3
*D12
  1

  0
LINE
  5
E1
100
AcDbEntity
  8
0
370
              -2
390
0
  6
Continuous
 62
               0
100
AcDbLine
 10
659.13243636706966
 20
-358.058158699057
 30
0.0
 11
659.13243636706966
 21
-329.8335760163427
 31
0.0
  0
LINE
  5
E2
100
AcDbEntity
  8
0
370
              -2
390
0
  6
Continuous
 62
               0
100
AcDbLine
 10
719.13202643552904
 20
-359.85237777226638
 30
0.0
 11
719.13202643552904
 21
-329.8335760163427
 31
0.0
  0
LINE
  5
E3
100
AcDbEntity
  8
0
370
              -2
390
0
  6
Continuous
 62
               0
100
AcDbLine
 10
659.13243636706966
 20
-329.8335760163427
 30
0.0
 11
719.13202643552904
 21
-329.8335760163427
 31
0.0
  0
CIRCLE
  5
E4
102
{ACAD_REACTORS
330
E5
102
}
100
AcDbEntity
  8
0
370
              -2
390
0
  6
Continuous
 62
               0
100
AcDbCircle
 10
659.13243636706966
 20
-329.8335760163427
 30
0.0
 40
4.99969482421875
  0
HATCH
  5
E5
100
AcDbEntity
  8
0
370
              -2
390
0
  6
Continuous
 62
               0
100
AcDbHatch
 10
0.0
 20
0.0
 30
0.0
210
0.0
220
0.0
230
1.0
  2
SOLID
 70
               1
 71
               1
 91
        1
 92
        1
 93
        1
 72
               2
 10
659.13243636706966
 20
-329.8335760163427
 40
4.99969482421875
 50
0.0
 51
360.0
 73
               0
 97
        1
330
E4
 75
               0
 76
               1
 98
        1
 10
0.0
 20
0.0
  0
CIRCLE
  5
E6
102
{ACAD_REACTORS
330
E7
102
}
100
AcDbEntity
  8
0
370
              -2
390
0
  6
Continuous
 62
               0
100
AcDbCircle
 10
719.13202643552904
 20
-329.8335760163427
 30
0.0
 40
4.99969482421875
  0
HATCH
  5
E7
100
AcDbEntity
  8
0
370
              -2
390
0
  6
Continuous
 62
               0
100
AcDbHatch
 10
0.0
 20
0.0
 30
0.0
210
0.0
220
0.0
230
1.0
  2
SOLID
 70
               1
 71
               1
 91
        1
 92
        1
 93
        1
 72
               2
 10
719.13202643552904
 20
-329.8335760163427
 40
4.99969482421875
 50
0.0
 51
360.0
 73
               0
 97
        1
330
E6
 75
               0
 76
               1
 98
        1
 10
0.0
 20
0.0
  0
MTEXT
  5
E8
100
AcDbEntity
  8
0
390
0
 62
               0
100
AcDbMText
 10
673.25723140129935
 20
-295.95595882884271
 30
0.0
 40
24.432617187500004
 41
0.0
 71
               1
 72
               1
  1
60
  7
ＭＳ ゴシック
 73
               1
 44
0.7828267384257843
  0
POINT
  5
E9
100
AcDbEntity
  8
Defpoints
370
               0
390
0
 62
               0
100
AcDbPoint
 10
719.13202643552904
 20
-384.85237777226638
 30
0.0
  0
POINT
  5
EA
100
AcDbEntity
  8
Defpoints
370
               0
390
0
 62
               0
100
AcDbPoint
 10
659.13243636706966
 20
-383.058158699057
 30
0.0
  0
POINT
  5
EB
100
AcDbEntity
  8
Defpoints
370
               0
390
0
 62
               0
100
AcDbPoint
 10
659.13243636706966
 20
-329.8335760163427
 30
0.0
  0
ENDBLK
  5
EC
100
AcDbEntity
  8
notes
390
0
100
AcDbBlockEnd
  0
BLOCK
  5
ED
100
AcDbEntity
  8
notes
390
0
100
AcDbBlockBegin
  2
*D13
 70
               1
 10
0.0
 20
0.0
 30
0.0
  3
*D13
  1

  0
LINE
  5
EE
100
AcDbEntity
  8
0
370
              -2
390
0
  6
Continuous
 62
               0
100
AcDbLine
 10
509.12478919813793
 20
-559.750491247843
 30
0.0
 11
509.12478919813793
 21
-634.750491247843
 31
0.0
  0
LINE
  5
EF
100
AcDbEntity
  8
0
370
              -2
390
0
  6
Continuous
 62
               0
100
AcDbLine
 10
719.13243636706966
 20
-544.81805952573382
 30
0.0
 11
719.13243636706966
 21
-634.750491247843
 31
0.0
  0
LINE
  5
F0
100
AcDbEntity
  8
0
370
              -2
390
0
  6
Continuous
 62
               0
100
AcDbLine
 10
509.12478919813793
 20
-634.750491247843
 30
0.0
 11
719.13243636706966
 21
-634.750491247843
 31
0.0
  0
CIRCLE
  5
F1
102
{ACAD_REACTORS
330
F2
102
}
100
AcDbEntity
  8
0
370
              -2
390
0
  6
Continuous
 62
               0
100
AcDbCircle
 10
509.12478919813793
 20
-634.750491247843
 30
0.0
 40
4.99969482421875
  0
HATCH
  5
F2
100
AcDbEntity
  8
0
370
              -2
390
0
  6
Continuous
 62
               0
100
AcDbHatch
 10
0.0
 20
0.0
 30
0.0
210
0.0
220
0.0
230
1.0
  2
SOLID
 70
               1
 71
               1
 91
        1
 92
        1
 93
        1
 72
               2
 10
509.12478919813793
 20
-634.750491247843
 40
4.99969482421875
 50
0.0
 51
360.0
 73
               0
 97
        1
330
F1
 75
               0
 76
               1
 98
        1
 10
0.0
 20
0.0
  0
CIRCLE
  5
F3
102
{ACAD_REACTORS
330
F4
102
}
100
AcDbEntity
  8
0
370
              -2
390
0
  6
Continuous
 62
               0
100
AcDbCircle
 10
719.13243636706966
 20
-634.750491247843
 30
0.0
 40
4.99969482421875
  0
HATCH
  5
F4
100
AcDbEntity
  8
0
370
              -2
390
0
  6
Continuous
 62
               0
100
AcDbHatch
 10
0.0
 20
0.0
 30
0.0
210
0.0
220
0.0
230
1.0
  2
SOLID
 70
               1
 71
               1
 91
        1
 92
        1
 93
        1
 72
               2
 10
719.13243636706966
 20
-634.750491247843
 40
4.99969482421875
 50
0.0
 51
360.0
 73
               0
 97
        1
330
F3
 75
               0
 76
               1
 98
        1
 10
0.0
 20
0.0
  0
MTEXT
  5
F5
100
AcDbEntity
  8
0
390
0
 62
               0
100
AcDbMText
 10
590.31611110042832
 20
-600.87287406034307
 30
0.0
 40
24.432617187500004
 41
0.0
 71
               1
 72
               1
  1
210
  7
ＭＳ ゴシック
 73
               1
 44
0.7828267384257843
  0
POINT
  5
F6
100
AcDbEntity
  8
Defpoints
370
               0
390
0
 62
               0
100
AcDbPoint
 10
719.13243636706966
 20
-519.81805952573382
 30
0.0
  0
POINT
  5
F7
100
AcDbEntity
  8
Defpoints
370
               0
390
0
 62
               0
100
AcDbPoint
 10
509.12478919813793
 20
-534.750491247843
 30
0.0
  0
POINT
  5
F8
100
AcDbEntity
  8
Defpoints
370
               0
390
0
 62
               0
100
AcDbPoint
 10
509.12478919813793
 20
-634.750491247843
 30
0.0
  0
ENDBLK
  5
F9
100
AcDbEntity
  8
notes
390
0
100
AcDbBlockEnd
  0
BLOCK
  5
FA
100
AcDbEntity
  8
notes
390
0
100
AcDbBlockBegin
  2
*D14
 70
               1
 10
0.0
 20
0.0
 30
0.0
  3
*D14
  1

  0
LINE
  5
FB
100
AcDbEntity
  8
0
370
              -2
390
0
  6
Continuous
 62
               0
100
AcDbLine
 10
743.78870834109148
 20
-523.08038837185518
 30
0.0
 11
819.12504678226151
 21
-523.08038837185518
 31
0.0
  0
LINE
  5
FC
100
AcDbEntity
  8
0
370
              -2
390
0
  6
Continuous
 62
               0
100
AcDbLine
 10
742.93021963679575
 20
-383.08038837185518
 30
0.0
 11
819.12504678226151
 21
-383.08038837185518
 31
0.0
  0
LINE
  5
FD
100
AcDbEntity
  8
0
370
              -2
390
0
  6
Continuous
 62
               0
100
AcDbLine
 10
819.12504678226151
 20
-523.08038837185518
 30
0.0
 11
819.12504678226151
 21
-383.08038837185518
 31
0.0
  0
CIRCLE
  5
FE
102
{ACAD_REACTORS
330
FF
102
}
100
AcDbEntity
  8
0
370
              -2
390
0
  6
Continuous
 62
               0
100
AcDbCircle
 10
819.12504678226151
 20
-523.08038837185518
 30
0.0
 40
4.99969482421875
  0
HATCH
  5
FF
100
AcDbEntity
  8
0
370
              -2
390
0
  6
Continuous
 62
               0
100
AcDbHatch
 10
0.0
 20
0.0
 30
0.0
210
0.0
220
0.0
230
1.0
  2
SOLID
 70
               1
 71
               1
 91
        1
 92
        1
 93
        1
 72
               2
 10
819.12504678226151
 20
-523.08038837185518
 40
4.99969482421875
 50
0.0
 51
360.0
 73
               0
 97
        1
330
FE
 75
               0
 76
               1
 98
        1
 10
0.0
 20
0.0
  0
CIRCLE
  5
100
102
{ACAD_REACTORS
330
101
102
}
100
AcDbEntity
  8
0
370
              -2
390
0
  6
Continuous
 62
               0
100
AcDbCircle
 10
819.12504678226151
 20
-383.08038837185518
 30
0.0
 40
4.99969482421875
  0
HATCH
  5
101
100
AcDbEntity
  8
0
370
              -2
390
0
  6
Continuous
 62
               0
100
AcDbHatch
 10
0.0
 20
0.0
 30
0.0
210
0.0
220
0.0
230
1.0
  2
SOLID
 70
               1
 71
               1
 91
        1
 92
        1
 93
        1
 72
               2
 10
819.12504678226151
 20
-383.08038837185518
 40
4.99969482421875
 50
0.0
 51
360.0
 73
               0
 97
        1
330
100
 75
               0
 76
               1
 98
        1
 10
0.0
 20
0.0
  0
MTEXT
  5
102
100
AcDbEntity
  8
0
390
0
 62
               0
100
AcDbMText
 10
785.24742959476146
 20
-476.89289005403072
 30
0.0
 40
24.432617187500004
 41
0.0
 71
               1
 72
               1
  1
140
  7
ＭＳ ゴシック
 11
0.0
 21
1.0
 31
0.0
 73
               1
 44
0.7828267384257843
  0
POINT
  5
103
100
AcDbEntity
  8
Defpoints
370
               0
390
0
 62
               0
100
AcDbPoint
 10
717.93021963679575
 20
-383.08038837185518
 30
0.0
  0
POINT
  5
104
100
AcDbEntity
  8
Defpoints
370
               0
390
0
 62
               0
100
AcDbPoint
 10
718.78870834109148
 20
-523.08038837185518
 30
0.0
  0
POINT
  5
105
100
AcDbEntity
  8
Defpoints
370
               0
390
0
 62
               0
100
AcDbPoint
 10
819.12504678226151
 20
-523.08038837185518
 30
0.0
  0
ENDBLK
  5
106
100
AcDbEntity
  8
notes
390
0
100
AcDbBlockEnd
  0
BLOCK
  5
107
100
AcDbEntity
  8
notes
390
0
100
AcDbBlockBegin
  2
*D15
 70
               1
 10
0.0
 20
0.0
 30
0.0
  3
*D15
  1

  0
LINE
  5
108
100
AcDbEntity
  8
0
370
              -2
390
0
  6
Continuous
 62
               0
100
AcDbLine
 10
486.58367218771764
 20
-383.13627010143597
 30
0.0
 11
496.76359221197799
 21
-383.13627010143597
 31
0.0
  0
LINE
  5
109
100
AcDbEntity
  8
0
370
              -2
390
0
  6
Continuous
 62
               0
100
AcDbLine
 10
486.58367218771764
 20
-493.13627010143597
 30
0.0
 11
496.76359221197799
 21
-493.13627010143597
 31
0.0
  0
LINE
  5
10A
100
AcDbEntity
  8
0
370
              -2
390
0
  6
Continuous
 62
               0
100
AcDbLine
 10
496.76359221197799
 20
-383.13627010143597
 30
0.0
 11
496.76359221197799
 21
-223.82377010143597
 31
0.0
  0
LINE
  5
10B
100
AcDbEntity
  8
0
370
              -2
390
0
  6
Continuous
 62
               0
100
AcDbLine
 10
496.76359221197799
 20
-383.13627010143597
 30
0.0
 11
496.76359221197799
 21
-493.13627010143597
 31
0.0
  0
CIRCLE
  5
10C
102
{ACAD_REACTORS
330
10D
102
}
100
AcDbEntity
  8
0
370
              -2
390
0
  6
Continuous
 62
               0
100
AcDbCircle
 10
496.76359221197799
 20
-383.13627010143597
 30
0.0
 40
4.99969482421875
  0
HATCH
  5
10D
100
AcDbEntity
  8
0
370
              -2
390
0
  6
Continuous
 62
               0
100
AcDbHatch
 10
0.0
 20
0.0
 30
0.0
210
0.0
220
0.0
230
1.0
  2
SOLID
 70
               1
 71
               1
 91
        1
 92
        1
 93
        1
 72
               2
 10
496.76359221197799
 20
-383.13627010143597
 40
4.99969482421875
 50
0.0
 51
360.0
 73
               0
 97
        1
330
10C
 75
               0
 76
               1
 98
        1
 10
0.0
 20
0.0
  0
CIRCLE
  5
10E
102
{ACAD_REACTORS
330
10F
102
}
100
AcDbEntity
  8
0
370
              -2
390
0
  6
Continuous
 62
               0
100
AcDbCircle
 10
496.76359221197799
 20
-493.13627010143597
 30
0.0
 40
4.99969482421875
  0
HATCH
  5
10F
100
AcDbEntity
  8
0
370
              -2
390
0
  6
Continuous
 62
               0
100
AcDbHatch
 10
0.0
 20
0.0
 30
0.0
210
0.0
220
0.0
230
1.0
  2
SOLID
 70
               1
 71
               1
 91
        1
 92
        1
 93
        1
 72
               2
 10
496.76359221197799
 20
-493.13627010143597
 40
4.99969482421875
 50
0.0
 51
360.0
 73
               0
 97
        1
330
10E
 75
               0
 76
               1
 98
        1
 10
0.0
 20
0.0
  0
MTEXT
  5
110
100
AcDbEntity
  8
0
390
0
 62
               0
100
AcDbMText
 10
462.885975024478
 20
-366.69877010143597
 30
0.0
 40
24.432617187500004
 41
0.0
 71
               1
 72
               1
  1
110(深さ)
  7
ＭＳ ゴシック
 11
0.0
 21
1.0
 31
0.0
 73
               1
 44
0.7828267384257843
  0
POINT
  5
111
100
AcDbEntity
  8
Defpoints
370
               0
390
0
 62
               0
100
AcDbPoint
 10
511.58367218771764
 20
-493.13627010143597
 30
0.0
  0
POINT
  5
112
100
AcDbEntity
  8
Defpoints
370
               0
390
0
 62
               0
100
AcDbPoint
 10
511.58367218771764
 20
-383.13627010143597
 30
0.0
  0
POINT
  5
113
100
AcDbEntity
  8
Defpoints
370
               0
390
0
 62
               0
100
AcDbPoint
 10
496.76359221197799
 20
-383.13627010143597
 30
0.0
  0
ENDBLK
  5
114
100
AcDbEntity
  8
notes
390
0
100
AcDbBlockEnd
  0
BLOCK
  5
115
100
AcDbEntity
  8
GAR70-1701
390
0
100
AcDbBlockBegin
  2
815031D
 70
               0
 10
0.0
 20
0.0
 30
0.0
  3
815031D
  1

  0
LWPOLYLINE
  5
116
100
AcDbEntity
  8
0
370
              15
390
0
  6
Continuous
 62
               7
100
AcDbPolyline
 90
      141
 70
             128
 10
37.499200075861381
 20
-209.99111069969351
 42
0.0054478288949672
 10
37.490103235302463
 20
-209.15623035096823
 10
37.47660919604278
 20
-208.53708293301833
 42
0.0219066446914902
 10
37.340816463996909
 20
-206.46995925021693
 10
37.272059441826663
 20
-205.84399775762151
 42
0.0217919167881618
 10
36.779120757793677
 20
-202.64694375328705
 10
36.775457646904066
 20
-202.62854804906593
 42
0.0216096538576537
 10
36.016140006698677
 20
-199.5226123329297
 10
36.012093936863181
 20
-199.50869810155905
 42
0.0213965018789839
 10
34.998051846443758
 20
-196.50683714520613
 10
34.994129677609564
 20
-196.49668141279136
 42
0.0211767532078577
 10
33.737175033939664
 20
-193.61180602494625
 10
33.733737654944434
 20
-193.60474876266582
 42
0.0209726951186498
 10
32.245805393087736
 20
-190.8496875843677
 10
32.243109626518638
 20
-190.84516093944907
 42
0.0208028675272704
 10
30.536213008923539
 20
-188.23263984943358
 10
30.53445730734191
 20
-188.23018227499543
 42
0.0206814474466101
 10
28.62064200314758
 20
-185.77281858338958
 42
0.0206115090081193
 10
26.51131229226079
 20
-183.48238471766098
 42
0.0206238389696843
 10
24.220422809714101
 20
-181.37351072655017
 42
0.020679206414642
 10
21.762633596332726
 20
-179.46015534702724
 10
21.760155873360034
 20
-179.45838598448469
 42
0.0207992111919316
 10
19.147227268269859
 20
-177.75192637786887
 10
19.142682584728426
 20
-177.74922098501168
 42
0.0209678106677025
 10
16.387240030047476
 20
-176.26169336239147
 10
16.380169258717046
 20
-176.25825081900351
 42
0.0211706161322121
 10
13.494947814380897
 20
-175.00165873859115
 10
13.484784931958735
 20
-174.99773541151367
 42
0.0213902903203456
 10
10.482620527067912
 20
-173.98400841376977
 10
10.46870959317755
 20
-173.97996499914601
 42
0.0215997522875819
 10
7.3625287731465097
 20
-173.22089240580701
 10
7.3441434140319322
 20
-173.21723274742854
 42
0.0217943624984595
 10
4.1468980404752953
 20
-172.7245190210576
 10
4.1233127748346572
 20
-172.72193033464009
 42
0.0218638554392033
 10
0.8479964899842865
 20
-172.50675989372718
 10
0.8222434401080421
 20
-172.50619633879191
 42
0.0218677119358955
 10
-2.4842878977790548
 20
-172.57845194185575
 10
-2.508681622970351
 20
-172.58005391508848
 42
0.0218468640258886
 10
-5.747730889338948
 20
-172.93538102605663
 10
-5.7687880972694625
 20
-172.93862709783019
 42
0.0216961003912312
 10
-8.92295464397451
 20
-173.56598646787967
 10
-8.9391499383799822
 20
-173.56994495035283
 42
0.0214994702364976
 10
-11.99549615747156
 20
-174.45779846263929
 10
-12.007564198868527
 20
-174.46187425634542
 42
0.0212836348887986
 10
-14.953174937015007
 20
-175.59850003615094
 10
-14.96180887963272
 20
-175.60226111978673
 42
0.0210723003816183
 10
-17.783834033511816
 20
-176.97579412248035
 10
-17.789648744369796
 20
-176.97893385228576
 42
0.0208859038148973
 10
-20.475331460918966
 20
-178.57740813452301
 10
-20.47884180817341
 20
-178.57970116716356
 42
0.0207408107497709
 10
-23.015531620421239
 20
-180.39109545746336
 10
-23.017145533041372
 20
-180.39235213358566
 42
0.0206488778021342
 10
-25.39229741060911
 20
-182.40463464620365
 42
0.0206170452484537
 10
-27.593483326129395
 20
-184.60582691365488
 42
0.0206484067612865
 10
-29.605715334703085
 20
-186.98093286861604
 10
-29.606929609418827
 20
-186.9824923324573
 42
0.0207399567942141
 10
-31.418203993694902
 20
-189.51901526630678
 10
-31.420457413265119
 20
-189.52246495948316
 42
0.0208848285355363
 10
-33.018762429233853
 20
-192.20784090055642
 10
-33.021865123288023
 20
-192.21358694212253
 42
0.0210712867749571
 10
-34.395198759170832
 20
-195.03514627282883
 10
-34.398925664132484
 20
-195.04370152437394
 42
0.0212828367564699
 10
-35.535341270701622
 20
-197.98866709644108
 10
-35.53938689041577
 20
-198.00064527960444
 42
0.0214999286179761
 10
-36.427035551873644
 20
-201.05614785155774
 10
-36.430968725308176
 20
-201.07223881634474
 42
0.0216953129696154
 10
-37.058157481830243
 20
-204.22533666322249
 10
-37.061386486474376
 20
-204.2462811579224
 42
0.0218585726787016
 10
-37.416541193952945
 20
-207.48402869424186
 10
-37.418140598064383
 20
-207.50839538715275
 42
0.0218413265469058
 10
-37.49043368804368
 20
-210.81356954242904
 10
-37.489870673901301
 20
-210.83938409578181
 42
0.0218859224416997
 10
-37.274796054520365
 20
-214.11469076177116
 10
-37.27220503907207
 20
-214.13829394435282
 42
0.0217788050435275
 10
-36.779548511453171
 20
-217.3355063966988
 10
-36.775887984438505
 20
-217.35390063735767
 42
0.0215990341689486
 10
-36.01698091590238
 20
-220.46005686372789
 10
-36.01293485952813
 20
-220.47397947816731
 42
0.0213882299822111
 10
-34.999397760970432
 20
-223.47611648363477
 10
-34.995472622576344
 20
-223.48628581761793
 42
0.0211710899318488
 10
-33.73908575485936
 20
-226.37148677002085
 10
-33.735643200857737
 20
-226.37855857364448
 42
0.0209697512946214
 10
-32.248308767990267
 20
-229.13398839725943
 10
-32.245607426869768
 20
-229.13852677501865
 42
0.0208026126824502
 10
-30.539305052858083
 20
-231.75145250579772
 10
-30.537545994727559
 20
-231.75391598069476
 42
0.0206837237990238
 10
-28.624287026817676
 20
-234.21171241744287
 42
0.0206160624350251
 10
-26.515443028097074
 20
-236.5025962350195
 42
0.0206303634013452
 10
-24.224940534603171
 20
-238.61192048906724
 42
0.0206870317715564
 10
-21.767433696900671
 20
-240.52569670822055
 10
-21.764930532564499
 20
-240.52748479302801
 42
0.0208078755337771
 10
-19.152140093077975
 20
-242.23433627118962
 10
-19.147552922761868
 20
-242.23706765185813
 42
0.0209766679837736
 10
-16.392076393781743
 20
-243.72494923449062
 10
-16.384942964287823
 20
-243.7284229602225
 42
0.021178911039504
 10
-13.499487053777035
 20
-244.98532319761242
 10
-13.489238784539726
 20
-244.98927999932951
 42
0.0213973729684671
 10
-10.486609919147666
 20
-246.00326176711673
 10
-10.472589645889119
 20
-246.00733719270926
 42
0.0216042944633205
 10
-7.3656849877080184
 20
-246.76660655966779
 10
-7.3471650014880758
 20
-246.7702929574196
 42
0.0217978795891496
 10
-4.1489022530882371
 20
-247.26313049195952
 10
-4.1251611052001991
 20
-247.26573587688722
 42
0.0218566010758963
 10
-0.8485064654850432
 20
-247.4809856837052
 10
-0.8225374627330522
 20
-247.48155427356591
 42
0.02188334245052
 10
2.4829374407158067
 20
-247.40925778286737
 10
2.5073677217708017
 20
-247.40765216767926
 42
0.0218600564419686
 10
5.7452684804840146
 20
-247.05219885026708
 10
5.766150122577038
 20
-247.04897763370977
 42
0.0217035708230315
 10
8.9194853413584667
 20
-246.42139590934073
 10
8.9355215155786176
 20
-246.41747405555651
 42
0.0215022857383092
 10
11.991317678857069
 20
-245.52932027322379
 10
12.003246744338487
 20
-245.52528949655226
 42
0.0212824404335973
 10
14.948554674379992
 20
-244.38829978550552
 10
14.957073952416323
 20
-244.38458723568857
 42
0.0210676962962299
 10
17.77900817926453
 20
-243.01064302858839
 10
17.784727242836528
 20
-243.00755404893309
 42
0.0208790863795962
 10
20.470508668829741
 20
-241.40862945841377
 10
20.473967874667274
 20
-241.40636936839303
 42
0.0207313322450774
 10
23.010877630205208
 20
-239.59453045449729
 10
23.012381152020499
 20
-239.59335959884268
 42
0.0206411179252531
 10
25.387997855984722
 20
-237.58051756015317
 42
0.0206064907235531
 10
27.589687625232244
 20
-235.37880385152386
 42
0.0206399781181474
 10
29.602474206117197
 20
-233.00320789028393
 10
29.603670108211787
 20
-233.00167218358911
 42
0.0207322869705513
 10
31.415503427633482
 20
-230.46472245364993
 10
31.629999636259402
 20
-230.13641514479238
 42
0.020879042545901
 10
32.83224413529954
 20
-228.11690477117969
 42
0.0105105380219542
 10
33.906133450018423
 20
-226.02459227149018
 10
33.909046871750462
 20
-226.01860959966245
 42
0.0211700288210469
 10
34.852990279033932
 20
-223.8517704151285
 10
35.138396177740525
 20
-223.11265821076989
 42
0.0213889128109722
 10
35.903583922442344
 20
-220.84723106874625
 42
0.0107861936236978
 10
36.521946537815175
 20
-218.53571476712193
 10
36.525139882575957
 20
-218.52265552848621
 42
0.0217006297467463
 10
36.997045321572365
 20
-216.15118869970857
 10
37.121121803352139
 20
-215.34674380682586
 42
0.0218423699379748
 10
37.390756536227741
 20
-212.89089569664523
 10
37.417353228277648
 20
-212.48651684070899
 42
0.0109552617410086
 10
37.490074182359479
 20
-210.82604835152944
 42
0.005464171195394
 10
37.499200075861381
 20
-209.99111069969351
 42
0.005464171195394
  0
LWPOLYLINE
  5
117
100
AcDbEntity
  8
0
370
              15
390
0
  6
Continuous
 62
               7
100
AcDbPolyline
 90
      144
 70
             128
 10
22.996716553945859
 20
-209.99111069969351
 42
0.0057563792924185
 10
22.990486210791641
 20
-209.44996005710325
 10
22.981248749768071
 20
-209.04884287667727
 42
0.0231507092335842
 10
22.888281996506873
 20
-207.70983640484775
 10
22.841199618935693
 20
-207.30440617257489
 42
0.0230172363118026
 10
22.504205579734094
 20
-205.23772478249055
 10
22.501652909166015
 20
-205.22560969555815
 42
0.022807619203287
 10
21.983148194513767
 20
-203.22234407133433
 10
21.980384908449452
 20
-203.21337551732398
 42
0.0225664779389227
 10
21.288809105908086
 20
-201.28293979032773
 10
21.286198628403564
 20
-201.27657335749984
 42
0.0223235123215882
 10
20.430113854258448
 20
-199.4283399543074
 10
20.427912037221766
 20
-199.42409417782974
 42
0.0221060881728661
 10
19.415964409542724
 20
-197.66735530379836
 10
19.414340536654183
 20
-197.66480400751087
 42
0.0219337647787657
 10
18.255253694930261
 20
-196.00880075711481
 10
18.254407286939003
 20
-196.00769779085559
 42
0.0218278769444232
 10
16.956798572731532
 20
-194.46144631254782
 10
16.785876002130166
 20
-194.27494416495213
 42
0.0217851652644681
 10
15.715938034281459
 20
-193.20501175749868
 42
0.0109055924735198
 10
14.577580418620238
 20
-192.20655091763308
 10
14.576870092453234
 20
-192.20595478662699
 42
0.0218700211324106
 10
13.374954191229618
 20
-191.28373057589744
 10
13.16625556499687
 20
-191.13763551141216
 42
0.0220135384952153
 10
11.458721827099943
 20
-190.05103234888318
 10
11.455372691302435
 20
-190.04910271171659
 42
0.0222105098300525
 10
9.6517194360561511
 20
-189.11401410268476
 10
9.6464679791769079
 20
-189.11158098166518
 42
0.0224437687311798
 10
7.7559532021235684
 20
-188.33668911121941
 10
7.7483504107065855
 20
-188.3339644463093
 42
0.0226903067253759
 10
5.780311035840132
 20
-187.72788340615296
 10
5.7698406006178082
 20
-187.7251722208016
 42
0.0229157674971981
 10
3.7336800168332962
 20
-187.29639504578489
 10
3.7197765137746019
 20
-187.29412668689355
 42
0.0231112309316763
 10
1.6249061230150224
 20
-187.05106400457095
 10
1.608379645854471
 20
-187.04991693569497
 42
0.0230889181763208
 10
-0.5330732795439772
 20
-187.00038233744542
 10
-0.550731887288443
 20
-187.00078930712459
 42
0.0231256940214194
 10
-2.6729102559480666
 20
-187.14806144217661
 10
-2.6888834642470734
 20
-187.14991506091229
 42
0.0230070442918173
 10
-4.7567864594002334
 20
-187.4868892390553
 10
-4.7690345147647886
 20
-187.48946834575631
 42
0.0228034077856155
 10
-6.7732694067762473
 20
-188.00794170228528
 10
-6.7823542530460657
 20
-188.01073942242439
 42
0.0225669603674429
 10
-8.713533491469974
 20
-188.7022777675092
 10
-8.7199976929040073
 20
-188.70492728828677
 42
0.0223277718488344
 10
-10.568774579037488
 20
-189.56097200895192
 10
-10.573099062427913
 20
-189.56321397623509
 42
0.0221131324177959
 10
-12.330205949397879
 20
-190.5751223702604
 10
-12.332817482450391
 20
-190.57678424094152
 42
0.0219425832499199
 10
-13.989036813527438
 20
-191.73583565969255
 10
-13.990182983462439
 20
-191.7367151161983
 42
0.0218375217572443
 10
-15.53652142407776
 20
-193.0342947159391
 10
-15.723049001532468
 20
-193.20523391345387
 42
0.0217946567334793
 10
-16.792973757148864
 20
-194.27516318791891
 10
-16.963397552720306
 20
-194.46112993946198
 42
0.0109103059975381
 10
-17.629247191413871
 20
-195.22031613627192
 42
0.0109251200859953
 10
-18.261319182288219
 20
-196.00784588283764
 10
-18.415920467486092
 20
-196.2093358231788
 42
0.0219397435635465
 10
-19.285438978675209
 20
-197.4518304245712
 10
-19.422677963693353
 20
-197.66749107309977
 42
0.0221108905026986
 10
-20.434403528737118
 20
-199.42424156247085
 10
-20.436606194027572
 20
-199.42849009083864
 42
0.0223258335764475
 10
-21.292444151283686
 20
-201.27673347606671
 10
-21.295056357225533
 20
-201.28310624201862
 42
0.0225664808811255
 10
-21.986379559502335
 20
-203.21354616901525
 10
-21.989145007883522
 20
-203.22252546383416
 42
0.0228010087433745
 10
-22.507427895776019
 20
-205.22578838052161
 10
-22.509982542649492
 20
-205.23791827270807
 42
0.0230209397255852
 10
-22.846769892346675
 20
-207.30460255755017
 10
-22.848606708124976
 20
-207.32043404314277
 42
0.0231025912477618
 10
-22.995825042557247
 20
-209.4411017263815
 10
-22.996227833216263
 20
-209.4585259536276
 42
0.0230990238473631
 10
-22.946772960787307
 20
-211.60115974307379
 10
-22.945630794512713
 20
-211.61762267137081
 42
0.0230753084257801
 10
-22.702629388564752
 20
-213.71382402653887
 10
-22.700339108390182
 20
-213.72787722045166
 42
0.022905167752749
 10
-22.271750548505207
 20
-215.76510745643111
 10
-22.269005908261551
 20
-215.77571652292565
 42
0.0226845746667181
 10
-21.663159622645814
 20
-217.74458365170358
 10
-21.660395540826162
 20
-217.75230222970086
 42
0.0224463901776051
 10
-20.885764442641296
 20
-219.64343844639842
 10
-20.883290671018361
 20
-219.64878083552574
 42
0.0222192587419136
 10
-19.948455034623414
 20
-221.45287617081459
 10
-19.946489584798996
 20
-221.45628898807894
 42
0.0220272407625167
 10
-18.860100150339456
 20
-223.1641119031496
 10
-18.858807327439951
 20
-223.16595926096875
 42
0.0218888460285828
 10
-17.62954655942238
 20
-224.76836390879805
 42
0.021808625016292
 10
-16.265620346157057
 20
-226.25684683501913
 42
0.0218245362057275
 10
-14.777129676148432
 20
-227.62076587785563
 42
0.0218890146447381
 10
-13.17471673069439
 20
-228.8500186555535
 10
-13.17286869934415
 20
-228.85131193335036
 42
0.02202751378453
 10
-11.465035892666041
 20
-229.93769201280583
 10
-11.461622445440913
 20
-229.93965779329619
 42
0.0222196544755033
 10
-9.6575155697207933
 20
-230.87448142302623
 10
-9.6521727556174071
 20
-230.87695533530439
 42
0.0224467826232676
 10
-7.7610240383847708
 20
-231.65157071697513
 10
-7.753305006898322
 20
-231.65433487219121
 42
0.0226854301289077
 10
-5.7844245098963265
 20
-232.26015955939934
 10
-5.7738162807409203
 20
-232.26290382864079
 42
0.0229043579944767
 10
-3.7365760645746762
 20
-232.69146891459172
 10
-3.7225206738409726
 20
-232.69375940269478
 42
0.0230832355110471
 10
-1.626305358072704
 20
-232.9367066661296
 10
-1.6098525226121019
 20
-232.93784743628842
 42
0.0230698309832274
 10
0.5327751102277559
 20
-232.9873370260504
 10
0.5502071014482919
 20
-232.98693535730246
 42
0.0231344993295922
 10
2.670873323410035
 20
-232.83974020896954
 10
2.6867108682472907
 20
-232.83790184030866
 42
0.0230088755889729
 10
4.7533786828466003
 20
-232.50105600321905
 10
4.7655066031685127
 20
-232.49850171188126
 42
0.0228032178433229
 10
6.768759375013075
 20
-231.98020192695952
 10
6.7777391549637489
 20
-231.97743619595417
 42
0.0225653443899235
 10
8.7081655852951947
 20
-231.28609326416276
 10
8.714538466300354
 20
-231.28348094402369
 42
0.0223254753680716
 10
10.562768859255177
 20
-230.42763039613709
 10
10.567013883490944
 20
-230.42542950678407
 42
0.0221108068932414
 10
12.323758005504136
 20
-229.41369028164129
 10
12.326299757938642
 20
-229.41207277236421
 42
0.0219407386733909
 10
13.982317618017269
 20
-228.25314099795543
 10
13.983401469321128
 20
-228.25230935000098
 42
0.0218365180424993
 10
15.529677178794614
 20
-226.95477459105771
 10
15.716165546560894
 20
-226.78387099938908
 42
0.0217946288929489
 10
16.786109688666645
 20
-225.71392041782062
 42
0.010912007456114
 10
17.784545825879206
 20
-224.57551712132172
 10
17.785191892197361
 20
-224.57474722387565
 42
0.0218784868304727
 10
18.70744678779613
 20
-223.37263724334528
 10
18.997795155255112
 20
-222.95780136532136
 42
0.0220222002783089
 10
19.814596440757217
 20
-221.67397309376355
 42
0.0110835275121935
 10
20.545205604597918
 20
-220.33795440012997
 10
20.547139931517318
 20
-220.33422306537062
 42
0.0223212043622437
 10
21.189986480857868
 20
-218.94583173489323
 10
21.190907785125546
 20
-218.94358396244661
 42
0.0112600092940853
 10
21.741287212265551
 20
-217.50958843644716
 10
21.743570402473374
 20
-217.50321417715492
 42
0.0226745825888439
 10
22.199075949736915
 20
-216.02340658378043
 10
22.200053629011979
 20
-216.01962923276747
 42
0.0114426545278178
 10
22.555669431806979
 20
-214.50346007190043
 10
22.557763165387954
 20
-214.4935150290558
 42
0.0229847794953943
 10
22.811303888291896
 20
-212.93765502332283
 10
22.841754027089774
 20
-212.67536766694312
 42
0.0115520070725759
 10
22.94083094824758
 20
-211.60702265730134
 42
0.0115739965089887
 10
22.990408586846449
 20
-210.53524049097115
 10
22.990466042744302
 20
-210.53275121665149
 42
0.0057689824071758
 10
22.996716553945859
 20
-209.99111069969351
 42
0.0057689824071758
  0
LWPOLYLINE
  5
118
100
AcDbEntity
  8
0
370
              15
390
0
  6
Continuous
 62
               7
100
AcDbPolyline
 90
      364
 70
             128
 10
0.0
 20
-340.55825829035592
 42
-0.00506058916545
 10
2.4509847105864404
 20
-340.5912900583977
 10
3.0552798952738569
 20
-340.60555238833581
 42
-0.0099067888700142
 10
6.7113737168503533
 20
-340.7643637143758
 10
8.5020464473538588
 20
-340.87772663028841
 42
-0.0180814684807597
 10
15.710338448378199
 20
-341.59646945903381
 10
16.896593306783551
 20
-341.75824761896024
 42
-0.0156011895370614
 10
26.257977973732178
 20
-343.33380206002505
 10
26.267148676599071
 20
-343.33564140104954
 42
-0.0128843738471982
 10
35.506839404365955
 20
-345.43782053729456
 42
-0.0099701932748637
 10
44.642046156289283
 20
-347.96031212791155
 10
44.651024393697803
 20
-347.96298504192714
 42
-0.0069973976052445
 10
53.714179967607244
 20
-350.79984334066074
 10
53.734594229079534
 20
-350.80654828851499
 42
-0.00404021488539
 10
62.774228151420012
 20
-353.8567050192791
 10
63.917831319761859
 20
-354.25290124037429
 42
-0.001087231256695
 10
70.749988223688575
 20
-356.63652350128035
 10
72.40783371571932
 20
-357.21896412049784
 42
0.0010520806883009
 10
75.9216966652194
 20
-358.44516768670928
 42
-0.0004581478379937
 10
79.437020005867296
 20
-359.66719858627891
 10
79.742248937428172
 20
-359.77361881520437
 42
0.0070637061031804
 10
83.132587104357469
 20
-360.90222576710397
 42
0.0009140272242005
 10
86.540834567341051
 20
-361.97670315709405
 10
88.396955042760354
 20
-362.55813187163028
 42
0.0188523827521522
 10
95.593322849221323
 20
-364.51780239200042
 10
98.354118276465826
 20
-365.15888832142792
 42
0.0111408389540203
 10
104.76498886030291
 20
-366.49776937766057
 10
104.78454699107368
 20
-366.50140125913197
 42
0.0124424242922568
 10
111.21174278168778
 20
-367.53019130827664
 10
111.24006136021352
 20
-367.53400421103368
 42
0.0140215170615705
 10
117.65533361370461
 20
-368.21526482058562
 10
117.6890818845212
 20
-368.21789424770407
 42
0.0157852340664583
 10
124.06527251985003
 20
-368.51260743351071
 10
124.10027919337962
 20
-368.5131192734151
 42
0.0177261305613472
 10
130.41110090088
 20
-368.38165606360963
 10
130.4423248935023
 20
-368.37989701576112
 42
0.0198110761558793
 10
136.66232144941037
 20
-367.78160226494981
 10
136.68397062893584
 20
-367.77865047555713
 42
0.0219701288481418
 10
142.7882756067774
 20
-366.67135862360806
 10
142.79416908909329
 20
-366.67001981156761
 42
0.0240863574455481
 10
148.75797516060152
 20
-365.00959181898963
 42
0.0259943836083124
 10
154.52480288098033
 20
-362.76169134138166
 10
154.53993012469192
 20
-362.75486944665369
 42
0.0274966934271222
 10
160.06236580729509
 20
-359.88938496291843
 10
160.10206062252084
 20
-359.86593380611953
 42
0.0284028808213093
 10
165.34638111926398
 20
-356.35147163394549
 10
165.41179567033157
 20
-356.30203178430406
 42
0.0285807718813932
 10
170.34722019498841
 20
-352.10819464640412
 10
171.31081060184982
 20
-351.18961173362567
 42
0.02788231179233
 10
174.26073575029142
 20
-348.04557570784942
 10
175.08168581699323
 20
-347.0665576472814
 42
0.0066526792919866
 10
176.19607973319259
 20
-345.70110022344113
 10
176.2181283588435
 20
-345.67905159779014
 42
0.0066676856066305
 10
177.20504799512753
 20
-344.37113352082565
 10
177.90100580190813
 20
-343.42277127050193
 42
0.028862679890263
 10
180.06925779643242
 20
-340.0796996869588
 10
180.68083853302039
 20
-339.00575029086554
 42
0.0297028664778025
 10
183.28953588537075
 20
-333.71757312199225
 10
183.32403840469814
 20
-333.6357140076276
 42
0.0293229679807884
 10
185.23283732310642
 20
-328.2441070083114
 10
185.24560733040144
 20
-328.19996944580714
 42
0.0278243399703665
 10
186.50689454000553
 20
-322.71435458639121
 10
186.50886987581271
 20
-322.7028721888982
 42
0.0254235439320711
 10
187.17745837035045
 20
-317.13596100872155
 42
0.022449551562618
 10
187.31092973583233
 20
-311.5290362966474
 10
187.31064490115583
 20
-311.51553347055699
 42
0.0192211144305942
 10
186.97527827793107
 20
-305.88850434523368
 10
186.9723562855113
 20
-305.85877332323332
 42
0.0159756496555638
 10
186.23417918423689
 20
-300.20877089782851
 10
186.22798491310516
 20
-300.17083719969594
 42
0.0128530685384403
 10
185.15095244769466
 20
-294.49625003541985
 10
185.14238359645793
 20
-294.45668319037611
 42
0.009911308489085
 10
183.7893333283518
 20
-288.75747688699329
 10
183.77998081679971
 20
-288.72129013789049
 42
0.0071554439030394
 10
182.21334535467858
 20
-282.99895506081282
 10
182.2049015475539
 20
-282.9697599992204
 42
0.0045458675467015
 10
180.48727051002052
 20
-277.2270724603539
 10
180.48116306200541
 20
-277.20730924630249
 42
0.0020719142678238
 10
178.67524017256073
 20
-271.44819531535575
 10
178.67242324737663
 20
-271.43934078427463
 42
-0.0004038345520871
 10
176.84252168389173
 20
-265.67124601049017
 10
176.83804043591761
 20
-265.65708083455638
 42
-0.0028697064834588
 10
175.05561614880008
 20
-259.90833101172575
 10
175.04811592758682
 20
-259.88364089294629
 42
-0.0053928316464783
 10
173.37546500691445
 20
-254.15599998004251
 10
173.36609046224234
 20
-254.1225627302783
 42
-0.0080559499029952
 10
171.86585865185879
 20
-248.41958198917155
 10
171.85617517353887
 20
-248.38020316667891
 42
-0.0108901781840989
 10
170.59084120932428
 20
-242.70424422365673
 10
170.58256889349983
 20
-242.66291853095686
 42
-0.0139191313778843
 10
169.6146745959322
 20
-237.01509856277056
 10
169.51014810297215
 20
-236.28337425545845
 42
-0.017258276113668
 10
169.05450951443504
 20
-232.05632142601047
 10
168.97643466521072
 20
-230.98669434451944
 42
-0.0098879049748778
 10
168.86453938917731
 20
-228.88095088315913
 10
168.85284435887232
 20
-228.53001609312003
 42
-0.0052715385090469
 10
168.82081445294821
 20
-227.12359147260622
 10
168.82081445294821
 20
-226.50622995437942
 42
-0.0038561273116376
 10
168.8289826506593
 20
-225.61196050629474
 10
168.84778929112412
 20
-224.49567310412067
 42
-0.0195711585062923
 10
169.0226359743898
 20
-221.37573837457785
 10
169.08615535800908
 20
-220.70997578351449
 42
-0.0114761327851461
 10
169.61195939088205
 20
-216.2774323820143
 10
169.67466427797234
 20
-215.83574109590779
 42
-0.0178804805496702
 10
170.6161552536249
 20
-210.5655644954771
 10
170.87293289108115
 20
-209.37565815394387
 42
-0.013794109806827
 10
172.59060639594938
 20
-202.3603920385886
 10
172.66832458601661
 20
-202.07705365718286
 42
-0.0073716206782882
 10
174.51811458492196
 20
-195.70313425948518
 42
-0.0037379290817001
 10
176.50921792825943
 20
-189.37137365842375
 10
176.52479352485207
 20
-189.32310678225187
 42
-0.0003644618993037
 10
178.59905785185947
 20
-182.91120982379979
 10
178.60899070087186
 20
-182.88058198272603
 42
0.0029707122678983
 10
180.66927067663957
 20
-176.39670021688181
 10
180.67436212441319
 20
-176.38034084017318
 42
0.0062895667364951
 10
182.61960799769969
 20
-169.84127612063415
 10
182.62434631937759
 20
-169.82458242197708
 42
0.0096969566147157
 10
184.35055010933951
 20
-163.26095362948561
 10
184.55377570556388
 20
-162.4224372910397
 42
0.0134519724216367
 10
185.6130614323871
 20
-157.47385605792235
 10
185.61676284497071
 20
-157.45396431446162
 42
0.0079534047252824
 10
186.45673104446331
 20
-152.50330038618517
 42
0.0189880484551454
 10
187.02853742494793
 20
-147.51755159198524
 10
187.09159844489295
 20
-146.69177426884733
 42
0.0229056389459428
 10
187.29372352736675
 20
-140.04813078705013
 42
0.0267941510367529
 10
186.83587755385688
 20
-133.4197756516063
 10
186.7098210521971
 20
-132.39623123570368
 42
0.0291495739457065
 10
185.86903904302847
 20
-127.79725335868989
 42
0.0146044634309971
 10
184.62804513813091
 20
-123.28358987453963
 10
184.58018680182164
 20
-123.12750616707588
 42
0.0370579844224928
 10
182.76612903363522
 20
-118.47256664446333
 10
182.25458390128205
 20
-117.40180986135954
 42
0.0344678637180617
 10
178.62923662782993
 20
-110.98983038787847
 10
177.97117411934596
 20
-109.99302416237911
 42
0.0322166145058789
 10
174.96287691217145
 20
-106.01853090651538
 10
174.29770261751989
 20
-105.24826116847976
 42
0.0091260424992414
 10
172.32316981366051
 20
-103.04438542555084
 42
0.0145136900259695
 10
170.24721846038091
 20
-100.93682415001931
 10
169.55614503847082
 20
-100.27480560749785
 42
0.0288995670137699
 10
165.85422219783439
 20
-97.117626158582553
 10
165.20914894832904
 20
-96.628903417868344
 42
0.0288300990777151
 10
160.10101603544058
 20
-93.203408458975076
 10
160.06143833092173
 20
-93.180055487809682
 42
0.0278885770136945
 10
154.67940080147008
 20
-90.396475842946273
 10
154.66519399993129
 20
-90.390105069866735
 42
0.0263031217592645
 10
149.04172416433465
 20
-88.215729808703912
 42
0.024278351044189
 10
143.22625720822933
 20
-86.619935423998015
 10
143.21873912749206
 20
-86.618260028534422
 42
0.0220299791018874
 10
137.2642369286115
 20
-85.564143799106787
 10
137.24055177700171
 20
-85.561019309620406
 42
0.0197372744928117
 10
131.17017055741422
 20
-85.002855552958877
 10
131.13674515437259
 20
-85.001108440844064
 42
0.0175250243933365
 10
124.97375975082991
 20
-84.895248708421832
 10
124.93657861040079
 20
-84.895913260185452
 42
0.0154658401388215
 10
118.70493570577356
 20
-85.200263236532095
 10
118.66916888423822
 20
-85.203120978980365
 42
0.0135919485826024
 10
112.39372009554489
 20
-85.876610418276215
 10
112.36361387456594
 20
-85.880671864347676
 42
0.011908432684322
 10
106.07013548446257
 20
-86.882819058018811
 10
106.04905978473073
 20
-86.886691782030567
 42
0.0104041138911478
 10
99.764159321005593
 20
-88.177288408478418
 10
99.750478754330089
 20
-88.180395673893571
 42
0.0090590354358046
 10
93.509918512451577
 20
-89.717214307653592
 42
0.0080621001841909
 10
87.325417825137905
 20
-91.466835744116096
 10
85.843983972126267
 20
-91.911858292981393
 42
0.0123699926684039
 10
76.798149927484303
 20
-94.875079488468955
 10
73.411938105692215
 20
-96.077866723695564
 42
0.0089386767267908
 10
65.907370363663631
 20
-98.895566340248592
 10
65.392175141111537
 20
-99.099584521148799
 42
-0.0027364211078093
 10
58.954645584944856
 20
-101.60818845898311
 42
-0.0143534500952994
 10
52.437741958948159
 20
-103.89444189706701
 10
51.02149602587653
 20
-104.34607414080469
 42
-0.0141072482315232
 10
41.529870988658814
 20
-107.0804691376548
 42
-0.0143780570370309
 10
31.899513876093238
 20
-109.26970923251989
 42
-0.0146573117566866
 10
22.159481849668129
 20
-110.89618974070643
 42
-0.0149595952827213
 10
12.339101346795335
 20
-111.94329125300197
 42
-0.0153213411633929
 10
2.4720796881783684
 20
-112.39419972836583
 10
1.2325419043345671
 20
-112.41282702303555
 42
-0.0227880162420445
 10
-11.10800600009863
 20
-112.0360083765145
 10
-12.343410406554101
 20
-111.94182006944165
 42
-0.0150152466916887
 10
-22.162362852801039
 20
-110.89588484617212
 42
-0.014661030995677
 10
-31.902060071261051
 20
-109.26939253484076
 42
-0.0144266736271926
 10
-41.530717349563687
 20
-107.07940079090061
 10
-43.926300490624016
 20
-106.4613450881312
 42
-0.0210307913720667
 10
-53.374080306093489
 20
-103.59515510906527
 10
-55.943227548901149
 20
-102.69616156524266
 42
-0.0075623152936687
 10
-60.108979546548426
 20
-101.16738519745326
 42
-0.0025516908943988
 10
-64.243376822570823
 20
-99.554500221032043
 10
-65.907545743961435
 20
-98.895480146987893
 42
0.008991448856143
 10
-73.412712443284789
 20
-96.07843103465251
 10
-75.313880619203786
 20
-95.403578209106442
 42
0.0057797893404898
 10
-81.28638049617571
 20
-93.3609587348883
 42
0.0067484379450092
 10
-87.308034288908473
 20
-91.468658364703273
 10
-87.344032686234499
 20
-91.457877510104652
 42
0.0078489875293227
 10
-93.490479390433393
 20
-89.721785357745048
 10
-93.510040569970357
 20
-89.716590338362806
 42
0.0090588421892933
 10
-99.750712045919016
 20
-88.179676654296827
 10
-99.76438769138224
 20
-88.17657035408152
 42
0.0104039983369947
 10
-106.04950229511084
 20
-86.885858756988213
 10
-106.07054520210784
 20
-86.881991817928423
 42
0.0119085072120075
 10
-112.36430832011919
 20
-85.879728807856679
 10
-112.39437642564903
 20
-85.87567217391782
 42
0.0135923461486701
 10
-118.67019241075121
 20
-85.202079991305965
 10
-118.70591674387134
 20
-85.199225313533404
 42
0.0154667711953229
 10
-124.93801782555616
 20
-84.894807229847203
 10
-124.97515452267965
 20
-84.894143269651025
 42
0.0175267453932879
 10
-131.13868940489803
 20
-85.0
 10
-131.1720729414873
 20
-85.001744971437702
 42
0.0197400076138961
 10
-137.24308012001302
 20
-85.560008450482499
 10
-137.26673284774006
 20
-85.563128959915133
 42
0.0220337275041754
 10
-143.22190037956506
 20
-86.61748485388668
 10
-143.22940366739664
 20
-86.619157168079497
 42
0.024282631607832
 10
-149.04551388957648
 20
-88.21535255235014
 42
0.0263067775276334
 10
-154.66954876815709
 20
-90.390280898153733
 10
-154.68374631678546
 20
-90.39664852913802
 42
0.0278901244016394
 10
-160.06623985953871
 20
-93.180888077069312
 10
-160.10578385236872
 20
-93.204224635126224
 42
0.0288341868728086
 10
-165.21418985540012
 20
-96.630446450387865
 10
-165.85984955460901
 20
-97.11969641650019
 42
0.0288083386598338
 10
-169.56119154392655
 20
-100.27573658937126
 10
-170.25192739307738
 20
-100.93705695568832
 42
0.0145547512447017
 10
-172.32845079149774
 20
-103.04435192878987
 42
0.0091225156213759
 10
-174.30340731140436
 20
-105.24814241503509
 10
-174.96955050471431
 20
-106.01932688820288
 42
0.0323358990367
 10
-177.97911075084841
 20
-109.99635985966017
 10
-178.12738158315318
 20
-110.22112245132014
 42
0.0169119875276654
 10
-181.0150544684715
 20
-114.93815141950738
 42
0.0357023115642441
 10
-183.38556726731309
 20
-119.92029540817987
 10
-183.68365797295513
 20
-120.68266625099731
 42
0.0332549908516082
 10
-185.64942751358575
 20
-126.89972950626455
 10
-185.82749841823684
 20
-127.62815746960291
 42
0.0292396752672253
 10
-186.73379407634241
 20
-132.57229777543137
 10
-186.7365906568609
 20
-132.59495074998085
 42
0.0138923216763446
 10
-187.20993731703769
 20
-137.55998434628125
 42
0.0248705881412137
 10
-187.29731502206744
 20
-142.54252120931469
 10
-187.27052478015742
 20
-143.37433390972831
 42
0.0209976455911655
 10
-186.7777877742426
 20
-150.00414337198089
 10
-186.77596389235566
 20
-150.0197722259974
 42
0.0170867819076027
 10
-185.77521370193887
 20
-156.62592844666818
 10
-185.7704996661806
 20
-156.65118615086678
 42
0.0133007885007777
 10
-184.35929943709311
 20
-163.23610179779178
 10
-184.3533050049777
 20
-163.26084193212398
 42
0.0096961272512566
 10
-182.62762505131681
 20
-169.82422308237608
 10
-182.62287224010981
 20
-169.8409721032304
 42
0.0063066069911995
 10
-180.67791638997878
 20
-176.3798502037682
 10
-180.67282984913825
 20
-176.39619374882201
 42
0.0029596527226919
 10
-178.61270765599824
 20
-182.88005046086639
 10
-178.60279617651636
 20
-182.91061689933261
 42
-0.0003472712966116
 10
-176.5285700645328
 20
-189.32258677364112
 10
-176.51300331164475
 20
-189.37082201000538
 42
-0.0037312967219359
 10
-174.52161640784789
 20
-195.70262316787756
 10
-174.34619773147961
 20
-196.27528058704692
 42
-0.0075554003074782
 10
-172.83184732766452
 20
-201.49951237767846
 10
-172.63342564792475
 20
-202.22484260480249
 42
-0.0070159530708416
 10
-171.64833354560972
 20
-206.03512169488644
 10
-171.60512701723172
 20
-206.21247456924121
 42
-0.0068103212748412
 10
-170.80732171093302
 20
-209.69273843589758
 42
-0.0079662798895696
 10
-170.1127245601935
 20
-213.19493684046202
 10
-169.95289646132443
 20
-214.07396520945485
 42
-0.0209894247461982
 10
-169.21712496401182
 20
-219.37618821931389
 10
-169.02465164317451
 20
-221.37677220362056
 42
-0.0197291872543046
 10
-168.84835358495695
 20
-224.49597764876353
 10
-168.82937251356006
 20
-225.61195358218362
 42
-0.0037186827690881
 10
-168.82081445294821
 20
-226.50622995437942
 10
-168.8263266093609
 20
-227.12359147260622
 42
-0.0052715170823948
 10
-168.85835617639356
 20
-228.53000386019792
 10
-168.87005150699599
 20
-228.88094856485571
 42
-0.0099794425888595
 10
-168.98233206828166
 20
-230.98667144553235
 10
-169.06081368434482
 20
-232.05647786341018
 42
-0.0171659562937518
 10
-169.51726770206068
 20
-236.28389680325805
 10
-169.62174953639897
 20
-237.01532489605199
 42
-0.0139164726361572
 10
-170.5895667609816
 20
-242.6629820411967
 10
-170.5978341168819
 20
-242.7042859118381
 42
-0.0108886184660069
 10
-171.86302460993107
 20
-248.38005275634833
 10
-171.87271349526583
 20
-248.41945696769631
 42
-0.0080566569623761
 10
-173.37279665990715
 20
-254.1223037347219
 10
-173.38217661684752
 20
-254.15576250101486
 42
-0.0053893642049595
 10
-175.05465506745941
 20
-259.88332620601773
 10
-175.06215992937678
 20
-259.90803436048816
 42
-0.0028792358294981
 10
-176.84448968613168
 20
-265.65672307934796
 10
-176.84897559765051
 20
-265.67090264841625
 42
-0.0003917884990803
 10
-178.67877232347803
 20
-271.43899282405926
 10
-178.68158373072191
 20
-271.44783122234861
 42
0.0020623717043951
 10
-180.48739366208764
 20
-277.20699903483296
 10
-180.49349626453625
 20
-277.22674667009431
 42
0.0045499628156371
 10
-182.21108610849319
 20
-282.96949800977939
 10
-182.21952347437073
 20
-282.99867274872878
 42
0.0071555073157603
 10
-183.78608060275207
 20
-288.72112504386632
 10
-183.79542557343848
 20
-288.75728531413262
 42
0.0099138643480831
 10
-185.14837758997126
 20
-294.45666584102872
 10
-185.15693830366226
 20
-294.49620051941054
 42
0.0128570648867972
 10
-186.23380444411407
 20
-300.17103554573117
 10
-186.35384491419617
 20
-300.90636776193855
 42
0.0161149838271394
 10
-186.90767861040555
 20
-305.15608828851236
 10
-186.91008173983116
 20
-305.18069194324801
 42
0.0091164580356748
 10
-187.24507431939503
 20
-309.40516823845064
 42
0.0208092490040071
 10
-187.32674752984053
 20
-313.63915352179458
 10
-187.31129617374779
 20
-314.3311494574935
 42
0.0239813311948367
 10
-186.91706342569844
 20
-319.93149400165873
 42
0.0267435485647494
 10
-185.95822815080967
 20
-325.45948332447961
 10
-185.95197743702454
 20
-325.48676670078919
 42
0.0287070443059117
 10
-184.3721366681163
 20
-330.9272208252176
 10
-184.35004791889321
 20
-330.98966219370828
 42
0.0296617386290905
 10
-182.0963030899903
 20
-336.33040141055113
 10
-181.75033995175778
 20
-337.03110326584789
 42
0.0292827730274672
 10
-179.43288603137009
 20
-341.10527594960411
 10
-178.81531119897656
 20
-342.05674836930319
 42
0.014178047765188
 10
-177.43757698498885
 20
-344.05306176191834
 10
-177.20473584341516
 20
-344.37078378609141
 42
0.0068547418657652
 10
-176.2181283588435
 20
-345.67905159779014
 10
-176.19607973319259
 20
-345.70110022344113
 42
0.006587553371165
 10
-175.08201235566563
 20
-347.06684665606883
 10
-174.2610742576274
 20
-348.04660134168307
 42
0.0279746776090224
 10
-171.31101545003446
 20
-351.19199539432719
 10
-170.3479570331551
 20
-352.11008639746979
 42
0.0285944863807016
 10
-165.41289319858313
 20
-356.30345454942153
 10
-165.34745588597798
 20
-356.35290681848181
 42
0.0284061524761092
 10
-160.10346558657949
 20
-359.86674448017504
 10
-160.06376579334326
 20
-359.89019538591151
 42
0.0274965018131981
 10
-154.5417177324635
 20
-362.75506369109814
 10
-154.52661315277859
 20
-362.76187429566465
 42
0.0259917440870932
 10
-148.76020157393521
 20
-365.00925678103238
 42
0.0240826589287632
 10
-142.79688197444136
 20
-366.66928656957884
 10
-142.79093788308987
 20
-366.67063666897843
 42
0.0219664069174186
 10
-136.68706860369733
 20
-367.77768518374791
 10
-136.66534906273529
 20
-367.78064615473323
 42
0.01980779658346
 10
-130.44567459038134
 20
-368.37883419814921
 10
-130.41436874990205
 20
-368.38059768405975
 42
0.0177234534575721
 10
-124.10371445091575
 20
-368.51205643034302
 10
-124.06862187319953
 20
-368.51154351686245
 42
0.0157826701057158
 10
-117.69242411587391
 20
-368.21689597386074
 10
-117.65858935876935
 20
-368.21426033430134
 42
0.0140203615535056
 10
-111.24312917823164
 20
-367.53309500275833
 10
-111.21473032547004
 20
-367.52927187198816
 42
0.0124366347100854
 10
-104.78716617019367
 20
-366.50063150098697
 10
-104.7675230589642
 20
-366.49698471730716
 42
0.0110568849716103
 10
-98.355846099473595
 20
-365.15934782699549
 10
-98.342515585313294
 20
-365.15625766471084
 42
0.0097288694586604
 10
-91.985299260654429
 20
-363.55163668776828
 10
-91.8271366440202
 20
-363.5084249362539
 42
0.008908522052721
 10
-85.84862520400722
 20
-361.75999084145712
 10
-84.580608337906781
 20
-361.36450036997229
 42
0.0059622128070926
 10
-81.182456067528534
 20
-360.25999690742947
 42
0.001991522937744
 10
-77.802089172349767
 20
-359.10150678059847
 10
-77.440920882725607
 20
-358.97612059305379
 42
0.000893789518806
 10
-73.345388071455659
 20
-357.54607278686689
 10
-71.364428626939443
 20
-356.85040069862362
 42
-0.0010572310049858
 10
-63.30358807884393
 20
-354.03873198166428
 10
-62.774682294139119
 20
-353.85550001797611
 42
-0.0040360743562817
 10
-53.735164290316263
 20
-350.80538550756228
 10
-53.714688212820455
 20
-350.79866007573486
 42
-0.0069968420354514
 10
-44.651800852616816
 20
-347.9617953427823
 10
-44.642792308922871
 20
-347.95911330629485
 42
-0.0099632290728748
 10
-35.507949869339868
 20
-345.43648516406233
 42
-0.0128770169055114
 10
-26.268676060994917
 20
-343.3338881806967
 10
-26.25963715312416
 20
-343.33207463899885
 42
-0.0156239281019856
 10
-16.898878145668704
 20
-341.75641367596859
 10
-15.712035509551216
 20
-341.59458371843243
 42
-0.0181288508397456
 10
-8.505684049944783
 20
-340.87689459015547
 10
-6.7155843732030451
 20
-340.76395063762516
 42
-0.0098521661775947
 10
-3.0602805383906757
 20
-340.6055533704365
 10
-2.4562892119637643
 20
-340.59129486318312
 42
-0.0050618089953106
 10
-0.0055121564127383
 20
-340.55825829035592
 10
0.0
 20
-340.55825829035592
  0
LWPOLYLINE
  5
119
100
AcDbEntity
  8
0
370
              15
390
0
  6
Continuous
 62
               7
100
AcDbPolyline
 90
      161
 70
             128
 10
222.9887755209314
 20
0.0
 42
-0.0170990875845761
 10
223.12508063468556
 20
-0.0046627494456928
 10
223.29209475460223
 20
-0.0161026335135513
 42
-0.0994690575108226
 10
223.73780387065503
 20
-0.1378624934428774
 10
223.88661133667975
 20
-0.2125107725736339
 42
-0.0646038286600924
 10
224.31115999675859
 20
-0.4992295361742271
 42
-0.0637278792661087
 10
224.64922786042041
 20
-0.8842975459098775
 10
224.64965301018805
 20
-0.8849281297696788
 42
-0.0650262216543258
 10
224.87926828288909
 20
-1.3445105427596866
 10
224.91239773323991
 20
-1.4401474801954495
 42
-0.0667256739936404
 10
224.97847332720218
 20
-1.7657442411116531
 10
224.98514205879292
 20
-1.8651820522249931
 42
-0.0167425819308106
 10
224.9896882987556
 20
-2.0009127778241118
 10
224.9896882987556
 20
-2.0064249342368612
 10
224.70305616529311
 20
-236.75263008353991
 42
0.0012448028658844
 10
224.70471084429462
 20
-239.03129968790972
 10
224.71404298874731
 20
-241.93328845395652
 42
0.0025746891201433
 10
224.78165402352937
 20
-250.01558331383677
 10
224.82051086407716
 20
-252.89060496962139
 42
-0.0006251462018008
 10
224.9372888757058
 20
-262.41198429059864
 42
-0.0022942307413676
 10
224.99847170410774
 20
-271.93379035483662
 10
224.99855690744263
 20
-271.98017191321458
 42
-0.0040340917843804
 10
224.93864773554782
 20
-281.59453846469376
 10
224.93827688134962
 20
-281.62047187594663
 42
-0.0057867497362184
 10
224.68821746234494
 20
-291.28332772440422
 10
224.68760601587414
 20
-291.29964883841058
 42
-0.0076086027705485
 10
224.17903489573496
 20
-300.94781927890028
 10
224.1775290052349
 20
-300.96996984626355
 42
-0.0095198741322126
 10
223.34272120004556
 20
-310.55020370163561
 10
223.33944829837228
 20
-310.58097663443561
 42
-0.0115414192683832
 10
222.11003911200976
 20
-320.05538661877563
 10
222.1048357946344
 20
-320.08932730457036
 42
-0.0136780318879519
 10
220.41177813072454
 20
-329.42114982283454
 10
220.40536972394054
 20
-329.45169059330811
 42
-0.015912108756471
 10
218.17842152817798
 20
-338.6052186780085
 10
218.17298192552116
 20
-338.62483724675093
 42
-0.0181941345573106
 10
215.34010608567144
 20
-347.5651217783975
 42
-0.0204353771818548
 10
211.82666986039897
 20
-356.25796806344931
 10
211.34742134596692
 20
-357.3169823639081
 42
-0.022535092352994
 10
208.1538737406155
 20
-363.60347247300609
 10
207.28865392792551
 20
-365.13196260904886
 42
-0.0119419177508262
 10
205.46940262941195
 20
-368.17400863842408
 10
205.15554711268388
 20
-368.67145305522484
 42
-0.0060953270759772
 10
203.86710492514089
 20
-370.65944581820122
 10
203.60803357374209
 20
-371.04529676709291
 42
-0.007917439668211
 10
202.53794196568239
 20
-372.56304256731971
 10
202.26658210620894
 20
-372.93526359633665
 42
-0.0157124258679718
 10
200.56084741130539
 20
-375.12688992429355
 10
199.68582905649492
 20
-376.18108470144068
 42
-0.0299116442518051
 10
195.92040793244828
 20
-380.20202329095582
 10
195.26494764184565
 20
-380.82300962265208
 42
-0.0274751454979696
 10
189.68769248414989
 20
-385.55375596018547
 10
189.68474145569007
 20
-385.55599247990943
 42
-0.0246886112419752
 10
183.63739287248237
 20
-389.68572514457185
 10
183.61285305359519
 20
-389.70076353382444
 42
-0.0218360497065037
 10
177.15601276037228
 20
-393.27967129499257
 10
177.11781034013836
 20
-393.29871579449866
 42
-0.0191080821256998
 10
170.31064837187319
 20
-396.37335562792748
 10
170.26728951771881
 20
-396.39097792323139
 42
-0.0166067480040015
 10
163.16902784558656
 20
-399.00480058740925
 10
163.12847848245747
 20
-399.01822091134579
 42
-0.0143690733089323
 10
155.79921062858591
 20
-401.21238802951081
 10
155.76836590114584
 20
-401.22066421224042
 42
-0.0123917405319367
 10
148.26937100366303
 20
-403.03483088310577
 10
148.24946226838654
 20
-403.03912797903826
 42
-0.0106494989173388
 10
140.65216798556628
 20
-404.51032864747788
 10
140.62430445376003
 20
-404.51511110391021
 42
-0.0091073219279226
 10
133.03024109943047
 20
-405.67657911786688
 10
132.97611362184026
 20
-405.68385134677885
 42
-0.0077242684016548
 10
125.45536068551567
 20
-406.57624870854454
 42
-0.0066674801283385
 10
117.91181108149311
 20
-407.25185710304322
 10
115.85327049077513
 20
-407.40858324389438
 42
-0.0093258867638085
 10
105.70313325439707
 20
-407.99119782714342
 10
104.23574032607874
 20
-408.04799303327417
 42
-0.0017690868146625
 10
97.00862208677168
 20
-408.30211179722198
 42
-0.0002732674048681
 10
89.78048197803102
 20
-408.52670925149658
 10
72.1735470105979
 20
-409.06417141558222
 42
-0.0061396058736914
 10
29.722061646460581
 20
-409.83845141434028
 10
12.737418145348446
 20
-409.93964870962316
 42
-0.0005577868343437
 10
4.2458213396430367
 20
-409.98076975985305
 42
-0.0017848404514309
 10
-4.2458261068856533
 20
-409.98210523704523
 10
-23.354324211732933
 20
-409.91689899962881
 42
-0.0067531309253237
 10
-70.051630916425552
 20
-409.1267950039329
 10
-89.780469604645262
 20
-408.52637692261777
 42
-0.0002962742022872
 10
-97.008624326111487
 20
-408.30211162786077
 42
-0.0016483899421426
 10
-104.23581413299274
 20
-408.04973678246182
 10
-105.70359643611842
 20
-407.99363611782928
 42
-0.0095444481661333
 10
-115.85440448250836
 20
-407.41144804879457
 10
-117.91237500378469
 20
-407.25395507901345
 42
-0.0065647149855504
 10
-125.45625162200902
 20
-406.57690370283785
 42
-0.0077235253200197
 10
-132.97745449086662
 20
-405.68461392574505
 10
-133.03162944249806
 20
-405.67733656450014
 42
-0.0091056586081529
 10
-140.62624665662415
 20
-404.51598528071759
 10
-140.65414911420612
 20
-404.51119698314153
 42
-0.0106481427236025
 10
-148.25208779839008
 20
-403.04012343313889
 10
-148.27200211143602
 20
-403.03582585585724
 42
-0.012390627038496
 10
-155.7717756332674
 20
-401.22176371530702
 10
-155.80259832130892
 20
-401.21349473877052
 42
-0.014368650156997
 10
-163.13269937503989
 20
-399.01939740591388
 10
-163.17323287550579
 20
-399.00598416744219
 42
-0.0166075915082881
 10
-170.27235882961773
 20
-396.39215867547057
 10
-170.31571058205355
 20
-396.37454115772385
 42
-0.0191110049699623
 10
-177.12372373822561
 20
-393.29977585927384
 10
-177.16193321264174
 20
-393.28072907171997
 42
-0.021841926689909
 10
-183.61953245027067
 20
-389.70151886785538
 10
-183.64410161367255
 20
-389.68646257209764
 42
-0.0246979473110772
 10
-189.69199236523809
 20
-385.55621418521451
 10
-189.69500625571627
 20
-385.55392985736029
 42
-0.0274873077375339
 10
-195.27242100726465
 20
-380.82247874110942
 10
-195.9287712285192
 20
-380.20054505916886
 42
-0.0299320266806324
 10
-199.69231376964427
 20
-376.18061029027649
 10
-200.56651281052174
 20
-375.12704863367469
 42
-0.0156701166175815
 10
-202.27208409831917
 20
-372.93526810177184
 10
-202.54344802512173
 20
-372.56304466972858
 42
-0.0079184551827075
 10
-203.61354573015481
 20
-371.04529676709291
 10
-203.8726170815535
 20
-370.65944581820122
 42
-0.0063720230570095
 10
-205.15962685036905
 20
-368.67125344565892
 10
-206.72653005685896
 20
-366.18169346404397
 42
-0.034296177708968
 10
-210.62403342003719
 20
-358.93032499272567
 10
-211.83254459560115
 20
-356.25736003527544
 42
-0.020354099990908
 10
-215.3445302219431
 20
-347.56348118824206
 42
-0.0181900710026761
 10
-218.17711130473316
 20
-338.62349266362992
 10
-218.18255406131016
 20
-338.60386178182114
 42
-0.01590930917284
 10
-220.40935885655296
 20
-329.45065589332819
 10
-220.41577186290385
 20
-329.42009303401579
 42
-0.0136763600386436
 10
-222.10879634328376
 20
-320.08857214885353
 10
-222.11400374339195
 20
-320.05460609670718
 42
-0.0115406952577559
 10
-223.34344707519844
 20
-310.58045457753991
 10
-223.34672286458286
 20
-310.54965697495561
 42
-0.0095195469346713
 10
-224.18160053865961
 20
-300.96963245396233
 10
-224.18310819438062
 20
-300.94745912674216
 42
-0.0076096376444289
 10
-224.6917454479713
 20
-291.29944965764412
 10
-224.69235695817045
 20
-291.28312930429973
 42
-0.0057846908062936
 10
-224.94250859037328
 20
-281.62035714915868
 10
-224.94287968651983
 20
-281.59443198439573
 42
-0.0040416703156014
 10
-225.0027761540303
 20
-271.98013179077907
 10
-225.0026902185358
 20
-271.93376648940227
 42
-0.0022868505874412
 10
-224.94149164809701
 20
-262.41199263251985
 10
-224.94074613720784
 20
-262.34422675259691
 42
-0.0005275831171828
 10
-224.82758498537154
 20
-252.95838396486602
 10
-224.81157876868627
 20
-251.73764539554315
 42
0.0013711167273605
 10
-224.73956974474336
 20
-244.7932016843983
 10
-224.72616352640688
 20
-243.03543445215388
 42
0.0014308195024653
 10
-224.7098232802274
 20
-239.60628097959261
 10
-224.70872776445594
 20
-239.03073135077625
 42
0.0009167171398261
 10
-224.70856832170591
 20
-236.75263008353991
 10
-224.99520045516829
 20
-2.0064249342368612
 10
-224.99520045516829
 20
-2.0009127778241118
 42
-0.0172677989411072
 10
-224.99051172493449
 20
-1.8651881212295323
 10
-224.97898067172497
 20
-1.6984926193969612
 42
-0.0994043764748924
 10
-224.85728506071121
 20
-1.2539745420517507
 10
-224.78274648767135
 20
-1.1055407792835357
 42
-0.0643135907495901
 10
-224.49591090557448
 20
-0.6806729425738201
 42
-0.0635274342193611
 10
-224.11098896905196
 20
-0.3419575763251158
 10
-224.1102995119945
 20
-0.3414911910670792
 42
-0.0650304748564482
 10
-223.6506809771092
 20
-0.1109797300567715
 10
-223.55507490844451
 20
-0.077698202594246
 42
-0.066995196489465
 10
-223.22949159478173
 20
-0.0112921596458105
 10
-223.13001999754158
 20
-0.0045765963275902
 42
-0.0168541150976303
 10
-222.99428767734409
 20
0.0
 10
222.9887755209314
 20
0.0
  0
ENDBLK
  5
11A
100
AcDbEntity
  8
GAR70-1701
390
0
100
AcDbBlockEnd
  0
BLOCK
  5
11B
100
AcDbEntity
  8
GAR70-1701
390
0
100
AcDbBlockBegin
  2
グループ-1
 70
               0
 10
0.0
 20
0.0
 30
0.0
  3
グループ-1
  1

  0
LINE
  5
11C
100
AcDbEntity
  8
0
370
              15
390
0
  6
STYLE_12
 62
               7
100
AcDbLine
 10
70.086622293575161
 20
554.99324288998855
 30
0.0
 11
110.08662229357516
 21
554.99324288998855
 31
0.0
  0
LINE
  5
11D
100
AcDbEntity
  8
0
370
              15
390
0
  6
STYLE_12
 62
               7
100
AcDbLine
 10
90.086622293575161
 20
534.99324288998878
 30
0.0
 11
90.086622293575161
 21
574.9932428899881
 31
0.0
  0
CIRCLE
  5
11E
100
AcDbEntity
  8
0
370
              15
390
0
  6
STYLE_12
 62
               7
100
AcDbCircle
 10
90.087629793575175
 20
554.99324288998855
 30
0.0
 40
10.0
  0
ENDBLK
  5
11F
100
AcDbEntity
  8
GAR70-1701
390
0
100
AcDbBlockEnd
  0
BLOCK
  5
120
100
AcDbEntity
  8
GAR70-1701
390
0
100
AcDbBlockBegin
  2
グループ-2
 70
               0
 10
0.0
 20
0.0
 30
0.0
  3
グループ-2
  1

  0
LINE
  5
121
100
AcDbEntity
  8
0
370
              15
390
0
  6
STYLE_12
 62
               7
100
AcDbLine
 10
-109.91735002081984
 20
554.99875504640136
 30
0.0
 11
-69.917350020819839
 21
554.99875504640136
 31
0.0
  0
LINE
  5
122
100
AcDbEntity
  8
0
370
              15
390
0
  6
STYLE_12
 62
               7
100
AcDbLine
 10
-89.917350020819839
 20
534.99875504640158
 30
0.0
 11
-89.917350020819839
 21
574.9987550464009
 31
0.0
  0
CIRCLE
  5
123
100
AcDbEntity
  8
0
370
              15
390
0
  6
STYLE_12
 62
               7
100
AcDbCircle
 10
-89.916342520819825
 20
554.99875504640136
 30
0.0
 40
10.0
  0
ENDBLK
  5
124
100
AcDbEntity
  8
GAR70-1701
390
0
100
AcDbBlockEnd
  0
BLOCK
  5
125
100
AcDbEntity
  8
GAR70-1701
390
0
100
AcDbBlockBegin
  2
815031V
 70
               0
 10
0.0
 20
0.0
 30
0.0
  3
815031V
  1

  0
LINE
  5
126
100
AcDbEntity
  8
0
370
              15
390
0
  6
Continuous
 62
               7
100
AcDbLine
 10
-39.453558062197033
 20
466.43493796292842
 30
0.0
 11
39.629349991365132
 21
466.43493796292842
 31
0.0
  0
SPLINE
  5
127
100
AcDbEntity
  8
0
370
              15
390
0
  6
Continuous
 62
               7
100
AcDbSpline
210
0.0
220
0.0
230
1.0
 70
              12
 71
               2
 72
             490
 73
             487
 74
               0
 42
0.000001
 43
0.000001
 40
0.0
 40
0.0
 40
0.0
 40
1.0
 40
1.0
 40
2.0
 40
2.0
 40
3.0
 40
3.0
 40
4.0
 40
4.0
 40
5.0
 40
5.0
 40
6.0
 40
6.0
 40
7.0
 40
7.0
 40
8.0
 40
8.0
 40
9.0
 40
9.0
 40
10.0
 40
10.0
 40
11.0
 40
11.0
 40
12.0
 40
12.0
 40
13.0
 40
13.0
 40
14.0
 40
14.0
 40
15.0
 40
15.0
 40
16.0
 40
16.0
 40
17.0
 40
17.0
 40
18.0
 40
18.0
 40
19.0
 40
19.0
 40
20.0
 40
20.0
 40
21.0
 40
21.0
 40
22.0
 40
22.0
 40
23.0
 40
23.0
 40
24.0
 40
24.0
 40
25.0
 40
25.0
 40
26.0
 40
26.0
 40
27.0
 40
27.0
 40
28.0
 40
28.0
 40
29.0
 40
29.0
 40
30.0
 40
30.0
 40
31.0
 40
31.0
 40
32.0
 40
32.0
 40
33.0
 40
33.0
 40
34.0
 40
34.0
 40
35.0
 40
35.0
 40
36.0
 40
36.0
 40
37.0
 40
37.0
 40
38.0
 40
38.0
 40
39.0
 40
39.0
 40
40.0
 40
40.0
 40
41.0
 40
41.0
 40
42.0
 40
42.0
 40
43.0
 40
43.0
 40
44.0
 40
44.0
 40
45.0
 40
45.0
 40
46.0
 40
46.0
 40
47.0
 40
47.0
 40
48.0
 40
48.0
 40
49.0
 40
49.0
 40
50.0
 40
50.0
 40
51.0
 40
51.0
 40
52.0
 40
52.0
 40
53.0
 40
53.0
 40
54.0
 40
54.0
 40
55.0
 40
55.0
 40
56.0
 40
56.0
 40
57.0
 40
57.0
 40
58.0
 40
58.0
 40
59.0
 40
59.0
 40
60.0
 40
60.0
 40
61.0
 40
61.0
 40
62.0
 40
62.0
 40
63.0
 40
63.0
 40
64.0
 40
64.0
 40
65.0
 40
65.0
 40
66.0
 40
66.0
 40
67.0
 40
67.0
 40
68.0
 40
68.0
 40
69.0
 40
69.0
 40
70.0
 40
70.0
 40
71.0
 40
71.0
 40
72.0
 40
72.0
 40
73.0
 40
73.0
 40
74.0
 40
74.0
 40
75.0
 40
75.0
 40
76.0
 40
76.0
 40
77.0
 40
77.0
 40
78.0
 40
78.0
 40
79.0
 40
79.0
 40
80.0
 40
80.0
 40
81.0
 40
81.0
 40
82.0
 40
82.0
 40
83.0
 40
83.0
 40
84.0
 40
84.0
 40
85.0
 40
85.0
 40
86.0
 40
86.0
 40
87.0
 40
87.0
 40
88.0
 40
88.0
 40
89.0
 40
89.0
 40
90.0
 40
90.0
 40
91.0
 40
91.0
 40
92.0
 40
92.0
 40
93.0
 40
93.0
 40
94.0
 40
94.0
 40
95.0
 40
95.0
 40
96.0
 40
96.0
 40
97.0
 40
97.0
 40
98.0
 40
98.0
 40
99.0
 40
99.0
 40
100.0
 40
100.0
 40
101.0
 40
101.0
 40
102.0
 40
102.0
 40
103.0
 40
103.0
 40
104.0
 40
104.0
 40
105.0
 40
105.0
 40
106.0
 40
106.0
 40
107.0
 40
107.0
 40
108.0
 40
108.0
 40
109.0
 40
109.0
 40
110.0
 40
110.0
 40
111.0
 40
111.0
 40
112.0
 40
112.0
 40
113.0
 40
113.0
 40
114.0
 40
114.0
 40
115.0
 40
115.0
 40
116.0
 40
116.0
 40
117.0
 40
117.0
 40
118.0
 40
118.0
 40
119.0
 40
119.0
 40
120.0
 40
120.0
 40
121.0
 40
121.0
 40
122.0
 40
122.0
 40
123.0
 40
123.0
 40
124.0
 40
124.0
 40
125.0
 40
125.0
 40
126.0
 40
126.0
 40
127.0
 40
127.0
 40
128.0
 40
128.0
 40
129.0
 40
129.0
 40
130.0
 40
130.0
 40
131.0
 40
131.0
 40
132.0
 40
132.0
 40
133.0
 40
133.0
 40
134.0
 40
134.0
 40
135.0
 40
135.0
 40
136.0
 40
136.0
 40
137.0
 40
137.0
 40
138.0
 40
138.0
 40
139.0
 40
139.0
 40
140.0
 40
140.0
 40
141.0
 40
141.0
 40
142.0
 40
142.0
 40
143.0
 40
143.0
 40
144.0
 40
144.0
 40
145.0
 40
145.0
 40
146.0
 40
146.0
 40
147.0
 40
147.0
 40
148.0
 40
148.0
 40
149.0
 40
149.0
 40
150.0
 40
150.0
 40
151.0
 40
151.0
 40
152.0
 40
152.0
 40
153.0
 40
153.0
 40
154.0
 40
154.0
 40
155.0
 40
155.0
 40
156.0
 40
156.0
 40
157.0
 40
157.0
 40
158.0
 40
158.0
 40
159.0
 40
159.0
 40
160.0
 40
160.0
 40
161.0
 40
161.0
 40
162.0
 40
162.0
 40
163.0
 40
163.0
 40
164.0
 40
164.0
 40
165.0
 40
165.0
 40
166.0
 40
166.0
 40
167.0
 40
167.0
 40
168.0
 40
168.0
 40
169.0
 40
169.0
 40
170.0
 40
170.0
 40
171.0
 40
171.0
 40
172.0
 40
172.0
 40
173.0
 40
173.0
 40
174.0
 40
174.0
 40
175.0
 40
175.0
 40
176.0
 40
176.0
 40
177.0
 40
177.0
 40
178.0
 40
178.0
 40
179.0
 40
179.0
 40
180.0
 40
180.0
 40
181.0
 40
181.0
 40
182.0
 40
182.0
 40
183.0
 40
183.0
 40
184.0
 40
184.0
 40
185.0
 40
185.0
 40
186.0
 40
186.0
 40
187.0
 40
187.0
 40
188.0
 40
188.0
 40
189.0
 40
189.0
 40
190.0
 40
190.0
 40
191.0
 40
191.0
 40
192.0
 40
192.0
 40
193.0
 40
193.0
 40
194.0
 40
194.0
 40
195.0
 40
195.0
 40
196.0
 40
196.0
 40
197.0
 40
197.0
 40
198.0
 40
198.0
 40
199.0
 40
199.0
 40
200.0
 40
200.0
 40
201.0
 40
201.0
 40
202.0
 40
202.0
 40
203.0
 40
203.0
 40
204.0
 40
204.0
 40
205.0
 40
205.0
 40
206.0
 40
206.0
 40
207.0
 40
207.0
 40
208.0
 40
208.0
 40
209.0
 40
209.0
 40
210.0
 40
210.0
 40
211.0
 40
211.0
 40
212.0
 40
212.0
 40
213.0
 40
213.0
 40
214.0
 40
214.0
 40
215.0
 40
215.0
 40
216.0
 40
216.0
 40
217.0
 40
217.0
 40
218.0
 40
218.0
 40
219.0
 40
219.0
 40
220.0
 40
220.0
 40
221.0
 40
221.0
 40
222.0
 40
222.0
 40
223.0
 40
223.0
 40
224.0
 40
224.0
 40
225.0
 40
225.0
 40
226.0
 40
226.0
 40
227.0
 40
227.0
 40
228.0
 40
228.0
 40
229.0
 40
229.0
 40
230.0
 40
230.0
 40
231.0
 40
231.0
 40
232.0
 40
232.0
 40
233.0
 40
233.0
 40
234.0
 40
234.0
 40
235.0
 40
235.0
 40
236.0
 40
236.0
 40
237.0
 40
237.0
 40
238.0
 40
238.0
 40
239.0
 40
239.0
 40
240.0
 40
240.0
 40
241.0
 40
241.0
 40
242.0
 40
242.0
 40
243.0
 40
243.0
 40
243.0
 10
83.588797382956272
 20
466.57274187324691
 30
0.0
 41
1.0
 10
83.610599380250505
 20
466.55196184457583
 30
0.0
 41
1.0
 10
83.950546327013328
 20
466.22838401709396
 30
0.0
 41
1.0
 10
84.290488752992985
 20
465.9048106059733
 30
0.0
 41
0.9999789347900239
 10
84.626202148706327
 20
465.57685158215509
 30
0.0
 41
1.0
 10
84.783286791266619
 20
465.42339531055939
 30
0.0
 41
1.0
 10
84.940371433826925
 20
465.26993903896363
 30
0.0
 41
1.0
 10
84.961911023639999
 20
465.24889697469473
 30
0.0
 41
0.9999983038184421
 10
84.983372955379167
 20
465.22777570853867
 30
0.0
 41
1.0
 10
85.250712541396993
 20
464.96319220072729
 30
0.0
 41
1.0
 10
85.518052127414819
 20
464.69860869291591
 30
0.0
 41
1.0
 10
85.635217575425969
 20
464.56777394263679
 30
0.0
 41
0.9996713100755664
 10
85.758935302184838
 20
464.44311682020185
 30
0.0
 41
1.0
 10
85.791240868943333
 20
464.41056595545319
 30
0.0
 41
1.0
 10
85.823546435701815
 20
464.37801509070448
 30
0.0
 41
1.0
 10
86.0118752959783
 20
464.18825623877143
 30
0.0
 41
0.9989614169494313
 10
86.216696605913228
 20
464.01642954557008
 30
0.0
 41
1.0
 10
86.328532522176829
 20
463.92260925080274
 30
0.0
 41
1.0
 10
86.44036843844043
 20
463.8287889560354
 30
0.0
 41
1.0
 10
86.868861580902745
 20
463.46932167329913
 30
0.0
 41
0.9972993896185133
 10
87.345390578416954
 20
463.17650224938166
 30
0.0
 41
1.0
 10
87.438428373820074
 20
463.11933201673139
 30
0.0
 41
1.0
 10
87.531466169223194
 20
463.06216178408113
 30
0.0
 41
1.0
 10
88.194070757543614
 20
462.65500189486312
 30
0.0
 41
0.9980736713110558
 10
88.901997668602505
 20
462.33303372182411
 30
0.0
 41
1.0
 10
88.913392441318891
 20
462.32785133068126
 30
0.0
 41
1.0
 10
88.924787214035277
 20
462.32266893953835
 30
0.0
 41
1.0
 10
89.655554734432485
 20
461.99031276013193
 30
0.0
 41
0.9982707222037467
 10
90.420278742819889
 20
461.74601992386164
 30
0.0
 41
1.0
 10
90.432051259729377
 20
461.74225905997378
 30
0.0
 41
1.0
 10
90.44382377663888
 20
461.73849819608586
 30
0.0
 41
1.0
 10
91.185053815112909
 20
461.50170386350965
 30
0.0
 41
0.9980764552340583
 10
91.949889872004235
 20
461.35845815866827
 30
0.0
 41
1.0
 10
92.057464675089605
 20
461.33831053572044
 30
0.0
 41
1.0
 10
92.165039478174975
 20
461.31816291277266
 30
0.0
 41
1.0
 10
92.71472592889566
 20
461.21521245382684
 30
0.0
 41
0.997252941686244
 10
93.27359006298569
 20
461.19460006117373
 30
0.0
 41
1.0
 10
93.419370423441592
 20
461.18922329453665
 30
0.0
 41
1.0
 10
93.565150783897508
 20
461.18384652789956
 30
0.0
 41
1.0
 10
93.83245419707572
 20
461.17398766852057
 30
0.0
 41
0.9989955403957949
 10
94.099566825526111
 20
461.18809991594316
 30
0.0
 41
1.0
 10
94.145385267870338
 20
461.19052062213973
 30
0.0
 41
1.0
 10
94.191203710214566
 20
461.19294132833636
 30
0.0
 41
1.0
 10
94.366679453975635
 20
461.20221216336569
 30
0.0
 41
0.9996733101376734
 10
94.541452175068045
 20
461.2204379964777
 30
0.0
 41
1.0
 10
95.515893585696276
 20
461.26656728297496
 30
0.0
 41
0.9999996848846763
 10
96.490260525465487
 20
461.31424369752824
 30
0.0
 41
1.0
 10
97.709088911310275
 20
461.37388177125712
 30
0.0
 41
1.0
 10
98.927917297155062
 20
461.43351984498599
 30
0.0
 41
1.0
 10
102.33994100858942
 20
461.60047240699589
 30
0.0
 41
0.9999604605604665
 10
105.74845594450946
 20
461.82807929824202
 30
0.0
 41
1.0
 10
106.96619614361845
 20
461.90939508129577
 30
0.0
 41
1.0
 10
108.18393634272743
 20
461.99071086434947
 30
0.0
 41
1.0
 10
112.08171929457791
 20
462.25098910196954
 30
0.0
 41
0.9999672016044903
 10
115.97477498058623
 20
462.57436833190411
 30
0.0
 41
1.0
 10
119.86783066659027
 20
462.89774756183834
 30
0.0
 41
0.9999559930477019
 10
123.75413380395359
 20
463.29411182011671
 30
0.0
 41
1.0
 10
125.21144036697349
 20
463.44274259196317
 30
0.0
 41
1.0
 10
126.66874692999339
 20
463.59137336380962
 30
0.0
 41
1.0
 10
131.5240831322277
 20
464.08656935456719
 30
0.0
 41
0.9996959930220123
 10
136.3491042622162
 20
464.82051744616547
 30
0.0
 41
1.0
 10
137.98943163224658
 20
465.07003244524969
 30
0.0
 41
1.0
 10
139.62975900227698
 20
465.31954744433386
 30
0.0
 41
1.0
 10
141.17412539220499
 20
465.5544655377638
 30
0.0
 41
0.9999630684063042
 10
142.71422588332248
 20
465.8158934135148
 30
0.0
 41
1.0
 10
142.74495135445403
 20
465.82110897879488
 30
0.0
 41
1.0
 10
142.77567682558558
 20
465.82632454407502
 30
0.0
 41
1.0
 10
144.25432637439425
 20
466.07732128925795
 30
0.0
 41
0.9999982470204407
 10
145.73202561479886
 20
466.33385356690962
 30
0.0
 41
1.0
 10
147.20972485515773
 20
466.59038584455345
 30
0.0
 41
0.9999390630604711
 10
148.68140029875812
 20
466.87947967557358
 30
0.0
 41
1.0
 10
149.14627210236534
 20
466.97079843150061
 30
0.0
 41
1.0
 10
149.61114390597254
 20
467.0621171874277
 30
0.0
 41
1.0
 10
151.45030568952791
 20
467.42339951240353
 30
0.0
 41
0.9999486788132822
 10
153.28176991219797
 20
467.82187132509546
 30
0.0
 41
1.0
 10
153.6341514737245
 20
467.8985390087131
 30
0.0
 41
1.0
 10
153.98653303525103
 20
467.97520669233074
 30
0.0
 41
1.0
 10
155.11323413487008
 20
468.22034313778795
 30
0.0
 41
0.9999252119435559
 10
156.23360265063894
 20
468.49296308138412
 30
0.0
 41
1.0
 10
157.35397116640388
 20
468.76558302497932
 30
0.0
 41
0.9999977975689139
 10
158.47318547735327
 20
469.04290336489186
 30
0.0
 41
1.0
 10
159.00794018087367
 20
469.1754055628171
 30
0.0
 41
1.0
 10
159.54269488439405
 20
469.3079077607423
 30
0.0
 41
1.0
 10
161.73141860237791
 20
469.85023249650374
 30
0.0
 41
0.9996031556082
 10
163.88612656735287
 20
470.51495892019796
 30
0.0
 41
1.0
 10
164.47660036225477
 20
470.69711981640774
 30
0.0
 41
1.0
 10
165.06707415715667
 20
470.87928071261757
 30
0.0
 41
1.0
 10
168.27183564716034
 20
471.86794816949401
 30
0.0
 41
0.9995326244804231
 10
171.41018810330132
 20
473.05061608954918
 30
0.0
 41
1.0
 10
171.43931515151132
 20
473.0615924301627
 30
0.0
 41
1.0
 10
171.46844219972135
 20
473.07256877077623
 30
0.0
 41
1.0
 10
174.54854055944281
 20
474.23328400960452
 30
0.0
 41
0.999400939410907
 10
177.54096689998102
 20
475.60428742596145
 30
0.0
 41
1.0
 10
177.56445612479371
 20
475.61504919711331
 30
0.0
 41
1.0
 10
177.58794534960637
 20
475.62581096826523
 30
0.0
 41
1.0
 10
180.53339324051851
 20
476.97529084231803
 30
0.0
 41
0.99925450703065
 10
183.36594255744802
 20
478.54800301424166
 30
0.0
 41
1.0
 10
183.38169306051066
 20
478.5567481427845
 30
0.0
 41
1.0
 10
183.39744356357332
 20
478.5654932713274
 30
0.0
 41
1.0
 10
186.1984918743772
 20
480.12071518616506
 30
0.0
 41
0.9990926688688279
 10
188.85702779921712
 20
481.90866752898233
 30
0.0
 41
1.0
 10
188.86324616162369
 20
481.91284958103944
 30
0.0
 41
1.0
 10
188.86946452403029
 20
481.91703163309654
 30
0.0
 41
1.0
 10
191.51556372405696
 20
483.6966198717995
 30
0.0
 41
0.9989280963219445
 10
193.98574993250088
 20
485.713289247609
 30
0.0
 41
1.0
 10
196.45593614094423
 20
487.72995862341804
 30
0.0
 41
0.9987792023845369
 10
198.71507403059965
 20
489.98052994449091
 30
0.0
 41
1.0
 10
198.71915896697726
 20
489.98459939093857
 30
0.0
 41
1.0
 10
198.7232439033549
 20
489.98866883738629
 30
0.0
 41
1.0
 10
200.99055166576545
 20
492.24737905135447
 30
0.0
 41
0.9986682473939778
 10
203.01303724890155
 20
494.72770330156368
 30
0.0
 41
1.0
 10
203.02669090250708
 20
494.74444779083183
 30
0.0
 41
1.0
 10
203.04034455611259
 20
494.76119228009992
 30
0.0
 41
1.0
 10
205.09013744645992
 20
497.27500550884554
 30
0.0
 41
0.9986154658181752
 10
206.86448047466138
 20
499.99026141954869
 30
0.0
 41
1.0
 10
206.88617447840221
 20
500.02345949396152
 30
0.0
 41
1.0
 10
206.90786848214304
 20
500.05665756837436
 30
0.0
 41
1.0
 10
208.72559951782634
 20
502.8383096279033
 30
0.0
 41
0.9986451386490066
 10
210.24437869392034
 20
505.79382043191532
 30
0.0
 41
1.0
 10
210.55074061759882
 20
506.38999398342412
 30
0.0
 41
1.0
 10
210.8571025412773
 20
506.98616753493297
 30
0.0
 41
1.0
 10
211.87180560911548
 20
508.96075734170961
 30
0.0
 41
0.9986411398030373
 10
212.67546899782269
 20
511.03023852755234
 30
0.0
 41
1.0
 10
212.90516939878557
 20
511.62173076777725
 30
0.0
 41
1.0
 10
213.13486979974843
 20
512.21322300800216
 30
0.0
 41
1.0
 10
213.47913238652887
 20
513.09971971339246
 30
0.0
 41
0.9999566232628855
 10
213.80682220349678
 20
513.9924752909094
 30
0.0
 41
1.0
 10
213.88414331843055
 20
514.2031283324219
 30
0.0
 41
1.0
 10
213.96146443336431
 20
514.4137813739344
 30
0.0
 41
1.0
 10
214.13451202046426
 20
514.88523086842531
 30
0.0
 41
0.999899141443886
 10
214.29409976047879
 20
515.36140504505579
 30
0.0
 41
1.0
 10
214.36880022177928
 20
515.58429453926408
 30
0.0
 41
1.0
 10
214.4435006830798
 20
515.80718403347237
 30
0.0
 41
1.0
 10
214.45368750049903
 20
515.83757922170298
 30
0.0
 41
0.9999996229298003
 10
214.46392709061121
 20
515.86795667236925
 30
0.0
 41
1.0
 10
214.4198298393093
 20
515.71637237101891
 30
0.0
 41
1.0
 10
214.37573258800739
 20
515.56478806966845
 30
0.0
 41
1.0
 10
214.6704380913439
 20
516.43141935563972
 30
0.0
 41
0.9999670910760322
 10
214.9510437326542
 20
517.30271815259709
 30
0.0
 41
1.0
 10
215.30161621762903
 20
518.39126855728102
 30
0.0
 41
1.0
 10
215.65218870260389
 20
519.47981896196495
 30
0.0
 41
1.0
 10
216.63393931386435
 20
522.52821856829178
 30
0.0
 41
0.9992181436719203
 10
217.37176571411561
 20
525.64465669949902
 30
0.0
 41
1.0
 10
217.63509408173945
 20
526.75690555046458
 30
0.0
 41
1.0
 10
217.89842244936332
 20
527.86915440143002
 30
0.0
 41
1.0
 10
218.74192719573171
 20
531.43195773096852
 30
0.0
 41
0.9997673717132384
 10
219.4309938721413
 20
535.02782409911754
 30
0.0
 41
1.0
 10
220.12024636098602
 20
538.62466012188656
 30
0.0
 41
0.9998378405699533
 10
220.67952827266271
 20
542.24398355470214
 30
0.0
 41
1.0
 10
221.23890143333193
 20
545.86366472591226
 30
0.0
 41
0.9998971461464871
 10
221.69422716458763
 20
549.49790035291107
 30
0.0
 41
1.0
 10
221.75131016669121
 20
549.95353292948118
 30
0.0
 41
1.0
 10
221.80839316879477
 20
550.40916550605129
 30
0.0
 41
1.0
 10
222.14945833240046
 20
553.13152406368295
 30
0.0
 41
0.999944362164921
 10
222.43301674595233
 20
555.86047188074349
 30
0.0
 41
1.0
 10
222.5040195359536
 20
556.54379813564856
 30
0.0
 41
1.0
 10
222.5750223259549
 20
557.22712439055351
 30
0.0
 41
1.0
 10
222.71657515950528
 20
558.58941969781449
 30
0.0
 41
0.9999924602207578
 10
222.84754358395037
 20
559.95277327654219
 30
0.0
 41
1.0
 10
222.86937708833565
 20
560.18005543608524
 30
0.0
 41
1.0
 10
222.89121059272094
 20
560.40733759562841
 30
0.0
 41
1.0
 10
222.9785120083979
 20
561.31612685529535
 30
0.0
 41
0.9999987078579324
 10
223.0628910944836
 20
562.22519210350174
 30
0.0
 41
1.0
 10
223.06192707749906
 20
562.21876532360443
 30
0.0
 41
0.9996149394520359
 10
223.06132107322546
 20
562.21229496137039
 30
0.0
 41
1.0
 10
223.0576875552386
 20
562.17349956241708
 30
0.0
 41
1.0
 10
223.05405403725177
 20
562.13470416346377
 30
0.0
 41
1.0
 10
223.04619730219136
 20
562.05081709527144
 30
0.0
 41
0.9995157118005167
 10
223.03313748376354
 20
561.96758122777032
 30
0.0
 41
1.0
 10
223.02711492397924
 20
561.92919685121922
 30
0.0
 41
1.0
 10
223.02109236419497
 20
561.89081247466811
 30
0.0
 41
1.0
 10
223.02007766533598
 20
561.88434536027057
 30
0.0
 41
0.999781988644015
 10
223.0187938431817
 20
561.87792624949907
 30
0.0
 41
1.0
 10
223.0187938431817
 20
561.90824310976916
 30
0.0
 41
1.0
 10
223.0187938431817
 20
561.93855997003925
 30
0.0
 41
1.0
 10
223.01603776497535
 20
561.83658507640359
 30
0.0
 41
1.0
 10
223.01328168676901
 20
561.73461018276794
 30
0.0
 41
1.0
 10
223.07628885316296
 20
562.35036203616346
 30
0.0
 41
0.9999999483786853
 10
223.1389014585134
 20
562.96615413551865
 30
0.0
 41
1.0
 10
223.21729001132252
 20
563.73710195392596
 30
0.0
 41
1.0
 10
223.29567856413163
 20
564.50804977233338
 30
0.0
 41
1.0
 10
223.51506827510292
 20
566.66573750852876
 30
0.0
 41
0.9999823525367314
 10
223.70880562036064
 20
568.82587964581057
 30
0.0
 41
1.0
 10
223.75042892695154
 20
569.28997322746045
 30
0.0
 41
1.0
 10
223.79205223354242
 20
569.75406680911033
 30
0.0
 41
1.0
 10
224.06903619198226
 20
572.84239610969576
 30
0.0
 41
0.9999837195882408
 10
224.310757526164
 20
575.93368528714325
 30
0.0
 41
1.0
 10
224.33506587833105
 20
576.24455625858616
 30
0.0
 41
1.0
 10
224.3593742304981
 20
576.55542723002907
 30
0.0
 41
1.0
 10
224.64971226901437
 20
580.26845835036715
 30
0.0
 41
0.999855920112203
 10
224.81384628673877
 20
583.98920509012851
 30
0.0
 41
1.0
 10
224.87536655947821
 20
585.38380541368178
 30
0.0
 41
1.0
 10
224.93688683221765
 20
586.77840573723506
 30
0.0
 41
1.0
 10
225.03249111685409
 20
588.94565500889962
 30
0.0
 41
0.9998495523555561
 10
225.05286435382925
 20
591.11491629237753
 30
0.0
 41
1.0
 10
225.0601425609577
 20
591.88987085439248
 30
0.0
 41
1.0
 10
225.06742076808615
 20
592.66482541640733
 30
0.0
 41
1.0
 10
225.07323759080441
 20
593.28417757586055
 30
0.0
 41
0.9999941800505461
 10
225.07482818513321
 20
593.90355500751093
 30
0.0
 41
1.0
 10
225.07482818513321
 20
594.0027738229403
 30
0.0
 41
1.0
 10
225.07482818513321
 20
594.10199263836955
 30
0.0
 41
1.0
 10
225.08030206377117
 20
594.20986024682304
 30
0.0
 41
0.9995045174122786
 10
225.07897804387912
 20
594.31785853973633
 30
0.0
 41
1.0
 10
225.07723989910613
 20
594.45963637059901
 30
0.0
 41
1.0
 10
225.07550175433317
 20
594.60141420146169
 30
0.0
 41
1.0
 10
225.07070144489518
 20
594.99296815610035
 30
0.0
 41
0.9908647458787082
 10
224.96143105583039
 20
595.36899677793269
 30
0.0
 41
1.0
 10
224.92229495013703
 20
595.50367458052619
 30
0.0
 41
1.0
 10
224.88315884444367
 20
595.6383523831197
 30
0.0
 41
1.0
 10
224.75207557460698
 20
596.08944495928711
 30
0.0
 41
0.9971398679925079
 10
224.5544991965848
 20
596.51562674063393
 30
0.0
 41
1.0
 10
224.35695962133494
 20
596.94172913662487
 30
0.0
 41
0.9972870619142592
 10
224.09899969371497
 20
597.33421074307523
 30
0.0
 41
1.0
 10
223.84107656886738
 20
597.7266129641697
 30
0.0
 41
0.9971340845025266
 10
223.52690205061523
 20
598.07560897207293
 30
0.0
 41
1.0
 10
223.43223819231133
 20
598.18076488613178
 30
0.0
 41
1.0
 10
223.33757433400746
 20
598.28592080019052
 30
0.0
 41
1.0
 10
223.07632323431091
 20
598.57612762969927
 30
0.0
 41
0.9902008927919108
 10
222.74500142682132
 20
598.78276257560094
 30
0.0
 41
1.0
 10
222.62515703255599
 20
598.85750573879113
 30
0.0
 41
1.0
 10
222.50531263829069
 20
598.93224890198121
 30
0.0
 41
1.0
 10
222.41367961933196
 20
598.9893975215025
 30
0.0
 41
0.9995398898646346
 10
222.31874997876389
 20
599.0408847841835
 30
0.0
 41
1.0
 10
222.31599390055749
 20
599.03812870597721
 30
0.0
 41
1.0
 10
222.31323782235111
 20
599.03537262777081
 30
0.0
 41
1.0
 10
222.25949922709609
 20
599.0706683915181
 30
0.0
 41
0.9999402468011994
 10
222.20500183391712
 20
599.10478087743184
 30
0.0
 41
1.0
 10
222.08152892114333
 20
599.18206839068739
 30
0.0
 41
1.0
 10
221.95805600836957
 20
599.25935590394283
 30
0.0
 41
1.0
 10
221.65661278964205
 20
599.44804341636836
 30
0.0
 41
0.9940388184058278
 10
221.32143728030917
 20
599.56690623395912
 30
0.0
 41
1.0
 10
221.15501940335028
 20
599.62592277067506
 30
0.0
 41
1.0
 10
220.98860152639139
 20
599.68493930739101
 30
0.0
 41
1.0
 10
220.55623312192432
 20
599.83826950414243
 30
0.0
 41
0.9960428105691542
 10
220.10354851872148
 20
599.91262833980045
 30
0.0
 41
1.0
 10
219.99137243955749
 20
599.93105459635149
 30
0.0
 41
1.0
 10
219.87919636039354
 20
599.94948085290252
 30
0.0
 41
1.0
 10
219.65086391551978
 20
599.98698717545835
 30
0.0
 41
0.9977102158736684
 10
219.4195586342513
 20
599.99333512560156
 30
0.0
 41
1.0
 10
219.33717089292526
 20
599.99559617762543
 30
0.0
 41
1.0
 10
219.25478315159918
 20
599.9978572296493
 30
0.0
 41
1.0
 10
219.18825335298664
 20
599.99968307574454
 30
0.0
 41
0.9999357296541812
 10
219.1216992593755
 20
600.0
 30
0.0
 41
1.0
 10
0.0823838081713575
 20
600.0
 30
0.0
 41
1.0
 10
-218.95693164303279
 20
600.0
 30
0.0
 41
1.0
 10
-219.02316898128987
 20
599.99968307493657
 30
0.0
 41
0.9999333604320321
 10
-219.08938134705116
 20
599.9978369868619
 30
0.0
 41
1.0
 10
-219.23706100216981
 20
599.99371948332532
 30
0.0
 41
1.0
 10
-219.38474065728846
 20
599.98960197978863
 30
0.0
 41
1.0
 10
-219.74631233328694
 20
599.97952088464069
 30
0.0
 41
0.9935947989769322
 10
-220.09638615268474
 20
599.8885042579401
 30
0.0
 41
1.0
 10
-220.44465461868816
 20
599.79795700988734
 30
0.0
 41
1.0
 10
-220.79292308469155
 20
599.70740976183447
 30
0.0
 41
1.0
 10
-221.263553208459
 20
599.58504937977955
 30
0.0
 41
0.9885484952721994
 10
-221.67624274423741
 20
599.3278488285498
 30
0.0
 41
1.0
 10
-221.85520826292509
 20
599.21631212585453
 30
0.0
 41
1.0
 10
-222.03417378161276
 20
599.10477542315914
 30
0.0
 41
1.0
 10
-222.0889322800125
 20
599.07064827732222
 30
0.0
 41
0.999944272915873
 10
-222.14295804959579
 20
599.03537262777081
 30
0.0
 41
1.0
 10
-222.14571412780214
 20
599.03812870597721
 30
0.0
 41
1.0
 10
-222.14847020600851
 20
599.0408847841835
 30
0.0
 41
1.0
 10
-222.2431408024579
 20
598.98936337114981
 30
0.0
 41
0.9994867244033004
 10
-222.33431772296794
 20
598.931885140492
 30
0.0
 41
1.0
 10
-222.45412237628409
 20
598.85635989288903
 30
0.0
 41
1.0
 10
-222.57392702960021
 20
598.78083464528595
 30
0.0
 41
1.0
 10
-222.90471325674162
 20
598.57230591942243
 30
0.0
 41
0.9906751418962191
 10
-223.1669266397281
 20
598.28222334607551
 30
0.0
 41
1.0
 10
-223.26078195292433
 20
598.17839267784586
 30
0.0
 41
1.0
 10
-223.35463726612053
 20
598.07456200961622
 30
0.0
 41
1.0
 10
-223.6697761715304
 20
597.72592875679811
 30
0.0
 41
0.9971262214316525
 10
-223.92862590159007
 20
597.33368585766402
 30
0.0
 41
1.0
 10
-224.18753152604327
 20
596.94135826004924
 30
0.0
 41
0.9973040171659733
 10
-224.386225735761
 20
596.51536098629322
 30
0.0
 41
1.0
 10
-224.58497583987184
 20
596.08927901405684
 30
0.0
 41
0.9971848913433913
 10
-224.71777404601218
 20
595.63826672221285
 30
0.0
 41
1.0
 10
-224.75779719838943
 20
595.50233918068102
 30
0.0
 41
1.0
 10
-224.7978203507667
 20
595.36641163914908
 30
0.0
 41
1.0
 10
-224.90821326215828
 20
594.99149271955616
 30
0.0
 41
0.9904251467362906
 10
-224.91187385085664
 20
594.60067640561169
 30
0.0
 41
1.0
 10
-224.91319834604394
 20
594.45926900652898
 30
0.0
 41
1.0
 10
-224.91452284123125
 20
594.31786160744639
 30
0.0
 41
1.0
 10
-224.91553443955502
 20
594.209860091667
 30
0.0
 41
0.9995489979894912
 10
-224.91006056879061
 20
594.10199263836955
 30
0.0
 41
1.0
 10
-224.91006056879061
 20
594.0027738229403
 30
0.0
 41
1.0
 10
-224.91006056879061
 20
593.90355500751093
 30
0.0
 41
1.0
 10
-224.90815184787004
 20
593.2841750687686
 30
0.0
 41
0.9999937364140481
 10
-224.90185877399043
 20
592.66482415939481
 30
0.0
 41
1.0
 10
-224.89398416138982
 20
591.88982158219153
 30
0.0
 41
1.0
 10
-224.88610954878919
 20
591.11481900498825
 30
0.0
 41
1.0
 10
-224.8640672497084
 20
588.94546294120562
 30
0.0
 41
0.9998553516609997
 10
-224.76825509066853
 20
586.77811164881984
 30
0.0
 41
1.0
 10
-224.74768540103031
 20
586.31280803946402
 30
0.0
 41
1.0
 10
-224.72711571139206
 20
585.8475044301083
 30
0.0
 41
1.0
 10
-224.59016417307583
 20
582.74954591901417
 30
0.0
 41
0.9999547033406001
 10
-224.39426772526795
 20
579.65475558006165
 30
0.0
 41
1.0
 10
-224.37457754255036
 20
579.34368823847103
 30
0.0
 41
1.0
 10
-224.35488735983273
 20
579.03262089688053
 30
0.0
 41
1.0
 10
-224.11961054658963
 20
575.31569587474792
 30
0.0
 41
0.9999098413476587
 10
-223.7846063955902
 20
571.60642923324303
 30
0.0
 41
1.0
 10
-223.65904243358602
 20
570.21614730912995
 30
0.0
 41
1.0
 10
-223.53347847158182
 20
568.82586538501687
 30
0.0
 41
1.0
 10
-223.33839473297667
 20
566.66583960100979
 30
0.0
 41
0.9999847255340295
 10
-223.11944597453277
 20
564.50810224586485
 30
0.0
 41
1.0
 10
-223.04121505091169
 20
563.73713744376039
 30
0.0
 41
1.0
 10
-222.96298412729061
 20
562.96617264165593
 30
0.0
 41
1.0
 10
-222.90049721607295
 20
562.35036489056301
 30
0.0
 41
0.9999999106740445
 10
-222.83748975760079
 20
561.73461018276794
 30
0.0
 41
1.0
 10
-222.84851407042629
 20
561.83658507640359
 30
0.0
 41
1.0
 10
-222.85953838325179
 20
561.93855997003925
 30
0.0
 41
1.0
 10
-222.85921506474807
 20
561.93759001452793
 30
0.0
 41
0.9988985649152499
 10
-222.85898409381235
 20
561.93659402207129
 30
0.0
 41
1.0
 10
-222.85744254399029
 20
561.92994655368011
 30
0.0
 41
1.0
 10
-222.85590099416822
 20
561.92329908528905
 30
0.0
 41
1.0
 10
-222.85258692358832
 20
561.90900815604948
 30
0.0
 41
0.9904848945516287
 10
-222.85329443824548
 20
561.89435506267819
 30
0.0
 41
1.0
 10
-222.85362963556059
 20
561.88741290606526
 30
0.0
 41
1.0
 10
-222.8539648328757
 20
561.88047074945223
 30
0.0
 41
1.0
 10
-222.8540262268391
 20
561.87919924013568
 30
0.0
 41
0.9997090442938923
 10
-222.8540262268391
 20
561.87792624949907
 30
0.0
 41
1.0
 10
-222.8546691436002
 20
561.8843554171101
 30
0.0
 41
1.0
 10
-222.86261045200553
 20
561.96795790451642
 30
0.0
 41
1.0
 10
-222.87055176041088
 20
562.05156039192275
 30
0.0
 41
1.0
 10
-222.87850400448264
 20
562.13516166390673
 30
0.0
 41
1.0
 10
-222.8864562485544
 20
562.21876293589071
 30
0.0
 41
1.0
 10
-222.8870991653155
 20
562.22519210350174
 30
0.0
 41
1.0
 10
-222.80271997362831
 20
561.31612571758819
 30
0.0
 41
0.999999491550435
 10
-222.71650758642028
 20
560.4072313529449
 30
0.0
 41
1.0
 10
-222.60852883594404
 20
559.2688650347452
 30
0.0
 41
1.0
 10
-222.50055008546781
 20
558.13049871654539
 30
0.0
 41
1.0
 10
-222.1983801973021
 20
554.94487171544631
 30
0.0
 41
0.9998896807157811
 10
-221.80171867492643
 20
551.76962595045438
 30
0.0
 41
1.0
 10
-221.65989696806167
 20
550.63435381362274
 30
0.0
 41
1.0
 10
-221.51807526119688
 20
549.49908167679098
 30
0.0
 41
1.0
 10
-221.06396723113244
 20
545.8639809221844
 30
0.0
 41
0.9998941893151933
 10
-220.5043042161625
 20
542.24362888008204
 30
0.0
 41
1.0
 10
-219.94478684528576
 20
538.62421898151206
 30
0.0
 41
0.9998374319575801
 10
-219.25513280857473
 20
535.02733630176601
 30
0.0
 41
1.0
 10
-218.56582384093633
 20
531.43243581143997
 30
0.0
 41
0.9997625096211508
 10
-217.7205212220164
 20
527.87098668634098
 30
0.0
 41
1.0
 10
-217.61484705114253
 20
527.42578273951506
 30
0.0
 41
1.0
 10
-217.50917288026866
 20
526.98057879268913
 30
0.0
 41
1.0
 10
-216.87541802807559
 20
524.31057760712747
 30
0.0
 41
0.9996690560534581
 10
-216.10517560294298
 20
521.67670628337453
 30
0.0
 41
1.0
 10
-215.91266404783886
 20
521.01840618468475
 30
0.0
 41
1.0
 10
-215.72015249273474
 20
520.36010608599497
 30
0.0
 41
1.0
 10
-215.33493317780994
 20
519.04283495961988
 30
0.0
 41
0.9998976923867486
 10
-214.91219082970986
 20
517.73712210906956
 30
0.0
 41
1.0
 10
-214.84181074159994
 20
517.51974103551265
 30
0.0
 41
1.0
 10
-214.77143065349
 20
517.30235996195563
 30
0.0
 41
1.0
 10
-214.48944848160852
 20
516.43140925851526
 30
0.0
 41
0.9999718502064965
 10
-214.1944285024266
 20
515.56478806966845
 30
0.0
 41
1.0
 10
-214.2467939883476
 20
515.71637237101891
 30
0.0
 41
1.0
 10
-214.29915947426861
 20
515.86795667236925
 30
0.0
 41
1.0
 10
-214.28891751227619
 20
515.83757218512505
 30
0.0
 41
0.9999995771043087
 10
-214.27873145528272
 20
515.80716891076349
 30
0.0
 41
1.0
 10
-214.2039763683789
 20
515.5840404304779
 30
0.0
 41
1.0
 10
-214.12922128147511
 20
515.3609119501923
 30
0.0
 41
1.0
 10
-213.96952505066912
 20
514.884251715245
 30
0.0
 41
0.9998756383072784
 10
-213.79487580719979
 20
514.41286492346012
 30
0.0
 41
1.0
 10
-213.716924056945
 20
514.20246936298315
 30
0.0
 41
1.0
 10
-213.63897230669022
 20
513.99207380250618
 30
0.0
 41
1.0
 10
-213.30841956271178
 20
513.09989588976873
 30
0.0
 41
0.9999715469959216
 10
-212.9644444385527
 20
512.21280645882314
 30
0.0
 41
1.0
 10
-212.89201572939675
 20
512.02601753754175
 30
0.0
 41
1.0
 10
-212.81958702024076
 20
511.83922861626036
 30
0.0
 41
1.0
 10
-212.33075447777028
 20
510.57856134275346
 30
0.0
 41
0.9996439720333519
 10
-211.77536766420755
 20
509.34576585428351
 30
0.0
 41
1.0
 10
-211.51792346391329
 20
508.77431539686336
 30
0.0
 41
1.0
 10
-211.260479263619
 20
508.2028649394432
 30
0.0
 41
1.0
 10
-210.19020404946792
 20
505.8271685361334
 30
0.0
 41
0.9986770135038798
 10
-208.88158601823011
 20
503.5739616474865
 30
0.0
 41
1.0
 10
-208.66307762802319
 20
503.19772916536516
 30
0.0
 41
1.0
 10
-208.44456923781627
 20
502.82149668324382
 30
0.0
 41
1.0
 10
-206.79815540342571
 20
499.98666565947804
 30
0.0
 41
0.9986131690154587
 10
-204.86278996124693
 20
497.34066753918455
 30
0.0
 41
1.0
 10
-204.84482080705473
 20
497.31610042272189
 30
0.0
 41
1.0
 10
-204.82685165286253
 20
497.29153330625923
 30
0.0
 41
1.0
 10
-202.92742451906821
 20
494.69466941889118
 30
0.0
 41
0.9986336188967422
 10
-200.76732885334792
 20
492.31023820767041
 30
0.0
 41
1.0
 10
-200.75832698199633
 20
492.30030145192819
 30
0.0
 41
1.0
 10
-200.74932511064478
 20
492.29036469618597
 30
0.0
 41
1.0
 10
-198.60723318762783
 20
489.92580699644998
 30
0.0
 41
0.9987175394549932
 10
-196.23700038652828
 20
487.7899962860572
 30
0.0
 41
1.0
 10
-193.86586477508541
 20
485.65337205557489
 30
0.0
 41
0.9988492605209841
 10
-191.30092826798199
 20
483.75375422436093
 30
0.0
 41
1.0
 10
-188.7350889505351
 20
481.85332287305727
 30
0.0
 41
0.9990092886196755
 10
-186.01043363884543
 20
480.18856338398564
 30
0.0
 41
1.0
 10
-185.99921057877447
 20
480.18170611449199
 30
0.0
 41
1.0
 10
-185.98798751870351
 20
480.17484884499834
 30
0.0
 41
1.0
 10
-183.24088608687237
 20
478.49637481693969
 30
0.0
 41
0.9991748009613656
 10
-180.36661286460478
 20
477.04641109898216
 30
0.0
 41
1.0
 10
-180.34665973986625
 20
477.0363454911942
 30
0.0
 41
1.0
 10
-180.3267066151277
 20
477.02627988340629
 30
0.0
 41
1.0
 10
-177.4125271433839
 20
475.55618494987328
 30
0.0
 41
0.999328585827719
 10
-174.39851979649319
 20
474.30343564533496
 30
0.0
 41
1.0
 10
-174.37179184619893
 20
474.2923263754198
 30
0.0
 41
1.0
 10
-174.34506389590467
 20
474.28121710550465
 30
0.0
 41
1.0
 10
-171.27760064842658
 20
473.00624926113653
 30
0.0
 41
0.9994673735253136
 10
-168.13350096972167
 20
471.9340967583783
 30
0.0
 41
1.0
 10
-167.14570012804703
 20
471.59725211194382
 30
0.0
 41
1.0
 10
-166.15789928637238
 20
471.26040746550939
 30
0.0
 41
1.0
 10
-163.2168066811779
 20
470.25748131184446
 30
0.0
 41
0.999071968187045
 10
-160.20031070678101
 20
469.51139913240331
 30
0.0
 41
1.0
 10
-159.25206173017139
 20
469.2768648684339
 30
0.0
 41
1.0
 10
-158.30381275356177
 20
469.0423306044645
 30
0.0
 41
1.0
 10
-157.18381473240112
 20
468.76531695296626
 30
0.0
 41
0.9999963453930586
 10
-156.06233524781982
 20
468.49436327380056
 30
0.0
 41
1.0
 10
-154.94085576325676
 20
468.22340959463941
 30
0.0
 41
0.9999381967532228
 10
-153.81362913743541
 20
467.97745784208189
 30
0.0
 41
1.0
 10
-153.46192715186254
 20
467.90071930721399
 30
0.0
 41
1.0
 10
-153.11022516628969
 20
467.82398077234615
 30
0.0
 41
1.0
 10
-151.2795945693239
 20
467.42455195005323
 30
0.0
 41
0.9999526615649818
 10
-149.44153801301718
 20
467.06082146956697
 30
0.0
 41
1.0
 10
-148.97842235378863
 20
466.96917614958272
 30
0.0
 41
1.0
 10
-148.51530669456005
 20
466.87753082959847
 30
0.0
 41
1.0
 10
-147.04586556850501
 20
466.58674514893357
 30
0.0
 41
0.999926507510809
 10
-145.569806228103
 20
466.33167190722457
 30
0.0
 41
1.0
 10
-144.09374688770598
 20
466.07659866551637
 30
0.0
 41
0.9999985903239274
 10
-142.61683928770449
 20
465.826483739563
 30
0.0
 41
1.0
 10
-142.58478215439538
 20
465.8210548504951
 30
0.0
 41
1.0
 10
-142.55272502108627
 20
465.81562596142726
 30
0.0
 41
1.0
 10
-141.01170315447041
 20
465.55465325733871
 30
0.0
 41
0.9999627184842271
 10
-139.46640430739899
 20
465.32033164310297
 30
0.0
 41
1.0
 10
-137.82525129067949
 20
465.07147516798528
 30
0.0
 41
1.0
 10
-136.18409827395999
 20
464.82261869286759
 30
0.0
 41
1.0
 10
-131.35649339344928
 20
464.09058412839636
 30
0.0
 41
0.9997052143868668
 10
-126.49904401522335
 20
463.59376522385912
 30
0.0
 41
1.0
 10
-125.04206834466396
 20
463.44474605758035
 30
0.0
 41
1.0
 10
-123.58509267410456
 20
463.29572689130157
 30
0.0
 41
1.0
 10
-119.69895626925261
 20
462.8982536741446
 30
0.0
 41
0.9999546429670565
 10
-115.80595394973976
 20
462.57487455344869
 30
0.0
 41
1.0
 10
-111.91295163022411
 20
462.25149543275256
 30
0.0
 41
0.9999667141775958
 10
-108.01519085458492
 20
461.99168386383201
 30
0.0
 41
1.0
 10
-106.79733884983068
 20
461.9105059623954
 30
0.0
 41
1.0
 10
-105.57948684507646
 20
461.82932806095886
 30
0.0
 41
1.0
 10
-102.17057430342385
 20
461.60210146426903
 30
0.0
 41
0.9999620130985399
 10
-98.758218767927744
 20
461.43433274773093
 30
0.0
 41
1.0
 10
-97.539343225265469
 20
461.37440664000712
 30
0.0
 41
1.0
 10
-96.320467682603208
 20
461.31448053228326
 30
0.0
 41
1.0
 10
-95.345863232425103
 20
461.2665640311925
 30
0.0
 41
0.9999995781591674
 10
-94.371172402312709
 20
461.2204379964777
 30
0.0
 41
1.0
 10
-94.196399681220981
 20
461.20221216336574
 30
0.0
 41
0.9996733101376596
 10
-94.020923937460509
 20
461.1929413283363
 30
0.0
 41
1.0
 10
-93.975105495115628
 20
461.19052062213962
 30
0.0
 41
1.0
 10
-93.929287052770746
 20
461.18809991594298
 30
0.0
 41
1.0
 10
-93.662174424320057
 20
461.17398766852028
 30
0.0
 41
0.9989674981036861
 10
-93.394883472253184
 20
461.18417877976276
 30
0.0
 41
1.0
 10
-93.24895772212858
 20
461.18974255040735
 30
0.0
 41
1.0
 10
-93.103031972003976
 20
461.19530632105187
 30
0.0
 41
1.0
 10
-92.543889519687696
 20
461.21662497358346
 30
0.0
 41
0.9973116048212305
 10
-91.993867715666639
 20
461.31943928206971
 30
0.0
 41
1.0
 10
-91.886528737671142
 20
461.33950390990003
 30
0.0
 41
1.0
 10
-91.779189759675646
 20
461.3595685377303
 30
0.0
 41
1.0
 10
-91.014489999663738
 20
461.50251210187719
 30
0.0
 41
0.9980783418154428
 10
-90.273343425248072
 20
461.73894463078415
 30
0.0
 41
1.0
 10
-90.261490631791432
 20
461.74272578019281
 30
0.0
 41
1.0
 10
-90.249637838334792
 20
461.74650692960142
 30
0.0
 41
1.0
 10
-89.484815343758754
 20
461.99049229336032
 30
0.0
 41
0.9982710945703482
 10
-88.753909724318433
 20
462.32254542376052
 30
0.0
 41
1.0
 10
-88.742588135066569
 20
462.32768892587092
 30
0.0
 41
1.0
 10
-88.731266545814705
 20
462.33283242798126
 30
0.0
 41
1.0
 10
-88.023033771631276
 20
462.65458909019532
 30
0.0
 41
0.9980718097028589
 10
-87.360123901007782
 20
463.06161674961987
 30
0.0
 41
1.0
 10
-87.266854410329927
 20
463.11888435743299
 30
0.0
 41
1.0
 10
-87.173584919652086
 20
463.17615196524616
 30
0.0
 41
1.0
 10
-86.697214030384544
 20
463.46864440904432
 30
0.0
 41
0.9972402905787993
 10
-86.269404776803697
 20
463.82845032390799
 30
0.0
 41
1.0
 10
-86.15780329966401
 20
463.92231194856026
 30
0.0
 41
1.0
 10
-86.046201822524338
 20
464.0161735732126
 30
0.0
 41
1.0
 10
-85.841595523222892
 20
464.18825623877166
 30
0.0
 41
0.9989897081906074
 10
-85.653266662946493
 20
464.37801509070448
 30
0.0
 41
1.0
 10
-85.620961096187585
 20
464.41056595545359
 30
0.0
 41
1.0
 10
-85.588655529428692
 20
464.4431168202027
 30
0.0
 41
1.0
 10
-85.464937802670121
 20
464.5677739426373
 30
0.0
 41
0.9996713100755323
 10
-85.347772354659455
 20
464.69860869291591
 30
0.0
 41
1.0
 10
-85.080432768641629
 20
464.96319220072729
 30
0.0
 41
1.0
 10
-84.813093182623817
 20
465.22777570853867
 30
0.0
 41
1.0
 10
-84.791631250882091
 20
465.24889697469717
 30
0.0
 41
0.9999979821412656
 10
-84.770084631047794
 20
465.26993184033142
 30
0.0
 41
1.0
 10
-84.612948449417999
 20
465.4233358773576
 30
0.0
 41
1.0
 10
-84.455812267788204
 20
465.57673991438378
 30
0.0
 41
1.0
 10
-84.119993284697813
 20
465.90458285406697
 30
0.0
 41
0.9999810482231405
 10
-83.780163067896609
 20
466.22826604215601
 30
0.0
 41
1.0
 10
-83.621146002840874
 20
466.37972741325564
 30
0.0
 41
1.0
 10
-83.462128937785138
 20
466.53118878435532
 30
0.0
 41
1.0
 10
-83.440323273993016
 20
466.55196532880109
 30
0.0
 41
1.0
 10
-83.418517610200908
 20
466.57274187324691
 30
0.0
 41
1.0
  0
LWPOLYLINE
  5
128
100
AcDbEntity
  8
0
370
              15
390
0
  6
Continuous
 62
               7
100
AcDbPolyline
 90
       97
 70
             128
 10
144.86744022337231
 20
468.0499997918609
 42
0.0008476120001217
 10
144.76278003560651
 20
468.05533032460346
 10
144.05869313553399
 20
468.0899941656744
 42
0.0185048478147326
 10
142.545167179077
 20
468.10844063519517
 10
136.58935475054858
 20
467.96059696232595
 42
-0.000431966833224
 10
123.16324309822485
 20
467.63892103536301
 10
117.08974532557968
 20
467.49865623336217
 42
-0.0012161658884642
 10
91.515074975025982
 20
466.9702561498118
 10
85.589659542722046
 20
466.86224874545735
 42
-0.0019887207564388
 10
68.57335575811058
 20
466.6197778274996
 10
63.469623377908604
 20
466.56735591199214
 42
-0.0007808057920811
 10
56.659727315136145
 20
466.50804486486186
 42
0.0001526558085458
 10
49.848845682733405
 20
466.4572823020352
 10
49.07341241749284
 20
466.45126617766738
 42
-0.0054493925719233
 10
43.812684430947563
 20
466.46778717552309
 10
42.258740728560277
 20
466.48960458992525
 42
0.0146215575527884
 10
40.107037032603216
 20
466.45689203174982
 10
39.327901392216603
 20
466.42224212421928
 42
0.0291171690147878
 10
38.738962124928179
 20
466.36156781724003
 42
0.0242583290615101
 10
38.159536472313029
 20
466.23843957144084
 10
38.021751743274777
 20
466.20209654525723
 42
0.048562995622935
 10
37.202302817817454
 20
465.89837596359052
 10
37.07186415273145
 20
465.83504604928618
 42
0.0473835923579267
 10
36.090698636483751
 20
465.23794928406346
 42
0.0470904668097853
 10
35.23934172393372
 20
464.4675859248153
 42
0.047878736755383
 10
34.549062480204832
 20
463.55089623027908
 10
34.54746283736042
 20
463.54828563660999
 42
0.0494147255642412
 10
34.044798178603791
 20
462.51032381176742
 10
33.96732164183782
 20
462.29954549223089
 42
0.051042283676951
 10
33.784177492187581
 20
461.58303597325113
 10
33.751431165567972
 20
461.36377352546742
 42
0.012916029583747
 10
33.714806160496487
 20
461.06609761692101
 10
32.904519167823899
 20
453.65455970164578
 42
-0.013414651411293
 10
32.883794838901522
 20
453.45239763828613
 10
32.864414488017914
 20
453.30297822716381
 42
-0.0524963873043011
 10
32.748105552869141
 20
452.81477880532975
 10
32.697598113381481
 20
452.67143905819017
 42
-0.0502732396865008
 10
32.364028979228152
 20
451.9614929987614
 10
32.363137008842671
 20
451.96000395760939
 42
-0.0484767242751819
 10
31.898737521890414
 20
451.33179135400314
 42
-0.0477265181194725
 10
31.322799655590284
 20
450.80382800020573
 42
-0.0483136279375243
 10
30.656824837284042
 20
450.39548458637285
 10
30.655280288862137
 20
450.39473184129372
 42
-0.0500127663803621
 10
29.919435983631715
 20
450.12317259952192
 10
29.772382165427182
 20
450.08505965157809
 42
-0.0521361645134791
 10
29.277492678409544
 20
450.01055855141897
 10
29.127463604292419
 20
450.00376646953703
 42
-0.0133325292483774
 10
28.92474223782656
 20
450.0
 10
0.0851398863776751
 20
450.0
 10
-28.748950308658468
 20
450.0
 42
-0.0133179056955548
 10
-28.95218654464065
 20
450.00377450953926
 10
-29.102819158305472
 20
450.01058836794152
 42
-0.052077376046093
 10
-29.599420574207755
 20
450.08526897208867
 10
-29.746698463954278
 20
450.12339736219428
 42
-0.0499498127268336
 10
-30.483497769049453
 20
450.39497686099787
 10
-30.485157575918578
 20
450.39578470511969
 42
-0.0483241004646917
 10
-31.151880790360789
 20
450.80412702264186
 42
-0.0477762458780916
 10
-31.728368894323154
 20
451.33214895696074
 42
-0.0485307562355437
 10
-32.193049931834416
 20
451.96047120317388
 10
-32.193931977458298
 20
451.96194334713675
 42
-0.0503473477543233
 10
-32.527556630294264
 20
452.67209860943171
 10
-32.578095125565582
 20
452.8156167720287
 42
-0.0524715510663437
 10
-32.694197070882225
 20
453.3032667281729
 10
-32.713524948973593
 20
453.45239628507204
 42
-0.0133901188814313
 10
-32.734239395068549
 20
453.65455970164578
 10
-33.539014231328402
 20
461.06609761692101
 42
0.0128954015220125
 10
-33.576175440546578
 20
461.36378435031622
 10
-33.609372734158534
 20
461.5834667148373
 42
0.0509676600893543
 10
-33.793909190494539
 20
462.30069982560059
 10
-33.871645180380618
 20
462.51125330476901
 42
0.049250489784779
 10
-34.375591829202605
 20
463.54894319627635
 10
-34.377212363924777
 20
463.55158328854401
 42
0.0477570494625352
 10
-35.068119450409291
 20
464.46809083798354
 42
0.0470264255456551
 10
-35.919500289131221
 20
465.23834488025113
 42
0.0473258293788818
 10
-36.900259120446265
 20
465.83544880360887
 10
-37.031050975562792
 20
465.8989994539761
 42
0.0486075226107321
 10
-37.848725731794161
 20
466.20226323888625
 10
-37.986044412201316
 20
466.2385019950575
 42
0.0242275275772984
 10
-38.564599683576489
 20
466.36155933101224
 42
0.0291597237663936
 10
-39.152663172213636
 20
466.42224155083363
 10
-39.931987018339683
 20
466.45696236873528
 42
0.0146498794881451
 10
-42.08320010098344
 20
466.48971794546577
 10
-43.637591517910515
 20
466.46784267182159
 42
-0.0054589433375385
 10
-48.898728573027206
 20
466.451246356024
 10
-49.674321806584032
 20
466.45726762247472
 42
0.0001542582346867
 10
-56.485836015100006
 20
466.50804677371872
 42
-0.000802064563832
 10
-63.296264110172416
 20
466.56764146227891
 10
-68.400116572133896
 20
466.62049073686819
 42
-0.0019427194376907
 10
-85.417212403617171
 20
466.86282792294804
 10
-90.520387621021172
 20
466.95533452768547
 42
-0.0006837200295726
 10
-104.13091081590058
 20
467.22067423627891
 42
-0.0005279601137582
 10
-117.74075616988009
 20
467.51899644322333
 10
-122.99683574334145
 20
467.63976034093764
 42
-0.0004730554784772
 10
-136.41892140122411
 20
467.96085249105874
 10
-141.67581172068677
 20
468.09158791452649
 42
0.0186691306635282
 10
-144.58245908232712
 20
468.05534100453042
 42
0.0008343281881878
 10
-144.68613613779149
 20
468.0499997918609
 42
0.0008343281881878
  0
INSERT
  5
129
100
AcDbEntity
  8
0
390
0
 62
               7
100
AcDbBlockReference
  2
グループ-1
 10
0.0
 20
0.0
 30
0.0
  0
INSERT
  5
12A
100
AcDbEntity
  8
0
390
0
 62
               7
100
AcDbBlockReference
  2
グループ-2
 10
0.0
 20
0.0
 30
0.0
  0
ENDBLK
  5
12B
100
AcDbEntity
  8
GAR70-1701
390
0
100
AcDbBlockEnd
  0
BLOCK
  5
12C
100
AcDbEntity
  8
GAR70-1701
390
0
100
AcDbBlockBegin
  2
815031S
 70
               0
 10
0.0
 20
0.0
 30
0.0
  3
815031S
  1

  0
LWPOLYLINE
  5
12D
100
AcDbEntity
  8
0
370
              15
390
0
  6
Continuous
 62
               7
100
AcDbPolyline
 90
      101
 70
             128
 10
249.43610198925171
 20
467.28451056488808
 42
0.0094827632426211
 10
249.22517591536044
 20
467.27541845096533
 10
249.17289258765723
 20
467.27217041646816
 42
0.0188523201004579
 10
248.85875806813834
 20
467.24073300963522
 10
248.70464027514208
 20
467.21941599093088
 42
0.0366467565720223
 10
248.09305600902161
 20
467.08861056665705
 10
247.99323034836294
 20
467.05947615241996
 42
0.0353078295685604
 10
247.22226578374926
 20
466.77406831590713
 10
247.22111480607532
 20
466.77354721078456
 42
0.0341647540696546
 10
246.49919236997744
 20
466.38528520885149
 42
0.0333996418403908
 10
245.83638777359124
 20
465.90352664110083
 42
0.0331384245097639
 10
245.24366695539527
 20
465.33835397256507
 42
0.0334097513529499
 10
244.73096273834642
 20
464.69929840511122
 42
0.034130961443163
 10
244.30875759506225
 20
463.99680957603397
 10
244.30821943757385
 20
463.99575778039036
 42
0.0352618718717342
 10
243.98634181634176
 20
463.23958293704123
 10
243.95242139318589
 20
463.14117548348099
 42
0.0366010998988508
 10
243.79261558691024
 20
462.53746299802935
 10
243.76395509936722
 20
462.38482004854336
 42
0.0188034962373603
 10
243.71745601553201
 20
462.07293032398286
 10
243.71169058602939
 20
462.0209174578269
 42
0.0094745679597839
 10
243.69243500717801
 20
461.8109392470385
 10
242.82702645037801
 20
451.91661848617258
 42
-0.0096127408359884
 10
242.81289930993916
 20
451.77209967260404
 10
242.79200426764402
 20
451.59381507378123
 42
-0.0557398837646763
 10
242.67872009957298
 20
451.10566694089903
 10
242.61878498998854
 20
450.93590742732573
 42
-0.035915161620515
 10
242.39440163861389
 20
450.42133137739586
 10
242.39377222609548
 20
450.42013118218983
 42
-0.0349502486977166
 10
242.10035928371968
 20
449.94462866243833
 10
242.10006730630354
 20
449.94422203931208
 42
-0.0343466332945898
 10
241.74440784440677
 20
449.51452782587864
 42
-0.0341514233016047
 10
241.33337410984308
 20
449.13737610862677
 42
-0.0344323579211739
 10
240.87463164391545
 20
448.81993528987169
 10
240.87407438983985
 20
448.81960391156622
 42
-0.0351172952218613
 10
240.37465537473861
 20
448.56824880488853
 10
240.37323458882793
 20
448.56765466978277
 42
-0.0361057346435685
 10
239.84036332485411
 20
448.38876073856039
 10
239.7708264007357
 20
448.3708780201755
 42
-0.0371706363222324
 10
239.34729773237399
 20
448.29494269682107
 10
239.24118011461485
 20
448.28396303336638
 42
-0.0189552006595658
 10
239.02369526435541
 20
448.2697641610971
 10
238.98760687069077
 20
448.26877912440443
 42
-0.0095032322083144
 10
238.84173736396789
 20
448.26757094093949
 10
181.17355697389559
 20
448.26757094093949
 42
-0.009583768607754
 10
181.02733120369004
 20
448.26880982031275
 10
180.84703849577949
 20
448.27379422165296
 42
-0.0559877138542649
 10
180.34811994078711
 20
448.34384723915508
 10
180.17273115779349
 20
448.38888484692541
 42
-0.036163093877795
 10
179.63959332100166
 20
448.56772401016701
 10
179.63803324535641
 20
448.56837615680297
 42
-0.0351708550329057
 10
179.13866707152988
 20
448.81969112269223
 10
179.13805170892124
 20
448.8200571270765
 42
-0.0345054337703814
 10
178.67954846108177
 20
449.13748928465748
 42
-0.0342240996492383
 10
178.26889535391305
 20
449.51466828888698
 42
-0.0343881172582298
 10
177.9137482135356
 20
449.94436931616906
 10
177.91344172262615
 20
449.94479687185213
 42
-0.0349665112693786
 10
177.62056489810885
 20
450.42031444651616
 10
177.61992400171633
 20
450.42153910993341
 42
-0.035867342269306
 10
177.39601954320284
 20
450.93609525099527
 10
177.37224003677204
 20
451.00359262420585
 42
-0.036889180883051
 10
177.25993685274352
 20
451.41744439503236
 10
177.23971111015302
 20
451.52191582052376
 42
-0.0188155165918307
 10
177.20650737085731
 20
451.73637150925788
 10
177.20234530529325
 20
451.77209599064304
 42
-0.0094410904714107
 10
177.18826788748549
 20
451.91661848617258
 10
177.0614882899925
 20
453.33875484065919
 42
0.0096232928383927
 10
177.04950318357018
 20
453.51109352012185
 10
177.03018219758371
 20
453.72839982364474
 42
0.0506289711608613
 10
176.91582329642091
 20
454.32351091083183
 10
176.85372607258475
 20
454.5308297052357
 42
0.0308611374443019
 10
176.61063742419731
 20
455.19118413449132
 42
0.0293024880068681
 10
176.29000206137943
 20
455.81771329971485
 10
176.28879218905729
 20
455.8197706523992
 42
0.0282736405670277
 10
175.89562162093537
 20
456.40935703321929
 10
175.89477434305735
 20
456.4104839962115
 42
0.0279351674727327
 10
175.43608906149092
 20
456.95447636226402
 10
175.43523437722931
 20
456.9553821656462
 42
0.0282789864856232
 10
174.92021428316824
 20
457.4428136925751
 10
174.91850371842099
 20
457.44425840739234
 42
0.0293053121228653
 10
174.35454155744227
 20
457.86656611372354
 10
174.35230930397785
 20
457.868041903164
 42
0.0309815350519822
 10
173.74641173483354
 20
458.21673610064636
 10
173.66654304870258
 20
458.25633349472679
 42
0.033311959821738
 10
173.18542763794323
 20
458.45616415610539
 10
173.06134199115547
 20
458.49826052083955
 42
0.0176508262428951
 10
172.8124296511217
 20
458.57301929371079
 10
172.77041086078967
 20
458.58403862701243
 42
0.0090809993582008
 10
172.60215375208691
 20
458.62491284047547
 42
-0.0013770750571743
 10
172.03683207578453
 20
458.77408636046721
 10
170.78463722156869
 20
459.108199199762
 42
-0.0146792373164524
 10
167.74200880310278
 20
460.01650156361092
 10
166.49208829764214
 20
460.42996291729702
 42
-0.0119573661021745
 10
162.2877945432387
 20
461.93315376701185
 10
162.25141081268063
 20
461.94715224055835
 42
-0.0120918115008064
 10
158.19632335371981
 20
463.62098612716295
 10
157.92118186103679
 20
463.74242464058472
 42
-0.0121902069826581
 10
154.4961832322312
 20
465.35497784217739
 10
154.24355294218512
 20
465.48153396098058
 42
-0.0091736408246454
 10
151.39057254394024
 20
466.97683906019637
 42
-0.0015345470526883
 10
150.92284258078561
 20
467.2349011571734
 42
-0.0015345470526883
  0
LWPOLYLINE
  5
12E
100
AcDbEntity
  8
0
370
              15
390
0
  6
Continuous
 62
               7
100
AcDbPolyline
 90
      157
 70
             128
 10
30.694190858162862
 20
467.99349170792846
 42
-0.015234249256929
 10
30.652403728444423
 20
467.53177910199304
 10
30.638574962785867
 20
467.41778835814091
 42
-0.0303197135407545
 10
30.513735401546832
 20
466.73694491619977
 10
30.432357988496918
 20
466.40721747342411
 42
-0.0581703337348625
 10
29.954377100128596
 20
465.13029373319972
 10
29.851595976464889
 20
464.93013418099031
 42
-0.0557019463507841
 10
28.861759202628086
 20
463.43786458537465
 42
-0.0547239828341753
 10
27.568785811442755
 20
462.19794802121976
 10
27.390999565291462
 20
462.06135355773228
 42
-0.0557693535172401
 10
26.239336008671501
 20
461.36521991087841
 42
-0.0280296743026472
 10
24.981915975048022
 20
460.86848767119227
 10
24.970605386819834
 20
460.86473721188656
 42
-0.0630458568361761
 10
23.629289448905237
 20
460.60085338439706
 10
23.461602441871989
 20
460.58937760817264
 42
-0.0121648052540768
 10
22.223645107485176
 20
460.53487138692674
 42
0.0021394905265794
 10
20.984488484244032
 20
460.50518629121569
 10
16.718554288545089
 20
460.3847257715816
 42
-0.0001748719535737
 10
6.9475609942476115
 20
460.11223463009253
 10
2.1026355452872245
 20
459.97881628380634
 10
2.0420018247470995
 20
459.98984059663184
 10
2.0420018247470995
 20
459.97881628380634
 42
0.0079736239709137
 10
2.003105899440826
 20
460.08898334415824
 10
1.9140508727377099
 20
460.32895855005631
 42
0.0941538047463494
 10
1.5948117967121509
 20
460.85780286889394
 10
1.3903183612677603
 20
461.08591489763603
 42
0.0765054855906538
 10
0.7972554325804889
 20
461.57263232666014
 10
0.6321513323316959
 20
461.67037324320609
 42
0.0547101456972953
 10
0.2767211670686549
 20
461.8313214068661
 10
0.1441939334841696
 20
461.87463592561517
 42
0.0086351666441941
 10
0.0355768905102107
 20
461.90807102826494
 10
0.0000000000000071
 20
597.93915401603351
 10
0.0001951449103559
 20
598.0469921556321
 42
-0.1114486362854068
 10
0.149664458524473
 20
598.70370215639036
 10
0.1954617083438336
 20
598.79954213939538
 42
-0.059942537684761
 10
0.4497672564009998
 20
599.20023947268942
 42
-0.0587393383044869
 10
0.7912323637740166
 20
599.53013084192548
 42
-0.0595274309372742
 10
1.2004158473050195
 20
599.77092510626278
 10
1.2557318114783322
 20
599.7951638886226
 42
-0.0600293739749004
 10
1.606666723524365
 20
599.90106280607938
 42
-0.0360720378885212
 10
1.973045154987628
 20
599.93821007036127
 10
3.1070918633923776
 20
599.97102981919329
 42
-0.010491650707684
 10
5.7446872002196221
 20
599.99199855908671
 10
8.1280207608801582
 20
599.96093540211052
 42
0.0037059454923477
 10
15.533031771980335
 20
599.91931216543924
 10
16.725762536736692
 20
599.92144830182121
 42
-0.0004683496457389
 10
26.51586117530011
 20
599.92981290241471
 42
0.0002636651568761
 10
36.305275103187206
 20
599.93416943442628
 10
46.093155017393208
 20
599.94368673214171
 42
0.0002045505522372
 10
75.458309880262348
 20
599.9842534324506
 10
92.786219330300867
 20
600.01528007990612
 42
-0.0001678352992224
 10
116.86793216218237
 20
600.05031626780965
 42
-0.0005780018340696
 10
140.94965573076493
 20
600.0494303624464
 10
141.42407919844175
 20
600.04886447413742
 42
-0.0004814864852531
 10
166.45459671635734
 20
599.99490450467886
 10
174.23774871351756
 20
599.97063082351656
 42
0.0002258977081222
 10
207.54876417935179
 20
599.88179208734664
 42
0.0006569027737894
 10
240.85985922892411
 20
599.85176743640113
 10
270.16282292843584
 20
599.86385387656878
 42
0.00001100363798
 10
333.3372129832822
 20
599.8913013832838
 10
362.40846888446453
 20
599.90457181069064
 42
0.0000124304056325
 10
367.44034647316181
 20
599.90699385538107
 10
404.17886896406532
 20
599.95660326309587
 42
-0.0480289288271274
 10
405.29566660251027
 20
599.8554737218916
 10
405.36538272108299
 20
599.84233388417351
 42
-0.0614283592959894
 10
406.5646641770619
 20
599.45950157355094
 10
406.63014265049111
 20
599.42933725328089
 42
-0.0595445752200542
 10
407.79811914361568
 20
598.71220828314222
 42
-0.0586903214282936
 10
408.76610922139992
 20
597.74138703473477
 42
-0.0594020599828296
 10
409.48031687597177
 20
596.57131047729081
 10
409.55309700943337
 20
596.41234966906632
 42
-0.0609164874363871
 10
409.87324218699155
 20
595.40487869433127
 10
409.92152989521293
 20
595.14826414850143
 42
-0.0310671619696742
 10
409.98846644402079
 20
594.61070967403043
 10
409.99398134044355
 20
594.52153992624847
 42
-0.0154433506633803
 10
410.00521829233008
 20
594.15781471689468
 10
410.00521829233008
 20
593.96488924244886
 42
-0.0022632469023075
 10
409.99300482603468
 20
590.84493972059965
 10
409.96004587431423
 20
586.94045318160101
 42
-0.0153499878242269
 10
409.53260001871365
 20
576.0247115362763
 10
409.15110711789043
 20
570.57091630939294
 42
-0.0112524390608423
 10
408.28736001232232
 20
561.24354739761702
 42
-0.0058701149417829
 10
407.10477784992963
 20
551.95096643477245
 42
-0.0124118538036104
 10
405.58390516105584
 20
542.71149195189537
 10
405.00059441920985
 20
539.64483862132749
 42
-0.0132591390977817
 10
403.00824685560951
 20
530.49861254257735
 10
402.6359639172797
 20
528.98388599649218
 42
-0.0072844663917044
 10
401.05758279040339
 20
522.94295247572541
 10
400.94646332526526
 20
522.54166128370468
 42
-0.005399169571032
 10
399.44616264600825
 20
517.34250792363468
 10
399.40817074048311
 20
517.21599507781821
 42
-0.0132888630634906
 10
397.79779856646758
 20
512.32887622737553
 42
-0.0326584217013787
 10
395.74951920881978
 20
507.61849495518408
 10
395.61101257492879
 20
507.3494818572168
 42
-0.0306805429315828
 10
392.7824092227396
 20
502.59638370697161
 10
392.77031600037304
 20
502.57863695868582
 42
-0.0288822120895399
 10
389.42246511306627
 20
498.22831014235015
 42
-0.0264971177181455
 10
385.612503592655
 20
494.27279501718596
 42
-0.023901852980198
 10
381.42195281074453
 20
490.71898181759246
 10
381.40977281108934
 20
490.70961504954596
 42
-0.0213110424025205
 10
376.88930741662693
 20
487.53026588442617
 10
376.87084292255133
 20
487.51842193489051
 42
-0.0188777349296871
 10
372.07102840350649
 20
484.68942793004982
 10
372.05176087844643
 20
484.67903087896707
 42
-0.0166782399192878
 10
367.02312480888548
 20
482.1783108974501
 10
367.00826578215492
 20
482.17152986283367
 42
-0.014739392806137
 10
361.80181266607048
 20
479.97854534716515
 10
361.78906625412066
 20
479.97361357329953
 42
-0.0130564311599864
 10
356.47041897478607
 20
478.07385702907146
 42
-0.0117882846330824
 10
351.06364085522932
 20
476.4405002642693
 10
349.35440554059539
 20
475.96782060755316
 42
-0.0196965028588666
 10
342.08162000926313
 20
474.26177247311989
 10
341.38815891600444
 20
474.12766837960805
 42
-0.0060759002748506
 10
335.42195413987173
 20
473.04893931148951
 42
-0.0094991953076409
 10
329.42568665112179
 20
472.15664276280273
 10
328.6721678684454
 20
472.0591053515227
 42
-0.0053430238712027
 10
321.14236643443371
 20
471.16612980742934
 10
319.99759037131736
 20
471.04275815398211
 42
-0.0071675765972885
 10
311.24600998407533
 20
470.22632997861194
 10
309.78581699296251
 20
470.11119684506099
 42
-0.0027550206206637
 10
303.94055733523783
 20
469.6827044940693
 42
-0.0022756854551695
 10
298.09125417147698
 20
469.31304249545565
 10
296.62695316730151
 20
469.22719147250268
 42
-0.0033971813789923
 10
287.84427358376934
 20
468.77212331387784
 10
285.615242717304
 20
468.67180803476901
 42
-0.0018535805039908
 10
272.36938193728571
 20
468.12488742499852
 10
270.86699613260367
 20
468.0684322732256
 42
-0.0004374316004538
 10
260.52126545417758
 20
467.68873433209507
 10
257.93484758806676
 20
467.59607612745822
 42
0.000285158379564
 10
252.76172783767302
 20
467.40779537925926
 10
250.91435417667125
 20
467.33950340391937
 42
0.0001169368721972
 10
249.43610198925171
 20
467.28451056488808
 10
150.9393790500238
 20
467.2404133135862
 42
-0.0000257561309933
 10
148.41358280334069
 20
467.28430248000859
 10
142.47417595511104
 20
467.38781384720437
 42
0.0006318935513405
 10
128.06927401625208
 20
467.62065112093529
 10
123.31948806854318
 20
467.69142132046261
 42
0.0007078961412316
 10
104.78756325006631
 20
467.94129807396729
 10
101.74893686255866
 20
467.97796688027699
 42
0.0012816124235969
 10
89.293607620785991
 20
468.0963427900453
 10
88.481727463595661
 20
468.10197775700266
 42
0.001270135651106
 10
77.649734032281671
 20
468.14964162457454
 42
0.0019781702906054
 10
66.817709361480908
 20
468.12693389921486
 10
60.45651243723723
 20
468.08843111855299
 42
0.0020332399021813
 10
51.623541312950252
 20
467.99904584146788
 10
48.425966680913696
 20
467.9536831825074
 42
-0.0002065156024382
 10
45.988494439198909
 20
467.92011072830167
 42
0.0027384712858326
 10
43.551259803458606
 20
467.87419633199789
 10
43.372251275538673
 20
467.86984316339277
 42
0.0085543541271004
 10
40.579231669131964
 20
467.75408528103151
 10
38.452684153002942
 20
467.62947610951909
 42
0.0196462795324096
 10
34.545799926558672
 20
467.24609084936657
 10
33.313429432250054
 20
467.07605993043137
 42
0.0033379301242152
 10
31.887734192248601
 20
466.86964790602616
 42
0.1988865104693964
 10
30.748288420963743
 20
466.18181054785367
 10
30.059561532002597
 20
465.2471376210263
 42
0.002896670080497
 10
29.983122680919575
 20
465.23190134514635
 42
0.002896670080497
  0
ENDBLK
  5
12F
100
AcDbEntity
  8
GAR70-1701
390
0
100
AcDbBlockEnd
  0
BLOCK
  5
130
100
AcDbEntity
  8
GAR70-1701
390
0
100
AcDbBlockBegin
  2
*D21
 70
               1
 10
0.0
 20
0.0
 30
0.0
  3
*D21
  1

  0
LINE
  5
131
100
AcDbEntity
  8
0
370
              -2
390
0
  6
Continuous
 62
               0
100
AcDbLine
 10
-460.47071140121625
 20
746.9565520141025
 30
0.0
 11
-407.99999999999994
 21
820.0
 31
0.0
  0
CIRCLE
  5
132
102
{ACAD_REACTORS
330
133
102
}
100
AcDbEntity
  8
0
370
              -2
390
0
  6
Continuous
 62
               0
100
AcDbCircle
 10
-460.47071140121625
 20
746.9565520141025
 30
0.0
 40
4.99969482421875
  0
HATCH
  5
133
100
AcDbEntity
  8
0
370
              -2
390
0
  6
Continuous
 62
               0
100
AcDbHatch
 10
0.0
 20
0.0
 30
0.0
210
0.0
220
0.0
230
1.0
  2
SOLID
 70
               1
 71
               1
 91
        1
 92
        1
 93
        1
 72
               2
 10
-460.47071140121625
 20
746.9565520141025
 40
4.99969482421875
 50
0.0
 51
360.0
 73
               0
 97
        1
330
132
 75
               0
 76
               1
 98
        1
 10
0.0
 20
0.0
  0
LINE
  5
134
100
AcDbEntity
  8
0
370
              -2
390
0
  6
Continuous
 62
               0
100
AcDbLine
 10
-407.99999999999994
 20
820.0
 30
0.0
 11
-324.49999999999994
 21
820.0
 31
0.0
  0
MTEXT
  5
135
100
AcDbEntity
  8
0
390
0
 62
               0
100
AcDbMText
 10
-387.99999999999994
 20
853.87761718749994
 30
0.0
 40
24.432617187500004
 41
0.0
 71
               1
 72
               1
  1
φ35
  7
ＭＳ ゴシック
 73
               1
 44
0.7828267384257843
  0
POINT
  5
136
100
AcDbEntity
  8
Defpoints
370
               0
390
0
 62
               0
100
AcDbPoint
 10
-480.89046241028331
 20
718.53061722334246
 30
0.0
  0
POINT
  5
137
100
AcDbEntity
  8
Defpoints
370
               0
390
0
 62
               0
100
AcDbPoint
 10
-460.47071140121625
 20
746.9565520141025
 30
0.0
  0
ENDBLK
  5
138
100
AcDbEntity
  8
GAR70-1701
390
0
100
AcDbBlockEnd
  0
ENDSEC
  0
SECTION
  2
ENTITIES
  0
MTEXT
  5
139
100
AcDbEntity
  8
template
390
0
 62
               7
100
AcDbMText
 10
-967.96716638448515
 20
-1133.4149218749999
 30
0.0
 40
16.288411458333332
 41
0.0
 71
               1
 72
               1
  1
品名
  7
ＭＳ ゴシック
 73
               1
 44
0.7828267384257843
  0
MTEXT
  5
13A
100
AcDbEntity
  8
template
390
0
 62
               7
100
AcDbMText
 10
-967.96716638448515
 20
-1218.4149218749999
 30
0.0
 40
16.288411458333332
 41
0.0
 71
               1
 72
               1
  1
仕様
  7
ＭＳ ゴシック
 73
               1
 44
0.7828267384257843
  0
MTEXT
  5
13B
100
AcDbEntity
  8
template
390
0
 62
               7
100
AcDbMText
 10
-914.96716638448515
 20
-1161.7199895643662
 30
0.0
 40
22.073097762527379
 41
0.0
 71
               1
 72
               1
  1
手洗器 -LAUFEN,Florakids-
  7
ＭＳ ゴシック
 73
               1
 44
0.7828267384257843
  0
LINE
  5
13C
100
AcDbEntity
  8
template
370
               5
390
0
  6
Continuous
 62
               7
100
AcDbLine
 10
975.03283361503281
 20
-1210.0
 30
0.0
 11
-974.96716638496719
 21
-1210.0
 31
0.0
  0
LWPOLYLINE
  5
13D
100
AcDbEntity
  8
template
370
               5
390
0
  6
Continuous
 62
               7
100
AcDbPolyline
 90
        5
 70
             128
 10
975.0328336155153
 20
1420.0
 10
-974.96716638448515
 20
1420.0
 10
-974.96716638448515
 20
-1379.9999999999998
 10
975.0328336155153
 20
-1379.9999999999998
 10
975.0328336155153
 20
1420.0
  0
LINE
  5
13E
100
AcDbEntity
  8
template
370
               5
390
0
  6
Continuous
 62
               7
100
AcDbLine
 10
975.03283361503281
 20
-1125.0
 30
0.0
 11
-974.96716638496719
 21
-1125.0
 31
0.0
  0
LINE
  5
13F
100
AcDbEntity
  8
template
370
               5
390
0
  6
Continuous
 62
               7
100
AcDbLine
 10
975.0328336155153
 20
-1295.0
 30
0.0
 11
222.0328336155153
 21
-1295.0
 31
0.0
  0
MTEXT
  5
140
100
AcDbEntity
  8
template
390
0
 62
               7
100
AcDbMText
 10
-914.96716638448515
 20
-1246.7199895643662
 30
0.0
 40
22.073097762527379
 41
0.0
 71
               1
 72
               1
  1
壁掛け/オーバーフロー付き/壁取付ボルト付属/\P陶器/ホワイト
  7
ＭＳ ゴシック
 73
               1
 44
1.2516220272009477
  0
MTEXT
  5
141
100
AcDbEntity
  8
template
390
0
 62
               7
100
AcDbMText
 10
-974.96716638428188
 20
-1391.8538220568566
 30
0.0
 40
21.717881944444446
 41
0.0
 71
               1
 72
               1
  1
120713SH
  7
ＭＳ ゴシック
 73
               1
 44
0.7828267384257843
  0
MTEXT
  5
142
100
AcDbEntity
  8
template
390
0
 62
               7
100
AcDbMText
 10
251.90423986777495
 20
-1324.9103944733076
 30
0.0
 40
24.432617187500004
 41
0.0
 71
               1
 72
               1
  1
大洋金物株式会社 ティーフォルム事業部
  7
ＭＳ ゴシック
 73
               1
 44
0.7828267384257843
  0
INSERT
  5
143
100
AcDbEntity
  8
template
390
0
 62
               7
100
AcDbBlockReference
  2
グループ
 10
-0.0021490984600092
 20
-204.99829689129683
 30
0.0
  0
MTEXT
  5
144
100
AcDbEntity
  8
template
390
0
 62
               7
100
AcDbMText
 10
784.03283361577405
 20
-1246.9973828125001
 30
0.0
 40
24.432617187500004
 41
0.0
 71
               1
 72
               1
  1
1:10
  7
ＭＳ ゴシック
 73
               1
 44
0.7828267384257843
  0
MTEXT
  5
145
100
AcDbEntity
  8
template
390
0
 62
               7
100
AcDbMText
 10
731.03283361577405
 20
-1218.4149218749999
 30
0.0
 40
16.288411458333332
 41
0.0
 71
               1
 72
               1
  1
縮尺
  7
ＭＳ ゴシック
 73
               1
 44
0.7828267384257843
  0
LINE
  5
146
100
AcDbEntity
  8
template
370
               5
390
0
  6
Continuous
 62
               7
100
AcDbLine
 10
724.03283361577405
 20
-1295.0
 30
0.0
 11
724.03283361577405
 21
-1210.0
 31
0.0
  0
MTEXT
  5
147
100
AcDbEntity
  8
template
390
0
 62
               7
100
AcDbMText
 10
480.03283361577405
 20
-1218.4149218749999
 30
0.0
 40
16.288411458333332
 41
0.0
 71
               1
 72
               1
  1
容量
  7
ＭＳ ゴシック
 73
               1
 44
0.7828267384257843
  0
MTEXT
  5
148
100
AcDbEntity
  8
template
390
0
 62
               7
100
AcDbMText
 10
533.03283361577405
 20
-1246.9973828125001
 30
0.0
 40
24.432617187500004
 41
0.0
 71
               1
 72
               1
  1
2.5L
  7
ＭＳ ゴシック
 73
               1
 44
0.7828267384257843
  0
LINE
  5
149
100
AcDbEntity
  8
template
370
               5
390
0
  6
Continuous
 62
               7
100
AcDbLine
 10
473.03283361577405
 20
-1295.0
 30
0.0
 11
473.03283361577405
 21
-1210.0
 31
0.0
  0
MTEXT
  5
14A
100
AcDbEntity
  8
template
390
0
 62
               7
100
AcDbMText
 10
229.03283361577405
 20
-1133.4149218749999
 30
0.0
 40
16.288411458333332
 41
0.0
 71
               1
 72
               1
  1
品番
  7
ＭＳ ゴシック
 73
               1
 44
0.7828267384257843
  0
MTEXT
  5
14B
100
AcDbEntity
  8
template
390
0
 62
               7
100
AcDbMText
 10
229.03283361577405
 20
-1218.4149218749999
 30
0.0
 40
16.288411458333332
 41
0.0
 71
               1
 72
               1
  1
重量
  7
ＭＳ ゴシック
 73
               1
 44
0.7828267384257843
  0
MTEXT
  5
14C
100
AcDbEntity
  8
template
390
0
 62
               7
100
AcDbMText
 10
282.03283361577405
 20
-1161.9973828124998
 30
0.0
 40
24.432617187500004
 41
0.0
 71
               1
 72
               1
  1
GAR70-1701
  7
ＭＳ ゴシック
 73
               1
 44
0.7828267384257843
  0
MTEXT
  5
14D
100
AcDbEntity
  8
template
390
0
 62
               7
100
AcDbMText
 10
282.03283361577405
 20
-1246.9973828125001
 30
0.0
 40
24.432617187500004
 41
0.0
 71
               1
 72
               1
  1
11.5kg
  7
ＭＳ ゴシック
 73
               1
 44
0.7828267384257843
  0
LINE
  5
14E
100
AcDbEntity
  8
template
370
               5
390
0
  6
Continuous
 62
               7
100
AcDbLine
 10
222.03283361577405
 20
-1379.9999999999998
 30
0.0
 11
222.03283361577405
 21
-1125.0
 31
0.0
  0
MTEXT
  5
14F
100
AcDbEntity
  8
notes
390
0
 62
               7
100
AcDbMText
 10
-232.86158280552371
 20
-238.12514293501411
 30
0.0
 40
24.432617187500004
 41
0.0
 71
               1
 72
               1
  1
壁取付ボルト穴(2ヶ所)
  7
ＭＳ ゴシック
 73
               1
 44
0.7828267384257843
  0
DIMENSION
  5
150
100
AcDbEntity
  8
notes
370
               5
390
0
  6
Continuous
 62
               7
100
AcDbDimension
  2
*D2
 10
-245.68814252878792
 20
892.74358461872271
 30
0.0
 11
-470.67247701402812
 21
892.74358461872271
 31
0.0
 71
               5
 72
               1
 41
1.0
 42
0.0
  3
tfrom線あり
100
AcDbAlignedDimension
 13
-695.65681149926831
 23
791.04509199932556
 33
0.0
 14
-245.68814252878792
 24
790.73715968448573
 34
0.0
100
AcDbRotatedDimension
1001
ACAD
1000
DSTYLE
1002
{
1070
             279
1070
               2
1070
             340
1005
38
1070
             147
1040
5.0
1002
}
  0
DIMENSION
  5
151
100
AcDbEntity
  8
notes
370
               5
390
0
  6
Continuous
 62
               7
100
AcDbDimension
  2
*D3
 10
-145.68814252878792
 20
792.72834603606316
 30
0.0
 11
-145.68814252878792
 21
587.74558044746641
 31
0.0
 71
               5
 72
               1
 41
1.0
 42
0.0
  3
tfrom線あり
100
AcDbAlignedDimension
 13
-466.43200948790036
 23
382.76281485886955
 33
0.0
 14
-247.53221136949514
 24
792.72834603606316
 34
0.0
 50
90.0
100
AcDbRotatedDimension
1001
ACAD
1000
DSTYLE
1002
{
1070
             279
1070
               2
1070
             340
1005
38
1070
             147
1040
5.0
1002
}
  0
DIMENSION
  5
152
100
AcDbEntity
  8
notes
370
               5
390
0
  6
Continuous
 62
               7
100
AcDbDimension
  2
*D4
 10
-795.67303128271169
 20
682.72834603606316
 30
0.0
 11
-795.67303128271169
 21
567.72834603606316
 31
0.0
 71
               5
 72
               1
 41
1.0
 42
0.0
  3
tfrom線あり
100
AcDbAlignedDimension
 13
-689.68334298395621
 23
452.72834603606316
 33
0.0
 14
-690.1588141246134
 24
682.72834603606316
 34
0.0
 50
90.0
100
AcDbRotatedDimension
1001
ACAD
1000
DSTYLE
1002
{
1070
             279
1070
               2
1070
             340
1005
38
1070
             147
1040
5.0
1002
}
  0
DIMENSION
  5
153
100
AcDbEntity
  8
notes
370
               5
390
0
  6
Continuous
 62
               7
100
AcDbDimension
  2
*D5
 10
-747.68058690574981
 20
792.74358461872259
 30
0.0
 11
-752.68058690574981
 21
750.24358461872259
 31
0.0
 70
             128
 71
               5
 72
               1
 41
1.0
 42
0.0
  3
tfrom線あり
100
AcDbAlignedDimension
 13
-695.65843679004615
 23
707.74358461872259
 33
0.0
 14
-693.67211850488752
 24
792.74358461872259
 34
0.0
 50
90.0
100
AcDbRotatedDimension
1001
ACAD
1000
DSTYLE
1002
{
1070
             279
1070
               2
1070
             340
1005
38
1070
             147
1040
5.0
1002
}
  0
DIMENSION
  5
154
100
AcDbEntity
  8
notes
370
               5
390
0
  6
Continuous
 62
               7
100
AcDbDimension
  2
*D6
 10
-695.61814280361841
 20
282.76281485886955
 30
0.0
 11
-668.11814280361841
 21
282.76281485886955
 31
0.0
 71
               5
 72
               1
 41
1.0
 42
0.0
  3
tfrom線あり
100
AcDbAlignedDimension
 13
-640.61814280361841
 23
403.81812917685943
 33
0.0
 14
-695.61814280361841
 24
451.78455085483631
 34
0.0
100
AcDbRotatedDimension
1001
ACAD
1000
DSTYLE
1002
{
1070
             279
1070
               2
1070
             340
1005
38
1070
             147
1040
5.0
1002
}
  0
DIMENSION
  5
155
100
AcDbEntity
  8
notes
370
               5
390
0
  6
Continuous
 62
               7
100
AcDbDimension
  2
*D7
 10
-640.61814280361841
 20
282.76281485886955
 30
0.0
 11
-456.68058690574981
 21
287.76281485886955
 31
0.0
 70
             128
 71
               5
 72
               1
 41
1.0
 42
0.0
  3
tfrom線あり
100
AcDbAlignedDimension
 13
-300.61814280361841
 23
403.78455085483631
 33
0.0
 14
-640.61814280361841
 24
378.81812917685943
 34
0.0
100
AcDbRotatedDimension
1001
ACAD
1000
DSTYLE
1002
{
1070
             279
1070
               2
1070
             340
1005
38
1070
             147
1040
5.0
1002
}
  0
DIMENSION
  5
156
100
AcDbEntity
  8
notes
370
               5
390
0
  6
Continuous
 62
               7
100
AcDbDimension
  2
*D8
 10
-795.67303128271169
 20
682.72834603606316
 30
0.0
 11
-795.67303128271169
 21
737.72834603606316
 31
0.0
 71
               5
 72
               1
 41
1.0
 42
0.0
  3
tfrom線あり
100
AcDbAlignedDimension
 13
-718.82896244200447
 23
792.72834603606316
 33
0.0
 14
-715.1588141246134
 24
682.72834603606316
 34
0.0
 50
90.0
100
AcDbRotatedDimension
1001
ACAD
1000
DSTYLE
1002
{
1070
             279
1070
               2
1070
             340
1005
38
1070
             147
1040
5.0
1002
}
  0
DIMENSION
  5
157
100
AcDbEntity
  8
notes
370
               5
390
0
  6
Continuous
 62
               7
100
AcDbDimension
  2
*D9
 10
-561.35324117122991
 20
-283.16500649399336
 30
0.0
 11
-471.3507512640324
 21
-283.16500649399336
 31
0.0
 71
               5
 72
               1
 41
1.0
 42
0.0
  3
tfrom線あり
100
AcDbAlignedDimension
 13
-381.34826135683488
 23
-410.17457291641301
 33
0.0
 14
-561.35324117122991
 24
-410.17457291641301
 34
0.0
100
AcDbRotatedDimension
1001
ACAD
1000
DSTYLE
1002
{
1070
             279
1070
               2
1070
             340
1005
38
1070
             147
1040
5.0
1002
}
  0
DIMENSION
  5
158
100
AcDbEntity
  8
notes
370
               5
390
0
  6
Continuous
 62
               7
100
AcDbDimension
  2
*D10
 10
-795.83015887567808
 20
-428.16625144759212
 30
0.0
 11
-795.83015887567808
 21
-405.66562897079274
 31
0.0
 71
               5
 72
               1
 41
1.0
 42
0.0
  3
tfrom線あり
100
AcDbAlignedDimension
 13
-689.47851026340368
 23
-383.16500649399336
 33
0.0
 14
-584.77004842346969
 24
-428.16625144759212
 34
0.0
 50
90.0
100
AcDbRotatedDimension
1001
ACAD
1000
DSTYLE
1002
{
1070
             279
1070
               2
1070
             340
1005
38
1070
             147
1040
5.0
1002
}
  0
DIMENSION
  5
159
100
AcDbEntity
  8
notes
370
               5
390
0
  6
Continuous
 62
               7
100
AcDbDimension
  2
*D11
 10
-146.75484070826383
 20
-533.16500649399336
 30
0.0
 11
-146.75484070826383
 21
-458.16500649399336
 31
0.0
 71
               5
 72
               1
 41
1.0
 42
0.0
  3
tfrom線あり
100
AcDbAlignedDimension
 13
-252.31419189103462
 23
-383.16500649399336
 33
0.0
 14
-444.18058690574981
 24
-533.16500649399336
 34
0.0
 50
90.0
100
AcDbRotatedDimension
1001
ACAD
1000
DSTYLE
1002
{
1070
             279
1070
               2
1070
             340
1005
38
1070
             147
1040
5.0
1002
}
  0
DIMENSION
  5
15A
100
AcDbEntity
  8
notes
370
               5
390
0
  6
Continuous
 62
               7
100
AcDbDimension
  2
*D12
 10
659.13243636706966
 20
-329.8335760163427
 30
0.0
 11
689.13223140129935
 21
-329.8335760163427
 31
0.0
 71
               5
 72
               1
 41
1.0
 42
0.0
  3
tfrom線あり
100
AcDbAlignedDimension
 13
719.13202643552904
 23
-384.85237777226638
 33
0.0
 14
659.13243636706966
 24
-383.058158699057
 34
0.0
100
AcDbRotatedDimension
1001
ACAD
1000
DSTYLE
1002
{
1070
             279
1070
               2
1070
             340
1005
38
1070
             147
1040
5.0
1002
}
  0
DIMENSION
  5
15B
100
AcDbEntity
  8
notes
370
               5
390
0
  6
Continuous
 62
               7
100
AcDbDimension
  2
*D13
 10
509.12478919813793
 20
-634.750491247843
 30
0.0
 11
614.1286127826038
 21
-634.750491247843
 31
0.0
 71
               5
 72
               1
 41
1.0
 42
0.0
  3
tfrom線あり
100
AcDbAlignedDimension
 13
719.13243636706966
 23
-519.81805952573382
 33
0.0
 14
509.12478919813793
 24
-534.750491247843
 34
0.0
100
AcDbRotatedDimension
1001
ACAD
1000
DSTYLE
1002
{
1070
             279
1070
               2
1070
             340
1005
38
1070
             147
1040
5.0
1002
}
  0
DIMENSION
  5
15C
100
AcDbEntity
  8
notes
370
               5
390
0
  6
Continuous
 62
               7
100
AcDbDimension
  2
*D14
 10
819.12504678226151
 20
-523.08038837185518
 30
0.0
 11
819.12504678226151
 21
-453.08038837185518
 31
0.0
 71
               5
 72
               1
 41
1.0
 42
0.0
  3
tfrom線あり
100
AcDbAlignedDimension
 13
717.93021963679575
 23
-383.08038837185518
 33
0.0
 14
718.78870834109148
 24
-523.08038837185518
 34
0.0
 50
90.0
100
AcDbRotatedDimension
1001
ACAD
1000
DSTYLE
1002
{
1070
             279
1070
               2
1070
             340
1005
38
1070
             147
1040
5.0
1002
}
  0
DIMENSION
  5
15D
100
AcDbEntity
  8
notes
370
               5
390
0
  6
Continuous
 62
               7
100
AcDbDimension
  2
*D15
 10
496.76359221197799
 20
-383.13627010143597
 30
0.0
 11
491.76359221197799
 21
-366.69877010143597
 31
0.0
 70
             128
 71
               5
 72
               1
 41
1.0
 42
0.0
  3
tfrom線あり
100
AcDbAlignedDimension
 13
511.58367218771764
 23
-493.13627010143597
 33
0.0
 14
511.58367218771764
 24
-383.13627010143597
 34
0.0
 50
90.0
100
AcDbRotatedDimension
1001
ACAD
1000
DSTYLE
1002
{
1070
             279
1070
               2
1070
             340
1005
38
1070
               3
1000
<>(深さ)
1070
             174
1070
               0
1070
             147
1040
5.0
1002
}
  0
LINE
  5
15E
100
AcDbEntity
  8
notes
370
              15
390
0
  6
Continuous
 62
               7
100
AcDbLine
 10
-381.3492688568349
 20
-428.17176360400481
 30
0.0
 11
-238.0
 21
-255.0
 31
0.0
  0
MTEXT
  5
15F
100
AcDbEntity
  8
notes
390
0
 62
               7
100
AcDbMText
 10
282.03283361577405
 20
-951.99738281249995
 30
0.0
 40
24.432617187500004
 41
0.0
 71
               1
 72
               1
  1
GAR70-1701-001 ホワイト\PGAR70-1701-002 ホワイト/グリーン\PGAR70-1701-003 ホワイト/レッド
  7
ＭＳ ゴシック
 73
               1
 44
1.1742401076386764
  0
INSERT
  5
160
100
AcDbEntity
  8
GAR70-1701
390
0
 62
               7
100
AcDbBlockReference
  2
815031D
 10
-470.6778308275434
 20
792.74358461872259
 30
0.0
  0
INSERT
  5
161
100
AcDbEntity
  8
GAR70-1701
390
0
 62
               7
100
AcDbBlockReference
  2
815031V
 10
-471.43589115041004
 20
-983.16500649399336
 30
0.0
  0
INSERT
  5
162
100
AcDbEntity
  8
GAR70-1701
390
0
 62
               7
100
AcDbBlockReference
  2
815031S
 10
719.13243636706966
 20
-983.01806218878255
 30
0.0
 41
-1.0
  0
LINE
  5
163
100
AcDbEntity
  8
GAR70-1701
370
              15
390
0
  6
Continuous
 62
               7
100
AcDbLine
 10
676.63243636706966
 20
-398.05601200715938
 30
0.0
 11
676.63243636706966
 21
-383.05601200715938
 31
0.0
  0
LINE
  5
164
100
AcDbEntity
  8
GAR70-1701
370
              15
390
0
  6
Continuous
 62
               7
100
AcDbLine
 10
641.63243636706966
 20
-398.05601200715938
 30
0.0
 11
641.63243636706966
 21
-383.05601200715938
 31
0.0
  0
LINE
  5
165
100
AcDbEntity
  8
GAR70-1701
370
               9
390
0
  6
STYLE_12
 62
               7
100
AcDbLine
 10
-493.94340817229966
 20
-533.16500649399336
 30
0.0
 11
-493.94340817229966
 21
-505.9595423516169
 31
0.0
  0
LINE
  5
166
100
AcDbEntity
  8
GAR70-1701
370
               9
390
0
  6
STYLE_12
 62
               7
100
AcDbLine
 10
-448.94283845786174
 20
-505.95954235161679
 30
0.0
 11
-493.94340817229966
 21
-505.95954235161679
 31
0.0
  0
LINE
  5
167
100
AcDbEntity
  8
GAR70-1701
370
               9
390
0
  6
STYLE_12
 62
               7
100
AcDbLine
 10
-448.94283845786174
 20
-505.95954235161679
 30
0.0
 11
-448.94283845786174
 21
-533.16500649399336
 31
0.0
  0
LINE
  5
168
100
AcDbEntity
  8
GAR70-1701
370
               5
390
0
  6
STYLE_12
 62
               7
100
AcDbLine
 10
-508.94228549486644
 20
-493.13627010143597
 30
0.0
 11
-433.76435955865111
 21
-493.13627010143597
 31
0.0
  0
ARC
  5
169
100
AcDbEntity
  8
GAR70-1701
370
               5
390
0
  6
STYLE_12
 62
               7
100
AcDbCircle
 10
-475.68370100660547
 20
-469.41844623728724
 30
0.0
 40
40.849340398757676
100
AcDbArc
 50
215.49395495828975
 51
243.44854909442668
  0
ARC
  5
16A
100
AcDbEntity
  8
GAR70-1701
370
               5
390
0
  6
STYLE_12
 62
               7
100
AcDbCircle
 10
-467.20254562355592
 20
-469.41844623728724
 30
0.0
 40
40.849340398757647
100
AcDbArc
 50
296.55145090557329
 51
324.50604504171031
  0
LWPOLYLINE
  5
16B
100
AcDbEntity
  8
GAR70-1701
370
              15
390
0
  6
STYLE_12
 62
               7
100
AcDbPolyline
 90
        4
 70
             128
 10
-433.9439611352949
 20
-493.13627010143597
 10
-405.95692606160242
 20
-491.76176584376663
 42
0.3767383639017458
 10
-301.18933331433368
 20
-390.24095178645399
 10
-300.61814280361841
 20
-383.16500649399336
  0
LWPOLYLINE
  5
16C
100
AcDbEntity
  8
GAR70-1701
370
              15
390
0
  6
STYLE_12
 62
               7
100
AcDbPolyline
 90
        4
 70
             128
 10
-508.94228549486644
 20
-493.13627010143597
 10
-536.92932056855898
 20
-491.76176584376663
 42
-0.3767383639017455
 10
-641.69691331582771
 20
-390.24095178645399
 10
-642.26810382654298
 20
-383.16500649399336
  0
LINE
  5
16D
100
AcDbEntity
  8
GAR70-1701
370
               9
390
0
  6
STYLE_12
 62
               7
100
AcDbLine
 10
486.62450434091897
 20
-534.20546414237663
 30
0.0
 11
486.62450434091897
 21
-507.00000000000011
 31
0.0
  0
LINE
  5
16E
100
AcDbEntity
  8
GAR70-1701
370
               9
390
0
  6
STYLE_12
 62
               7
100
AcDbLine
 10
531.62507405535689
 20
-507.0
 30
0.0
 11
486.62450434091897
 21
-507.0
 31
0.0
  0
LINE
  5
16F
100
AcDbEntity
  8
GAR70-1701
370
               9
390
0
  6
STYLE_12
 62
               7
100
AcDbLine
 10
531.62507405535689
 20
-507.0
 30
0.0
 11
531.62507405535689
 21
-534.20546414237663
 31
0.0
  0
ARC
  5
170
100
AcDbEntity
  8
GAR70-1701
370
               5
390
0
  6
STYLE_12
 62
               7
100
AcDbCircle
 10
504.88421150661316
 20
-470.45890388567045
 30
0.0
 40
40.849340398757626
100
AcDbArc
 50
215.49395495828981
 51
243.44854909442671
  0
ARC
  5
171
100
AcDbEntity
  8
GAR70-1701
370
               5
390
0
  6
STYLE_12
 62
               7
100
AcDbCircle
 10
513.36536688966271
 20
-470.45890388567045
 30
0.0
 40
40.849340398757647
100
AcDbArc
 50
296.55145090557329
 51
324.50604504171031
  0
LINE
  5
172
100
AcDbEntity
  8
GAR70-1701
370
               9
390
0
  6
STYLE_12
 62
               7
100
AcDbLine
 10
509.12478919813793
 20
-484.49971514278104
 30
0.0
 11
509.12478919813793
 21
-529.50028485721896
 31
0.0
  0
LWPOLYLINE
  5
173
100
AcDbEntity
  8
GAR70-1701
370
              15
390
0
  6
STYLE_12
 62
               7
100
AcDbPolyline
 90
        5
 70
             128
 10
547.34191280783455
 20
-493.13627010143597
 10
572.04306866345667
 20
-487.29678484521827
 42
0.234825039139423
 10
596.75
 20
-466.76215061558258
 42
0.0858572307919002
 10
605.31689968994738
 20
-432.464720917943
 10
608.94255126597511
 20
-383.21127657545321
  0
LWPOLYLINE
  5
174
100
AcDbEntity
  8
GAR70-1701
370
              15
390
0
  6
STYLE_12
 62
               7
100
AcDbPolyline
 90
        3
 70
             128
 10
470.90766558844132
 20
-493.13627010143597
 42
-0.3785342878930059
 10
381.49871102448049
 20
-408.93673739163688
 10
379.12591862909505
 20
-383.12370091113689
  0
CIRCLE
  5
175
100
AcDbEntity
  8
GAR70-1701
370
              15
390
0
  6
Continuous
 62
               7
100
AcDbCircle
 10
-470.68058690574975
 20
732.74358461872259
 30
0.0
 40
17.5
  0
DIMENSION
  5
176
100
AcDbEntity
  8
GAR70-1701
370
               5
390
0
  6
Continuous
 62
               7
100
AcDbDimension
  2
*D21
 10
-480.89046241028331
 20
718.53061722334246
 30
0.0
 11
-387.99999999999977
 21
819.99999999999977
 31
0.0
 70
               3
 71
               5
 72
               1
 41
1.0
 42
0.0
  3
tfrom線あり
100
AcDbDiametricDimension
 15
-460.47071140121625
 25
746.9565520141025
 35
0.0
 40
89.936204326279181
1001
ACAD
1000
DSTYLE
1002
{
1070
             289
1070
               0
1070
             342
1005
4D
1070
             340
1005
38
1070
              73
1070
               1
1070
              74
1070
               1
1070
              75
1070
               1
1070
              76
1070
               1
1070
               3
1000

1070
             174
1070
               0
1070
             147
1040
5.0
1002
}
  0
ENDSEC
  0
SECTION
  2
OBJECTS
  0
DICTIONARY
  5
19
100
AcDbDictionary
280
               0
281
               1
  3
ACAD_GROUP
350
1A
  3
ACAD_MLINESTYLE
350
1B
  3
ACAD_LAYOUT
350
1E
  3
ACAD_PLOTSETTINGS
350
22
  3
ACAD_PLOTSTYLENAME
350
1F
  0
DICTIONARY
  5
1A
102
{ACAD_REACTORS
330
19
102
}
100
AcDbDictionary
280
               0
281
               1
  0
DICTIONARY
  5
1B
102
{ACAD_REACTORS
330
19
102
}
100
AcDbDictionary
280
               0
281
               1
  3
Standard
350
1C
  0
MLINESTYLE
  5
1C
102
{ACAD_REACTORS
330
1B
102
}
100
AcDbMlineStyle
  2
Standard
 70
               0
  3

 62
               0
 51
90.0
 52
90.0
 71
               2
 49
0.5
 62
             256
  6
ByLayer
 49
-0.5
 62
             256
  6
ByLayer
  0
ACDBDICTIONARYWDFLT
  5
1F
102
{ACAD_REACTORS
330
19
102
}
100
AcDbDictionary
281
               1
  3
Normal
350
1D
100
AcDbDictionaryWithDefault
340
1D
  0
ACDBPLACEHOLDER
  5
1D
102
{ACAD_REACTORS
330
1F
102
}
  0
LAYOUT
  5
20
102
{ACAD_REACTORS
330
1E
102
}
100
AcDbPlotSettings
  1

  2

  4

  6

 40
0.0
 41
0.0
 42
0.0
 43
0.0
 44
0.0
 45
0.0
 46
0.0
 47
0.0
 48
0.0
 49
0.0
140
0.0
141
0.0
142
1.0
143
1.0
 70
            1024
 72
               0
 73
               0
 74
               0
  7

 75
               0
147
1.0
148
0.0
149
0.0
100
AcDbLayout
  1
Model
 70
               0
 71
               0
 10
0.0
 20
0.0
 11
0.0
 21
0.0
 12
0.0
 22
0.0
 32
0.0
 14
0.0
 24
0.0
 34
0.0
 15
0.0
 25
0.0
 35
0.0
146
0.0
 13
0.0
 23
0.0
 33
0.0
 16
0.0
 26
0.0
 36
0.0
 17
0.0
 27
0.0
 37
0.0
 76
               0
330
A
331
0
345
0
346
0
  0
LAYOUT
  5
21
102
{ACAD_REACTORS
330
1E
102
}
100
AcDbPlotSettings
  1

  2

  4

  6

 40
0.0
 41
0.0
 42
0.0
 43
0.0
 44
0.0
 45
0.0
 46
0.0
 47
0.0
 48
0.0
 49
0.0
140
0.0
141
0.0
142
1.0
143
1.0
 70
               0
 72
               0
 73
               0
 74
               0
  7

 75
               0
147
1.0
148
0.0
149
0.0
100
AcDbLayout
  1
Layout1
 70
               0
 71
               0
 10
0.0
 20
0.0
 11
0.0
 21
0.0
 12
0.0
 22
0.0
 32
0.0
 14
0.0
 24
0.0
 34
0.0
 15
0.0
 25
0.0
 35
0.0
146
0.0
 13
0.0
 23
0.0
 33
0.0
 16
0.0
 26
0.0
 36
0.0
 17
0.0
 27
0.0
 37
0.0
 76
               0
330
B
331
0
345
0
346
0
  0
DICTIONARY
  5
1E
102
{ACAD_REACTORS
330
19
102
}
100
AcDbDictionary
280
               0
281
               1
  3
Layout1
350
21
  3
Model
350
20
  0
DICTIONARY
  5
22
102
{ACAD_REACTORS
330
19
102
}
100
AcDbDictionary
280
               0
281
               1
  0
ENDSEC
  0
EOF
