  0
SECTION
  2
HEADER
  9
$ACADVER
  1
AC1015
  9
$ACADMAINTVER
 70
               6
  9
$DWGCODEPAGE
  3
ANSI_932
  9
$INSBASE
 10
0.0
 20
0.0
 30
0.0
  9
$EXTMIN
 10
-9058.0
 20
2627.0
 30
-14.834305555555554
  9
$EXTMAX
 10
5866.6003583553111
 20
5583.0542027647443
 30
14.834305555555554
  9
$LIMMIN
 10
0.0
 20
0.0
  9
$LIMMAX
 10
0.0
 20
0.0
  9
$ORTHOMODE
 70
               0
  9
$REGENMODE
 70
               1
  9
$FILLMODE
 70
               1
  9
$QTEXTMODE
 70
               0
  9
$MIRRTEXT
 70
               1
  9
$LTSCALE
 40
50.799999999999997
  9
$ATTMODE
 70
               1
  9
$TEXTSIZE
 40
0.2
  9
$TRACEWID
 40
1.0
  9
$TEXTSTYLE
  7
Standard
  9
$CLAYER
  8
壁取付ブラケット [更新済み]
  9
$CELTYPE
  6
Continuous
  9
$CECOLOR
 62
             256
  9
$CELTSCALE
 40
1.0
  9
$DISPSILH
 70
               0
  9
$DIMSCALE
 40
1.0
  9
$DIMASZ
 40
31.75
  9
$DIMEXO
 40
0.0
  9
$DIMDLI
 40
6.9999999999999396
  9
$DIMRND
 40
0.0
  9
$DIMDLE
 40
0.0
  9
$DIMEXE
 40
19.999999999996199
  9
$DIMTP
 40
0.0
  9
$DIMTM
 40
0.0
  9
$DIMTXT
 40
24.432617187500004
  9
$DIMCEN
 40
0.0
  9
$DIMTSZ
 40
0.0
  9
$DIMTOL
 70
               0
  9
$DIMLIM
 70
               0
  9
$DIMTIH
 70
               0
  9
$DIMTOH
 70
               0
  9
$DIMSE1
 70
               0
  9
$DIMSE2
 70
               0
  9
$DIMTAD
 70
               1
  9
$DIMZIN
 70
              11
  9
$DIMBLK
  1
VW_FILLEDARROW
  9
$DIMASO
 70
               1
  9
$DIMSHO
 70
               1
  9
$DIMPOST
  1
<>
  9
$DIMAPOST
  1
[]
  9
$DIMALT
 70
               0
  9
$DIMALTD
 70
               1
  9
$DIMALTF
 40
1.0
  9
$DIMLFAC
 40
1.0
  9
$DIMTOFL
 70
               0
  9
$DIMTVP
 40
0.0
  9
$DIMTIX
 70
               1
  9
$DIMSOXD
 70
               0
  9
$DIMSAH
 70
               0
  9
$DIMBLK1
  1

  9
$DIMBLK2
  1

  9
$DIMSTYLE
  2
JIS
  9
$DIMCLRD
 70
               0
  9
$DIMCLRE
 70
               0
  9
$DIMCLRT
 70
               0
  9
$DIMTFAC
 40
1.0
  9
$DIMGAP
 40
1.00000000000108
  9
$DIMJUST
 70
               0
  9
$DIMSD1
 70
               0
  9
$DIMSD2
 70
               0
  9
$DIMTOLJ
 70
               1
  9
$DIMTZIN
 70
              11
  9
$DIMALTZ
 70
              11
  9
$DIMALTTZ
 70
              11
  9
$DIMUPT
 70
               0
  9
$DIMDEC
 70
               1
  9
$DIMTDEC
 70
               1
  9
$DIMALTU
 70
               2
  9
$DIMALTTD
 70
               2
  9
$DIMTXSTY
  7
ＭＳ ゴシック
  9
$DIMAUNIT
 70
               0
  9
$DIMADEC
 70
               2
  9
$DIMALTRND
 40
0.0
  9
$DIMAZIN
 70
               0
  9
$DIMDSEP
 70
              46
  9
$DIMATFIT
 70
               0
  9
$DIMFRAC
 70
               2
  9
$DIMLDRBLK
  1

  9
$DIMLUNIT
 70
               2
  9
$DIMLWD
 70
              -2
  9
$DIMLWE
 70
              -2
  9
$DIMTMOVE
 70
               0
  9
$LUNITS
 70
               2
  9
$LUPREC
 70
               4
  9
$SKETCHINC
 40
0.1
  9
$FILLETRAD
 40
0.0
  9
$AUNITS
 70
               0
  9
$AUPREC
 70
               0
  9
$MENU
  1
acad
  9
$ELEVATION
 40
0.0
  9
$PELEVATION
 40
0.0
  9
$THICKNESS
 40
0.0
  9
$LIMCHECK
 70
               0
  9
$CHAMFERA
 40
0.0
  9
$CHAMFERB
 40
0.0
  9
$CHAMFERC
 40
0.0
  9
$CHAMFERD
 40
0.0
  9
$SKPOLY
 70
               0
  9
$TDCREATE
 40
2455757.553425926
  9
$TDUCREATE
 40
0.000000000
  9
$TDUPDATE
 40
2455757.553425926
  9
$TDUUPDATE
 40
0.000000000
  9
$TDINDWG
 40
0.0000000000
  9
$TDUSRTIMER
 40
0.0000000000
  9
$USRTIMER
 70
               1
  9
$ANGBASE
 50
0.0
  9
$ANGDIR
 70
               0
  9
$PDMODE
 70
               1
  9
$PDSIZE
 40
-2.0
  9
$PLINEWID
 40
0.0
  9
$SPLFRAME
 70
               0
  9
$SPLINETYPE
 70
               6
  9
$SPLINESEGS
 70
               8
  9
$HANDSEED
  5
196
  9
$SURFTAB1
 70
               6
  9
$SURFTAB2
 70
               6
  9
$SURFTYPE
 70
               6
  9
$SURFU
 70
               6
  9
$SURFV
 70
               6
  9
$UCSBASE
  2

  9
$UCSNAME
  2

  9
$UCSORG
 10
0.0
 20
0.0
 30
0.0
  9
$UCSXDIR
 10
1.0
 20
0.0
 30
0.0
  9
$UCSYDIR
 10
0.0
 20
1.0
 30
0.0
  9
$UCSORTHOREF
  2

  9
$UCSORTHOVIEW
 70
               0
  9
$UCSORGTOP
 10
0.0
 20
0.0
 30
0.0
  9
$UCSORGBOTTOM
 10
0.0
 20
0.0
 30
0.0
  9
$UCSORGLEFT
 10
0.0
 20
0.0
 30
0.0
  9
$UCSORGRIGHT
 10
0.0
 20
0.0
 30
0.0
  9
$UCSORGFRONT
 10
0.0
 20
0.0
 30
0.0
  9
$UCSORGBACK
 10
0.0
 20
0.0
 30
0.0
  9
$PUCSBASE
  2

  9
$PUCSNAME
  2

  9
$PUCSORG
 10
0.0
 20
0.0
 30
0.0
  9
$PUCSXDIR
 10
1.0
 20
0.0
 30
0.0
  9
$PUCSYDIR
 10
0.0
 20
1.0
 30
0.0
  9
$PUCSORTHOREF
  2

  9
$PUCSORTHOVIEW
 70
               0
  9
$PUCSORGTOP
 10
0.0
 20
0.0
 30
0.0
  9
$PUCSORGBOTTOM
 10
0.0
 20
0.0
 30
0.0
  9
$PUCSORGLEFT
 10
0.0
 20
0.0
 30
0.0
  9
$PUCSORGRIGHT
 10
0.0
 20
0.0
 30
0.0
  9
$PUCSORGFRONT
 10
0.0
 20
0.0
 30
0.0
  9
$PUCSORGBACK
 10
0.0
 20
0.0
 30
0.0
  9
$USERI1
 70
               0
  9
$USERI2
 70
               0
  9
$USERI3
 70
               0
  9
$USERI4
 70
               0
  9
$USERI5
 70
               0
  9
$USERR1
 40
0.0
  9
$USERR2
 40
0.0
  9
$USERR3
 40
0.0
  9
$USERR4
 40
0.0
  9
$USERR5
 40
0.0
  9
$WORLDVIEW
 70
               1
  9
$SHADEDGE
 70
               3
  9
$SHADEDIF
 70
              70
  9
$TILEMODE
 70
               1
  9
$MAXACTVP
 70
              64
  9
$PINSBASE
 10
0.0
 20
0.0
 30
0.0
  9
$PLIMCHECK
 70
               0
  9
$PEXTMIN
 10
1.0000000000000000E+20
 20
1.0000000000000000E+20
 30
1.0000000000000000E+20
  9
$PEXTMAX
 10
-1.0000000000000000E+20
 20
-1.0000000000000000E+20
 30
-1.0000000000000000E+20
  9
$PLIMMIN
 10
0.0
 20
0.0
  9
$PLIMMAX
 10
12.0
 20
9.0
  9
$UNITMODE
 70
               0
  9
$VISRETAIN
 70
               0
  9
$PLINEGEN
 70
               1
  9
$PSLTSCALE
 70
               0
  9
$TREEDEPTH
 70
            3020
  9
$CMLSTYLE
  2
Standard
  9
$CMLJUST
 70
               0
  9
$CMLSCALE
 40
1.0
  9
$PROXYGRAPHICS
 70
               0
  9
$MEASUREMENT
 70
               1
  9
$CELWEIGHT
370
               0
  9
$ENDCAPS
280
               0
  9
$JOINSTYLE
280
               0
  9
$LWDISPLAY
290
               1
  9
$INSUNITS
 70
               4
  9
$HYPERLINKBASE
  1

  9
$STYLESHEET
  1

  9
$XEDIT
290
               1
  9
$CEPSNTYPE
380
               0
  9
$PSTYLEMODE
290
               1
  9
$FINGERPRINTGUID
  2

  9
$VERSIONGUID
  2

  9
$EXTNAMES
290
               1
  9
$PSVPSCALE
 40
0.0
  0
ENDSEC
  0
SECTION
  2
CLASSES
  0
CLASS
  1
LWPOLYLINE
  2
AcDbPolyline
  3
AutoCAD 2000
 90
        0
280
               0
281
               1
  0
CLASS
  1
IMAGE
  2
AcDbRasterImage
  3
ISM
 90
      127
280
               0
281
               1
  0
CLASS
  1
OLE2FRAME
  2
AcDbOle2Frame
  3
AutoCAD 2000
 90
        0
280
               0
281
               1
  0
CLASS
  1
HATCH
  2
AcDbHatch
  3
AutoCAD 2000
 90
        0
280
               0
281
               1
  0
CLASS
  1
DICTIONARYVAR
  2
AcDbDictionaryVar
  3
AutoCAD 2000
 90
        0
280
               0
281
               0
  0
CLASS
  1
RASTERVARIABLES
  2
AcDbRasterVariables
  3
ISM
 90
        0
280
               0
281
               0
  0
CLASS
  1
IMAGEDEF
  2
AcDbRasterImageDef
  3
ISM
 90
        0
280
               0
281
               0
  0
CLASS
  1
IMAGEDEF_REACTOR
  2
AcDbRasterImageDefReactor
  3
ISM
 90
        1
280
               0
281
               0
  0
CLASS
  1
IDBUFFER
  2
AcDbIdBuffer
  3
AutoCAD 2000
 90
        0
280
               0
281
               0
  0
CLASS
  1
SPATIAL_FILTER
  2
AcDbSpatialFilter
  3
AutoCAD 2000
 90
        0
280
               0
281
               0
  0
CLASS
  1
XRECORD
  2
AcDbXrecord
  3
AutoCAD 2000
 90
        0
280
               0
281
               0
  0
CLASS
  1
SORTENTSTABLE
  2
AcDbSortentsTable
  3
AutoCAD 2000
 90
        0
280
               0
281
               0
  0
CLASS
  1
LAYER_INDEX
  2
AcDbLayerIndex
  3
AutoCAD 2000
 90
        0
280
               0
281
               0
  0
CLASS
  1
SPATIAL_INDEX
  2
AcDbSpatialIndex
  3
AutoCAD 2000
 90
        0
280
               0
281
               0
  0
CLASS
  1
OBJECT_PTR
  2
CAseDLPNTableRecord
  3
"ASE-LPNTableRecord"
 90
        1
280
               0
281
               0
  0
CLASS
  1
LAYOUT
  2
AcDbLayout
  3
AutoCAD 2000
 90
        0
280
               0
281
               0
  0
CLASS
  1
PLOTSETTINGS
  2
AcDbPlotSettings
  3
AutoCAD 2000
 90
        0
280
               0
281
               0
  0
CLASS
  1
ACDBDICTIONARYWDFLT
  2
AcDbDictionaryWithDefault
  3
AutoCAD 2000
 90
        0
280
               0
281
               0
  0
CLASS
  1
ACDBPLACEHOLDER
  2
AcDbPlaceHolder
  3
AutoCAD 2000
 90
        0
280
               0
281
               0
  0
ENDSEC
  0
SECTION
  2
TABLES
  0
TABLE
  2
VPORT
  5
7
100
AcDbSymbolTable
 70
               1
  0
VPORT
  5
15
100
AcDbSymbolTableRecord
100
AcDbViewportTableRecord
  2
*ACTIVE
 70
               0
 10
0.0
 20
0.0
 11
1.0
 21
1.0
 12
-1595.6998208223449
 22
4105.0271013823722
 13
0.0
 23
0.0
 14
1.0
 24
1.0
 15
0.0
 25
0.0
 16
0.0
 26
0.0
 36
1.0
 17
0.0
 27
0.0
 37
0.0
 40
2956.0542027647443
 41
0.688564
 42
50.0
 43
0.0
 44
0.0
 50
0.0
 51
0.0
 71
               0
 72
            2000
 73
               1
 74
               1
 75
               0
 76
               0
 77
               0
 78
               0
281
               0
 65
               0
110
0.0
120
0.0
130
0.0
111
1.0
121
0.0
131
0.0
112
0.0
122
1.0
132
0.0
345
0
346
0
 79
               0
146
0.0
  0
ENDTAB
  0
TABLE
  2
LTYPE
  5
4
100
AcDbSymbolTable
 70
              17
  0
LTYPE
  5
11
100
AcDbSymbolTableRecord
100
AcDbLinetypeTableRecord
  2
ByBlock
 70
              64
  3

 72
              65
 73
               0
 40
0.0
  0
LTYPE
  5
12
100
AcDbSymbolTableRecord
100
AcDbLinetypeTableRecord
  2
ByLayer
 70
              64
  3

 72
              65
 73
               0
 40
0.0
  0
LTYPE
  5
13
100
AcDbSymbolTableRecord
100
AcDbLinetypeTableRecord
  2
Continuous
 70
              64
  3
Solid line
 72
              65
 73
               0
 40
0.0
  0
LTYPE
  5
35
100
AcDbSymbolTableRecord
100
AcDbLinetypeTableRecord
  2
STYLE_01
 70
               0
  3

 72
              65
 73
               2
 40
0.3527780104152768
 49
0.1763890052076384
 74
               0
 49
-0.1763890052076384
 74
               0
  0
LTYPE
  5
36
100
AcDbSymbolTableRecord
100
AcDbLinetypeTableRecord
  2
STYLE_02
 70
               0
  3

 72
              65
 73
               2
 40
0.3527780104152768
 49
0.1763890052076384
 74
               0
 49
-0.1763890052076384
 74
               0
  0
LTYPE
  5
37
100
AcDbSymbolTableRecord
100
AcDbLinetypeTableRecord
  2
STYLE_03
 70
               0
  3

 72
              65
 73
               2
 40
0.3527780104152768
 49
0.1763890052076384
 74
               0
 49
-0.1763890052076384
 74
               0
  0
LTYPE
  5
38
100
AcDbSymbolTableRecord
100
AcDbLinetypeTableRecord
  2
STYLE_04
 70
               0
  3

 72
              65
 73
               2
 40
0.3527780104152768
 49
0.1763890052076384
 74
               0
 49
-0.1763890052076384
 74
               0
  0
LTYPE
  5
39
100
AcDbSymbolTableRecord
100
AcDbLinetypeTableRecord
  2
STYLE_05
 70
               0
  3

 72
              65
 73
               2
 40
0.3527780104152768
 49
0.1763890052076384
 74
               0
 49
-0.1763890052076384
 74
               0
  0
LTYPE
  5
3A
100
AcDbSymbolTableRecord
100
AcDbLinetypeTableRecord
  2
STYLE_06
 70
               0
  3

 72
              65
 73
               2
 40
0.3527780104152768
 49
0.1763890052076384
 74
               0
 49
-0.1763890052076384
 74
               0
  0
LTYPE
  5
3B
100
AcDbSymbolTableRecord
100
AcDbLinetypeTableRecord
  2
STYLE_07
 70
               0
  3

 72
              65
 73
               2
 40
0.3527780104152768
 49
0.1763890052076384
 74
               0
 49
-0.1763890052076384
 74
               0
  0
LTYPE
  5
3C
100
AcDbSymbolTableRecord
100
AcDbLinetypeTableRecord
  2
STYLE_08
 70
               0
  3

 72
              65
 73
               6
 40
1.25
 49
0.625
 74
               0
 49
-0.20828
 74
               0
 49
0.06943
 74
               0
 49
-0.13893
 74
               0
 49
0.0694299999999999
 74
               0
 49
-0.13893
 74
               0
  0
LTYPE
  5
3D
100
AcDbSymbolTableRecord
100
AcDbLinetypeTableRecord
  2
STYLE_09
 70
               0
  3

 72
              65
 73
               4
 40
5.0
 49
3.75
 74
               0
 49
-0.2777849999999998
 74
               0
 49
0.6944300000000003
 74
               0
 49
-0.2777849999999998
 74
               0
  0
LTYPE
  5
3E
100
AcDbSymbolTableRecord
100
AcDbLinetypeTableRecord
  2
STYLE_10
 70
               0
  3

 72
              65
 73
               6
 40
5.9375
 49
3.75
 74
               0
 49
-0.2777849999999998
 74
               0
 49
0.6944300000000003
 74
               0
 49
-0.2777849999999998
 74
               0
 49
0.625
 74
               0
 49
-0.3125
 74
               0
  0
LTYPE
  5
3F
100
AcDbSymbolTableRecord
100
AcDbLinetypeTableRecord
  2
STYLE_11
 70
               0
  3

 72
              65
 73
               2
 40
0.0694444881889764
 49
0.0347222440944882
 74
               0
 49
-0.0347222440944882
 74
               0
  0
LTYPE
  5
40
100
AcDbSymbolTableRecord
100
AcDbLinetypeTableRecord
  2
STYLE_12
 70
               0
  3

 72
              65
 73
               2
 40
0.3937007874015748
 49
0.1968503937007874
 74
               0
 49
-0.1968503937007874
 74
               0
  0
LTYPE
  5
41
100
AcDbSymbolTableRecord
100
AcDbLinetypeTableRecord
  2
STYLE_13
 70
               0
  3

 72
              65
 73
               2
 40
0.5905511811023622
 49
0.2952755905511811
 74
               0
 49
-0.2952755905511811
 74
               0
  0
LTYPE
  5
42
100
AcDbSymbolTableRecord
100
AcDbLinetypeTableRecord
  2
STYLE_14
 70
               0
  3

 72
              65
 73
               2
 40
1.9685039370078738
 49
0.9842519685039369
 74
               0
 49
-0.9842519685039369
 74
               0
  0
ENDTAB
  0
TABLE
  2
LAYER
  5
2
100
AcDbSymbolTable
 70
               6
  0
LAYER
  5
14
100
AcDbSymbolTableRecord
100
AcDbLayerTableRecord
  2
0
 70
               0
 62
               7
  6
Continuous
290
               1
370
              -3
390
1D
  0
LAYER
  5
43
100
AcDbSymbolTableRecord
100
AcDbLayerTableRecord
  2
Defpoints
 70
               0
 62
               7
  6
Continuous
290
               0
370
              -3
390
1D
  0
LAYER
  5
44
100
AcDbSymbolTableRecord
100
AcDbLayerTableRecord
  2
template
 70
               0
 62
               7
  6
Continuous
290
               1
370
              -3
390
1D
  0
LAYER
  5
45
100
AcDbSymbolTableRecord
100
AcDbLayerTableRecord
  2
notes
 70
               0
 62
               7
  6
Continuous
290
               1
370
              -3
390
1D
  0
LAYER
  5
46
100
AcDbSymbolTableRecord
100
AcDbLayerTableRecord
  2
KUF70-0001
 70
               0
 62
               7
  6
Continuous
290
               1
370
              -3
390
1D
  0
LAYER
  5
47
100
AcDbSymbolTableRecord
100
AcDbLayerTableRecord
  2
壁取付ブラケット [更新済み]
 70
               0
 62
               7
  6
Continuous
290
               1
370
              -3
390
1D
  0
ENDTAB
  0
TABLE
  2
STYLE
  5
3
100
AcDbSymbolTable
 70
               2
  0
STYLE
  5
17
100
AcDbSymbolTableRecord
100
AcDbTextStyleTableRecord
  2
Standard
 70
               0
 40
0.0
 41
1.0
 50
0.0
 71
               0
 42
0.0
  3
txt
  4
BIGFONT.SHX
  0
STYLE
  5
34
100
AcDbSymbolTableRecord
100
AcDbTextStyleTableRecord
  2
ＭＳ ゴシック
 70
               0
 40
0.0
 41
1.0
 50
0.0
 71
               0
 42
0.0
  3

  4
ＭＳ ゴシック
1001
ACAD
1000
ＭＳ ゴシック
1071
        0
  0
ENDTAB
  0
TABLE
  2
VIEW
  5
5
100
AcDbSymbolTable
 70
               0
  0
ENDTAB
  0
TABLE
  2
UCS
  5
6
100
AcDbSymbolTable
 70
               0
  0
ENDTAB
  0
TABLE
  2
APPID
  5
8
100
AcDbSymbolTable
 70
               1
  0
APPID
  5
16
100
AcDbSymbolTableRecord
100
AcDbRegAppTableRecord
  2
ACAD
 70
               0
  0
ENDTAB
  0
TABLE
  2
DIMSTYLE
  5
9
100
AcDbSymbolTable
 70
               3
100
AcDbDimStyleTable
 71
               0
  0
DIMSTYLE
105
18
100
AcDbSymbolTableRecord
100
AcDbDimStyleTableRecord
  2
Standard
 70
               0
  3

  4

 40
1.0
 41
0.18
 42
0.0625
 43
0.38
 44
0.18
 45
0.0
 46
0.0
 47
0.0
 48
0.0
 71
               0
 72
               0
 73
               1
 74
               1
 75
               0
 76
               0
 77
               0
 78
               0
 79
               0
140
0.18
141
0.09
142
0.0
143
25.399999999999999
144
1.0
145
0.0
146
1.0
147
0.09
148
0.0
170
               0
171
               2
172
               0
173
               0
174
               0
175
               0
176
               0
177
               0
178
               0
179
               0
271
               4
272
               4
273
               2
274
               2
275
               0
276
               0
277
               2
278
              46
279
               0
280
               0
281
               0
282
               0
283
               1
284
               0
285
               0
286
               0
288
               0
289
               3
340
17
341
0
342
0
343
0
344
0
371
              -2
372
              -2
  0
DIMSTYLE
105
50
100
AcDbSymbolTableRecord
100
AcDbDimStyleTableRecord
  2
tfrom線あり
 70
               0
  3
<>
  4
[]
 40
1.0
 41
3.999755859375
 42
24.999999999999996
 43
0.9999999999999999
 44
0.0
 45
0.0
 46
0.0
 47
0.0
 48
0.0
 71
               0
 72
               0
 73
               0
 74
               0
 75
               0
 76
               0
 77
               1
 78
              11
 79
               0
140
24.432617187500004
141
0.0
142
0.0
143
1.0
144
1.0
145
0.0
146
1.0
147
0.4999999999999999
148
0.0
170
               0
171
               1
172
               0
173
               0
174
               1
175
               0
176
               0
177
               0
178
               0
179
               2
271
               1
272
               1
273
               2
274
               2
275
               0
276
               2
277
               2
278
              46
279
               0
280
               0
281
               0
282
               0
283
               1
284
              11
285
              11
286
              11
288
               0
289
               0
340
34
341
48
342
48
343
0
344
0
371
              -2
372
              -2
  0
DIMSTYLE
105
55
100
AcDbSymbolTableRecord
100
AcDbDimStyleTableRecord
  2
JIS
 70
               0
  3
<>
  4
[]
 40
1.0
 41
31.75
 42
0.0
 43
6.9999999999999396
 44
19.999999999996199
 45
0.0
 46
0.0
 47
0.0
 48
0.0
 71
               0
 72
               0
 73
               0
 74
               0
 75
               0
 76
               0
 77
               1
 78
              11
 79
               0
140
24.432617187500004
141
0.0
142
0.0
143
1.0
144
1.0
145
0.0
146
1.0
147
1.00000000000108
148
0.0
170
               0
171
               1
172
               0
173
               0
174
               1
175
               0
176
               0
177
               0
178
               0
179
               2
271
               1
272
               1
273
               2
274
               2
275
               0
276
               2
277
               2
278
              46
279
               0
280
               0
281
               0
282
               0
283
               1
284
              11
285
              11
286
              11
288
               0
289
               0
340
34
341
51
342
51
343
0
344
0
371
              -2
372
              -2
  0
ENDTAB
  0
TABLE
  2
BLOCK_RECORD
  5
1
100
AcDbSymbolTable
 70
              19
  0
BLOCK_RECORD
  5
A
100
AcDbSymbolTableRecord
100
AcDbBlockTableRecord
  2
*MODEL_SPACE
340
20
  0
BLOCK_RECORD
  5
B
100
AcDbSymbolTableRecord
100
AcDbBlockTableRecord
  2
*PAPER_SPACE
340
21
  0
BLOCK_RECORD
  5
48
100
AcDbSymbolTableRecord
100
AcDbBlockTableRecord
  2
_DOT
340
0
  0
BLOCK_RECORD
  5
51
100
AcDbSymbolTableRecord
100
AcDbBlockTableRecord
  2
VW_FILLEDARROW
340
0
  0
BLOCK_RECORD
  5
23
100
AcDbSymbolTableRecord
100
AcDbBlockTableRecord
  2
グループ
340
0
102
{BLKREFS
331
134
102
}
  0
BLOCK_RECORD
  5
24
100
AcDbSymbolTableRecord
100
AcDbBlockTableRecord
  2
*D3
340
0
  0
BLOCK_RECORD
  5
25
100
AcDbSymbolTableRecord
100
AcDbBlockTableRecord
  2
*D4
340
0
  0
BLOCK_RECORD
  5
26
100
AcDbSymbolTableRecord
100
AcDbBlockTableRecord
  2
*D5
340
0
  0
BLOCK_RECORD
  5
27
100
AcDbSymbolTableRecord
100
AcDbBlockTableRecord
  2
*D6
340
0
  0
BLOCK_RECORD
  5
28
100
AcDbSymbolTableRecord
100
AcDbBlockTableRecord
  2
*D7
340
0
  0
BLOCK_RECORD
  5
29
100
AcDbSymbolTableRecord
100
AcDbBlockTableRecord
  2
*D8
340
0
  0
BLOCK_RECORD
  5
2A
100
AcDbSymbolTableRecord
100
AcDbBlockTableRecord
  2
*D9
340
0
  0
BLOCK_RECORD
  5
2B
100
AcDbSymbolTableRecord
100
AcDbBlockTableRecord
  2
*D10
340
0
  0
BLOCK_RECORD
  5
2C
100
AcDbSymbolTableRecord
100
AcDbBlockTableRecord
  2
*D11
340
0
  0
BLOCK_RECORD
  5
2D
100
AcDbSymbolTableRecord
100
AcDbBlockTableRecord
  2
*D12
340
0
  0
BLOCK_RECORD
  5
2E
100
AcDbSymbolTableRecord
100
AcDbBlockTableRecord
  2
*D13
340
0
  0
BLOCK_RECORD
  5
2F
100
AcDbSymbolTableRecord
100
AcDbBlockTableRecord
  2
*D14
340
0
  0
BLOCK_RECORD
  5
30
100
AcDbSymbolTableRecord
100
AcDbBlockTableRecord
  2
*D15
340
0
  0
BLOCK_RECORD
  5
31
100
AcDbSymbolTableRecord
100
AcDbBlockTableRecord
  2
*D16
340
0
  0
BLOCK_RECORD
  5
32
100
AcDbSymbolTableRecord
100
AcDbBlockTableRecord
  2
*D17
340
0
  0
BLOCK_RECORD
  5
33
100
AcDbSymbolTableRecord
100
AcDbBlockTableRecord
  2
*D18
340
0
  0
ENDTAB
  0
ENDSEC
  0
SECTION
  2
BLOCKS
  0
BLOCK
  5
D
100
AcDbEntity
  8
0
390
0
100
AcDbBlockBegin
  2
*MODEL_SPACE
 70
               0
 10
0.0
 20
0.0
 30
0.0
  3
*MODEL_SPACE
  1

  0
ENDBLK
  5
E
100
AcDbEntity
  8
0
390
0
100
AcDbBlockEnd
  0
BLOCK
  5
F
100
AcDbEntity
 67
               1
  8
0
390
0
100
AcDbBlockBegin
  2
*PAPER_SPACE
 70
               0
 10
0.0
 20
0.0
 30
0.0
  3
*PAPER_SPACE
  1

  0
ENDBLK
  5
10
100
AcDbEntity
 67
               1
  8
0
390
0
100
AcDbBlockEnd
  0
BLOCK
  5
49
100
AcDbEntity
  8
0
390
0
100
AcDbBlockBegin
  2
_DOT
 70
               0
 10
0.0
 20
0.0
 30
0.0
  3
_DOT
  1

  0
POLYLINE
  5
4A
100
AcDbEntity
  8
0
370
              -2
390
0
  6
ByBlock
 62
               0
100
AcDb2dPolyline
 66
               1
 10
0.0
 20
0.0
 30
0.0
 70
               1
 40
0.5
 41
0.5
  0
VERTEX
  5
4B
100
AcDbEntity
  8
0
370
              -2
390
0
  6
ByBlock
 62
               0
100
AcDbVertex
100
AcDb2dVertex
 10
-0.25
 20
0.0
 30
0.0
 42
1.0
  0
VERTEX
  5
4C
100
AcDbEntity
  8
0
370
              -2
390
0
  6
ByBlock
 62
               0
100
AcDbVertex
100
AcDb2dVertex
 10
0.25
 20
0.0
 30
0.0
 42
1.0
  0
SEQEND
  5
4D
100
AcDbEntity
  8
0
390
0
  0
LINE
  5
4E
100
AcDbEntity
  8
0
370
              -2
390
0
  6
ByBlock
 62
               0
100
AcDbLine
 10
-0.5
 20
0.0
 30
0.0
 11
-1.0
 21
0.0
 31
0.0
  0
ENDBLK
  5
4F
100
AcDbEntity
  8
0
390
0
100
AcDbBlockEnd
  0
BLOCK
  5
52
100
AcDbEntity
  8
0
370
              -2
390
0
  6
ByBlock
 62
               0
100
AcDbBlockBegin
  2
VW_FILLEDARROW
 70
               0
 10
0.0
 20
0.0
 30
0.0
  3
VW_FILLEDARROW
  1

  0
SOLID
  5
53
100
AcDbEntity
  8
0
370
              -2
390
0
 62
               0
100
AcDbTrace
 10
0.0
 20
0.0
 30
0.0
 11
-0.9921874999999999
 21
-0.2658558393652545
 31
0.0
 12
-0.9921874999999999
 22
0.2658558393652548
 32
0.0
 13
-0.9921874999999999
 23
0.2658558393652548
 33
0.0
  0
ENDBLK
  5
54
100
AcDbEntity
  8
0
390
0
100
AcDbBlockEnd
  0
BLOCK
  5
56
100
AcDbEntity
  8
template
390
0
100
AcDbBlockBegin
  2
グループ
 70
               0
 10
0.0
 20
0.0
 30
0.0
  3
グループ
  1

  0
LWPOLYLINE
  5
57
100
AcDbEntity
  8
0
370
              15
390
0
  6
Continuous
 62
               7
100
AcDbPolyline
 90
        8
 70
             129
 10
877.58613249094117
 20
-1322.6493971524469
 10
877.58613249094117
 20
-1328.6467858460228
 10
868.08493557293787
 20
-1328.6467858460228
 10
868.08493557293787
 20
-1353.0977491095314
 10
859.72955831115507
 20
-1353.0977491095314
 10
859.72955831115507
 20
-1328.6467858460228
 10
850.39660136484565
 20
-1328.6467858460228
 10
850.39660136484565
 20
-1322.6493971524469
  0
LWPOLYLINE
  5
58
100
AcDbEntity
  8
0
370
              15
390
0
  6
Continuous
 62
               7
100
AcDbPolyline
 90
      101
 70
             128
 10
890.31442432149811
 20
-1323.3776456453834
 10
890.3297743502842
 20
-1323.373284888698
 42
-0.022222160781218
 10
890.61977892695427
 20
-1323.3046604234537
 10
890.63557269093985
 20
-1323.3016570003583
 42
-0.0146883565593067
 10
890.89827539617204
 20
-1323.2596538134073
 42
-0.0127458844185254
 10
891.16291436332642
 20
-1323.2321168453348
 10
891.22536944163778
 20
-1323.2272234227466
 42
-0.0198099018566925
 10
891.61621855110923
 20
-1323.2121382653499
 10
891.66803002055849
 20
-1323.212192041015
 42
-0.014761738276319
 10
892.16265348153172
 20
-1323.2273120662596
 10
892.23534493640659
 20
-1323.2316846731474
 42
-0.016262454900337
 10
892.62549856587214
 20
-1323.2679175484197
 10
892.74703095713346
 20
-1323.2832041074166
 42
-0.0080020874666076
 10
892.89260998822283
 20
-1323.3038869546847
 10
892.93092945881335
 20
-1323.3099582324951
 42
-0.0053821929681476
 10
892.99941356413274
 20
-1323.3215657563173
 10
892.27300786493413
 20
-1325.5024942120313
 42
0.0108667757393289
 10
892.20569079480765
 20
-1325.4893070968121
 10
892.16822277161373
 20
-1325.4828093542169
 42
0.0170663203309421
 10
892.02500598470306
 20
-1325.4629797569257
 10
891.95713065201528
 20
-1325.4559325863377
 42
0.0220162375277917
 10
891.67675124415769
 20
-1325.4392502255675
 10
891.59889567710945
 20
-1325.438050858301
 42
0.0282606915785245
 10
891.26325935352997
 20
-1325.4518541352702
 10
891.21934607975629
 20
-1325.456154125274
 42
0.0169677213683553
 10
890.97342158479864
 20
-1325.4886911748258
 42
0.0190576269864011
 10
890.7305136222227
 20
-1325.538838046931
 10
890.72425443410782
 20
-1325.5403810210414
 42
0.0213685642848224
 10
890.47386994962903
 20
-1325.6135813061467
 10
890.46838005471386
 20
-1325.6154443022053
 42
0.0237595297592416
 10
890.21488516981378
 20
-1325.7151288241016
 10
890.2097830957855
 20
-1325.7174205995791
 42
0.0261857468816978
 10
889.95761231955714
 20
-1325.8469569369527
 10
889.94718613046723
 20
-1325.8530224114227
 42
0.027255306201892
 10
889.71075635523016
 20
-1326.0083946173663
 10
889.67599334171678
 20
-1326.0340557654615
 42
0.0325996893189406
 10
889.52583799806916
 20
-1326.1608036384298
 10
889.50212856894109
 20
-1326.1836216669474
 42
0.0138050960638918
 10
889.41024541273589
 20
-1326.2770713284945
 42
0.012528010380251
 10
889.32340287990633
 20
-1326.37523465509
 10
889.29972243499401
 20
-1326.403393153282
 42
0.0205218024743331
 10
889.17462235948017
 20
-1326.5651864675112
 10
889.1521560189932
 20
-1326.596846197338
 42
0.0163110129579971
 10
888.99644563974221
 20
-1326.8321766324073
 10
888.99372174369091
 20
-1326.8366003943934
 42
0.0131897341893924
 10
888.84692122278443
 20
-1327.0897324867587
 10
888.84522112741854
 20
-1327.0928507258934
 42
0.0107895576064478
 10
888.70744442520606
 20
-1327.3590659355318
 10
888.70671153568264
 20
-1327.360560168175
 42
0.0091371507216003
 10
888.57823158703502
 20
-1327.6350853659308
 10
888.54848595562407
 20
-1327.7017918730935
 42
0.0135418326353083
 10
888.37677201655265
 20
-1328.1167296583615
 10
888.34316720811773
 20
-1328.2045958006443
 42
0.0092834542412666
 10
888.17193814819711
 20
-1328.6784942989489
 10
888.14632102048347
 20
-1328.7537353687308
 42
0.0054261043579446
 10
888.03868287218666
 20
-1329.0814993418073
 10
888.02115688602498
 20
-1329.1368875039873
 42
0.0008225090819545
 10
887.95248683417913
 20
-1329.3551562621865
 10
886.96779770224566
 20
-1332.3800475554431
 10
890.20042154231953
 20
-1332.3800475554431
 10
889.69622911246609
 20
-1334.2845258537955
 10
886.44017283048277
 20
-1334.2845258537955
 10
880.61102379812894
 20
-1353.0977489198003
 10
878.78592618781863
 20
-1353.0977489198003
 10
884.62060422331956
 20
-1334.2845258537955
 10
882.21548785427922
 20
-1334.2845258537955
 10
882.71968028413266
 20
-1332.3800475554431
 10
885.14822909508268
 20
-1332.3800475554431
 10
886.00838401327132
 20
-1329.7436345547444
 42
-0.0005863560656416
 10
886.04511869145176
 20
-1329.6268081345261
 10
886.12120652513522
 20
-1329.3858158350672
 42
-0.0087522378927621
 10
886.32067466859507
 20
-1328.7905397479121
 10
886.41293894400735
 20
-1328.5303995794027
 42
-0.0077400953829881
 10
886.67087260313667
 20
-1327.8373949018594
 10
886.68663757471654
 20
-1327.7969640184708
 42
-0.0082369946331714
 10
886.9337220453275
 20
-1327.1928849522776
 42
-0.0085725238362643
 10
887.20096814133478
 20
-1326.5974589129812
 10
887.30259774233912
 20
-1326.3810378110029
 42
-0.0168109410594437
 10
887.58954217106771
 20
-1325.8198302849012
 10
887.7153855615386
 20
-1325.5928662518822
 42
-0.0007817726857139
 10
887.76966991158338
 20
-1325.4953220068726
 10
887.76979821758675
 20
-1325.4950922981611
 42
-0.003662614216671
 10
887.82468608162196
 20
-1325.3984944181675
 42
-0.0080221150679523
 10
887.88181033703199
 20
-1325.3032151834095
 10
887.91251028838985
 20
-1325.2538242342926
 42
-0.0202139325572107
 10
888.04016602819866
 20
-1325.0658426336083
 10
888.09423349338419
 20
-1324.9927637693704
 42
-0.024932379179626
 10
888.35339628710221
 20
-1324.6767185272172
 10
888.37753610123036
 20
-1324.6501042543034
 42
-0.0242132121544738
 10
888.71721684276815
 20
-1324.3102207681034
 10
888.76512841552676
 20
-1324.2667116319101
 42
-0.025101752785736
 10
889.04911011616377
 20
-1324.0337188861486
 10
889.05055559297807
 20
-1324.0326496285693
 42
-0.0130868069040799
 10
889.34881624293484
 20
-1323.823869160027
 10
889.35037806207629
 20
-1323.8228357197529
 42
-0.0290329526395334
 10
889.66148920347086
 20
-1323.6420102181228
 10
889.6913347654604
 20
-1323.6269078352814
 42
-0.0160250190042704
 10
889.95723917922146
 20
-1323.50289172507
 42
-0.0267600374783744
 10
890.23251525668979
 20
-1323.4021434045214
 10
890.25925117621114
 20
-1323.3939508456956
 42
-0.0049981587688853
 10
890.31442432149811
 20
-1323.3776456453834
 42
-0.0049981587688853
  0
LWPOLYLINE
  5
59
100
AcDbEntity
  8
0
370
              15
390
0
  6
Continuous
 62
               7
100
AcDbPolyline
 90
      118
 70
             128
 10
910.12879188594502
 20
-1332.4540308832707
 10
912.00391381044449
 20
-1332.4540308832707
 10
911.1658749048446
 20
-1335.1355974096705
 42
-0.0010587229248125
 10
911.19733072035092
 20
-1335.0986928763919
 10
911.25552481104842
 20
-1335.0307106201396
 42
-0.0071874740401874
 10
911.40590002914655
 20
-1334.8600699281105
 10
911.5476228024088
 20
-1334.7038337867973
 42
-0.0148118053513174
 10
911.997752095122
 20
-1334.2362199407839
 10
912.0849744300267
 20
-1334.1508226199276
 42
-0.0086273358693152
 10
912.42052323103167
 20
-1333.8334469859144
 10
912.46435694725631
 20
-1333.7933973415825
 42
-0.0103138323115019
 10
912.72238064949113
 20
-1333.5672342042431
 10
912.7681550558259
 20
-1333.5287521569765
 42
-0.0060206748563132
 10
912.94100311993043
 20
-1333.3869575062283
 10
912.94303425080932
 20
-1333.3853318006027
 42
-0.0067069027297494
 10
913.11532706547882
 20
-1333.2511811668021
 10
913.11787583139267
 20
-1333.2492509969359
 42
-0.0076184352047876
 10
913.28878109727623
 20
-1333.123876121683
 42
-0.0089652861673631
 10
913.46374206001497
 20
-1333.0042428613476
 10
913.50009378015523
 20
-1332.9803316478678
 42
-0.0156916245938204
 10
913.69605327731574
 20
-1332.8600691613931
 42
-0.002329901106597
 10
913.89631532131796
 20
-1332.7468912218396
 10
913.91169945367551
 20
-1332.7382912267874
 42
-0.0107669341483466
 10
914.14593627877696
 20
-1332.6138910934378
 10
914.16820107985177
 20
-1332.6026743434879
 42
-0.0078058045897571
 10
914.45179119780528
 20
-1332.465312887849
 10
914.46169828551365
 20
-1332.460703759981
 42
-0.0181829330473982
 10
914.77200769012723
 20
-1332.3298400188862
 10
914.82606313269719
 20
-1332.3093248989414
 42
-0.0208411536032336
 10
915.1751481001462
 20
-1332.1932344364488
 10
915.18950420027488
 20
-1332.1891159914951
 42
-0.0222799817135176
 10
915.51822399419098
 20
-1332.1104744253551
 10
915.52711295743018
 20
-1332.1087624147694
 42
-0.0215509523884652
 10
915.84358392570766
 20
-1332.0618467262357
 10
915.88606588675589
 20
-1332.0574091994449
 42
-0.0182545924870606
 10
916.12017466606198
 20
-1332.041565374054
 10
916.1595756824056
 20
-1332.0403408289749
 42
-0.0072962856533021
 10
916.31549856209881
 20
-1332.0377715004527
 10
916.34459823266263
 20
-1332.0377166650489
 42
-0.0059227516313063
 10
916.44234773181586
 20
-1332.0386903768392
 10
916.47158994930464
 20
-1332.0393281434428
 42
-0.0011833111913934
 10
916.51084123302019
 20
-1332.0402771477525
 10
915.71545463741302
 20
-1334.5790110928515
 42
0.0143932051468029
 10
915.68905325506523
 20
-1334.5688121228072
 10
915.68178128264515
 20
-1334.5662409039489
 42
0.0234388603518031
 10
915.63995041671103
 20
-1334.5536216682331
 10
915.63126875380033
 20
-1334.5514407062285
 42
0.0199162742975186
 10
915.57097991972284
 20
-1334.5388239708939
 10
915.55016598191412
 20
-1334.535326771465
 42
0.0293643550670786
 10
915.44709112315365
 20
-1334.5241767258117
 10
915.42240594243458
 20
-1334.5229651087932
 42
0.0214606686870066
 10
915.26926502648462
 20
-1334.5220265483758
 10
915.25989311566423
 20
-1334.5223714599201
 42
0.0167564054174777
 10
915.08837292455678
 20
-1334.5344485022881
 10
915.07991313179673
 20
-1334.5353298427153
 42
0.0137677553248165
 10
914.89255981852943
 20
-1334.5600791512591
 10
914.88520807902432
 20
-1334.5612570712267
 42
0.0118497261486877
 10
914.68471031491993
 20
-1334.5982744214164
 10
914.67856030767575
 20
-1334.5995612841359
 42
0.0106421143888054
 10
914.46767942039207
 20
-1334.6483936597103
 10
914.46277061200158
 20
-1334.6496410023958
 42
0.0099746379707866
 10
914.24431214283572
 20
-1334.7098155307117
 10
914.1827641026689
 20
-1334.7280974093412
 42
0.019161367586436
 10
913.84677964015054
 20
-1334.8420747896294
 10
913.75871986740856
 20
-1334.8757616999521
 42
0.0205274080143976
 10
913.3734130955072
 20
-1335.041590107779
 10
913.31576381352477
 20
-1335.0692580723517
 42
0.0181256912194128
 10
913.05748687285814
 20
-1335.2049418913291
 10
913.00453148954648
 20
-1335.2352595045425
 42
0.0140709242411016
 10
912.85957655491575
 20
-1335.3237541779781
 10
912.83332768630157
 20
-1335.3408109966908
 42
0.0086667884394554
 10
912.74440152475472
 20
-1335.4008136645764
 42
0.0036408192033673
 10
912.65696828670241
 20
-1335.4629945223824
 10
912.62174141225273
 20
-1335.4884354682815
 42
0.0052260781284976
 10
912.46551271485635
 20
-1335.6037678549201
 10
912.4493058586022
 20
-1335.615995965534
 42
0.00500244358883
 10
912.26330251554293
 20
-1335.7592785337965
 10
912.24798435902812
 20
-1335.771324556242
 42
0.0136138710280621
 10
912.03754309071064
 20
-1335.9462910611485
 10
912.00387521490916
 20
-1335.9758700338696
 42
0.0172815186912631
 10
911.73947167324718
 20
-1336.2248667064925
 10
911.73690932740419
 20
-1336.2274525236401
 42
0.018940385799053
 10
911.48632752882713
 20
-1336.5002577884418
 10
911.45369603528854
 20
-1336.5386017199419
 42
0.0185044199505944
 10
911.26173959630898
 20
-1336.7818503010644
 42
0.0088565243899656
 10
911.08327948968065
 20
-1337.0353667212146
 10
911.07410151003205
 20
-1337.0489081009746
 42
0.0157195347230887
 10
910.89088090369626
 20
-1337.338430310293
 10
910.84479796177084
 20
-1337.4165825073046
 42
0.0095451879778986
 10
910.67971241162945
 20
-1337.7091771496675
 10
910.66856449269596
 20
-1337.7298478218067
 42
0.0100351706259408
 10
910.53652074354045
 20
-1337.9869033822904
 42
0.0086935915422099
 10
910.41418959174689
 20
-1338.2487365276941
 10
910.41086885033201
 20
-1338.2561788506666
 42
0.0072580174866143
 10
910.29052239838234
 20
-1338.5367708422607
 10
910.28726076508065
 20
-1338.5446908682675
 42
0.0060005122617768
 10
910.16806009673701
 20
-1338.8443005388754
 10
910.16484911839643
 20
-1338.8526620667774
 42
0.0049017786980172
 10
910.04594895954256
 20
-1339.1715910473717
 10
910.04278315314855
 20
-1339.1803439846121
 42
0.0039415167599941
 10
909.92334687508867
 20
-1339.5188860470344
 10
909.92021577243963
 20
-1339.5279892479014
 42
0.0031035838760582
 10
909.7994109867526
 20
-1339.8864291096568
 10
909.79630094221625
 20
-1339.8958497310498
 42
0.0025070747149691
 10
909.67339959091203
 20
-1340.2744969479591
 10
909.63610569447542
 20
-1340.3913886132468
 42
0.002908191028097
 10
909.44408739666585
 20
-1341.0055522715345
 10
909.40328422814764
 20
-1341.1387755138144
 42
0.000926645373234
 10
909.13486685382418
 20
-1342.0209999737665
 10
909.11397938118489
 20
-1342.0901118529978
 42
-0.0005809993666666
 10
908.83664270060115
 20
-1343.0039199596126
 10
908.77036090234321
 20
-1343.2214048917233
 42
-0.00120187081719
 10
908.62337659289892
 20
-1343.699567556293
 10
908.5710567412624
 20
-1343.8683266973874
 42
-0.0002691059594274
 10
908.52748726016489
 20
-1344.0085943175009
 10
905.69453136187565
 20
-1353.0977489198003
 10
903.87654246989712
 20
-1353.0977489198003
 10
910.12879188594502
 20
-1332.4540308832707
  0
SPLINE
  5
5A
100
AcDbEntity
  8
0
370
              15
390
0
  6
Continuous
 62
               7
100
AcDbSpline
210
0.0
220
0.0
230
1.0
 70
              13
 71
               2
 72
             782
 73
             779
 74
               0
 42
0.000001
 43
0.000001
 40
0.0
 40
0.0
 40
0.0
 40
1.0
 40
1.0
 40
2.0
 40
2.0
 40
3.0
 40
3.0
 40
4.0
 40
4.0
 40
5.0
 40
5.0
 40
6.0
 40
6.0
 40
7.0
 40
7.0
 40
8.0
 40
8.0
 40
9.0
 40
9.0
 40
10.0
 40
10.0
 40
11.0
 40
11.0
 40
12.0
 40
12.0
 40
13.0
 40
13.0
 40
14.0
 40
14.0
 40
15.0
 40
15.0
 40
16.0
 40
16.0
 40
17.0
 40
17.0
 40
18.0
 40
18.0
 40
19.0
 40
19.0
 40
20.0
 40
20.0
 40
21.0
 40
21.0
 40
22.0
 40
22.0
 40
23.0
 40
23.0
 40
24.0
 40
24.0
 40
25.0
 40
25.0
 40
26.0
 40
26.0
 40
27.0
 40
27.0
 40
28.0
 40
28.0
 40
29.0
 40
29.0
 40
30.0
 40
30.0
 40
31.0
 40
31.0
 40
32.0
 40
32.0
 40
33.0
 40
33.0
 40
34.0
 40
34.0
 40
35.0
 40
35.0
 40
36.0
 40
36.0
 40
37.0
 40
37.0
 40
38.0
 40
38.0
 40
39.0
 40
39.0
 40
40.0
 40
40.0
 40
41.0
 40
41.0
 40
42.0
 40
42.0
 40
43.0
 40
43.0
 40
44.0
 40
44.0
 40
45.0
 40
45.0
 40
46.0
 40
46.0
 40
47.0
 40
47.0
 40
48.0
 40
48.0
 40
49.0
 40
49.0
 40
50.0
 40
50.0
 40
51.0
 40
51.0
 40
52.0
 40
52.0
 40
53.0
 40
53.0
 40
54.0
 40
54.0
 40
55.0
 40
55.0
 40
56.0
 40
56.0
 40
57.0
 40
57.0
 40
58.0
 40
58.0
 40
59.0
 40
59.0
 40
60.0
 40
60.0
 40
61.0
 40
61.0
 40
62.0
 40
62.0
 40
63.0
 40
63.0
 40
64.0
 40
64.0
 40
65.0
 40
65.0
 40
66.0
 40
66.0
 40
67.0
 40
67.0
 40
68.0
 40
68.0
 40
69.0
 40
69.0
 40
70.0
 40
70.0
 40
71.0
 40
71.0
 40
72.0
 40
72.0
 40
73.0
 40
73.0
 40
74.0
 40
74.0
 40
75.0
 40
75.0
 40
76.0
 40
76.0
 40
77.0
 40
77.0
 40
78.0
 40
78.0
 40
79.0
 40
79.0
 40
80.0
 40
80.0
 40
81.0
 40
81.0
 40
82.0
 40
82.0
 40
83.0
 40
83.0
 40
84.0
 40
84.0
 40
85.0
 40
85.0
 40
86.0
 40
86.0
 40
87.0
 40
87.0
 40
88.0
 40
88.0
 40
89.0
 40
89.0
 40
90.0
 40
90.0
 40
91.0
 40
91.0
 40
92.0
 40
92.0
 40
93.0
 40
93.0
 40
94.0
 40
94.0
 40
95.0
 40
95.0
 40
96.0
 40
96.0
 40
97.0
 40
97.0
 40
98.0
 40
98.0
 40
99.0
 40
99.0
 40
100.0
 40
100.0
 40
101.0
 40
101.0
 40
102.0
 40
102.0
 40
103.0
 40
103.0
 40
104.0
 40
104.0
 40
105.0
 40
105.0
 40
106.0
 40
106.0
 40
107.0
 40
107.0
 40
108.0
 40
108.0
 40
109.0
 40
109.0
 40
110.0
 40
110.0
 40
111.0
 40
111.0
 40
112.0
 40
112.0
 40
113.0
 40
113.0
 40
114.0
 40
114.0
 40
115.0
 40
115.0
 40
116.0
 40
116.0
 40
117.0
 40
117.0
 40
118.0
 40
118.0
 40
119.0
 40
119.0
 40
120.0
 40
120.0
 40
121.0
 40
121.0
 40
122.0
 40
122.0
 40
123.0
 40
123.0
 40
124.0
 40
124.0
 40
125.0
 40
125.0
 40
126.0
 40
126.0
 40
127.0
 40
127.0
 40
128.0
 40
128.0
 40
129.0
 40
129.0
 40
130.0
 40
130.0
 40
131.0
 40
131.0
 40
132.0
 40
132.0
 40
133.0
 40
133.0
 40
134.0
 40
134.0
 40
135.0
 40
135.0
 40
136.0
 40
136.0
 40
137.0
 40
137.0
 40
138.0
 40
138.0
 40
139.0
 40
139.0
 40
140.0
 40
140.0
 40
141.0
 40
141.0
 40
142.0
 40
142.0
 40
143.0
 40
143.0
 40
144.0
 40
144.0
 40
145.0
 40
145.0
 40
146.0
 40
146.0
 40
147.0
 40
147.0
 40
148.0
 40
148.0
 40
149.0
 40
149.0
 40
150.0
 40
150.0
 40
151.0
 40
151.0
 40
152.0
 40
152.0
 40
153.0
 40
153.0
 40
154.0
 40
154.0
 40
155.0
 40
155.0
 40
156.0
 40
156.0
 40
157.0
 40
157.0
 40
158.0
 40
158.0
 40
159.0
 40
159.0
 40
160.0
 40
160.0
 40
161.0
 40
161.0
 40
162.0
 40
162.0
 40
163.0
 40
163.0
 40
164.0
 40
164.0
 40
165.0
 40
165.0
 40
166.0
 40
166.0
 40
167.0
 40
167.0
 40
168.0
 40
168.0
 40
169.0
 40
169.0
 40
170.0
 40
170.0
 40
171.0
 40
171.0
 40
172.0
 40
172.0
 40
173.0
 40
173.0
 40
174.0
 40
174.0
 40
175.0
 40
175.0
 40
176.0
 40
176.0
 40
177.0
 40
177.0
 40
178.0
 40
178.0
 40
179.0
 40
179.0
 40
180.0
 40
180.0
 40
181.0
 40
181.0
 40
182.0
 40
182.0
 40
183.0
 40
183.0
 40
184.0
 40
184.0
 40
185.0
 40
185.0
 40
186.0
 40
186.0
 40
187.0
 40
187.0
 40
188.0
 40
188.0
 40
189.0
 40
189.0
 40
190.0
 40
190.0
 40
191.0
 40
191.0
 40
192.0
 40
192.0
 40
193.0
 40
193.0
 40
194.0
 40
194.0
 40
195.0
 40
195.0
 40
196.0
 40
196.0
 40
197.0
 40
197.0
 40
198.0
 40
198.0
 40
199.0
 40
199.0
 40
200.0
 40
200.0
 40
201.0
 40
201.0
 40
202.0
 40
202.0
 40
203.0
 40
203.0
 40
204.0
 40
204.0
 40
205.0
 40
205.0
 40
206.0
 40
206.0
 40
207.0
 40
207.0
 40
208.0
 40
208.0
 40
209.0
 40
209.0
 40
210.0
 40
210.0
 40
211.0
 40
211.0
 40
212.0
 40
212.0
 40
213.0
 40
213.0
 40
214.0
 40
214.0
 40
215.0
 40
215.0
 40
216.0
 40
216.0
 40
217.0
 40
217.0
 40
218.0
 40
218.0
 40
219.0
 40
219.0
 40
220.0
 40
220.0
 40
221.0
 40
221.0
 40
222.0
 40
222.0
 40
223.0
 40
223.0
 40
224.0
 40
224.0
 40
225.0
 40
225.0
 40
226.0
 40
226.0
 40
227.0
 40
227.0
 40
228.0
 40
228.0
 40
229.0
 40
229.0
 40
230.0
 40
230.0
 40
231.0
 40
231.0
 40
232.0
 40
232.0
 40
233.0
 40
233.0
 40
234.0
 40
234.0
 40
235.0
 40
235.0
 40
236.0
 40
236.0
 40
237.0
 40
237.0
 40
238.0
 40
238.0
 40
239.0
 40
239.0
 40
240.0
 40
240.0
 40
241.0
 40
241.0
 40
242.0
 40
242.0
 40
243.0
 40
243.0
 40
244.0
 40
244.0
 40
245.0
 40
245.0
 40
246.0
 40
246.0
 40
247.0
 40
247.0
 40
248.0
 40
248.0
 40
249.0
 40
249.0
 40
250.0
 40
250.0
 40
251.0
 40
251.0
 40
252.0
 40
252.0
 40
253.0
 40
253.0
 40
254.0
 40
254.0
 40
255.0
 40
255.0
 40
256.0
 40
256.0
 40
257.0
 40
257.0
 40
258.0
 40
258.0
 40
259.0
 40
259.0
 40
260.0
 40
260.0
 40
261.0
 40
261.0
 40
262.0
 40
262.0
 40
263.0
 40
263.0
 40
264.0
 40
264.0
 40
265.0
 40
265.0
 40
266.0
 40
266.0
 40
267.0
 40
267.0
 40
268.0
 40
268.0
 40
269.0
 40
269.0
 40
270.0
 40
270.0
 40
271.0
 40
271.0
 40
272.0
 40
272.0
 40
273.0
 40
273.0
 40
274.0
 40
274.0
 40
275.0
 40
275.0
 40
276.0
 40
276.0
 40
277.0
 40
277.0
 40
278.0
 40
278.0
 40
279.0
 40
279.0
 40
280.0
 40
280.0
 40
281.0
 40
281.0
 40
282.0
 40
282.0
 40
283.0
 40
283.0
 40
284.0
 40
284.0
 40
285.0
 40
285.0
 40
286.0
 40
286.0
 40
287.0
 40
287.0
 40
288.0
 40
288.0
 40
289.0
 40
289.0
 40
290.0
 40
290.0
 40
291.0
 40
291.0
 40
292.0
 40
292.0
 40
293.0
 40
293.0
 40
294.0
 40
294.0
 40
295.0
 40
295.0
 40
296.0
 40
296.0
 40
297.0
 40
297.0
 40
298.0
 40
298.0
 40
299.0
 40
299.0
 40
300.0
 40
300.0
 40
301.0
 40
301.0
 40
302.0
 40
302.0
 40
303.0
 40
303.0
 40
304.0
 40
304.0
 40
305.0
 40
305.0
 40
306.0
 40
306.0
 40
307.0
 40
307.0
 40
308.0
 40
308.0
 40
309.0
 40
309.0
 40
310.0
 40
310.0
 40
311.0
 40
311.0
 40
312.0
 40
312.0
 40
313.0
 40
313.0
 40
314.0
 40
314.0
 40
315.0
 40
315.0
 40
316.0
 40
316.0
 40
317.0
 40
317.0
 40
318.0
 40
318.0
 40
319.0
 40
319.0
 40
320.0
 40
320.0
 40
321.0
 40
321.0
 40
322.0
 40
322.0
 40
323.0
 40
323.0
 40
324.0
 40
324.0
 40
325.0
 40
325.0
 40
326.0
 40
326.0
 40
327.0
 40
327.0
 40
328.0
 40
328.0
 40
329.0
 40
329.0
 40
330.0
 40
330.0
 40
331.0
 40
331.0
 40
332.0
 40
332.0
 40
333.0
 40
333.0
 40
334.0
 40
334.0
 40
335.0
 40
335.0
 40
336.0
 40
336.0
 40
337.0
 40
337.0
 40
338.0
 40
338.0
 40
339.0
 40
339.0
 40
340.0
 40
340.0
 40
341.0
 40
341.0
 40
342.0
 40
342.0
 40
343.0
 40
343.0
 40
344.0
 40
344.0
 40
345.0
 40
345.0
 40
346.0
 40
346.0
 40
347.0
 40
347.0
 40
348.0
 40
348.0
 40
349.0
 40
349.0
 40
350.0
 40
350.0
 40
351.0
 40
351.0
 40
352.0
 40
352.0
 40
353.0
 40
353.0
 40
354.0
 40
354.0
 40
355.0
 40
355.0
 40
356.0
 40
356.0
 40
357.0
 40
357.0
 40
358.0
 40
358.0
 40
359.0
 40
359.0
 40
360.0
 40
360.0
 40
361.0
 40
361.0
 40
362.0
 40
362.0
 40
363.0
 40
363.0
 40
364.0
 40
364.0
 40
365.0
 40
365.0
 40
366.0
 40
366.0
 40
367.0
 40
367.0
 40
368.0
 40
368.0
 40
369.0
 40
369.0
 40
370.0
 40
370.0
 40
371.0
 40
371.0
 40
372.0
 40
372.0
 40
373.0
 40
373.0
 40
374.0
 40
374.0
 40
375.0
 40
375.0
 40
376.0
 40
376.0
 40
377.0
 40
377.0
 40
378.0
 40
378.0
 40
379.0
 40
379.0
 40
380.0
 40
380.0
 40
381.0
 40
381.0
 40
382.0
 40
382.0
 40
383.0
 40
383.0
 40
384.0
 40
384.0
 40
385.0
 40
385.0
 40
386.0
 40
386.0
 40
387.0
 40
387.0
 40
388.0
 40
388.0
 40
389.0
 40
389.0
 40
389.0
 10
920.45749633667765
 20
-1332.443104519908
 30
0.0
 41
1.0
 10
921.27592044539813
 20
-1332.443104519908
 30
0.0
 41
1.0
 10
922.09434455411861
 20
-1332.443104519908
 30
0.0
 41
1.0
 10
921.68059081860179
 20
-1333.7857307841577
 30
0.0
 41
1.0
 10
921.26683708308508
 20
-1335.1283570484075
 30
0.0
 41
1.0
 10
921.28517657826706
 20
-1335.0996562754744
 30
0.0
 41
0.9999957264336994
 10
921.30368357511236
 20
-1335.0710632253013
 30
0.0
 41
1.0
 10
921.33411289923538
 20
-1335.0240503469477
 30
0.0
 41
1.0
 10
921.36454222335828
 20
-1334.9770374685938
 30
0.0
 41
1.0
 10
921.443907868466
 20
-1334.8544186616884
 30
0.0
 41
0.9995394069082203
 10
921.53056626001774
 20
-1334.7368405999468
 30
0.0
 41
1.0
 10
921.56632312227612
 20
-1334.6883257073555
 30
0.0
 41
1.0
 10
921.60207998453438
 20
-1334.6398108147639
 30
0.0
 41
1.0
 10
921.73580665235227
 20
-1334.4583705396371
 30
0.0
 41
0.9994460617143263
 10
921.88130713364205
 20
-1334.2862281419852
 30
0.0
 41
1.0
 10
921.88569531461667
 20
-1334.2810364616032
 30
0.0
 41
1.0
 10
921.89008349559117
 20
-1334.2758447812212
 30
0.0
 41
1.0
 10
922.02680761492957
 20
-1334.1140857443361
 30
0.0
 41
0.9994359394934418
 10
922.17408184528131
 20
-1333.9618695431709
 30
0.0
 41
1.0
 10
922.17646519923414
 20
-1333.9594062127981
 30
0.0
 41
1.0
 10
922.17884855318709
 20
-1333.9569428824254
 30
0.0
 41
1.0
 10
922.3213560756318
 20
-1333.8096533420071
 30
0.0
 41
0.999529368856779
 10
922.472627756615
 20
-1333.6713801298422
 30
0.0
 41
1.0
 10
922.49192151588113
 20
-1333.6537442441886
 30
0.0
 41
1.0
 10
922.51121527514738
 20
-1333.6361083585348
 30
0.0
 41
1.0
 10
922.62389943760104
 20
-1333.533106917675
 30
0.0
 41
0.9997087614803361
 10
922.74142232655208
 20
-1333.4356626368804
 30
0.0
 41
1.0
 10
922.76058839973007
 20
-1333.4197710583703
 30
0.0
 41
1.0
 10
922.77975447290794
 20
-1333.4038794798605
 30
0.0
 41
1.0
 10
922.8589452155129
 20
-1333.338218356078
 30
0.0
 41
0.999959533869367
 10
922.93930448636229
 20
-1333.2739926254274
 30
0.0
 41
1.0
 10
923.01966375722338
 20
-1333.2097668947677
 30
0.0
 41
0.9999749417502974
 10
923.10092429157453
 20
-1333.1466853408153
 30
0.0
 41
1.0
 10
923.12191043773942
 20
-1333.1303940535117
 30
0.0
 41
1.0
 10
923.1428965839043
 20
-1333.1141027662084
 30
0.0
 41
1.0
 10
923.2274644691978
 20
-1333.0484537563739
 30
0.0
 41
0.9999792037126579
 10
923.31287206896332
 20
-1332.9839009747334
 30
0.0
 41
1.0
 10
923.33369689488973
 20
-1332.9681611524643
 30
0.0
 41
1.0
 10
923.35452172081625
 20
-1332.9524213301954
 30
0.0
 41
1.0
 10
923.39827966874475
 20
-1332.9193481930809
 30
0.0
 41
0.9999993373994924
 10
923.44196135487607
 20
-1332.8861743976659
 30
0.0
 41
1.0
 10
923.48564304101842
 20
-1332.8530006022424
 30
0.0
 41
0.999916095381397
 10
923.53016945193724
 20
-1332.8209695370447
 30
0.0
 41
1.0
 10
923.5629913393575
 20
-1332.7973583814592
 30
0.0
 41
1.0
 10
923.59581322677786
 20
-1332.7737472258736
 30
0.0
 41
1.0
 10
923.70598341253628
 20
-1332.6944938495055
 30
0.0
 41
0.998096452723144
 10
923.82507240603775
 20
-1332.6294063766493
 30
0.0
 41
1.0
 10
923.86210501296455
 20
-1332.6091663970569
 30
0.0
 41
1.0
 10
923.89913761989123
 20
-1332.5889264174646
 30
0.0
 41
1.0
 10
924.07846463316525
 20
-1332.4909161667629
 30
0.0
 41
0.9984572810572987
 10
924.26755319952508
 20
-1332.4133939054159
 30
0.0
 41
1.0
 10
924.2711994689223
 20
-1332.4118990130773
 30
0.0
 41
1.0
 10
924.27484573831964
 20
-1332.4104041207388
 30
0.0
 41
1.0
 10
924.45664176588582
 20
-1332.3358716440689
 30
0.0
 41
0.9987838528034179
 10
924.64489442444324
 20
-1332.2796060039036
 30
0.0
 41
1.0
 10
924.64913237364112
 20
-1332.2783393502136
 30
0.0
 41
1.0
 10
924.65337032283912
 20
-1332.2770726965236
 30
0.0
 41
1.0
 10
924.83314708300145
 20
-1332.2233403637381
 30
0.0
 41
0.9990652816207254
 10
925.01689301471833
 20
-1332.1853366841958
 30
0.0
 41
1.0
 10
925.0220814157509
 20
-1332.184263581089
 30
0.0
 41
1.0
 10
925.02726981678347
 20
-1332.1831904779824
 30
0.0
 41
1.0
 10
925.20063894643545
 20
-1332.1473330046535
 30
0.0
 41
0.9992909934270369
 10
925.37621471289253
 20
-1332.1246225721873
 30
0.0
 41
1.0
 10
925.55179047935189
 20
-1332.1019121397208
 30
0.0
 41
0.9994553539448129
 10
925.72848191244577
 20
-1332.0908328355144
 30
0.0
 41
1.0
 10
925.76391632023922
 20
-1332.0886109474668
 30
0.0
 41
1.0
 10
925.79935072803266
 20
-1332.0863890594189
 30
0.0
 41
1.0
 10
925.96557649460374
 20
-1332.0759659970072
 30
0.0
 41
0.9990928098292815
 10
926.13208628650727
 20
-1332.0797256382418
 30
0.0
 41
1.0
 10
926.1706481217841
 20
-1332.0805963297748
 30
0.0
 41
1.0
 10
926.20920995706103
 20
-1332.0814670213081
 30
0.0
 41
1.0
 10
926.2985960784149
 20
-1332.0834852794767
 30
0.0
 41
0.9998382089205722
 10
926.3878517611962
 20
-1332.0887174060044
 30
0.0
 41
1.0
 10
926.38828166741348
 20
-1332.0887426069066
 30
0.0
 41
1.0
 10
926.38871157363076
 20
-1332.0887678078086
 30
0.0
 41
1.0
 10
926.47710744397978
 20
-1332.0939495325322
 30
0.0
 41
0.999755801675858
 10
926.56518802118319
 20
-1332.103032047899
 30
0.0
 41
1.0
 10
926.56566415961152
 20
-1332.1030811453816
 30
0.0
 41
1.0
 10
926.56614029803973
 20
-1332.1031302428639
 30
0.0
 41
1.0
 10
926.65326859838251
 20
-1332.1121145632653
 30
0.0
 41
0.9996565144181411
 10
926.73980645172605
 20
-1332.1256518699545
 30
0.0
 41
1.0
 10
926.74027237710391
 20
-1332.125724755686
 30
0.0
 41
1.0
 10
926.74073830248176
 20
-1332.1257976414172
 30
0.0
 41
1.0
 10
926.82634430506857
 20
-1332.1391891766434
 30
0.0
 41
0.9995321806867146
 10
926.91097138539612
 20
-1332.1577896650726
 30
0.0
 41
1.0
 10
926.91136057996596
 20
-1332.1578752075379
 30
0.0
 41
1.0
 10
926.91174977453579
 20
-1332.1579607500034
 30
0.0
 41
1.0
 10
926.99559846572186
 20
-1332.1763901535012
 30
0.0
 41
0.9993819199218994
 10
927.07794499992031
 20
-1332.2006655367627
 30
0.0
 41
1.0
 10
927.07818343341955
 20
-1332.2007358258725
 30
0.0
 41
1.0
 10
927.0784218669188
 20
-1332.2008061149822
 30
0.0
 41
1.0
 10
927.16029153411807
 20
-1332.224940920024
 30
0.0
 41
0.9992088568505904
 10
927.23998405310476
 20
-1332.2555061558178
 30
0.0
 41
1.0
 10
927.31966504398372
 20
-1332.2860657565507
 30
0.0
 41
0.9990226101772318
 10
927.39633571389095
 20
-1332.3235431881656
 30
0.0
 41
1.0
 10
927.47299485568976
 20
-1332.3610149847195
 30
0.0
 41
0.998842427397344
 10
927.54569848290191
 20
-1332.4056797599721
 30
0.0
 41
1.0
 10
927.54596619128097
 20
-1332.4058442240444
 30
0.0
 41
1.0
 10
927.54623389966002
 20
-1332.4060086881163
 30
0.0
 41
1.0
 10
927.61947294363074
 20
-1332.4510023915136
 30
0.0
 41
0.998692884449106
 10
927.68773581034111
 20
-1332.5032381257936
 30
0.0
 41
1.0
 10
927.6883171025637
 20
-1332.5036829390215
 30
0.0
 41
1.0
 10
927.68889839478629
 20
-1332.5041277522491
 30
0.0
 41
1.0
 10
927.75832384594139
 20
-1332.5572531129847
 30
0.0
 41
0.9986007262278926
 10
927.8217500157084
 20
-1332.6174138826782
 30
0.0
 41
1.0
 10
927.8226444311656
 20
-1332.6182622505132
 30
0.0
 41
1.0
 10
927.82353884662268
 20
-1332.6191106183483
 30
0.0
 41
1.0
 10
927.88875384730386
 20
-1332.6809681237119
 30
0.0
 41
0.9985581491381198
 10
927.94696145900559
 20
-1332.7494606139837
 30
0.0
 41
1.0
 10
927.95621991260145
 20
-1332.7603549716855
 30
0.0
 41
1.0
 10
927.9654783661972
 20
-1332.771249329387
 30
0.0
 41
1.0
 10
928.04220288509032
 20
-1332.8615305350622
 30
0.0
 41
0.997046023352159
 10
928.10419478624999
 20
-1332.962497619244
 30
0.0
 41
1.0
 10
928.11866415132954
 20
-1332.9860640783254
 30
0.0
 41
1.0
 10
928.13313351640909
 20
-1333.0096305374066
 30
0.0
 41
1.0
 10
928.17287021642176
 20
-1333.0743502614391
 30
0.0
 41
0.9988468816636651
 10
928.20621658717266
 20
-1333.1425827138655
 30
0.0
 41
1.0
 10
928.21325260966444
 20
-1333.1569796350036
 30
0.0
 41
1.0
 10
928.22028863215621
 20
-1333.1713765561417
 30
0.0
 41
1.0
 10
928.23956295792561
 20
-1333.210815166296
 30
0.0
 41
0.9998431189996532
 10
928.25742828541911
 20
-1333.2509117207339
 30
0.0
 41
1.0
 10
928.27529361291795
 20
-1333.2910082751832
 30
0.0
 41
0.9999989989969116
 10
928.29327233634854
 20
-1333.3310541127862
 30
0.0
 41
1.0
 10
928.29944464793653
 20
-1333.344802329585
 30
0.0
 41
1.0
 10
928.30561695952463
 20
-1333.3585505463839
 30
0.0
 41
1.0
 10
928.3359403061346
 20
-1333.4260928175918
 30
0.0
 41
0.9998790356322286
 10
928.36414818627486
 20
-1333.4945455695347
 30
0.0
 41
1.0
 10
928.37098336755935
 20
-1333.5111326709625
 30
0.0
 41
1.0
 10
928.37781854884383
 20
-1333.5277197723906
 30
0.0
 41
1.0
 10
928.40137621122187
 20
-1333.5848877272706
 30
0.0
 41
0.9998227574561593
 10
928.4227649596113
 20
-1333.6429020355479
 30
0.0
 41
1.0
 10
928.44415370800107
 20
-1333.700916343827
 30
0.0
 41
0.9996797971042091
 10
928.46257999296074
 20
-1333.7599384629461
 30
0.0
 41
1.0
 10
928.46648379568592
 20
-1333.7724429211137
 30
0.0
 41
1.0
 10
928.47038759841098
 20
-1333.7849473792812
 30
0.0
 41
1.0
 10
928.49662148882123
 20
-1333.8689784147377
 30
0.0
 41
0.9979274938735675
 10
928.51184601230057
 20
-1333.9556827733986
 30
0.0
 41
1.0
 10
928.51406969956167
 20
-1333.9683467742193
 30
0.0
 41
1.0
 10
928.51629338682278
 20
-1333.9810107750397
 30
0.0
 41
1.0
 10
928.52722332652093
 20
-1334.0432572823302
 30
0.0
 41
0.9994985982138693
 10
928.53419149169804
 20
-1334.1060707834722
 30
0.0
 41
1.0
 10
928.54115965687481
 20
-1334.1688842846149
 30
0.0
 41
0.9996372611202601
 10
928.54473552264301
 20
-1334.2319818633027
 30
0.0
 41
1.0
 10
928.54490410013216
 20
-1334.2349564803817
 30
0.0
 41
1.0
 10
928.54507267762131
 20
-1334.2379310974607
 30
0.0
 41
1.0
 10
928.54898569836769
 20
-1334.3069779103034
 30
0.0
 41
0.9997730630736368
 10
928.54995401185579
 20
-1334.3761287343393
 30
0.0
 41
1.0
 10
928.55001111827391
 20
-1334.380206913482
 30
0.0
 41
1.0
 10
928.55006822469204
 20
-1334.3842850926246
 30
0.0
 41
1.0
 10
928.55115075101617
 20
-1334.4615922749472
 30
0.0
 41
0.9998772614072928
 10
928.54981066428456
 20
-1334.5388954215089
 30
0.0
 41
1.0
 10
928.54972140108589
 20
-1334.5440445853428
 30
0.0
 41
1.0
 10
928.5496321378871
 20
-1334.5491937491768
 30
0.0
 41
1.0
 10
928.54811352475815
 20
-1334.6367952234032
 30
0.0
 41
0.999941556732711
 10
928.54470121451254
 20
-1334.7243433850701
 30
0.0
 41
1.0
 10
928.54445989383692
 20
-1334.7305348448153
 30
0.0
 41
1.0
 10
928.54421857316129
 20
-1334.7367263045608
 30
0.0
 41
1.0
 10
928.54032362156477
 20
-1334.836657385709
 30
0.0
 41
0.9999716810429812
 10
928.53492503844552
 20
-1334.9365185239496
 30
0.0
 41
1.0
 10
928.53171223965671
 20
-1334.9959477736079
 30
0.0
 41
1.0
 10
928.5284994408679
 20
-1335.0553770232661
 30
0.0
 41
1.0
 10
928.52042553171475
 20
-1335.2047254245504
 30
0.0
 41
0.9999819129902055
 10
928.51055574009933
 20
-1335.3539659022463
 30
0.0
 41
1.0
 10
928.50068594848267
 20
-1335.5032063799576
 30
0.0
 41
1.0
 10
928.49824662791877
 20
-1335.5403994258072
 30
0.0
 41
1.0
 10
928.52094486175019
 20
-1335.5016584284772
 30
0.0
 41
0.9999982128271523
 10
928.54378942051392
 20
-1335.4630035345049
 30
0.0
 41
1.0
 10
928.57069898039435
 20
-1335.4174703204569
 30
0.0
 41
1.0
 10
928.5976085402749
 20
-1335.371937106409
 30
0.0
 41
1.0
 10
928.67427221879996
 20
-1335.2422157843405
 30
0.0
 41
0.9998609190056133
 10
928.75521953166208
 20
-1335.1151234024105
 30
0.0
 41
1.0
 10
928.78486785314453
 20
-1335.0685736694522
 30
0.0
 41
1.0
 10
928.81451617462687
 20
-1335.0220239364942
 30
0.0
 41
1.0
 10
928.89678839486214
 20
-1334.8928513665019
 30
0.0
 41
0.9999067609735166
 10
928.98255740432705
 20
-1334.7659736770593
 30
0.0
 41
1.0
 10
928.98496210752523
 20
-1334.7624164110084
 30
0.0
 41
1.0
 10
928.98736681072342
 20
-1334.7588591449576
 30
0.0
 41
1.0
 10
929.06832641378776
 20
-1334.6390959876226
 30
0.0
 41
0.9998784952149028
 10
929.15298002347254
 20
-1334.5219147709092
 30
0.0
 41
1.0
 10
929.23763363315322
 20
-1334.4047335542016
 30
0.0
 41
0.9998532968284198
 10
929.32625125397499
 20
-1334.2905206457324
 30
0.0
 41
1.0
 10
929.34621304296729
 20
-1334.2647933247108
 30
0.0
 41
1.0
 10
929.3661748319596
 20
-1334.239066003689
 30
0.0
 41
1.0
 10
929.48465888171813
 20
-1334.086360392721
 30
0.0
 41
0.9991551975795587
 10
929.61528333134106
 20
-1333.9439008306379
 30
0.0
 41
1.0
 10
929.61879294732159
 20
-1333.9400732290128
 30
0.0
 41
1.0
 10
929.62230256330213
 20
-1333.9362456273875
 30
0.0
 41
1.0
 10
929.74590778096524
 20
-1333.8014412685538
 30
0.0
 41
0.9997418144180862
 10
929.87550992066531
 20
-1333.6723918579419
 30
0.0
 41
1.0
 10
930.00511206036799
 20
-1333.5433424473276
 30
0.0
 41
0.9989238204633507
 10
930.14611460861977
 20
-1333.4268574852881
 30
0.0
 41
1.0
 10
930.19136228675779
 20
-1333.3894774936807
 30
0.0
 41
1.0
 10
930.23660996489571
 20
-1333.3520975020731
 30
0.0
 41
1.0
 10
930.37685002211776
 20
-1333.2362424487815
 30
0.0
 41
0.9990825084096678
 10
930.52648995472134
 20
-1333.132813450949
 30
0.0
 41
1.0
 10
930.5365353187749
 20
-1333.1258702378718
 30
0.0
 41
1.0
 10
930.54658068282845
 20
-1333.1189270247946
 30
0.0
 41
1.0
 10
930.67612988732049
 20
-1333.0293844531191
 30
0.0
 41
0.9998164899826016
 10
930.80901409070157
 20
-1332.9448702115997
 30
0.0
 41
1.0
 10
930.82085965122815
 20
-1332.9373364450735
 30
0.0
 41
1.0
 10
930.83270521175484
 20
-1332.9298026785475
 30
0.0
 41
1.0
 10
930.94189829407753
 20
-1332.8603559700832
 30
0.0
 41
0.9997473449131245
 10
931.05410225132732
 20
-1332.7958870122675
 30
0.0
 41
1.0
 10
931.16630620858109
 20
-1332.7314180544495
 30
0.0
 41
0.9999327861145888
 10
931.27997481935017
 20
-1332.6695680627649
 30
0.0
 41
1.0
 10
931.28052682190582
 20
-1332.6692677040885
 30
0.0
 41
1.0
 10
931.28107882446159
 20
-1332.6689673454121
 30
0.0
 41
1.0
 10
931.39585144034379
 20
-1332.6065166363737
 30
0.0
 41
0.9996956420483507
 10
931.51356476618298
 20
-1332.5498031693994
 30
0.0
 41
1.0
 10
931.54400517108161
 20
-1332.5351371926665
 30
0.0
 41
1.0
 10
931.57444557598035
 20
-1332.5204712159336
 30
0.0
 41
1.0
 10
931.67742268272139
 20
-1332.4708575574921
 30
0.0
 41
0.9998070570176845
 10
931.78226907165686
 20
-1332.4253269705932
 30
0.0
 41
1.0
 10
931.88711546059562
 20
-1332.379796383693
 30
0.0
 41
0.999782743614787
 10
931.99376839720321
 20
-1332.338675212382
 30
0.0
 41
1.0
 10
932.0129912468368
 20
-1332.3312636387486
 30
0.0
 41
1.0
 10
932.0322140964704
 20
-1332.3238520651155
 30
0.0
 41
1.0
 10
932.17731273234426
 20
-1332.2679077465384
 30
0.0
 41
0.9988031841976749
 10
932.32718309494965
 20
-1332.2264076823708
 30
0.0
 41
1.0
 10
932.35210034331169
 20
-1332.2195079365642
 30
0.0
 41
1.0
 10
932.37701759167373
 20
-1332.2126081907577
 30
0.0
 41
1.0
 10
932.54428761732163
 20
-1332.1662900483507
 30
0.0
 41
0.9984748040549999
 10
932.71564452597045
 20
-1332.1386958160858
 30
0.0
 41
1.0
 10
932.72038366221977
 20
-1332.1379326555723
 30
0.0
 41
1.0
 10
932.72512279846899
 20
-1332.1371694950587
 30
0.0
 41
1.0
 10
932.88700143462017
 20
-1332.111101583821
 30
0.0
 41
0.9984436495480359
 10
933.05077617834422
 20
-1332.1032236300023
 30
0.0
 41
1.0
 10
933.07247338647471
 20
-1332.1021799428026
 30
0.0
 41
1.0
 10
933.09417059460509
 20
-1332.101136255603
 30
0.0
 41
1.0
 10
933.21455092206793
 20
-1332.0953456761836
 30
0.0
 41
0.9987954789335196
 10
933.33491916697869
 20
-1332.1013822039258
 30
0.0
 41
1.0
 10
933.35488395947618
 20
-1332.1023834482646
 30
0.0
 41
1.0
 10
933.37484875197379
 20
-1332.1033846926034
 30
0.0
 41
1.0
 10
933.45528741189162
 20
-1332.1074187316683
 30
0.0
 41
0.9997941595876747
 10
933.53549618998295
 20
-1332.1147127975892
 30
0.0
 41
1.0
 10
933.61570496807383
 20
-1332.1220068635098
 30
0.0
 41
0.9998589466236557
 10
933.69562351492505
 20
-1332.1319907179595
 30
0.0
 41
1.0
 10
933.72802971673696
 20
-1332.1360390748791
 30
0.0
 41
1.0
 10
933.76043591854886
 20
-1332.1400874317987
 30
0.0
 41
1.0
 10
933.90516686902004
 20
-1332.1581680000872
 30
0.0
 41
0.9993495063249377
 10
934.04821811278543
 20
-1332.1866337098288
 30
0.0
 41
1.0
 10
934.08115180993923
 20
-1332.193187173044
 30
0.0
 41
1.0
 10
934.11408550709314
 20
-1332.1997406362591
 30
0.0
 41
1.0
 10
934.22337933029576
 20
-1332.2214889703939
 30
0.0
 41
0.9996788715560993
 10
934.33143090225099
 20
-1332.2487467697567
 30
0.0
 41
1.0
 10
934.3334939047902
 20
-1332.2492671963296
 30
0.0
 41
1.0
 10
934.33555690732942
 20
-1332.2497876229027
 30
0.0
 41
1.0
 10
934.43948247420735
 20
-1332.2760045691198
 30
0.0
 41
0.9995480654492488
 10
934.54164470943681
 20
-1332.3084195257443
 30
0.0
 41
1.0
 10
934.54333435156582
 20
-1332.3089556306581
 30
0.0
 41
1.0
 10
934.54502399369494
 20
-1332.3094917355722
 30
0.0
 41
1.0
 10
934.64380694466627
 20
-1332.3408344823688
 30
0.0
 41
0.9993867959456085
 10
934.74015410310881
 20
-1332.3790138516586
 30
0.0
 41
1.0
 10
934.74139705219466
 20
-1332.3795063935552
 30
0.0
 41
1.0
 10
934.74264000128051
 20
-1332.3799989354518
 30
0.0
 41
1.0
 10
934.83650126155248
 20
-1332.4171932209488
 30
0.0
 41
0.9992050256522026
 10
934.92710093658468
 20
-1332.4617471201871
 30
0.0
 41
1.0
 10
934.92783561929639
 20
-1332.4621084126475
 30
0.0
 41
1.0
 10
934.9285703020081
 20
-1332.4624697051081
 30
0.0
 41
1.0
 10
935.01770061161756
 20
-1332.5063010194256
 30
0.0
 41
0.9990222350741655
 10
935.10261067301167
 20
-1332.557834287124
 30
0.0
 41
1.0
 10
935.10279455829368
 20
-1332.5579458900283
 30
0.0
 41
1.0
 10
935.10297844357558
 20
-1332.5580574929327
 30
0.0
 41
1.0
 10
935.1875207344043
 20
-1332.6093675548216
 30
0.0
 41
0.998864274380512
 10
935.26679526902444
 20
-1332.6684917423474
 30
0.0
 41
1.0
 10
935.34606980364276
 20
-1332.7276159298719
 30
0.0
 41
0.9987681233310053
 10
935.41909358791952
 20
-1332.7943066212736
 30
0.0
 41
1.0
 10
935.41942251588534
 20
-1332.7946070224878
 30
0.0
 41
1.0
 10
935.41975144385106
 20
-1332.7949074237019
 30
0.0
 41
1.0
 10
935.49343308405787
 20
-1332.8621989175301
 30
0.0
 41
0.9987496570898483
 10
935.56002688938531
 20
-1332.936511731617
 30
0.0
 41
1.0
 10
935.56079905914612
 20
-1332.9373734049755
 30
0.0
 41
1.0
 10
935.56157122890704
 20
-1332.9382350783337
 30
0.0
 41
1.0
 10
935.62970937375542
 20
-1333.0142712391364
 30
0.0
 41
0.998814766982691
 10
935.69013162797967
 20
-1333.096572245978
 30
0.0
 41
1.0
 10
935.69125095405752
 20
-1333.0980968773308
 30
0.0
 41
1.0
 10
935.69237028013549
 20
-1333.0996215086836
 30
0.0
 41
1.0
 10
935.75503118651613
 20
-1333.1849717782316
 30
0.0
 41
0.9989452636216152
 10
935.80959809947785
 20
-1333.2757104673899
 30
0.0
 41
1.0
 10
935.81094682556318
 20
-1333.2779532484155
 30
0.0
 41
1.0
 10
935.81229555164862
 20
-1333.2801960294412
 30
0.0
 41
1.0
 10
935.8695599167811
 20
-1333.375420280651
 30
0.0
 41
0.9991046436070904
 10
935.91856913010258
 20
-1333.4751447136759
 30
0.0
 41
1.0
 10
935.92003299169278
 20
-1333.4781233937488
 30
0.0
 41
1.0
 10
935.92149685328297
 20
-1333.4811020738218
 30
0.0
 41
1.0
 10
935.97343378978485
 20
-1333.5867838669928
 30
0.0
 41
0.9992763831101171
 10
936.01718691833912
 20
-1333.696107928947
 30
0.0
 41
1.0
 10
936.01866618800273
 20
-1333.6998041164811
 30
0.0
 41
1.0
 10
936.02014545766633
 20
-1333.7035003040155
 30
0.0
 41
1.0
 10
936.06685712554827
 20
-1333.8202167410393
 30
0.0
 41
0.9994163472883857
 10
936.10549015673814
 20
-1333.9398503295035
 30
0.0
 41
1.0
 10
936.10672830898488
 20
-1333.9436844732861
 30
0.0
 41
1.0
 10
936.10796646123163
 20
-1333.9475186170687
 30
0.0
 41
1.0
 10
936.14785002224812
 20
-1334.0710246785445
 30
0.0
 41
0.9997268055890938
 10
936.18191807816072
 20
-1334.1962597104973
 30
0.0
 41
1.0
 10
936.18284825842989
 20
-1334.1996790766045
 30
0.0
 41
1.0
 10
936.18377843869905
 20
-1334.2030984427117
 30
0.0
 41
1.0
 10
936.21598613407264
 20
-1334.3214947424481
 30
0.0
 41
0.9996701319001253
 10
936.24207175084325
 20
-1334.4413886957113
 30
0.0
 41
1.0
 10
936.2681573676133
 20
-1334.5612826489726
 30
0.0
 41
0.9995785451109094
 10
936.28724094495283
 20
-1334.6824884100026
 30
0.0
 41
1.0
 10
936.29146072712683
 20
-1334.7092895647691
 30
0.0
 41
1.0
 10
936.29568050930084
 20
-1334.7360907195355
 30
0.0
 41
1.0
 10
936.32225548523957
 20
-1334.9048766932392
 30
0.0
 41
0.9979925101216283
 10
936.32728107116577
 20
-1335.075668021331
 30
0.0
 41
1.0
 10
936.32810588359041
 20
-1335.1036987448124
 30
0.0
 41
1.0
 10
936.32893069601505
 20
-1335.1317294682935
 30
0.0
 41
1.0
 10
936.3323066570922
 20
-1335.2464593494221
 30
0.0
 41
0.999531490226298
 10
936.32865646495361
 20
-1335.3611808331748
 30
0.0
 41
1.0
 10
936.32500627281502
 20
-1335.4759023169283
 30
0.0
 41
0.9996245486944491
 10
936.3150771776842
 20
-1335.5902515880507
 30
0.0
 41
1.0
 10
936.3149141296899
 20
-1335.5921293441861
 30
0.0
 41
1.0
 10
936.3147510816957
 20
-1335.5940071003213
 30
0.0
 41
1.0
 10
936.30449589057616
 20
-1335.7121118837179
 30
0.0
 41
0.9997286095000804
 10
936.28875056700463
 20
-1335.829610792613
 30
0.0
 41
1.0
 10
936.28835707435451
 20
-1335.8325472173137
 30
0.0
 41
1.0
 10
936.28796358170428
 20
-1335.8354836420142
 30
0.0
 41
1.0
 10
936.27143127283239
 20
-1335.958855400311
 30
0.0
 41
0.9998265533968828
 10
936.25031581409917
 20
-1336.0815258751036
 30
0.0
 41
1.0
 10
936.24963927196222
 20
-1336.0854562536097
 30
0.0
 41
1.0
 10
936.24896272982528
 20
-1336.089386632116
 30
0.0
 41
1.0
 10
936.2264941868176
 20
-1336.2199178639219
 30
0.0
 41
0.9999022530853929
 10
936.20038472220767
 20
-1336.3497698325612
 30
0.0
 41
1.0
 10
936.19940608104264
 20
-1336.3546369749467
 30
0.0
 41
1.0
 10
936.19842743987761
 20
-1336.3595041173323
 30
0.0
 41
1.0
 10
936.17036069293681
 20
-1336.4990903707455
 30
0.0
 41
0.9999524761935759
 10
936.13957772410231
 20
-1336.6381028639094
 30
0.0
 41
1.0
 10
936.13830161692681
 20
-1336.6438656232122
 30
0.0
 41
1.0
 10
936.1370255097512
 20
-1336.6496283825149
 30
0.0
 41
1.0
 10
936.1036903265657
 20
-1336.8001663942841
 30
0.0
 41
0.9999813588726773
 10
936.06851932576524
 20
-1336.9502861069591
 30
0.0
 41
1.0
 10
936.06696540031089
 20
-1336.956918697372
 30
0.0
 41
1.0
 10
936.06541147485666
 20
-1336.9635512877849
 30
0.0
 41
1.0
 10
936.02713262314865
 20
-1337.1269361812811
 30
0.0
 41
0.9999955237661041
 10
935.98787674515984
 20
-1337.2900890849226
 30
0.0
 41
1.0
 10
935.97559510952919
 20
-1337.3411332754304
 30
0.0
 41
1.0
 10
935.96331347389844
 20
-1337.3921774659382
 30
0.0
 41
1.0
 10
935.89949432466915
 20
-1337.6574187505084
 30
0.0
 41
0.9999993604337556
 10
935.83507537752519
 20
-1337.9225150010934
 30
0.0
 41
1.0
 10
935.83035654195623
 20
-1337.9419339092244
 30
0.0
 41
1.0
 10
935.82563770638717
 20
-1337.9613528173554
 30
0.0
 41
1.0
 10
935.75178108812315
 20
-1338.2652868841278
 30
0.0
 41
0.9999659914735554
 10
935.67292149223806
 20
-1338.5679614306862
 30
0.0
 41
1.0
 10
935.66796880330912
 20
-1338.5869705678624
 30
0.0
 41
1.0
 10
935.66301611438007
 20
-1338.6059797050384
 30
0.0
 41
1.0
 10
935.57425114063699
 20
-1338.9466725259504
 30
0.0
 41
0.9999441976029999
 10
935.47830810767175
 20
-1339.2854139512549
 30
0.0
 41
1.0
 10
935.46160758924589
 20
-1339.3443776637835
 30
0.0
 41
1.0
 10
935.44490707082014
 20
-1339.403341376312
 30
0.0
 41
1.0
 10
935.31556300100306
 20
-1339.8600102266746
 30
0.0
 41
0.999962512073249
 10
935.17833023368087
 20
-1340.3143707606666
 30
0.0
 41
1.0
 10
935.14254029059634
 20
-1340.4328667872992
 30
0.0
 41
1.0
 10
935.10675034751171
 20
-1340.5513628139317
 30
0.0
 41
1.0
 10
935.03223014347304
 20
-1340.798089892025
 30
0.0
 41
0.9999793386308061
 10
934.95454412033769
 20
-1341.0438385312548
 30
0.0
 41
1.0
 10
934.87685809720006
 20
-1341.2895871704909
 30
0.0
 41
1.0
 10
934.86607853832936
 20
-1341.3236050748656
 30
0.0
 41
1.0
 10
933.01570548506015
 20
-1347.2106769973329
 30
0.0
 41
1.0
 10
931.16533243179106
 20
-1353.0977489198003
 30
0.0
 41
1.0
 10
930.2040757417675
 20
-1353.0977489198003
 30
0.0
 41
1.0
 10
929.24281905174394
 20
-1353.0977489198003
 30
0.0
 41
1.0
 10
930.86176383042243
 20
-1347.9497204180109
 30
0.0
 41
1.0
 10
932.48070860910082
 20
-1342.8016919162214
 30
0.0
 41
1.0
 10
932.52587443227662
 20
-1342.6576606939468
 30
0.0
 41
1.0
 10
932.57104025545232
 20
-1342.5136294716722
 30
0.0
 41
1.0
 10
932.74134467281431
 20
-1341.9705384425124
 30
0.0
 41
0.9999911657884119
 10
932.90707748449245
 20
-1341.4260349111557
 30
0.0
 41
1.0
 10
932.93677342799356
 20
-1341.3284709711029
 30
0.0
 41
1.0
 10
932.96646937149478
 20
-1341.2309070310498
 30
0.0
 41
1.0
 10
933.07281029616718
 20
-1340.88153137981
 30
0.0
 41
0.9999952428161926
 10
933.1769938854975
 20
-1340.5315063554424
 30
0.0
 41
1.0
 10
933.18205335582945
 20
-1340.514508081169
 30
0.0
 41
1.0
 10
933.18711282616141
 20
-1340.4975098068956
 30
0.0
 41
1.0
 10
933.28117747481951
 20
-1340.181481331103
 30
0.0
 41
0.999993168753519
 10
933.37290331269617
 20
-1339.8647661178222
 30
0.0
 41
1.0
 10
933.37783857714908
 20
-1339.8477254085742
 30
0.0
 41
1.0
 10
933.38277384160187
 20
-1339.8306846993262
 30
0.0
 41
1.0
 10
933.4646291505635
 20
-1339.5480509045738
 30
0.0
 41
0.9999893840813725
 10
933.54387637702666
 20
-1339.2646747753051
 30
0.0
 41
1.0
 10
933.62312360348847
 20
-1338.9812986460411
 30
0.0
 41
0.9999833980058787
 10
933.69909984423271
 20
-1338.6970280630019
 30
0.0
 41
1.0
 10
933.70810378095325
 20
-1338.6633391845303
 30
0.0
 41
1.0
 10
933.71710771767368
 20
-1338.6296503060587
 30
0.0
 41
1.0
 10
933.78607226653946
 20
-1338.3716144737646
 30
0.0
 41
0.9999233658069157
 10
933.848627237757
 20
-1338.1119503150521
 30
0.0
 41
1.0
 10
933.91118220897727
 20
-1337.8522861563297
 30
0.0
 41
1.0
 10
933.95066562783484
 20
-1337.6884794919035
 30
0.0
 41
1.0
 10
933.95564423181349
 20
-1337.6678245300272
 30
0.0
 41
1.0
 10
933.96062283579215
 20
-1337.647169568151
 30
0.0
 41
1.0
 10
933.99014904669207
 20
-1337.524672827479
 30
0.0
 41
0.9999868670838757
 10
934.01841813068859
 20
-1337.401879881832
 30
0.0
 41
1.0
 10
934.02231561784765
 20
-1337.384950294409
 30
0.0
 41
1.0
 10
934.02621310500672
 20
-1337.368020706986
 30
0.0
 41
1.0
 10
934.04668721468556
 20
-1337.2790869361834
 30
0.0
 41
0.9999778173354784
 10
934.06597481280028
 20
-1337.189888318956
 30
0.0
 41
1.0
 10
934.08526241091715
 20
-1337.1006897017187
 30
0.0
 41
0.9999602692863246
 10
934.10295676954763
 20
-1337.0111614132929
 30
0.0
 41
1.0
 10
934.10616060162465
 20
-1336.9949509584103
 30
0.0
 41
1.0
 10
934.10936443370167
 20
-1336.9787405035279
 30
0.0
 41
1.0
 10
934.13346645648778
 20
-1336.8567913053303
 30
0.0
 41
0.9995617985320459
 10
934.15030980370693
 20
-1336.733629557621
 30
0.0
 41
1.0
 10
934.15277429361299
 20
-1336.7156087402564
 30
0.0
 41
1.0
 10
934.15523878351917
 20
-1336.6975879228914
 30
0.0
 41
1.0
 10
934.17552204456729
 20
-1336.5492728731915
 30
0.0
 41
0.9991121410639959
 10
934.18324739815546
 20
-1336.3997767743856
 30
0.0
 41
1.0
 10
934.18416618817992
 20
-1336.3819969378101
 30
0.0
 41
1.0
 10
934.18508497820449
 20
-1336.3642171012348
 30
0.0
 41
1.0
 10
934.19097275174352
 20
-1336.2502806755815
 30
0.0
 41
0.9989792494906347
 10
934.18655365962638
 20
-1336.136277839681
 30
0.0
 41
1.0
 10
934.18590568775767
 20
-1336.119561593754
 30
0.0
 41
1.0
 10
934.18525771588907
 20
-1336.102845347827
 30
0.0
 41
1.0
 10
934.18213456750925
 20
-1336.0222750037856
 30
0.0
 41
0.9997820295394921
 10
934.17565057013337
 20
-1335.9419052820388
 30
0.0
 41
1.0
 10
934.16916657275783
 20
-1335.861535560296
 30
0.0
 41
0.9998335105972139
 10
934.15975437724626
 20
-1335.781455943847
 30
0.0
 41
1.0
 10
934.15815945256986
 20
-1335.7678862133628
 30
0.0
 41
1.0
 10
934.15656452789335
 20
-1335.7543164828785
 30
0.0
 41
1.0
 10
934.14396248302887
 20
-1335.6470974054621
 30
0.0
 41
0.9996876457879245
 10
934.1260185702298
 20
-1335.5406419777416
 30
0.0
 41
1.0
 10
934.12378690708488
 20
-1335.5274022425024
 30
0.0
 41
1.0
 10
934.12155524393995
 20
-1335.5141625072629
 30
0.0
 41
1.0
 10
934.10775942251905
 20
-1335.4323163633042
 30
0.0
 41
0.9995547496494326
 10
934.08910610062628
 20
-1335.3514388661131
 30
0.0
 41
1.0
 10
934.08873214375478
 20
-1335.349817455407
 30
0.0
 41
1.0
 10
934.08835818688328
 20
-1335.3481960447007
 30
0.0
 41
1.0
 10
934.07045277873328
 20
-1335.2705613689195
 30
0.0
 41
0.9994899427174822
 10
934.04762787005438
 20
-1335.1942280860876
 30
0.0
 41
1.0
 10
934.04716934331395
 20
-1335.1926946363001
 30
0.0
 41
1.0
 10
934.04671081657364
 20
-1335.1911611865128
 30
0.0
 41
1.0
 10
934.02480296137549
 20
-1335.1178948032548
 30
0.0
 41
0.9993784877591538
 10
933.99778732626839
 20
-1335.0463540980943
 30
0.0
 41
1.0
 10
933.99725563529182
 20
-1335.0449461153746
 30
0.0
 41
1.0
 10
933.99672394431525
 20
-1335.0435381326549
 30
0.0
 41
1.0
 10
933.97077169116244
 20
-1334.9748133929368
 30
0.0
 41
0.9992430832254713
 10
933.93955515600237
 20
-1334.908314240867
 30
0.0
 41
1.0
 10
933.93897303994549
 20
-1334.907074185749
 30
0.0
 41
1.0
 10
933.93839092388873
 20
-1334.9058341306313
 30
0.0
 41
1.0
 10
933.90833862084298
 20
-1334.8418150887981
 30
0.0
 41
0.9990789632797691
 10
933.8729079940664
 20
-1334.7806084770491
 30
0.0
 41
1.0
 10
933.87231228788482
 20
-1334.7795793911905
 30
0.0
 41
1.0
 10
933.87171658170314
 20
-1334.7785503053319
 30
0.0
 41
1.0
 10
933.83747736728981
 20
-1334.7194018652997
 30
0.0
 41
0.9988874801120988
 10
933.79781809125757
 20
-1334.6637421528815
 30
0.0
 41
1.0
 10
933.79726256519302
 20
-1334.6629625012063
 30
0.0
 41
1.0
 10
933.79670703912848
 20
-1334.6621828495311
 30
0.0
 41
1.0
 10
933.75815881522522
 20
-1334.6080824404628
 30
0.0
 41
0.9986762060691619
 10
933.7142563439495
 20
-1334.5582287260245
 30
0.0
 41
1.0
 10
933.71381238361732
 20
-1334.5577245842078
 30
0.0
 41
1.0
 10
933.71336842328515
 20
-1334.5572204423913
 30
0.0
 41
1.0
 10
933.67035387267333
 20
-1334.5083750115855
 30
0.0
 41
0.9984621642488687
 10
933.62219631589551
 20
-1334.4645917111143
 30
0.0
 41
1.0
 10
933.62194968137896
 20
-1334.4643674789509
 30
0.0
 41
1.0
 10
933.62170304686254
 20
-1334.4641432467874
 30
0.0
 41
1.0
 10
933.57403875911723
 20
-1334.4208084106428
 30
0.0
 41
0.9982724693851734
 10
933.52162012727626
 20
-1334.3833640601254
 30
0.0
 41
1.0
 10
933.46920149543473
 20
-1334.3459197096076
 30
0.0
 41
0.9981399180158856
 10
933.41261543204132
 20
-1334.315133190164
 30
0.0
 41
1.0
 10
933.41256976996294
 20
-1334.315108347007
 30
0.0
 41
1.0
 10
933.41252410788456
 20
-1334.3150835038498
 30
0.0
 41
1.0
 10
933.35584672033383
 20
-1334.2842472980919
 30
0.0
 41
0.9980927086837501
 10
933.29580136926791
 20
-1334.2606304892395
 30
0.0
 41
1.0
 10
933.29536119955628
 20
-1334.2604573633644
 30
0.0
 41
1.0
 10
933.29492102984455
 20
-1334.2602842374895
 30
0.0
 41
1.0
 10
933.2339953393539
 20
-1334.2363211768866
 30
0.0
 41
0.9981411356561097
 10
933.17060681795431
 20
-1334.2199485353813
 30
0.0
 41
1.0
 10
933.16972470125347
 20
-1334.219720693176
 30
0.0
 41
1.0
 10
933.16884258455252
 20
-1334.2194928509705
 30
0.0
 41
1.0
 10
933.10368982975126
 20
-1334.2026645250542
 30
0.0
 41
0.9983031812935711
 10
933.03702240075711
 20
-1334.1935251638779
 30
0.0
 41
1.0
 10
933.02815137535151
 20
-1334.1923090452065
 30
0.0
 41
1.0
 10
933.01928034994592
 20
-1334.191092926535
 30
0.0
 41
1.0
 10
932.96493070744259
 20
-1334.1836421965438
 30
0.0
 41
0.9983887708261379
 10
932.91008685815063
 20
-1334.1823975229108
 30
0.0
 41
1.0
 10
932.90202345293687
 20
-1334.1822145250362
 30
0.0
 41
1.0
 10
932.89396004772311
 20
-1334.1820315271614
 30
0.0
 41
1.0
 10
932.85524300886152
 20
-1334.1811528492776
 30
0.0
 41
0.9998869563078469
 10
932.81651705565514
 20
-1334.1814387186373
 30
0.0
 41
1.0
 10
932.77779110241477
 20
-1334.1817245879972
 30
0.0
 41
0.9999972320136442
 10
932.73906692316655
 20
-1334.1821926875268
 30
0.0
 41
1.0
 10
932.71971390662407
 20
-1334.1824266276158
 30
0.0
 41
1.0
 10
932.7003608900817
 20
-1334.1826605677047
 30
0.0
 41
1.0
 10
932.6229306777127
 20
-1334.1835965474124
 30
0.0
 41
0.9997304945087235
 10
932.54562737147705
 20
-1334.1881256411984
 30
0.0
 41
1.0
 10
932.5365777297709
 20
-1334.1886558471883
 30
0.0
 41
1.0
 10
932.52752808806486
 20
-1334.1891860531784
 30
0.0
 41
1.0
 10
932.43212549841621
 20
-1334.1947755589447
 30
0.0
 41
0.9997888306415232
 10
932.33703316257129
 20
-1334.2042805234339
 30
0.0
 41
1.0
 10
932.32831210100096
 20
-1334.2051522380657
 30
0.0
 41
1.0
 10
932.31959103943063
 20
-1334.2060239526977
 30
0.0
 41
1.0
 10
932.20705658044301
 20
-1334.217272346451
 30
0.0
 41
0.9984170238190595
 10
932.09649743309194
 20
-1334.2410884283865
 30
0.0
 41
1.0
 10
932.06011630210696
 20
-1334.2489254641923
 30
0.0
 41
1.0
 10
932.02373517112198
 20
-1334.2567624999981
 30
0.0
 41
1.0
 10
931.90854410269856
 20
-1334.281576366508
 30
0.0
 41
0.9976592854199303
 10
931.79781593629184
 20
-1334.3218750436558
 30
0.0
 41
1.0
 10
931.68708776988512
 20
-1334.3621737208036
 30
0.0
 41
0.999325507435202
 10
931.57961597109318
 20
-1334.4104906192968
 30
0.0
 41
1.0
 10
931.57499079217132
 20
-1334.4125699954957
 30
0.0
 41
1.0
 10
931.57036561324946
 20
-1334.4146493716948
 30
0.0
 41
1.0
 10
931.45364345661108
 20
-1334.4671250225872
 30
0.0
 41
0.9976475078274503
 10
931.3451961123003
 20
-1334.5350730122459
 30
0.0
 41
1.0
 10
931.32685371816615
 20
-1334.5465654910599
 30
0.0
 41
1.0
 10
931.30851132403211
 20
-1334.5580579698742
 30
0.0
 41
1.0
 10
931.22430913247968
 20
-1334.610815090643
 30
0.0
 41
0.9995131336406661
 10
931.14356141752251
 20
-1334.6687213025959
 30
0.0
 41
1.0
 10
931.06281370256363
 20
-1334.7266275145503
 30
0.0
 41
0.9995810107606327
 10
930.98555205483308
 20
-1334.7891091970175
 30
0.0
 41
1.0
 10
930.98258202362467
 20
-1334.7915110684808
 30
0.0
 41
1.0
 10
930.97961199241615
 20
-1334.793912939944
 30
0.0
 41
1.0
 10
930.89641028227163
 20
-1334.8611983653354
 30
0.0
 41
0.9996617837954888
 10
930.81681959513799
 20
-1334.9327188208933
 30
0.0
 41
1.0
 10
930.80468884426136
 20
-1334.9436195538838
 30
0.0
 41
1.0
 10
930.79255809338474
 20
-1334.954520286874
 30
0.0
 41
1.0
 10
930.72428256598357
 20
-1335.0158729023506
 30
0.0
 41
0.9997267750052309
 10
930.65894905769665
 20
-1335.0803494388788
 30
0.0
 41
1.0
 10
930.59361554940472
 20
-1335.1448259754122
 30
0.0
 41
0.9999667288962896
 10
930.52934260625659
 20
-1335.2103597823086
 30
0.0
 41
1.0
 10
930.46051515848626
 20
-1335.2805374410618
 30
0.0
 41
1.0
 10
930.39168771071604
 20
-1335.350715099815
 30
0.0
 41
1.0
 10
930.18975987201861
 20
-1335.5566042242265
 30
0.0
 41
0.9988205335175023
 10
930.00875425503818
 20
-1335.7811084562884
 30
0.0
 41
1.0
 10
929.97811429013427
 20
-1335.8191117067172
 30
0.0
 41
1.0
 10
929.94747432523036
 20
-1335.8571149571462
 30
0.0
 41
1.0
 10
929.70518877844188
 20
-1336.157625690066
 30
0.0
 41
0.9997077826755215
 10
929.47771082733527
 20
-1336.4694954842844
 30
0.0
 41
1.0
 10
929.47598741220531
 20
-1336.4718582676633
 30
0.0
 41
1.0
 10
929.47426399707535
 20
-1336.4742210510422
 30
0.0
 41
1.0
 10
929.24333921571053
 20
-1336.7908164120158
 30
0.0
 41
0.9989147567078948
 10
929.04287571282782
 20
-1337.1275258731989
 30
0.0
 41
1.0
 10
929.01813456751779
 20
-1337.1690824537568
 30
0.0
 41
1.0
 10
928.99339342220765
 20
-1337.2106390343145
 30
0.0
 41
1.0
 10
928.83818212357085
 20
-1337.471340418766
 30
0.0
 41
0.9997476598180852
 10
928.69483713606485
 20
-1337.7387501673425
 30
0.0
 41
1.0
 10
928.55149214855464
 20
-1338.006159915926
 30
0.0
 41
0.9996258967110284
 10
928.42298389662267
 20
-1338.2810078525508
 30
0.0
 41
1.0
 10
928.4097839871738
 20
-1338.3092392526446
 30
0.0
 41
1.0
 10
928.39658407772492
 20
-1338.3374706527386
 30
0.0
 41
1.0
 10
928.25637535672479
 20
-1338.6373430506922
 30
0.0
 41
0.9998735413944889
 10
928.12577401000374
 20
-1338.9415226501615
 30
0.0
 41
1.0
 10
928.12233118194513
 20
-1338.9495412356218
 30
0.0
 41
1.0
 10
928.11888835388652
 20
-1338.957559821082
 30
0.0
 41
1.0
 10
927.99517266328769
 20
-1339.2457022496192
 30
0.0
 41
0.9999377418860365
 10
927.8779178611087
 20
-1339.5365337173041
 30
0.0
 41
1.0
 10
927.76066305893755
 20
-1339.8273651849699
 30
0.0
 41
0.9999508299505684
 10
927.64919911556512
 20
-1340.1204648617777
 30
0.0
 41
1.0
 10
927.64611834689811
 20
-1340.1285658877534
 30
0.0
 41
1.0
 10
927.64303757823109
 20
-1340.1366669137292
 30
0.0
 41
1.0
 10
927.52541209752974
 20
-1340.4459686424764
 30
0.0
 41
0.9999609228432518
 10
927.41327349465519
 20
-1340.7573016584929
 30
0.0
 41
1.0
 10
927.41031748430532
 20
-1340.7655084989028
 30
0.0
 41
1.0
 10
927.40736147395558
 20
-1340.7737153393127
 30
0.0
 41
1.0
 10
927.28931085038198
 20
-1341.101462036148
 30
0.0
 41
0.9999674607399918
 10
927.1765633243125
 20
-1341.4310706561471
 30
0.0
 41
1.0
 10
927.12516493375392
 20
-1341.5813298518274
 30
0.0
 41
1.0
 10
927.07376654319546
 20
-1341.7315890475077
 30
0.0
 41
1.0
 10
926.9577559364343
 20
-1342.0707370300199
 30
0.0
 41
0.9999287532307026
 10
926.84987453246049
 20
-1342.4125577690049
 30
0.0
 41
1.0
 10
926.80339727634669
 20
-1342.5598203132959
 30
0.0
 41
1.0
 10
926.75692002023277
 20
-1342.707082857587
 30
0.0
 41
1.0
 10
926.74199312850806
 20
-1342.7543785079226
 30
0.0
 41
0.9999998224848785
 10
926.72712261975937
 20
-1342.8016919162214
 30
0.0
 41
1.0
 10
925.10646648296392
 20
-1347.9497204180109
 30
0.0
 41
1.0
 10
923.48581034616848
 20
-1353.0977489198003
 30
0.0
 41
1.0
 10
922.58050190227755
 20
-1353.0977489198003
 30
0.0
 41
1.0
 10
921.67519345838662
 20
-1353.0977489198003
 30
0.0
 41
1.0
 10
923.52727786977266
 20
-1347.2106769973329
 30
0.0
 41
1.0
 10
925.37936228115871
 20
-1341.3236050748656
 30
0.0
 41
1.0
 10
925.38948403946142
 20
-1341.2915618614156
 30
0.0
 41
1.0
 10
925.46209170831116
 20
-1341.0612623195898
 30
0.0
 41
1.0
 10
925.53469937715772
 20
-1340.8309627777744
 30
0.0
 41
0.9999825681975747
 10
925.60458241636638
 20
-1340.5998218827187
 30
0.0
 41
1.0
 10
925.652873478527
 20
-1340.4400972992235
 30
0.0
 41
1.0
 10
925.70116454068773
 20
-1340.2803727157282
 30
0.0
 41
1.0
 10
925.7983168940068
 20
-1339.959037493946
 30
0.0
 41
0.999967252895588
 10
925.89025569963326
 20
-1339.6361719483491
 30
0.0
 41
1.0
 10
925.89304458330776
 20
-1339.6263781029425
 30
0.0
 41
1.0
 10
925.89583346698225
 20
-1339.616584257536
 30
0.0
 41
1.0
 10
925.98219450526221
 20
-1339.3133064027434
 30
0.0
 41
0.9999899749156421
 10
926.0658361147913
 20
-1339.0092673143104
 30
0.0
 41
1.0
 10
926.07594203380904
 20
-1338.9725320766311
 30
0.0
 41
1.0
 10
926.0860479528269
 20
-1338.9357968389518
 30
0.0
 41
1.0
 10
926.14947772432561
 20
-1338.7052282258594
 30
0.0
 41
0.9999214200503735
 10
926.20710715270366
 20
-1338.4731418836486
 30
0.0
 41
1.0
 10
926.21987300488468
 20
-1338.421730998251
 30
0.0
 41
1.0
 10
926.23263885706558
 20
-1338.3703201128533
 30
0.0
 41
1.0
 10
926.26473658108375
 20
-1338.2410555414299
 30
0.0
 41
0.9999828681667949
 10
926.29531883307686
 20
-1338.1114240669717
 30
0.0
 41
1.0
 10
926.32590108507031
 20
-1337.9817925925122
 30
0.0
 41
0.9999389844477407
 10
926.35361207386029
 20
-1337.8515171366098
 30
0.0
 41
1.0
 10
926.36074981758111
 20
-1337.8179610327697
 30
0.0
 41
1.0
 10
926.36788756130193
 20
-1337.7844049289295
 30
0.0
 41
1.0
 10
926.40987403753149
 20
-1337.5870172653547
 30
0.0
 41
0.9998933699439516
 10
926.44607830193365
 20
-1337.3884876575967
 30
0.0
 41
1.0
 10
926.44745112715009
 20
-1337.3809596368997
 30
0.0
 41
1.0
 10
926.44882395236652
 20
-1337.3734316162029
 30
0.0
 41
1.0
 10
926.48777386720224
 20
-1337.1598459670472
 30
0.0
 41
0.9996850305193242
 10
926.51595754346067
 20
-1336.9445749616109
 30
0.0
 41
1.0
 10
926.51795257682966
 20
-1336.9293366074912
 30
0.0
 41
1.0
 10
926.51994761019864
 20
-1336.9140982533718
 30
0.0
 41
1.0
 10
926.54735547265796
 20
-1336.7047530262162
 30
0.0
 41
0.9994697936706507
 10
926.56108003187751
 20
-1336.4940678308851
 30
0.0
 41
1.0
 10
926.56155710112728
 20
-1336.4867443586722
 30
0.0
 41
1.0
 10
926.56203417037705
 20
-1336.4794208864594
 30
0.0
 41
1.0
 10
926.57480459109718
 20
-1336.2833826355529
 30
0.0
 41
0.9991804893136537
 10
926.57167627482431
 20
-1336.086953785581
 30
0.0
 41
1.0
 10
926.57159239600219
 20
-1336.0816869841683
 30
0.0
 41
1.0
 10
926.57150851718006
 20
-1336.0764201827553
 30
0.0
 41
1.0
 10
926.56854795855156
 20
-1335.8905249356087
 30
0.0
 41
0.9988448329321542
 10
926.5477564129277
 20
-1335.7057723457742
 30
0.0
 41
1.0
 10
926.54616233922479
 20
-1335.6916074900039
 30
0.0
 41
1.0
 10
926.54456826552189
 20
-1335.6774426342336
 30
0.0
 41
1.0
 10
926.52696486730395
 20
-1335.5210197559409
 30
0.0
 41
0.9985503209458471
 10
926.49264859500431
 20
-1335.3673955718516
 30
0.0
 41
1.0
 10
926.48506260293311
 20
-1335.3334352444513
 30
0.0
 41
1.0
 10
926.47747661086191
 20
-1335.2994749170512
 30
0.0
 41
1.0
 10
926.45833232270479
 20
-1335.2137713877621
 30
0.0
 41
0.9991036781370519
 10
926.43200746105367
 20
-1335.1299943004374
 30
0.0
 41
1.0
 10
926.42802523559772
 20
-1335.1173211379269
 30
0.0
 41
1.0
 10
926.42404301014165
 20
-1335.1046479754161
 30
0.0
 41
1.0
 10
926.40568259940346
 20
-1335.0462172131156
 30
0.0
 41
0.9998874504368915
 10
926.38557739172393
 20
-1334.9883636108891
 30
0.0
 41
1.0
 10
926.36547218404519
 20
-1334.9305100086649
 30
0.0
 41
0.9994041637543708
 10
926.34142357111045
 20
-1334.8741813047741
 30
0.0
 41
1.0
 10
926.33722678688696
 20
-1334.8643512402932
 30
0.0
 41
1.0
 10
926.33303000266335
 20
-1334.8545211758124
 30
0.0
 41
1.0
 10
926.30515117166806
 20
-1334.7892210098435
 30
0.0
 41
0.9991846840701943
 10
926.27209481497562
 20
-1334.7263829785645
 30
0.0
 41
1.0
 10
926.27095820858062
 20
-1334.7242223621101
 30
0.0
 41
1.0
 10
926.26982160218574
 20
-1334.7220617456555
 30
0.0
 41
1.0
 10
926.23903845828329
 20
-1334.6635449472856
 30
0.0
 41
0.9989253167922755
 10
926.20296903422764
 20
-1334.6081300188941
 30
0.0
 41
1.0
 10
926.20191490955301
 20
-1334.6065105241312
 30
0.0
 41
1.0
 10
926.20086078487839
 20
-1334.6048910293682
 30
0.0
 41
1.0
 10
926.16689961017232
 20
-1334.5527150905034
 30
0.0
 41
0.9986467172835949
 10
926.12770245753518
 20
-1334.5043490568744
 30
0.0
 41
1.0
 10
926.12682832883456
 20
-1334.5032704545961
 30
0.0
 41
1.0
 10
926.12595420013383
 20
-1334.502191852318
 30
0.0
 41
1.0
 10
926.08850530489781
 20
-1334.4559830232449
 30
0.0
 41
0.998400110426787
 10
926.04607857438066
 20
-1334.414297915876
 30
0.0
 41
1.0
 10
926.04549143627173
 20
-1334.4137210409951
 30
0.0
 41
1.0
 10
926.04490429816281
 20
-1334.4131441661143
 30
0.0
 41
1.0
 10
926.00365184386453
 20
-1334.3726128085084
 30
0.0
 41
0.9982442159084353
 10
925.95789574252785
 20
-1334.3372442472471
 30
0.0
 41
1.0
 10
925.95768094706614
 20
-1334.3370782146039
 30
0.0
 41
1.0
 10
925.95746615160454
 20
-1334.3369121819608
 30
0.0
 41
1.0
 10
925.91213964119243
 20
-1334.3018756859869
 30
0.0
 41
0.9982450060837032
 10
925.86298866212053
 20
-1334.2724439029532
 30
0.0
 41
1.0
 10
925.81383768304909
 20
-1334.2430121199197
 30
0.0
 41
0.9983922639634434
 10
925.76167137688367
 20
-1334.2193324852653
 30
0.0
 41
1.0
 10
925.76144449955927
 20
-1334.219229499784
 30
0.0
 41
1.0
 10
925.76121762223499
 20
-1334.2191265143026
 30
0.0
 41
1.0
 10
925.70859756142249
 20
-1334.1952409086862
 30
0.0
 41
0.9986517147150414
 10
925.6537845885548
 20
-1334.1769397895646
 30
0.0
 41
1.0
 10
925.65310666712617
 20
-1334.1767134431329
 30
0.0
 41
1.0
 10
925.65242874569753
 20
-1334.1764870967011
 30
0.0
 41
1.0
 10
925.59625992997564
 20
-1334.1577332847169
 30
0.0
 41
0.9989435598956624
 10
925.53860654282562
 20
-1334.1442155824827
 30
0.0
 41
1.0
 10
925.53752642324241
 20
-1334.1439623322294
 30
0.0
 41
1.0
 10
925.5364463036592
 20
-1334.1437090819759
 30
0.0
 41
1.0
 10
925.47663267734208
 20
-1334.1296848792347
 30
0.0
 41
0.9992249241239305
 10
925.41590116844213
 20
-1334.1204095365194
 30
0.0
 41
1.0
 10
925.41448748015353
 20
-1334.120193628112
 30
0.0
 41
1.0
 10
925.41307379186492
 20
-1334.1199777197046
 30
0.0
 41
1.0
 10
925.34951490638559
 20
-1334.1102705601738
 30
0.0
 41
0.9994396597834563
 10
925.28544896984874
 20
-1334.104837637828
 30
0.0
 41
1.0
 10
925.26630830237082
 20
-1334.1032144701094
 30
0.0
 41
1.0
 10
925.24716763489289
 20
-1334.1015913023907
 30
0.0
 41
1.0
 10
925.14482036340053
 20
-1334.0929120446076
 30
0.0
 41
0.9987693403120996
 10
925.04211673981354
 20
-1334.0944151080603
 30
0.0
 41
1.0
 10
925.03186240558603
 20
-1334.0945651798345
 30
0.0
 41
1.0
 10
925.02160807135863
 20
-1334.0947152516087
 30
0.0
 41
1.0
 10
924.91205230517994
 20
-1334.0963185958963
 30
0.0
 41
0.9989753644966847
 10
924.80309030516344
 20
-1334.1078216028213
 30
0.0
 41
1.0
 10
924.6941283051483
 20
-1334.1193246097462
 30
0.0
 41
0.9983190067305833
 10
924.58722949418461
 20
-1334.1433596015327
 30
0.0
 41
1.0
 10
924.57832854257663
 20
-1334.1453608800957
 30
0.0
 41
1.0
 10
924.56942759096853
 20
-1334.1473621586586
 30
0.0
 41
1.0
 10
924.44472687678842
 20
-1334.1753997075712
 30
0.0
 41
0.9985539388302728
 10
924.3237571231092
 20
-1334.2166633836173
 30
0.0
 41
1.0
 10
924.32141169215038
 20
-1334.2174634274327
 30
0.0
 41
1.0
 10
924.31906626119144
 20
-1334.2182634712481
 30
0.0
 41
1.0
 10
924.19340564559184
 20
-1334.2611272349259
 30
0.0
 41
0.9988468746493439
 10
924.07243530329038
 20
-1334.315845319989
 30
0.0
 41
1.0
 10
924.06925248130278
 20
-1334.3172849945483
 30
0.0
 41
1.0
 10
924.0660696593153
 20
-1334.3187246691077
 30
0.0
 41
1.0
 10
923.93873367303752
 20
-1334.37632210329
 30
0.0
 41
0.9991322885919215
 10
923.81663308898101
 20
-1334.4443174354717
 30
0.0
 41
1.0
 10
923.79903107793768
 20
-1334.4541196374612
 30
0.0
 41
1.0
 10
923.78142906689436
 20
-1334.4639218394504
 30
0.0
 41
1.0
 10
923.67925238583655
 20
-1334.5208219552314
 30
0.0
 41
0.9993860037849097
 10
923.58131138176236
 20
-1334.5847379708205
 30
0.0
 41
1.0
 10
923.57569306890991
 20
-1334.5884044655154
 30
0.0
 41
1.0
 10
923.57007475605735
 20
-1334.5920709602105
 30
0.0
 41
1.0
 10
923.48337037768715
 20
-1334.6486539864102
 30
0.0
 41
0.9998821494953748
 10
923.39844400187621
 20
-1334.7078722164858
 30
0.0
 41
1.0
 10
923.313517626063
 20
-1334.7670904465631
 30
0.0
 41
0.9997976482745434
 10
923.23104199565842
 20
-1334.8296768546054
 30
0.0
 41
1.0
 10
923.21640573085415
 20
-1334.8407835443847
 30
0.0
 41
1.0
 10
923.20176946604988
 20
-1334.8518902341641
 30
0.0
 41
1.0
 10
923.0900213060338
 20
-1334.9366900217674
 30
0.0
 41
0.9998091630799121
 10
922.98167102800426
 20
-1335.0257903724705
 30
0.0
 41
1.0
 10
922.96866527552925
 20
-1335.0364854729146
 30
0.0
 41
1.0
 10
922.95565952305412
 20
-1335.0471805733589
 30
0.0
 41
1.0
 10
922.82129774007296
 20
-1335.1576711249513
 30
0.0
 41
0.999503511231711
 10
922.69416186231058
 20
-1335.2764049419652
 30
0.0
 41
1.0
 10
922.68451455192417
 20
-1335.2854146881223
 30
0.0
 41
1.0
 10
922.67486724153787
 20
-1335.2944244342793
 30
0.0
 41
1.0
 10
922.55144417877068
 20
-1335.4096908060369
 30
0.0
 41
0.9994630424299694
 10
922.43583577298455
 20
-1335.5327935492742
 30
0.0
 41
1.0
 10
922.43215293421349
 20
-1335.5367151287869
 30
0.0
 41
1.0
 10
922.42847009544255
 20
-1335.5406367082994
 30
0.0
 41
1.0
 10
922.32022736720046
 20
-1335.6558962925096
 30
0.0
 41
0.9995160693749726
 10
922.21936133766872
 20
-1335.7776637103818
 30
0.0
 41
1.0
 10
922.21742761758514
 20
-1335.7799981345934
 30
0.0
 41
1.0
 10
922.21549389750169
 20
-1335.7823325588049
 30
0.0
 41
1.0
 10
922.11849530813436
 20
-1335.8994311282572
 30
0.0
 41
0.9996561470513826
 10
922.02776908947089
 20
-1336.0214538907035
 30
0.0
 41
1.0
 10
922.02161142356931
 20
-1336.0297356797453
 30
0.0
 41
1.0
 10
922.01545375766773
 20
-1336.0380174687871
 30
0.0
 41
1.0
 10
921.93704287080504
 20
-1336.1434766531527
 30
0.0
 41
0.999834905517313
 10
921.86251558887284
 20
-1336.2517152368162
 30
0.0
 41
1.0
 10
921.78798830693768
 20
-1336.359953820484
 30
0.0
 41
0.9999728109560099
 10
921.71506541103383
 20
-1336.4692797460298
 30
0.0
 41
1.0
 10
921.71375019562038
 20
-1336.4712515155347
 30
0.0
 41
1.0
 10
921.71243498020692
 20
-1336.4732232850399
 30
0.0
 41
1.0
 10
921.63688165346025
 20
-1336.5864927496195
 30
0.0
 41
0.9999972147315731
 10
921.56186384309513
 20
-1336.7001175924422
 30
0.0
 41
1.0
 10
921.55689230047483
 20
-1336.7076476809114
 30
0.0
 41
1.0
 10
921.55192075785453
 20
-1336.7151777693805
 30
0.0
 41
1.0
 10
921.46695986223153
 20
-1336.8438627891671
 30
0.0
 41
0.999937197900989
 10
921.38490451282428
 20
-1336.9744197029495
 30
0.0
 41
1.0
 10
921.38139562846584
 20
-1336.9800026310093
 30
0.0
 41
1.0
 10
921.3778867441074
 20
-1336.985585559069
 30
0.0
 41
1.0
 10
921.2888136259769
 20
-1337.1273083289811
 30
0.0
 41
0.9998272025612087
 10
921.20507023509276
 20
-1337.2722442057272
 30
0.0
 41
1.0
 10
921.18985506307081
 20
-1337.2985773201804
 30
0.0
 41
1.0
 10
921.17463989104886
 20
-1337.3249104346335
 30
0.0
 41
1.0
 10
921.06046615611979
 20
-1337.5225125402874
 30
0.0
 41
0.9995217214838275
 10
920.95872646656369
 20
-1337.7267948681501
 30
0.0
 41
1.0
 10
920.95108290392704
 20
-1337.7421423178564
 30
0.0
 41
1.0
 10
920.94343934129029
 20
-1337.7574897675627
 30
0.0
 41
1.0
 10
920.85653404870084
 20
-1337.9319862256436
 30
0.0
 41
0.9998269762608492
 10
920.77617958243115
 20
-1338.1095945123623
 30
0.0
 41
1.0
 10
920.69582511615954
 20
-1338.2872027990848
 30
0.0
 41
0.9998944747386569
 10
920.62066432159236
 20
-1338.4670705247202
 30
0.0
 41
1.0
 10
920.61571065200189
 20
-1338.478925179636
 30
0.0
 41
1.0
 10
920.61075698241143
 20
-1338.4907798345516
 30
0.0
 41
1.0
 10
920.5301099218608
 20
-1338.6837767745642
 30
0.0
 41
0.9999506734408646
 10
920.45331239295535
 20
-1338.8783375794251
 30
0.0
 41
1.0
 10
920.43871242768819
 20
-1338.9153255012216
 30
0.0
 41
1.0
 10
920.42411246242114
 20
-1338.9523134230178
 30
0.0
 41
1.0
 10
920.37651486405321
 20
-1339.0728983842778
 30
0.0
 41
0.9999912393921294
 10
920.32992842002932
 20
-1339.1938775869769
 30
0.0
 41
1.0
 10
920.28334197600736
 20
-1339.314856789671
 30
0.0
 41
0.999992711396224
 10
920.23768068162451
 20
-1339.4361881971427
 30
0.0
 41
1.0
 10
920.22371225022084
 20
-1339.4733051791577
 30
0.0
 41
1.0
 10
920.20974381881706
 20
-1339.5104221611725
 30
0.0
 41
1.0
 10
920.1361456616329
 20
-1339.7059875326581
 30
0.0
 41
0.9999487550944496
 10
920.06652203666283
 20
-1339.903002897835
 30
0.0
 41
1.0
 10
920.04292842671953
 20
-1339.9697662081462
 30
0.0
 41
1.0
 10
920.01933481677611
 20
-1340.0365295184572
 30
0.0
 41
1.0
 10
919.92464918240626
 20
-1340.30446335328
 30
0.0
 41
0.9999808436935251
 10
919.83328759377002
 20
-1340.5735487845297
 30
0.0
 41
1.0
 10
919.74192600513243
 20
-1340.8426342157832
 30
0.0
 41
0.9999873932918389
 10
919.65327129641821
 20
-1341.1126235707845
 30
0.0
 41
1.0
 10
919.63317893954491
 20
-1341.1738129035489
 30
0.0
 41
1.0
 10
919.61308658267171
 20
-1341.2350022363134
 30
0.0
 41
1.0
 10
919.4842471602168
 20
-1341.6273702568269
 30
0.0
 41
0.9999794883028002
 10
919.36044437525879
 20
-1342.0213564631044
 30
0.0
 41
1.0
 10
919.34929211581562
 20
-1342.0568470733597
 30
0.0
 41
1.0
 10
919.33813985637244
 20
-1342.0923376836149
 30
0.0
 41
1.0
 10
919.19558169249581
 20
-1342.5460104356348
 30
0.0
 41
0.9999982761829692
 10
919.05470925246925
 20
-1343.000209457794
 30
0.0
 41
1.0
 10
917.46656891989664
 20
-1348.0489791887971
 30
0.0
 41
1.0
 10
915.87842858732404
 20
-1353.0977489198003
 30
0.0
 41
1.0
 10
914.92967797584765
 20
-1353.0977489198003
 30
0.0
 41
1.0
 10
913.98092736437127
 20
-1353.0977489198003
 30
0.0
 41
1.0
 10
917.21921185052452
 20
-1342.7704267198542
 30
0.0
 41
1.0
 10
920.45749633667765
 20
-1332.443104519908
 30
0.0
 41
1.0
  0
LWPOLYLINE
  5
5B
100
AcDbEntity
  8
0
370
              15
390
0
  6
Continuous
 62
               7
100
AcDbPolyline
 90
      232
 70
             128
 10
894.7539505628506
 20
-1333.5274473514232
 42
0.0004370800694657
 10
894.70107338887021
 20
-1333.5961139905603
 10
894.66178915765113
 20
-1333.6472211035762
 42
0.0030481992176604
 10
894.53145044052803
 20
-1333.818942795926
 10
894.49293876878153
 20
-1333.8703295797086
 42
0.0042058245757285
 10
894.28895371809483
 20
-1334.1473353248055
 10
894.236548595611
 20
-1334.2197681715629
 42
0.0120948898744553
 10
893.94050467884915
 20
-1334.6505177761126
 10
893.84431217972826
 20
-1334.7979985113359
 42
0.0141601263944801
 10
893.54066813280565
 20
-1335.2936678480723
 10
893.50113086537715
 20
-1335.3625118155085
 42
0.0071131081299837
 10
893.29585854214133
 20
-1335.7320146143422
 42
0.0068458791006388
 10
893.10097901529525
 20
-1336.1071061778239
 10
893.09416715284044
 20
-1336.1206678915419
 42
0.0064120880288736
 10
892.89602490280288
 20
-1336.5280923664463
 10
892.88849021727913
 20
-1336.5441042231819
 42
0.0058857236449132
 10
892.6857348254041
 20
-1336.9884803342245
 10
892.67755989911348
 20
-1337.0069704878508
 42
0.005318974189647
 10
892.46885558645022
 20
-1337.4929339617586
 10
892.46010778076459
 20
-1337.513915839965
 42
0.0047503650418448
 10
892.24413405461576
 20
-1338.04611527317
 10
892.23486580626582
 20
-1338.0695916492825
 42
0.0042071762173303
 10
892.01031842253803
 20
-1338.6526852433524
 10
892.00056902018935
 20
-1338.678651418222
 42
0.0036680086480096
 10
891.76611437688302
 20
-1339.3172868027373
 10
891.75590659702948
 20
-1339.3457353370977
 42
0.0032573142628212
 10
891.51027431106149
 20
-1340.0445879968547
 10
891.44162379021975
 20
-1340.2440510809106
 42
0.0026133366648634
 10
891.09317859146404
 20
-1341.2739143645761
 10
891.02992180397121
 20
-1341.4641451999457
 42
0.0020592950741957
 10
890.81605873499632
 20
-1342.1162488525822
 10
890.81300694383935
 20
-1342.125685340973
 42
0.0025609928533982
 10
890.61118644234739
 20
-1342.7608305633578
 10
890.60859507521741
 20
-1342.7691329043087
 42
0.0031362356242354
 10
890.41910428954384
 20
-1343.3898957604779
 10
890.41697324662528
 20
-1343.3970370666595
 42
0.0037229918030458
 10
890.24017285969001
 20
-1344.006022368663
 10
890.23849427048094
 20
-1344.0119692588469
 42
0.0043077623710875
 10
890.07475346841852
 20
-1344.6117879906064
 42
0.0047654161822539
 10
889.92192474590479
 20
-1345.2144740794997
 10
889.8874601370635
 20
-1345.3560358566585
 42
0.011296936844672
 10
889.69159577892049
 20
-1346.2477280172795
 10
889.66358938982319
 20
-1346.3905560633805
 42
0.0130056762570138
 10
889.46275214617663
 20
-1347.5774971350254
 10
889.4422123960295
 20
-1347.7215752485022
 42
0.0138721532144695
 10
889.33850939149158
 20
-1348.6284047343281
 10
889.31921390358264
 20
-1348.8519024562659
 42
0.0071254697011154
 10
889.28586725766104
 20
-1349.3150894651005
 10
889.2809062834981
 20
-1349.4010934596554
 42
0.0028881799198056
 10
889.26576799020791
 20
-1349.6928351695033
 42
0.006029729713899
 10
889.25583579043234
 20
-1349.9847841056214
 10
889.2547735087652
 20
-1350.0331764775558
 42
0.0229523164157694
 10
889.26250453655109
 20
-1350.3559313238347
 10
889.26673031007135
 20
-1350.4163348578502
 42
0.0123673300672514
 10
889.28580895658979
 20
-1350.6174555830257
 42
0.0128577674471369
 10
889.31500434699581
 20
-1350.817353432951
 10
889.32213022038309
 20
-1350.8586822475495
 42
0.0285717853760406
 10
889.38662422207869
 20
-1351.1367983988625
 10
889.40029274574499
 20
-1351.1834531683392
 42
0.0316283099156559
 10
889.51610332565951
 20
-1351.502467670166
 10
889.51915201741531
 20
-1351.5094540424921
 42
0.0338984824238781
 10
889.66858372838215
 20
-1351.7970200066807
 10
889.67089245775162
 20
-1351.800811035956
 42
0.0350228718354245
 10
889.85325274842558
 20
-1352.0578630206335
 10
889.85413800020103
 20
-1352.0589420983981
 42
0.0347476747532954
 10
890.0685626874407
 20
-1352.2861271456175
 42
0.0331337701913094
 10
890.31180601318738
 20
-1352.4822558076951
 10
890.31290611170323
 20
-1352.4830285108674
 42
0.0305233319083287
 10
890.58145080727672
 20
-1352.6481566809587
 10
890.58468085177788
 20
-1352.6498806928214
 42
0.0273744481157863
 10
890.87723456335357
 20
-1352.7860188367122
 10
890.88233909848964
 20
-1352.7880624211814
 42
0.0240964406192951
 10
891.19781617413446
 20
-1352.8970461474626
 10
891.20439950334526
 20
-1352.8989708871379
 42
0.0209636179814805
 10
891.54179965599894
 20
-1352.9824390350702
 10
891.54943211644661
 20
-1352.9839909480716
 42
0.0181388704692828
 10
891.90775450844546
 20
-1353.0434070412855
 10
891.91603535682316
 20
-1353.0444732251026
 42
0.0156086547586633
 10
892.29422272101226
 20
-1353.0812094116793
 10
892.3374179733421
 20
-1353.0840479141584
 42
0.0137148329025577
 10
892.66509111863797
 20
-1353.0965681694095
 10
892.71102730857569
 20
-1353.0970626025246
 42
0.0051057823880481
 10
892.9471728951562
 20
-1353.0971928569338
 42
0.0052256693315563
 10
893.18327017893193
 20
-1353.0924440324698
 10
893.25349696268427
 20
-1353.0902970664556
 42
0.0161507179048465
 10
893.62923404078902
 20
-1353.0666466961288
 10
893.64924700115853
 20
-1353.0647365008415
 42
0.010121673783274
 10
894.06327422264997
 20
-1353.0167435704759
 10
894.09732751207605
 20
-1353.0120958736663
 42
0.0245291776401728
 10
894.57411716763067
 20
-1352.9230207955891
 10
894.6589404831542
 20
-1352.9028248752434
 42
0.0143509212556525
 10
895.01557158709079
 20
-1352.8070202414654
 42
0.0156557857040916
 10
895.36578765181457
 20
-1352.6900090256479
 10
895.37328886631269
 20
-1352.6872388638924
 42
0.0170137333630039
 10
895.7298848619962
 20
-1352.5415812490201
 10
895.73698878440155
 20
-1352.5383934134575
 42
0.0183105364407164
 10
896.09633845256724
 20
-1352.3610583716336
 10
896.10328521720658
 20
-1352.3573079367611
 42
0.0194899958153618
 10
896.46176595819065
 20
-1352.1453289548704
 10
896.46877983752734
 20
-1352.1408036125754
 42
0.0204869852947429
 10
896.8227941396234
 20
-1351.8912835974879
 10
896.83005974820821
 20
-1351.8857035321412
 42
0.0212516938557945
 10
897.17604967931652
 20
-1351.5957995352464
 10
897.22256637339285
 20
-1351.5533322251522
 42
0.0215248918250644
 10
897.48259254227946
 20
-1351.2945679461584
 10
897.52762227665619
 20
-1351.2457238248128
 42
0.0114578554952686
 10
897.68241443033753
 20
-1351.0699008913502
 10
897.69360896632452
 20
-1351.0565821278044
 42
0.0061531305136626
 10
897.82008361231851
 20
-1350.9022925944992
 42
0.0006325587123481
 10
897.94446209651335
 20
-1350.7462892187691
 10
897.96750223152185
 20
-1350.7173156981639
 42
0.004189776155048
 10
898.13595763550563
 20
-1350.5017963220878
 10
898.19441975538666
 20
-1350.425694975117
 42
0.0092993880040634
 10
898.47103168261401
 20
-1350.0514162112281
 10
898.55342617580936
 20
-1349.9354792076647
 42
0.0159321727085563
 10
898.90003265845166
 20
-1349.4133049869085
 10
898.94438879384279
 20
-1349.3416254226554
 42
0.0085547317020596
 10
899.17890055916655
 20
-1348.9477504734339
 42
0.0084601156887991
 10
899.39987673660187
 20
-1348.5461236244143
 10
899.40799221043892
 20
-1348.5307639421287
 42
0.0081429654287115
 10
899.63124148087604
 20
-1348.0910424295885
 10
899.64010164506044
 20
-1348.0728635875685
 42
0.0076574581327852
 10
899.86650915563223
 20
-1347.5896807123042
 10
899.87598879635084
 20
-1347.5686162340123
 42
0.0070682724206079
 10
900.10643370416153
 20
-1347.0365789292218
 10
900.11642398813933
 20
-1347.0125897402195
 42
0.0064559514445254
 10
900.351757196319
 20
-1346.426277473706
 10
900.36216655448607
 20
-1346.3993425482583
 42
0.005831141390666
 10
900.60321329124986
 20
-1345.7533104538716
 10
900.61396836863628
 20
-1345.7234261127142
 42
0.0052312425816908
 10
900.86154964667537
 20
-1345.012223698885
 10
900.87259348305702
 20
-1344.9793969868099
 42
0.0046680544796247
 10
901.12752191079505
 20
-1344.1975706710436
 10
901.16951406083376
 20
-1344.0645874337667
 42
0.0041666856443275
 10
901.37280007322988
 20
-1343.4016186587573
 10
901.4104625138757
 20
-1343.2750375511641
 42
0.0015170975153067
 10
901.53164909230679
 20
-1342.86316919961
 42
-0.0004887993114047
 10
901.65198886548114
 20
-1342.4510507873936
 10
901.72846612292506
 20
-1342.1900934016269
 42
0.0002583378928656
 10
902.00168069304107
 20
-1341.2560366982705
 10
902.08345354254436
 20
-1340.9759374389384
 42
0.0006636169672152
 10
902.27732130257721
 20
-1340.308584515278
 10
902.28241795694032
 20
-1340.2909529323424
 42
0.001058913132359
 10
902.46386665784087
 20
-1339.6582215893491
 10
902.46884872832595
 20
-1339.6407086823128
 42
0.0015655524463566
 10
902.63711893550408
 20
-1339.0420920031281
 10
902.64194913591723
 20
-1339.0246998441989
 42
0.0021640440477575
 10
902.79623910790519
 20
-1338.459672826174
 10
902.80087332734183
 20
-1338.4424080961553
 42
0.0028763871851158
 10
902.94038904538797
 20
-1337.910440145333
 10
902.94477490955194
 20
-1337.8933161671914
 42
0.0037310511948951
 10
903.06873160139207
 20
-1337.3938685731548
 10
903.07280682167902
 20
-1337.3769083019176
 42
0.0047652197773677
 10
903.18043072218961
 20
-1336.9094305336043
 10
903.18412132151525
 20
-1336.8926709784439
 42
0.0060276699299893
 10
903.27465142066671
 20
-1336.4565951833101
 10
903.27787011095336
 20
-1336.4400939690136
 42
0.0075824337757429
 10
903.35055942037127
 20
-1336.0348268045748
 10
903.35320479775316
 20
-1336.0186718571144
 42
0.0095130624613689
 10
903.4073200333828
 20
-1335.6435825040523
 10
903.41430625726525
 20
-1335.5876489459372
 42
0.0121054653228847
 10
903.44089758784321
 20
-1335.3227531174618
 10
903.44176407760301
 20
-1335.3113496745289
 42
0.0069050827393816
 10
903.4568528956404
 20
-1335.0684084476886
 10
903.45798819530899
 20
-1335.0448821906434
 42
0.016906397670089
 10
903.46081547428935
 20
-1334.8486894633431
 10
903.45964482275792
 20
-1334.7883537019879
 42
0.0052007732902987
 10
903.45739137416501
 20
-1334.712760311842
 42
0.0054038123312585
 10
903.43742786232292
 20
-1334.5927420158141
 10
903.43234200645566
 20
-1334.5640835292509
 42
0.0112050460464875
 10
903.39695764439716
 20
-1334.3877570909115
 10
903.37913268235661
 20
-1334.3082155041909
 42
0.0240764468012694
 10
903.28823531621038
 20
-1333.9779784686898
 10
903.26967655339683
 20
-1333.9213583036953
 42
0.0256812331832729
 10
903.12631363320747
 20
-1333.5496340974385
 10
903.12090420738593
 20
-1333.5375027624484
 42
0.0268360501219983
 10
902.95147696653612
 20
-1333.2065096284277
 10
902.94594055890059
 20
-1333.1969899581145
 42
0.0274670231732565
 10
902.7537395824877
 20
-1332.9047025831983
 10
902.7483582825239
 20
-1332.8974234356554
 42
0.0275035967106835
 10
902.53678540296323
 20
-1332.641907545353
 10
902.53171590199622
 20
-1332.6364284577221
 42
0.0269557673527788
 10
902.30431235855713
 20
-1332.4157861717601
 10
902.29956930077424
 20
-1332.4116562172992
 42
0.0259124802217255
 10
902.06001446934374
 20
-1332.223965690147
 10
902.05548362416164
 20
-1332.2207801878164
 42
0.0245162153002066
 10
901.80756727106711
 20
-1332.0640471787062
 10
901.80304072474485
 20
-1332.0614869815065
 42
0.0229282588843937
 10
901.55062116791555
 20
-1331.9336187890065
 10
901.54584067407848
 20
-1331.9314664892443
 42
0.0212984135688411
 10
901.29280272161714
 20
-1331.8302675720022
 10
901.28749843664616
 20
-1331.8284040092417
 42
0.0197555462348593
 10
901.03772009892464
 20
-1331.7515885912774
 42
0.0183511896785549
 10
900.78279137346044
 20
-1331.6940056843118
 10
900.69642617673821
 20
-1331.677802893927
 42
0.0338057877147368
 10
900.4109188274781
 20
-1331.6439944887866
 10
900.31991342243259
 20
-1331.6394148335248
 42
0.0091990524497795
 10
900.21406631380216
 20
-1331.636038977603
 42
0.002833398077878
 10
900.1081523978354
 20
-1331.6352108700864
 10
900.10723694475996
 20
-1331.6352089002623
 42
-0.0023619827811943
 10
899.99949092964346
 20
-1331.6344680591837
 10
899.96308575947819
 20
-1331.6340457527208
 42
0.0008824598487657
 10
899.78252976962233
 20
-1331.6322699744826
 10
899.73866833722229
 20
-1331.6319160129569
 42
0.0038132665768201
 10
899.47038544134239
 20
-1331.6317970768905
 10
899.45385178654999
 20
-1331.631915843034
 42
0.0060665569338062
 10
899.15257129494853
 20
-1331.6377361424552
 10
899.13832096293334
 20
-1331.6381844504224
 42
0.0080356953338
 10
898.80886224659207
 20
-1331.6538521724895
 10
898.79679223150686
 20
-1331.6546207554297
 42
0.0098996399103281
 10
898.44402914686509
 20
-1331.684105984627
 10
898.43398343748129
 20
-1331.6851462808261
 42
0.0117740981367167
 10
898.06282657913243
 20
-1331.7324385283559
 10
898.05460388264999
 20
-1331.7336836449267
 42
0.0137435215136606
 10
897.67001506315876
 20
-1331.8027806184896
 10
897.6633580240416
 20
-1331.8041665147218
 42
0.0158359869385234
 10
897.27036093024265
 20
-1331.8990586032014
 10
897.26494774337198
 20
-1331.900548544073
 42
0.0180554124029008
 10
896.86863269876221
 20
-1332.0251865603109
 10
896.86407591067609
 20
-1332.0268025965781
 42
0.0203657431282064
 10
896.46959839286319
 20
-1332.1850629380945
 10
896.46545485385741
 20
-1332.1869245595358
 42
0.0226819684657604
 10
896.07801879765509
 20
-1332.382567138206
 10
896.07381900663563
 20
-1332.3849327301266
 42
0.0248634984601241
 10
895.69863706545516
 20
-1332.6215593760733
 10
895.65044213666761
 20
-1332.6554164179015
 42
0.0267044190894238
 10
895.37614943975393
 20
-1332.8708567937676
 42
0.0139303002196653
 10
895.11998227381821
 20
-1333.1080956346768
 10
895.1151288880942
 20
-1333.1128482975398
 42
0.0283460963440724
 10
894.87105629386861
 20
-1333.3805789579826
 10
894.83138778871046
 20
-1333.4293805354578
 42
0.0070695364826167
 10
894.7539505628506
 20
-1333.5274473514232
 42
0.0070695364826167
  0
LWPOLYLINE
  5
5C
100
AcDbEntity
  8
0
370
              15
390
0
  6
Continuous
 62
               7
100
AcDbPolyline
 90
      226
 70
             128
 10
891.22513012560421
 20
-1349.2490361576074
 42
-0.0026277636613474
 10
891.22505224180418
 20
-1349.1822642318496
 10
891.2252696000362
 20
-1349.1291090144211
 42
-0.0088680296717911
 10
891.22904621632927
 20
-1348.9560932320173
 10
891.23139257544176
 20
-1348.8968132065645
 42
-0.0077381705616948
 10
891.24743868620465
 20
-1348.6055527107696
 10
891.2483065973779
 20
-1348.5932644770812
 42
-0.0068872530528418
 10
891.27493867712587
 20
-1348.2780427250141
 10
891.27614290131214
 20
-1348.2658017459935
 42
-0.0062130021486583
 10
891.31373661814143
 20
-1347.9269320547428
 10
891.31524052167515
 20
-1347.9147581828383
 42
-0.0056726929665338
 10
891.3641623811767
 20
-1347.5525629607293
 10
891.36593582682178
 20
-1347.5404691604797
 42
-0.0052341884490645
 10
891.42654641308366
 20
-1347.1552759049512
 10
891.42856440185847
 20
-1347.1432709749695
 42
-0.0049768450165077
 10
891.50130308328698
 20
-1346.735426407525
 10
891.52555209800653
 20
-1346.6068784245308
 42
-0.0089029805625094
 10
891.66263294979899
 20
-1345.9451029771185
 10
891.6953783251198
 20
-1345.8000715465848
 42
-0.0080318257100966
 10
891.92492693945712
 20
-1344.8543619147445
 10
891.93691186590877
 20
-1344.8082312795411
 42
-0.0074265721319169
 10
892.22092340475785
 20
-1343.7781667011636
 10
892.24080294787427
 20
-1343.7100326405748
 42
-0.0069711922702185
 10
892.56810752638205
 20
-1342.6437649002432
 10
892.62805947348511
 20
-1342.4577435418803
 42
-0.0052070422895344
 10
892.85748469874693
 20
-1341.7704714648412
 10
892.87476589090818
 20
-1341.7204441842557
 42
-0.0009167004451497
 10
893.07785777820845
 20
-1341.1359883360701
 42
-0.0025162726943297
 10
893.28495540847268
 20
-1340.552947071903
 10
893.32218002027685
 20
-1340.449797526001
 42
-0.0028212681457828
 10
893.57035593923956
 20
-1339.7740668938311
 10
893.58018670199851
 20
-1339.7477594491322
 42
-0.0031964916822522
 10
893.81647895965261
 20
-1339.1275546870274
 10
893.82611341364577
 20
-1339.1027446968992
 42
-0.0036281836451793
 10
894.0512193747528
 20
-1338.535304015991
 10
894.06065778490097
 20
-1338.512006584511
 42
-0.0041269166836566
 10
894.27527548156945
 20
-1337.9945656885097
 10
894.30790843799366
 20
-1337.9176872421406
 42
-0.0047472213055687
 10
894.46495324354385
 20
-1337.5572657742653
 10
894.47184732475193
 20
-1337.5418451769337
 42
-0.0025651659995964
 10
894.62020535860222
 20
-1337.2145171211848
 42
-0.0057144634995024
 10
894.77395505237212
 20
-1336.8897074478252
 10
894.80198575777695
 20
-1336.8321990654238
 42
-0.006538806837385
 10
894.98545278551455
 20
-1336.4679665687631
 10
894.99391124129477
 20
-1336.4517069893902
 42
-0.0074510843021145
 10
895.1700934871709
 20
-1336.125018708271
 10
895.17827315769773
 20
-1336.1103779310097
 42
-0.0084648979860232
 10
895.34790701080192
 20
-1335.8184689200411
 10
895.35576313728757
 20
-1335.8054619283942
 42
-0.0095638542801334
 10
895.51959858488431
 20
-1335.5455730564117
 10
895.52707352855441
 20
-1335.5342036949587
 42
-0.0107191626806397
 10
895.68587510894361
 20
-1335.3035924604121
 10
895.69289184267643
 20
-1335.293856368045
 42
-0.011845857390265
 10
895.84743994118719
 20
-1335.0897841727367
 42
-0.0129184518187125
 10
896.01189256479404
 20
-1334.8936236565603
 10
896.04203733715599
 20
-1334.8594975776621
 42
-0.021774257962775
 10
896.21864965948726
 20
-1334.6762908074168
 10
896.22939520395221
 20
-1334.6660739742094
 42
-0.0097266568651212
 10
896.39545282280324
 20
-1334.5142263997764
 42
-0.0187720905723201
 10
896.56980039869097
 20
-1334.3721575463885
 10
896.60050638936502
 20
-1334.3489984639925
 42
-0.0179428207521123
 10
896.83292710936314
 20
-1334.1864462868793
 10
896.83657943627838
 20
-1334.1840823519919
 42
-0.0170047877700462
 10
897.07234307380929
 20
-1334.0426218378402
 10
897.07612606255532
 20
-1334.0405235328042
 42
-0.0160190788363324
 10
897.31303461019115
 20
-1333.9188722308159
 42
-0.0151102861495128
 10
897.55706639263997
 20
-1333.8121894547603
 10
897.6094528948496
 20
-1333.7911493218664
 42
-0.027194544188626
 10
897.96811545390892
 20
-1333.6692845111602
 10
898.03718025439389
 20
-1333.6499349698947
 42
-0.023759659402527
 10
898.45297710141836
 20
-1333.5544842579127
 10
898.52103995515131
 20
-1333.5422295697856
 42
-0.0213715440552182
 10
898.80691488659409
 20
-1333.5032825382762
 10
898.86706205281826
 20
-1333.4976928235747
 42
-0.0101465655810508
 10
899.0345545848063
 20
-1333.485549280311
 10
899.04389497100101
 20
-1333.485062365314
 42
-0.0100375910886501
 10
899.19304907156709
 20
-1333.4802865473885
 10
899.20330834125048
 20
-1333.4801641083741
 42
-0.0103625633381488
 10
899.33201633590238
 20
-1333.4812955419006
 10
899.35428198716613
 20
-1333.4819529003655
 42
-0.0115689250249177
 10
899.43833272469715
 20
-1333.4863824066108
 42
-0.007243803741528
 10
899.52217100414384
 20
-1333.4939716063609
 10
899.53897151360911
 20
-1333.4957381490844
 42
-0.0217917313134314
 10
899.65554127692315
 20
-1333.5131580418056
 10
899.72114136749155
 20
-1333.5259046502201
 42
-0.0332943556758039
 10
899.92553353251787
 20
-1333.5799449415269
 10
899.95570610106586
 20
-1333.5901130186446
 42
-0.0184824084795622
 10
900.09421115753321
 20
-1333.6425640340319
 42
-0.0198002050695787
 10
900.2282854980341
 20
-1333.705448094232
 10
900.23017213540948
 20
-1333.706425881111
 42
-0.0212242342987459
 10
900.36231107780952
 20
-1333.7821886199029
 10
900.36412637335502
 20
-1333.7833344221126
 42
-0.0226090605784318
 10
900.49263027457664
 20
-1333.8728140656772
 10
900.49447471631402
 20
-1333.8742263186646
 42
-0.0238457052240637
 10
900.61765679760788
 20
-1333.9782222145277
 10
900.61960952616607
 20
-1333.9800370922931
 42
-0.0248160564145337
 10
900.73581103346669
 20
-1334.0993116935017
 10
900.73791466686885
 20
-1334.1016970272062
 42
-0.0254109591454506
 10
900.84551988473402
 20
-1334.2369854131696
 10
900.84776790664887
 20
-1334.2401269615711
 42
-0.0255528488293009
 10
900.94521458544557
 20
-1334.3921540158049
 10
900.947545685362
 20
-1334.396235627413
 42
-0.0252146793218409
 10
901.03332671137161
 20
-1334.5657378734106
 10
901.0356289505288
 20
-1334.5709199553228
 42
-0.0244265635951661
 10
901.10828364428983
 20
-1334.758666527368
 10
901.11753004575814
 20
-1334.7865319457057
 42
-0.023131961289484
 10
901.16345282475072
 20
-1334.9498329925091
 42
-0.0112130424351275
 10
901.19808884728945
 20
-1335.1160365927003
 10
901.19929137240138
 20
-1335.1225331795849
 42
-0.0210527881235705
 10
901.22497784777204
 20
-1335.3035888250229
 10
901.2284884425942
 20
-1335.3389943735733
 42
-0.0190029892415733
 10
901.24392991613877
 20
-1335.5925302198459
 10
901.24473989258274
 20
-1335.6280058342147
 42
-0.0137974553659389
 10
901.2431910397471
 20
-1335.9530372409515
 10
901.24234558479168
 20
-1335.9791559855396
 42
-0.0081336634215781
 10
901.2274862495691
 20
-1336.2845034531401
 42
-0.0073526923575066
 10
901.20317771619398
 20
-1336.5892516974311
 10
901.20191629241174
 20
-1336.6025883720913
 42
-0.0066886138687969
 10
901.16618070636366
 20
-1336.9331744156025
 10
901.16452361689539
 20
-1336.9467960345801
 42
-0.0061359187353356
 10
901.11667301484476
 20
-1337.3035600146784
 10
901.11463551377165
 20
-1337.3174548175093
 42
-0.0056698610067109
 10
901.05398518300376
 20
-1337.7007333863514
 10
901.05157974968142
 20
-1337.7148925055781
 42
-0.0052721077275036
 10
900.97744754888208
 20
-1338.1250198452549
 10
900.97468440004013
 20
-1338.139436480642
 42
-0.004928927217746
 10
900.88639028194257
 20
-1338.5767449917532
 10
900.88327778725761
 20
-1338.5914138445801
 42
-0.0047415956710678
 10
900.78003979572679
 20
-1339.0562106019836
 10
900.74527158536546
 20
-1339.2060176973739
 42
-0.0084404470902467
 10
900.5552551417926
 20
-1339.9662417219088
 10
900.54912845380795
 20
-1339.9891058460585
 42
-0.0039635940257922
 10
900.32767476952949
 20
-1340.7900947102864
 10
900.31429797434441
 20
-1340.8370263268978
 42
-0.0072475040836619
 10
900.04685108648437
 20
-1341.7262460432783
 10
899.97663875965429
 20
-1341.947986393259
 42
-0.0051345458828289
 10
899.68987938759506
 20
-1342.8223115810711
 10
899.66835312083083
 20
-1342.8857378481912
 42
-0.001915001660254
 10
899.41281971396086
 20
-1343.6292869684271
 10
899.40635210956998
 20
-1343.6478744333328
 42
-0.0021524362752107
 10
899.15787405850074
 20
-1344.3522002550567
 10
899.1486636378113
 20
-1344.3779538333386
 42
-0.002433128682298
 10
898.9124083787683
 20
-1345.0285531414763
 10
898.90336042621584
 20
-1345.0530964478357
 42
-0.002744972179032
 10
898.67874585538243
 20
-1345.652226326755
 10
898.6698558480017
 20
-1345.6755489165771
 42
-0.0031083229769985
 10
898.45631336138024
 20
-1346.2254729541869
 10
898.44757722970428
 20
-1346.2475626700457
 42
-0.0035311343284055
 10
898.24453604411292
 20
-1346.7505457957748
 10
898.23595070497538
 20
-1346.7713885192604
 42
-0.0040245640951464
 10
898.04283890117074
 20
-1347.2296978418776
 10
898.03440278756659
 20
-1347.2492772099522
 42
-0.0046015135853302
 10
897.85064649440392
 20
-1347.665182239592
 10
897.8423603165794
 20
-1347.6834793790358
 42
-0.0052768638271683
 10
897.66738279762012
 20
-1348.0592522633144
 10
897.65925058699497
 20
-1348.076245601854
 42
-0.0060672675645028
 10
897.49247097422722
 20
-1348.4141612249718
 10
897.48450149374821
 20
-1348.429826483964
 42
-0.0069904648872785
 10
897.32533309974406
 20
-1348.7321622906327
 10
897.31754170013687
 20
-1348.7464728398534
 42
-0.0080637022772698
 10
897.16538983978739
 20
-1349.015508143013
 10
897.15780080715933
 20
-1349.0284360086084
 42
-0.0093006455672021
 10
897.01206013062472
 20
-1349.266450407117
 10
897.00470946387736
 20
-1349.2779683762958
 42
-0.0107060778050661
 10
896.86476092044268
 20
-1349.4872386936693
 10
896.8576991521702
 20
-1349.497324236225
 42
-0.0122723111416065
 10
896.7229054339648
 20
-1349.680117565724
 10
896.72257921041512
 20
-1349.6805379535281
 42
-0.014183631962426
 10
896.5789976074368
 20
-1349.8551077113632
 10
896.57204985178362
 20
-1349.8630827116294
 42
-0.0175957477204362
 10
896.43214368375016
 20
-1350.0127036000329
 42
-0.0080466359675369
 10
896.28467991872367
 20
-1350.1550261281805
 10
896.23864537420241
 20
-1350.1980465662753
 42
-0.0269600260392118
 10
895.98536512821693
 20
-1350.4103698247864
 10
895.91879799192031
 20
-1350.46032123941
 42
-0.0178362839752275
 10
895.67885350226663
 20
-1350.6273391656607
 10
895.67160853126984
 20
-1350.6320076778632
 42
-0.0174650732655853
 10
895.43527233382497
 20
-1350.7728686428247
 42
-0.0169240130163028
 10
895.18980608796676
 20
-1350.8971609026023
 10
895.14381993240931
 20
-1350.9185228581694
 42
-0.0318883036840504
 10
894.79346907678939
 20
-1351.0548611676795
 10
894.72510354162364
 20
-1351.0765617881552
 42
-0.0284435909901409
 10
894.34905341533363
 20
-1351.1727792236295
 10
894.31389525483621
 20
-1351.1796728194579
 42
-0.024390934101033
 10
894.00045179391611
 20
-1351.225393850488
 10
893.95017106714317
 20
-1351.2302393973898
 42
-0.0196639292929018
 10
893.73457548961778
 20
-1351.2424876829032
 10
893.68275141845402
 20
-1351.24339094364
 42
-0.0100501510681611
 10
893.57032813679007
 20
-1351.2430905452868
 10
893.53866827545642
 20
-1351.2423694734018
 42
-0.0019752031106685
 10
893.48957593876457
 20
-1351.241057313192
 10
893.48681563553509
 20
-1351.2409726213655
 42
0.0065378751995936
 10
893.44323906078762
 20
-1351.2402057301508
 42
-0.0167974694689219
 10
893.39970823785995
 20
-1351.2385458316248
 10
893.39562889859371
 20
-1351.2382528207297
 42
-0.0081283276265102
 10
893.34406910084886
 20
-1351.2337058270909
 10
893.33232952697676
 20
-1351.2324779095134
 42
-0.0126703440178568
 10
893.25761123118343
 20
-1351.2227431184419
 10
893.23482336350639
 20
-1351.2191848625266
 42
-0.0117852088421778
 10
893.1152843776697
 20
-1351.1976218673688
 10
893.05990392591104
 20
-1351.1862783271349
 42
-0.0251774592295422
 10
892.83305988690597
 20
-1351.1277803177029
 10
892.78834069704851
 20
-1351.1138134983657
 42
-0.0146525199887917
 10
892.60194770951364
 20
-1351.0495469711686
 42
-0.0166929435857193
 10
892.41997005338703
 20
-1350.9737398381139
 10
892.41531342211374
 20
-1350.9716149374999
 42
-0.0191684358437275
 10
892.2301297908673
 20
-1350.8783788537114
 10
892.22679720510769
 20
-1350.8765376061567
 42
-0.0221181781809599
 10
892.04348690120401
 20
-1350.7644041077851
 10
892.04113709719695
 20
-1350.762819809795
 42
-0.0254984685386323
 10
891.86484694681292
 20
-1350.6304086598263
 10
891.84236479910965
 20
-1350.611656350889
 42
-0.0292492648806096
 10
891.71759586026667
 20
-1350.4945635512458
 42
-0.0159048957500857
 10
891.60375586281634
 20
-1350.3665435596465
 10
891.60243707223731
 20
-1350.3649619466269
 42
-0.0343813379569562
 10
891.49979981061108
 20
-1350.2230906208576
 10
891.46830827925021
 20
-1350.1725872287634
 42
-0.0369117275702951
 10
891.38241577735289
 20
-1350.0091099878148
 42
-0.0191751379915315
 10
891.3152223917956
 20
-1349.8367053818081
 10
891.31345906803631
 20
-1349.8316120371339
 42
-0.0378178042219022
 10
891.26366434925194
 20
-1349.6426712610512
 10
891.25766905352145
 20
-1349.6101106428525
 42
-0.0184846046473521
 10
891.23695185422753
 20
-1349.4683578223107
 42
-0.0179866351324043
 10
891.22661884915385
 20
-1349.3254670092313
 10
891.22656240670801
 20
-1349.3239093226171
 42
-0.0085497186124077
 10
891.22513012560421
 20
-1349.2490361576074
 42
-0.0085497186124077
  0
ENDBLK
  5
5D
100
AcDbEntity
  8
template
390
0
100
AcDbBlockEnd
  0
BLOCK
  5
5E
100
AcDbEntity
  8
template
390
0
100
AcDbBlockBegin
  2
*D3
 70
               1
 10
0.0
 20
0.0
 30
0.0
  3
*D3
  1

  0
LINE
  5
5F
100
AcDbEntity
  8
0
370
              -2
390
0
  6
Continuous
 62
               0
100
AcDbLine
 10
4596.9452508876802
 20
4940.9925333713081
 30
0.0
 11
4781.6003583550701
 21
5077.056910123445
 31
0.0
  0
CIRCLE
  5
60
102
{ACAD_REACTORS
330
61
102
}
100
AcDbEntity
  8
0
370
              -2
390
0
  6
Continuous
 62
               0
100
AcDbCircle
 10
4596.9452508876802
 20
4940.9925333713081
 30
0.0
 40
1.9998779296875
  0
HATCH
  5
61
100
AcDbEntity
  8
0
370
              -2
390
0
  6
Continuous
 62
               0
100
AcDbHatch
 10
0.0
 20
0.0
 30
0.0
210
0.0
220
0.0
230
1.0
  2
SOLID
 70
               1
 71
               1
 91
        1
 92
        1
 93
        1
 72
               2
 10
4596.9452508876802
 20
4940.9925333713081
 40
1.9998779296875
 50
0.0
 51
360.0
 73
               0
 97
        1
330
60
 75
               0
 76
               1
 98
        1
 10
0.0
 20
0.0
  0
LINE
  5
62
100
AcDbEntity
  8
0
370
              -2
390
0
  6
Continuous
 62
               0
100
AcDbLine
 10
4781.6003583550701
 20
5077.056910123445
 30
0.0
 11
4952.725365083772
 21
5077.056910123445
 31
0.0
  0
MTEXT
  5
63
100
AcDbEntity
  8
0
390
0
 62
               0
100
AcDbMText
 10
4841.6003583550701
 20
5110.9345273109448
 30
0.0
 40
24.432617187500004
 41
0.0
 71
               1
 72
               1
  1
φ35-37
  7
ＭＳ ゴシック
 73
               1
 44
0.7828267384257843
  0
POINT
  5
64
100
AcDbEntity
  8
Defpoints
370
               0
390
0
 62
               0
100
AcDbPoint
 10
4567.1583943365422
 20
4919.043884738604
 30
0.0
  0
POINT
  5
65
100
AcDbEntity
  8
Defpoints
370
               0
390
0
 62
               0
100
AcDbPoint
 10
4596.9452508876802
 20
4940.9925333713081
 30
0.0
  0
ENDBLK
  5
66
100
AcDbEntity
  8
template
390
0
100
AcDbBlockEnd
  0
BLOCK
  5
67
100
AcDbEntity
  8
notes
390
0
100
AcDbBlockBegin
  2
*D4
 70
               1
 10
0.0
 20
0.0
 30
0.0
  3
*D4
  1

  0
LINE
  5
68
100
AcDbEntity
  8
0
370
              -2
390
0
  6
Continuous
 62
               0
100
AcDbLine
 10
4737.0518226121103
 20
5025.0182090549561
 30
0.0
 11
4737.0518226121103
 21
5150.0001422077821
 31
0.0
  0
LINE
  5
69
100
AcDbEntity
  8
0
370
              -2
390
0
  6
Continuous
 62
               0
100
AcDbLine
 10
4197.0251268262646
 20
5024.9980132781338
 30
0.0
 11
4197.0251268262646
 21
5150.0001422077821
 31
0.0
  0
LINE
  5
6A
100
AcDbEntity
  8
0
370
              -2
390
0
  6
Continuous
 62
               0
100
AcDbLine
 10
4737.0518226121103
 20
5150.0001422077821
 30
0.0
 11
4197.0251268262646
 21
5150.0001422077821
 31
0.0
  0
CIRCLE
  5
6B
102
{ACAD_REACTORS
330
6C
102
}
100
AcDbEntity
  8
0
370
              -2
390
0
  6
Continuous
 62
               0
100
AcDbCircle
 10
4737.0518226121103
 20
5150.0001422077821
 30
0.0
 40
1.9998779296875
  0
HATCH
  5
6C
100
AcDbEntity
  8
0
370
              -2
390
0
  6
Continuous
 62
               0
100
AcDbHatch
 10
0.0
 20
0.0
 30
0.0
210
0.0
220
0.0
230
1.0
  2
SOLID
 70
               1
 71
               1
 91
        1
 92
        1
 93
        1
 72
               2
 10
4737.0518226121103
 20
5150.0001422077821
 40
1.9998779296875
 50
0.0
 51
360.0
 73
               0
 97
        1
330
6B
 75
               0
 76
               1
 98
        1
 10
0.0
 20
0.0
  0
CIRCLE
  5
6D
102
{ACAD_REACTORS
330
6E
102
}
100
AcDbEntity
  8
0
370
              -2
390
0
  6
Continuous
 62
               0
100
AcDbCircle
 10
4197.0251268262646
 20
5150.0001422077821
 30
0.0
 40
1.9998779296875
  0
HATCH
  5
6E
100
AcDbEntity
  8
0
370
              -2
390
0
  6
Continuous
 62
               0
100
AcDbHatch
 10
0.0
 20
0.0
 30
0.0
210
0.0
220
0.0
230
1.0
  2
SOLID
 70
               1
 71
               1
 91
        1
 92
        1
 93
        1
 72
               2
 10
4197.0251268262646
 20
5150.0001422077821
 40
1.9998779296875
 50
0.0
 51
360.0
 73
               0
 97
        1
330
6D
 75
               0
 76
               1
 98
        1
 10
0.0
 20
0.0
  0
MTEXT
  5
6F
100
AcDbEntity
  8
0
390
0
 62
               0
100
AcDbMText
 10
4443.2259730370124
 20
5183.8777593952818
 30
0.0
 40
24.432617187500004
 41
0.0
 71
               1
 72
               1
  1
540
  7
ＭＳ ゴシック
 73
               1
 44
0.7828267384257843
  0
POINT
  5
70
100
AcDbEntity
  8
Defpoints
370
               0
390
0
 62
               0
100
AcDbPoint
 10
4197.0251268262646
 20
4999.9980132781338
 30
0.0
  0
POINT
  5
71
100
AcDbEntity
  8
Defpoints
370
               0
390
0
 62
               0
100
AcDbPoint
 10
4737.0518226121103
 20
5000.0182090549561
 30
0.0
  0
POINT
  5
72
100
AcDbEntity
  8
Defpoints
370
               0
390
0
 62
               0
100
AcDbPoint
 10
4737.0518226121103
 20
5150.0001422077821
 30
0.0
  0
ENDBLK
  5
73
100
AcDbEntity
  8
notes
390
0
100
AcDbBlockEnd
  0
BLOCK
  5
74
100
AcDbEntity
  8
notes
390
0
100
AcDbBlockBegin
  2
*D5
 70
               1
 10
0.0
 20
0.0
 30
0.0
  3
*D5
  1

  0
LINE
  5
75
100
AcDbEntity
  8
0
370
              -2
390
0
  6
Continuous
 62
               0
100
AcDbLine
 10
4582.0518226121112
 20
4975.5187968205992
 30
0.0
 11
4582.0518226121112
 21
5100.0001422077821
 31
0.0
  0
LINE
  5
76
100
AcDbEntity
  8
0
370
              -2
390
0
  6
Continuous
 62
               0
100
AcDbLine
 10
4737.0518226121103
 20
5025.0182090549561
 30
0.0
 11
4737.0518226121103
 21
5100.0001422077821
 31
0.0
  0
LINE
  5
77
100
AcDbEntity
  8
0
370
              -2
390
0
  6
Continuous
 62
               0
100
AcDbLine
 10
4582.0518226121112
 20
5100.0001422077821
 30
0.0
 11
4737.0518226121103
 21
5100.0001422077821
 31
0.0
  0
CIRCLE
  5
78
102
{ACAD_REACTORS
330
79
102
}
100
AcDbEntity
  8
0
370
              -2
390
0
  6
Continuous
 62
               0
100
AcDbCircle
 10
4582.0518226121112
 20
5100.0001422077821
 30
0.0
 40
1.9998779296875
  0
HATCH
  5
79
100
AcDbEntity
  8
0
370
              -2
390
0
  6
Continuous
 62
               0
100
AcDbHatch
 10
0.0
 20
0.0
 30
0.0
210
0.0
220
0.0
230
1.0
  2
SOLID
 70
               1
 71
               1
 91
        1
 92
        1
 93
        1
 72
               2
 10
4582.0518226121112
 20
5100.0001422077821
 40
1.9998779296875
 50
0.0
 51
360.0
 73
               0
 97
        1
330
78
 75
               0
 76
               1
 98
        1
 10
0.0
 20
0.0
  0
CIRCLE
  5
7A
102
{ACAD_REACTORS
330
7B
102
}
100
AcDbEntity
  8
0
370
              -2
390
0
  6
Continuous
 62
               0
100
AcDbCircle
 10
4737.0518226121103
 20
5100.0001422077821
 30
0.0
 40
1.9998779296875
  0
HATCH
  5
7B
100
AcDbEntity
  8
0
370
              -2
390
0
  6
Continuous
 62
               0
100
AcDbHatch
 10
0.0
 20
0.0
 30
0.0
210
0.0
220
0.0
230
1.0
  2
SOLID
 70
               1
 71
               1
 91
        1
 92
        1
 93
        1
 72
               2
 10
4737.0518226121103
 20
5100.0001422077821
 40
1.9998779296875
 50
0.0
 51
360.0
 73
               0
 97
        1
330
7A
 75
               0
 76
               1
 98
        1
 10
0.0
 20
0.0
  0
MTEXT
  5
7C
100
AcDbEntity
  8
0
390
0
 62
               0
100
AcDbMText
 10
4635.7393209299353
 20
5133.8777593952818
 30
0.0
 40
24.432617187500004
 41
0.0
 71
               1
 72
               1
  1
155
  7
ＭＳ ゴシック
 73
               1
 44
0.7828267384257843
  0
POINT
  5
7D
100
AcDbEntity
  8
Defpoints
370
               0
390
0
 62
               0
100
AcDbPoint
 10
4737.0518226121103
 20
5000.0182090549561
 30
0.0
  0
POINT
  5
7E
100
AcDbEntity
  8
Defpoints
370
               0
390
0
 62
               0
100
AcDbPoint
 10
4582.0518226121112
 20
4950.5187968205992
 30
0.0
  0
POINT
  5
7F
100
AcDbEntity
  8
Defpoints
370
               0
390
0
 62
               0
100
AcDbPoint
 10
4582.0518226121112
 20
5100.0001422077821
 30
0.0
  0
ENDBLK
  5
80
100
AcDbEntity
  8
notes
390
0
100
AcDbBlockEnd
  0
BLOCK
  5
81
100
AcDbEntity
  8
notes
390
0
100
AcDbBlockBegin
  2
*D6
 70
               1
 10
0.0
 20
0.0
 30
0.0
  3
*D6
  1

  0
LINE
  5
82
100
AcDbEntity
  8
0
370
              -2
390
0
  6
Continuous
 62
               0
100
AcDbLine
 10
5123.826923415706
 20
5024.9999999999982
 30
0.0
 11
5123.826923415706
 21
5099.9999999999982
 31
0.0
  0
LINE
  5
83
100
AcDbEntity
  8
0
370
              -2
390
0
  6
Continuous
 62
               0
100
AcDbLine
 10
5553.8269234157042
 20
5024.9999999999982
 30
0.0
 11
5553.8269234157042
 21
5099.9999999999982
 31
0.0
  0
LINE
  5
84
100
AcDbEntity
  8
0
370
              -2
390
0
  6
Continuous
 62
               0
100
AcDbLine
 10
5123.826923415706
 20
5099.9999999999982
 30
0.0
 11
5553.8269234157042
 21
5099.9999999999982
 31
0.0
  0
CIRCLE
  5
85
102
{ACAD_REACTORS
330
86
102
}
100
AcDbEntity
  8
0
370
              -2
390
0
  6
Continuous
 62
               0
100
AcDbCircle
 10
5123.826923415706
 20
5099.9999999999982
 30
0.0
 40
1.9998779296875
  0
HATCH
  5
86
100
AcDbEntity
  8
0
370
              -2
390
0
  6
Continuous
 62
               0
100
AcDbHatch
 10
0.0
 20
0.0
 30
0.0
210
0.0
220
0.0
230
1.0
  2
SOLID
 70
               1
 71
               1
 91
        1
 92
        1
 93
        1
 72
               2
 10
5123.826923415706
 20
5099.9999999999982
 40
1.9998779296875
 50
0.0
 51
360.0
 73
               0
 97
        1
330
85
 75
               0
 76
               1
 98
        1
 10
0.0
 20
0.0
  0
CIRCLE
  5
87
102
{ACAD_REACTORS
330
88
102
}
100
AcDbEntity
  8
0
370
              -2
390
0
  6
Continuous
 62
               0
100
AcDbCircle
 10
5553.8269234157042
 20
5099.9999999999982
 30
0.0
 40
1.9998779296875
  0
HATCH
  5
88
100
AcDbEntity
  8
0
370
              -2
390
0
  6
Continuous
 62
               0
100
AcDbHatch
 10
0.0
 20
0.0
 30
0.0
210
0.0
220
0.0
230
1.0
  2
SOLID
 70
               1
 71
               1
 91
        1
 92
        1
 93
        1
 72
               2
 10
5553.8269234157042
 20
5099.9999999999982
 40
1.9998779296875
 50
0.0
 51
360.0
 73
               0
 97
        1
330
87
 75
               0
 76
               1
 98
        1
 10
0.0
 20
0.0
  0
MTEXT
  5
89
100
AcDbEntity
  8
0
390
0
 62
               0
100
AcDbMText
 10
5315.0144217335292
 20
5133.8776171874979
 30
0.0
 40
24.432617187500004
 41
0.0
 71
               1
 72
               1
  1
430
  7
ＭＳ ゴシック
 73
               1
 44
0.7828267384257843
  0
POINT
  5
8A
100
AcDbEntity
  8
Defpoints
370
               0
390
0
 62
               0
100
AcDbPoint
 10
5553.8269234157042
 20
4999.9999999999982
 30
0.0
  0
POINT
  5
8B
100
AcDbEntity
  8
Defpoints
370
               0
390
0
 62
               0
100
AcDbPoint
 10
5123.826923415706
 20
4999.9999999999982
 30
0.0
  0
POINT
  5
8C
100
AcDbEntity
  8
Defpoints
370
               0
390
0
 62
               0
100
AcDbPoint
 10
5123.826923415706
 20
5099.9999999999982
 30
0.0
  0
ENDBLK
  5
8D
100
AcDbEntity
  8
notes
390
0
100
AcDbBlockEnd
  0
BLOCK
  5
8E
100
AcDbEntity
  8
notes
390
0
100
AcDbBlockBegin
  2
*D7
 70
               1
 10
0.0
 20
0.0
 30
0.0
  3
*D7
  1

  0
LINE
  5
8F
100
AcDbEntity
  8
0
370
              -2
390
0
  6
Continuous
 62
               0
100
AcDbLine
 10
4172.0251268262646
 20
4999.9980132781338
 30
0.0
 11
4047.0251268262646
 21
4999.9980132781338
 31
0.0
  0
LINE
  5
90
100
AcDbEntity
  8
0
370
              -2
390
0
  6
Continuous
 62
               0
100
AcDbLine
 10
4364.6179006384955
 20
4579.9980132781357
 30
0.0
 11
4047.0251268262646
 21
4579.9980132781357
 31
0.0
  0
LINE
  5
91
100
AcDbEntity
  8
0
370
              -2
390
0
  6
Continuous
 62
               0
100
AcDbLine
 10
4047.0251268262646
 20
4999.9980132781338
 30
0.0
 11
4047.0251268262646
 21
4579.9980132781357
 31
0.0
  0
CIRCLE
  5
92
102
{ACAD_REACTORS
330
93
102
}
100
AcDbEntity
  8
0
370
              -2
390
0
  6
Continuous
 62
               0
100
AcDbCircle
 10
4047.0251268262646
 20
4999.9980132781338
 30
0.0
 40
1.9998779296875
  0
HATCH
  5
93
100
AcDbEntity
  8
0
370
              -2
390
0
  6
Continuous
 62
               0
100
AcDbHatch
 10
0.0
 20
0.0
 30
0.0
210
0.0
220
0.0
230
1.0
  2
SOLID
 70
               1
 71
               1
 91
        1
 92
        1
 93
        1
 72
               2
 10
4047.0251268262646
 20
4999.9980132781338
 40
1.9998779296875
 50
0.0
 51
360.0
 73
               0
 97
        1
330
92
 75
               0
 76
               1
 98
        1
 10
0.0
 20
0.0
  0
CIRCLE
  5
94
102
{ACAD_REACTORS
330
95
102
}
100
AcDbEntity
  8
0
370
              -2
390
0
  6
Continuous
 62
               0
100
AcDbCircle
 10
4047.0251268262646
 20
4579.9980132781357
 30
0.0
 40
1.9998779296875
  0
HATCH
  5
95
100
AcDbEntity
  8
0
370
              -2
390
0
  6
Continuous
 62
               0
100
AcDbHatch
 10
0.0
 20
0.0
 30
0.0
210
0.0
220
0.0
230
1.0
  2
SOLID
 70
               1
 71
               1
 91
        1
 92
        1
 93
        1
 72
               2
 10
4047.0251268262646
 20
4579.9980132781357
 40
1.9998779296875
 50
0.0
 51
360.0
 73
               0
 97
        1
330
94
 75
               0
 76
               1
 98
        1
 10
0.0
 20
0.0
  0
MTEXT
  5
96
100
AcDbEntity
  8
0
390
0
 62
               0
100
AcDbMText
 10
4013.1475096387649
 20
4766.1855115959597
 30
0.0
 40
24.432617187500004
 41
0.0
 71
               1
 72
               1
  1
420
  7
ＭＳ ゴシック
 11
0.0
 21
1.0
 31
0.0
 73
               1
 44
0.7828267384257843
  0
POINT
  5
97
100
AcDbEntity
  8
Defpoints
370
               0
390
0
 62
               0
100
AcDbPoint
 10
4389.6179006384955
 20
4579.9980132781357
 30
0.0
  0
POINT
  5
98
100
AcDbEntity
  8
Defpoints
370
               0
390
0
 62
               0
100
AcDbPoint
 10
4197.0251268262646
 20
4999.9980132781338
 30
0.0
  0
POINT
  5
99
100
AcDbEntity
  8
Defpoints
370
               0
390
0
 62
               0
100
AcDbPoint
 10
4047.0251268262646
 20
4999.9980132781338
 30
0.0
  0
ENDBLK
  5
9A
100
AcDbEntity
  8
notes
390
0
100
AcDbBlockEnd
  0
BLOCK
  5
9B
100
AcDbEntity
  8
notes
390
0
100
AcDbBlockBegin
  2
*D8
 70
               1
 10
0.0
 20
0.0
 30
0.0
  3
*D8
  1

  0
LINE
  5
9C
100
AcDbEntity
  8
0
370
              -2
390
0
  6
Continuous
 62
               0
100
AcDbLine
 10
4172.0251268262646
 20
4999.9980132781338
 30
0.0
 11
4097.0251268262646
 21
4999.9980132781338
 31
0.0
  0
LINE
  5
9D
100
AcDbEntity
  8
0
370
              -2
390
0
  6
Continuous
 62
               0
100
AcDbLine
 10
4172.0463936031538
 20
4619.9992399911271
 30
0.0
 11
4097.0251268262646
 21
4619.9992399911271
 31
0.0
  0
LINE
  5
9E
100
AcDbEntity
  8
0
370
              -2
390
0
  6
Continuous
 62
               0
100
AcDbLine
 10
4097.0251268262646
 20
4999.9980132781338
 30
0.0
 11
4097.0251268262646
 21
4619.9992399911271
 31
0.0
  0
CIRCLE
  5
9F
102
{ACAD_REACTORS
330
A0
102
}
100
AcDbEntity
  8
0
370
              -2
390
0
  6
Continuous
 62
               0
100
AcDbCircle
 10
4097.0251268262646
 20
4999.9980132781338
 30
0.0
 40
1.9998779296875
  0
HATCH
  5
A0
100
AcDbEntity
  8
0
370
              -2
390
0
  6
Continuous
 62
               0
100
AcDbHatch
 10
0.0
 20
0.0
 30
0.0
210
0.0
220
0.0
230
1.0
  2
SOLID
 70
               1
 71
               1
 91
        1
 92
        1
 93
        1
 72
               2
 10
4097.0251268262646
 20
4999.9980132781338
 40
1.9998779296875
 50
0.0
 51
360.0
 73
               0
 97
        1
330
9F
 75
               0
 76
               1
 98
        1
 10
0.0
 20
0.0
  0
CIRCLE
  5
A1
102
{ACAD_REACTORS
330
A2
102
}
100
AcDbEntity
  8
0
370
              -2
390
0
  6
Continuous
 62
               0
100
AcDbCircle
 10
4097.0251268262646
 20
4619.9992399911271
 30
0.0
 40
1.9998779296875
  0
HATCH
  5
A2
100
AcDbEntity
  8
0
370
              -2
390
0
  6
Continuous
 62
               0
100
AcDbHatch
 10
0.0
 20
0.0
 30
0.0
210
0.0
220
0.0
230
1.0
  2
SOLID
 70
               1
 71
               1
 91
        1
 92
        1
 93
        1
 72
               2
 10
4097.0251268262646
 20
4619.9992399911271
 40
1.9998779296875
 50
0.0
 51
360.0
 73
               0
 97
        1
330
A1
 75
               0
 76
               1
 98
        1
 10
0.0
 20
0.0
  0
MTEXT
  5
A3
100
AcDbEntity
  8
0
390
0
 62
               0
100
AcDbMText
 10
4063.1475096387649
 20
4786.1861249524554
 30
0.0
 40
24.432617187500004
 41
0.0
 71
               1
 72
               1
  1
380
  7
ＭＳ ゴシック
 11
0.0
 21
1.0
 31
0.0
 73
               1
 44
0.7828267384257843
  0
POINT
  5
A4
100
AcDbEntity
  8
Defpoints
370
               0
390
0
 62
               0
100
AcDbPoint
 10
4197.0463936031538
 20
4619.9992399911271
 30
0.0
  0
POINT
  5
A5
100
AcDbEntity
  8
Defpoints
370
               0
390
0
 62
               0
100
AcDbPoint
 10
4197.0251268262646
 20
4999.9980132781338
 30
0.0
  0
POINT
  5
A6
100
AcDbEntity
  8
Defpoints
370
               0
390
0
 62
               0
100
AcDbPoint
 10
4097.0251268262646
 20
4999.9980132781338
 30
0.0
  0
ENDBLK
  5
A7
100
AcDbEntity
  8
notes
390
0
100
AcDbBlockEnd
  0
BLOCK
  5
A8
100
AcDbEntity
  8
notes
390
0
100
AcDbBlockBegin
  2
*D9
 70
               1
 10
0.0
 20
0.0
 30
0.0
  3
*D9
  1

  0
LINE
  5
A9
100
AcDbEntity
  8
0
370
              -2
390
0
  6
Continuous
 62
               0
100
AcDbLine
 10
5313.0257122479698
 20
4113.3901805929036
 30
0.0
 11
5293.0257122479698
 21
4113.3901805929036
 31
0.0
  0
LINE
  5
AA
100
AcDbEntity
  8
0
370
              -2
390
0
  6
Continuous
 62
               0
100
AcDbLine
 10
5313.0257122479698
 20
4023.3901805929027
 30
0.0
 11
5293.0257122479698
 21
4023.3901805929027
 31
0.0
  0
LINE
  5
AB
100
AcDbEntity
  8
0
370
              -2
390
0
  6
Continuous
 62
               0
100
AcDbLine
 10
5293.0257122479698
 20
4113.3901805929036
 30
0.0
 11
5293.0257122479698
 21
4247.8957340923689
 31
0.0
  0
LINE
  5
AC
100
AcDbEntity
  8
0
370
              -2
390
0
  6
Continuous
 62
               0
100
AcDbLine
 10
5293.0257122479698
 20
4113.3901805929036
 30
0.0
 11
5293.0257122479698
 21
4023.3901805929027
 31
0.0
  0
CIRCLE
  5
AD
102
{ACAD_REACTORS
330
AE
102
}
100
AcDbEntity
  8
0
370
              -2
390
0
  6
Continuous
 62
               0
100
AcDbCircle
 10
5293.0257122479698
 20
4113.3901805929036
 30
0.0
 40
1.9998779296875
  0
HATCH
  5
AE
100
AcDbEntity
  8
0
370
              -2
390
0
  6
Continuous
 62
               0
100
AcDbHatch
 10
0.0
 20
0.0
 30
0.0
210
0.0
220
0.0
230
1.0
  2
SOLID
 70
               1
 71
               1
 91
        1
 92
        1
 93
        1
 72
               2
 10
5293.0257122479698
 20
4113.3901805929036
 40
1.9998779296875
 50
0.0
 51
360.0
 73
               0
 97
        1
330
AD
 75
               0
 76
               1
 98
        1
 10
0.0
 20
0.0
  0
CIRCLE
  5
AF
102
{ACAD_REACTORS
330
B0
102
}
100
AcDbEntity
  8
0
370
              -2
390
0
  6
Continuous
 62
               0
100
AcDbCircle
 10
5293.0257122479698
 20
4023.3901805929027
 30
0.0
 40
1.9998779296875
  0
HATCH
  5
B0
100
AcDbEntity
  8
0
370
              -2
390
0
  6
Continuous
 62
               0
100
AcDbHatch
 10
0.0
 20
0.0
 30
0.0
210
0.0
220
0.0
230
1.0
  2
SOLID
 70
               1
 71
               1
 91
        1
 92
        1
 93
        1
 72
               2
 10
5293.0257122479698
 20
4023.3901805929027
 40
1.9998779296875
 50
0.0
 51
360.0
 73
               0
 97
        1
330
AF
 75
               0
 76
               1
 98
        1
 10
0.0
 20
0.0
  0
MTEXT
  5
B1
100
AcDbEntity
  8
0
390
0
 62
               0
100
AcDbMText
 10
5259.1480950604691
 20
4120.8957340923689
 30
0.0
 40
24.432617187500004
 41
0.0
 71
               1
 72
               1
  1
90(深さ)
  7
ＭＳ ゴシック
 11
0.0
 21
1.0
 31
0.0
 73
               1
 44
0.7828267384257843
  0
POINT
  5
B2
100
AcDbEntity
  8
Defpoints
370
               0
390
0
 62
               0
100
AcDbPoint
 10
5288.0257122479698
 20
4023.3901805929027
 30
0.0
  0
POINT
  5
B3
100
AcDbEntity
  8
Defpoints
370
               0
390
0
 62
               0
100
AcDbPoint
 10
5288.0257122479698
 20
4113.3901805929036
 30
0.0
  0
POINT
  5
B4
100
AcDbEntity
  8
Defpoints
370
               0
390
0
 62
               0
100
AcDbPoint
 10
5293.0257122479698
 20
4113.3901805929036
 30
0.0
  0
ENDBLK
  5
B5
100
AcDbEntity
  8
notes
390
0
100
AcDbBlockEnd
  0
BLOCK
  5
B6
100
AcDbEntity
  8
notes
390
0
100
AcDbBlockBegin
  2
*D10
 70
               1
 10
0.0
 20
0.0
 30
0.0
  3
*D10
  1

  0
LINE
  5
B7
100
AcDbEntity
  8
0
370
              -2
390
0
  6
Continuous
 62
               0
100
AcDbLine
 10
4763.9518226121108
 20
5000.0174235570048
 30
0.0
 11
4887.0518226121103
 21
5000.0174235570048
 31
0.0
  0
LINE
  5
B8
100
AcDbEntity
  8
0
370
              -2
390
0
  6
Continuous
 62
               0
100
AcDbLine
 10
4763.9518226121108
 20
4645.0174235570066
 30
0.0
 11
4887.0518226121103
 21
4645.0174235570066
 31
0.0
  0
LINE
  5
B9
100
AcDbEntity
  8
0
370
              -2
390
0
  6
Continuous
 62
               0
100
AcDbLine
 10
4887.0518226121103
 20
5000.0174235570048
 30
0.0
 11
4887.0518226121103
 21
4645.0174235570066
 31
0.0
  0
CIRCLE
  5
BA
102
{ACAD_REACTORS
330
BB
102
}
100
AcDbEntity
  8
0
370
              -2
390
0
  6
Continuous
 62
               0
100
AcDbCircle
 10
4887.0518226121103
 20
5000.0174235570048
 30
0.0
 40
1.9998779296875
  0
HATCH
  5
BB
100
AcDbEntity
  8
0
370
              -2
390
0
  6
Continuous
 62
               0
100
AcDbHatch
 10
0.0
 20
0.0
 30
0.0
210
0.0
220
0.0
230
1.0
  2
SOLID
 70
               1
 71
               1
 91
        1
 92
        1
 93
        1
 72
               2
 10
4887.0518226121103
 20
5000.0174235570048
 40
1.9998779296875
 50
0.0
 51
360.0
 73
               0
 97
        1
330
BA
 75
               0
 76
               1
 98
        1
 10
0.0
 20
0.0
  0
CIRCLE
  5
BC
102
{ACAD_REACTORS
330
BD
102
}
100
AcDbEntity
  8
0
370
              -2
390
0
  6
Continuous
 62
               0
100
AcDbCircle
 10
4887.0518226121103
 20
4645.0174235570066
 30
0.0
 40
1.9998779296875
  0
HATCH
  5
BD
100
AcDbEntity
  8
0
370
              -2
390
0
  6
Continuous
 62
               0
100
AcDbHatch
 10
0.0
 20
0.0
 30
0.0
210
0.0
220
0.0
230
1.0
  2
SOLID
 70
               1
 71
               1
 91
        1
 92
        1
 93
        1
 72
               2
 10
4887.0518226121103
 20
4645.0174235570066
 40
1.9998779296875
 50
0.0
 51
360.0
 73
               0
 97
        1
330
BC
 75
               0
 76
               1
 98
        1
 10
0.0
 20
0.0
  0
MTEXT
  5
BE
100
AcDbEntity
  8
0
390
0
 62
               0
100
AcDbMText
 10
4853.1742054246106
 20
4798.7049218748298
 30
0.0
 40
24.432617187500004
 41
0.0
 71
               1
 72
               1
  1
355
  7
ＭＳ ゴシック
 11
0.0
 21
1.0
 31
0.0
 73
               1
 44
0.7828267384257843
  0
POINT
  5
BF
100
AcDbEntity
  8
Defpoints
370
               0
390
0
 62
               0
100
AcDbPoint
 10
4738.9518226121108
 20
4645.0174235570066
 30
0.0
  0
POINT
  5
C0
100
AcDbEntity
  8
Defpoints
370
               0
390
0
 62
               0
100
AcDbPoint
 10
4738.9518226121108
 20
5000.0174235570048
 30
0.0
  0
POINT
  5
C1
100
AcDbEntity
  8
Defpoints
370
               0
390
0
 62
               0
100
AcDbPoint
 10
4887.0518226121103
 20
5000.0174235570048
 30
0.0
  0
ENDBLK
  5
C2
100
AcDbEntity
  8
notes
390
0
100
AcDbBlockEnd
  0
BLOCK
  5
C3
100
AcDbEntity
  8
notes
390
0
100
AcDbBlockBegin
  2
*D11
 70
               1
 10
0.0
 20
0.0
 30
0.0
  3
*D11
  1

  0
LINE
  5
C4
100
AcDbEntity
  8
0
370
              -2
390
0
  6
Continuous
 62
               0
100
AcDbLine
 10
4627.5524103777543
 20
4930.0182090549561
 30
0.0
 11
4837.0518226121112
 21
4930.0182090549561
 31
0.0
  0
LINE
  5
C5
100
AcDbEntity
  8
0
370
              -2
390
0
  6
Continuous
 62
               0
100
AcDbLine
 10
4762.0518226121103
 20
5000.0182090549561
 30
0.0
 11
4837.0518226121112
 21
5000.0182090549561
 31
0.0
  0
LINE
  5
C6
100
AcDbEntity
  8
0
370
              -2
390
0
  6
Continuous
 62
               0
100
AcDbLine
 10
4837.0518226121112
 20
4930.0182090549561
 30
0.0
 11
4837.0518226121112
 21
5000.0182090549561
 31
0.0
  0
CIRCLE
  5
C7
102
{ACAD_REACTORS
330
C8
102
}
100
AcDbEntity
  8
0
370
              -2
390
0
  6
Continuous
 62
               0
100
AcDbCircle
 10
4837.0518226121112
 20
4930.0182090549561
 30
0.0
 40
1.9998779296875
  0
HATCH
  5
C8
100
AcDbEntity
  8
0
370
              -2
390
0
  6
Continuous
 62
               0
100
AcDbHatch
 10
0.0
 20
0.0
 30
0.0
210
0.0
220
0.0
230
1.0
  2
SOLID
 70
               1
 71
               1
 91
        1
 92
        1
 93
        1
 72
               2
 10
4837.0518226121112
 20
4930.0182090549561
 40
1.9998779296875
 50
0.0
 51
360.0
 73
               0
 97
        1
330
C7
 75
               0
 76
               1
 98
        1
 10
0.0
 20
0.0
  0
CIRCLE
  5
C9
102
{ACAD_REACTORS
330
CA
102
}
100
AcDbEntity
  8
0
370
              -2
390
0
  6
Continuous
 62
               0
100
AcDbCircle
 10
4837.0518226121112
 20
5000.0182090549561
 30
0.0
 40
1.9998779296875
  0
HATCH
  5
CA
100
AcDbEntity
  8
0
370
              -2
390
0
  6
Continuous
 62
               0
100
AcDbHatch
 10
0.0
 20
0.0
 30
0.0
210
0.0
220
0.0
230
1.0
  2
SOLID
 70
               1
 71
               1
 91
        1
 92
        1
 93
        1
 72
               2
 10
4837.0518226121112
 20
5000.0182090549561
 40
1.9998779296875
 50
0.0
 51
360.0
 73
               0
 97
        1
330
C9
 75
               0
 76
               1
 98
        1
 10
0.0
 20
0.0
  0
MTEXT
  5
CB
100
AcDbEntity
  8
0
390
0
 62
               0
100
AcDbMText
 10
4803.1742054246106
 20
4949.1432090549561
 30
0.0
 40
24.432617187500004
 41
0.0
 71
               1
 72
               1
  1
70
  7
ＭＳ ゴシック
 11
0.0
 21
1.0
 31
0.0
 73
               1
 44
0.7828267384257843
  0
POINT
  5
CC
100
AcDbEntity
  8
Defpoints
370
               0
390
0
 62
               0
100
AcDbPoint
 10
4737.0518226121103
 20
5000.0182090549561
 30
0.0
  0
POINT
  5
CD
100
AcDbEntity
  8
Defpoints
370
               0
390
0
 62
               0
100
AcDbPoint
 10
4602.5524103777543
 20
4930.0182090549561
 30
0.0
  0
POINT
  5
CE
100
AcDbEntity
  8
Defpoints
370
               0
390
0
 62
               0
100
AcDbPoint
 10
4837.0518226121112
 20
4930.0182090549561
 30
0.0
  0
ENDBLK
  5
CF
100
AcDbEntity
  8
notes
390
0
100
AcDbBlockEnd
  0
BLOCK
  5
D0
100
AcDbEntity
  8
notes
390
0
100
AcDbBlockBegin
  2
*D12
 70
               1
 10
0.0
 20
0.0
 30
0.0
  3
*D12
  1

  0
LINE
  5
D1
100
AcDbEntity
  8
0
370
              -2
390
0
  6
Continuous
 62
               0
100
AcDbLine
 10
4762.0251268262655
 20
4113.3901805929036
 30
0.0
 11
4843.9518226121108
 21
4113.3901805929036
 31
0.0
  0
LINE
  5
D2
100
AcDbEntity
  8
0
370
              -2
390
0
  6
Continuous
 62
               0
100
AcDbLine
 10
4737.0269234157049
 20
3988.3827756076898
 30
0.0
 11
4843.9518226121108
 21
3988.3827756076898
 31
0.0
  0
LINE
  5
D3
100
AcDbEntity
  8
0
370
              -2
390
0
  6
Continuous
 62
               0
100
AcDbLine
 10
4843.9518226121108
 20
4113.3901805929036
 30
0.0
 11
4843.9518226121108
 21
3988.3827756076898
 31
0.0
  0
CIRCLE
  5
D4
102
{ACAD_REACTORS
330
D5
102
}
100
AcDbEntity
  8
0
370
              -2
390
0
  6
Continuous
 62
               0
100
AcDbCircle
 10
4843.9518226121108
 20
4113.3901805929036
 30
0.0
 40
1.9998779296875
  0
HATCH
  5
D5
100
AcDbEntity
  8
0
370
              -2
390
0
  6
Continuous
 62
               0
100
AcDbHatch
 10
0.0
 20
0.0
 30
0.0
210
0.0
220
0.0
230
1.0
  2
SOLID
 70
               1
 71
               1
 91
        1
 92
        1
 93
        1
 72
               2
 10
4843.9518226121108
 20
4113.3901805929036
 40
1.9998779296875
 50
0.0
 51
360.0
 73
               0
 97
        1
330
D4
 75
               0
 76
               1
 98
        1
 10
0.0
 20
0.0
  0
CIRCLE
  5
D6
102
{ACAD_REACTORS
330
D7
102
}
100
AcDbEntity
  8
0
370
              -2
390
0
  6
Continuous
 62
               0
100
AcDbCircle
 10
4843.9518226121108
 20
3988.3827756076898
 30
0.0
 40
1.9998779296875
  0
HATCH
  5
D7
100
AcDbEntity
  8
0
370
              -2
390
0
  6
Continuous
 62
               0
100
AcDbHatch
 10
0.0
 20
0.0
 30
0.0
210
0.0
220
0.0
230
1.0
  2
SOLID
 70
               1
 71
               1
 91
        1
 92
        1
 93
        1
 72
               2
 10
4843.9518226121108
 20
3988.3827756076898
 40
1.9998779296875
 50
0.0
 51
360.0
 73
               0
 97
        1
330
D6
 75
               0
 76
               1
 98
        1
 10
0.0
 20
0.0
  0
MTEXT
  5
D8
100
AcDbEntity
  8
0
390
0
 62
               0
100
AcDbMText
 10
4810.0742054246102
 20
4027.0739764181212
 30
0.0
 40
24.432617187500004
 41
0.0
 71
               1
 72
               1
  1
125
  7
ＭＳ ゴシック
 11
0.0
 21
1.0
 31
0.0
 73
               1
 44
0.7828267384257843
  0
POINT
  5
D9
100
AcDbEntity
  8
Defpoints
370
               0
390
0
 62
               0
100
AcDbPoint
 10
4712.0269234157049
 20
3988.3827756076898
 30
0.0
  0
POINT
  5
DA
100
AcDbEntity
  8
Defpoints
370
               0
390
0
 62
               0
100
AcDbPoint
 10
4737.0251268262655
 20
4113.3901805929036
 30
0.0
  0
POINT
  5
DB
100
AcDbEntity
  8
Defpoints
370
               0
390
0
 62
               0
100
AcDbPoint
 10
4843.9518226121108
 20
4113.3901805929036
 30
0.0
  0
ENDBLK
  5
DC
100
AcDbEntity
  8
notes
390
0
100
AcDbBlockEnd
  0
BLOCK
  5
DD
100
AcDbEntity
  8
notes
390
0
100
AcDbBlockBegin
  2
*D13
 70
               1
 10
0.0
 20
0.0
 30
0.0
  3
*D13
  1

  0
LINE
  5
DE
100
AcDbEntity
  8
0
370
              -2
390
0
  6
Continuous
 62
               0
100
AcDbLine
 10
4712.0269234157049
 20
3963.3827756076898
 30
0.0
 11
4712.0269234157049
 21
3838.3827756076898
 31
0.0
  0
LINE
  5
DF
100
AcDbEntity
  8
0
370
              -2
390
0
  6
Continuous
 62
               0
100
AcDbLine
 10
4222.0269234157049
 20
3963.3827756076898
 30
0.0
 11
4222.0269234157049
 21
3838.3827756076898
 31
0.0
  0
LINE
  5
E0
100
AcDbEntity
  8
0
370
              -2
390
0
  6
Continuous
 62
               0
100
AcDbLine
 10
4712.0269234157049
 20
3838.3827756076898
 30
0.0
 11
4222.0269234157049
 21
3838.3827756076898
 31
0.0
  0
CIRCLE
  5
E1
102
{ACAD_REACTORS
330
E2
102
}
100
AcDbEntity
  8
0
370
              -2
390
0
  6
Continuous
 62
               0
100
AcDbCircle
 10
4712.0269234157049
 20
3838.3827756076898
 30
0.0
 40
1.9998779296875
  0
HATCH
  5
E2
100
AcDbEntity
  8
0
370
              -2
390
0
  6
Continuous
 62
               0
100
AcDbHatch
 10
0.0
 20
0.0
 30
0.0
210
0.0
220
0.0
230
1.0
  2
SOLID
 70
               1
 71
               1
 91
        1
 92
        1
 93
        1
 72
               2
 10
4712.0269234157049
 20
3838.3827756076898
 40
1.9998779296875
 50
0.0
 51
360.0
 73
               0
 97
        1
330
E1
 75
               0
 76
               1
 98
        1
 10
0.0
 20
0.0
  0
CIRCLE
  5
E3
102
{ACAD_REACTORS
330
E4
102
}
100
AcDbEntity
  8
0
370
              -2
390
0
  6
Continuous
 62
               0
100
AcDbCircle
 10
4222.0269234157049
 20
3838.3827756076898
 30
0.0
 40
1.9998779296875
  0
HATCH
  5
E4
100
AcDbEntity
  8
0
370
              -2
390
0
  6
Continuous
 62
               0
100
AcDbHatch
 10
0.0
 20
0.0
 30
0.0
210
0.0
220
0.0
230
1.0
  2
SOLID
 70
               1
 71
               1
 91
        1
 92
        1
 93
        1
 72
               2
 10
4222.0269234157049
 20
3838.3827756076898
 40
1.9998779296875
 50
0.0
 51
360.0
 73
               0
 97
        1
330
E3
 75
               0
 76
               1
 98
        1
 10
0.0
 20
0.0
  0
MTEXT
  5
E5
100
AcDbEntity
  8
0
390
0
 62
               0
100
AcDbMText
 10
4437.9626285970871
 20
3872.2603927951895
 30
0.0
 40
24.432617187500004
 41
0.0
 71
               1
 72
               1
  1
490
  7
ＭＳ ゴシック
 73
               1
 44
0.7828267384257843
  0
POINT
  5
E6
100
AcDbEntity
  8
Defpoints
370
               0
390
0
 62
               0
100
AcDbPoint
 10
4222.0269234157049
 20
3988.3827756076898
 30
0.0
  0
POINT
  5
E7
100
AcDbEntity
  8
Defpoints
370
               0
390
0
 62
               0
100
AcDbPoint
 10
4712.0269234157049
 20
3988.3827756076898
 30
0.0
  0
POINT
  5
E8
100
AcDbEntity
  8
Defpoints
370
               0
390
0
 62
               0
100
AcDbPoint
 10
4712.0269234157049
 20
3838.3827756076898
 30
0.0
  0
ENDBLK
  5
E9
100
AcDbEntity
  8
notes
390
0
100
AcDbBlockEnd
  0
BLOCK
  5
EA
100
AcDbEntity
  8
notes
390
0
100
AcDbBlockBegin
  2
*D14
 70
               1
 10
0.0
 20
0.0
 30
0.0
  3
*D14
  1

  0
LINE
  5
EB
100
AcDbEntity
  8
0
370
              -2
390
0
  6
Continuous
 62
               0
100
AcDbLine
 10
4197.0251268262646
 20
4088.3901805929036
 30
0.0
 11
4197.0251268262646
 21
3888.3827756076903
 31
0.0
  0
LINE
  5
EC
100
AcDbEntity
  8
0
370
              -2
390
0
  6
Continuous
 62
               0
100
AcDbLine
 10
4407.0251268262664
 20
3968.3901805929031
 30
0.0
 11
4407.0251268262664
 21
3888.3827756076903
 31
0.0
  0
LINE
  5
ED
100
AcDbEntity
  8
0
370
              -2
390
0
  6
Continuous
 62
               0
100
AcDbLine
 10
4197.0251268262646
 20
3888.3827756076903
 30
0.0
 11
4407.0251268262664
 21
3888.3827756076903
 31
0.0
  0
CIRCLE
  5
EE
102
{ACAD_REACTORS
330
EF
102
}
100
AcDbEntity
  8
0
370
              -2
390
0
  6
Continuous
 62
               0
100
AcDbCircle
 10
4197.0251268262646
 20
3888.3827756076903
 30
0.0
 40
1.9998779296875
  0
HATCH
  5
EF
100
AcDbEntity
  8
0
370
              -2
390
0
  6
Continuous
 62
               0
100
AcDbHatch
 10
0.0
 20
0.0
 30
0.0
210
0.0
220
0.0
230
1.0
  2
SOLID
 70
               1
 71
               1
 91
        1
 92
        1
 93
        1
 72
               2
 10
4197.0251268262646
 20
3888.3827756076903
 40
1.9998779296875
 50
0.0
 51
360.0
 73
               0
 97
        1
330
EE
 75
               0
 76
               1
 98
        1
 10
0.0
 20
0.0
  0
CIRCLE
  5
F0
102
{ACAD_REACTORS
330
F1
102
}
100
AcDbEntity
  8
0
370
              -2
390
0
  6
Continuous
 62
               0
100
AcDbCircle
 10
4407.0251268262664
 20
3888.3827756076903
 30
0.0
 40
1.9998779296875
  0
HATCH
  5
F1
100
AcDbEntity
  8
0
370
              -2
390
0
  6
Continuous
 62
               0
100
AcDbHatch
 10
0.0
 20
0.0
 30
0.0
210
0.0
220
0.0
230
1.0
  2
SOLID
 70
               1
 71
               1
 91
        1
 92
        1
 93
        1
 72
               2
 10
4407.0251268262664
 20
3888.3827756076903
 40
1.9998779296875
 50
0.0
 51
360.0
 73
               0
 97
        1
330
F0
 75
               0
 76
               1
 98
        1
 10
0.0
 20
0.0
  0
MTEXT
  5
F2
100
AcDbEntity
  8
0
390
0
 62
               0
100
AcDbMText
 10
4278.2126251440905
 20
3922.2603927951905
 30
0.0
 40
24.432617187500004
 41
0.0
 71
               1
 72
               1
  1
210
  7
ＭＳ ゴシック
 73
               1
 44
0.7828267384257843
  0
POINT
  5
F3
100
AcDbEntity
  8
Defpoints
370
               0
390
0
 62
               0
100
AcDbPoint
 10
4407.0251268262664
 20
3993.3901805929031
 30
0.0
  0
POINT
  5
F4
100
AcDbEntity
  8
Defpoints
370
               0
390
0
 62
               0
100
AcDbPoint
 10
4197.0251268262646
 20
4113.3901805929036
 30
0.0
  0
POINT
  5
F5
100
AcDbEntity
  8
Defpoints
370
               0
390
0
 62
               0
100
AcDbPoint
 10
4197.0251268262646
 20
3888.3827756076903
 30
0.0
  0
ENDBLK
  5
F6
100
AcDbEntity
  8
notes
390
0
100
AcDbBlockEnd
  0
BLOCK
  5
F7
100
AcDbEntity
  8
notes
390
0
100
AcDbBlockBegin
  2
*D15
 70
               1
 10
0.0
 20
0.0
 30
0.0
  3
*D15
  1

  0
LINE
  5
F8
100
AcDbEntity
  8
0
370
              -2
390
0
  6
Continuous
 62
               0
100
AcDbLine
 10
5512.0257122479679
 20
3968.3901805929031
 30
0.0
 11
5512.0257122479679
 21
3781.864591760328
 31
0.0
  0
LINE
  5
F9
100
AcDbEntity
  8
0
370
              -2
390
0
  6
Continuous
 62
               0
100
AcDbLine
 10
5292.0257122479688
 20
3968.3901805929031
 30
0.0
 11
5292.0257122479688
 21
3781.864591760328
 31
0.0
  0
LINE
  5
FA
100
AcDbEntity
  8
0
370
              -2
390
0
  6
Continuous
 62
               0
100
AcDbLine
 10
5512.0257122479679
 20
3781.864591760328
 30
0.0
 11
5292.0257122479688
 21
3781.864591760328
 31
0.0
  0
CIRCLE
  5
FB
102
{ACAD_REACTORS
330
FC
102
}
100
AcDbEntity
  8
0
370
              -2
390
0
  6
Continuous
 62
               0
100
AcDbCircle
 10
5512.0257122479679
 20
3781.864591760328
 30
0.0
 40
1.9998779296875
  0
HATCH
  5
FC
100
AcDbEntity
  8
0
370
              -2
390
0
  6
Continuous
 62
               0
100
AcDbHatch
 10
0.0
 20
0.0
 30
0.0
210
0.0
220
0.0
230
1.0
  2
SOLID
 70
               1
 71
               1
 91
        1
 92
        1
 93
        1
 72
               2
 10
5512.0257122479679
 20
3781.864591760328
 40
1.9998779296875
 50
0.0
 51
360.0
 73
               0
 97
        1
330
FB
 75
               0
 76
               1
 98
        1
 10
0.0
 20
0.0
  0
CIRCLE
  5
FD
102
{ACAD_REACTORS
330
FE
102
}
100
AcDbEntity
  8
0
370
              -2
390
0
  6
Continuous
 62
               0
100
AcDbCircle
 10
5292.0257122479688
 20
3781.864591760328
 30
0.0
 40
1.9998779296875
  0
HATCH
  5
FE
100
AcDbEntity
  8
0
370
              -2
390
0
  6
Continuous
 62
               0
100
AcDbHatch
 10
0.0
 20
0.0
 30
0.0
210
0.0
220
0.0
230
1.0
  2
SOLID
 70
               1
 71
               1
 91
        1
 92
        1
 93
        1
 72
               2
 10
5292.0257122479688
 20
3781.864591760328
 40
1.9998779296875
 50
0.0
 51
360.0
 73
               0
 97
        1
330
FD
 75
               0
 76
               1
 98
        1
 10
0.0
 20
0.0
  0
MTEXT
  5
FF
100
AcDbEntity
  8
0
390
0
 62
               0
100
AcDbMText
 10
5378.2132105657929
 20
3815.7422089478277
 30
0.0
 40
24.432617187500004
 41
0.0
 71
               1
 72
               1
  1
220
  7
ＭＳ ゴシック
 73
               1
 44
0.7828267384257843
  0
POINT
  5
100
100
AcDbEntity
  8
Defpoints
370
               0
390
0
 62
               0
100
AcDbPoint
 10
5292.0257122479688
 20
3993.3901805929031
 30
0.0
  0
POINT
  5
101
100
AcDbEntity
  8
Defpoints
370
               0
390
0
 62
               0
100
AcDbPoint
 10
5512.0257122479679
 20
3993.3901805929031
 30
0.0
  0
POINT
  5
102
100
AcDbEntity
  8
Defpoints
370
               0
390
0
 62
               0
100
AcDbPoint
 10
5512.0257122479679
 20
3781.864591760328
 30
0.0
  0
ENDBLK
  5
103
100
AcDbEntity
  8
notes
390
0
100
AcDbBlockEnd
  0
BLOCK
  5
104
100
AcDbEntity
  8
notes
390
0
100
AcDbBlockBegin
  2
*D16
 70
               1
 10
0.0
 20
0.0
 30
0.0
  3
*D16
  1

  0
LINE
  5
105
100
AcDbEntity
  8
0
370
              -2
390
0
  6
Continuous
 62
               0
100
AcDbLine
 10
5578.8269234157042
 20
4999.9999999999982
 30
0.0
 11
5708.7295005760861
 21
4999.9999999999982
 31
0.0
  0
LINE
  5
106
100
AcDbEntity
  8
0
370
              -2
390
0
  6
Continuous
 62
               0
100
AcDbLine
 10
5578.8269234157042
 20
4730.0
 30
0.0
 11
5708.7295005760861
 21
4730.0
 31
0.0
  0
LINE
  5
107
100
AcDbEntity
  8
0
370
              -2
390
0
  6
Continuous
 62
               0
100
AcDbLine
 10
5708.7295005760861
 20
4999.9999999999982
 30
0.0
 11
5708.7295005760861
 21
4730.0
 31
0.0
  0
CIRCLE
  5
108
102
{ACAD_REACTORS
330
109
102
}
100
AcDbEntity
  8
0
370
              -2
390
0
  6
Continuous
 62
               0
100
AcDbCircle
 10
5708.7295005760861
 20
4999.9999999999982
 30
0.0
 40
1.9998779296875
  0
HATCH
  5
109
100
AcDbEntity
  8
0
370
              -2
390
0
  6
Continuous
 62
               0
100
AcDbHatch
 10
0.0
 20
0.0
 30
0.0
210
0.0
220
0.0
230
1.0
  2
SOLID
 70
               1
 71
               1
 91
        1
 92
        1
 93
        1
 72
               2
 10
5708.7295005760861
 20
4999.9999999999982
 40
1.9998779296875
 50
0.0
 51
360.0
 73
               0
 97
        1
330
108
 75
               0
 76
               1
 98
        1
 10
0.0
 20
0.0
  0
CIRCLE
  5
10A
102
{ACAD_REACTORS
330
10B
102
}
100
AcDbEntity
  8
0
370
              -2
390
0
  6
Continuous
 62
               0
100
AcDbCircle
 10
5708.7295005760861
 20
4730.0
 30
0.0
 40
1.9998779296875
  0
HATCH
  5
10B
100
AcDbEntity
  8
0
370
              -2
390
0
  6
Continuous
 62
               0
100
AcDbHatch
 10
0.0
 20
0.0
 30
0.0
210
0.0
220
0.0
230
1.0
  2
SOLID
 70
               1
 71
               1
 91
        1
 92
        1
 93
        1
 72
               2
 10
5708.7295005760861
 20
4730.0
 40
1.9998779296875
 50
0.0
 51
360.0
 73
               0
 97
        1
330
10A
 75
               0
 76
               1
 98
        1
 10
0.0
 20
0.0
  0
MTEXT
  5
10C
100
AcDbEntity
  8
0
390
0
 62
               0
100
AcDbMText
 10
5674.8518833885855
 20
4841.1874983178241
 30
0.0
 40
24.432617187500004
 41
0.0
 71
               1
 72
               1
  1
270
  7
ＭＳ ゴシック
 11
0.0
 21
1.0
 31
0.0
 73
               1
 44
0.7828267384257843
  0
POINT
  5
10D
100
AcDbEntity
  8
Defpoints
370
               0
390
0
 62
               0
100
AcDbPoint
 10
5553.8269234157042
 20
4730.0
 30
0.0
  0
POINT
  5
10E
100
AcDbEntity
  8
Defpoints
370
               0
390
0
 62
               0
100
AcDbPoint
 10
5553.8269234157042
 20
4999.9999999999982
 30
0.0
  0
POINT
  5
10F
100
AcDbEntity
  8
Defpoints
370
               0
390
0
 62
               0
100
AcDbPoint
 10
5708.7295005760861
 20
4999.9999999999982
 30
0.0
  0
ENDBLK
  5
110
100
AcDbEntity
  8
notes
390
0
100
AcDbBlockEnd
  0
BLOCK
  5
111
100
AcDbEntity
  8
notes
390
0
100
AcDbBlockBegin
  2
*D17
 70
               1
 10
0.0
 20
0.0
 30
0.0
  3
*D17
  1

  0
LINE
  5
112
100
AcDbEntity
  8
0
370
              -2
390
0
  6
Continuous
 62
               0
100
AcDbLine
 10
5512.0257122479679
 20
3968.3901805929031
 30
0.0
 11
5512.0257122479679
 21
3697.1399520169248
 31
0.0
  0
LINE
  5
113
100
AcDbEntity
  8
0
370
              -2
390
0
  6
Continuous
 62
               0
100
AcDbLine
 10
5147.0257122479688
 20
3968.3901805929031
 30
0.0
 11
5147.0257122479688
 21
3697.1399520169248
 31
0.0
  0
LINE
  5
114
100
AcDbEntity
  8
0
370
              -2
390
0
  6
Continuous
 62
               0
100
AcDbLine
 10
5512.0257122479679
 20
3697.1399520169248
 30
0.0
 11
5147.0257122479688
 21
3697.1399520169248
 31
0.0
  0
CIRCLE
  5
115
102
{ACAD_REACTORS
330
116
102
}
100
AcDbEntity
  8
0
370
              -2
390
0
  6
Continuous
 62
               0
100
AcDbCircle
 10
5512.0257122479679
 20
3697.1399520169248
 30
0.0
 40
1.9998779296875
  0
HATCH
  5
116
100
AcDbEntity
  8
0
370
              -2
390
0
  6
Continuous
 62
               0
100
AcDbHatch
 10
0.0
 20
0.0
 30
0.0
210
0.0
220
0.0
230
1.0
  2
SOLID
 70
               1
 71
               1
 91
        1
 92
        1
 93
        1
 72
               2
 10
5512.0257122479679
 20
3697.1399520169248
 40
1.9998779296875
 50
0.0
 51
360.0
 73
               0
 97
        1
330
115
 75
               0
 76
               1
 98
        1
 10
0.0
 20
0.0
  0
CIRCLE
  5
117
102
{ACAD_REACTORS
330
118
102
}
100
AcDbEntity
  8
0
370
              -2
390
0
  6
Continuous
 62
               0
100
AcDbCircle
 10
5147.0257122479688
 20
3697.1399520169248
 30
0.0
 40
1.9998779296875
  0
HATCH
  5
118
100
AcDbEntity
  8
0
370
              -2
390
0
  6
Continuous
 62
               0
100
AcDbHatch
 10
0.0
 20
0.0
 30
0.0
210
0.0
220
0.0
230
1.0
  2
SOLID
 70
               1
 71
               1
 91
        1
 92
        1
 93
        1
 72
               2
 10
5147.0257122479688
 20
3697.1399520169248
 40
1.9998779296875
 50
0.0
 51
360.0
 73
               0
 97
        1
330
117
 75
               0
 76
               1
 98
        1
 10
0.0
 20
0.0
  0
MTEXT
  5
119
100
AcDbEntity
  8
0
390
0
 62
               0
100
AcDbMText
 10
5305.7132105657929
 20
3731.0175692044249
 30
0.0
 40
24.432617187500004
 41
0.0
 71
               1
 72
               1
  1
365
  7
ＭＳ ゴシック
 73
               1
 44
0.7828267384257843
  0
POINT
  5
11A
100
AcDbEntity
  8
Defpoints
370
               0
390
0
 62
               0
100
AcDbPoint
 10
5147.0257122479688
 20
3993.3901805929031
 30
0.0
  0
POINT
  5
11B
100
AcDbEntity
  8
Defpoints
370
               0
390
0
 62
               0
100
AcDbPoint
 10
5512.0257122479679
 20
3993.3901805929031
 30
0.0
  0
POINT
  5
11C
100
AcDbEntity
  8
Defpoints
370
               0
390
0
 62
               0
100
AcDbPoint
 10
5512.0257122479679
 20
3697.1399520169248
 30
0.0
  0
ENDBLK
  5
11D
100
AcDbEntity
  8
notes
390
0
100
AcDbBlockEnd
  0
BLOCK
  5
11E
100
AcDbEntity
  8
KUF70-0001
390
0
100
AcDbBlockBegin
  2
*D18
 70
               1
 10
0.0
 20
0.0
 30
0.0
  3
*D18
  1

  0
LINE
  5
11F
100
AcDbEntity
  8
0
370
              -2
390
0
  6
Continuous
 62
               0
100
AcDbLine
 10
5067.0269234157049
 20
4113.3827756076907
 30
0.0
 11
5015.6003583550701
 21
4113.3827756076907
 31
0.0
  0
LINE
  5
120
100
AcDbEntity
  8
0
370
              -2
390
0
  6
Continuous
 62
               0
100
AcDbLine
 10
5115.4236652222116
 20
4003.3901805929031
 30
0.0
 11
5015.6003583550701
 21
4003.3901805929031
 31
0.0
  0
LINE
  5
121
100
AcDbEntity
  8
0
370
              -2
390
0
  6
Continuous
 62
               0
100
AcDbLine
 10
5015.6003583550701
 20
4113.3827756076907
 30
0.0
 11
5015.6003583550701
 21
4003.3901805929031
 31
0.0
  0
CIRCLE
  5
122
102
{ACAD_REACTORS
330
123
102
}
100
AcDbEntity
  8
0
370
              -2
390
0
  6
Continuous
 62
               0
100
AcDbCircle
 10
5015.6003583550701
 20
4113.3827756076907
 30
0.0
 40
1.9998779296875
  0
HATCH
  5
123
100
AcDbEntity
  8
0
370
              -2
390
0
  6
Continuous
 62
               0
100
AcDbHatch
 10
0.0
 20
0.0
 30
0.0
210
0.0
220
0.0
230
1.0
  2
SOLID
 70
               1
 71
               1
 91
        1
 92
        1
 93
        1
 72
               2
 10
5015.6003583550701
 20
4113.3827756076907
 40
1.9998779296875
 50
0.0
 51
360.0
 73
               0
 97
        1
330
122
 75
               0
 76
               1
 98
        1
 10
0.0
 20
0.0
  0
CIRCLE
  5
124
102
{ACAD_REACTORS
330
125
102
}
100
AcDbEntity
  8
0
370
              -2
390
0
  6
Continuous
 62
               0
100
AcDbCircle
 10
5015.6003583550701
 20
4003.3901805929031
 30
0.0
 40
1.9998779296875
  0
HATCH
  5
125
100
AcDbEntity
  8
0
370
              -2
390
0
  6
Continuous
 62
               0
100
AcDbHatch
 10
0.0
 20
0.0
 30
0.0
210
0.0
220
0.0
230
1.0
  2
SOLID
 70
               1
 71
               1
 91
        1
 92
        1
 93
        1
 72
               2
 10
5015.6003583550701
 20
4003.3901805929031
 40
1.9998779296875
 50
0.0
 51
360.0
 73
               0
 97
        1
330
124
 75
               0
 76
               1
 98
        1
 10
0.0
 20
0.0
  0
MTEXT
  5
126
100
AcDbEntity
  8
0
390
0
 62
               0
100
AcDbMText
 10
4981.7227411675694
 20
4034.5739764181212
 30
0.0
 40
24.432617187500004
 41
0.0
 71
               1
 72
               1
  1
110
  7
ＭＳ ゴシック
 11
0.0
 21
1.0
 31
0.0
 73
               1
 44
0.7828267384257843
  0
POINT
  5
127
100
AcDbEntity
  8
Defpoints
370
               0
390
0
 62
               0
100
AcDbPoint
 10
5140.4236652222116
 20
4003.3901805929031
 30
0.0
  0
POINT
  5
128
100
AcDbEntity
  8
Defpoints
370
               0
390
0
 62
               0
100
AcDbPoint
 10
5092.0269234157049
 20
4113.3827756076907
 30
0.0
  0
POINT
  5
129
100
AcDbEntity
  8
Defpoints
370
               0
390
0
 62
               0
100
AcDbPoint
 10
5015.6003583550701
 20
4113.3827756076907
 30
0.0
  0
ENDBLK
  5
12A
100
AcDbEntity
  8
KUF70-0001
390
0
100
AcDbBlockEnd
  0
ENDSEC
  0
SECTION
  2
ENTITIES
  0
MTEXT
  5
12B
100
AcDbEntity
  8
template
390
0
 62
               7
100
AcDbMText
 10
3923.6003583553106
 20
3029.6392808897449
 30
0.0
 40
16.288411458333332
 41
0.0
 71
               1
 72
               1
  1
品名
  7
ＭＳ ゴシック
 73
               1
 44
0.7828267384257843
  0
MTEXT
  5
12C
100
AcDbEntity
  8
template
390
0
 62
               7
100
AcDbMText
 10
3923.6003583553106
 20
2944.6392808897449
 30
0.0
 40
16.288411458333332
 41
0.0
 71
               1
 72
               1
  1
仕様
  7
ＭＳ ゴシック
 73
               1
 44
0.7828267384257843
  0
MTEXT
  5
12D
100
AcDbEntity
  8
template
390
0
 62
               7
100
AcDbMText
 10
3976.6003583553106
 20
3001.056819952245
 30
0.0
 40
24.432617187500004
 41
0.0
 71
               1
 72
               1
  1
手洗器 -SANICO,NEO-
  7
ＭＳ ゴシック
 73
               1
 44
0.7828267384257843
  0
LINE
  5
12E
100
AcDbEntity
  8
template
370
               5
390
0
  6
Continuous
 62
               7
100
AcDbLine
 10
5866.6003583548281
 20
2953.0542027647448
 30
0.0
 11
3916.6003583548286
 21
2953.0542027647448
 31
0.0
  0
LWPOLYLINE
  5
12F
100
AcDbEntity
  8
template
370
               5
390
0
  6
Continuous
 62
               7
100
AcDbPolyline
 90
        5
 70
             128
 10
5866.6003583553111
 20
5583.0542027647443
 10
3916.6003583553106
 20
5583.0542027647443
 10
3916.6003583553106
 20
2783.0542027647448
 10
5866.6003583553111
 20
2783.0542027647448
 10
5866.6003583553111
 20
5583.0542027647443
  0
LINE
  5
130
100
AcDbEntity
  8
template
370
               5
390
0
  6
Continuous
 62
               7
100
AcDbLine
 10
5866.6003583548281
 20
3038.0542027647448
 30
0.0
 11
3916.6003583548286
 21
3038.0542027647448
 31
0.0
  0
LINE
  5
131
100
AcDbEntity
  8
template
370
               5
390
0
  6
Continuous
 62
               7
100
AcDbLine
 10
5866.6003583553111
 20
2868.0542027647448
 30
0.0
 11
5113.6003583553111
 21
2868.0542027647448
 31
0.0
  0
MTEXT
  5
132
100
AcDbEntity
  8
template
390
0
 62
               7
100
AcDbMText
 10
3916.6003583555139
 20
2771.2003807078881
 30
0.0
 40
21.717881944444446
 41
0.0
 71
               1
 72
               1
  1
110713SH
  7
ＭＳ ゴシック
 73
               1
 44
0.7828267384257843
  0
MTEXT
  5
133
100
AcDbEntity
  8
template
390
0
 62
               7
100
AcDbMText
 10
5143.4717646075705
 20
2838.1438082914374
 30
0.0
 40
24.432617187500004
 41
0.0
 71
               1
 72
               1
  1
大洋金物株式会社 ティーフォルム事業部
  7
ＭＳ ゴシック
 73
               1
 44
0.7828267384257843
  0
INSERT
  5
134
100
AcDbEntity
  8
template
390
0
 62
               7
100
AcDbBlockReference
  2
グループ
 10
4901.4427336672034
 20
4165.2165862522061
 30
0.0
  0
MTEXT
  5
135
100
AcDbEntity
  8
template
390
0
 62
               7
100
AcDbMText
 10
5675.6003583555694
 20
2916.056819952245
 30
0.0
 40
24.432617187500004
 41
0.0
 71
               1
 72
               1
  1
1:10
  7
ＭＳ ゴシック
 73
               1
 44
0.7828267384257843
  0
MTEXT
  5
136
100
AcDbEntity
  8
template
390
0
 62
               7
100
AcDbMText
 10
5622.6003583555694
 20
2944.6392808897449
 30
0.0
 40
16.288411458333332
 41
0.0
 71
               1
 72
               1
  1
縮尺
  7
ＭＳ ゴシック
 73
               1
 44
0.7828267384257843
  0
LINE
  5
137
100
AcDbEntity
  8
template
370
               5
390
0
  6
Continuous
 62
               7
100
AcDbLine
 10
5615.6003583555694
 20
2868.0542027647448
 30
0.0
 11
5615.6003583555694
 21
2953.0542027647448
 31
0.0
  0
MTEXT
  5
138
100
AcDbEntity
  8
template
390
0
 62
               7
100
AcDbMText
 10
5371.6003583555694
 20
2944.6392808897449
 30
0.0
 40
16.288411458333332
 41
0.0
 71
               1
 72
               1
  1
容量
  7
ＭＳ ゴシック
 73
               1
 44
0.7828267384257843
  0
MTEXT
  5
139
100
AcDbEntity
  8
template
390
0
 62
               7
100
AcDbMText
 10
5424.6003583555694
 20
2916.056819952245
 30
0.0
 40
24.432617187500004
 41
0.0
 71
               1
 72
               1
  1
4L
  7
ＭＳ ゴシック
 73
               1
 44
0.7828267384257843
  0
LINE
  5
13A
100
AcDbEntity
  8
template
370
               5
390
0
  6
Continuous
 62
               7
100
AcDbLine
 10
5364.6003583555694
 20
2868.0542027647448
 30
0.0
 11
5364.6003583555694
 21
2953.0542027647448
 31
0.0
  0
MTEXT
  5
13B
100
AcDbEntity
  8
template
390
0
 62
               7
100
AcDbMText
 10
5120.6003583555694
 20
3029.6392808897449
 30
0.0
 40
16.288411458333332
 41
0.0
 71
               1
 72
               1
  1
品番
  7
ＭＳ ゴシック
 73
               1
 44
0.7828267384257843
  0
MTEXT
  5
13C
100
AcDbEntity
  8
template
390
0
 62
               7
100
AcDbMText
 10
5120.6003583555694
 20
2944.6392808897449
 30
0.0
 40
16.288411458333332
 41
0.0
 71
               1
 72
               1
  1
重量
  7
ＭＳ ゴシック
 73
               1
 44
0.7828267384257843
  0
MTEXT
  5
13D
100
AcDbEntity
  8
template
390
0
 62
               7
100
AcDbMText
 10
5173.6003583555694
 20
3001.056819952245
 30
0.0
 40
24.432617187500004
 41
0.0
 71
               1
 72
               1
  1
KUF70-0001
  7
ＭＳ ゴシック
 73
               1
 44
0.7828267384257843
  0
MTEXT
  5
13E
100
AcDbEntity
  8
template
390
0
 62
               7
100
AcDbMText
 10
5173.6003583555694
 20
2916.056819952245
 30
0.0
 40
24.432617187500004
 41
0.0
 71
               1
 72
               1
  1
49kg
  7
ＭＳ ゴシック
 73
               1
 44
0.7828267384257843
  0
LINE
  5
13F
100
AcDbEntity
  8
template
370
               5
390
0
  6
Continuous
 62
               7
100
AcDbLine
 10
5113.6003583555694
 20
2783.0542027647448
 30
0.0
 11
5113.6003583555694
 21
3038.0542027647448
 31
0.0
  0
MTEXT
  5
140
100
AcDbEntity
  8
template
390
0
 62
               7
100
AcDbMText
 10
3976.6003583553106
 20
2916.056819952245
 30
0.0
 40
24.432617187500004
 41
0.0
 71
               1
 72
               1
  1
壁掛け,カウンタ ー置き/オーバーフローなし/\P排水金具,壁取付用ブラケット付属/大理石
  7
ＭＳ ゴシック
 73
               1
 44
1.1307497332816883
  0
MTEXT
  5
141
100
AcDbEntity
  8
template
390
0
 62
               7
100
AcDbMText
 10
5173.6003583555694
 20
3206.7678606442782
 30
0.0
 40
24.432617187500004
 41
0.0
 71
               1
 72
               1
  1
KUF70-0001-002 ビアンコカララ \PKUF70-0001-003 ブラックマーブル \PKUF70-0001-005 クリームマーブル 
  7
ＭＳ ゴシック
 73
               1
 44
1.3047112307096407
  0
LWPOLYLINE
  5
142
100
AcDbEntity
  8
template
370
               5
390
0
  6
Continuous
 62
               7
100
AcDbPolyline
 90
        5
 70
             128
 10
5866.6003583553111
 20
5583.0542027647443
 10
3916.6003583553106
 20
5583.0542027647443
 10
3916.6003583553106
 20
2783.0542027647448
 10
5866.6003583553111
 20
2783.0542027647448
 10
5866.6003583553111
 20
5583.0542027647443
  0
DIMENSION
  5
143
100
AcDbEntity
  8
template
370
               5
390
0
  6
Continuous
 62
               7
100
AcDbDimension
  2
*D3
 10
4567.1583943365422
 20
4919.043884738604
 30
0.0
 11
4841.6003583550701
 21
5077.056910123445
 31
0.0
 70
               3
 71
               5
 72
               1
 41
1.0
 42
0.0
  1
 
  3
tfrom線あり
100
AcDbDiametricDimension
 15
4596.9452508876802
 25
4940.9925333713081
 35
0.0
 40
229.37092957639777
1001
ACAD
1000
DSTYLE
1002
{
1070
             289
1070
               0
1070
             342
1005
48
1070
             340
1005
34
1070
              75
1070
               1
1070
              76
1070
               1
1070
             174
1070
               0
1070
             147
1040
5.0
1002
}
  0
MTEXT
  5
144
100
AcDbEntity
  8
notes
390
0
 62
               7
100
AcDbMText
 10
5201.6919203191937
 20
5222.5479366210739
 30
0.0
 40
24.432617187500004
 41
0.0
 71
               1
 72
               1
  1
カウンター切込寸法
  7
ＭＳ ゴシック
 73
               1
 44
0.7828267384257843
  0
MTEXT
  5
145
100
AcDbEntity
  8
notes
390
0
 62
               7
100
AcDbMText
 10
4218.1857321171819
 20
3491.5629483383614
 30
0.0
 40
24.432617187500004
 41
1301.8142678828183
 71
               1
 72
               1
  1
製品によって多少の寸法公差があります。必ず現物を合わせて取り付けやカウンターの切込を行ってください。\P壁取付用ブラケットを使うと、壁掛けとして設置することができます。
  7
ＭＳ ゴシック
 73
               1
 44
1.1742401076386764
  0
DIMENSION
  5
146
100
AcDbEntity
  8
notes
370
               5
390
0
  6
Continuous
 62
               7
100
AcDbDimension
  2
*D4
 10
4737.0518226121103
 20
5150.0001422077821
 30
0.0
 11
4467.0384747191874
 21
5150.0001422077821
 31
0.0
 71
               5
 72
               1
 41
1.0
 42
0.0
  3
tfrom線あり
100
AcDbAlignedDimension
 13
4197.0251268262646
 23
4999.9980132781338
 33
0.0
 14
4737.0518226121103
 24
5000.0182090549561
 34
0.0
100
AcDbRotatedDimension
1001
ACAD
1000
DSTYLE
1002
{
1070
             279
1070
               2
1070
             340
1005
34
1070
             147
1040
5.0
1002
}
  0
DIMENSION
  5
147
100
AcDbEntity
  8
notes
370
               5
390
0
  6
Continuous
 62
               7
100
AcDbDimension
  2
*D5
 10
4582.0518226121112
 20
5100.0001422077821
 30
0.0
 11
4659.5518226121112
 21
5100.0001422077821
 31
0.0
 71
               5
 72
               1
 41
1.0
 42
0.0
  3
tfrom線あり
100
AcDbAlignedDimension
 13
4737.0518226121103
 23
5000.0182090549561
 33
0.0
 14
4582.0518226121112
 24
4950.5187968205992
 34
0.0
100
AcDbRotatedDimension
1001
ACAD
1000
DSTYLE
1002
{
1070
             279
1070
               2
1070
             340
1005
34
1070
             147
1040
5.0
1002
}
  0
DIMENSION
  5
148
100
AcDbEntity
  8
notes
370
               5
390
0
  6
Continuous
 62
               7
100
AcDbDimension
  2
*D6
 10
5123.826923415706
 20
5099.9999999999982
 30
0.0
 11
5338.8269234157051
 21
5099.9999999999982
 31
0.0
 71
               5
 72
               1
 41
1.0
 42
0.0
  3
tfrom線あり
100
AcDbAlignedDimension
 13
5553.8269234157042
 23
4999.9999999999982
 33
0.0
 14
5123.826923415706
 24
4999.9999999999982
 34
0.0
100
AcDbRotatedDimension
1001
ACAD
1000
DSTYLE
1002
{
1070
             279
1070
               2
1070
             340
1005
34
1070
             147
1040
5.0
1002
}
  0
DIMENSION
  5
149
100
AcDbEntity
  8
notes
370
               5
390
0
  6
Continuous
 62
               7
100
AcDbDimension
  2
*D7
 10
4047.0251268262646
 20
4999.9980132781338
 30
0.0
 11
4047.0251268262646
 21
4789.9980132781347
 31
0.0
 71
               5
 72
               1
 41
1.0
 42
0.0
  3
tfrom線あり
100
AcDbAlignedDimension
 13
4389.6179006384955
 23
4579.9980132781357
 33
0.0
 14
4197.0251268262646
 24
4999.9980132781338
 34
0.0
 50
90.0
100
AcDbRotatedDimension
1001
ACAD
1000
DSTYLE
1002
{
1070
             279
1070
               2
1070
             340
1005
34
1070
             147
1040
5.0
1002
}
  0
DIMENSION
  5
14A
100
AcDbEntity
  8
notes
370
               5
390
0
  6
Continuous
 62
               7
100
AcDbDimension
  2
*D8
 10
4097.0251268262646
 20
4999.9980132781338
 30
0.0
 11
4097.0251268262646
 21
4809.9986266346305
 31
0.0
 71
               5
 72
               1
 41
1.0
 42
0.0
  3
tfrom線あり
100
AcDbAlignedDimension
 13
4197.0463936031538
 23
4619.9992399911271
 33
0.0
 14
4197.0251268262646
 24
4999.9980132781338
 34
0.0
 50
90.0
100
AcDbRotatedDimension
1001
ACAD
1000
DSTYLE
1002
{
1070
             279
1070
               2
1070
             340
1005
34
1070
             147
1040
5.0
1002
}
  0
DIMENSION
  5
14B
100
AcDbEntity
  8
notes
370
               5
390
0
  6
Continuous
 62
               7
100
AcDbDimension
  2
*D9
 10
5293.0257122479698
 20
4113.3901805929036
 30
0.0
 11
5298.0257122479698
 21
4120.8957340923689
 31
0.0
 70
             128
 71
               5
 72
               1
 41
1.0
 42
0.0
  3
tfrom線あり
100
AcDbAlignedDimension
 13
5288.0257122479698
 23
4023.3901805929027
 33
0.0
 14
5288.0257122479698
 24
4113.3901805929036
 34
0.0
 50
90.0
100
AcDbRotatedDimension
1001
ACAD
1000
DSTYLE
1002
{
1070
             279
1070
               2
1070
             340
1005
34
1070
               3
1000
<>(深さ)
1070
             174
1070
               0
1070
             147
1040
5.0
1002
}
  0
DIMENSION
  5
14C
100
AcDbEntity
  8
notes
370
               5
390
0
  6
Continuous
 62
               7
100
AcDbDimension
  2
*D10
 10
4887.0518226121103
 20
5000.0174235570048
 30
0.0
 11
4887.0518226121103
 21
4822.5174235570057
 31
0.0
 71
               5
 72
               1
 41
1.0
 42
0.0
  3
tfrom線あり
100
AcDbAlignedDimension
 13
4738.9518226121108
 23
4645.0174235570066
 33
0.0
 14
4738.9518226121108
 24
5000.0174235570048
 34
0.0
 50
90.0
100
AcDbRotatedDimension
1001
ACAD
1000
DSTYLE
1002
{
1070
             279
1070
               2
1070
             340
1005
34
1070
             147
1040
5.0
1002
}
  0
DIMENSION
  5
14D
100
AcDbEntity
  8
notes
370
               5
390
0
  6
Continuous
 62
               7
100
AcDbDimension
  2
*D11
 10
4837.0518226121112
 20
4930.0182090549561
 30
0.0
 11
4837.0518226121112
 21
4965.0182090549561
 31
0.0
 71
               5
 72
               1
 41
1.0
 42
0.0
  3
tfrom線あり
100
AcDbAlignedDimension
 13
4737.0518226121103
 23
5000.0182090549561
 33
0.0
 14
4602.5524103777543
 24
4930.0182090549561
 34
0.0
 50
90.0
100
AcDbRotatedDimension
1001
ACAD
1000
DSTYLE
1002
{
1070
             279
1070
               2
1070
             340
1005
34
1070
             147
1040
5.0
1002
}
  0
DIMENSION
  5
14E
100
AcDbEntity
  8
notes
370
               5
390
0
  6
Continuous
 62
               7
100
AcDbDimension
  2
*D12
 10
4843.9518226121108
 20
4113.3901805929036
 30
0.0
 11
4843.9518226121108
 21
4050.8864781002967
 31
0.0
 71
               5
 72
               1
 41
1.0
 42
0.0
  3
tfrom線あり
100
AcDbAlignedDimension
 13
4712.0269234157049
 23
3988.3827756076898
 33
0.0
 14
4737.0251268262655
 24
4113.3901805929036
 34
0.0
 50
90.0
100
AcDbRotatedDimension
1001
ACAD
1000
DSTYLE
1002
{
1070
             279
1070
               2
1070
             340
1005
34
1070
             147
1040
5.0
1002
}
  0
DIMENSION
  5
14F
100
AcDbEntity
  8
notes
370
               5
390
0
  6
Continuous
 62
               7
100
AcDbDimension
  2
*D13
 10
4712.0269234157049
 20
3838.3827756076898
 30
0.0
 11
4461.7751302792622
 21
3843.3827756076898
 31
0.0
 70
             128
 71
               5
 72
               1
 41
1.0
 42
0.0
  3
tfrom線あり
100
AcDbAlignedDimension
 13
4222.0269234157049
 23
3988.3827756076898
 33
0.0
 14
4712.0269234157049
 24
3988.3827756076898
 34
0.0
100
AcDbRotatedDimension
1001
ACAD
1000
DSTYLE
1002
{
1070
             279
1070
               2
1070
             340
1005
34
1070
             147
1040
5.0
1002
}
  0
DIMENSION
  5
150
100
AcDbEntity
  8
notes
370
               5
390
0
  6
Continuous
 62
               7
100
AcDbDimension
  2
*D14
 10
4197.0251268262646
 20
3888.3827756076903
 30
0.0
 11
4302.0251268262655
 21
3888.3827756076903
 31
0.0
 71
               5
 72
               1
 41
1.0
 42
0.0
  3
tfrom線あり
100
AcDbAlignedDimension
 13
4407.0251268262664
 23
3993.3901805929031
 33
0.0
 14
4197.0251268262646
 24
4113.3901805929036
 34
0.0
100
AcDbRotatedDimension
1001
ACAD
1000
DSTYLE
1002
{
1070
             279
1070
               2
1070
             340
1005
34
1070
             147
1040
5.0
1002
}
  0
DIMENSION
  5
151
100
AcDbEntity
  8
notes
370
               5
390
0
  6
Continuous
 62
               7
100
AcDbDimension
  2
*D15
 10
5512.0257122479679
 20
3781.864591760328
 30
0.0
 11
5402.0257122479688
 21
3786.864591760328
 31
0.0
 70
             128
 71
               5
 72
               1
 41
1.0
 42
0.0
  3
tfrom線あり
100
AcDbAlignedDimension
 13
5292.0257122479688
 23
3993.3901805929031
 33
0.0
 14
5512.0257122479679
 24
3993.3901805929031
 34
0.0
100
AcDbRotatedDimension
1001
ACAD
1000
DSTYLE
1002
{
1070
             279
1070
               2
1070
             340
1005
34
1070
             147
1040
5.0
1002
}
  0
DIMENSION
  5
152
100
AcDbEntity
  8
notes
370
               5
390
0
  6
Continuous
 62
               7
100
AcDbDimension
  2
*D16
 10
5708.7295005760861
 20
4999.9999999999982
 30
0.0
 11
5708.7295005760861
 21
4864.9999999999991
 31
0.0
 71
               5
 72
               1
 41
1.0
 42
0.0
  3
tfrom線あり
100
AcDbAlignedDimension
 13
5553.8269234157042
 23
4730.0
 33
0.0
 14
5553.8269234157042
 24
4999.9999999999982
 34
0.0
 50
90.0
100
AcDbRotatedDimension
1001
ACAD
1000
DSTYLE
1002
{
1070
             279
1070
               2
1070
             340
1005
34
1070
             147
1040
5.0
1002
}
  0
DIMENSION
  5
153
100
AcDbEntity
  8
notes
370
               5
390
0
  6
Continuous
 62
               7
100
AcDbDimension
  2
*D17
 10
5512.0257122479679
 20
3697.1399520169248
 30
0.0
 11
5329.5257122479688
 21
3702.1399520169248
 31
0.0
 70
             128
 71
               5
 72
               1
 41
1.0
 42
0.0
  3
tfrom線あり
100
AcDbAlignedDimension
 13
5147.0257122479688
 23
3993.3901805929031
 33
0.0
 14
5512.0257122479679
 24
3993.3901805929031
 34
0.0
100
AcDbRotatedDimension
1001
ACAD
1000
DSTYLE
1002
{
1070
             279
1070
               2
1070
             340
1005
34
1070
             147
1040
5.0
1002
}
  0
LINE
  5
154
100
AcDbEntity
  8
notes
370
               5
390
0
  6
STYLE_12
 62
               7
100
AcDbLine
 10
4437.0518226121112
 20
4003.3901805929031
 30
0.0
 11
4377.0518226121103
 21
4003.3901805929031
 31
0.0
  0
LINE
  5
155
100
AcDbEntity
  8
notes
370
              15
390
0
  6
STYLE_12
 62
               7
100
AcDbLine
 10
5262.0269234157058
 20
4023.3901805929027
 30
0.0
 11
5262.0269234157058
 21
4003.3901805929031
 31
0.0
  0
SPLINE
  5
156
100
AcDbEntity
  8
notes
370
              15
390
0
  6
STYLE_12
 62
               7
100
AcDbSpline
210
0.0
220
0.0
230
1.0
 70
               8
 71
               2
 72
               7
 73
               4
 74
               0
 42
0.000001
 43
0.000001
 40
0.0
 40
0.0
 40
0.0
 40
1.0
 40
2.0
 40
2.0
 40
2.0
 10
5262.0269234157058
 20
4023.3901805929027
 30
0.0
 10
5186.6593278080672
 20
4033.1090730679593
 30
0.0
 10
5119.9964397493777
 20
4097.1185640586555
 30
0.0
 10
5101.1269234157053
 20
4113.3901805929036
 30
0.0
  0
SPLINE
  5
157
100
AcDbEntity
  8
notes
370
               5
390
0
  6
STYLE_12
 62
               7
100
AcDbSpline
210
0.0
220
0.0
230
1.0
 70
               8
 71
               2
 72
               7
 73
               4
 74
               0
 42
0.000001
 43
0.000001
 40
0.0
 40
0.0
 40
0.0
 40
1.0
 40
2.0
 40
2.0
 40
2.0
 10
4437.0518226121112
 20
4023.3901805929027
 30
0.0
 10
4503.161823141485
 20
4022.0304234362147
 30
0.0
 10
4576.7093960938473
 20
4112.764921900819
 30
0.0
 10
4597.9518226121108
 20
4113.3901805929036
 30
0.0
  0
SPLINE
  5
158
100
AcDbEntity
  8
notes
370
               5
390
0
  6
STYLE_12
 62
               7
100
AcDbSpline
210
0.0
220
0.0
230
1.0
 70
               8
 71
               2
 72
               7
 73
               4
 74
               0
 42
0.000001
 43
0.000001
 40
0.0
 40
0.0
 40
0.0
 40
1.0
 40
2.0
 40
2.0
 40
2.0
 10
4377.0518226121103
 20
4023.3901805929027
 30
0.0
 10
4310.9418220827356
 20
4022.0304234362147
 30
0.0
 10
4237.3942491303742
 20
4112.764921900819
 30
0.0
 10
4216.1518226121098
 20
4113.3901805929036
 30
0.0
  0
LINE
  5
159
100
AcDbEntity
  8
notes
370
              15
390
0
  6
STYLE_12
 62
               7
100
AcDbLine
 10
4377.0518226121103
 20
4023.3901805929027
 30
0.0
 11
4377.0518226121103
 21
4003.3901805929031
 31
0.0
  0
CIRCLE
  5
15A
100
AcDbEntity
  8
KUF70-0001
370
              15
390
0
  6
Continuous
 62
               7
100
AcDbCircle
 10
4397.0251268262664
 20
4779.9980132781357
 30
0.0
 40
25.000000000000284
  0
CIRCLE
  5
15B
100
AcDbEntity
  8
KUF70-0001
370
              15
390
0
  6
Continuous
 62
               7
100
AcDbCircle
 10
4582.0518226121112
 20
4930.0182090549561
 30
0.0
 40
18.5
  0
POLYLINE
  5
15C
100
AcDbEntity
  8
KUF70-0001
370
              15
390
0
  6
Continuous
 62
               7
100
AcDb2dPolyline
 66
               1
 10
0.0
 20
0.0
 30
0.0
 70
               1
 75
               5
  0
VERTEX
  5
15D
100
AcDbEntity
  8
KUF70-0001
370
              15
390
0
  6
Continuous
 62
               7
100
AcDbVertex
100
AcDb2dVertex
 10
4197.0251268262646
 20
4113.3901805929036
 30
0.0
  0
VERTEX
  5
15E
100
AcDbEntity
  8
KUF70-0001
370
              15
390
0
  6
Continuous
 62
               7
100
AcDbVertex
100
AcDb2dVertex
 10
4737.0251268262655
 20
4113.3901805929036
 30
0.0
  0
VERTEX
  5
15F
100
AcDbEntity
  8
KUF70-0001
370
              15
390
0
  6
Continuous
 62
               7
100
AcDbVertex
100
AcDb2dVertex
 10
4712.0269234157049
 20
3988.3827756076898
 30
0.0
  0
VERTEX
  5
160
100
AcDbEntity
  8
KUF70-0001
370
              15
390
0
  6
Continuous
 62
               7
100
AcDbVertex
100
AcDb2dVertex
 10
4222.0269234157049
 20
3988.3827756076898
 30
0.0
  0
SEQEND
  5
161
100
AcDbEntity
  8
KUF70-0001
370
              15
390
0
  6
Continuous
 62
               7
  0
POLYLINE
  5
162
100
AcDbEntity
  8
KUF70-0001
370
              15
390
0
  6
Continuous
 62
               7
100
AcDb2dPolyline
 66
               1
 10
0.0
 20
0.0
 30
0.0
 70
               1
 75
               5
  0
VERTEX
  5
163
100
AcDbEntity
  8
KUF70-0001
370
              15
390
0
  6
Continuous
 62
               7
100
AcDbVertex
100
AcDb2dVertex
 10
5512.0257122479679
 20
4113.3901805929036
 30
0.0
  0
VERTEX
  5
164
100
AcDbEntity
  8
KUF70-0001
370
              15
390
0
  6
Continuous
 62
               7
100
AcDbVertex
100
AcDb2dVertex
 10
5092.0269234157049
 20
4113.3827756076907
 30
0.0
  0
VERTEX
  5
165
100
AcDbEntity
  8
KUF70-0001
370
              15
390
0
  6
Continuous
 62
               7
100
AcDbVertex
100
AcDb2dVertex
 10
5147.0269234157058
 20
3988.3827756076898
 30
0.0
  0
VERTEX
  5
166
100
AcDbEntity
  8
KUF70-0001
370
              15
390
0
  6
Continuous
 62
               7
100
AcDbVertex
100
AcDb2dVertex
 10
5512.0269234157049
 20
3988.3827756076898
 30
0.0
  0
SEQEND
  5
167
100
AcDbEntity
  8
KUF70-0001
370
              15
390
0
  6
Continuous
 62
               7
  0
LINE
  5
168
100
AcDbEntity
  8
KUF70-0001
370
              15
390
0
  6
STYLE_12
 62
               7
100
AcDbLine
 10
4437.0518226121112
 20
4023.3901805929027
 30
0.0
 11
4437.0518226121112
 21
4003.3901805929031
 31
0.0
  0
LINE
  5
169
100
AcDbEntity
  8
KUF70-0001
370
              15
390
0
  6
STYLE_12
 62
               7
100
AcDbLine
 10
5322.0257122479688
 20
4023.3901805929027
 30
0.0
 11
5322.0257122479688
 21
4003.3901805929031
 31
0.0
  0
CIRCLE
  5
16A
100
AcDbEntity
  8
KUF70-0001
370
               5
390
0
  6
STYLE_12
 62
               7
100
AcDbCircle
 10
5268.7028047902431
 20
4779.9980132781357
 30
0.0
 40
25.0
  0
CIRCLE
  5
16B
100
AcDbEntity
  8
KUF70-0001
370
               5
390
0
  6
STYLE_12
 62
               7
100
AcDbCircle
 10
5433.7295005760861
 20
4925.0182090549561
 30
0.0
 40
20.500587765643104
  0
POLYLINE
  5
16C
100
AcDbEntity
  8
KUF70-0001
370
              15
390
0
  6
Continuous
 62
               7
100
AcDb2dPolyline
 66
               1
 10
0.0
 20
0.0
 30
0.0
 70
               1
 75
               5
  0
VERTEX
  5
16D
100
AcDbEntity
  8
KUF70-0001
370
              15
390
0
  6
Continuous
 62
               7
100
AcDbVertex
100
AcDb2dVertex
 10
5123.826923415706
 20
4999.9999999999982
 30
0.0
  0
VERTEX
  5
16E
100
AcDbEntity
  8
KUF70-0001
370
              15
390
0
  6
Continuous
 62
               7
100
AcDbVertex
100
AcDb2dVertex
 10
5553.8269234157042
 20
4999.9999999999982
 30
0.0
  0
VERTEX
  5
16F
100
AcDbEntity
  8
KUF70-0001
370
              15
390
0
  6
Continuous
 62
               7
100
AcDbVertex
100
AcDb2dVertex
 10
5553.8269234157042
 20
4730.0
 30
0.0
  0
VERTEX
  5
170
100
AcDbEntity
  8
KUF70-0001
370
              15
390
0
  6
Continuous
 62
               7
100
AcDbVertex
100
AcDb2dVertex
 10
5123.826923415706
 20
4730.0
 30
0.0
  0
SEQEND
  5
171
100
AcDbEntity
  8
KUF70-0001
370
              15
390
0
  6
Continuous
 62
               7
  0
LINE
  5
172
100
AcDbEntity
  8
KUF70-0001
370
              15
390
0
  6
STYLE_12
 62
               7
100
AcDbLine
 10
5322.0257122479688
 20
4003.3901805929031
 30
0.0
 11
5262.0257122479688
 21
4003.3901805929031
 31
0.0
  0
SPLINE
  5
173
100
AcDbEntity
  8
KUF70-0001
370
              15
390
0
  6
Continuous
 62
               7
100
AcDbSpline
210
0.0
220
0.0
230
1.0
 70
               8
 71
               2
 72
               7
 73
               4
 74
               0
 42
0.000001
 43
0.000001
 40
0.0
 40
0.0
 40
0.0
 40
1.0
 40
2.0
 40
2.0
 40
2.0
 10
4197.0463936031538
 20
4621.7713041986353
 30
0.0
 10
4406.1316900586326
 20
4552.543154589287
 30
0.0
 10
4677.9301731455571
 20
4638.0725698542337
 30
0.0
 10
4737.0518226121103
 20
4645.0182090549579
 30
0.0
  0
SPLINE
  5
174
100
AcDbEntity
  8
KUF70-0001
370
              15
390
0
  6
STYLE_12
 62
               7
100
AcDbSpline
210
0.0
220
0.0
230
1.0
 70
               8
 71
               2
 72
               7
 73
               4
 74
               0
 42
0.000001
 43
0.000001
 40
0.0
 40
0.0
 40
0.0
 40
1.0
 40
2.0
 40
2.0
 40
2.0
 10
5322.0257122479688
 20
4023.3901805929027
 30
0.0
 10
5397.3933078556074
 20
4033.1090730679593
 30
0.0
 10
5464.056195914296
 20
4097.1185640586555
 30
0.0
 10
5482.9257122479676
 20
4113.3901805929036
 30
0.0
  0
LINE
  5
175
100
AcDbEntity
  8
KUF70-0001
370
              15
390
0
  6
Continuous
 62
               7
100
AcDbLine
 10
4197.0251268262646
 20
4999.9980132781338
 30
0.0
 11
4737.0518226121103
 21
5000.0182090549561
 31
0.0
  0
LINE
  5
176
100
AcDbEntity
  8
KUF70-0001
370
              15
390
0
  6
Continuous
 62
               7
100
AcDbLine
 10
4737.0518226121103
 20
5000.0182090549561
 30
0.0
 11
4737.0518226121103
 21
4645.0182090549579
 31
0.0
  0
LINE
  5
177
100
AcDbEntity
  8
KUF70-0001
370
              15
390
0
  6
Continuous
 62
               7
100
AcDbLine
 10
4197.0251268262646
 20
4999.9980132781338
 30
0.0
 11
4197.0463936031538
 21
4619.9992399911271
 31
0.0
  0
SPLINE
  5
178
100
AcDbEntity
  8
KUF70-0001
370
               5
390
0
  6
STYLE_12
 62
               7
100
AcDbSpline
210
0.0
220
0.0
230
1.0
 70
               8
 71
               2
 72
               7
 73
               4
 74
               0
 42
0.000001
 43
0.000001
 40
0.0
 40
0.0
 40
0.0
 40
1.0
 40
2.0
 40
2.0
 40
2.0
 10
5068.7248898306452
 20
4621.767835908815
 30
0.0
 10
5277.8101862861231
 20
4552.5396862994667
 30
0.0
 10
5549.6086693730467
 20
4638.0691015644134
 30
0.0
 10
5608.7303188395999
 20
4645.0147407651375
 30
0.0
  0
LINE
  5
179
100
AcDbEntity
  8
KUF70-0001
370
               5
390
0
  6
STYLE_12
 62
               7
100
AcDbLine
 10
5068.703623053756
 20
4999.9945449883135
 30
0.0
 11
5608.7303188395999
 21
5000.0147407651348
 31
0.0
  0
LINE
  5
17A
100
AcDbEntity
  8
KUF70-0001
370
               5
390
0
  6
STYLE_12
 62
               7
100
AcDbLine
 10
5608.7303188395999
 20
5000.0147407651348
 30
0.0
 11
5608.7303188395999
 21
4645.0147407651375
 31
0.0
  0
LINE
  5
17B
100
AcDbEntity
  8
KUF70-0001
370
               5
390
0
  6
STYLE_12
 62
               7
100
AcDbLine
 10
5068.703623053756
 20
4999.9945449883135
 30
0.0
 11
5068.7248898306452
 21
4621.767835908815
 31
0.0
  0
DIMENSION
  5
17C
100
AcDbEntity
  8
KUF70-0001
370
               5
390
0
  6
Continuous
 62
               7
100
AcDbDimension
  2
*D18
 10
5015.6003583550701
 20
4113.3827756076907
 30
0.0
 11
5015.6003583550701
 21
4058.3864781002967
 31
0.0
 71
               5
 72
               1
 41
1.0
 42
0.0
  3
tfrom線あり
100
AcDbAlignedDimension
 13
5140.4236652222116
 23
4003.3901805929031
 33
0.0
 14
5092.0269234157049
 24
4113.3827756076907
 34
0.0
 50
90.0
100
AcDbRotatedDimension
1001
ACAD
1000
DSTYLE
1002
{
1070
             279
1070
               2
1070
             340
1005
34
1070
             147
1040
5.0
1002
}
  0
LWPOLYLINE
  5
17D
100
AcDbEntity
  8
壁取付ブラケット [更新済み]
370
              18
390
0
  6
Continuous
 62
             250
100
AcDbPolyline
 90
      175
 70
             128
 10
-9038.0
 20
2873.767035475481
 10
-9037.9990785417576
 20
2873.6426694509155
 42
0.0244842368272878
 10
-9037.9652617809461
 20
2873.0433745128976
 10
-9037.9584906730761
 20
2872.9793255698996
 42
0.0162183504166804
 10
-9037.8936858470279
 20
2872.5118880741456
 10
-9037.8931662371342
 20
2872.50886456842
 42
0.0161786752473811
 10
-9037.7994674355195
 20
2872.0526093306362
 10
-9037.7988149996472
 20
2872.0498831397972
 42
0.0161634475503183
 10
-9037.6773022409525
 20
2871.6060420791609
 10
-9037.6765425668345
 20
2871.6035823515745
 42
0.0161641919426996
 10
-9037.528286152743
 20
2871.17338404573
 10
-9037.5274401134775
 20
2871.1711646845151
 42
0.0161880626767378
 10
-9037.3535141319626
 20
2870.7558317694202
 10
-9037.3525996869084
 20
2870.7538323258332
 42
0.0162413149192143
 10
-9037.1540800442908
 20
2870.3545809648194
 10
-9037.1531142197819
 20
2870.3527871503657
 42
0.0163291547245529
 10
-9036.931076566123
 20
2869.970826868218
 10
-9036.930077440591
 20
2869.9692304711748
 42
0.0164555388942761
 10
-9036.6855952417809
 20
2869.6057646436498
 10
-9036.6845843926203
 20
2869.6043636806089
 42
0.0166231317109526
 10
-9036.4187262294563
 20
2869.2605893648392
 10
-9036.4177300731735
 20
2869.259386129771
 42
0.016832834124815
 10
-9036.1315584728272
 20
2868.936496406483
 10
-9036.1306095165819
 20
2868.935495671732
 42
0.0170839408169755
 10
-9035.8251813234838
 20
2868.6346831876913
 10
-9035.8243235110258
 20
2868.6338942148009
 42
0.0173734478641646
 10
-9035.5006830167276
 20
2868.356347455393
 10
-9035.4999683746846
 20
2868.3557764535853
 42
0.0176964409101957
 10
-9035.1591499903188
 20
2868.1026869191373
 10
-9035.1586402250505
 20
2868.1023356534911
 42
0.018044344496458
 10
-9034.8016705320242
 20
2867.8749017380205
 10
-9034.8014466195018
 20
2867.8747701870784
 42
0.0184086347917349
 10
-9034.4293270127473
 20
2867.674191209886
 10
-9034.4055543360992
 20
2867.6624852484238
 42
0.0187713303988324
 10
-9034.0679300486554
 20
2867.5117030483675
 42
0.0143105510559114
 10
-9033.7209738794809
 20
2867.3835329322919
 10
-9033.720283176297
 20
2867.3833000134555
 42
0.0193643078800978
 10
-9033.3642120006734
 20
2867.2783916783683
 10
-9033.3376518307286
 20
2867.2716720514036
 42
0.0196416697683998
 10
-9032.9209306615248
 20
2867.183496296208
 10
-9032.9192783445797
 20
2867.1832139569569
 42
0.0198670453559666
 10
-9032.4935835337037
 20
2867.1277713154705
 10
-9032.4912170950611
 20
2867.1275582779872
 42
0.0199450390440397
 10
-9032.0577216743295
 20
2867.105909884408
 10
-9032.0549312453713
 20
2867.1058819431628
 42
0.0199486613457066
 10
-9031.6191919462417
 20
2867.1189053268718
 10
-9031.6166673526732
 20
2867.1190817570596
 42
0.0198753637094057
 10
-9031.1883698119073
 20
2867.1661758997507
 10
-9031.1865042689333
 20
2867.1664564412058
 42
0.0196898944860329
 10
-9030.7669658360192
 20
2867.2465491105095
 10
-9030.765756148925
 20
2867.2468298146105
 42
0.0194319682603146
 10
-9030.3561461318332
 20
2867.358813889372
 10
-9030.3555016281771
 20
2867.3590173110733
 42
0.0191210328769295
 10
-9029.9569953632745
 20
2867.5017648901321
 42
0.0187681100439535
 10
-9029.5705969302981
 20
2867.6741976059252
 42
0.0184158446250608
 10
-9029.1982360157344
 20
2867.8747895160946
 10
-9029.1980333642732
 20
2867.8749085134223
 42
0.0180559143257234
 10
-9028.8408741466446
 20
2868.102359631243
 10
-9028.8403862358264
 20
2868.1026957058261
 42
0.0177090387866797
 10
-9028.4994348478813
 20
2868.355800482489
 10
-9028.4987381626543
 20
2868.3563569852377
 42
0.017388718988005
 10
-9028.1750164126952
 20
2868.6339160166144
 10
-9028.1741661569667
 20
2868.6346979267291
 42
0.0170977120027342
 10
-9027.8686897415973
 20
2868.9355313466749
 10
-9027.86775132806
 20
2868.9365209305724
 42
0.0168466592563771
 10
-9027.5815711049254
 20
2869.2594275672072
 10
-9027.580584631025
 20
2869.2606192009853
 42
0.0166353340206404
 10
-9027.3147553601611
 20
2869.6044009695706
 10
-9027.3137481953199
 20
2869.6057970837933
 42
0.0164659911121002
 10
-9027.0693187259385
 20
2869.9692695764288
 10
-9027.0683219812581
 20
2869.9708626272845
 42
0.0163372660483574
 10
-9026.8463559946958
 20
2870.3528275226586
 10
-9026.845391178811
 20
2870.3546201582558
 42
0.0162467549929224
 10
-9026.6469560154383
 20
2870.7538744531903
 10
-9026.6460417432299
 20
2870.7558744889266
 42
0.0161905554979361
 10
-9026.4722071484211
 20
2871.1712088458944
 10
-9026.4713608297079
 20
2871.1734302310915
 42
0.0161635615255427
 10
-9026.3231968268447
 20
2871.6036287593079
 10
-9026.3224367394032
 20
2871.6060914926838
 42
0.016159605343838
 10
-9026.2010115934263
 20
2872.0499318452025
 10
-9026.20035883118
 20
2872.0526615167237
 42
0.0161716251542942
 10
-9026.1067370720211
 20
2872.5089154262114
 10
-9026.1062173366754
 20
2872.5119423339693
 42
0.0161918690858892
 10
-9026.0414579395056
 20
2872.9793765843788
 10
-9026.0350257013706
 20
2873.0402442461086
 42
0.0161992850695154
 10
-9026.0085867352318
 20
2873.402329353451
 42
0.0084395609123864
 10
-9026.0000109089142
 20
2873.7654160330694
 10
-9026.0
 20
2873.767035475481
 10
-9026.0
 20
2880.4403560351439
 10
-9026.0004558176952
 20
2880.5034795563706
 42
0.0164173536436195
 10
-9026.0197671900078
 20
2880.9853710722718
 10
-9026.0200256290045
 20
2880.9889106650357
 42
0.0162028340614299
 10
-9026.0699647785386
 20
2881.4614700047259
 10
-9026.0704065538557
 20
2881.4646581785819
 42
0.0161808904863357
 10
-9026.1497347165187
 20
2881.9266545611458
 10
-9026.1503245828881
 20
2881.9295288982844
 42
0.0161637573586803
 10
-9026.2579855565946
 20
2882.3797274123904
 10
-9026.2586949041815
 20
2882.3823201259775
 42
0.0161588028494258
 10
-9026.393626761308
 20
2882.8194900781609
 10
-9026.3944323887627
 20
2882.8218292244956
 42
0.0161734873067502
 10
-9026.5555686064581
 20
2883.2447454375606
 10
-9026.5564511174962
 20
2883.2468540489281
 42
0.0162143645760341
 10
-9026.7427222933384
 20
2883.6542972802581
 10
-9026.743663825433
 20
2883.6561917949102
 42
0.016287363009487
 10
-9026.9540005097861
 20
2884.046950392963
 10
-9026.9549846052414
 20
2884.0486440367486
 42
0.0163961048083281
 10
-9027.1883156638487
 20
2884.4215083708013
 10
-9027.1893164255416
 20
2884.4229967522242
 42
0.0165464892879911
 10
-9027.4445872695651
 20
2884.7767808388612
 10
-9027.4455898561355
 20
2884.7780776587429
 42
0.0167352669648228
 10
-9027.7217318937346
 20
2885.1115729088747
 10
-9027.7227047164324
 20
2885.1126708192191
 42
0.0169676018050978
 10
-9028.0186576076285
 20
2885.424678924132
 10
-9028.0195550781191
 20
2885.4255629798545
 42
0.0172384976797168
 10
-9028.33428266808
 20
2885.7149027723576
 10
-9028.3350613914899
 20
2885.715570648088
 42
0.0175451135237448
 10
-9028.6675286889276
 20
2885.9810506566778
 10
-9028.6681300721593
 20
2885.9814972435825
 42
0.0178804142583195
 10
-9029.0173138008486
 20
2886.2219230400851
 10
-9029.0176688547926
 20
2886.2221492353501
 42
0.0182352045965939
 10
-9029.3825565270545
 20
2886.4363195191281
 42
0.0185959187659544
 10
-9029.7621751543793
 20
2886.6230383631059
 42
0.018954922770423
 10
-9030.1546915588133
 20
2886.780732212047
 10
-9030.1803236242613
 20
2886.7899179110941
 42
0.0241467019964958
 10
-9030.6368070361095
 20
2886.9290395746129
 10
-9030.6615895155883
 20
2886.9353027230263
 42
0.0196297141852125
 10
-9031.0821136026498
 20
2887.0241815300328
 42
0.019850253366022
 10
-9031.5083300401275
 20
2887.0796167591625
 10
-9031.51074258482
 20
2887.0798336061725
 42
0.0199065611927368
 10
-9031.9448481332965
 20
2887.1014849018811
 10
-9031.9476838884693
 20
2887.1015133355013
 42
0.0199775772485978
 10
-9032.382879069015
 20
2887.0884869488955
 10
-9032.385402442138
 20
2887.0883103452588
 42
0.0198980041750365
 10
-9032.8131551423485
 20
2887.041212340182
 10
-9032.8149773170117
 20
2887.040937961649
 42
0.0197041443075097
 10
-9033.2340527710603
 20
2886.9608376601136
 10
-9033.2352224390106
 20
2886.9605659347153
 42
0.0194392104480685
 10
-9033.6444449097708
 20
2886.8485716851983
 10
-9033.6450534335363
 20
2886.8483794332906
 42
0.0191220776547289
 10
-9034.0432413332801
 20
2886.7056198195437
 42
0.0187654536972645
 10
-9034.4293530841605
 20
2886.5331866001325
 42
0.0184075675691173
 10
-9034.8014636377611
 20
2886.3326097615459
 10
-9034.8016920706341
 20
2886.3324755537524
 42
0.018044623029007
 10
-9035.1586620502076
 20
2886.1050393823089
 10
-9035.1591711531528
 20
2886.1046885695318
 42
0.0176958004025091
 10
-9035.4999885771358
 20
2885.8515979464564
 10
-9035.5007021364709
 20
2885.8510278072495
 42
0.0173745118672112
 10
-9035.8243392185013
 20
2885.573481584654
 10
-9035.8252024099875
 20
2885.572687654234
 42
0.0170834334121527
 10
-9036.130637344666
 20
2885.2718653009861
 10
-9036.1315852615753
 20
2885.270865653566
 42
0.0168330708026443
 10
-9036.4177610743645
 20
2884.9479680380641
 10
-9036.4187541391293
 20
2884.9467685242316
 42
0.0166231184136171
 10
-9036.6846099007944
 20
2884.6029935682454
 10
-9036.6856212813091
 20
2884.6015918532908
 42
0.0164556929170584
 10
-9036.9301019485647
 20
2884.2381239437555
 10
-9036.9311010761285
 20
2884.2365275226557
 42
0.0163293393139146
 10
-9037.1531368095202
 20
2883.8545650661763
 10
-9037.1541026820032
 20
2883.8527711342549
 42
0.0162415548327969
 10
-9037.3526200168362
 20
2883.4535173243498
 10
-9037.3535344783177
 20
2883.4515178048828
 42
0.0161883430850929
 10
-9037.5274575954518
 20
2883.0361822639779
 10
-9037.5283036310957
 20
2883.0339628543807
 42
0.0161645054844273
 10
-9037.6765564979214
 20
2882.6037618428027
 10
-9037.6773161462115
 20
2882.6013021121726
 42
0.0161637813179728
 10
-9037.7988245669239
 20
2882.1574584204764
 10
-9037.7994769577035
 20
2882.1547322823362
 42
0.0161790140276808
 10
-9037.8931705637297
 20
2881.6984746826156
 10
-9037.8936901139186
 20
2881.6954512956449
 42
0.0162023547526494
 10
-9037.9585041969403
 20
2881.2280135548303
 10
-9037.9649419764937
 20
2881.1671475053508
 42
0.016212731822505
 10
-9037.9914049076378
 20
2880.8050628141509
 42
0.0084476280447506
 10
-9037.9999890848176
 20
2880.4419747821221
 10
-9038.0
 20
2880.4403560351439
 10
-9038.0
 20
2873.767035475481
  0
LINE
  5
17E
100
AcDbEntity
  8
壁取付ブラケット [更新済み]
370
               9
390
0
  6
Continuous
 62
             250
100
AcDbLine
 10
-8246.4785038203045
 20
2792.5200400306703
 30
0.0
 11
-8246.4785038203045
 21
2863.7845054284044
 31
0.0
  0
LINE
  5
17F
100
AcDbEntity
  8
壁取付ブラケット [更新済み]
370
               9
390
0
  6
Continuous
 62
             250
100
AcDbLine
 10
-8463.6846138525416
 20
2792.5200400306703
 30
0.0
 11
-8463.6846138525416
 21
2863.7845054284044
 31
0.0
  0
LINE
  5
180
100
AcDbEntity
  8
壁取付ブラケット [更新済み]
370
               9
390
0
  6
Continuous
 62
             250
100
AcDbLine
 10
-8463.6846138525416
 20
2827.0497036430806
 30
0.0
 11
-8246.4785038203045
 21
2827.0497036430806
 31
0.0
  0
MTEXT
  5
181
100
AcDbEntity
  8
壁取付ブラケット [更新済み]
390
0
 62
             250
100
AcDbMText
 10
-8410.0
 20
2863.7932559767096
 30
0.0
 40
48.745454367141313
 41
0.0
 71
               7
 72
               1
  1
120
  7
ＭＳ ゴシック
 73
               1
 44
1.0040160642570282
  0
POLYLINE
  5
182
100
AcDbEntity
  8
壁取付ブラケット [更新済み]
370
               5
390
0
  6
Continuous
 62
               7
100
AcDb2dPolyline
 66
               1
 10
0.0
 20
0.0
 30
0.0
 70
               1
 75
               5
  0
VERTEX
  5
183
100
AcDbEntity
  8
壁取付ブラケット [更新済み]
370
               5
390
0
  6
Continuous
 62
               7
100
AcDbVertex
100
AcDb2dVertex
 10
-9058.0
 20
2906.0
 30
0.0
  0
VERTEX
  5
184
100
AcDbEntity
  8
壁取付ブラケット [更新済み]
370
               5
390
0
  6
Continuous
 62
               7
100
AcDbVertex
100
AcDb2dVertex
 10
-9013.0
 20
2906.0
 30
0.0
  0
VERTEX
  5
185
100
AcDbEntity
  8
壁取付ブラケット [更新済み]
370
               5
390
0
  6
Continuous
 62
               7
100
AcDbVertex
100
AcDb2dVertex
 10
-9013.0
 20
2774.0
 30
0.0
  0
VERTEX
  5
186
100
AcDbEntity
  8
壁取付ブラケット [更新済み]
370
               5
390
0
  6
Continuous
 62
               7
100
AcDbVertex
100
AcDb2dVertex
 10
-9058.0
 20
2774.0
 30
0.0
  0
SEQEND
  5
187
100
AcDbEntity
  8
壁取付ブラケット [更新済み]
370
               5
390
0
  6
Continuous
 62
               7
  0
LINE
  5
188
100
AcDbEntity
  8
壁取付ブラケット [更新済み]
370
               5
390
0
  6
Continuous
 62
               7
100
AcDbLine
 10
-9058.0
 20
2900.0
 30
0.0
 11
-9013.0
 21
2900.0
 31
0.0
  0
LINE
  5
189
100
AcDbEntity
  8
壁取付ブラケット [更新済み]
370
               5
390
0
  6
Continuous
 62
               7
100
AcDbLine
 10
-9052.0
 20
2900.0
 30
0.0
 11
-9052.0
 21
2774.0
 31
0.0
  0
LWPOLYLINE
  5
18A
100
AcDbEntity
  8
壁取付ブラケット [更新済み]
370
              18
390
0
  6
Continuous
 62
             250
100
AcDbPolyline
 90
      175
 70
             128
 10
-9028.6633377166927
 20
2791.6019328686552
 10
-9028.5389716921145
 20
2791.6028543268981
 42
0.0244842368276171
 10
-9027.9396767541093
 20
2791.6366710877091
 10
-9027.8756278111268
 20
2791.6434421955782
 42
0.0162183504158414
 10
-9027.4081903153583
 20
2791.7082470216274
 10
-9027.4051668096708
 20
2791.7087666315142
 42
0.0161786752453624
 10
-9026.9489115718479
 20
2791.8024654331357
 10
-9026.9461853809844
 20
2791.8031178690139
 42
0.0161634475506096
 10
-9026.5023443203736
 20
2791.9246306277037
 10
-9026.4998845928021
 20
2791.9253903018162
 42
0.0161641919430919
 10
-9026.0696862869427
 20
2792.0736467159113
 10
-9026.0674669256787
 20
2792.074492755195
 42
0.0161880626780586
 10
-9025.6521340106319
 20
2792.2484187366927
 10
-9025.6501345670513
 20
2792.2493331817441
 42
0.0162413149178128
 10
-9025.2508832060321
 20
2792.4478528243644
 10
-9025.2490893915474
 20
2792.4488186488907
 42
0.0163291547292432
 10
-9024.8671291094306
 20
2792.6708563025322
 10
-9024.8655327123597
 20
2792.6718554280815
 42
0.0164555388982863
 10
-9024.5020668848611
 20
2792.9163376268752
 10
-9024.5006659217979
 20
2792.9173484760522
 42
0.0166231317097525
 10
-9024.1568916060514
 20
2793.183206639198
 10
-9024.1556883709945
 20
2793.1842027954717
 42
0.0168328341241142
 10
-9023.8327986476961
 20
2793.4703743958271
 10
-9023.831797912937
 20
2793.4713233520793
 42
0.0170839408161915
 10
-9023.5309854289026
 20
2793.7767515451715
 10
-9023.5301964560185
 20
2793.7776093576213
 42
0.017373447862679
 10
-9023.2526496966057
 20
2794.1012498519267
 10
-9023.2520786948444
 20
2794.1019644939106
 42
0.0176964409063671
 10
-9022.9989891603491
 20
2794.4427828783364
 10
-9022.9986378946978
 20
2794.443292643612
 42
0.0180443444961165
 10
-9022.7712039792332
 20
2794.8002623366319
 10
-9022.771072428297
 20
2794.8004862491443
 42
0.018408634790356
 10
-9022.5704934510995
 20
2795.172605855907
 10
-9022.5587874896373
 20
2795.1963785325552
 42
0.0187713303988754
 10
-9022.4080052895806
 20
2795.5340028199998
 42
0.0143105510517361
 10
-9022.2798351735219
 20
2795.8809589891216
 10
-9022.2796022546681
 20
2795.8816496923573
 42
0.0193643078797088
 10
-9022.1746939195909
 20
2796.2377208679354
 10
-9022.1679742926153
 20
2796.2642810379275
 42
0.0196416697692996
 10
-9022.0797985374193
 20
2796.6810022071477
 10
-9022.0795161981714
 20
2796.6826545240756
 42
0.0198670453579907
 10
-9022.0240735566822
 20
2797.1083493349779
 10
-9022.0238605192008
 20
2797.1107157735942
 42
0.0199450390480849
 10
-9022.0022121256206
 20
2797.5442111943294
 10
-9022.0021841843754
 20
2797.5470016232694
 42
0.0199486613450701
 10
-9022.0152075680835
 20
2797.9827409224135
 10
-9022.0153839982686
 20
2797.9852655159384
 42
0.0198753637068318
 10
-9022.0624781409624
 20
2798.413563056748
 10
-9022.0627586824157
 20
2798.4154285997147
 42
0.0196898944807392
 10
-9022.1428513517221
 20
2798.834967032637
 10
-9022.1431320558058
 20
2798.8361767196602
 42
0.0194319682571853
 10
-9022.2551161305837
 20
2799.245786736823
 10
-9022.2553195522887
 20
2799.2464312404904
 42
0.0191210328749282
 10
-9022.3980671313457
 20
2799.6449375053808
 42
0.0187681100461442
 10
-9022.5704998471374
 20
2800.0313359383572
 42
0.0184158446271141
 10
-9022.7710917573313
 20
2800.4036968529645
 10
-9022.771210754634
 20
2800.4038995043829
 42
0.0180559143232291
 10
-9022.9986618724633
 20
2800.7610587220206
 10
-9022.9989979470392
 20
2800.7615466328298
 42
0.0177090387878962
 10
-9023.2521027237326
 20
2801.1024980208144
 10
-9023.2526592264494
 20
2801.103194706001
 42
0.0173887189846114
 10
-9023.5302182577998
 20
2801.4269164559319
 10
-9023.5310001679409
 20
2801.4277667116894
 42
0.0170977119981875
 10
-9023.8318335878812
 20
2801.7332431270524
 10
-9023.8328231717842
 20
2801.7341815405953
 42
0.0168466592565676
 10
-9024.1557298084008
 20
2802.0203617637144
 10
-9024.1569214421979
 20
2802.0213482376303
 42
0.0166353340221094
 10
-9024.5007032108151
 20
2802.2871775085168
 10
-9024.5020993250055
 20
2802.2881846733353
 42
0.0164659911110025
 10
-9024.8655718176542
 20
2802.5326141427245
 10
-9024.8671648684976
 20
2802.533610887398
 42
0.0163372660451698
 10
-9025.2491297638662
 20
2802.7555768739576
 10
-9025.2509223994693
 20
2802.7565416898451
 42
0.0162467549920225
 10
-9025.6501766944384
 20
2802.9549768532338
 10
-9025.6521767301401
 20
2802.9558911254262
 42
0.0161905554999629
 10
-9026.0675110871161
 20
2803.1297257202368
 10
-9026.0697324723042
 20
2803.1305720389464
 42
0.0161635615243876
 10
-9026.4999310005278
 20
2803.2787360418133
 10
-9026.5023937338974
 20
2803.279496129252
 42
0.0161596053414201
 10
-9026.9462340864138
 20
2803.4009212752298
 10
-9026.9489637579372
 20
2803.4015740374762
 42
0.0161716251619625
 10
-9027.4052176675177
 20
2803.4951957966487
 10
-9027.4082445751828
 20
2803.4957155319789
 42
0.0161918690860299
 10
-9027.8756788255141
 20
2803.5604749291424
 10
-9027.9365464873099
 20
2803.5669071672828
 42
0.0161992850699099
 10
-9028.2986315946637
 20
2803.5933461334234
 42
0.0084395609127096
 10
-9028.6617182742921
 20
2803.601921959741
 10
-9028.6633377166927
 20
2803.6019328686552
 10
-9035.3366582763574
 20
2803.6019328686552
 10
-9035.3997817975796
 20
2803.6014770509605
 42
0.016417353643617
 10
-9035.8816733134845
 20
2803.5821656786475
 10
-9035.885212906247
 20
2803.5819072396503
 42
0.0162028340615058
 10
-9036.3577722459395
 20
2803.5319680901157
 10
-9036.3609604197882
 20
2803.5315263147995
 42
0.0161808904872093
 10
-9036.822956802358
 20
2803.4521981521366
 10
-9036.8258311394857
 20
2803.451608285769
 42
0.0161637573588432
 10
-9037.2760296536035
 20
2803.3439473120616
 10
-9037.2786223672265
 20
2803.3432379644637
 42
0.0161588028498746
 10
-9037.7157923193736
 20
2803.2083061073463
 10
-9037.7181314657319
 20
2803.2075004798835
 42
0.0161734873088336
 10
-9038.1410476787732
 20
2803.0463642621971
 10
-9038.1431562901726
 20
2803.0454817511445
 42
0.0162143645808489
 10
-9038.5505995214717
 20
2802.859210575316
 10
-9038.5524940361083
 20
2802.8582690432295
 42
0.0162873630087965
 10
-9038.9432526341752
 20
2802.6479323588692
 10
-9038.9449462779685
 20
2802.6469482634102
 42
0.0163961048091055
 10
-9039.3178106120122
 20
2802.4136172048075
 10
-9039.3192989934269
 20
2802.4126164431204
 42
0.0165464892863106
 10
-9039.6730830800734
 20
2802.1573455990901
 10
-9039.6743798999141
 20
2802.1563430125511
 42
0.0167352669641993
 10
-9040.0078751500878
 20
2801.8802009749206
 10
-9040.0089730603813
 20
2801.8792281522674
 42
0.0169676018036485
 10
-9040.3209811653451
 20
2801.5832752610277
 10
-9040.3218652210671
 20
2801.5823777905366
 42
0.0172384976812454
 10
-9040.6112050135707
 20
2801.2676502005743
 10
-9040.6118728893089
 20
2801.2668714771535
 42
0.0175451135291063
 10
-9040.8773528978909
 20
2800.9344041797267
 10
-9040.8777994847878
 20
2800.9338027965068
 42
0.0178804142581482
 10
-9041.1182252812978
 20
2800.5846190678058
 10
-9041.1184514765482
 20
2800.5842640138844
 42
0.0182352045961527
 10
-9041.3326217603408
 20
2800.2193763416008
 42
0.0185959187639553
 10
-9041.51934060432
 20
2799.8397577142759
 42
0.0189549227667482
 10
-9041.6770344532488
 20
2799.447241309872
 10
-9041.6862201523072
 20
2799.4216092443939
 42
0.0241467019979196
 10
-9041.8253418158256
 20
2798.9651258325412
 10
-9041.8316049642417
 20
2798.9403433530561
 42
0.0196297141867837
 10
-9041.9204837712459
 20
2798.5198192660055
 42
0.0198502533667303
 10
-9041.9759190003806
 20
2798.0936028284805
 10
-9041.9761358473861
 20
2798.0911902838343
 42
0.0199065611917017
 10
-9041.9977871430929
 20
2797.6570847353496
 10
-9041.997815576713
 20
2797.6542489800809
 42
0.0199775772588337
 10
-9041.9847891901081
 20
2797.2190537996403
 10
-9041.9846125864733
 20
2797.2165304265354
 42
0.0198980041733939
 10
-9041.9375145813956
 20
2796.7887777263068
 10
-9041.9372402028584
 20
2796.7869555516154
 42
0.0197041443097441
 10
-9041.8571399013254
 20
2796.367880097594
 10
-9041.8568681759334
 20
2796.3667104296719
 42
0.0194392104477554
 10
-9041.7448739264109
 20
2795.9574879588836
 10
-9041.7446816745069
 20
2795.9568794351326
 42
0.0191220776553288
 10
-9041.6019220607559
 20
2795.5586915353742
 42
0.0187654536965762
 10
-9041.4294888413442
 20
2795.1725797844947
 42
0.0184075675685277
 10
-9041.2289120027526
 20
2794.8004692308828
 10
-9041.2287777949659
 20
2794.8002407980212
 42
0.0180446230310062
 10
-9041.0013416235051
 20
2794.4432708184227
 10
-9041.000990810744
 20
2794.4427617155025
 42
0.0176958004007785
 10
-9040.7479001876654
 20
2794.1019442915131
 10
-9040.7473300484617
 20
2794.1012307321835
 42
0.0173745118633354
 10
-9040.4697838258871
 20
2793.7775936501753
 10
-9040.4689898954475
 20
2793.7767304586678
 42
0.0170834334116786
 10
-9040.1681675422296
 20
2793.4712955240193
 10
-9040.1671678947787
 20
2793.4703476070799
 42
0.0168330708025927
 10
-9039.8442702792927
 20
2793.1841717943043
 10
-9039.8430707654443
 20
2793.1831787295259
 42
0.0166231184152059
 10
-9039.499295809419
 20
2792.9173229678308
 10
-9039.4978940945039
 20
2792.9163115873453
 42
0.0164556929149689
 10
-9039.1344261849554
 20
2792.6718309200833
 10
-9039.1328297638684
 20
2792.6708317925268
 42
0.0163293393126861
 10
-9038.7508673074499
 20
2792.4487960591696
 10
-9038.7490733754676
 20
2792.4478301866529
 42
0.0162415548320066
 10
-9038.3498195655211
 20
2792.2493128517981
 10
-9038.3478200460959
 20
2792.2483983903367
 42
0.0161883430828368
 10
-9037.9324845051833
 20
2792.0744752732012
 10
-9037.9302650955924
 20
2792.0736292375605
 42
0.0161645054856314
 10
-9037.5000640840153
 20
2791.9253763707338
 10
-9037.4976043533843
 20
2791.9246167224437
 42
0.0161637813159363
 10
-9037.0537606616981
 20
2791.8031083017318
 10
-9037.0510345235489
 20
2791.8024559109508
 42
0.016179014026656
 10
-9036.5947769238064
 20
2791.7087623049229
 10
-9036.591753536859
 20
2791.7082427547366
 42
0.0162023547536633
 10
-9036.1243157960453
 20
2791.6434286717158
 10
-9036.063449746629
 20
2791.6369908921679
 42
0.016212731819889
 10
-9035.7013650553636
 20
2791.6105279610165
 42
0.0084476280384355
 10
-9035.3382770234548
 20
2791.6019437838377
 10
-9035.3366582763574
 20
2791.6019328686552
 10
-9028.6633377166927
 20
2791.6019328686552
  0
POLYLINE
  5
18B
100
AcDbEntity
  8
壁取付ブラケット [更新済み]
370
               5
390
0
  6
Continuous
 62
               7
100
AcDb2dPolyline
 66
               1
 10
0.0
 20
0.0
 30
0.0
 70
               1
 75
               5
  0
VERTEX
  5
18C
100
AcDbEntity
  8
壁取付ブラケット [更新済み]
370
               5
390
0
  6
Continuous
 62
               7
100
AcDbVertex
100
AcDb2dVertex
 10
-8951.0
 20
2912.0
 30
0.0
  0
VERTEX
  5
18D
100
AcDbEntity
  8
壁取付ブラケット [更新済み]
370
               5
390
0
  6
Continuous
 62
               7
100
AcDbVertex
100
AcDb2dVertex
 10
-8906.0
 20
2912.0
 30
0.0
  0
VERTEX
  5
18E
100
AcDbEntity
  8
壁取付ブラケット [更新済み]
370
               5
390
0
  6
Continuous
 62
               7
100
AcDbVertex
100
AcDb2dVertex
 10
-8906.0
 20
2627.0
 30
0.0
  0
VERTEX
  5
18F
100
AcDbEntity
  8
壁取付ブラケット [更新済み]
370
               5
390
0
  6
Continuous
 62
               7
100
AcDbVertex
100
AcDb2dVertex
 10
-8951.0
 20
2627.0
 30
0.0
  0
SEQEND
  5
190
100
AcDbEntity
  8
壁取付ブラケット [更新済み]
370
               5
390
0
  6
Continuous
 62
               7
  0
LINE
  5
191
100
AcDbEntity
  8
壁取付ブラケット [更新済み]
370
               5
390
0
  6
Continuous
 62
               7
100
AcDbLine
 10
-8574.0495827718642
 20
2778.0
 30
0.0
 11
-8574.0495827718642
 21
2910.0
 31
0.0
  0
LINE
  5
192
100
AcDbEntity
  8
壁取付ブラケット [更新済み]
370
               5
390
0
  6
Continuous
 62
               7
100
AcDbLine
 10
-8859.0495827718642
 20
2910.0
 30
0.0
 11
-8574.0495827718642
 21
2910.0
 31
0.0
  0
LINE
  5
193
100
AcDbEntity
  8
壁取付ブラケット [更新済み]
370
               5
390
0
  6
Continuous
 62
               7
100
AcDbLine
 10
-8859.0495827718642
 20
2910.0
 30
0.0
 11
-8859.0495827718642
 21
2890.0
 31
0.0
  0
LINE
  5
194
100
AcDbEntity
  8
壁取付ブラケット [更新済み]
370
               5
390
0
  6
Continuous
 62
               7
100
AcDbLine
 10
-8574.0495827718642
 20
2778.0
 30
0.0
 11
-8594.0495827718642
 21
2778.0
 31
0.0
  0
SPLINE
  5
195
100
AcDbEntity
  8
壁取付ブラケット [更新済み]
370
               5
390
0
  6
Continuous
 62
               7
100
AcDbSpline
210
0.0
220
0.0
230
1.0
 70
               8
 71
               2
 72
               8
 73
               5
 74
               0
 42
0.000001
 43
0.000001
 40
0.0
 40
0.0
 40
0.0
 40
1.0
 40
2.0
 40
3.0
 40
3.0
 40
3.0
 10
-8594.0495827718642
 20
2778.0
 30
0.0
 10
-8594.0495827718642
 20
2808.0103095522854
 30
0.0
 10
-8665.0561187661115
 20
2859.9896904477146
 30
0.0
 10
-8788.0430467776168
 20
2890.0
 30
0.0
 10
-8859.0495827718642
 20
2890.0
 30
0.0
  0
ENDSEC
  0
SECTION
  2
OBJECTS
  0
DICTIONARY
  5
19
100
AcDbDictionary
280
               0
281
               1
  3
ACAD_GROUP
350
1A
  3
ACAD_MLINESTYLE
350
1B
  3
ACAD_LAYOUT
350
1E
  3
ACAD_PLOTSETTINGS
350
22
  3
ACAD_PLOTSTYLENAME
350
1F
  0
DICTIONARY
  5
1A
102
{ACAD_REACTORS
330
19
102
}
100
AcDbDictionary
280
               0
281
               1
  0
DICTIONARY
  5
1B
102
{ACAD_REACTORS
330
19
102
}
100
AcDbDictionary
280
               0
281
               1
  3
Standard
350
1C
  0
MLINESTYLE
  5
1C
102
{ACAD_REACTORS
330
1B
102
}
100
AcDbMlineStyle
  2
Standard
 70
               0
  3

 62
               0
 51
90.0
 52
90.0
 71
               2
 49
0.5
 62
             256
  6
ByLayer
 49
-0.5
 62
             256
  6
ByLayer
  0
ACDBDICTIONARYWDFLT
  5
1F
102
{ACAD_REACTORS
330
19
102
}
100
AcDbDictionary
281
               1
  3
Normal
350
1D
100
AcDbDictionaryWithDefault
340
1D
  0
ACDBPLACEHOLDER
  5
1D
102
{ACAD_REACTORS
330
1F
102
}
  0
LAYOUT
  5
20
102
{ACAD_REACTORS
330
1E
102
}
100
AcDbPlotSettings
  1

  2

  4

  6

 40
0.0
 41
0.0
 42
0.0
 43
0.0
 44
0.0
 45
0.0
 46
0.0
 47
0.0
 48
0.0
 49
0.0
140
0.0
141
0.0
142
1.0
143
1.0
 70
            1024
 72
               0
 73
               0
 74
               0
  7

 75
               0
147
1.0
148
0.0
149
0.0
100
AcDbLayout
  1
Model
 70
               0
 71
               0
 10
0.0
 20
0.0
 11
0.0
 21
0.0
 12
0.0
 22
0.0
 32
0.0
 14
0.0
 24
0.0
 34
0.0
 15
0.0
 25
0.0
 35
0.0
146
0.0
 13
0.0
 23
0.0
 33
0.0
 16
0.0
 26
0.0
 36
0.0
 17
0.0
 27
0.0
 37
0.0
 76
               0
330
A
331
0
345
0
346
0
  0
LAYOUT
  5
21
102
{ACAD_REACTORS
330
1E
102
}
100
AcDbPlotSettings
  1

  2

  4

  6

 40
0.0
 41
0.0
 42
0.0
 43
0.0
 44
0.0
 45
0.0
 46
0.0
 47
0.0
 48
0.0
 49
0.0
140
0.0
141
0.0
142
1.0
143
1.0
 70
               0
 72
               0
 73
               0
 74
               0
  7

 75
               0
147
1.0
148
0.0
149
0.0
100
AcDbLayout
  1
Layout1
 70
               0
 71
               0
 10
0.0
 20
0.0
 11
0.0
 21
0.0
 12
0.0
 22
0.0
 32
0.0
 14
0.0
 24
0.0
 34
0.0
 15
0.0
 25
0.0
 35
0.0
146
0.0
 13
0.0
 23
0.0
 33
0.0
 16
0.0
 26
0.0
 36
0.0
 17
0.0
 27
0.0
 37
0.0
 76
               0
330
B
331
0
345
0
346
0
  0
DICTIONARY
  5
1E
102
{ACAD_REACTORS
330
19
102
}
100
AcDbDictionary
280
               0
281
               1
  3
Layout1
350
21
  3
Model
350
20
  0
DICTIONARY
  5
22
102
{ACAD_REACTORS
330
19
102
}
100
AcDbDictionary
280
               0
281
               1
  0
ENDSEC
  0
EOF
