  0
SECTION
  2
HEADER
  9
$ACADVER
  1
AC1015
  9
$ACADMAINTVER
 70
               6
  9
$DWGCODEPAGE
  3
ANSI_932
  9
$INSBASE
 10
0.0
 20
0.0
 30
0.0
  9
$EXTMIN
 10
-975.00000000024124
 20
-1431.5255224711127
 30
-14.834305555555554
  9
$EXTMAX
 10
975.00000000024124
 20
1405.9972926412997
 30
14.834305555555554
  9
$LIMMIN
 10
0.0
 20
0.0
  9
$LIMMAX
 10
0.0
 20
0.0
  9
$ORTHOMODE
 70
               0
  9
$REGENMODE
 70
               1
  9
$FILLMODE
 70
               1
  9
$QTEXTMODE
 70
               0
  9
$MIRRTEXT
 70
               1
  9
$LTSCALE
 40
50.799999999999997
  9
$ATTMODE
 70
               1
  9
$TEXTSIZE
 40
0.2
  9
$TRACEWID
 40
1.0
  9
$TEXTSTYLE
  7
Standard
  9
$CLAYER
  8
template
  9
$CELTYPE
  6
Continuous
  9
$CECOLOR
 62
             256
  9
$CELTSCALE
 40
1.0
  9
$DISPSILH
 70
               0
  9
$DIMSCALE
 40
1.0
  9
$DIMASZ
 40
31.75
  9
$DIMEXO
 40
0.0
  9
$DIMDLI
 40
6.9999999999999396
  9
$DIMRND
 40
0.0
  9
$DIMDLE
 40
0.0
  9
$DIMEXE
 40
19.999999999996199
  9
$DIMTP
 40
0.0
  9
$DIMTM
 40
0.0
  9
$DIMTXT
 40
24.432617187500004
  9
$DIMCEN
 40
0.0
  9
$DIMTSZ
 40
0.0
  9
$DIMTOL
 70
               0
  9
$DIMLIM
 70
               0
  9
$DIMTIH
 70
               0
  9
$DIMTOH
 70
               0
  9
$DIMSE1
 70
               0
  9
$DIMSE2
 70
               0
  9
$DIMTAD
 70
               1
  9
$DIMZIN
 70
              11
  9
$DIMBLK
  1
VW_FILLEDARROW
  9
$DIMASO
 70
               1
  9
$DIMSHO
 70
               1
  9
$DIMPOST
  1
<>
  9
$DIMAPOST
  1
[]
  9
$DIMALT
 70
               0
  9
$DIMALTD
 70
               1
  9
$DIMALTF
 40
1.0
  9
$DIMLFAC
 40
1.0
  9
$DIMTOFL
 70
               0
  9
$DIMTVP
 40
0.0
  9
$DIMTIX
 70
               1
  9
$DIMSOXD
 70
               0
  9
$DIMSAH
 70
               0
  9
$DIMBLK1
  1

  9
$DIMBLK2
  1

  9
$DIMSTYLE
  2
JIS
  9
$DIMCLRD
 70
               0
  9
$DIMCLRE
 70
               0
  9
$DIMCLRT
 70
               0
  9
$DIMTFAC
 40
1.0
  9
$DIMGAP
 40
1.00000000000108
  9
$DIMJUST
 70
               0
  9
$DIMSD1
 70
               0
  9
$DIMSD2
 70
               0
  9
$DIMTOLJ
 70
               1
  9
$DIMTZIN
 70
              11
  9
$DIMALTZ
 70
              11
  9
$DIMALTTZ
 70
              11
  9
$DIMUPT
 70
               0
  9
$DIMDEC
 70
               1
  9
$DIMTDEC
 70
               1
  9
$DIMALTU
 70
               2
  9
$DIMALTTD
 70
               2
  9
$DIMTXSTY
  7
ＭＳ ゴシック
  9
$DIMAUNIT
 70
               0
  9
$DIMADEC
 70
               2
  9
$DIMALTRND
 40
0.0
  9
$DIMAZIN
 70
               0
  9
$DIMDSEP
 70
              46
  9
$DIMATFIT
 70
               0
  9
$DIMFRAC
 70
               2
  9
$DIMLDRBLK
  1

  9
$DIMLUNIT
 70
               2
  9
$DIMLWD
 70
              -2
  9
$DIMLWE
 70
              -2
  9
$DIMTMOVE
 70
               0
  9
$LUNITS
 70
               2
  9
$LUPREC
 70
               4
  9
$SKETCHINC
 40
0.1
  9
$FILLETRAD
 40
0.0
  9
$AUNITS
 70
               0
  9
$AUPREC
 70
               0
  9
$MENU
  1
acad
  9
$ELEVATION
 40
0.0
  9
$PELEVATION
 40
0.0
  9
$THICKNESS
 40
0.0
  9
$LIMCHECK
 70
               0
  9
$CHAMFERA
 40
0.0
  9
$CHAMFERB
 40
0.0
  9
$CHAMFERC
 40
0.0
  9
$CHAMFERD
 40
0.0
  9
$SKPOLY
 70
               0
  9
$TDCREATE
 40
2455756.696018518
  9
$TDUCREATE
 40
0.000000000
  9
$TDUPDATE
 40
2455756.696018518
  9
$TDUUPDATE
 40
0.000000000
  9
$TDINDWG
 40
0.0000000000
  9
$TDUSRTIMER
 40
0.0000000000
  9
$USRTIMER
 70
               1
  9
$ANGBASE
 50
0.0
  9
$ANGDIR
 70
               0
  9
$PDMODE
 70
               1
  9
$PDSIZE
 40
-2.0
  9
$PLINEWID
 40
0.0
  9
$SPLFRAME
 70
               0
  9
$SPLINETYPE
 70
               6
  9
$SPLINESEGS
 70
               8
  9
$HANDSEED
  5
193
  9
$SURFTAB1
 70
               6
  9
$SURFTAB2
 70
               6
  9
$SURFTYPE
 70
               6
  9
$SURFU
 70
               6
  9
$SURFV
 70
               6
  9
$UCSBASE
  2

  9
$UCSNAME
  2

  9
$UCSORG
 10
0.0
 20
0.0
 30
0.0
  9
$UCSXDIR
 10
1.0
 20
0.0
 30
0.0
  9
$UCSYDIR
 10
0.0
 20
1.0
 30
0.0
  9
$UCSORTHOREF
  2

  9
$UCSORTHOVIEW
 70
               0
  9
$UCSORGTOP
 10
0.0
 20
0.0
 30
0.0
  9
$UCSORGBOTTOM
 10
0.0
 20
0.0
 30
0.0
  9
$UCSORGLEFT
 10
0.0
 20
0.0
 30
0.0
  9
$UCSORGRIGHT
 10
0.0
 20
0.0
 30
0.0
  9
$UCSORGFRONT
 10
0.0
 20
0.0
 30
0.0
  9
$UCSORGBACK
 10
0.0
 20
0.0
 30
0.0
  9
$PUCSBASE
  2

  9
$PUCSNAME
  2

  9
$PUCSORG
 10
0.0
 20
0.0
 30
0.0
  9
$PUCSXDIR
 10
1.0
 20
0.0
 30
0.0
  9
$PUCSYDIR
 10
0.0
 20
1.0
 30
0.0
  9
$PUCSORTHOREF
  2

  9
$PUCSORTHOVIEW
 70
               0
  9
$PUCSORGTOP
 10
0.0
 20
0.0
 30
0.0
  9
$PUCSORGBOTTOM
 10
0.0
 20
0.0
 30
0.0
  9
$PUCSORGLEFT
 10
0.0
 20
0.0
 30
0.0
  9
$PUCSORGRIGHT
 10
0.0
 20
0.0
 30
0.0
  9
$PUCSORGFRONT
 10
0.0
 20
0.0
 30
0.0
  9
$PUCSORGBACK
 10
0.0
 20
0.0
 30
0.0
  9
$USERI1
 70
               0
  9
$USERI2
 70
               0
  9
$USERI3
 70
               0
  9
$USERI4
 70
               0
  9
$USERI5
 70
               0
  9
$USERR1
 40
0.0
  9
$USERR2
 40
0.0
  9
$USERR3
 40
0.0
  9
$USERR4
 40
0.0
  9
$USERR5
 40
0.0
  9
$WORLDVIEW
 70
               1
  9
$SHADEDGE
 70
               3
  9
$SHADEDIF
 70
              70
  9
$TILEMODE
 70
               1
  9
$MAXACTVP
 70
              64
  9
$PINSBASE
 10
0.0
 20
0.0
 30
0.0
  9
$PLIMCHECK
 70
               0
  9
$PEXTMIN
 10
1.0000000000000000E+20
 20
1.0000000000000000E+20
 30
1.0000000000000000E+20
  9
$PEXTMAX
 10
-1.0000000000000000E+20
 20
-1.0000000000000000E+20
 30
-1.0000000000000000E+20
  9
$PLIMMIN
 10
0.0
 20
0.0
  9
$PLIMMAX
 10
12.0
 20
9.0
  9
$UNITMODE
 70
               0
  9
$VISRETAIN
 70
               0
  9
$PLINEGEN
 70
               1
  9
$PSLTSCALE
 70
               0
  9
$TREEDEPTH
 70
            3020
  9
$CMLSTYLE
  2
Standard
  9
$CMLJUST
 70
               0
  9
$CMLSCALE
 40
1.0
  9
$PROXYGRAPHICS
 70
               0
  9
$MEASUREMENT
 70
               1
  9
$CELWEIGHT
370
               0
  9
$ENDCAPS
280
               0
  9
$JOINSTYLE
280
               0
  9
$LWDISPLAY
290
               1
  9
$INSUNITS
 70
               4
  9
$HYPERLINKBASE
  1

  9
$STYLESHEET
  1

  9
$XEDIT
290
               1
  9
$CEPSNTYPE
380
               0
  9
$PSTYLEMODE
290
               1
  9
$FINGERPRINTGUID
  2

  9
$VERSIONGUID
  2

  9
$EXTNAMES
290
               1
  9
$PSVPSCALE
 40
0.0
  0
ENDSEC
  0
SECTION
  2
CLASSES
  0
CLASS
  1
LWPOLYLINE
  2
AcDbPolyline
  3
AutoCAD 2000
 90
        0
280
               0
281
               1
  0
CLASS
  1
IMAGE
  2
AcDbRasterImage
  3
ISM
 90
      127
280
               0
281
               1
  0
CLASS
  1
OLE2FRAME
  2
AcDbOle2Frame
  3
AutoCAD 2000
 90
        0
280
               0
281
               1
  0
CLASS
  1
HATCH
  2
AcDbHatch
  3
AutoCAD 2000
 90
        0
280
               0
281
               1
  0
CLASS
  1
DICTIONARYVAR
  2
AcDbDictionaryVar
  3
AutoCAD 2000
 90
        0
280
               0
281
               0
  0
CLASS
  1
RASTERVARIABLES
  2
AcDbRasterVariables
  3
ISM
 90
        0
280
               0
281
               0
  0
CLASS
  1
IMAGEDEF
  2
AcDbRasterImageDef
  3
ISM
 90
        0
280
               0
281
               0
  0
CLASS
  1
IMAGEDEF_REACTOR
  2
AcDbRasterImageDefReactor
  3
ISM
 90
        1
280
               0
281
               0
  0
CLASS
  1
IDBUFFER
  2
AcDbIdBuffer
  3
AutoCAD 2000
 90
        0
280
               0
281
               0
  0
CLASS
  1
SPATIAL_FILTER
  2
AcDbSpatialFilter
  3
AutoCAD 2000
 90
        0
280
               0
281
               0
  0
CLASS
  1
XRECORD
  2
AcDbXrecord
  3
AutoCAD 2000
 90
        0
280
               0
281
               0
  0
CLASS
  1
SORTENTSTABLE
  2
AcDbSortentsTable
  3
AutoCAD 2000
 90
        0
280
               0
281
               0
  0
CLASS
  1
LAYER_INDEX
  2
AcDbLayerIndex
  3
AutoCAD 2000
 90
        0
280
               0
281
               0
  0
CLASS
  1
SPATIAL_INDEX
  2
AcDbSpatialIndex
  3
AutoCAD 2000
 90
        0
280
               0
281
               0
  0
CLASS
  1
OBJECT_PTR
  2
CAseDLPNTableRecord
  3
"ASE-LPNTableRecord"
 90
        1
280
               0
281
               0
  0
CLASS
  1
LAYOUT
  2
AcDbLayout
  3
AutoCAD 2000
 90
        0
280
               0
281
               0
  0
CLASS
  1
PLOTSETTINGS
  2
AcDbPlotSettings
  3
AutoCAD 2000
 90
        0
280
               0
281
               0
  0
CLASS
  1
ACDBDICTIONARYWDFLT
  2
AcDbDictionaryWithDefault
  3
AutoCAD 2000
 90
        0
280
               0
281
               0
  0
CLASS
  1
ACDBPLACEHOLDER
  2
AcDbPlaceHolder
  3
AutoCAD 2000
 90
        0
280
               0
281
               0
  0
ENDSEC
  0
SECTION
  2
TABLES
  0
TABLE
  2
VPORT
  5
7
100
AcDbSymbolTable
 70
               1
  0
VPORT
  5
15
100
AcDbSymbolTableRecord
100
AcDbViewportTableRecord
  2
*ACTIVE
 70
               0
 10
0.0
 20
0.0
 11
1.0
 21
1.0
 12
0.0
 22
-12.764114914906486
 13
0.0
 23
0.0
 14
1.0
 24
1.0
 15
0.0
 25
0.0
 16
0.0
 26
0.0
 36
1.0
 17
0.0
 27
0.0
 37
0.0
 40
2837.5228151124124
 41
0.688564
 42
50.0
 43
0.0
 44
0.0
 50
0.0
 51
0.0
 71
               0
 72
            2000
 73
               1
 74
               1
 75
               0
 76
               0
 77
               0
 78
               0
281
               0
 65
               0
110
0.0
120
0.0
130
0.0
111
1.0
121
0.0
131
0.0
112
0.0
122
1.0
132
0.0
345
0
346
0
 79
               0
146
0.0
  0
ENDTAB
  0
TABLE
  2
LTYPE
  5
4
100
AcDbSymbolTable
 70
              17
  0
LTYPE
  5
11
100
AcDbSymbolTableRecord
100
AcDbLinetypeTableRecord
  2
ByBlock
 70
              64
  3

 72
              65
 73
               0
 40
0.0
  0
LTYPE
  5
12
100
AcDbSymbolTableRecord
100
AcDbLinetypeTableRecord
  2
ByLayer
 70
              64
  3

 72
              65
 73
               0
 40
0.0
  0
LTYPE
  5
13
100
AcDbSymbolTableRecord
100
AcDbLinetypeTableRecord
  2
Continuous
 70
              64
  3
Solid line
 72
              65
 73
               0
 40
0.0
  0
LTYPE
  5
36
100
AcDbSymbolTableRecord
100
AcDbLinetypeTableRecord
  2
STYLE_01
 70
               0
  3

 72
              65
 73
               2
 40
0.516732283464567
 49
0.344488188976378
 74
               0
 49
-0.172244094488189
 74
               0
  0
LTYPE
  5
37
100
AcDbSymbolTableRecord
100
AcDbLinetypeTableRecord
  2
STYLE_02
 70
               0
  3

 72
              65
 73
               2
 40
0.6944250000000001
 49
0.48607
 74
               0
 49
-0.2083550000000001
 74
               0
  0
LTYPE
  5
38
100
AcDbSymbolTableRecord
100
AcDbLinetypeTableRecord
  2
STYLE_03
 70
               0
  3

 72
              65
 73
               2
 40
1.25
 49
1.0416400000000001
 74
               0
 49
-0.2083599999999999
 74
               0
  0
LTYPE
  5
39
100
AcDbSymbolTableRecord
100
AcDbLinetypeTableRecord
  2
STYLE_04
 70
               0
  3

 72
              65
 73
               2
 40
1.5277099999999999
 49
1.3194249999999998
 74
               0
 49
-0.208285
 74
               0
  0
LTYPE
  5
3A
100
AcDbSymbolTableRecord
100
AcDbLinetypeTableRecord
  2
STYLE_05
 70
               0
  3

 72
              65
 73
               2
 40
0.20828
 49
0.069425
 74
               0
 49
-0.138855
 74
               0
  0
LTYPE
  5
3B
100
AcDbSymbolTableRecord
100
AcDbLinetypeTableRecord
  2
STYLE_06
 70
               0
  3

 72
              65
 73
               4
 40
1.0416400000000001
 49
0.625
 74
               0
 49
-0.20828
 74
               0
 49
0.06943
 74
               0
 49
-0.13893
 74
               0
  0
LTYPE
  5
3C
100
AcDbSymbolTableRecord
100
AcDbLinetypeTableRecord
  2
STYLE_07
 70
               0
  3

 72
              65
 73
               6
 40
1.875
 49
0.625
 74
               0
 49
-0.20828
 74
               0
 49
0.6250000000000001
 74
               0
 49
-0.2083599999999999
 74
               0
 49
0.06943
 74
               0
 49
-0.1389299999999999
 74
               0
  0
LTYPE
  5
3D
100
AcDbSymbolTableRecord
100
AcDbLinetypeTableRecord
  2
STYLE_08
 70
               0
  3

 72
              65
 73
               6
 40
1.25
 49
0.625
 74
               0
 49
-0.20828
 74
               0
 49
0.06943
 74
               0
 49
-0.13893
 74
               0
 49
0.0694299999999999
 74
               0
 49
-0.13893
 74
               0
  0
LTYPE
  5
3E
100
AcDbSymbolTableRecord
100
AcDbLinetypeTableRecord
  2
STYLE_09
 70
               0
  3

 72
              65
 73
               4
 40
5.0
 49
3.75
 74
               0
 49
-0.2777849999999998
 74
               0
 49
0.6944300000000003
 74
               0
 49
-0.2777849999999998
 74
               0
  0
LTYPE
  5
3F
100
AcDbSymbolTableRecord
100
AcDbLinetypeTableRecord
  2
STYLE_10
 70
               0
  3

 72
              65
 73
               6
 40
5.9375
 49
3.75
 74
               0
 49
-0.2777849999999998
 74
               0
 49
0.6944300000000003
 74
               0
 49
-0.2777849999999998
 74
               0
 49
0.625
 74
               0
 49
-0.3125
 74
               0
  0
LTYPE
  5
40
100
AcDbSymbolTableRecord
100
AcDbLinetypeTableRecord
  2
STYLE_11
 70
               0
  3

 72
              65
 73
               2
 40
0.0694444881889764
 49
0.0347222440944882
 74
               0
 49
-0.0347222440944882
 74
               0
  0
LTYPE
  5
41
100
AcDbSymbolTableRecord
100
AcDbLinetypeTableRecord
  2
STYLE_12
 70
               0
  3

 72
              65
 73
               2
 40
0.3937007874015748
 49
0.1968503937007874
 74
               0
 49
-0.1968503937007874
 74
               0
  0
LTYPE
  5
42
100
AcDbSymbolTableRecord
100
AcDbLinetypeTableRecord
  2
STYLE_13
 70
               0
  3

 72
              65
 73
               2
 40
0.5905511811023622
 49
0.2952755905511811
 74
               0
 49
-0.2952755905511811
 74
               0
  0
LTYPE
  5
43
100
AcDbSymbolTableRecord
100
AcDbLinetypeTableRecord
  2
STYLE_14
 70
               0
  3

 72
              65
 73
               2
 40
1.9685039370078738
 49
0.9842519685039369
 74
               0
 49
-0.9842519685039369
 74
               0
  0
ENDTAB
  0
TABLE
  2
LAYER
  5
2
100
AcDbSymbolTable
 70
               5
  0
LAYER
  5
14
100
AcDbSymbolTableRecord
100
AcDbLayerTableRecord
  2
0
 70
               0
 62
               7
  6
Continuous
290
               1
370
              -3
390
1D
  0
LAYER
  5
44
100
AcDbSymbolTableRecord
100
AcDbLayerTableRecord
  2
Defpoints
 70
               0
 62
               7
  6
Continuous
290
               0
370
              -3
390
1D
  0
LAYER
  5
45
100
AcDbSymbolTableRecord
100
AcDbLayerTableRecord
  2
template
 70
               0
 62
               7
  6
Continuous
290
               1
370
              -3
390
1D
  0
LAYER
  5
46
100
AcDbSymbolTableRecord
100
AcDbLayerTableRecord
  2
notes
 70
               0
 62
               7
  6
Continuous
290
               1
370
              -3
390
1D
  0
LAYER
  5
47
100
AcDbSymbolTableRecord
100
AcDbLayerTableRecord
  2
KUF70-0002
 70
               0
 62
               7
  6
Continuous
290
               1
370
              -3
390
1D
  0
ENDTAB
  0
TABLE
  2
STYLE
  5
3
100
AcDbSymbolTable
 70
               2
  0
STYLE
  5
17
100
AcDbSymbolTableRecord
100
AcDbTextStyleTableRecord
  2
Standard
 70
               0
 40
0.0
 41
1.0
 50
0.0
 71
               0
 42
0.0
  3
txt
  4
BIGFONT.SHX
  0
STYLE
  5
35
100
AcDbSymbolTableRecord
100
AcDbTextStyleTableRecord
  2
ＭＳ ゴシック
 70
               0
 40
0.0
 41
1.0
 50
0.0
 71
               0
 42
0.0
  3

  4
ＭＳ ゴシック
1001
ACAD
1000
ＭＳ ゴシック
1071
        0
  0
ENDTAB
  0
TABLE
  2
VIEW
  5
5
100
AcDbSymbolTable
 70
               0
  0
ENDTAB
  0
TABLE
  2
UCS
  5
6
100
AcDbSymbolTable
 70
               0
  0
ENDTAB
  0
TABLE
  2
APPID
  5
8
100
AcDbSymbolTable
 70
               1
  0
APPID
  5
16
100
AcDbSymbolTableRecord
100
AcDbRegAppTableRecord
  2
ACAD
 70
               0
  0
ENDTAB
  0
TABLE
  2
DIMSTYLE
  5
9
100
AcDbSymbolTable
 70
               3
100
AcDbDimStyleTable
 71
               0
  0
DIMSTYLE
105
18
100
AcDbSymbolTableRecord
100
AcDbDimStyleTableRecord
  2
Standard
 70
               0
  3

  4

 40
1.0
 41
0.18
 42
0.0625
 43
0.38
 44
0.18
 45
0.0
 46
0.0
 47
0.0
 48
0.0
 71
               0
 72
               0
 73
               1
 74
               1
 75
               0
 76
               0
 77
               0
 78
               0
 79
               0
140
0.18
141
0.09
142
0.0
143
25.399999999999999
144
1.0
145
0.0
146
1.0
147
0.09
148
0.0
170
               0
171
               2
172
               0
173
               0
174
               0
175
               0
176
               0
177
               0
178
               0
179
               0
271
               4
272
               4
273
               2
274
               2
275
               0
276
               0
277
               2
278
              46
279
               0
280
               0
281
               0
282
               0
283
               1
284
               0
285
               0
286
               0
288
               0
289
               3
340
17
341
0
342
0
343
0
344
0
371
              -2
372
              -2
  0
DIMSTYLE
105
50
100
AcDbSymbolTableRecord
100
AcDbDimStyleTableRecord
  2
tfrom線あり
 70
               0
  3
<>
  4
[]
 40
1.0
 41
3.999755859375
 42
24.999999999999996
 43
0.9999999999999999
 44
0.0
 45
0.0
 46
0.0
 47
0.0
 48
0.0
 71
               0
 72
               0
 73
               0
 74
               0
 75
               0
 76
               0
 77
               1
 78
              11
 79
               0
140
24.432617187500004
141
0.0
142
0.0
143
1.0
144
1.0
145
0.0
146
1.0
147
0.4999999999999999
148
0.0
170
               0
171
               1
172
               0
173
               0
174
               1
175
               0
176
               0
177
               0
178
               0
179
               2
271
               1
272
               1
273
               2
274
               2
275
               0
276
               2
277
               2
278
              46
279
               0
280
               0
281
               0
282
               0
283
               1
284
              11
285
              11
286
              11
288
               0
289
               0
340
35
341
48
342
48
343
0
344
0
371
              -2
372
              -2
  0
DIMSTYLE
105
55
100
AcDbSymbolTableRecord
100
AcDbDimStyleTableRecord
  2
JIS
 70
               0
  3
<>
  4
[]
 40
1.0
 41
31.75
 42
0.0
 43
6.9999999999999396
 44
19.999999999996199
 45
0.0
 46
0.0
 47
0.0
 48
0.0
 71
               0
 72
               0
 73
               0
 74
               0
 75
               0
 76
               0
 77
               1
 78
              11
 79
               0
140
24.432617187500004
141
0.0
142
0.0
143
1.0
144
1.0
145
0.0
146
1.0
147
1.00000000000108
148
0.0
170
               0
171
               1
172
               0
173
               0
174
               1
175
               0
176
               0
177
               0
178
               0
179
               2
271
               1
272
               1
273
               2
274
               2
275
               0
276
               2
277
               2
278
              46
279
               0
280
               0
281
               0
282
               0
283
               1
284
              11
285
              11
286
              11
288
               0
289
               0
340
35
341
51
342
51
343
0
344
0
371
              -2
372
              -2
  0
ENDTAB
  0
TABLE
  2
BLOCK_RECORD
  5
1
100
AcDbSymbolTable
 70
              20
  0
BLOCK_RECORD
  5
A
100
AcDbSymbolTableRecord
100
AcDbBlockTableRecord
  2
*MODEL_SPACE
340
20
  0
BLOCK_RECORD
  5
B
100
AcDbSymbolTableRecord
100
AcDbBlockTableRecord
  2
*PAPER_SPACE
340
21
  0
BLOCK_RECORD
  5
48
100
AcDbSymbolTableRecord
100
AcDbBlockTableRecord
  2
_DOT
340
0
  0
BLOCK_RECORD
  5
51
100
AcDbSymbolTableRecord
100
AcDbBlockTableRecord
  2
VW_FILLEDARROW
340
0
  0
BLOCK_RECORD
  5
23
100
AcDbSymbolTableRecord
100
AcDbBlockTableRecord
  2
グループ
340
0
102
{BLKREFS
331
146
102
}
  0
BLOCK_RECORD
  5
24
100
AcDbSymbolTableRecord
100
AcDbBlockTableRecord
  2
*D3
340
0
  0
BLOCK_RECORD
  5
25
100
AcDbSymbolTableRecord
100
AcDbBlockTableRecord
  2
*D4
340
0
  0
BLOCK_RECORD
  5
26
100
AcDbSymbolTableRecord
100
AcDbBlockTableRecord
  2
*D5
340
0
  0
BLOCK_RECORD
  5
27
100
AcDbSymbolTableRecord
100
AcDbBlockTableRecord
  2
*D6
340
0
  0
BLOCK_RECORD
  5
28
100
AcDbSymbolTableRecord
100
AcDbBlockTableRecord
  2
*D7
340
0
  0
BLOCK_RECORD
  5
29
100
AcDbSymbolTableRecord
100
AcDbBlockTableRecord
  2
*D8
340
0
  0
BLOCK_RECORD
  5
2A
100
AcDbSymbolTableRecord
100
AcDbBlockTableRecord
  2
*D9
340
0
  0
BLOCK_RECORD
  5
2B
100
AcDbSymbolTableRecord
100
AcDbBlockTableRecord
  2
*D10
340
0
  0
BLOCK_RECORD
  5
2C
100
AcDbSymbolTableRecord
100
AcDbBlockTableRecord
  2
*D11
340
0
  0
BLOCK_RECORD
  5
2D
100
AcDbSymbolTableRecord
100
AcDbBlockTableRecord
  2
*D12
340
0
  0
BLOCK_RECORD
  5
2E
100
AcDbSymbolTableRecord
100
AcDbBlockTableRecord
  2
*D13
340
0
  0
BLOCK_RECORD
  5
2F
100
AcDbSymbolTableRecord
100
AcDbBlockTableRecord
  2
*D14
340
0
  0
BLOCK_RECORD
  5
30
100
AcDbSymbolTableRecord
100
AcDbBlockTableRecord
  2
*D15
340
0
  0
BLOCK_RECORD
  5
31
100
AcDbSymbolTableRecord
100
AcDbBlockTableRecord
  2
*D16
340
0
  0
BLOCK_RECORD
  5
32
100
AcDbSymbolTableRecord
100
AcDbBlockTableRecord
  2
*D17
340
0
  0
BLOCK_RECORD
  5
33
100
AcDbSymbolTableRecord
100
AcDbBlockTableRecord
  2
*D18
340
0
  0
BLOCK_RECORD
  5
34
100
AcDbSymbolTableRecord
100
AcDbBlockTableRecord
  2
*D19
340
0
  0
ENDTAB
  0
ENDSEC
  0
SECTION
  2
BLOCKS
  0
BLOCK
  5
D
100
AcDbEntity
  8
0
390
0
100
AcDbBlockBegin
  2
*MODEL_SPACE
 70
               0
 10
0.0
 20
0.0
 30
0.0
  3
*MODEL_SPACE
  1

  0
ENDBLK
  5
E
100
AcDbEntity
  8
0
390
0
100
AcDbBlockEnd
  0
BLOCK
  5
F
100
AcDbEntity
 67
               1
  8
0
390
0
100
AcDbBlockBegin
  2
*PAPER_SPACE
 70
               0
 10
0.0
 20
0.0
 30
0.0
  3
*PAPER_SPACE
  1

  0
ENDBLK
  5
10
100
AcDbEntity
 67
               1
  8
0
390
0
100
AcDbBlockEnd
  0
BLOCK
  5
49
100
AcDbEntity
  8
0
390
0
100
AcDbBlockBegin
  2
_DOT
 70
               0
 10
0.0
 20
0.0
 30
0.0
  3
_DOT
  1

  0
POLYLINE
  5
4A
100
AcDbEntity
  8
0
370
              -2
390
0
  6
ByBlock
 62
               0
100
AcDb2dPolyline
 66
               1
 10
0.0
 20
0.0
 30
0.0
 70
               1
 40
0.5
 41
0.5
  0
VERTEX
  5
4B
100
AcDbEntity
  8
0
370
              -2
390
0
  6
ByBlock
 62
               0
100
AcDbVertex
100
AcDb2dVertex
 10
-0.25
 20
0.0
 30
0.0
 42
1.0
  0
VERTEX
  5
4C
100
AcDbEntity
  8
0
370
              -2
390
0
  6
ByBlock
 62
               0
100
AcDbVertex
100
AcDb2dVertex
 10
0.25
 20
0.0
 30
0.0
 42
1.0
  0
SEQEND
  5
4D
100
AcDbEntity
  8
0
390
0
  0
LINE
  5
4E
100
AcDbEntity
  8
0
370
              -2
390
0
  6
ByBlock
 62
               0
100
AcDbLine
 10
-0.5
 20
0.0
 30
0.0
 11
-1.0
 21
0.0
 31
0.0
  0
ENDBLK
  5
4F
100
AcDbEntity
  8
0
390
0
100
AcDbBlockEnd
  0
BLOCK
  5
52
100
AcDbEntity
  8
0
370
              -2
390
0
  6
ByBlock
 62
               0
100
AcDbBlockBegin
  2
VW_FILLEDARROW
 70
               0
 10
0.0
 20
0.0
 30
0.0
  3
VW_FILLEDARROW
  1

  0
SOLID
  5
53
100
AcDbEntity
  8
0
370
              -2
390
0
 62
               0
100
AcDbTrace
 10
0.0
 20
0.0
 30
0.0
 11
-0.9921874999999999
 21
-0.2658558393652545
 31
0.0
 12
-0.9921874999999999
 22
0.2658558393652548
 32
0.0
 13
-0.9921874999999999
 23
0.2658558393652548
 33
0.0
  0
ENDBLK
  5
54
100
AcDbEntity
  8
0
390
0
100
AcDbBlockEnd
  0
BLOCK
  5
56
100
AcDbEntity
  8
template
390
0
100
AcDbBlockBegin
  2
グループ
 70
               0
 10
0.0
 20
0.0
 30
0.0
  3
グループ
  1

  0
LWPOLYLINE
  5
57
100
AcDbEntity
  8
0
370
              15
390
0
  6
Continuous
 62
               7
100
AcDbPolyline
 90
        8
 70
             129
 10
847.68273706704565
 20
-1530.4828379951882
 10
847.68273706704565
 20
-1536.4802266887641
 10
838.18154014904235
 20
-1536.4802266887641
 10
838.18154014904235
 20
-1560.9311899522727
 10
829.82616288725956
 20
-1560.9311899522727
 10
829.82616288725956
 20
-1536.4802266887641
 10
820.49320594095013
 20
-1536.4802266887641
 10
820.49320594095013
 20
-1530.4828379951882
  0
LWPOLYLINE
  5
58
100
AcDbEntity
  8
0
370
              15
390
0
  6
Continuous
 62
               7
100
AcDbPolyline
 90
      101
 70
             128
 10
860.41102889760259
 20
-1531.2110864881247
 10
860.42637892639073
 20
-1531.2067257314388
 42
-0.0222221607812578
 10
860.71638350305875
 20
-1531.138101266195
 10
860.73217726705104
 20
-1531.1350978430983
 42
-0.0146883565587884
 10
860.99487997227652
 20
-1531.0930946561487
 42
-0.0127458844184105
 10
861.25951893943352
 20
-1531.0655576880758
 10
861.32197401774226
 20
-1531.060664265488
 42
-0.0198099018565234
 10
861.71282312721689
 20
-1531.0455791080913
 10
861.76463459666297
 20
-1531.0456328837563
 42
-0.0147617382764992
 10
862.25925805763711
 20
-1531.0607529090012
 10
862.3319495125088
 20
-1531.0651255158884
 42
-0.0162624549002943
 10
862.72210314197662
 20
-1531.1013583911611
 10
862.84363553324727
 20
-1531.1166449501591
 42
-0.0080020874660742
 10
862.98921456432731
 20
-1531.137327797426
 10
863.02753403492011
 20
-1531.1433990752369
 42
-0.0053821929685989
 10
863.09601814023722
 20
-1531.1550065990587
 10
862.36961244103861
 20
-1533.3359350547726
 42
0.0108667757395953
 10
862.30229537090827
 20
-1533.3227479395528
 10
862.26482734771821
 20
-1533.3162501969582
 42
0.0170663203309148
 10
862.12161056080424
 20
-1533.2964205996666
 10
862.05373522811976
 20
-1533.289373429079
 42
0.0220162375274194
 10
861.77335582026558
 20
-1533.2726910683089
 10
861.69550025321371
 20
-1533.2714917010424
 42
0.0282606915785871
 10
861.35986392963446
 20
-1533.2852949780115
 10
861.31595065585668
 20
-1533.2895949680158
 42
0.016967721368741
 10
861.07002616090313
 20
-1533.3221320175671
 42
0.0190576269865644
 10
860.8271181983265
 20
-1533.3722788896725
 10
860.8208590102123
 20
-1533.3738218637827
 42
0.0213685642847671
 10
860.57047452573261
 20
-1533.4470221488882
 10
860.56498463081834
 20
-1533.4488851449466
 42
0.0237595297593262
 10
860.31148974591872
 20
-1533.5485696668427
 10
860.30638767188998
 20
-1533.5508614423204
 42
0.0261857468816973
 10
860.05421689566151
 20
-1533.680397779694
 10
860.0437907065716
 20
-1533.6864632541642
 42
0.0272553062022691
 10
859.80736093133464
 20
-1533.8418354601076
 10
859.77259791782501
 20
-1533.8674966081999
 42
0.032599689317953
 10
859.62244257417365
 20
-1533.9942444811711
 10
859.59873314504546
 20
-1534.0170625096889
 42
0.0138050960651564
 10
859.50684998884037
 20
-1534.1105121712358
 42
0.0125280103797777
 10
859.42000745600774
 20
-1534.2086754978347
 10
859.39632701109849
 20
-1534.2368339960233
 42
0.0205218024736164
 10
859.27122693558556
 20
-1534.3986273102512
 10
859.24876059509768
 20
-1534.4302870400793
 42
0.0163110129582177
 10
859.09305021584873
 20
-1534.6656174751454
 10
859.09032631979539
 20
-1534.6700412371347
 42
0.013189734189802
 10
858.9435257988863
 20
-1534.9231733295048
 10
858.94182570352302
 20
-1534.9262915686347
 42
0.0107895576061969
 10
858.80404900131236
 20
-1535.1925067782693
 10
858.80331611178713
 20
-1535.1940010109163
 42
0.0091371507219938
 10
858.67483616313677
 20
-1535.468526208678
 10
858.64509053172856
 20
-1535.5352327158348
 42
0.0135418326356529
 10
858.47337659265452
 20
-1535.9501705011096
 10
858.43977178422426
 20
-1536.0380366433801
 42
0.0092834542409077
 10
858.2685427243016
 20
-1536.5119351416902
 10
858.24292559658511
 20
-1536.5871762114803
 42
0.0054261043581581
 10
858.13528744829114
 20
-1536.9149401845486
 10
858.11776146212173
 20
-1536.9703283467531
 42
0.0008225090821148
 10
858.04909141028361
 20
-1537.1885971049278
 10
857.06440227835014
 20
-1540.2134883981844
 10
860.29702611842401
 20
-1540.2134883981844
 10
859.79283368857057
 20
-1542.1179666965368
 10
856.53677740658725
 20
-1542.1179666965368
 10
850.70762837423342
 20
-1560.9311897625416
 10
848.88253076392311
 20
-1560.9311897625416
 10
854.71720879942404
 20
-1542.1179666965368
 10
852.3120924303837
 20
-1542.1179666965368
 10
852.81628486023715
 20
-1540.2134883981844
 10
855.24483367118717
 20
-1540.2134883981844
 10
856.10498858937581
 20
-1537.5770753974857
 42
-0.0005863560628961
 10
856.14172326756147
 20
-1537.4602489772501
 10
856.2178111012397
 20
-1537.2192566778085
 42
-0.0087522378926772
 10
856.41727924469478
 20
-1536.6239805906671
 10
856.50954352011308
 20
-1536.3638404221404
 42
-0.0077400953828482
 10
856.76747717924115
 20
-1535.6708357446007
 10
856.78324215082102
 20
-1535.6304048612121
 42
-0.0082369946331723
 10
857.03032662143198
 20
-1535.0263257950189
 42
-0.0085725238365638
 10
857.2975727174321
 20
-1534.4308997557378
 10
857.39920231844292
 20
-1534.2144786537456
 42
-0.0168109410593069
 10
857.68614674717219
 20
-1533.6532711276425
 10
857.81199013763739
 20
-1533.426307094634
 42
-0.000781772686282
 10
857.86627448768786
 20
-1533.3287628496139
 10
857.86640279369806
 20
-1533.3285331408902
 42
-0.003662614216061
 10
857.92129065772644
 20
-1533.2319352609088
 42
-0.0080221150666191
 10
857.97841491313477
 20
-1533.1366560261531
 10
858.00911486449434
 20
-1533.0872650770339
 42
-0.0202139325582009
 10
858.13677060429859
 20
-1532.899283476356
 10
858.19083806948868
 20
-1532.8262046121117
 42
-0.0249323791800389
 10
858.45000086320874
 20
-1532.5101593699562
 10
858.47414067733484
 20
-1532.4835450970447
 42
-0.024213212153843
 10
858.81382141887593
 20
-1532.1436616108415
 10
858.86173299162533
 20
-1532.1001524746566
 42
-0.0251017527861287
 10
859.14571469226826
 20
-1531.8671597288899
 10
859.14716016907528
 20
-1531.8660904713158
 42
-0.0130868069042322
 10
859.44542081903933
 20
-1531.6573100027683
 10
859.44698263817986
 20
-1531.6562765624947
 42
-0.0290329526394523
 10
859.75809377957535
 20
-1531.4754510608641
 10
859.78793934156988
 20
-1531.4603486780202
 42
-0.0160250190040086
 10
860.05384375532594
 20
-1531.3363325678113
 42
-0.0267600374782239
 10
860.32911983279462
 20
-1531.2355842472625
 10
860.35585575231562
 20
-1531.2273916884369
 42
-0.0049981587689033
 10
860.41102889760259
 20
-1531.2110864881247
 42
-0.0049981587689033
  0
LWPOLYLINE
  5
59
100
AcDbEntity
  8
0
370
              15
390
0
  6
Continuous
 62
               7
100
AcDbPolyline
 90
      118
 70
             128
 10
880.2253964620495
 20
-1540.287471726012
 10
882.10051838654897
 20
-1540.287471726012
 10
881.26247948094908
 20
-1542.9690382524118
 42
-0.0010587229174195
 10
881.29393529656591
 20
-1542.9321337190038
 10
881.3521293871529
 20
-1542.864151462881
 42
-0.0071874740413287
 10
881.50250460523887
 20
-1542.6935107708653
 10
881.64422737851328
 20
-1542.5372746295386
 42
-0.0148118053513507
 10
882.09435667122864
 20
-1542.069660783523
 10
882.18157900612732
 20
-1541.9842634626725
 42
-0.0086273358692999
 10
882.51712780713615
 20
-1541.6668878286557
 10
882.56096152335658
 20
-1541.6268381843277
 42
-0.0103138323118048
 10
882.81898522559561
 20
-1541.4006750469844
 10
882.86475963193595
 20
-1541.362192999713
 42
-0.006020674855798
 10
883.03760769603491
 20
-1541.2203983489696
 10
883.03963882691437
 20
-1541.2187726433435
 42
-0.0067069027298922
 10
883.21193164158331
 20
-1541.0846220095434
 10
883.21448040751477
 20
-1541.082691839664
 42
-0.0076184352041271
 10
883.38538567338071
 20
-1540.9573169644243
 42
-0.008965286167106
 10
883.56034663611445
 20
-1540.8376837040921
 10
883.5966983562613
 20
-1540.813772490608
 42
-0.0156916245935287
 10
883.79265785342022
 20
-1540.6935100041344
 42
-0.0023299011065047
 10
883.99291989738322
 20
-1540.5803320646028
 10
884.00830402977999
 20
-1540.5717320695287
 42
-0.0107669341491178
 10
884.24254085487678
 20
-1540.4473319361816
 10
884.26480565595625
 20
-1540.4361151862292
 42
-0.0078058045897588
 10
884.54839577390976
 20
-1540.2987537305903
 10
884.55830286161813
 20
-1540.2941446027223
 42
-0.0181829330470902
 10
884.86861226623364
 20
-1540.1632808616266
 10
884.92266770880076
 20
-1540.142765741683
 42
-0.0208411536031529
 10
885.27175267625068
 20
-1540.0266752791902
 10
885.28610877637573
 20
-1540.0225568342373
 42
-0.0222799817135663
 10
885.61482857029546
 20
-1539.9439152680964
 10
885.62371753353261
 20
-1539.9422032575112
 42
-0.0215509523886939
 10
885.94018850181214
 20
-1539.895287568977
 10
885.98267046286458
 20
-1539.8908500421858
 42
-0.018254592486677
 10
886.21677924216647
 20
-1539.8750062167953
 10
886.25618025850213
 20
-1539.8737816717164
 42
-0.0072962856536055
 10
886.41210313820329
 20
-1539.871212343194
 10
886.44120280877212
 20
-1539.8711575077903
 42
-0.0059227516310461
 10
886.53895230792034
 20
-1539.8721312195805
 10
886.56819452541595
 20
-1539.8727689861844
 42
-0.0011833111922026
 10
886.60744580912467
 20
-1539.8737179904938
 10
885.8120592135175
 20
-1542.4124519355928
 42
0.0143932051502214
 10
885.78565783116551
 20
-1542.4022529655472
 10
885.77838585874963
 20
-1542.3996817466902
 42
0.0234388603499517
 10
885.73655499281926
 20
-1542.3870625109753
 10
885.72787332990481
 20
-1542.3848815489698
 42
0.0199162742985578
 10
885.66758449582346
 20
-1542.3722648136345
 10
885.6467705580186
 20
-1542.3687676142063
 42
0.0293643550671551
 10
885.54369569925814
 20
-1542.357617568553
 10
885.51901051853906
 20
-1542.3564059515345
 42
0.0214606686869755
 10
885.36586960258819
 20
-1542.3554673911171
 10
885.35649769176871
 20
-1542.3558123026614
 42
0.0167564054172899
 10
885.18497750066035
 20
-1542.3678893450294
 10
885.17651770790121
 20
-1542.3687706854566
 42
0.0137677553250369
 10
884.9891643946346
 20
-1542.3935199940004
 10
884.98181265512881
 20
-1542.394697913968
 42
0.0118497261487322
 10
884.78131489102702
 20
-1542.4317152641572
 10
884.77516488378023
 20
-1542.4330021268772
 42
0.0106421143894904
 10
884.56428399648894
 20
-1542.4818345024537
 10
884.55937518810606
 20
-1542.4830818451371
 42
0.0099746379706516
 10
884.34091671893748
 20
-1542.5432563734537
 10
884.27936867877338
 20
-1542.5615382520825
 42
0.0191613675864219
 10
883.94338421625287
 20
-1542.6755156323713
 10
883.85532444351259
 20
-1542.7092025426934
 42
0.0205274080142401
 10
883.47001767161169
 20
-1542.8750309505203
 10
883.41236838963118
 20
-1542.9026989150921
 42
0.0181256912195546
 10
883.15409144896262
 20
-1543.0383827340704
 10
883.10113606564585
 20
-1543.0687003472867
 42
0.0140709242414994
 10
882.95618113102023
 20
-1543.1571950207194
 10
882.92993226240435
 20
-1543.1742518394333
 42
0.0086667884400432
 10
882.8410061008592
 20
-1543.2342545073177
 42
0.0036408192028069
 10
882.75357286281223
 20
-1543.2964353651198
 10
882.71834598835721
 20
-1543.3218763110228
 42
0.0052260781285906
 10
882.56211729095207
 20
-1543.437208697668
 10
882.54591043470668
 20
-1543.4494368082753
 42
0.0050024435889036
 10
882.35990709165208
 20
-1543.5927193765342
 10
882.34458893513261
 20
-1543.6047653989833
 42
0.013613871028512
 10
882.13414766680921
 20
-1543.779731903895
 10
882.10047979101364
 20
-1543.8093108766109
 42
0.0172815186918344
 10
881.83607624934575
 20
-1544.05830754924
 10
881.83351390350867
 20
-1544.0608933663814
 42
0.0189403857988711
 10
881.58293210493218
 20
-1544.3336986311824
 10
881.55030061139382
 20
-1544.3720425626823
 42
0.0185044199506755
 10
881.35834417241347
 20
-1544.6152911438057
 42
0.0088565243899398
 10
881.17988406577979
 20
-1544.8688075639636
 10
881.17070608613653
 20
-1544.8823489437159
 42
0.0157195347227882
 10
880.98748547980438
 20
-1545.1718711530282
 10
880.9414025378685
 20
-1545.2500233500575
 42
0.0095451879788687
 10
880.77631698773394
 20
-1545.5426179924089
 10
880.76516906880397
 20
-1545.5632886645415
 42
0.0100351706257976
 10
880.63312531964493
 20
-1545.8203442250317
 42
0.0086935915420989
 10
880.51079416785353
 20
-1546.0821773704304
 10
880.50747342643649
 20
-1546.0896196934079
 42
0.0072580174863141
 10
880.38712697449159
 20
-1546.3702116849904
 10
880.38386534118513
 20
-1546.3781317110088
 42
0.0060005122618947
 10
880.26466467284013
 20
-1546.6777413816203
 10
880.26145369450091
 20
-1546.6861029095187
 42
0.0049017786981531
 10
880.14255353564408
 20
-1547.0050318901212
 10
880.13938772925303
 20
-1547.0137848273534
 42
0.0039415167600487
 10
880.01995145119508
 20
-1547.35232688977
 10
880.01682034854412
 20
-1547.3614300906427
 42
0.0031035838766574
 10
879.89601556284174
 20
-1547.7198699524447
 10
879.89290551832073
 20
-1547.7292905737911
 42
0.0025070747148473
 10
879.77000416702367
 20
-1548.1079377906776
 10
879.7327102705799
 20
-1548.2248294559881
 42
0.0029081910280469
 10
879.5406919727759
 20
-1548.8389931142574
 10
879.49988880425212
 20
-1548.9722163565557
 42
0.0009266453733089
 10
879.23147142992786
 20
-1549.8544408165105
 10
879.21058395728858
 20
-1549.9235526957418
 42
-0.0005809993665711
 10
878.93324727670563
 20
-1550.8373608023539
 10
878.8669654784502
 20
-1551.0548457344564
 42
-0.0012018708169822
 10
878.7199811690034
 20
-1551.5330083990343
 10
878.66766131737404
 20
-1551.7017675401059
 42
-0.0002691059594532
 10
878.62409183626937
 20
-1551.8420351602422
 10
875.79113593798013
 20
-1560.9311897625416
 10
873.9731470460016
 20
-1560.9311897625416
 10
880.2253964620495
 20
-1540.287471726012
  0
SPLINE
  5
5A
100
AcDbEntity
  8
0
370
              15
390
0
  6
Continuous
 62
               7
100
AcDbSpline
210
0.0
220
0.0
230
1.0
 70
              13
 71
               2
 72
             782
 73
             779
 74
               0
 42
0.000001
 43
0.000001
 40
0.0
 40
0.0
 40
0.0
 40
1.0
 40
1.0
 40
2.0
 40
2.0
 40
3.0
 40
3.0
 40
4.0
 40
4.0
 40
5.0
 40
5.0
 40
6.0
 40
6.0
 40
7.0
 40
7.0
 40
8.0
 40
8.0
 40
9.0
 40
9.0
 40
10.0
 40
10.0
 40
11.0
 40
11.0
 40
12.0
 40
12.0
 40
13.0
 40
13.0
 40
14.0
 40
14.0
 40
15.0
 40
15.0
 40
16.0
 40
16.0
 40
17.0
 40
17.0
 40
18.0
 40
18.0
 40
19.0
 40
19.0
 40
20.0
 40
20.0
 40
21.0
 40
21.0
 40
22.0
 40
22.0
 40
23.0
 40
23.0
 40
24.0
 40
24.0
 40
25.0
 40
25.0
 40
26.0
 40
26.0
 40
27.0
 40
27.0
 40
28.0
 40
28.0
 40
29.0
 40
29.0
 40
30.0
 40
30.0
 40
31.0
 40
31.0
 40
32.0
 40
32.0
 40
33.0
 40
33.0
 40
34.0
 40
34.0
 40
35.0
 40
35.0
 40
36.0
 40
36.0
 40
37.0
 40
37.0
 40
38.0
 40
38.0
 40
39.0
 40
39.0
 40
40.0
 40
40.0
 40
41.0
 40
41.0
 40
42.0
 40
42.0
 40
43.0
 40
43.0
 40
44.0
 40
44.0
 40
45.0
 40
45.0
 40
46.0
 40
46.0
 40
47.0
 40
47.0
 40
48.0
 40
48.0
 40
49.0
 40
49.0
 40
50.0
 40
50.0
 40
51.0
 40
51.0
 40
52.0
 40
52.0
 40
53.0
 40
53.0
 40
54.0
 40
54.0
 40
55.0
 40
55.0
 40
56.0
 40
56.0
 40
57.0
 40
57.0
 40
58.0
 40
58.0
 40
59.0
 40
59.0
 40
60.0
 40
60.0
 40
61.0
 40
61.0
 40
62.0
 40
62.0
 40
63.0
 40
63.0
 40
64.0
 40
64.0
 40
65.0
 40
65.0
 40
66.0
 40
66.0
 40
67.0
 40
67.0
 40
68.0
 40
68.0
 40
69.0
 40
69.0
 40
70.0
 40
70.0
 40
71.0
 40
71.0
 40
72.0
 40
72.0
 40
73.0
 40
73.0
 40
74.0
 40
74.0
 40
75.0
 40
75.0
 40
76.0
 40
76.0
 40
77.0
 40
77.0
 40
78.0
 40
78.0
 40
79.0
 40
79.0
 40
80.0
 40
80.0
 40
81.0
 40
81.0
 40
82.0
 40
82.0
 40
83.0
 40
83.0
 40
84.0
 40
84.0
 40
85.0
 40
85.0
 40
86.0
 40
86.0
 40
87.0
 40
87.0
 40
88.0
 40
88.0
 40
89.0
 40
89.0
 40
90.0
 40
90.0
 40
91.0
 40
91.0
 40
92.0
 40
92.0
 40
93.0
 40
93.0
 40
94.0
 40
94.0
 40
95.0
 40
95.0
 40
96.0
 40
96.0
 40
97.0
 40
97.0
 40
98.0
 40
98.0
 40
99.0
 40
99.0
 40
100.0
 40
100.0
 40
101.0
 40
101.0
 40
102.0
 40
102.0
 40
103.0
 40
103.0
 40
104.0
 40
104.0
 40
105.0
 40
105.0
 40
106.0
 40
106.0
 40
107.0
 40
107.0
 40
108.0
 40
108.0
 40
109.0
 40
109.0
 40
110.0
 40
110.0
 40
111.0
 40
111.0
 40
112.0
 40
112.0
 40
113.0
 40
113.0
 40
114.0
 40
114.0
 40
115.0
 40
115.0
 40
116.0
 40
116.0
 40
117.0
 40
117.0
 40
118.0
 40
118.0
 40
119.0
 40
119.0
 40
120.0
 40
120.0
 40
121.0
 40
121.0
 40
122.0
 40
122.0
 40
123.0
 40
123.0
 40
124.0
 40
124.0
 40
125.0
 40
125.0
 40
126.0
 40
126.0
 40
127.0
 40
127.0
 40
128.0
 40
128.0
 40
129.0
 40
129.0
 40
130.0
 40
130.0
 40
131.0
 40
131.0
 40
132.0
 40
132.0
 40
133.0
 40
133.0
 40
134.0
 40
134.0
 40
135.0
 40
135.0
 40
136.0
 40
136.0
 40
137.0
 40
137.0
 40
138.0
 40
138.0
 40
139.0
 40
139.0
 40
140.0
 40
140.0
 40
141.0
 40
141.0
 40
142.0
 40
142.0
 40
143.0
 40
143.0
 40
144.0
 40
144.0
 40
145.0
 40
145.0
 40
146.0
 40
146.0
 40
147.0
 40
147.0
 40
148.0
 40
148.0
 40
149.0
 40
149.0
 40
150.0
 40
150.0
 40
151.0
 40
151.0
 40
152.0
 40
152.0
 40
153.0
 40
153.0
 40
154.0
 40
154.0
 40
155.0
 40
155.0
 40
156.0
 40
156.0
 40
157.0
 40
157.0
 40
158.0
 40
158.0
 40
159.0
 40
159.0
 40
160.0
 40
160.0
 40
161.0
 40
161.0
 40
162.0
 40
162.0
 40
163.0
 40
163.0
 40
164.0
 40
164.0
 40
165.0
 40
165.0
 40
166.0
 40
166.0
 40
167.0
 40
167.0
 40
168.0
 40
168.0
 40
169.0
 40
169.0
 40
170.0
 40
170.0
 40
171.0
 40
171.0
 40
172.0
 40
172.0
 40
173.0
 40
173.0
 40
174.0
 40
174.0
 40
175.0
 40
175.0
 40
176.0
 40
176.0
 40
177.0
 40
177.0
 40
178.0
 40
178.0
 40
179.0
 40
179.0
 40
180.0
 40
180.0
 40
181.0
 40
181.0
 40
182.0
 40
182.0
 40
183.0
 40
183.0
 40
184.0
 40
184.0
 40
185.0
 40
185.0
 40
186.0
 40
186.0
 40
187.0
 40
187.0
 40
188.0
 40
188.0
 40
189.0
 40
189.0
 40
190.0
 40
190.0
 40
191.0
 40
191.0
 40
192.0
 40
192.0
 40
193.0
 40
193.0
 40
194.0
 40
194.0
 40
195.0
 40
195.0
 40
196.0
 40
196.0
 40
197.0
 40
197.0
 40
198.0
 40
198.0
 40
199.0
 40
199.0
 40
200.0
 40
200.0
 40
201.0
 40
201.0
 40
202.0
 40
202.0
 40
203.0
 40
203.0
 40
204.0
 40
204.0
 40
205.0
 40
205.0
 40
206.0
 40
206.0
 40
207.0
 40
207.0
 40
208.0
 40
208.0
 40
209.0
 40
209.0
 40
210.0
 40
210.0
 40
211.0
 40
211.0
 40
212.0
 40
212.0
 40
213.0
 40
213.0
 40
214.0
 40
214.0
 40
215.0
 40
215.0
 40
216.0
 40
216.0
 40
217.0
 40
217.0
 40
218.0
 40
218.0
 40
219.0
 40
219.0
 40
220.0
 40
220.0
 40
221.0
 40
221.0
 40
222.0
 40
222.0
 40
223.0
 40
223.0
 40
224.0
 40
224.0
 40
225.0
 40
225.0
 40
226.0
 40
226.0
 40
227.0
 40
227.0
 40
228.0
 40
228.0
 40
229.0
 40
229.0
 40
230.0
 40
230.0
 40
231.0
 40
231.0
 40
232.0
 40
232.0
 40
233.0
 40
233.0
 40
234.0
 40
234.0
 40
235.0
 40
235.0
 40
236.0
 40
236.0
 40
237.0
 40
237.0
 40
238.0
 40
238.0
 40
239.0
 40
239.0
 40
240.0
 40
240.0
 40
241.0
 40
241.0
 40
242.0
 40
242.0
 40
243.0
 40
243.0
 40
244.0
 40
244.0
 40
245.0
 40
245.0
 40
246.0
 40
246.0
 40
247.0
 40
247.0
 40
248.0
 40
248.0
 40
249.0
 40
249.0
 40
250.0
 40
250.0
 40
251.0
 40
251.0
 40
252.0
 40
252.0
 40
253.0
 40
253.0
 40
254.0
 40
254.0
 40
255.0
 40
255.0
 40
256.0
 40
256.0
 40
257.0
 40
257.0
 40
258.0
 40
258.0
 40
259.0
 40
259.0
 40
260.0
 40
260.0
 40
261.0
 40
261.0
 40
262.0
 40
262.0
 40
263.0
 40
263.0
 40
264.0
 40
264.0
 40
265.0
 40
265.0
 40
266.0
 40
266.0
 40
267.0
 40
267.0
 40
268.0
 40
268.0
 40
269.0
 40
269.0
 40
270.0
 40
270.0
 40
271.0
 40
271.0
 40
272.0
 40
272.0
 40
273.0
 40
273.0
 40
274.0
 40
274.0
 40
275.0
 40
275.0
 40
276.0
 40
276.0
 40
277.0
 40
277.0
 40
278.0
 40
278.0
 40
279.0
 40
279.0
 40
280.0
 40
280.0
 40
281.0
 40
281.0
 40
282.0
 40
282.0
 40
283.0
 40
283.0
 40
284.0
 40
284.0
 40
285.0
 40
285.0
 40
286.0
 40
286.0
 40
287.0
 40
287.0
 40
288.0
 40
288.0
 40
289.0
 40
289.0
 40
290.0
 40
290.0
 40
291.0
 40
291.0
 40
292.0
 40
292.0
 40
293.0
 40
293.0
 40
294.0
 40
294.0
 40
295.0
 40
295.0
 40
296.0
 40
296.0
 40
297.0
 40
297.0
 40
298.0
 40
298.0
 40
299.0
 40
299.0
 40
300.0
 40
300.0
 40
301.0
 40
301.0
 40
302.0
 40
302.0
 40
303.0
 40
303.0
 40
304.0
 40
304.0
 40
305.0
 40
305.0
 40
306.0
 40
306.0
 40
307.0
 40
307.0
 40
308.0
 40
308.0
 40
309.0
 40
309.0
 40
310.0
 40
310.0
 40
311.0
 40
311.0
 40
312.0
 40
312.0
 40
313.0
 40
313.0
 40
314.0
 40
314.0
 40
315.0
 40
315.0
 40
316.0
 40
316.0
 40
317.0
 40
317.0
 40
318.0
 40
318.0
 40
319.0
 40
319.0
 40
320.0
 40
320.0
 40
321.0
 40
321.0
 40
322.0
 40
322.0
 40
323.0
 40
323.0
 40
324.0
 40
324.0
 40
325.0
 40
325.0
 40
326.0
 40
326.0
 40
327.0
 40
327.0
 40
328.0
 40
328.0
 40
329.0
 40
329.0
 40
330.0
 40
330.0
 40
331.0
 40
331.0
 40
332.0
 40
332.0
 40
333.0
 40
333.0
 40
334.0
 40
334.0
 40
335.0
 40
335.0
 40
336.0
 40
336.0
 40
337.0
 40
337.0
 40
338.0
 40
338.0
 40
339.0
 40
339.0
 40
340.0
 40
340.0
 40
341.0
 40
341.0
 40
342.0
 40
342.0
 40
343.0
 40
343.0
 40
344.0
 40
344.0
 40
345.0
 40
345.0
 40
346.0
 40
346.0
 40
347.0
 40
347.0
 40
348.0
 40
348.0
 40
349.0
 40
349.0
 40
350.0
 40
350.0
 40
351.0
 40
351.0
 40
352.0
 40
352.0
 40
353.0
 40
353.0
 40
354.0
 40
354.0
 40
355.0
 40
355.0
 40
356.0
 40
356.0
 40
357.0
 40
357.0
 40
358.0
 40
358.0
 40
359.0
 40
359.0
 40
360.0
 40
360.0
 40
361.0
 40
361.0
 40
362.0
 40
362.0
 40
363.0
 40
363.0
 40
364.0
 40
364.0
 40
365.0
 40
365.0
 40
366.0
 40
366.0
 40
367.0
 40
367.0
 40
368.0
 40
368.0
 40
369.0
 40
369.0
 40
370.0
 40
370.0
 40
371.0
 40
371.0
 40
372.0
 40
372.0
 40
373.0
 40
373.0
 40
374.0
 40
374.0
 40
375.0
 40
375.0
 40
376.0
 40
376.0
 40
377.0
 40
377.0
 40
378.0
 40
378.0
 40
379.0
 40
379.0
 40
380.0
 40
380.0
 40
381.0
 40
381.0
 40
382.0
 40
382.0
 40
383.0
 40
383.0
 40
384.0
 40
384.0
 40
385.0
 40
385.0
 40
386.0
 40
386.0
 40
387.0
 40
387.0
 40
388.0
 40
388.0
 40
389.0
 40
389.0
 40
389.0
 10
890.55410091278213
 20
-1540.2765453626494
 30
0.0
 41
1.0
 10
891.37252502150261
 20
-1540.2765453626494
 30
0.0
 41
1.0
 10
892.19094913022309
 20
-1540.2765453626494
 30
0.0
 41
1.0
 10
891.77719539470627
 20
-1541.6191716268991
 30
0.0
 41
1.0
 10
891.36344165918956
 20
-1542.9617978911488
 30
0.0
 41
1.0
 10
891.38178115434948
 20
-1542.9330971182499
 30
0.0
 41
0.9999957264359167
 10
891.40028815119103
 20
-1542.9045040680821
 30
0.0
 41
1.0
 10
891.4307174753269
 20
-1542.8574911897085
 30
0.0
 41
1.0
 10
891.46114679946277
 20
-1542.8104783113351
 30
0.0
 41
1.0
 10
891.54051244456878
 20
-1542.6878595044318
 30
0.0
 41
0.999539406908088
 10
891.62717083612313
 20
-1542.570281442687
 30
0.0
 41
1.0
 10
891.66292769838185
 20
-1542.521766550095
 30
0.0
 41
1.0
 10
891.69868456064057
 20
-1542.4732516575029
 30
0.0
 41
1.0
 10
891.83241122845857
 20
-1542.2918113823762
 30
0.0
 41
0.9994460617143132
 10
891.97791170974654
 20
-1542.1196689847266
 30
0.0
 41
1.0
 10
891.98229989072138
 20
-1542.1144773043441
 30
0.0
 41
1.0
 10
891.98668807169634
 20
-1542.1092856239616
 30
0.0
 41
1.0
 10
892.12341219103439
 20
-1541.9475265870769
 30
0.0
 41
0.9994359394934369
 10
892.27068642138579
 20
-1541.7953103859122
 30
0.0
 41
1.0
 10
892.27306977534158
 20
-1541.7928470555366
 30
0.0
 41
1.0
 10
892.27545312929749
 20
-1541.7903837251608
 30
0.0
 41
1.0
 10
892.41796065173924
 20
-1541.6430941847457
 30
0.0
 41
0.9995293688567525
 10
892.56923233271948
 20
-1541.5048209725835
 30
0.0
 41
1.0
 10
892.58852609198198
 20
-1541.4871850869331
 30
0.0
 41
1.0
 10
892.60781985124447
 20
-1541.4695492012827
 30
0.0
 41
1.0
 10
892.72050401370041
 20
-1541.3665477604206
 30
0.0
 41
0.9997087614803292
 10
892.83802690265657
 20
-1541.2691034796217
 30
0.0
 41
1.0
 10
892.85719297583455
 20
-1541.2532119011116
 30
0.0
 41
1.0
 10
892.87635904901242
 20
-1541.2373203226018
 30
0.0
 41
1.0
 10
892.95554979161739
 20
-1541.1716591988193
 30
0.0
 41
0.9999595338699053
 10
893.03590906246677
 20
-1541.1074334681687
 30
0.0
 41
1.0
 10
893.11626833332343
 20
-1541.0432077375124
 30
0.0
 41
0.9999749417510871
 10
893.19752886767799
 20
-1540.9801261835576
 30
0.0
 41
1.0
 10
893.21851501384276
 20
-1540.963834896254
 30
0.0
 41
1.0
 10
893.23950116000765
 20
-1540.9475436089506
 30
0.0
 41
1.0
 10
893.32406904530171
 20
-1540.8818945991156
 30
0.0
 41
0.9999792037120746
 10
893.4094766450678
 20
-1540.8173418174747
 30
0.0
 41
1.0
 10
893.4303014709426
 20
-1540.8016019952447
 30
0.0
 41
1.0
 10
893.45112629681728
 20
-1540.7858621730149
 30
0.0
 41
1.0
 10
893.4948842447975
 20
-1540.7527890358613
 30
0.0
 41
0.9999993374282402
 10
893.53856593098055
 20
-1540.7196152404072
 30
0.0
 41
1.0
 10
893.58224761712415
 20
-1540.6864414449828
 30
0.0
 41
0.9999160953816491
 10
893.62677402804445
 20
-1540.6544103797842
 30
0.0
 41
1.0
 10
893.65959591546334
 20
-1540.6307992241996
 30
0.0
 41
1.0
 10
893.69241780288235
 20
-1540.607188068615
 30
0.0
 41
1.0
 10
893.80258798864145
 20
-1540.5279346922466
 30
0.0
 41
0.9980964527231766
 10
893.92167698214257
 20
-1540.4628472193904
 30
0.0
 41
1.0
 10
893.95870958906971
 20
-1540.4426072397978
 30
0.0
 41
1.0
 10
893.99574219599697
 20
-1540.4223672602052
 30
0.0
 41
1.0
 10
894.17506920926996
 20
-1540.324357009504
 30
0.0
 41
0.9984572810573024
 10
894.36415777562956
 20
-1540.2468347481572
 30
0.0
 41
1.0
 10
894.36780404502542
 20
-1540.2453398558191
 30
0.0
 41
1.0
 10
894.37145031442128
 20
-1540.2438449634813
 30
0.0
 41
1.0
 10
894.55324634198848
 20
-1540.1693124868107
 30
0.0
 41
0.99878385280341
 10
894.74149900054772
 20
-1540.1130468466449
 30
0.0
 41
1.0
 10
894.74573694974765
 20
-1540.1117801929545
 30
0.0
 41
1.0
 10
894.74997489894747
 20
-1540.1105135392638
 30
0.0
 41
1.0
 10
894.92975165910786
 20
-1540.0567812064789
 30
0.0
 41
0.999065281620738
 10
895.11349759082282
 20
-1540.0187775269371
 30
0.0
 41
1.0
 10
895.11868599185505
 20
-1540.0177044238303
 30
0.0
 41
1.0
 10
895.12387439288727
 20
-1540.0166313207237
 30
0.0
 41
1.0
 10
895.2972435225397
 20
-1539.9807738473951
 30
0.0
 41
0.9992909934270414
 10
895.47281928899702
 20
-1539.9580634149286
 30
0.0
 41
1.0
 10
895.64839505545808
 20
-1539.9353529824618
 30
0.0
 41
0.9994553539448309
 10
895.82508648855412
 20
-1539.9242736782555
 30
0.0
 41
1.0
 10
895.86052089634586
 20
-1539.9220517902079
 30
0.0
 41
1.0
 10
895.8959553041376
 20
-1539.9198299021602
 30
0.0
 41
1.0
 10
896.06218107070822
 20
-1539.9094068397485
 30
0.0
 41
0.9990928098292619
 10
896.22869086261176
 20
-1539.9131664809831
 30
0.0
 41
1.0
 10
896.26725269788813
 20
-1539.9140371725161
 30
0.0
 41
1.0
 10
896.30581453316438
 20
-1539.9149078640494
 30
0.0
 41
1.0
 10
896.39520065451893
 20
-1539.916926122218
 30
0.0
 41
0.9998382089205845
 10
896.48445633730068
 20
-1539.9221582487457
 30
0.0
 41
1.0
 10
896.48488624351842
 20
-1539.9221834496479
 30
0.0
 41
1.0
 10
896.48531614973615
 20
-1539.9222086505499
 30
0.0
 41
1.0
 10
896.57371202008471
 20
-1539.9273903752735
 30
0.0
 41
0.9997558016757594
 10
896.66179259728767
 20
-1539.9364728906403
 30
0.0
 41
1.0
 10
896.66226873571532
 20
-1539.9365219881226
 30
0.0
 41
1.0
 10
896.66274487414285
 20
-1539.936571085605
 30
0.0
 41
1.0
 10
896.74987317448642
 20
-1539.9455554060066
 30
0.0
 41
0.9996565144181769
 10
896.83641102783054
 20
-1539.9590927126958
 30
0.0
 41
1.0
 10
896.83687695320828
 20
-1539.9591655984273
 30
0.0
 41
1.0
 10
896.83734287858601
 20
-1539.9592384841585
 30
0.0
 41
1.0
 10
896.92294888117283
 20
-1539.9726300193847
 30
0.0
 41
0.9995321806867252
 10
897.00757596150061
 20
-1539.991230507814
 30
0.0
 41
1.0
 10
897.00796515607067
 20
-1539.9913160502795
 30
0.0
 41
1.0
 10
897.00835435064073
 20
-1539.991401592745
 30
0.0
 41
1.0
 10
897.09220304182725
 20
-1540.009830996243
 30
0.0
 41
0.9993819199218846
 10
897.17454957602479
 20
-1540.034106379504
 30
0.0
 41
1.0
 10
897.17478800952529
 20
-1540.0341766686142
 30
0.0
 41
1.0
 10
897.17502644302579
 20
-1540.0342469577242
 30
0.0
 41
1.0
 10
897.25689611022403
 20
-1540.058381762766
 30
0.0
 41
0.9992088568506333
 10
897.33658862920925
 20
-1540.0889469985591
 30
0.0
 41
1.0
 10
897.41626962008831
 20
-1540.1195065992922
 30
0.0
 41
0.9990226101772418
 10
897.49294028999543
 20
-1540.1569840309069
 30
0.0
 41
1.0
 10
897.56959943179436
 20
-1540.1944558274608
 30
0.0
 41
0.9988424273973019
 10
897.64230305900742
 20
-1540.2391206027141
 30
0.0
 41
1.0
 10
897.64257076738591
 20
-1540.2392850667859
 30
0.0
 41
1.0
 10
897.64283847576451
 20
-1540.2394495308577
 30
0.0
 41
1.0
 10
897.71607751973534
 20
-1540.2844432342549
 30
0.0
 41
0.9986928844490735
 10
897.7843403864448
 20
-1540.3366789685342
 30
0.0
 41
1.0
 10
897.78492167866784
 20
-1540.3371237817623
 30
0.0
 41
1.0
 10
897.78550297089078
 20
-1540.3375685949904
 30
0.0
 41
1.0
 10
897.8549284220461
 20
-1540.390693955726
 30
0.0
 41
0.9986007262278379
 10
897.91835459181266
 20
-1540.4508547254195
 30
0.0
 41
1.0
 10
897.91924900726985
 20
-1540.4517030932545
 30
0.0
 41
1.0
 10
897.92014342272716
 20
-1540.4525514610896
 30
0.0
 41
1.0
 10
897.9853584234088
 20
-1540.5144089664536
 30
0.0
 41
0.9985581491381227
 10
898.04356603511019
 20
-1540.582901456725
 30
0.0
 41
1.0
 10
898.05282448870594
 20
-1540.5937958144268
 30
0.0
 41
1.0
 10
898.06208294230169
 20
-1540.6046901721284
 30
0.0
 41
1.0
 10
898.13880746119514
 20
-1540.6949713778038
 30
0.0
 41
0.9970460233520314
 10
898.2007993623547
 20
-1540.7959384619858
 30
0.0
 41
1.0
 10
898.21526872743425
 20
-1540.8195049210672
 30
0.0
 41
1.0
 10
898.2297380925138
 20
-1540.8430713801483
 30
0.0
 41
1.0
 10
898.26947479252533
 20
-1540.9077911041786
 30
0.0
 41
0.998846881663595
 10
898.30282116327714
 20
-1540.9760235566068
 30
0.0
 41
1.0
 10
898.3098571857679
 20
-1540.9904204777426
 30
0.0
 41
1.0
 10
898.31689320825865
 20
-1541.0048173988787
 30
0.0
 41
1.0
 10
898.33616753402907
 20
-1541.0442560090353
 30
0.0
 41
0.9998431189997786
 10
898.35403286152359
 20
-1541.0843525634752
 30
0.0
 41
1.0
 10
898.37189818903801
 20
-1541.1244491179596
 30
0.0
 41
0.9999989989997004
 10
898.38987691245245
 20
-1541.1644949555262
 30
0.0
 41
1.0
 10
898.39604922404078
 20
-1541.1782431723257
 30
0.0
 41
1.0
 10
898.40222153562911
 20
-1541.1919913891252
 30
0.0
 41
1.0
 10
898.43254488223965
 20
-1541.2595336603342
 30
0.0
 41
0.999879035632291
 10
898.46075276237787
 20
-1541.3279864122724
 30
0.0
 41
1.0
 10
898.46758794366235
 20
-1541.3445735137002
 30
0.0
 41
1.0
 10
898.47442312494684
 20
-1541.3611606151283
 30
0.0
 41
1.0
 10
898.49798078732658
 20
-1541.4183285700126
 30
0.0
 41
0.9998227574561263
 10
898.51936953571578
 20
-1541.4763428782892
 30
0.0
 41
1.0
 10
898.54075828410544
 20
-1541.5343571865674
 30
0.0
 41
0.9996797971041448
 10
898.55918456906352
 20
-1541.593379305682
 30
0.0
 41
1.0
 10
898.56308837178949
 20
-1541.6058837638523
 30
0.0
 41
1.0
 10
898.56699217451546
 20
-1541.6183882220225
 30
0.0
 41
1.0
 10
898.59322606492549
 20
-1541.7024192574775
 30
0.0
 41
0.997927493873383
 10
898.60845058840471
 20
-1541.7891236161381
 30
0.0
 41
1.0
 10
898.61067427566582
 20
-1541.8017876169588
 30
0.0
 41
1.0
 10
898.61289796292692
 20
-1541.8144516177792
 30
0.0
 41
1.0
 10
898.62382790262507
 20
-1541.8766981250687
 30
0.0
 41
0.9994985982138043
 10
898.63079606780252
 20
-1541.9395116262135
 30
0.0
 41
1.0
 10
898.63776423297941
 20
-1542.0023251273551
 30
0.0
 41
0.9996372611202216
 10
898.64134009874715
 20
-1542.0654227060377
 30
0.0
 41
1.0
 10
898.64150867623653
 20
-1542.0683973231198
 30
0.0
 41
1.0
 10
898.64167725372579
 20
-1542.071371940202
 30
0.0
 41
1.0
 10
898.64559027447206
 20
-1542.14041875305
 30
0.0
 41
0.9997730630737597
 10
898.64655858796039
 20
-1542.2095695770852
 30
0.0
 41
1.0
 10
898.6466156943784
 20
-1542.2136477562256
 30
0.0
 41
1.0
 10
898.64667280079652
 20
-1542.2177259353659
 30
0.0
 41
1.0
 10
898.64775532712065
 20
-1542.2950331176871
 30
0.0
 41
0.9998772614069913
 10
898.64641524038905
 20
-1542.3723362642475
 30
0.0
 41
1.0
 10
898.64632597719037
 20
-1542.3774854280828
 30
0.0
 41
1.0
 10
898.64623671399158
 20
-1542.3826345919181
 30
0.0
 41
1.0
 10
898.64471810086229
 20
-1542.470236066154
 30
0.0
 41
0.9999415567328863
 10
898.64130579061634
 20
-1542.5577842278306
 30
0.0
 41
1.0
 10
898.64106446994106
 20
-1542.5639756875662
 30
0.0
 41
1.0
 10
898.64082314926577
 20
-1542.5701671473021
 30
0.0
 41
1.0
 10
898.6369281976697
 20
-1542.6700982284419
 30
0.0
 41
0.9999716810429736
 10
898.63152961455091
 20
-1542.7699593666737
 30
0.0
 41
1.0
 10
898.62831681576222
 20
-1542.8293886163301
 30
0.0
 41
1.0
 10
898.62510401697352
 20
-1542.8888178659865
 30
0.0
 41
1.0
 10
898.61703010782117
 20
-1543.0381662672623
 30
0.0
 41
0.9999819129901203
 10
898.60716031620382
 20
-1543.1874067449876
 30
0.0
 41
1.0
 10
898.59729052458715
 20
-1543.336647222699
 30
0.0
 41
1.0
 10
898.59485120402326
 20
-1543.3738402685485
 30
0.0
 41
1.0
 10
898.61754943784615
 20
-1543.3350992712321
 30
0.0
 41
0.9999982128047447
 10
898.64039399660226
 20
-1543.2964443772735
 30
0.0
 41
1.0
 10
898.66730355649088
 20
-1543.2509111632119
 30
0.0
 41
1.0
 10
898.69421311637939
 20
-1543.2053779491503
 30
0.0
 41
1.0
 10
898.77087679490626
 20
-1543.0756566270788
 30
0.0
 41
0.9998609190058726
 10
898.8518241077702
 20
-1542.9485642451461
 30
0.0
 41
1.0
 10
898.88147242925174
 20
-1542.9020145121892
 30
0.0
 41
1.0
 10
898.9111207507334
 20
-1542.8554647792323
 30
0.0
 41
1.0
 10
898.9933929709714
 20
-1542.7262922092361
 30
0.0
 41
0.9999067609732637
 10
899.07916198043154
 20
-1542.5994145198006
 30
0.0
 41
1.0
 10
899.08156668363176
 20
-1542.5958572537468
 30
0.0
 41
1.0
 10
899.08397138683199
 20
-1542.592299987693
 30
0.0
 41
1.0
 10
899.16493098989429
 20
-1542.4725368303612
 30
0.0
 41
0.9998784952150971
 10
899.24958459957702
 20
-1542.3553556136505
 30
0.0
 41
1.0
 10
899.33423820925793
 20
-1542.2381743969427
 30
0.0
 41
0.999853296828353
 10
899.42285583008299
 20
-1542.1239614884691
 30
0.0
 41
1.0
 10
899.44281761907325
 20
-1542.0982341674501
 30
0.0
 41
1.0
 10
899.46277940806351
 20
-1542.072506846431
 30
0.0
 41
1.0
 10
899.58126345782148
 20
-1541.9198012354634
 30
0.0
 41
0.9991551975795426
 10
899.71188790744554
 20
-1541.7773416733792
 30
0.0
 41
1.0
 10
899.71539752342846
 20
-1541.7735140717514
 30
0.0
 41
1.0
 10
899.7189071394115
 20
-1541.7696864701234
 30
0.0
 41
1.0
 10
899.84251235707347
 20
-1541.6348821112913
 30
0.0
 41
0.9997418144180486
 10
899.97211449676979
 20
-1541.5058327006832
 30
0.0
 41
1.0
 10
900.10171663647134
 20
-1541.3767832900699
 30
0.0
 41
0.9989238204633401
 10
900.24271918472323
 20
-1541.2602983280301
 30
0.0
 41
1.0
 10
900.28796686285909
 20
-1541.2229183364243
 30
0.0
 41
1.0
 10
900.33321454099507
 20
-1541.1855383448187
 30
0.0
 41
1.0
 10
900.47345459821895
 20
-1541.0696832915253
 30
0.0
 41
0.9990825084095875
 10
900.62309453082582
 20
-1540.9662542936903
 30
0.0
 41
1.0
 10
900.63313989488961
 20
-1540.9593110806061
 30
0.0
 41
1.0
 10
900.64318525895328
 20
-1540.9523678675218
 30
0.0
 41
1.0
 10
900.7727344634369
 20
-1540.8628252958529
 30
0.0
 41
0.9998164899826563
 10
900.90561866680605
 20
-1540.778311054341
 30
0.0
 41
1.0
 10
900.91746422732933
 20
-1540.7707772878171
 30
0.0
 41
1.0
 10
900.92930978785262
 20
-1540.7632435212929
 30
0.0
 41
1.0
 10
901.03850287017985
 20
-1540.6937968128259
 30
0.0
 41
0.9997473449129807
 10
901.1507068274318
 20
-1540.6293278550088
 30
0.0
 41
1.0
 10
901.26291078468307
 20
-1540.5648588971922
 30
0.0
 41
0.9999327861148276
 10
901.37657939545011
 20
-1540.5030089055088
 30
0.0
 41
1.0
 10
901.37713139800803
 20
-1540.5027085468309
 30
0.0
 41
1.0
 10
901.37768340056607
 20
-1540.5024081881534
 30
0.0
 41
1.0
 10
901.49245601645248
 20
-1540.439957479113
 30
0.0
 41
0.9996956420483114
 10
901.61016934229417
 20
-1540.3832440121375
 30
0.0
 41
1.0
 10
901.64060974718393
 20
-1540.368578035409
 30
0.0
 41
1.0
 10
901.67105015207369
 20
-1540.3539120586804
 30
0.0
 41
1.0
 10
901.77402725881791
 20
-1540.3042984002368
 30
0.0
 41
0.999807057017663
 10
901.87887364776134
 20
-1540.2587678133345
 30
0.0
 41
1.0
 10
901.98372003670249
 20
-1540.2132372264334
 30
0.0
 41
0.9997827436148244
 10
902.09037297331417
 20
-1540.1721160551208
 30
0.0
 41
1.0
 10
902.10959582294458
 20
-1540.1647044814888
 30
0.0
 41
1.0
 10
902.12881867257488
 20
-1540.1572929078568
 30
0.0
 41
1.0
 10
902.27391730844727
 20
-1540.1013485892802
 30
0.0
 41
0.9988031841976297
 10
902.42378767105129
 20
-1540.0598485251128
 30
0.0
 41
1.0
 10
902.44870491941583
 20
-1540.0529487793056
 30
0.0
 41
1.0
 10
902.47362216778026
 20
-1540.0460490334983
 30
0.0
 41
1.0
 10
902.64089219342645
 20
-1539.999730891092
 30
0.0
 41
0.9984748040550147
 10
902.81224910207493
 20
-1539.9721366588271
 30
0.0
 41
1.0
 10
902.81698823832255
 20
-1539.9713734983138
 30
0.0
 41
1.0
 10
902.82172737457017
 20
-1539.9706103378007
 30
0.0
 41
1.0
 10
902.98360601072261
 20
-1539.9445424265623
 30
0.0
 41
0.9984436495479577
 10
903.1473807544487
 20
-1539.9366644727436
 30
0.0
 41
1.0
 10
903.16907796257965
 20
-1539.935620785544
 30
0.0
 41
1.0
 10
903.19077517071048
 20
-1539.9345770983443
 30
0.0
 41
1.0
 10
903.31115549817287
 20
-1539.9287865189249
 30
0.0
 41
0.9987954789335225
 10
903.43152374308318
 20
-1539.9348230466671
 30
0.0
 41
1.0
 10
903.4514885355768
 20
-1539.9358242910057
 30
0.0
 41
1.0
 10
903.47145332807031
 20
-1539.9368255353443
 30
0.0
 41
1.0
 10
903.55189198799212
 20
-1539.9408595744094
 30
0.0
 41
0.9997941595877294
 10
903.63210076608743
 20
-1539.9481536403305
 30
0.0
 41
1.0
 10
903.71230954418297
 20
-1539.9554477062518
 30
0.0
 41
0.9998589466237371
 10
903.79222809103908
 20
-1539.9654315607017
 30
0.0
 41
1.0
 10
903.82463429284621
 20
-1539.9694799176209
 30
0.0
 41
1.0
 10
903.85704049465335
 20
-1539.9735282745401
 30
0.0
 41
1.0
 10
904.00177144512543
 20
-1539.9916088428288
 30
0.0
 41
0.9993495063249616
 10
904.14482268889196
 20
-1540.0200745525703
 30
0.0
 41
1.0
 10
904.17775638604326
 20
-1540.026628015785
 30
0.0
 41
1.0
 10
904.21069008319444
 20
-1540.0331814789997
 30
0.0
 41
1.0
 10
904.31998390639956
 20
-1540.054929813135
 30
0.0
 41
0.9996788715560703
 10
904.42803547835547
 20
-1540.082187612498
 30
0.0
 41
1.0
 10
904.43009848089218
 20
-1540.0827080390704
 30
0.0
 41
1.0
 10
904.43216148342879
 20
-1540.0832284656428
 30
0.0
 41
1.0
 10
904.53608705030979
 20
-1540.1094454118604
 30
0.0
 41
0.9995480654492285
 10
904.63824928554129
 20
-1540.1418603684856
 30
0.0
 41
1.0
 10
904.63993892767257
 20
-1540.1423964734004
 30
0.0
 41
1.0
 10
904.64162856980374
 20
-1540.1429325783149
 30
0.0
 41
1.0
 10
904.7404115207728
 20
-1540.174275325111
 30
0.0
 41
0.9993867959456779
 10
904.83675867921329
 20
-1540.2124546943999
 30
0.0
 41
1.0
 10
904.83800162829584
 20
-1540.2129472362953
 30
0.0
 41
1.0
 10
904.83924457737851
 20
-1540.2134397781906
 30
0.0
 41
1.0
 10
904.93310583765333
 20
-1540.2506340636883
 30
0.0
 41
0.9992050256521223
 10
905.02370551268916
 20
-1540.2951879629284
 30
0.0
 41
1.0
 10
905.0244401954028
 20
-1540.2955492553897
 30
0.0
 41
1.0
 10
905.02517487811645
 20
-1540.2959105478512
 30
0.0
 41
1.0
 10
905.11430518772261
 20
-1540.3397418621671
 30
0.0
 41
0.9990222350742039
 10
905.19921524911615
 20
-1540.3912751298653
 30
0.0
 41
1.0
 10
905.19939913439862
 20
-1540.3913867327701
 30
0.0
 41
1.0
 10
905.1995830196812
 20
-1540.3914983356747
 30
0.0
 41
1.0
 10
905.28412531051026
 20
-1540.442808397564
 30
0.0
 41
0.9988642743805579
 10
905.36339984512892
 20
-1540.5019325850888
 30
0.0
 41
1.0
 10
905.4426743797477
 20
-1540.5610567726137
 30
0.0
 41
0.9987681233310188
 10
905.51569816402491
 20
-1540.6277474640158
 30
0.0
 41
1.0
 10
905.51602709199028
 20
-1540.6280478652295
 30
0.0
 41
1.0
 10
905.51635601995554
 20
-1540.6283482664433
 30
0.0
 41
1.0
 10
905.59003766016349
 20
-1540.6956397602726
 30
0.0
 41
0.9987496570898486
 10
905.65663146549082
 20
-1540.7699525743594
 30
0.0
 41
1.0
 10
905.65740363525117
 20
-1540.7708142477172
 30
0.0
 41
1.0
 10
905.65817580501152
 20
-1540.771675921075
 30
0.0
 41
1.0
 10
905.72631394985888
 20
-1540.8477120818768
 30
0.0
 41
0.9988147669827535
 10
905.7867362040846
 20
-1540.93001308872
 30
0.0
 41
1.0
 10
905.78785553016223
 20
-1540.9315377200724
 30
0.0
 41
1.0
 10
905.78897485623997
 20
-1540.933062351425
 30
0.0
 41
1.0
 10
905.8516357626205
 20
-1541.0184126209726
 30
0.0
 41
0.9989452636216037
 10
905.90620267558211
 20
-1541.1091513101308
 30
0.0
 41
1.0
 10
905.90755140166766
 20
-1541.1113940911566
 30
0.0
 41
1.0
 10
905.9089001277531
 20
-1541.1136368721825
 30
0.0
 41
1.0
 10
905.96616449288558
 20
-1541.2088611233919
 30
0.0
 41
0.9991046436069974
 10
906.01517370620684
 20
-1541.3085855564168
 30
0.0
 41
1.0
 10
906.01663756779715
 20
-1541.3115642364901
 30
0.0
 41
1.0
 10
906.01810142938746
 20
-1541.3145429165631
 30
0.0
 41
1.0
 10
906.07003836588922
 20
-1541.4202247097337
 30
0.0
 41
0.9992763831100863
 10
906.11379149444417
 20
-1541.5295487716896
 30
0.0
 41
1.0
 10
906.11527076410744
 20
-1541.5332449592233
 30
0.0
 41
1.0
 10
906.11675003377081
 20
-1541.5369411467568
 30
0.0
 41
1.0
 10
906.1634617016523
 20
-1541.6536575837786
 30
0.0
 41
0.9994163472882561
 10
906.20209473284149
 20
-1541.7732911722412
 30
0.0
 41
1.0
 10
906.20333288508834
 20
-1541.7771253160242
 30
0.0
 41
1.0
 10
906.2045710373352
 20
-1541.7809594598073
 30
0.0
 41
1.0
 10
906.24445459835226
 20
-1541.9044655212845
 30
0.0
 41
0.9997268055890166
 10
906.2785226542652
 20
-1542.0297005532386
 30
0.0
 41
1.0
 10
906.27945283453482
 20
-1542.0331199193479
 30
0.0
 41
1.0
 10
906.28038301480456
 20
-1542.0365392854571
 30
0.0
 41
1.0
 10
906.31259071017701
 20
-1542.1549355851889
 30
0.0
 41
0.9996701319000829
 10
906.33867632694773
 20
-1542.2748295384527
 30
0.0
 41
1.0
 10
906.36476194371858
 20
-1542.3947234917196
 30
0.0
 41
0.9995785451109985
 10
906.38384552105856
 20
-1542.5159292527514
 30
0.0
 41
1.0
 10
906.388065303232
 20
-1542.5427304075147
 30
0.0
 41
1.0
 10
906.39228508540543
 20
-1542.5695315622777
 30
0.0
 41
1.0
 10
906.41886006134405
 20
-1542.7383175359801
 30
0.0
 41
0.9979925101216218
 10
906.42388564727025
 20
-1542.9091088640723
 30
0.0
 41
1.0
 10
906.42471045969501
 20
-1542.937139587556
 30
0.0
 41
1.0
 10
906.42553527211965
 20
-1542.9651703110394
 30
0.0
 41
1.0
 10
906.42891123319657
 20
-1543.0799001921678
 30
0.0
 41
0.9995314902263353
 10
906.42526104105809
 20
-1543.1946216759161
 30
0.0
 41
1.0
 10
906.42161084891995
 20
-1543.3093431596642
 30
0.0
 41
0.9996245486943809
 10
906.41168175378891
 20
-1543.4236924307893
 30
0.0
 41
1.0
 10
906.41151870579461
 20
-1543.4255701869261
 30
0.0
 41
1.0
 10
906.41135565780019
 20
-1543.4274479430626
 30
0.0
 41
1.0
 10
906.40110046668144
 20
-1543.5455527264535
 30
0.0
 41
0.999728609500105
 10
906.3853551431099
 20
-1543.663051635348
 30
0.0
 41
1.0
 10
906.38496165045933
 20
-1543.6659880600519
 30
0.0
 41
1.0
 10
906.38456815780876
 20
-1543.6689244847555
 30
0.0
 41
1.0
 10
906.36803584893585
 20
-1543.7922962430589
 30
0.0
 41
0.99982655339692
 10
906.34692039020342
 20
-1543.9149667178458
 30
0.0
 41
1.0
 10
906.34624384806659
 20
-1543.9188970963514
 30
0.0
 41
1.0
 10
906.34556730592976
 20
-1543.9228274748573
 30
0.0
 41
1.0
 10
906.32309876292152
 20
-1544.0533587066668
 30
0.0
 41
0.9999022530853101
 10
906.29698929831227
 20
-1544.1832106753016
 30
0.0
 41
1.0
 10
906.29601065714724
 20
-1544.1880778176876
 30
0.0
 41
1.0
 10
906.29503201598209
 20
-1544.1929449600736
 30
0.0
 41
1.0
 10
906.26696526904379
 20
-1544.3325312134759
 30
0.0
 41
0.9999524761935021
 10
906.23618230020918
 20
-1544.4715437066397
 30
0.0
 41
1.0
 10
906.23490619303243
 20
-1544.477306465948
 30
0.0
 41
1.0
 10
906.23363008585568
 20
-1544.4830692252563
 30
0.0
 41
1.0
 10
906.20029490266904
 20
-1544.63360723703
 30
0.0
 41
0.9999813588726657
 10
906.16512390187188
 20
-1544.7837269496913
 30
0.0
 41
1.0
 10
906.16356997641651
 20
-1544.7903595401087
 30
0.0
 41
1.0
 10
906.16201605096114
 20
-1544.7969921305262
 30
0.0
 41
1.0
 10
906.1237371992504
 20
-1544.9603770240346
 30
0.0
 41
0.9999955237626743
 10
906.08448132126716
 20
-1545.1235299276523
 30
0.0
 41
1.0
 10
906.07219968563504
 20
-1545.1745741181658
 30
0.0
 41
1.0
 10
906.05991805000292
 20
-1545.2256183086795
 30
0.0
 41
1.0
 10
905.99609890074225
 20
-1545.4908595933787
 30
0.0
 41
0.9999993604274285
 10
905.93167995354668
 20
-1545.7559558441767
 30
0.0
 41
1.0
 10
905.92696111801911
 20
-1545.7753747521367
 30
0.0
 41
1.0
 10
905.92224228249165
 20
-1545.7947936600967
 30
0.0
 41
1.0
 10
905.84838566422923
 20
-1546.0987277268632
 30
0.0
 41
0.9999659914718062
 10
905.76952606834527
 20
-1546.4014022734173
 30
0.0
 41
1.0
 10
905.76457337941497
 20
-1546.4204114105985
 30
0.0
 41
1.0
 10
905.75962069048455
 20
-1546.4394205477797
 30
0.0
 41
1.0
 10
905.67085571673556
 20
-1546.7801133687119
 30
0.0
 41
0.9999441976027144
 10
905.57491268377055
 20
-1547.1188547940162
 30
0.0
 41
1.0
 10
905.55821216534764
 20
-1547.1778185065348
 30
0.0
 41
1.0
 10
905.54151164692462
 20
-1547.2367822190533
 30
0.0
 41
1.0
 10
905.41216757711072
 20
-1547.6934510694059
 30
0.0
 41
0.999962512073175
 10
905.27493480978421
 20
-1548.1478116034118
 30
0.0
 41
1.0
 10
905.23914486670276
 20
-1548.2663076300337
 30
0.0
 41
1.0
 10
905.2033549236213
 20
-1548.3848036566558
 30
0.0
 41
1.0
 10
905.12883471958298
 20
-1548.631530734749
 30
0.0
 41
0.9999793386325192
 10
905.05114869644217
 20
-1548.8772793739961
 30
0.0
 41
1.0
 10
904.97346267330454
 20
-1549.1230280132322
 30
0.0
 41
1.0
 10
904.96268311443384
 20
-1549.1570459176069
 30
0.0
 41
1.0
 10
903.11231006116464
 20
-1555.0441178400743
 30
0.0
 41
1.0
 10
901.26193700789554
 20
-1560.9311897625416
 30
0.0
 41
1.0
 10
900.30068031787198
 20
-1560.9311897625416
 30
0.0
 41
1.0
 10
899.33942362784842
 20
-1560.9311897625416
 30
0.0
 41
1.0
 10
900.95836840652692
 20
-1555.7831612607522
 30
0.0
 41
1.0
 10
902.5773131852053
 20
-1550.6351327589628
 30
0.0
 41
1.0
 10
902.62247900837679
 20
-1550.491101536702
 30
0.0
 41
1.0
 10
902.66764483154816
 20
-1550.3470703144415
 30
0.0
 41
1.0
 10
902.83794924891436
 20
-1549.8039792852678
 30
0.0
 41
0.9999911657932455
 10
903.00368206059693
 20
-1549.259475753897
 30
0.0
 41
1.0
 10
903.03337800409815
 20
-1549.1619118138442
 30
0.0
 41
1.0
 10
903.06307394759938
 20
-1549.0643478737911
 30
0.0
 41
1.0
 10
903.16941487227666
 20
-1548.7149722225345
 30
0.0
 41
0.999995242815323
 10
903.27359846160198
 20
-1548.3649471981837
 30
0.0
 41
1.0
 10
903.27865793192882
 20
-1548.3479489239276
 30
0.0
 41
1.0
 10
903.28371740225566
 20
-1548.3309506496712
 30
0.0
 41
1.0
 10
903.37778205091877
 20
-1548.0149221738616
 30
0.0
 41
0.9999931687555568
 10
903.46950788880065
 20
-1547.6982069605635
 30
0.0
 41
1.0
 10
903.47444315326129
 20
-1547.6811662512887
 30
0.0
 41
1.0
 10
903.47937841772193
 20
-1547.6641255420138
 30
0.0
 41
1.0
 10
903.56123372667889
 20
-1547.3814917472769
 30
0.0
 41
0.9999893840808087
 10
903.64048095313115
 20
-1547.0981156180464
 30
0.0
 41
1.0
 10
903.71972817959067
 20
-1546.8147394887901
 30
0.0
 41
0.999983398006398
 10
903.79570442033287
 20
-1546.5304689057596
 30
0.0
 41
1.0
 10
903.80470835705455
 20
-1546.4967800272834
 30
0.0
 41
1.0
 10
903.81371229377623
 20
-1546.4630911488071
 30
0.0
 41
1.0
 10
903.88267684264201
 20
-1546.2050553165134
 30
0.0
 41
0.9999233658067523
 10
903.94523181386148
 20
-1545.9453911577934
 30
0.0
 41
1.0
 10
904.00778678508175
 20
-1545.685726999071
 30
0.0
 41
1.0
 10
904.04727020393932
 20
-1545.5219203346448
 30
0.0
 41
1.0
 10
904.05224880791661
 20
-1545.501265372774
 30
0.0
 41
1.0
 10
904.05722741189402
 20
-1545.4806104109032
 30
0.0
 41
1.0
 10
904.08675362279757
 20
-1545.3581136702155
 30
0.0
 41
0.9999868670841842
 10
904.11502270679307
 20
-1545.2353207245733
 30
0.0
 41
1.0
 10
904.11892019395236
 20
-1545.2183911371494
 30
0.0
 41
1.0
 10
904.12281768111166
 20
-1545.2014615497255
 30
0.0
 41
1.0
 10
904.14329179079027
 20
-1545.1125277789238
 30
0.0
 41
0.9999778173351972
 10
904.16257938890476
 20
-1545.0233291616973
 30
0.0
 41
1.0
 10
904.18186698702107
 20
-1544.9341305444625
 30
0.0
 41
0.9999602692866056
 10
904.19956134565382
 20
-1544.8446022560261
 30
0.0
 41
1.0
 10
904.20276517773004
 20
-1544.8283918011475
 30
0.0
 41
1.0
 10
904.20596900980615
 20
-1544.8121813462692
 30
0.0
 41
1.0
 10
904.2300710325917
 20
-1544.6902321480748
 30
0.0
 41
0.9995617985320668
 10
904.24691437981051
 20
-1544.5670704003687
 30
0.0
 41
1.0
 10
904.24937886971702
 20
-1544.5490495830013
 30
0.0
 41
1.0
 10
904.25184335962354
 20
-1544.5310287656337
 30
0.0
 41
1.0
 10
904.272126620672
 20
-1544.3827137159319
 30
0.0
 41
0.999112141063948
 10
904.27985197425994
 20
-1544.2332176171269
 30
0.0
 41
1.0
 10
904.28077076428451
 20
-1544.21543778055
 30
0.0
 41
1.0
 10
904.28168955430908
 20
-1544.1976579439734
 30
0.0
 41
1.0
 10
904.28757732784823
 20
-1544.0837215183201
 30
0.0
 41
0.9989792494905159
 10
904.28315823573087
 20
-1543.9697186824224
 30
0.0
 41
1.0
 10
904.28251026386238
 20
-1543.9530024364976
 30
0.0
 41
1.0
 10
904.28186229199378
 20
-1543.9362861905729
 30
0.0
 41
1.0
 10
904.27873914361339
 20
-1543.8557158465235
 30
0.0
 41
0.9997820295395005
 10
904.27225514623785
 20
-1543.7753461247801
 30
0.0
 41
1.0
 10
904.26577114886197
 20
-1543.6949764030337
 30
0.0
 41
0.9998335105974189
 10
904.25635895335063
 20
-1543.6148967865875
 30
0.0
 41
1.0
 10
904.25476402867423
 20
-1543.6013270561036
 30
0.0
 41
1.0
 10
904.25316910399783
 20
-1543.5877573256198
 30
0.0
 41
1.0
 10
904.24056705913313
 20
-1543.4805382482016
 30
0.0
 41
0.9996876457879366
 10
904.2226231463344
 20
-1543.3740828204839
 30
0.0
 41
1.0
 10
904.22039148318959
 20
-1543.3608430852446
 30
0.0
 41
1.0
 10
904.21815982004466
 20
-1543.3476033500051
 30
0.0
 41
1.0
 10
904.20436399862331
 20
-1543.2657572060459
 30
0.0
 41
0.9995547496495335
 10
904.18571067673076
 20
-1543.1848797088544
 30
0.0
 41
1.0
 10
904.18533671985938
 20
-1543.1832582981488
 30
0.0
 41
1.0
 10
904.18496276298799
 20
-1543.1816368874429
 30
0.0
 41
1.0
 10
904.16705735483845
 20
-1543.1040022116649
 30
0.0
 41
0.9994899427175634
 10
904.14423244615887
 20
-1543.0276689288289
 30
0.0
 41
1.0
 10
904.14377391941832
 20
-1543.0261354790409
 30
0.0
 41
1.0
 10
904.14331539267778
 20
-1543.0246020292532
 30
0.0
 41
1.0
 10
904.12140753748008
 20
-1542.951335645997
 30
0.0
 41
0.9993784877592005
 10
904.09439190237288
 20
-1542.8797949408356
 30
0.0
 41
1.0
 10
904.09386021139642
 20
-1542.8783869581162
 30
0.0
 41
1.0
 10
904.09332852041996
 20
-1542.8769789753967
 30
0.0
 41
1.0
 10
904.06737626726704
 20
-1542.8082542356785
 30
0.0
 41
0.9992430832254889
 10
904.03615973210685
 20
-1542.7417550836083
 30
0.0
 41
1.0
 10
904.03557761605043
 20
-1542.7405150284912
 30
0.0
 41
1.0
 10
904.0349954999939
 20
-1542.739274973374
 30
0.0
 41
1.0
 10
904.00494319694758
 20
-1542.6752559315403
 30
0.0
 41
0.9990789632799086
 10
903.96951257017088
 20
-1542.6140493197904
 30
0.0
 41
1.0
 10
903.96891686398919
 20
-1542.6130202339318
 30
0.0
 41
1.0
 10
903.96832115780751
 20
-1542.6119911480732
 30
0.0
 41
1.0
 10
903.93408194339383
 20
-1542.5528427080403
 30
0.0
 41
0.9988874801120858
 10
903.89442266736205
 20
-1542.4971829956228
 30
0.0
 41
1.0
 10
903.89386714129762
 20
-1542.4964033439478
 30
0.0
 41
1.0
 10
903.89331161523319
 20
-1542.4956236922728
 30
0.0
 41
1.0
 10
903.85476339132981
 20
-1542.4415232832046
 30
0.0
 41
0.9986762060693213
 10
903.81086092005398
 20
-1542.3916695687658
 30
0.0
 41
1.0
 10
903.81041695972158
 20
-1542.3911654269491
 30
0.0
 41
1.0
 10
903.80997299938929
 20
-1542.3906612851322
 30
0.0
 41
1.0
 10
903.76695844877713
 20
-1542.3418158543259
 30
0.0
 41
0.9984621642487699
 10
903.71880089199999
 20
-1542.2980325538556
 30
0.0
 41
1.0
 10
903.71855425748322
 20
-1542.2978083216919
 30
0.0
 41
1.0
 10
903.71830762296656
 20
-1542.2975840895283
 30
0.0
 41
1.0
 10
903.6706433352216
 20
-1542.2542492533839
 30
0.0
 41
0.9982724693851948
 10
903.61822470338075
 20
-1542.2168049028667
 30
0.0
 41
1.0
 10
903.56580607153955
 20
-1542.1793605523492
 30
0.0
 41
0.9981399180158626
 10
903.50922000814569
 20
-1542.1485740329053
 30
0.0
 41
1.0
 10
903.50917434606731
 20
-1542.1485491897483
 30
0.0
 41
1.0
 10
903.50912868398905
 20
-1542.1485243465911
 30
0.0
 41
1.0
 10
903.45245129643899
 20
-1542.1176881408335
 30
0.0
 41
0.9980927086837508
 10
903.39240594537216
 20
-1542.0940713319808
 30
0.0
 41
1.0
 10
903.39196577566054
 20
-1542.0938982061057
 30
0.0
 41
1.0
 10
903.39152560594903
 20
-1542.0937250802308
 30
0.0
 41
1.0
 10
903.33059991546065
 20
-1542.0697620196288
 30
0.0
 41
0.9981411356562671
 10
903.26721139406254
 20
-1542.0533893781235
 30
0.0
 41
1.0
 10
903.26632927735977
 20
-1542.0531615359178
 30
0.0
 41
1.0
 10
903.265447160657
 20
-1542.0529336937118
 30
0.0
 41
1.0
 10
903.20029440585472
 20
-1542.0361053677952
 30
0.0
 41
0.9983031812935066
 10
903.13362697685955
 20
-1542.026966006619
 30
0.0
 41
1.0
 10
903.12475595145577
 20
-1542.0257498879478
 30
0.0
 41
1.0
 10
903.11588492605199
 20
-1542.0245337692763
 30
0.0
 41
1.0
 10
903.0615352835481
 20
-1542.0170830392854
 30
0.0
 41
0.9983887708263094
 10
903.00669143425512
 20
-1542.0158383656521
 30
0.0
 41
1.0
 10
902.99862802903579
 20
-1542.0156553677773
 30
0.0
 41
1.0
 10
902.99056462381645
 20
-1542.0154723699025
 30
0.0
 41
1.0
 10
902.95184758496055
 20
-1542.0145936920189
 30
0.0
 41
0.9998869563078516
 10
902.91312163175962
 20
-1542.0148795613786
 30
0.0
 41
1.0
 10
902.87439567856131
 20
-1542.0151654307383
 30
0.0
 41
0.9999972320080944
 10
902.83567149935379
 20
-1542.015633530267
 30
0.0
 41
1.0
 10
902.81631848276993
 20
-1542.0158674703566
 30
0.0
 41
1.0
 10
902.79696546618618
 20
-1542.016101410446
 30
0.0
 41
1.0
 10
902.71953525381593
 20
-1542.0170373901537
 30
0.0
 41
0.9997304945086473
 10
902.64223194757881
 20
-1542.0215664839398
 30
0.0
 41
1.0
 10
902.63318230587402
 20
-1542.0220966899296
 30
0.0
 41
1.0
 10
902.62413266416934
 20
-1542.0226268959198
 30
0.0
 41
1.0
 10
902.52873007452263
 20
-1542.0282164016858
 30
0.0
 41
0.9997888306415571
 10
902.43363773867964
 20
-1542.037721366175
 30
0.0
 41
1.0
 10
902.42491667710738
 20
-1542.038593080807
 30
0.0
 41
1.0
 10
902.41619561553512
 20
-1542.039464795439
 30
0.0
 41
1.0
 10
902.3036611565484
 20
-1542.050713189192
 30
0.0
 41
0.998417023819097
 10
902.19310200919824
 20
-1542.0745292711274
 30
0.0
 41
1.0
 10
902.15672087820917
 20
-1542.0823663069341
 30
0.0
 41
1.0
 10
902.12033974722021
 20
-1542.0902033427408
 30
0.0
 41
1.0
 10
902.00514867879974
 20
-1542.1150172092503
 30
0.0
 41
0.9976592854198055
 10
901.89442051239632
 20
-1542.1553158863971
 30
0.0
 41
1.0
 10
901.78369234599165
 20
-1542.1956145635443
 30
0.0
 41
0.999325507435245
 10
901.67622054720232
 20
-1542.243931462036
 30
0.0
 41
1.0
 10
901.67159536827808
 20
-1542.2460108382361
 30
0.0
 41
1.0
 10
901.66697018935395
 20
-1542.2480902144362
 30
0.0
 41
1.0
 10
901.55024803271635
 20
-1542.3005658653281
 30
0.0
 41
0.9976475078274925
 10
901.44180068840581
 20
-1542.3685138549865
 30
0.0
 41
1.0
 10
901.42345829426927
 20
-1542.3800063338022
 30
0.0
 41
1.0
 10
901.40511590013261
 20
-1542.391498812618
 30
0.0
 41
1.0
 10
901.32091370858313
 20
-1542.444255933385
 30
0.0
 41
0.9995131336407286
 10
901.24016599362699
 20
-1542.5021621453373
 30
0.0
 41
1.0
 10
901.15941827867039
 20
-1542.56006835729
 30
0.0
 41
0.9995810107606549
 10
901.08215663094188
 20
-1542.6225500397554
 30
0.0
 41
1.0
 10
901.0791865997312
 20
-1542.6249519112203
 30
0.0
 41
1.0
 10
901.07621656852064
 20
-1542.6273537826853
 30
0.0
 41
1.0
 10
900.99301485837077
 20
-1542.6946392080808
 30
0.0
 41
0.9996617837954948
 10
900.91342417123417
 20
-1542.7661596636419
 30
0.0
 41
1.0
 10
900.90129342036062
 20
-1542.7770603966296
 30
0.0
 41
1.0
 10
900.88916266948695
 20
-1542.7879611296173
 30
0.0
 41
1.0
 10
900.82088714208692
 20
-1542.8493137450928
 30
0.0
 41
0.999726775005257
 10
900.75555363380113
 20
-1542.9137902816201
 30
0.0
 41
1.0
 10
900.69022012550317
 20
-1542.9782668181595
 30
0.0
 41
0.9999667288959331
 10
900.62594718234209
 20
-1543.043800625069
 30
0.0
 41
1.0
 10
900.55711973458131
 20
-1543.1139782838127
 30
0.0
 41
1.0
 10
900.48829228682052
 20
-1543.1841559425563
 30
0.0
 41
1.0
 10
900.28636444812514
 20
-1543.3900450669657
 30
0.0
 41
0.9988205335175355
 10
900.10535883114551
 20
-1543.6145492990261
 30
0.0
 41
1.0
 10
900.07471886624012
 20
-1543.6525525494567
 30
0.0
 41
1.0
 10
900.04407890133484
 20
-1543.6905557998875
 30
0.0
 41
1.0
 10
899.8017933545475
 20
-1543.9910665328059
 30
0.0
 41
0.9997077826754497
 10
899.57431540344612
 20
-1544.3029363270171
 30
0.0
 41
1.0
 10
899.57259198831298
 20
-1544.3052991104003
 30
0.0
 41
1.0
 10
899.57086857317984
 20
-1544.3076618937835
 30
0.0
 41
1.0
 10
899.33994379181377
 20
-1544.6242572547587
 30
0.0
 41
0.9989147567078842
 10
899.13948028893003
 20
-1544.9609667159439
 30
0.0
 41
1.0
 10
899.114739143625
 20
-1545.0025232964931
 30
0.0
 41
1.0
 10
899.08999799831986
 20
-1545.0440798770426
 30
0.0
 41
1.0
 10
898.93478669967919
 20
-1545.3047812615007
 30
0.0
 41
0.9997476598181914
 10
898.79144171216933
 20
-1545.5721910100838
 30
0.0
 41
1.0
 10
898.64809672465788
 20
-1545.8396007586696
 30
0.0
 41
0.9996258967109584
 10
898.51958847272635
 20
-1546.1144486952937
 30
0.0
 41
1.0
 10
898.50638856327646
 20
-1546.1426800953896
 30
0.0
 41
1.0
 10
898.49318865382668
 20
-1546.1709114954856
 30
0.0
 41
1.0
 10
898.35297993282802
 20
-1546.4707838934362
 30
0.0
 41
0.9998735413945966
 10
898.22237858610822
 20
-1546.7749634929028
 30
0.0
 41
1.0
 10
898.21893575804665
 20
-1546.78298207837
 30
0.0
 41
1.0
 10
898.2154929299852
 20
-1546.7910006638369
 30
0.0
 41
1.0
 10
898.09177723938751
 20
-1547.0791430923719
 30
0.0
 41
0.9999377418864118
 10
897.97452243721318
 20
-1547.3699745600454
 30
0.0
 41
1.0
 10
897.85726763504044
 20
-1547.6608060277154
 30
0.0
 41
0.9999508299508645
 10
897.74580369166642
 20
-1547.9539057045272
 30
0.0
 41
1.0
 10
897.742722923001
 20
-1547.9620067304988
 30
0.0
 41
1.0
 10
897.73964215433557
 20
-1547.9701077564705
 30
0.0
 41
1.0
 10
897.62201667363388
 20
-1548.2794094852184
 30
0.0
 41
0.9999609228428891
 10
897.50987807075967
 20
-1548.5907425012342
 30
0.0
 41
1.0
 10
897.50692206040981
 20
-1548.5989493416441
 30
0.0
 41
1.0
 10
897.50396605006006
 20
-1548.607156182054
 30
0.0
 41
1.0
 10
897.38591542648942
 20
-1548.9349028788815
 30
0.0
 41
0.9999674607402296
 10
897.273167900418
 20
-1549.2645114988854
 30
0.0
 41
1.0
 10
897.22176950985659
 20
-1549.4147706945739
 30
0.0
 41
1.0
 10
897.17037111929528
 20
-1549.5650298902624
 30
0.0
 41
1.0
 10
897.05436051253491
 20
-1549.9041778727731
 30
0.0
 41
0.9999287532306503
 10
896.94647910856497
 20
-1550.2459986117462
 30
0.0
 41
1.0
 10
896.90000185241456
 20
-1550.3932611561531
 30
0.0
 41
1.0
 10
896.85352459626404
 20
-1550.5405237005602
 30
0.0
 41
1.0
 10
896.83859770458037
 20
-1550.587819350766
 30
0.0
 41
0.9999998223411745
 10
896.82372719586385
 20
-1550.6351327589628
 30
0.0
 41
1.0
 10
895.20307105906841
 20
-1555.7831612607522
 30
0.0
 41
1.0
 10
893.58241492227296
 20
-1560.9311897625416
 30
0.0
 41
1.0
 10
892.67710647838203
 20
-1560.9311897625416
 30
0.0
 41
1.0
 10
891.7717980344911
 20
-1560.9311897625416
 30
0.0
 41
1.0
 10
893.62388244587714
 20
-1555.0441178400743
 30
0.0
 41
1.0
 10
895.47596685726319
 20
-1549.1570459176069
 30
0.0
 41
1.0
 10
895.4860886155659
 20
-1549.1250027041569
 30
0.0
 41
1.0
 10
895.55869628441565
 20
-1548.8947031623311
 30
0.0
 41
1.0
 10
895.63130395325834
 20
-1548.664403620528
 30
0.0
 41
0.9999825681964735
 10
895.70118699246871
 20
-1548.4332627254673
 30
0.0
 41
1.0
 10
895.74947805463717
 20
-1548.2735381419461
 30
0.0
 41
1.0
 10
895.79776911680563
 20
-1548.1138135584249
 30
0.0
 41
1.0
 10
895.89492147011811
 20
-1547.7924783366643
 30
0.0
 41
0.9999672528963194
 10
895.98686027573774
 20
-1547.4696127910904
 30
0.0
 41
1.0
 10
895.98964915940599
 20
-1547.4598189457056
 30
0.0
 41
1.0
 10
895.99243804307423
 20
-1547.450025100321
 30
0.0
 41
1.0
 10
896.0787990813601
 20
-1547.146747245507
 30
0.0
 41
0.9999899749176389
 10
896.16244069089578
 20
-1546.8427081570517
 30
0.0
 41
1.0
 10
896.17254660991603
 20
-1546.8059729193633
 30
0.0
 41
1.0
 10
896.18265252893627
 20
-1546.7692376816749
 30
0.0
 41
1.0
 10
896.24608230043134
 20
-1546.5386690685957
 30
0.0
 41
0.9999214200506206
 10
896.30371172880814
 20
-1546.3065827263899
 30
0.0
 41
1.0
 10
896.31647758099098
 20
-1546.255171840985
 30
0.0
 41
1.0
 10
896.3292434331737
 20
-1546.20376095558
 30
0.0
 41
1.0
 10
896.36134115719005
 20
-1546.0744963841639
 30
0.0
 41
0.9999828681655465
 10
896.39192340918135
 20
-1545.944864909713
 30
0.0
 41
1.0
 10
896.42250566117582
 20
-1545.8152334352492
 30
0.0
 41
0.9999389844477449
 10
896.45021664996466
 20
-1545.684957979352
 30
0.0
 41
1.0
 10
896.45735439368559
 20
-1545.6514018755115
 30
0.0
 41
1.0
 10
896.46449213740641
 20
-1545.6178457716708
 30
0.0
 41
1.0
 10
896.50647861363575
 20
-1545.4204581080976
 30
0.0
 41
0.9998933699440382
 10
896.54268287803768
 20
-1545.2219285003405
 30
0.0
 41
1.0
 10
896.54405570325434
 20
-1545.2144004796423
 30
0.0
 41
1.0
 10
896.54542852847101
 20
-1545.2068724589442
 30
0.0
 41
1.0
 10
896.58437844330592
 20
-1544.9932868097926
 30
0.0
 41
0.999685030519348
 10
896.61256211956402
 20
-1544.7780158043606
 30
0.0
 41
1.0
 10
896.61455715293368
 20
-1544.7627774502355
 30
0.0
 41
1.0
 10
896.61655218630347
 20
-1544.7475390961104
 30
0.0
 41
1.0
 10
896.64396004876266
 20
-1544.5381938689545
 30
0.0
 41
0.999469793670686
 10
896.65768460798199
 20
-1544.3275086736264
 30
0.0
 41
1.0
 10
896.65816167723165
 20
-1544.3201852014158
 30
0.0
 41
1.0
 10
896.6586387464813
 20
-1544.3128617292052
 30
0.0
 41
1.0
 10
896.67140916720155
 20
-1544.1168234782965
 30
0.0
 41
0.9991804893137
 10
896.6682808509288
 20
-1543.9203946283224
 30
0.0
 41
1.0
 10
896.66819697210667
 20
-1543.9151278269101
 30
0.0
 41
1.0
 10
896.66811309328455
 20
-1543.9098610254975
 30
0.0
 41
1.0
 10
896.66515253465604
 20
-1543.7239657783502
 30
0.0
 41
0.9988448329321702
 10
896.64436098903218
 20
-1543.5392131885155
 30
0.0
 41
1.0
 10
896.64276691532905
 20
-1543.5250483327438
 30
0.0
 41
1.0
 10
896.64117284162603
 20
-1543.5108834769721
 30
0.0
 41
1.0
 10
896.62356944340854
 20
-1543.354460598682
 30
0.0
 41
0.9985503209458048
 10
896.58925317110879
 20
-1543.2008364145929
 30
0.0
 41
1.0
 10
896.58166717903737
 20
-1543.1668760871917
 30
0.0
 41
1.0
 10
896.57408118696594
 20
-1543.1329157597906
 30
0.0
 41
1.0
 10
896.55493689880905
 20
-1543.0472122305027
 30
0.0
 41
0.9991036781370232
 10
896.52861203715815
 20
-1542.9634351431787
 30
0.0
 41
1.0
 10
896.52462981170174
 20
-1542.9507619806666
 30
0.0
 41
1.0
 10
896.52064758624522
 20
-1542.9380888181545
 30
0.0
 41
1.0
 10
896.50228717550522
 20
-1542.8796580558485
 30
0.0
 41
0.9998874504368871
 10
896.48218196782841
 20
-1542.8218044536304
 30
0.0
 41
1.0
 10
896.46207676015047
 20
-1542.7639508514085
 30
0.0
 41
0.9994041637544304
 10
896.43802814721573
 20
-1542.707622147517
 30
0.0
 41
1.0
 10
896.4338313629919
 20
-1542.6977920830354
 30
0.0
 41
1.0
 10
896.42963457876806
 20
-1542.6879620185541
 30
0.0
 41
1.0
 10
896.40175574777402
 20
-1542.6226618525877
 30
0.0
 41
0.9991846840702002
 10
896.3686993910801
 20
-1542.5598238213058
 30
0.0
 41
1.0
 10
896.36756278468465
 20
-1542.5576632048503
 30
0.0
 41
1.0
 10
896.3664261782892
 20
-1542.5555025883948
 30
0.0
 41
1.0
 10
896.33564303438652
 20
-1542.4969857900246
 30
0.0
 41
0.9989253167922779
 10
896.29957361033212
 20
-1542.4415708616355
 30
0.0
 41
1.0
 10
896.29851948565795
 20
-1542.4399513668732
 30
0.0
 41
1.0
 10
896.29746536098378
 20
-1542.4383318721109
 30
0.0
 41
1.0
 10
896.26350418627737
 20
-1542.3861559332456
 30
0.0
 41
0.9986467172836575
 10
896.22430703363966
 20
-1542.3377898996157
 30
0.0
 41
1.0
 10
896.22343290493905
 20
-1542.3367112973374
 30
0.0
 41
1.0
 10
896.22255877623832
 20
-1542.3356326950593
 30
0.0
 41
1.0
 10
896.18510988100229
 20
-1542.2894238659862
 30
0.0
 41
0.9984001104267816
 10
896.14268315048514
 20
-1542.2477387586173
 30
0.0
 41
1.0
 10
896.14209601237576
 20
-1542.247161883736
 30
0.0
 41
1.0
 10
896.14150887426649
 20
-1542.2465850088547
 30
0.0
 41
1.0
 10
896.10025641996799
 20
-1542.2060536512486
 30
0.0
 41
0.9982442159083035
 10
896.05450031863234
 20
-1542.1706850899884
 30
0.0
 41
1.0
 10
896.05428552317119
 20
-1542.1705190573457
 30
0.0
 41
1.0
 10
896.05407072771004
 20
-1542.170353024703
 30
0.0
 41
1.0
 10
896.00874421729714
 20
-1542.1353165287285
 30
0.0
 41
0.9982450060835942
 10
895.95959323822501
 20
-1542.1058847456945
 30
0.0
 41
1.0
 10
895.91044225915255
 20
-1542.0764529626604
 30
0.0
 41
0.9983922639633327
 10
895.85827595298747
 20
-1542.0527733280064
 30
0.0
 41
1.0
 10
895.85804907566353
 20
-1542.0526703425253
 30
0.0
 41
1.0
 10
895.85782219833948
 20
-1542.0525673570439
 30
0.0
 41
1.0
 10
895.80520213752527
 20
-1542.0286817514268
 30
0.0
 41
0.9986517147149614
 10
895.75038916465667
 20
-1542.010380632305
 30
0.0
 41
1.0
 10
895.74971124322929
 20
-1542.0101542858738
 30
0.0
 41
1.0
 10
895.74903332180202
 20
-1542.0099279394424
 30
0.0
 41
1.0
 10
895.69286450607876
 20
-1541.9911741274577
 30
0.0
 41
0.9989435598956622
 10
895.63521111892783
 20
-1541.9776564252234
 30
0.0
 41
1.0
 10
895.63413099934576
 20
-1541.9774031749703
 30
0.0
 41
1.0
 10
895.63305087976369
 20
-1541.9771499247172
 30
0.0
 41
1.0
 10
895.57323725344872
 20
-1541.9631257219767
 30
0.0
 41
0.9992249241239922
 10
895.51250574455116
 20
-1541.9538503792614
 30
0.0
 41
1.0
 10
895.51109205626028
 20
-1541.9536344708536
 30
0.0
 41
1.0
 10
895.5096783679694
 20
-1541.9534185624459
 30
0.0
 41
1.0
 10
895.4461194824903
 20
-1541.9437114029151
 30
0.0
 41
0.9994396597833798
 10
895.38205354595436
 20
-1541.9382784805696
 30
0.0
 41
1.0
 10
895.36291287847587
 20
-1541.9366553128507
 30
0.0
 41
1.0
 10
895.34377221099737
 20
-1541.935032145132
 30
0.0
 41
1.0
 10
895.2414249395041
 20
-1541.9263528873489
 30
0.0
 41
0.998769340312092
 10
895.13872131591665
 20
-1541.9278559508016
 30
0.0
 41
1.0
 10
895.12846698168869
 20
-1541.9280060225758
 30
0.0
 41
1.0
 10
895.11821264746072
 20
-1541.92815609435
 30
0.0
 41
1.0
 10
895.00865688128317
 20
-1541.9297594386376
 30
0.0
 41
0.9989753644966669
 10
894.89969488126792
 20
-1541.9412624455626
 30
0.0
 41
1.0
 10
894.79073288125267
 20
-1541.9527654524877
 30
0.0
 41
0.9983190067305886
 10
894.68383407028887
 20
-1541.976800444274
 30
0.0
 41
1.0
 10
894.67493311868088
 20
-1541.978801722837
 30
0.0
 41
1.0
 10
894.66603216707301
 20
-1541.9808030013999
 30
0.0
 41
1.0
 10
894.54133145289438
 20
-1542.008840550312
 30
0.0
 41
0.9985539388302752
 10
894.42036169921664
 20
-1542.0501042263577
 30
0.0
 41
1.0
 10
894.41801626825622
 20
-1542.0509042701735
 30
0.0
 41
1.0
 10
894.41567083729592
 20
-1542.0517043139894
 30
0.0
 41
1.0
 10
894.29001022169689
 20
-1542.094568077667
 30
0.0
 41
0.9988468746493623
 10
894.1690398793952
 20
-1542.14928616273
 30
0.0
 41
1.0
 10
894.16585705740749
 20
-1542.1507258372894
 30
0.0
 41
1.0
 10
894.16267423541979
 20
-1542.152165511849
 30
0.0
 41
1.0
 10
894.03533824914382
 20
-1542.2097629460304
 30
0.0
 41
0.9991322885919686
 10
893.9132376650881
 20
-1542.2777582782114
 30
0.0
 41
1.0
 10
893.89563565403955
 20
-1542.2875604802039
 30
0.0
 41
1.0
 10
893.87803364299089
 20
-1542.2973626821963
 30
0.0
 41
1.0
 10
893.77585696193717
 20
-1542.354262797975
 30
0.0
 41
0.9993860037848985
 10
893.67791595786684
 20
-1542.4181788135618
 30
0.0
 41
1.0
 10
893.67229764501565
 20
-1542.4218453082558
 30
0.0
 41
1.0
 10
893.66667933216445
 20
-1542.42551180295
 30
0.0
 41
1.0
 10
893.5799749537947
 20
-1542.4820948291497
 30
0.0
 41
0.9998821494954129
 10
893.4950485779807
 20
-1542.5413130592272
 30
0.0
 41
1.0
 10
893.41012220217044
 20
-1542.6005312893021
 30
0.0
 41
0.9997976482744861
 10
893.32764657176619
 20
-1542.6631176973442
 30
0.0
 41
1.0
 10
893.31301030696022
 20
-1542.6742243871249
 30
0.0
 41
1.0
 10
893.29837404215436
 20
-1542.6853310769054
 30
0.0
 41
1.0
 10
893.18662588213942
 20
-1542.7701308645078
 30
0.0
 41
0.9998091630800804
 10
893.07827560411101
 20
-1542.85923121521
 30
0.0
 41
1.0
 10
893.06526985163487
 20
-1542.869926315655
 30
0.0
 41
1.0
 10
893.05226409915861
 20
-1542.8806214161002
 30
0.0
 41
1.0
 10
892.91790231617483
 20
-1542.9911119676947
 30
0.0
 41
0.9995035112316454
 10
892.79076643841199
 20
-1543.1098457847095
 30
0.0
 41
1.0
 10
892.78111912802808
 20
-1543.1188555308643
 30
0.0
 41
1.0
 10
892.77147181764417
 20
-1543.1278652770191
 30
0.0
 41
1.0
 10
892.64804875487619
 20
-1543.2431316487773
 30
0.0
 41
0.9994630424299892
 10
892.53244034908903
 20
-1543.3662343920155
 30
0.0
 41
1.0
 10
892.52875751031797
 20
-1543.3701559715282
 30
0.0
 41
1.0
 10
892.5250746715468
 20
-1543.374077551041
 30
0.0
 41
1.0
 10
892.41683194330642
 20
-1543.4893371352491
 30
0.0
 41
0.9995160693749888
 10
892.3159659137732
 20
-1543.6111045531231
 30
0.0
 41
1.0
 10
892.3140321936919
 20
-1543.613438977332
 30
0.0
 41
1.0
 10
892.31209847361049
 20
-1543.615773401541
 30
0.0
 41
1.0
 10
892.21509988424123
 20
-1543.7328719709958
 30
0.0
 41
0.9996561470515076
 10
892.12437366557538
 20
-1543.8548947334448
 30
0.0
 41
1.0
 10
892.11821599967232
 20
-1543.8631765224886
 30
0.0
 41
1.0
 10
892.11205833376926
 20
-1543.8714583115323
 30
0.0
 41
1.0
 10
892.03364744690805
 20
-1543.976917495896
 30
0.0
 41
0.9998349055171972
 10
891.95912016497732
 20
-1544.0851560795575
 30
0.0
 41
1.0
 10
891.88459288304466
 20
-1544.1933946632214
 30
0.0
 41
0.9999728109564769
 10
891.81166998712854
 20
-1544.3027205887856
 30
0.0
 41
1.0
 10
891.81035477171997
 20
-1544.3046923582833
 30
0.0
 41
1.0
 10
891.8090395563114
 20
-1544.3066641277812
 30
0.0
 41
1.0
 10
891.73348622959236
 20
-1544.4199335923195
 30
0.0
 41
0.9999972147365384
 10
891.65846841921189
 20
-1544.5335584351649
 30
0.0
 41
1.0
 10
891.65349687658545
 20
-1544.5410885236433
 30
0.0
 41
1.0
 10
891.64852533395901
 20
-1544.5486186121218
 30
0.0
 41
1.0
 10
891.56356443834045
 20
-1544.6773036319019
 30
0.0
 41
0.9999371979006207
 10
891.48150908893297
 20
-1544.8078605456842
 30
0.0
 41
1.0
 10
891.47800020457248
 20
-1544.8134434737472
 30
0.0
 41
1.0
 10
891.47449132021188
 20
-1544.8190264018103
 30
0.0
 41
1.0
 10
891.38541820208161
 20
-1544.960749171722
 30
0.0
 41
0.9998272025611151
 10
891.30167481119747
 20
-1545.1056850484681
 30
0.0
 41
1.0
 10
891.2864596391754
 20
-1545.1320181629214
 30
0.0
 41
1.0
 10
891.27124446715334
 20
-1545.1583512773748
 30
0.0
 41
1.0
 10
891.15707073222472
 20
-1545.355953383028
 30
0.0
 41
0.999521721483854
 10
891.05533104266908
 20
-1545.5602357108896
 30
0.0
 41
1.0
 10
891.0476874800313
 20
-1545.5755831605982
 30
0.0
 41
1.0
 10
891.0400439173934
 20
-1545.5909306103067
 30
0.0
 41
1.0
 10
890.95313862480464
 20
-1545.7654270683863
 30
0.0
 41
0.9998269762607343
 10
890.87278415853564
 20
-1545.9430353551036
 30
0.0
 41
1.0
 10
890.79242969226482
 20
-1546.1206436418245
 30
0.0
 41
0.9998944747386872
 10
890.71726889770105
 20
-1546.3005113674512
 30
0.0
 41
1.0
 10
890.71231522810831
 20
-1546.3123660223725
 30
0.0
 41
1.0
 10
890.70736155851546
 20
-1546.3242206772939
 30
0.0
 41
1.0
 10
890.62671449796517
 20
-1546.517217617306
 30
0.0
 41
0.9999506734406806
 10
890.54991696905984
 20
-1546.7117784221664
 30
0.0
 41
1.0
 10
890.53531700379165
 20
-1546.7487663439656
 30
0.0
 41
1.0
 10
890.52071703852346
 20
-1546.7857542657646
 30
0.0
 41
1.0
 10
890.47311944015178
 20
-1546.9063392270336
 30
0.0
 41
0.9999912393917153
 10
890.4265329961338
 20
-1547.0273184297182
 30
0.0
 41
1.0
 10
890.37994655211605
 20
-1547.1482976324014
 30
0.0
 41
0.9999927113978077
 10
890.33428525772729
 20
-1547.2696290398885
 30
0.0
 41
1.0
 10
890.32031682632442
 20
-1547.3067460219013
 30
0.0
 41
1.0
 10
890.30634839492154
 20
-1547.3438630039138
 30
0.0
 41
1.0
 10
890.2327502377301
 20
-1547.539428375419
 30
0.0
 41
0.9999487550944394
 10
890.16312661275697
 20
-1547.7364437406054
 30
0.0
 41
1.0
 10
890.1395330028223
 20
-1547.8032070508921
 30
0.0
 41
1.0
 10
890.11593939288764
 20
-1547.8699703611785
 30
0.0
 41
1.0
 10
890.02125375851983
 20
-1548.1379041959949
 30
0.0
 41
0.9999808436931413
 10
889.92989216987451
 20
-1548.4069896272711
 30
0.0
 41
1.0
 10
889.83853058122986
 20
-1548.6760750585449
 30
0.0
 41
0.9999873932907138
 10
889.74987587250905
 20
-1548.9460644135668
 30
0.0
 41
1.0
 10
889.72978351564257
 20
-1549.0072537463107
 30
0.0
 41
1.0
 10
889.7096911587762
 20
-1549.0684430790548
 30
0.0
 41
1.0
 10
889.58085173631673
 20
-1549.4608110995821
 30
0.0
 41
0.9999794883035621
 10
889.45704895135441
 20
-1549.8547973058739
 30
0.0
 41
1.0
 10
889.44589669191555
 20
-1549.8902879161155
 30
0.0
 41
1.0
 10
889.43474443247669
 20
-1549.9257785263571
 30
0.0
 41
1.0
 10
889.29218626857869
 20
-1550.3794512784457
 30
0.0
 41
0.9999982761749924
 10
889.15131382857373
 20
-1550.8336503005353
 30
0.0
 41
1.0
 10
887.56317349600113
 20
-1555.8824200315385
 30
0.0
 41
1.0
 10
885.97503316342852
 20
-1560.9311897625416
 30
0.0
 41
1.0
 10
885.02628255195214
 20
-1560.9311897625416
 30
0.0
 41
1.0
 10
884.07753194047575
 20
-1560.9311897625416
 30
0.0
 41
1.0
 10
887.315816426629
 20
-1550.6038675625955
 30
0.0
 41
1.0
 10
890.55410091278213
 20
-1540.2765453626494
 30
0.0
 41
1.0
  0
LWPOLYLINE
  5
5B
100
AcDbEntity
  8
0
370
              15
390
0
  6
Continuous
 62
               7
100
AcDbPolyline
 90
      232
 70
             128
 10
864.85055513895509
 20
-1541.3608881941645
 42
0.0004370800687037
 10
864.79767796496571
 20
-1541.4295548333132
 10
864.75839373375561
 20
-1541.4806619463175
 42
0.0030481992167544
 10
864.62805501664923
 20
-1541.6523836386448
 10
864.58954334488601
 20
-1541.7037704224499
 42
0.0042058245757219
 10
864.38555829420818
 20
-1541.9807761675347
 10
864.33315317171548
 20
-1542.0532090143042
 42
0.0120948898745563
 10
864.03710925495159
 20
-1542.4839586188571
 10
863.94091675582888
 20
-1542.6314393540831
 42
0.0141601263951245
 10
863.63727270891013
 20
-1543.1271086908137
 10
863.59773544149152
 20
-1543.1959526582325
 42
0.0071131081299583
 10
863.39246311824581
 20
-1543.5654554570835
 42
0.0068458791006712
 10
863.19758359140485
 20
-1543.9405470205552
 10
863.19077172894492
 20
-1543.9541087342832
 42
0.0064120880287914
 10
862.99262947890452
 20
-1544.3615332091936
 10
862.98509479338361
 20
-1544.3775450659232
 42
0.0058857236449226
 10
862.78233940151097
 20
-1544.8219211769604
 10
862.77416447521796
 20
-1544.8404113305921
 42
0.0053189741898531
 10
862.56546016255072
 20
-1545.3263748045094
 10
862.55671235686907
 20
-1545.3473566827063
 42
0.0047503650419778
 10
862.34073863071228
 20
-1545.8795561159313
 10
862.3314703823703
 20
-1545.9030324920238
 42
0.0042071762174672
 10
862.10692299863672
 20
-1546.4861260861089
 10
862.09717359629383
 20
-1546.5120922609633
 42
0.0036680086480664
 10
861.8627189529858
 20
-1547.1507276454831
 10
861.85251117313396
 20
-1547.179176179839
 42
0.0032573142626955
 10
861.60687888716973
 20
-1547.8780288395851
 10
861.53822836632617
 20
-1548.0774919236464
 42
0.0026133366649191
 10
861.18978316756852
 20
-1549.1073552073174
 10
861.12652638005454
 20
-1549.2975860427507
 42
0.0020592950741014
 10
860.9126633111008
 20
-1549.9496896953235
 10
860.90961151994179
 20
-1549.9591261837206
 42
0.0025609928534307
 10
860.70779101845187
 20
-1550.5942714060991
 10
860.7051996513228
 20
-1550.6025737470472
 42
0.0031362356242619
 10
860.51570886564832
 20
-1551.2233366032192
 10
860.51357782272021
 20
-1551.2304779094325
 42
0.0037229918028035
 10
860.33677743579449
 20
-1551.8394632114043
 10
860.33509884658645
 20
-1551.8454101015845
 42
0.0043077623707927
 10
860.171358044523
 20
-1552.4452288333478
 42
0.0047654161822467
 10
860.0185293220095
 20
-1553.0479149222401
 10
859.98406471316798
 20
-1553.1894766993998
 42
0.0112969368446652
 10
859.78820035502338
 20
-1554.081168860029
 10
859.76019396592767
 20
-1554.2239969061218
 42
0.0130056762570175
 10
859.55935672228111
 20
-1555.4109379777667
 10
859.53881697213365
 20
-1555.5550160912462
 42
0.0138721532146047
 10
859.43511396759607
 20
-1556.4618455770694
 10
859.41581847968769
 20
-1556.6853432990008
 42
0.0071254697011563
 10
859.38247183376552
 20
-1557.1485303078418
 10
859.37751085960292
 20
-1557.2345343023903
 42
0.0028881799195077
 10
859.36237256631239
 20
-1557.5262760122446
 42
0.006029729713777
 10
859.35244036653671
 20
-1557.8182249483673
 10
859.35137808486979
 20
-1557.8666173202944
 42
0.0229523164158175
 10
859.35910911265557
 20
-1558.189372166576
 10
859.36333488617595
 20
-1558.2497757005924
 42
0.0123673300666063
 10
859.38241353269427
 20
-1558.450896425767
 42
0.0128577674469539
 10
859.41160892310086
 20
-1558.6507942756959
 10
859.41873479648757
 20
-1558.6921230902908
 42
0.0285717853764365
 10
859.48322879818352
 20
-1558.9702392416048
 10
859.4968973218497
 20
-1559.0168940110814
 42
0.0316283099163517
 10
859.612707901764
 20
-1559.3359085129073
 10
859.6157565935199
 20
-1559.3428948852338
 42
0.0338984824240229
 10
859.76518830448663
 20
-1559.630460849422
 10
859.76749703385588
 20
-1559.6342518786967
 42
0.0350228718359736
 10
859.94985732453006
 20
-1559.8913038633748
 10
859.95074257630563
 20
-1559.8923829411394
 42
0.0347476747530412
 10
860.16516726354519
 20
-1560.1195679883588
 42
0.0331337701912198
 10
860.40841058929152
 20
-1560.3156966504362
 10
860.40951068780771
 20
-1560.3164693536087
 42
0.0305233319082721
 10
860.6780553833803
 20
-1560.4815975236995
 10
860.68128542788236
 20
-1560.4833215355627
 42
0.0273744481156493
 10
860.97383913945782
 20
-1560.6194596794535
 10
860.97894367459412
 20
-1560.6215032639227
 42
0.024096440619343
 10
861.29442075024019
 20
-1560.7304869902043
 10
861.30100407944974
 20
-1560.7324117298792
 42
0.0209636179813306
 10
861.63840423210206
 20
-1560.8158798778113
 10
861.64603669255109
 20
-1560.8174317908129
 42
0.0181388704691897
 10
862.00435908455086
 20
-1560.876847884027
 10
862.01263993292764
 20
-1560.8779140678439
 42
0.0156086547586597
 10
862.39082729711674
 20
-1560.9146502544206
 10
862.43402254944726
 20
-1560.9174887568997
 42
0.0137148329026088
 10
862.76169569474246
 20
-1560.9300090121508
 10
862.80763188467813
 20
-1560.9305034452659
 42
0.005105782387972
 10
863.04377747126068
 20
-1560.9306336996751
 42
0.0052256693312495
 10
863.27987475504347
 20
-1560.9258848752111
 10
863.35010153878875
 20
-1560.9237379091969
 42
0.0161507179050388
 10
863.72583861689122
 20
-1560.9000875388701
 10
863.74585157726301
 20
-1560.8981773435828
 42
0.0101216737833824
 10
864.15987879875581
 20
-1560.850184413217
 10
864.19393208818053
 20
-1560.8455367164077
 42
0.0245291776398399
 10
864.67072174372845
 20
-1560.756461638332
 10
864.75554505925822
 20
-1560.7362657179849
 42
0.0143509212555465
 10
865.11217616319527
 20
-1560.6404610842067
 42
0.0156557857038853
 10
865.46239222791598
 20
-1560.5234498683903
 10
865.46989344241717
 20
-1560.5206797066337
 42
0.0170137333629807
 10
865.82648943810295
 20
-1560.3750220917605
 10
865.83359336050603
 20
-1560.3718342561988
 42
0.0183105364406853
 10
866.19294302866808
 20
-1560.1944992143767
 10
866.19988979331106
 20
-1560.1907487795024
 42
0.0194899958155315
 10
866.55837053429832
 20
-1559.9787697976096
 10
866.56538441363182
 20
-1559.9742444553167
 42
0.0204869852946713
 10
866.91939871572242
 20
-1559.7247244402333
 10
866.9266643243127
 20
-1559.7191443748825
 42
0.0212516938556846
 10
867.27265425541748
 20
-1559.4292403779909
 10
867.31917094949597
 20
-1559.3867730678946
 42
0.0215248918257133
 10
867.57919711838395
 20
-1559.1280087888997
 10
867.62422685276636
 20
-1559.079164667548
 42
0.0114578554952728
 10
867.77901900644201
 20
-1558.9033417340916
 10
867.79021354243184
 20
-1558.8900229705423
 42
0.0061531305131922
 10
867.916688188423
 20
-1558.7357334372405
 42
0.0006325587113608
 10
868.04106667255212
 20
-1558.5797300615932
 10
868.06410680762633
 20
-1558.5507565409052
 42
0.0041897761551805
 10
868.23256221160261
 20
-1558.3352371648389
 10
868.29102433149114
 20
-1558.2591358178584
 42
0.0092993880036491
 10
868.5676362587094
 20
-1557.8848570539824
 10
868.65003075191123
 20
-1557.7689200504096
 42
0.0159321727086863
 10
868.99663723455615
 20
-1557.2467458296499
 10
869.04099336995182
 20
-1557.175066265389
 42
0.0085547317024523
 10
869.27550513527103
 20
-1556.7811913161752
 42
0.0084601156893833
 10
869.49648131272124
 20
-1556.3795644671277
 10
869.5045967865434
 20
-1556.36420478487
 42
0.00814296542846
 10
869.72784605697746
 20
-1555.9244832723361
 10
869.73670622116492
 20
-1555.9063044303098
 42
0.0076574581327998
 10
869.96311373173319
 20
-1555.4231215550533
 10
869.97259337245532
 20
-1555.4020570767536
 42
0.0070682724206099
 10
870.20303828026601
 20
-1554.8700197719631
 10
870.21302856424381
 20
-1554.8460305829608
 42
0.0064559514446264
 10
870.44836177242246
 20
-1554.2597183164498
 10
870.45877113059055
 20
-1554.2327833909997
 42
0.0058311413906577
 10
870.69981786735707
 20
-1553.5867512966056
 10
870.71057294474076
 20
-1553.5568669554555
 42
0.0052312425818739
 10
870.95815422278474
 20
-1552.8456645416118
 10
870.9691980591615
 20
-1552.8128378295512
 42
0.0046680544793854
 10
871.22412648689112
 20
-1552.0310115138113
 10
871.26611863693586
 20
-1551.8980282765156
 42
0.004166685644534
 10
871.46940464933436
 20
-1551.2350595014987
 10
871.50706708998837
 20
-1551.1084783938782
 42
0.0015170975153341
 10
871.62825366841128
 20
-1550.6966100423513
 42
-0.0004887993109646
 10
871.74859344156391
 20
-1550.2844916302085
 10
871.82507069902954
 20
-1550.0235342443682
 42
0.0002583378929731
 10
872.09828526914396
 20
-1549.0894775410172
 10
872.18005811867783
 20
-1548.8093782815806
 42
0.000663616967027
 10
872.37392587868169
 20
-1548.1420253580193
 10
872.37902253304242
 20
-1548.1243937750919
 42
0.0010589131324507
 10
872.56047123394535
 20
-1547.4916624320904
 10
872.56545330441156
 20
-1547.4741495251205
 42
0.0015655524459887
 10
872.73372351160856
 20
-1546.8755328458694
 10
872.73855371201387
 20
-1546.8581406869685
 42
0.0021640440475683
 10
872.89284368400968
 20
-1546.2931136689153
 10
872.89747790345189
 20
-1546.2758489388757
 42
0.0028763871855645
 10
873.03699362149246
 20
-1545.7438809880744
 10
873.0413794856596
 20
-1545.72675700992
 42
0.0037310511950606
 10
873.16533617749656
 20
-1545.2273094158961
 10
873.16941139778442
 20
-1545.2103491446553
 42
0.0047652197773692
 10
873.27703529829409
 20
-1544.7428713763456
 10
873.28072589761655
 20
-1544.7261118211998
 42
0.0060276699297555
 10
873.3712559967712
 20
-1544.2900360260514
 10
873.37447468705943
 20
-1544.2735348117467
 42
0.0075824337753649
 10
873.44716399647575
 20
-1543.8682676473161
 10
873.44980937385571
 20
-1543.8521126998673
 42
0.0095130624606844
 10
873.50392460948729
 20
-1543.4770233467937
 10
873.51091083336951
 20
-1543.4210897886794
 42
0.0121054653222119
 10
873.53750216394769
 20
-1543.1561939602032
 10
873.53836865370693
 20
-1543.1447905172784
 42
0.0069050827383434
 10
873.55345747174488
 20
-1542.9018492904299
 10
873.55459277141392
 20
-1542.8783230333747
 42
0.0169063976710682
 10
873.55742005039383
 20
-1542.6821303060844
 10
873.55624939886252
 20
-1542.6217945447338
 42
0.0052007732890565
 10
873.5539959502695
 20
-1542.5462011545833
 42
0.0054038123306446
 10
873.53403243842877
 20
-1542.4261828585627
 10
873.52894658256014
 20
-1542.3975243719922
 42
0.0112050460467149
 10
873.49356222050051
 20
-1542.2211979336475
 10
873.47573725846109
 20
-1542.1416563469322
 42
0.0240764468011746
 10
873.38483989231429
 20
-1541.8114193114293
 10
873.36628112950154
 20
-1541.7547991464376
 42
0.0256812331835806
 10
873.22291820931196
 20
-1541.3830749401798
 10
873.21750878349064
 20
-1541.3709436051902
 42
0.0268360501210633
 10
873.0480815426406
 20
-1541.039950471169
 10
873.04254513500564
 20
-1541.0304308008569
 42
0.0274670231730842
 10
872.85034415859218
 20
-1540.7381434259396
 10
872.84496285862986
 20
-1540.7308642783985
 42
0.0275035967101222
 10
872.63338997906772
 20
-1540.4753483880943
 10
872.6283204781007
 20
-1540.4698693004634
 42
0.0269557673527971
 10
872.40091693466161
 20
-1540.2492270145015
 10
872.39617387687815
 20
-1540.2450970600401
 42
0.0259124802214785
 10
872.15661904544822
 20
-1540.0574065328883
 10
872.15208820026658
 20
-1540.0542210305582
 42
0.024516215300286
 10
871.9041718471716
 20
-1539.8974880214475
 10
871.89964530084649
 20
-1539.8949278242462
 42
0.0229282588843482
 10
871.64722574402003
 20
-1539.7670596317478
 10
871.6424452501825
 20
-1539.7649073319853
 42
0.0212984135693552
 10
871.38940729772162
 20
-1539.6637084147435
 10
871.38410301274848
 20
-1539.6618448519823
 42
0.0197555462352688
 10
871.13432467502912
 20
-1539.5850294340187
 42
0.018351189678642
 10
870.87939594956674
 20
-1539.5274465270536
 10
870.79303075284474
 20
-1539.5112437366686
 42
0.0338057877142024
 10
870.50752340358258
 20
-1539.4774353315279
 10
870.41651799853503
 20
-1539.4728556762661
 42
0.0091990524503628
 10
870.31067088990665
 20
-1539.4694798203443
 42
0.0028333980787621
 10
870.20475697391578
 20
-1539.4686517128278
 10
870.20384152086444
 20
-1539.4686497430037
 42
-0.0023619827816497
 10
870.09609550573998
 20
-1539.4679089019248
 10
870.05969033558267
 20
-1539.4674865954621
 42
0.0008824598481131
 10
869.87913434572749
 20
-1539.4657108172237
 10
869.83527291332678
 20
-1539.4653568556982
 42
0.0038132665768183
 10
869.56699001745096
 20
-1539.4652379196318
 10
869.55045636265447
 20
-1539.4653566857753
 42
0.0060665569333383
 10
869.2491758710737
 20
-1539.4711769851958
 10
869.23492553903782
 20
-1539.4716252931637
 42
0.0080356953336834
 10
868.90546682269951
 20
-1539.4872930152305
 10
868.89339680761134
 20
-1539.488061598171
 42
0.0098996399106738
 10
868.54063372295889
 20
-1539.5175468273694
 10
868.53058801358577
 20
-1539.5185871235674
 42
0.0117740981370068
 10
868.15943115523316
 20
-1539.5658793710979
 10
868.15120845875447
 20
-1539.567124487668
 42
0.0137435215134772
 10
867.76661963927006
 20
-1539.6362214612295
 10
867.75996260014608
 20
-1539.6376073574631
 42
0.0158359869386708
 10
867.36696550634394
 20
-1539.7324994459436
 10
867.36155231947646
 20
-1539.7339893868143
 42
0.0180554124029054
 10
866.96523727486181
 20
-1539.8586274030538
 10
866.96068048678057
 20
-1539.8602434393194
 42
0.0203657431281143
 10
866.56620296896972
 20
-1540.0185037808349
 10
866.56205942996189
 20
-1540.0203654022771
 42
0.02268196846586
 10
866.17462337375889
 20
-1540.2160079809478
 10
866.17042358274011
 20
-1540.2183735728679
 42
0.0248634984601602
 10
865.79524164156135
 20
-1540.4550002188134
 10
865.74704671277368
 20
-1540.4888572606417
 42
0.0267044190890173
 10
865.47275401585841
 20
-1540.704297636509
 42
0.013930300219778
 10
865.21658684991814
 20
-1540.9415364774225
 10
865.21173346419869
 20
-1540.9462891402811
 42
0.0283460963444501
 10
864.96766086997013
 20
-1541.2140198007276
 10
864.92799236481494
 20
-1541.2628213781991
 42
0.0070695364826246
 10
864.85055513895509
 20
-1541.3608881941645
 42
0.0070695364826246
  0
LWPOLYLINE
  5
5C
100
AcDbEntity
  8
0
370
              15
390
0
  6
Continuous
 62
               7
100
AcDbPolyline
 90
      226
 70
             128
 10
861.32173470170869
 20
-1557.0824770003487
 42
-0.0026277636621739
 10
861.32165681790866
 20
-1557.0157050746027
 10
861.32187417614068
 20
-1556.9625498571625
 42
-0.0088680296726748
 10
861.32565079243386
 20
-1556.7895340747559
 10
861.32799715154624
 20
-1556.7302540493058
 42
-0.0077381705615397
 10
861.34404326230958
 20
-1556.4389935535046
 10
861.34491117348239
 20
-1556.4267053198225
 42
-0.0068872530527884
 10
861.37154325323093
 20
-1556.111483567749
 10
861.37274747741662
 20
-1556.0992425887348
 42
-0.0062130021490771
 10
861.4103411942441
 20
-1555.7603728974996
 10
861.41184509777963
 20
-1555.7481990255797
 42
-0.0056726929669289
 10
861.46076695728243
 20
-1555.3860038034625
 10
861.46254040292627
 20
-1555.373910003221
 42
-0.0052341884496492
 10
861.523150989187
 20
-1554.9887167476988
 10
861.52516897796295
 20
-1554.9767118177108
 42
-0.0049768450168675
 10
861.59790765938931
 20
-1554.5688672502781
 10
861.62215667411101
 20
-1554.4403192672721
 42
-0.0089029805627192
 10
861.75923752590597
 20
-1553.7785438198489
 10
861.79198290122429
 20
-1553.6335123893261
 42
-0.0080318257098581
 10
862.02153151556399
 20
-1552.6878027574767
 10
862.03351644201325
 20
-1552.6416721222824
 42
-0.0074265721319805
 10
862.3175279808604
 20
-1551.6116075439113
 10
862.3374075239775
 20
-1551.5434734833204
 42
-0.0069711922702056
 10
862.66471210248653
 20
-1550.4772057429846
 10
862.72466404959221
 20
-1550.2911843846134
 42
-0.005207042289533
 10
862.95408927485141
 20
-1549.6039123075825
 10
862.9713704670221
 20
-1549.5538850269697
 42
-0.0009167004450285
 10
863.17446235431294
 20
-1548.9694291788114
 42
-0.0025162726943738
 10
863.38155998457989
 20
-1548.386387914637
 10
863.4187845963886
 20
-1548.2832383687223
 42
-0.0028212681457385
 10
863.66696051534404
 20
-1547.6075077365724
 10
863.67679127809208
 20
-1547.5812002919026
 42
-0.0031964916823738
 10
863.9130835357571
 20
-1546.9609955297688
 10
863.92271798976049
 20
-1546.9361855396141
 42
-0.0036281836451793
 10
864.14782395085729
 20
-1546.3687448587323
 10
864.15726236102046
 20
-1546.3454474272153
 42
-0.0041269166833573
 10
864.37188005767393
 20
-1545.828006531251
 10
864.40451301409337
 20
-1545.7511280848933
 42
-0.0047472213057821
 10
864.56155781964833
 20
-1545.3907066170066
 10
864.5684519008588
 20
-1545.3752860196694
 42
-0.002565165999499
 10
864.7168099347067
 20
-1545.0479579639261
 42
-0.005714463499223
 10
864.87055962847558
 20
-1544.7231482905688
 10
864.89859033387916
 20
-1544.6656399081699
 42
-0.006538806837524
 10
865.08205736161904
 20
-1544.3014074115044
 10
865.09051581739732
 20
-1544.2851478321352
 42
-0.007451084302285
 10
865.26669806327538
 20
-1543.9584595510123
 10
865.27487773380244
 20
-1543.9438187737505
 42
-0.0084648979859805
 10
865.4445115869064
 20
-1543.6519097627825
 10
865.45236771339853
 20
-1543.638902771125
 42
-0.0095638542798024
 10
865.61620316098879
 20
-1543.3790138991531
 10
865.62367810465855
 20
-1543.3676445377007
 42
-0.0107191626806578
 10
865.78247968504809
 20
-1543.1370333031534
 10
865.78949641878012
 20
-1543.1272972107874
 42
-0.0118458573905475
 10
865.94404451729167
 20
-1542.923225015478
 42
-0.0129184518188732
 10
866.10849714089159
 20
-1542.7270644993096
 10
866.13864191325308
 20
-1542.6929384204118
 42
-0.021774257963616
 10
866.31525423559174
 20
-1542.5097316501581
 10
866.32599978004578
 20
-1542.4995148169612
 42
-0.0097266568659184
 10
866.49205739890772
 20
-1542.3476672425177
 42
-0.0187720905723638
 10
866.66640497479193
 20
-1542.2055983891325
 10
866.69711096546951
 20
-1542.1824393067338
 42
-0.0179428207521142
 10
866.92953168546762
 20
-1542.0198871296207
 10
866.93318401238639
 20
-1542.017523194731
 42
-0.0170047877696732
 10
867.16894764991378
 20
-1541.8760626805815
 10
867.17273063866037
 20
-1541.8739643755453
 42
-0.0160190788363355
 10
867.40963918629564
 20
-1541.7523130735572
 42
-0.0151102861494719
 10
867.65367096874229
 20
-1541.6456302975025
 10
867.70605747095408
 20
-1541.6245901646078
 42
-0.0271945441887118
 10
868.06472003001272
 20
-1541.5027253539017
 10
868.13378483050212
 20
-1541.4833758126349
 42
-0.0237596594021573
 10
868.54958167752284
 20
-1541.387925100654
 10
868.6176445312542
 20
-1541.3756704125271
 42
-0.0213715440552134
 10
868.90351946269857
 20
-1541.3367233810175
 10
868.96366662890989
 20
-1541.3311336663171
 42
-0.0101465655816508
 10
869.13115916091078
 20
-1541.3189901230523
 10
869.14049954710845
 20
-1541.3185032080551
 42
-0.0100375910882296
 10
869.28965364767157
 20
-1541.3137273901298
 10
869.29991291735132
 20
-1541.3136049511154
 42
-0.0103625633382641
 10
869.42862091200686
 20
-1541.3147363846419
 10
869.45088656326675
 20
-1541.3153937431066
 42
-0.0115689250247964
 10
869.53493730080163
 20
-1541.3198232493521
 42
-0.007243803741345
 10
869.61877558025174
 20
-1541.3274124491027
 10
869.6355760897136
 20
-1541.3291789918258
 42
-0.0217917313133523
 10
869.7521458530274
 20
-1541.3465988845469
 10
869.81774594359706
 20
-1541.3593454929617
 42
-0.0332943556756996
 10
870.02213810862236
 20
-1541.4133857842683
 10
870.05231067717477
 20
-1541.4235538613875
 42
-0.0184824084791287
 10
870.19081573363769
 20
-1541.4760048767732
 42
-0.0198002050704716
 10
870.32489007413642
 20
-1541.5388889369722
 10
870.32677671151396
 20
-1541.5398667238524
 42
-0.0212242342974598
 10
870.45891565391469
 20
-1541.6156294626446
 10
870.4607309494595
 20
-1541.6167752648539
 42
-0.022609060579506
 10
870.58923485067999
 20
-1541.7062549084176
 10
870.5910792924185
 20
-1541.7076671614059
 42
-0.0238457052240698
 10
870.71426137371236
 20
-1541.811663057269
 10
870.71621410227056
 20
-1541.8134779350344
 42
-0.024816056415464
 10
870.8324156095706
 20
-1541.9327525362423
 10
870.83451924297333
 20
-1541.9351378699475
 42
-0.0254109591455327
 10
870.9421244608385
 20
-1542.0704262559107
 10
870.94437248275335
 20
-1542.0735678043125
 42
-0.0255528488282127
 10
871.04181916155028
 20
-1542.2255948585466
 10
871.04415026146648
 20
-1542.2296764701543
 42
-0.02521467932234
 10
871.12993128747519
 20
-1542.3991787161501
 10
871.13223352663329
 20
-1542.4043607980641
 42
-0.0244265635952402
 10
871.20488822039454
 20
-1542.5921073701102
 10
871.21413462186263
 20
-1542.6199727884471
 42
-0.0231319612893884
 10
871.2600574008552
 20
-1542.7832738352504
 42
-0.0112130424351522
 10
871.29469342339394
 20
-1542.9494774354416
 10
871.29589594850586
 20
-1542.9559740223262
 42
-0.0210527881232384
 10
871.32158242387709
 20
-1543.1370296677696
 10
871.32509301869868
 20
-1543.1724352163146
 42
-0.0190029892415675
 10
871.34053449224325
 20
-1543.4259710625881
 10
871.34134446868723
 20
-1543.461446676956
 42
-0.0137974553661921
 10
871.33979561585159
 20
-1543.7864780836901
 10
871.33895016089593
 20
-1543.8125968282891
 42
-0.0081336634212888
 10
871.32409082567358
 20
-1544.1179442958814
 42
-0.0073526923566674
 10
871.29978229229937
 20
-1544.4226925401626
 10
871.29852086851622
 20
-1544.4360292148326
 42
-0.0066886138692244
 10
871.26278528247019
 20
-1544.7666152583265
 10
871.26112819299988
 20
-1544.7802368773214
 42
-0.0061359187355664
 10
871.21327759095038
 20
-1545.1370008574115
 10
871.21124008987613
 20
-1545.1508956602506
 42
-0.005669861006553
 10
871.15058975910904
 20
-1545.5341742290884
 10
871.14818432578591
 20
-1545.5483333483194
 42
-0.0052721077276154
 10
871.07405212498986
 20
-1545.9584606879789
 10
871.07128897614461
 20
-1545.9728773233833
 42
-0.0049289272176404
 10
870.98299485804296
 20
-1546.4101858345134
 10
870.97988236336209
 20
-1546.4248546873214
 42
-0.0047415956713869
 10
870.87664437183048
 20
-1546.8896514447283
 10
870.84187616146994
 20
-1547.0394585401152
 42
-0.0084404470903133
 10
870.65185971789776
 20
-1547.7996825646474
 10
870.64573302991244
 20
-1547.8225466887998
 42
-0.0039635940258763
 10
870.4242793456275
 20
-1548.6235355530505
 10
870.4109025504489
 20
-1548.6704671696391
 42
-0.0072475040838228
 10
870.14345566258407
 20
-1549.559686886035
 10
870.0732433357598
 20
-1549.7814272359974
 42
-0.0051345458828626
 10
869.78648396369954
 20
-1550.6557524238124
 10
869.76495769693884
 20
-1550.7191786909225
 42
-0.0019150016602721
 10
869.50942429006534
 20
-1551.4627278111684
 10
869.50295668567765
 20
-1551.4813152760651
 42
-0.0021524362752204
 10
869.25447863460522
 20
-1552.185641097798
 10
869.2452682139118
 20
-1552.2113946760908
 42
-0.0024331286823978
 10
869.00901295487279
 20
-1552.8619939842176
 10
868.999965002316
 20
-1552.8865372905889
 42
-0.0027449721789486
 10
868.77535043148691
 20
-1553.4856671694963
 10
868.76646042409118
 20
-1553.5089897593577
 42
-0.0031083229767954
 10
868.55291793748472
 20
-1554.0589137969282
 10
868.54418180580774
 20
-1554.0810035127897
 42
-0.0035311343282345
 10
868.3411406202174
 20
-1554.5839866385161
 10
868.33255528106645
 20
-1554.6048293620343
 42
-0.004024564094886
 10
868.13944347727522
 20
-1555.0631386846189
 10
868.13100736367267
 20
-1555.0827180526899
 42
-0.0046015135851176
 10
867.9472510705084
 20
-1555.4986230823333
 10
867.9389648926857
 20
-1555.516920221773
 42
-0.0052768638272709
 10
867.7639873737246
 20
-1555.8926931060557
 10
867.75585516309923
 20
-1555.9096864445958
 42
-0.0060672675642225
 10
867.5890755503317
 20
-1556.2476020677132
 10
867.58110606985213
 20
-1556.2632673267067
 42
-0.0069904648869489
 10
867.42193767584854
 20
-1556.565603133374
 10
867.41414627623988
 20
-1556.5799136825974
 42
-0.0080637022770082
 10
867.26199441589188
 20
-1556.8489489857543
 10
867.25440538326109
 20
-1556.8618768513543
 42
-0.00930064556712
 10
867.1086647067292
 20
-1557.0998912498583
 10
867.10131403998196
 20
-1557.1114092190371
 42
-0.0107060778046848
 10
866.96136549654716
 20
-1557.3206795364106
 10
866.95430372826422
 20
-1557.3307650789814
 42
-0.0122723111405361
 10
866.81951001006928
 20
-1557.5135584084653
 10
866.81918378652006
 20
-1557.5139787962687
 42
-0.0141836319625915
 10
866.67560218354129
 20
-1557.6885485541045
 10
866.66865442789606
 20
-1557.6965235543616
 42
-0.0175957477218411
 10
866.52874825985464
 20
-1557.8461444427742
 42
-0.0080466359673575
 10
866.38128449483395
 20
-1557.9884669709163
 10
866.33524995030689
 20
-1558.0314874090166
 42
-0.0269600260388917
 10
866.0819697043238
 20
-1558.2438106675261
 10
866.0154025680248
 20
-1558.2937620821513
 42
-0.0178362839752248
 10
865.77545807837112
 20
-1558.460780008402
 10
865.76821310737296
 20
-1558.4654485206054
 42
-0.0174650732654393
 10
865.53187690992945
 20
-1558.606309485566
 42
-0.0169240130163779
 10
865.28641066406885
 20
-1558.7306017453448
 10
865.2404245085138
 20
-1558.7519637009107
 42
-0.0318883036844704
 10
864.8900736528949
 20
-1558.8883020104204
 10
864.82170811772835
 20
-1558.9100026308965
 42
-0.0284435909900922
 10
864.44565799143811
 20
-1559.0062200663708
 10
864.41049983094047
 20
-1559.0131136621992
 42
-0.0243909341010938
 10
864.0970563700206
 20
-1559.0588346932293
 10
864.04677564325289
 20
-1559.0636802401307
 42
-0.0196639292932654
 10
863.83118006572226
 20
-1559.0759285256445
 10
863.77935599455918
 20
-1559.0768317863813
 42
-0.0100501510682191
 10
863.66693271289455
 20
-1559.0765313880281
 10
863.63527285159
 20
-1559.0758103161436
 42
-0.0019752031139462
 10
863.58618051486906
 20
-1559.0744981559333
 10
863.58342021164435
 20
-1559.0744134641068
 42
0.0065378751973464
 10
863.5398436368921
 20
-1559.0736465728921
 42
-0.0167974694652962
 10
863.49631281395921
 20
-1559.0719866743659
 10
863.4922334746982
 20
-1559.071693663471
 42
-0.0081283276248997
 10
863.44067367695197
 20
-1559.0671466698323
 10
863.42893410308125
 20
-1559.0659187522547
 42
-0.0126703440179494
 10
863.35421580728666
 20
-1559.056183961183
 10
863.33142793961088
 20
-1559.0526257052679
 42
-0.0117852088427286
 10
863.21188895377577
 20
-1559.0310627101103
 10
863.15650850201553
 20
-1559.0197191698762
 42
-0.0251774592291838
 10
862.92966446300693
 20
-1558.9612211604431
 10
862.88494527315675
 20
-1558.9472543411082
 42
-0.014652519989087
 10
862.69855228561812
 20
-1558.8829878139099
 42
-0.0166929435859499
 10
862.51657462949504
 20
-1558.8071806808568
 10
862.51191799821822
 20
-1558.8050557802412
 42
-0.0191684358437685
 10
862.32673436697405
 20
-1558.7118196964541
 10
862.32340178121217
 20
-1558.709978448898
 42
-0.0221181781814239
 10
862.14009147730883
 20
-1558.5978449505267
 10
862.13774167330143
 20
-1558.5962606525363
 42
-0.0254984685387136
 10
861.96145152291626
 20
-1558.4638495025667
 10
861.93896937521413
 20
-1558.4450971936303
 42
-0.0292492648805148
 10
861.81420043637115
 20
-1558.3280043939872
 42
-0.0159048957498281
 10
861.70036043892117
 20
-1558.1999844023883
 10
861.69904164834179
 20
-1558.1984027893682
 42
-0.0343813379565887
 10
861.59640438671465
 20
-1558.0565314635976
 10
861.56491285535492
 20
-1558.0060280715049
 42
-0.0369117275706484
 10
861.47902035345737
 20
-1557.8425508305561
 42
-0.0191751379906472
 10
861.4118269679002
 20
-1557.6701462245499
 10
861.41006364414079
 20
-1557.6650528798752
 42
-0.0378178042234289
 10
861.36026892535665
 20
-1557.4761121037934
 10
861.35427362962662
 20
-1557.4435514855984
 42
-0.0184846046481795
 10
861.33355643033201
 20
-1557.301798665052
 42
-0.0179866351324437
 10
861.32322342525822
 20
-1557.1589078519698
 10
861.3231669828125
 20
-1557.1573501653584
 42
-0.0085497186124142
 10
861.32173470170869
 20
-1557.0824770003487
 42
-0.0085497186124142
  0
ENDBLK
  5
5D
100
AcDbEntity
  8
template
390
0
100
AcDbBlockEnd
  0
BLOCK
  5
5E
100
AcDbEntity
  8
notes
390
0
100
AcDbBlockBegin
  2
*D3
 70
               1
 10
0.0
 20
0.0
 30
0.0
  3
*D3
  1

  0
LINE
  5
5F
100
AcDbEntity
  8
0
370
              -2
390
0
  6
Continuous
 62
               0
100
AcDbLine
 10
-167.39397778106695
 20
847.84219242685299
 30
0.0
 11
-167.39397778106695
 21
922.82454904564236
 31
0.0
  0
LINE
  5
60
100
AcDbEntity
  8
0
370
              -2
390
0
  6
Continuous
 62
               0
100
AcDbLine
 10
-707.42067356691234
 20
847.82199665003145
 30
0.0
 11
-707.42067356691234
 21
922.82454904564236
 31
0.0
  0
LINE
  5
61
100
AcDbEntity
  8
0
370
              -2
390
0
  6
Continuous
 62
               0
100
AcDbLine
 10
-167.39397778106695
 20
922.82454904564236
 30
0.0
 11
-707.42067356691234
 21
922.82454904564236
 31
0.0
  0
CIRCLE
  5
62
102
{ACAD_REACTORS
330
63
102
}
100
AcDbEntity
  8
0
370
              -2
390
0
  6
Continuous
 62
               0
100
AcDbCircle
 10
-167.39397778106695
 20
922.82454904564236
 30
0.0
 40
1.9998779296875
  0
HATCH
  5
63
100
AcDbEntity
  8
0
370
              -2
390
0
  6
Continuous
 62
               0
100
AcDbHatch
 10
0.0
 20
0.0
 30
0.0
210
0.0
220
0.0
230
1.0
  2
SOLID
 70
               1
 71
               1
 91
        1
 92
        1
 93
        1
 72
               2
 10
-167.39397778106695
 20
922.82454904564236
 40
1.9998779296875
 50
0.0
 51
360.0
 73
               0
 97
        1
330
62
 75
               0
 76
               1
 98
        1
 10
0.0
 20
0.0
  0
CIRCLE
  5
64
102
{ACAD_REACTORS
330
65
102
}
100
AcDbEntity
  8
0
370
              -2
390
0
  6
Continuous
 62
               0
100
AcDbCircle
 10
-707.42067356691234
 20
922.82454904564236
 30
0.0
 40
1.9998779296875
  0
HATCH
  5
65
100
AcDbEntity
  8
0
370
              -2
390
0
  6
Continuous
 62
               0
100
AcDbHatch
 10
0.0
 20
0.0
 30
0.0
210
0.0
220
0.0
230
1.0
  2
SOLID
 70
               1
 71
               1
 91
        1
 92
        1
 93
        1
 72
               2
 10
-707.42067356691234
 20
922.82454904564236
 40
1.9998779296875
 50
0.0
 51
360.0
 73
               0
 97
        1
330
64
 75
               0
 76
               1
 98
        1
 10
0.0
 20
0.0
  0
MTEXT
  5
66
100
AcDbEntity
  8
0
390
0
 62
               0
100
AcDbMText
 10
-461.21982735616518
 20
956.70216623314241
 30
0.0
 40
24.432617187500004
 41
0.0
 71
               1
 72
               1
  1
540
  7
ＭＳ ゴシック
 73
               1
 44
0.7828267384257843
  0
POINT
  5
67
100
AcDbEntity
  8
Defpoints
370
               0
390
0
 62
               0
100
AcDbPoint
 10
-707.42067356691234
 20
822.82199665003145
 30
0.0
  0
POINT
  5
68
100
AcDbEntity
  8
Defpoints
370
               0
390
0
 62
               0
100
AcDbPoint
 10
-167.39397778106695
 20
822.84219242685299
 30
0.0
  0
POINT
  5
69
100
AcDbEntity
  8
Defpoints
370
               0
390
0
 62
               0
100
AcDbPoint
 10
-167.39397778106695
 20
922.82454904564236
 30
0.0
  0
ENDBLK
  5
6A
100
AcDbEntity
  8
notes
390
0
100
AcDbBlockEnd
  0
BLOCK
  5
6B
100
AcDbEntity
  8
notes
390
0
100
AcDbBlockBegin
  2
*D4
 70
               1
 10
0.0
 20
0.0
 30
0.0
  3
*D4
  1

  0
LINE
  5
6C
100
AcDbEntity
  8
0
370
              -2
390
0
  6
Continuous
 62
               0
100
AcDbLine
 10
219.38112302252785
 20
847.82398337189534
 30
0.0
 11
219.38112302252785
 21
922.82454904564236
 31
0.0
  0
LINE
  5
6D
100
AcDbEntity
  8
0
370
              -2
390
0
  6
Continuous
 62
               0
100
AcDbLine
 10
649.38112302252728
 20
847.82398337189534
 30
0.0
 11
649.38112302252728
 21
922.82454904564236
 31
0.0
  0
LINE
  5
6E
100
AcDbEntity
  8
0
370
              -2
390
0
  6
Continuous
 62
               0
100
AcDbLine
 10
219.38112302252785
 20
922.82454904564236
 30
0.0
 11
649.38112302252728
 21
922.82454904564236
 31
0.0
  0
CIRCLE
  5
6F
102
{ACAD_REACTORS
330
70
102
}
100
AcDbEntity
  8
0
370
              -2
390
0
  6
Continuous
 62
               0
100
AcDbCircle
 10
219.38112302252785
 20
922.82454904564236
 30
0.0
 40
1.9998779296875
  0
HATCH
  5
70
100
AcDbEntity
  8
0
370
              -2
390
0
  6
Continuous
 62
               0
100
AcDbHatch
 10
0.0
 20
0.0
 30
0.0
210
0.0
220
0.0
230
1.0
  2
SOLID
 70
               1
 71
               1
 91
        1
 92
        1
 93
        1
 72
               2
 10
219.38112302252785
 20
922.82454904564236
 40
1.9998779296875
 50
0.0
 51
360.0
 73
               0
 97
        1
330
6F
 75
               0
 76
               1
 98
        1
 10
0.0
 20
0.0
  0
CIRCLE
  5
71
102
{ACAD_REACTORS
330
72
102
}
100
AcDbEntity
  8
0
370
              -2
390
0
  6
Continuous
 62
               0
100
AcDbCircle
 10
649.38112302252728
 20
922.82454904564236
 30
0.0
 40
1.9998779296875
  0
HATCH
  5
72
100
AcDbEntity
  8
0
370
              -2
390
0
  6
Continuous
 62
               0
100
AcDbHatch
 10
0.0
 20
0.0
 30
0.0
210
0.0
220
0.0
230
1.0
  2
SOLID
 70
               1
 71
               1
 91
        1
 92
        1
 93
        1
 72
               2
 10
649.38112302252728
 20
922.82454904564236
 40
1.9998779296875
 50
0.0
 51
360.0
 73
               0
 97
        1
330
71
 75
               0
 76
               1
 98
        1
 10
0.0
 20
0.0
  0
MTEXT
  5
73
100
AcDbEntity
  8
0
390
0
 62
               0
100
AcDbMText
 10
410.56862134035202
 20
956.70216623314241
 30
0.0
 40
24.432617187500004
 41
0.0
 71
               1
 72
               1
  1
430
  7
ＭＳ ゴシック
 73
               1
 44
0.7828267384257843
  0
POINT
  5
74
100
AcDbEntity
  8
Defpoints
370
               0
390
0
 62
               0
100
AcDbPoint
 10
649.38112302252728
 20
822.82398337189534
 30
0.0
  0
POINT
  5
75
100
AcDbEntity
  8
Defpoints
370
               0
390
0
 62
               0
100
AcDbPoint
 10
219.38112302252785
 20
822.82398337189534
 30
0.0
  0
POINT
  5
76
100
AcDbEntity
  8
Defpoints
370
               0
390
0
 62
               0
100
AcDbPoint
 10
219.38112302252785
 20
922.82454904564236
 30
0.0
  0
ENDBLK
  5
77
100
AcDbEntity
  8
notes
390
0
100
AcDbBlockEnd
  0
BLOCK
  5
78
100
AcDbEntity
  8
notes
390
0
100
AcDbBlockBegin
  2
*D5
 70
               1
 10
0.0
 20
0.0
 30
0.0
  3
*D5
  1

  0
LINE
  5
79
100
AcDbEntity
  8
0
370
              -2
390
0
  6
Continuous
 62
               0
100
AcDbLine
 10
-732.42067356691234
 20
822.82199665003145
 30
0.0
 11
-857.42067356691234
 21
822.82199665003145
 31
0.0
  0
LINE
  5
7A
100
AcDbEntity
  8
0
370
              -2
390
0
  6
Continuous
 62
               0
100
AcDbLine
 10
-539.82789975468233
 20
402.82199665003304
 30
0.0
 11
-857.42067356691234
 21
402.82199665003304
 31
0.0
  0
LINE
  5
7B
100
AcDbEntity
  8
0
370
              -2
390
0
  6
Continuous
 62
               0
100
AcDbLine
 10
-857.42067356691234
 20
822.82199665003145
 30
0.0
 11
-857.42067356691234
 21
402.82199665003304
 31
0.0
  0
CIRCLE
  5
7C
102
{ACAD_REACTORS
330
7D
102
}
100
AcDbEntity
  8
0
370
              -2
390
0
  6
Continuous
 62
               0
100
AcDbCircle
 10
-857.42067356691234
 20
822.82199665003145
 30
0.0
 40
1.9998779296875
  0
HATCH
  5
7D
100
AcDbEntity
  8
0
370
              -2
390
0
  6
Continuous
 62
               0
100
AcDbHatch
 10
0.0
 20
0.0
 30
0.0
210
0.0
220
0.0
230
1.0
  2
SOLID
 70
               1
 71
               1
 91
        1
 92
        1
 93
        1
 72
               2
 10
-857.42067356691234
 20
822.82199665003145
 40
1.9998779296875
 50
0.0
 51
360.0
 73
               0
 97
        1
330
7C
 75
               0
 76
               1
 98
        1
 10
0.0
 20
0.0
  0
CIRCLE
  5
7E
102
{ACAD_REACTORS
330
7F
102
}
100
AcDbEntity
  8
0
370
              -2
390
0
  6
Continuous
 62
               0
100
AcDbCircle
 10
-857.42067356691234
 20
402.82199665003304
 30
0.0
 40
1.9998779296875
  0
HATCH
  5
7F
100
AcDbEntity
  8
0
370
              -2
390
0
  6
Continuous
 62
               0
100
AcDbHatch
 10
0.0
 20
0.0
 30
0.0
210
0.0
220
0.0
230
1.0
  2
SOLID
 70
               1
 71
               1
 91
        1
 92
        1
 93
        1
 72
               2
 10
-857.42067356691234
 20
402.82199665003304
 40
1.9998779296875
 50
0.0
 51
360.0
 73
               0
 97
        1
330
7E
 75
               0
 76
               1
 98
        1
 10
0.0
 20
0.0
  0
MTEXT
  5
80
100
AcDbEntity
  8
0
390
0
 62
               0
100
AcDbMText
 10
-891.29829075441239
 20
589.00949496785665
 30
0.0
 40
24.432617187500004
 41
0.0
 71
               1
 72
               1
  1
420
  7
ＭＳ ゴシック
 11
0.0
 21
1.0
 31
0.0
 73
               1
 44
0.7828267384257843
  0
POINT
  5
81
100
AcDbEntity
  8
Defpoints
370
               0
390
0
 62
               0
100
AcDbPoint
 10
-514.82789975468233
 20
402.82199665003304
 30
0.0
  0
POINT
  5
82
100
AcDbEntity
  8
Defpoints
370
               0
390
0
 62
               0
100
AcDbPoint
 10
-707.42067356691234
 20
822.82199665003145
 30
0.0
  0
POINT
  5
83
100
AcDbEntity
  8
Defpoints
370
               0
390
0
 62
               0
100
AcDbPoint
 10
-857.42067356691234
 20
822.82199665003145
 30
0.0
  0
ENDBLK
  5
84
100
AcDbEntity
  8
notes
390
0
100
AcDbBlockEnd
  0
BLOCK
  5
85
100
AcDbEntity
  8
notes
390
0
100
AcDbBlockBegin
  2
*D6
 70
               1
 10
0.0
 20
0.0
 30
0.0
  3
*D6
  1

  0
LINE
  5
86
100
AcDbEntity
  8
0
370
              -2
390
0
  6
Continuous
 62
               0
100
AcDbLine
 10
-732.42067356691234
 20
822.82199665003145
 30
0.0
 11
-807.42067356691234
 21
822.82199665003145
 31
0.0
  0
LINE
  5
87
100
AcDbEntity
  8
0
370
              -2
390
0
  6
Continuous
 62
               0
100
AcDbLine
 10
-732.39940679002336
 20
442.82322336302434
 30
0.0
 11
-807.42067356691234
 21
442.82322336302434
 31
0.0
  0
LINE
  5
88
100
AcDbEntity
  8
0
370
              -2
390
0
  6
Continuous
 62
               0
100
AcDbLine
 10
-807.42067356691234
 20
822.82199665003145
 30
0.0
 11
-807.42067356691234
 21
442.82322336302434
 31
0.0
  0
CIRCLE
  5
89
102
{ACAD_REACTORS
330
8A
102
}
100
AcDbEntity
  8
0
370
              -2
390
0
  6
Continuous
 62
               0
100
AcDbCircle
 10
-807.42067356691234
 20
822.82199665003145
 30
0.0
 40
1.9998779296875
  0
HATCH
  5
8A
100
AcDbEntity
  8
0
370
              -2
390
0
  6
Continuous
 62
               0
100
AcDbHatch
 10
0.0
 20
0.0
 30
0.0
210
0.0
220
0.0
230
1.0
  2
SOLID
 70
               1
 71
               1
 91
        1
 92
        1
 93
        1
 72
               2
 10
-807.42067356691234
 20
822.82199665003145
 40
1.9998779296875
 50
0.0
 51
360.0
 73
               0
 97
        1
330
89
 75
               0
 76
               1
 98
        1
 10
0.0
 20
0.0
  0
CIRCLE
  5
8B
102
{ACAD_REACTORS
330
8C
102
}
100
AcDbEntity
  8
0
370
              -2
390
0
  6
Continuous
 62
               0
100
AcDbCircle
 10
-807.42067356691234
 20
442.82322336302434
 30
0.0
 40
1.9998779296875
  0
HATCH
  5
8C
100
AcDbEntity
  8
0
370
              -2
390
0
  6
Continuous
 62
               0
100
AcDbHatch
 10
0.0
 20
0.0
 30
0.0
210
0.0
220
0.0
230
1.0
  2
SOLID
 70
               1
 71
               1
 91
        1
 92
        1
 93
        1
 72
               2
 10
-807.42067356691234
 20
442.82322336302434
 40
1.9998779296875
 50
0.0
 51
360.0
 73
               0
 97
        1
330
8B
 75
               0
 76
               1
 98
        1
 10
0.0
 20
0.0
  0
MTEXT
  5
8D
100
AcDbEntity
  8
0
390
0
 62
               0
100
AcDbMText
 10
-841.29829075441239
 20
609.01010832435236
 30
0.0
 40
24.432617187500004
 41
0.0
 71
               1
 72
               1
  1
380
  7
ＭＳ ゴシック
 11
0.0
 21
1.0
 31
0.0
 73
               1
 44
0.7828267384257843
  0
POINT
  5
8E
100
AcDbEntity
  8
Defpoints
370
               0
390
0
 62
               0
100
AcDbPoint
 10
-707.39940679002336
 20
442.82322336302434
 30
0.0
  0
POINT
  5
8F
100
AcDbEntity
  8
Defpoints
370
               0
390
0
 62
               0
100
AcDbPoint
 10
-707.42067356691234
 20
822.82199665003145
 30
0.0
  0
POINT
  5
90
100
AcDbEntity
  8
Defpoints
370
               0
390
0
 62
               0
100
AcDbPoint
 10
-807.42067356691234
 20
822.82199665003145
 30
0.0
  0
ENDBLK
  5
91
100
AcDbEntity
  8
notes
390
0
100
AcDbBlockEnd
  0
BLOCK
  5
92
100
AcDbEntity
  8
notes
390
0
100
AcDbBlockBegin
  2
*D7
 70
               1
 10
0.0
 20
0.0
 30
0.0
  3
*D7
  1

  0
LINE
  5
93
100
AcDbEntity
  8
0
370
              -2
390
0
  6
Continuous
 62
               0
100
AcDbLine
 10
-652.42067356691234
 20
-367.02266986728125
 30
0.0
 11
-796.49397778106754
 21
-367.02266986728125
 31
0.0
  0
LINE
  5
94
100
AcDbEntity
  8
0
370
              -2
390
0
  6
Continuous
 62
               0
100
AcDbLine
 10
-712.42067356691234
 20
-307.02266986728046
 30
0.0
 11
-796.49397778106754
 21
-307.02266986728046
 31
0.0
  0
LINE
  5
95
100
AcDbEntity
  8
0
370
              -2
390
0
  6
Continuous
 62
               0
100
AcDbLine
 10
-796.49397778106754
 20
-367.02266986728125
 30
0.0
 11
-796.49397778106754
 21
-307.02266986728046
 31
0.0
  0
CIRCLE
  5
96
102
{ACAD_REACTORS
330
97
102
}
100
AcDbEntity
  8
0
370
              -2
390
0
  6
Continuous
 62
               0
100
AcDbCircle
 10
-796.49397778106754
 20
-367.02266986728125
 30
0.0
 40
1.9998779296875
  0
HATCH
  5
97
100
AcDbEntity
  8
0
370
              -2
390
0
  6
Continuous
 62
               0
100
AcDbHatch
 10
0.0
 20
0.0
 30
0.0
210
0.0
220
0.0
230
1.0
  2
SOLID
 70
               1
 71
               1
 91
        1
 92
        1
 93
        1
 72
               2
 10
-796.49397778106754
 20
-367.02266986728125
 40
1.9998779296875
 50
0.0
 51
360.0
 73
               0
 97
        1
330
96
 75
               0
 76
               1
 98
        1
 10
0.0
 20
0.0
  0
CIRCLE
  5
98
102
{ACAD_REACTORS
330
99
102
}
100
AcDbEntity
  8
0
370
              -2
390
0
  6
Continuous
 62
               0
100
AcDbCircle
 10
-796.49397778106754
 20
-307.02266986728046
 30
0.0
 40
1.9998779296875
  0
HATCH
  5
99
100
AcDbEntity
  8
0
370
              -2
390
0
  6
Continuous
 62
               0
100
AcDbHatch
 10
0.0
 20
0.0
 30
0.0
210
0.0
220
0.0
230
1.0
  2
SOLID
 70
               1
 71
               1
 91
        1
 92
        1
 93
        1
 72
               2
 10
-796.49397778106754
 20
-307.02266986728046
 40
1.9998779296875
 50
0.0
 51
360.0
 73
               0
 97
        1
330
98
 75
               0
 76
               1
 98
        1
 10
0.0
 20
0.0
  0
MTEXT
  5
9A
100
AcDbEntity
  8
0
390
0
 62
               0
100
AcDbMText
 10
-830.37159496856759
 20
-352.8976698672808
 30
0.0
 40
24.432617187500004
 41
0.0
 71
               1
 72
               1
  1
60
  7
ＭＳ ゴシック
 11
0.0
 21
1.0
 31
0.0
 73
               1
 44
0.7828267384257843
  0
POINT
  5
9B
100
AcDbEntity
  8
Defpoints
370
               0
390
0
 62
               0
100
AcDbPoint
 10
-687.42067356691234
 20
-307.02266986728046
 30
0.0
  0
POINT
  5
9C
100
AcDbEntity
  8
Defpoints
370
               0
390
0
 62
               0
100
AcDbPoint
 10
-627.42067356691234
 20
-367.02266986728125
 30
0.0
  0
POINT
  5
9D
100
AcDbEntity
  8
Defpoints
370
               0
390
0
 62
               0
100
AcDbPoint
 10
-796.49397778106754
 20
-367.02266986728125
 30
0.0
  0
ENDBLK
  5
9E
100
AcDbEntity
  8
notes
390
0
100
AcDbBlockEnd
  0
BLOCK
  5
9F
100
AcDbEntity
  8
notes
390
0
100
AcDbBlockBegin
  2
*D8
 70
               1
 10
0.0
 20
0.0
 30
0.0
  3
*D8
  1

  0
LINE
  5
A0
100
AcDbEntity
  8
0
370
              -2
390
0
  6
Continuous
 62
               0
100
AcDbLine
 10
-167.42067356691177
 20
-282.02266986728046
 30
0.0
 11
-167.42067356691177
 21
-157.02266986728046
 31
0.0
  0
LINE
  5
A1
100
AcDbEntity
  8
0
370
              -2
390
0
  6
Continuous
 62
               0
100
AcDbLine
 10
-707.42067356691234
 20
-282.02266986728046
 30
0.0
 11
-707.42067356691234
 21
-157.02266986728046
 31
0.0
  0
LINE
  5
A2
100
AcDbEntity
  8
0
370
              -2
390
0
  6
Continuous
 62
               0
100
AcDbLine
 10
-167.42067356691177
 20
-157.02266986728046
 30
0.0
 11
-707.42067356691234
 21
-157.02266986728046
 31
0.0
  0
CIRCLE
  5
A3
102
{ACAD_REACTORS
330
A4
102
}
100
AcDbEntity
  8
0
370
              -2
390
0
  6
Continuous
 62
               0
100
AcDbCircle
 10
-167.42067356691177
 20
-157.02266986728046
 30
0.0
 40
1.9998779296875
  0
HATCH
  5
A4
100
AcDbEntity
  8
0
370
              -2
390
0
  6
Continuous
 62
               0
100
AcDbHatch
 10
0.0
 20
0.0
 30
0.0
210
0.0
220
0.0
230
1.0
  2
SOLID
 70
               1
 71
               1
 91
        1
 92
        1
 93
        1
 72
               2
 10
-167.42067356691177
 20
-157.02266986728046
 40
1.9998779296875
 50
0.0
 51
360.0
 73
               0
 97
        1
330
A3
 75
               0
 76
               1
 98
        1
 10
0.0
 20
0.0
  0
CIRCLE
  5
A5
102
{ACAD_REACTORS
330
A6
102
}
100
AcDbEntity
  8
0
370
              -2
390
0
  6
Continuous
 62
               0
100
AcDbCircle
 10
-707.42067356691234
 20
-157.02266986728046
 30
0.0
 40
1.9998779296875
  0
HATCH
  5
A6
100
AcDbEntity
  8
0
370
              -2
390
0
  6
Continuous
 62
               0
100
AcDbHatch
 10
0.0
 20
0.0
 30
0.0
210
0.0
220
0.0
230
1.0
  2
SOLID
 70
               1
 71
               1
 91
        1
 92
        1
 93
        1
 72
               2
 10
-707.42067356691234
 20
-157.02266986728046
 40
1.9998779296875
 50
0.0
 51
360.0
 73
               0
 97
        1
330
A5
 75
               0
 76
               1
 98
        1
 10
0.0
 20
0.0
  0
MTEXT
  5
A7
100
AcDbEntity
  8
0
390
0
 62
               0
100
AcDbMText
 10
-461.23317524908759
 20
-123.14505267978046
 30
0.0
 40
24.432617187500004
 41
0.0
 71
               1
 72
               1
  1
540
  7
ＭＳ ゴシック
 73
               1
 44
0.7828267384257843
  0
POINT
  5
A8
100
AcDbEntity
  8
Defpoints
370
               0
390
0
 62
               0
100
AcDbPoint
 10
-707.42067356691234
 20
-307.02266986728046
 30
0.0
  0
POINT
  5
A9
100
AcDbEntity
  8
Defpoints
370
               0
390
0
 62
               0
100
AcDbPoint
 10
-167.42067356691177
 20
-307.02266986728046
 30
0.0
  0
POINT
  5
AA
100
AcDbEntity
  8
Defpoints
370
               0
390
0
 62
               0
100
AcDbPoint
 10
-167.42067356691177
 20
-157.02266986728046
 30
0.0
  0
ENDBLK
  5
AB
100
AcDbEntity
  8
notes
390
0
100
AcDbBlockEnd
  0
BLOCK
  5
AC
100
AcDbEntity
  8
notes
390
0
100
AcDbBlockBegin
  2
*D9
 70
               1
 10
0.0
 20
0.0
 30
0.0
  3
*D9
  1

  0
LINE
  5
AD
100
AcDbEntity
  8
0
370
              -2
390
0
  6
Continuous
 62
               0
100
AcDbLine
 10
-707.42067356691234
 20
-282.02266986728046
 30
0.0
 11
-707.42067356691234
 21
-207.02266986728046
 31
0.0
  0
LINE
  5
AE
100
AcDbEntity
  8
0
370
              -2
390
0
  6
Continuous
 62
               0
100
AcDbLine
 10
-607.42067356691234
 20
-282.02266986728046
 30
0.0
 11
-607.42067356691234
 21
-207.02266986728046
 31
0.0
  0
LINE
  5
AF
100
AcDbEntity
  8
0
370
              -2
390
0
  6
Continuous
 62
               0
100
AcDbLine
 10
-707.42067356691234
 20
-207.02266986728046
 30
0.0
 11
-607.42067356691234
 21
-207.02266986728046
 31
0.0
  0
CIRCLE
  5
B0
102
{ACAD_REACTORS
330
B1
102
}
100
AcDbEntity
  8
0
370
              -2
390
0
  6
Continuous
 62
               0
100
AcDbCircle
 10
-707.42067356691234
 20
-207.02266986728046
 30
0.0
 40
1.9998779296875
  0
HATCH
  5
B1
100
AcDbEntity
  8
0
370
              -2
390
0
  6
Continuous
 62
               0
100
AcDbHatch
 10
0.0
 20
0.0
 30
0.0
210
0.0
220
0.0
230
1.0
  2
SOLID
 70
               1
 71
               1
 91
        1
 92
        1
 93
        1
 72
               2
 10
-707.42067356691234
 20
-207.02266986728046
 40
1.9998779296875
 50
0.0
 51
360.0
 73
               0
 97
        1
330
B0
 75
               0
 76
               1
 98
        1
 10
0.0
 20
0.0
  0
CIRCLE
  5
B2
102
{ACAD_REACTORS
330
B3
102
}
100
AcDbEntity
  8
0
370
              -2
390
0
  6
Continuous
 62
               0
100
AcDbCircle
 10
-607.42067356691234
 20
-207.02266986728046
 30
0.0
 40
1.9998779296875
  0
HATCH
  5
B3
100
AcDbEntity
  8
0
370
              -2
390
0
  6
Continuous
 62
               0
100
AcDbHatch
 10
0.0
 20
0.0
 30
0.0
210
0.0
220
0.0
230
1.0
  2
SOLID
 70
               1
 71
               1
 91
        1
 92
        1
 93
        1
 72
               2
 10
-607.42067356691234
 20
-207.02266986728046
 40
1.9998779296875
 50
0.0
 51
360.0
 73
               0
 97
        1
330
B2
 75
               0
 76
               1
 98
        1
 10
0.0
 20
0.0
  0
MTEXT
  5
B4
100
AcDbEntity
  8
0
390
0
 62
               0
100
AcDbMText
 10
-681.23317524908782
 20
-173.14505267978046
 30
0.0
 40
24.432617187500004
 41
0.0
 71
               1
 72
               1
  1
100
  7
ＭＳ ゴシック
 73
               1
 44
0.7828267384257843
  0
POINT
  5
B5
100
AcDbEntity
  8
Defpoints
370
               0
390
0
 62
               0
100
AcDbPoint
 10
-607.42067356691234
 20
-307.02266986728046
 30
0.0
  0
POINT
  5
B6
100
AcDbEntity
  8
Defpoints
370
               0
390
0
 62
               0
100
AcDbPoint
 10
-707.42067356691234
 20
-307.02266986728046
 30
0.0
  0
POINT
  5
B7
100
AcDbEntity
  8
Defpoints
370
               0
390
0
 62
               0
100
AcDbPoint
 10
-707.42067356691234
 20
-207.02266986728046
 30
0.0
  0
ENDBLK
  5
B8
100
AcDbEntity
  8
notes
390
0
100
AcDbBlockEnd
  0
BLOCK
  5
B9
100
AcDbEntity
  8
notes
390
0
100
AcDbBlockBegin
  2
*D10
 70
               1
 10
0.0
 20
0.0
 30
0.0
  3
*D10
  1

  0
LINE
  5
BA
100
AcDbEntity
  8
0
370
              -2
390
0
  6
Continuous
 62
               0
100
AcDbLine
 10
-167.42067356691177
 20
-282.02266986728046
 30
0.0
 11
-167.42067356691177
 21
-207.02266986728046
 31
0.0
  0
LINE
  5
BB
100
AcDbEntity
  8
0
370
              -2
390
0
  6
Continuous
 62
               0
100
AcDbLine
 10
-267.42067356691143
 20
-282.02266986728046
 30
0.0
 11
-267.42067356691143
 21
-207.02266986728046
 31
0.0
  0
LINE
  5
BC
100
AcDbEntity
  8
0
370
              -2
390
0
  6
Continuous
 62
               0
100
AcDbLine
 10
-167.42067356691177
 20
-207.02266986728046
 30
0.0
 11
-267.42067356691143
 21
-207.02266986728046
 31
0.0
  0
CIRCLE
  5
BD
102
{ACAD_REACTORS
330
BE
102
}
100
AcDbEntity
  8
0
370
              -2
390
0
  6
Continuous
 62
               0
100
AcDbCircle
 10
-167.42067356691177
 20
-207.02266986728046
 30
0.0
 40
1.9998779296875
  0
HATCH
  5
BE
100
AcDbEntity
  8
0
370
              -2
390
0
  6
Continuous
 62
               0
100
AcDbHatch
 10
0.0
 20
0.0
 30
0.0
210
0.0
220
0.0
230
1.0
  2
SOLID
 70
               1
 71
               1
 91
        1
 92
        1
 93
        1
 72
               2
 10
-167.42067356691177
 20
-207.02266986728046
 40
1.9998779296875
 50
0.0
 51
360.0
 73
               0
 97
        1
330
BD
 75
               0
 76
               1
 98
        1
 10
0.0
 20
0.0
  0
CIRCLE
  5
BF
102
{ACAD_REACTORS
330
C0
102
}
100
AcDbEntity
  8
0
370
              -2
390
0
  6
Continuous
 62
               0
100
AcDbCircle
 10
-267.42067356691143
 20
-207.02266986728046
 30
0.0
 40
1.9998779296875
  0
HATCH
  5
C0
100
AcDbEntity
  8
0
370
              -2
390
0
  6
Continuous
 62
               0
100
AcDbHatch
 10
0.0
 20
0.0
 30
0.0
210
0.0
220
0.0
230
1.0
  2
SOLID
 70
               1
 71
               1
 91
        1
 92
        1
 93
        1
 72
               2
 10
-267.42067356691143
 20
-207.02266986728046
 40
1.9998779296875
 50
0.0
 51
360.0
 73
               0
 97
        1
330
BF
 75
               0
 76
               1
 98
        1
 10
0.0
 20
0.0
  0
MTEXT
  5
C1
100
AcDbEntity
  8
0
390
0
 62
               0
100
AcDbMText
 10
-241.23317524908714
 20
-173.14505267978046
 30
0.0
 40
24.432617187500004
 41
0.0
 71
               1
 72
               1
  1
100
  7
ＭＳ ゴシック
 73
               1
 44
0.7828267384257843
  0
POINT
  5
C2
100
AcDbEntity
  8
Defpoints
370
               0
390
0
 62
               0
100
AcDbPoint
 10
-267.42067356691143
 20
-307.02266986728046
 30
0.0
  0
POINT
  5
C3
100
AcDbEntity
  8
Defpoints
370
               0
390
0
 62
               0
100
AcDbPoint
 10
-167.42067356691177
 20
-307.02266986728046
 30
0.0
  0
POINT
  5
C4
100
AcDbEntity
  8
Defpoints
370
               0
390
0
 62
               0
100
AcDbPoint
 10
-167.42067356691177
 20
-207.02266986728046
 30
0.0
  0
ENDBLK
  5
C5
100
AcDbEntity
  8
notes
390
0
100
AcDbBlockEnd
  0
BLOCK
  5
C6
100
AcDbEntity
  8
notes
390
0
100
AcDbBlockBegin
  2
*D11
 70
               1
 10
0.0
 20
0.0
 30
0.0
  3
*D11
  1

  0
LINE
  5
C7
100
AcDbEntity
  8
0
370
              -2
390
0
  6
Continuous
 62
               0
100
AcDbLine
 10
487.23317022734153
 20
-307.02190781411298
 30
0.0
 11
467.23317022734153
 21
-307.02190781411298
 31
0.0
  0
LINE
  5
C8
100
AcDbEntity
  8
0
370
              -2
390
0
  6
Continuous
 62
               0
100
AcDbLine
 10
487.23317022734153
 20
-397.02190781411389
 30
0.0
 11
467.23317022734153
 21
-397.02190781411389
 31
0.0
  0
LINE
  5
C9
100
AcDbEntity
  8
0
370
              -2
390
0
  6
Continuous
 62
               0
100
AcDbLine
 10
467.23317022734153
 20
-307.02190781411298
 30
0.0
 11
467.23317022734153
 21
-172.51635431464774
 31
0.0
  0
LINE
  5
CA
100
AcDbEntity
  8
0
370
              -2
390
0
  6
Continuous
 62
               0
100
AcDbLine
 10
467.23317022734153
 20
-307.02190781411298
 30
0.0
 11
467.23317022734153
 21
-397.02190781411389
 31
0.0
  0
CIRCLE
  5
CB
102
{ACAD_REACTORS
330
CC
102
}
100
AcDbEntity
  8
0
370
              -2
390
0
  6
Continuous
 62
               0
100
AcDbCircle
 10
467.23317022734153
 20
-307.02190781411298
 30
0.0
 40
1.9998779296875
  0
HATCH
  5
CC
100
AcDbEntity
  8
0
370
              -2
390
0
  6
Continuous
 62
               0
100
AcDbHatch
 10
0.0
 20
0.0
 30
0.0
210
0.0
220
0.0
230
1.0
  2
SOLID
 70
               1
 71
               1
 91
        1
 92
        1
 93
        1
 72
               2
 10
467.23317022734153
 20
-307.02190781411298
 40
1.9998779296875
 50
0.0
 51
360.0
 73
               0
 97
        1
330
CB
 75
               0
 76
               1
 98
        1
 10
0.0
 20
0.0
  0
CIRCLE
  5
CD
102
{ACAD_REACTORS
330
CE
102
}
100
AcDbEntity
  8
0
370
              -2
390
0
  6
Continuous
 62
               0
100
AcDbCircle
 10
467.23317022734153
 20
-397.02190781411389
 30
0.0
 40
1.9998779296875
  0
HATCH
  5
CE
100
AcDbEntity
  8
0
370
              -2
390
0
  6
Continuous
 62
               0
100
AcDbHatch
 10
0.0
 20
0.0
 30
0.0
210
0.0
220
0.0
230
1.0
  2
SOLID
 70
               1
 71
               1
 91
        1
 92
        1
 93
        1
 72
               2
 10
467.23317022734153
 20
-397.02190781411389
 40
1.9998779296875
 50
0.0
 51
360.0
 73
               0
 97
        1
330
CD
 75
               0
 76
               1
 98
        1
 10
0.0
 20
0.0
  0
MTEXT
  5
CF
100
AcDbEntity
  8
0
390
0
 62
               0
100
AcDbMText
 10
433.35555303984154
 20
-299.51635431464774
 30
0.0
 40
24.432617187500004
 41
0.0
 71
               1
 72
               1
  1
90(深さ)
  7
ＭＳ ゴシック
 11
0.0
 21
1.0
 31
0.0
 73
               1
 44
0.7828267384257843
  0
POINT
  5
D0
100
AcDbEntity
  8
Defpoints
370
               0
390
0
 62
               0
100
AcDbPoint
 10
462.23317022734153
 20
-397.02190781411389
 30
0.0
  0
POINT
  5
D1
100
AcDbEntity
  8
Defpoints
370
               0
390
0
 62
               0
100
AcDbPoint
 10
462.23317022734153
 20
-307.02190781411298
 30
0.0
  0
POINT
  5
D2
100
AcDbEntity
  8
Defpoints
370
               0
390
0
 62
               0
100
AcDbPoint
 10
467.23317022734153
 20
-307.02190781411298
 30
0.0
  0
ENDBLK
  5
D3
100
AcDbEntity
  8
notes
390
0
100
AcDbBlockEnd
  0
BLOCK
  5
D4
100
AcDbEntity
  8
notes
390
0
100
AcDbBlockBegin
  2
*D12
 70
               1
 10
0.0
 20
0.0
 30
0.0
  3
*D12
  1

  0
LINE
  5
D5
100
AcDbEntity
  8
0
370
              -2
390
0
  6
Continuous
 62
               0
100
AcDbLine
 10
-140.49397778106731
 20
822.84140692890185
 30
0.0
 11
-67.393977781066951
 21
822.84140692890185
 31
0.0
  0
LINE
  5
D6
100
AcDbEntity
  8
0
370
              -2
390
0
  6
Continuous
 62
               0
100
AcDbLine
 10
-140.49397778106731
 20
467.84140692890378
 30
0.0
 11
-67.393977781066951
 21
467.84140692890378
 31
0.0
  0
LINE
  5
D7
100
AcDbEntity
  8
0
370
              -2
390
0
  6
Continuous
 62
               0
100
AcDbLine
 10
-67.393977781066951
 20
822.84140692890185
 30
0.0
 11
-67.393977781066951
 21
467.84140692890378
 31
0.0
  0
CIRCLE
  5
D8
102
{ACAD_REACTORS
330
D9
102
}
100
AcDbEntity
  8
0
370
              -2
390
0
  6
Continuous
 62
               0
100
AcDbCircle
 10
-67.393977781066951
 20
822.84140692890185
 30
0.0
 40
1.9998779296875
  0
HATCH
  5
D9
100
AcDbEntity
  8
0
370
              -2
390
0
  6
Continuous
 62
               0
100
AcDbHatch
 10
0.0
 20
0.0
 30
0.0
210
0.0
220
0.0
230
1.0
  2
SOLID
 70
               1
 71
               1
 91
        1
 92
        1
 93
        1
 72
               2
 10
-67.393977781066951
 20
822.84140692890185
 40
1.9998779296875
 50
0.0
 51
360.0
 73
               0
 97
        1
330
D8
 75
               0
 76
               1
 98
        1
 10
0.0
 20
0.0
  0
CIRCLE
  5
DA
102
{ACAD_REACTORS
330
DB
102
}
100
AcDbEntity
  8
0
370
              -2
390
0
  6
Continuous
 62
               0
100
AcDbCircle
 10
-67.393977781066951
 20
467.84140692890378
 30
0.0
 40
1.9998779296875
  0
HATCH
  5
DB
100
AcDbEntity
  8
0
370
              -2
390
0
  6
Continuous
 62
               0
100
AcDbHatch
 10
0.0
 20
0.0
 30
0.0
210
0.0
220
0.0
230
1.0
  2
SOLID
 70
               1
 71
               1
 91
        1
 92
        1
 93
        1
 72
               2
 10
-67.393977781066951
 20
467.84140692890378
 40
1.9998779296875
 50
0.0
 51
360.0
 73
               0
 97
        1
330
DA
 75
               0
 76
               1
 98
        1
 10
0.0
 20
0.0
  0
MTEXT
  5
DC
100
AcDbEntity
  8
0
390
0
 62
               0
100
AcDbMText
 10
-101.27159496856694
 20
621.52890524672728
 30
0.0
 40
24.432617187500004
 41
0.0
 71
               1
 72
               1
  1
355
  7
ＭＳ ゴシック
 11
0.0
 21
1.0
 31
0.0
 73
               1
 44
0.7828267384257843
  0
POINT
  5
DD
100
AcDbEntity
  8
Defpoints
370
               0
390
0
 62
               0
100
AcDbPoint
 10
-165.49397778106731
 20
467.84140692890378
 30
0.0
  0
POINT
  5
DE
100
AcDbEntity
  8
Defpoints
370
               0
390
0
 62
               0
100
AcDbPoint
 10
-165.49397778106731
 20
822.84140692890185
 30
0.0
  0
POINT
  5
DF
100
AcDbEntity
  8
Defpoints
370
               0
390
0
 62
               0
100
AcDbPoint
 10
-67.393977781066951
 20
822.84140692890185
 30
0.0
  0
ENDBLK
  5
E0
100
AcDbEntity
  8
notes
390
0
100
AcDbBlockEnd
  0
BLOCK
  5
E1
100
AcDbEntity
  8
notes
390
0
100
AcDbBlockBegin
  2
*D13
 70
               1
 10
0.0
 20
0.0
 30
0.0
  3
*D13
  1

  0
LINE
  5
E2
100
AcDbEntity
  8
0
370
              -2
390
0
  6
Continuous
 62
               0
100
AcDbLine
 10
-142.42067356691177
 20
-307.02266986728046
 30
0.0
 11
-67.420673566911773
 21
-307.02266986728046
 31
0.0
  0
LINE
  5
E3
100
AcDbEntity
  8
0
370
              -2
390
0
  6
Continuous
 62
               0
100
AcDbLine
 10
-167.41887697747234
 20
-432.03007485249475
 30
0.0
 11
-67.420673566911773
 21
-432.03007485249475
 31
0.0
  0
LINE
  5
E4
100
AcDbEntity
  8
0
370
              -2
390
0
  6
Continuous
 62
               0
100
AcDbLine
 10
-67.420673566911773
 20
-307.02266986728046
 30
0.0
 11
-67.420673566911773
 21
-432.03007485249475
 31
0.0
  0
CIRCLE
  5
E5
102
{ACAD_REACTORS
330
E6
102
}
100
AcDbEntity
  8
0
370
              -2
390
0
  6
Continuous
 62
               0
100
AcDbCircle
 10
-67.420673566911773
 20
-307.02266986728046
 30
0.0
 40
1.9998779296875
  0
HATCH
  5
E6
100
AcDbEntity
  8
0
370
              -2
390
0
  6
Continuous
 62
               0
100
AcDbHatch
 10
0.0
 20
0.0
 30
0.0
210
0.0
220
0.0
230
1.0
  2
SOLID
 70
               1
 71
               1
 91
        1
 92
        1
 93
        1
 72
               2
 10
-67.420673566911773
 20
-307.02266986728046
 40
1.9998779296875
 50
0.0
 51
360.0
 73
               0
 97
        1
330
E5
 75
               0
 76
               1
 98
        1
 10
0.0
 20
0.0
  0
CIRCLE
  5
E7
102
{ACAD_REACTORS
330
E8
102
}
100
AcDbEntity
  8
0
370
              -2
390
0
  6
Continuous
 62
               0
100
AcDbCircle
 10
-67.420673566911773
 20
-432.03007485249475
 30
0.0
 40
1.9998779296875
  0
HATCH
  5
E8
100
AcDbEntity
  8
0
370
              -2
390
0
  6
Continuous
 62
               0
100
AcDbHatch
 10
0.0
 20
0.0
 30
0.0
210
0.0
220
0.0
230
1.0
  2
SOLID
 70
               1
 71
               1
 91
        1
 92
        1
 93
        1
 72
               2
 10
-67.420673566911773
 20
-432.03007485249475
 40
1.9998779296875
 50
0.0
 51
360.0
 73
               0
 97
        1
330
E7
 75
               0
 76
               1
 98
        1
 10
0.0
 20
0.0
  0
MTEXT
  5
E9
100
AcDbEntity
  8
0
390
0
 62
               0
100
AcDbMText
 10
-101.29829075441177
 20
-393.33887404206314
 30
0.0
 40
24.432617187500004
 41
0.0
 71
               1
 72
               1
  1
125
  7
ＭＳ ゴシック
 11
0.0
 21
1.0
 31
0.0
 73
               1
 44
0.7828267384257843
  0
POINT
  5
EA
100
AcDbEntity
  8
Defpoints
370
               0
390
0
 62
               0
100
AcDbPoint
 10
-192.41887697747234
 20
-432.03007485249475
 30
0.0
  0
POINT
  5
EB
100
AcDbEntity
  8
Defpoints
370
               0
390
0
 62
               0
100
AcDbPoint
 10
-167.42067356691177
 20
-307.02266986728046
 30
0.0
  0
POINT
  5
EC
100
AcDbEntity
  8
Defpoints
370
               0
390
0
 62
               0
100
AcDbPoint
 10
-67.420673566911773
 20
-307.02266986728046
 30
0.0
  0
ENDBLK
  5
ED
100
AcDbEntity
  8
notes
390
0
100
AcDbBlockEnd
  0
BLOCK
  5
EE
100
AcDbEntity
  8
notes
390
0
100
AcDbBlockBegin
  2
*D14
 70
               1
 10
0.0
 20
0.0
 30
0.0
  3
*D14
  1

  0
LINE
  5
EF
100
AcDbEntity
  8
0
370
              -2
390
0
  6
Continuous
 62
               0
100
AcDbLine
 10
-192.41887697747234
 20
-457.03007485249475
 30
0.0
 11
-192.41887697747234
 21
-582.03007485249475
 31
0.0
  0
LINE
  5
F0
100
AcDbEntity
  8
0
370
              -2
390
0
  6
Continuous
 62
               0
100
AcDbLine
 10
-682.41887697747291
 20
-457.03007485249475
 30
0.0
 11
-682.41887697747291
 21
-582.03007485249475
 31
0.0
  0
LINE
  5
F1
100
AcDbEntity
  8
0
370
              -2
390
0
  6
Continuous
 62
               0
100
AcDbLine
 10
-192.41887697747234
 20
-582.03007485249475
 30
0.0
 11
-682.41887697747291
 21
-582.03007485249475
 31
0.0
  0
CIRCLE
  5
F2
102
{ACAD_REACTORS
330
F3
102
}
100
AcDbEntity
  8
0
370
              -2
390
0
  6
Continuous
 62
               0
100
AcDbCircle
 10
-192.41887697747234
 20
-582.03007485249475
 30
0.0
 40
1.9998779296875
  0
HATCH
  5
F3
100
AcDbEntity
  8
0
370
              -2
390
0
  6
Continuous
 62
               0
100
AcDbHatch
 10
0.0
 20
0.0
 30
0.0
210
0.0
220
0.0
230
1.0
  2
SOLID
 70
               1
 71
               1
 91
        1
 92
        1
 93
        1
 72
               2
 10
-192.41887697747234
 20
-582.03007485249475
 40
1.9998779296875
 50
0.0
 51
360.0
 73
               0
 97
        1
330
F2
 75
               0
 76
               1
 98
        1
 10
0.0
 20
0.0
  0
CIRCLE
  5
F4
102
{ACAD_REACTORS
330
F5
102
}
100
AcDbEntity
  8
0
370
              -2
390
0
  6
Continuous
 62
               0
100
AcDbCircle
 10
-682.41887697747291
 20
-582.03007485249475
 30
0.0
 40
1.9998779296875
  0
HATCH
  5
F5
100
AcDbEntity
  8
0
370
              -2
390
0
  6
Continuous
 62
               0
100
AcDbHatch
 10
0.0
 20
0.0
 30
0.0
210
0.0
220
0.0
230
1.0
  2
SOLID
 70
               1
 71
               1
 91
        1
 92
        1
 93
        1
 72
               2
 10
-682.41887697747291
 20
-582.03007485249475
 40
1.9998779296875
 50
0.0
 51
360.0
 73
               0
 97
        1
330
F4
 75
               0
 76
               1
 98
        1
 10
0.0
 20
0.0
  0
MTEXT
  5
F6
100
AcDbEntity
  8
0
390
0
 62
               0
100
AcDbMText
 10
-466.48317179609057
 20
-548.1524576649947
 30
0.0
 40
24.432617187500004
 41
0.0
 71
               1
 72
               1
  1
490
  7
ＭＳ ゴシック
 73
               1
 44
0.7828267384257843
  0
POINT
  5
F7
100
AcDbEntity
  8
Defpoints
370
               0
390
0
 62
               0
100
AcDbPoint
 10
-682.41887697747291
 20
-432.03007485249475
 30
0.0
  0
POINT
  5
F8
100
AcDbEntity
  8
Defpoints
370
               0
390
0
 62
               0
100
AcDbPoint
 10
-192.41887697747234
 20
-432.03007485249475
 30
0.0
  0
POINT
  5
F9
100
AcDbEntity
  8
Defpoints
370
               0
390
0
 62
               0
100
AcDbPoint
 10
-192.41887697747234
 20
-582.03007485249475
 30
0.0
  0
ENDBLK
  5
FA
100
AcDbEntity
  8
notes
390
0
100
AcDbBlockEnd
  0
BLOCK
  5
FB
100
AcDbEntity
  8
notes
390
0
100
AcDbBlockBegin
  2
*D15
 70
               1
 10
0.0
 20
0.0
 30
0.0
  3
*D15
  1

  0
LINE
  5
FC
100
AcDbEntity
  8
0
370
              -2
390
0
  6
Continuous
 62
               0
100
AcDbLine
 10
-707.42067356691234
 20
-332.02266986728046
 30
0.0
 11
-707.42067356691234
 21
-532.03007485249384
 31
0.0
  0
LINE
  5
FD
100
AcDbEntity
  8
0
370
              -2
390
0
  6
Continuous
 62
               0
100
AcDbLine
 10
-497.4206735669116
 20
-452.02266986728137
 30
0.0
 11
-497.4206735669116
 21
-532.03007485249384
 31
0.0
  0
LINE
  5
FE
100
AcDbEntity
  8
0
370
              -2
390
0
  6
Continuous
 62
               0
100
AcDbLine
 10
-707.42067356691234
 20
-532.03007485249384
 30
0.0
 11
-497.4206735669116
 21
-532.03007485249384
 31
0.0
  0
CIRCLE
  5
FF
102
{ACAD_REACTORS
330
100
102
}
100
AcDbEntity
  8
0
370
              -2
390
0
  6
Continuous
 62
               0
100
AcDbCircle
 10
-707.42067356691234
 20
-532.03007485249384
 30
0.0
 40
1.9998779296875
  0
HATCH
  5
100
100
AcDbEntity
  8
0
370
              -2
390
0
  6
Continuous
 62
               0
100
AcDbHatch
 10
0.0
 20
0.0
 30
0.0
210
0.0
220
0.0
230
1.0
  2
SOLID
 70
               1
 71
               1
 91
        1
 92
        1
 93
        1
 72
               2
 10
-707.42067356691234
 20
-532.03007485249384
 40
1.9998779296875
 50
0.0
 51
360.0
 73
               0
 97
        1
330
FF
 75
               0
 76
               1
 98
        1
 10
0.0
 20
0.0
  0
CIRCLE
  5
101
102
{ACAD_REACTORS
330
102
102
}
100
AcDbEntity
  8
0
370
              -2
390
0
  6
Continuous
 62
               0
100
AcDbCircle
 10
-497.4206735669116
 20
-532.03007485249384
 30
0.0
 40
1.9998779296875
  0
HATCH
  5
102
100
AcDbEntity
  8
0
370
              -2
390
0
  6
Continuous
 62
               0
100
AcDbHatch
 10
0.0
 20
0.0
 30
0.0
210
0.0
220
0.0
230
1.0
  2
SOLID
 70
               1
 71
               1
 91
        1
 92
        1
 93
        1
 72
               2
 10
-497.4206735669116
 20
-532.03007485249384
 40
1.9998779296875
 50
0.0
 51
360.0
 73
               0
 97
        1
330
101
 75
               0
 76
               1
 98
        1
 10
0.0
 20
0.0
  0
MTEXT
  5
103
100
AcDbEntity
  8
0
390
0
 62
               0
100
AcDbMText
 10
-626.23317524908748
 20
-498.15245766499379
 30
0.0
 40
24.432617187500004
 41
0.0
 71
               1
 72
               1
  1
210
  7
ＭＳ ゴシック
 73
               1
 44
0.7828267384257843
  0
POINT
  5
104
100
AcDbEntity
  8
Defpoints
370
               0
390
0
 62
               0
100
AcDbPoint
 10
-497.4206735669116
 20
-427.02266986728137
 30
0.0
  0
POINT
  5
105
100
AcDbEntity
  8
Defpoints
370
               0
390
0
 62
               0
100
AcDbPoint
 10
-707.42067356691234
 20
-307.02266986728046
 30
0.0
  0
POINT
  5
106
100
AcDbEntity
  8
Defpoints
370
               0
390
0
 62
               0
100
AcDbPoint
 10
-707.42067356691234
 20
-532.03007485249384
 30
0.0
  0
ENDBLK
  5
107
100
AcDbEntity
  8
notes
390
0
100
AcDbBlockEnd
  0
BLOCK
  5
108
100
AcDbEntity
  8
notes
390
0
100
AcDbBlockBegin
  2
*D16
 70
               1
 10
0.0
 20
0.0
 30
0.0
  3
*D16
  1

  0
LINE
  5
109
100
AcDbEntity
  8
0
370
              -2
390
0
  6
Continuous
 62
               0
100
AcDbLine
 10
686.23317022734045
 20
-452.02190781411389
 30
0.0
 11
686.23317022734045
 21
-532.02931279932727
 31
0.0
  0
LINE
  5
10A
100
AcDbEntity
  8
0
370
              -2
390
0
  6
Continuous
 62
               0
100
AcDbLine
 10
466.23317022734153
 20
-452.02190781411389
 30
0.0
 11
466.23317022734153
 21
-532.02931279932727
 31
0.0
  0
LINE
  5
10B
100
AcDbEntity
  8
0
370
              -2
390
0
  6
Continuous
 62
               0
100
AcDbLine
 10
686.23317022734045
 20
-532.02931279932727
 30
0.0
 11
466.23317022734153
 21
-532.02931279932727
 31
0.0
  0
CIRCLE
  5
10C
102
{ACAD_REACTORS
330
10D
102
}
100
AcDbEntity
  8
0
370
              -2
390
0
  6
Continuous
 62
               0
100
AcDbCircle
 10
686.23317022734045
 20
-532.02931279932727
 30
0.0
 40
1.9998779296875
  0
HATCH
  5
10D
100
AcDbEntity
  8
0
370
              -2
390
0
  6
Continuous
 62
               0
100
AcDbHatch
 10
0.0
 20
0.0
 30
0.0
210
0.0
220
0.0
230
1.0
  2
SOLID
 70
               1
 71
               1
 91
        1
 92
        1
 93
        1
 72
               2
 10
686.23317022734045
 20
-532.02931279932727
 40
1.9998779296875
 50
0.0
 51
360.0
 73
               0
 97
        1
330
10C
 75
               0
 76
               1
 98
        1
 10
0.0
 20
0.0
  0
CIRCLE
  5
10E
102
{ACAD_REACTORS
330
10F
102
}
100
AcDbEntity
  8
0
370
              -2
390
0
  6
Continuous
 62
               0
100
AcDbCircle
 10
466.23317022734153
 20
-532.02931279932727
 30
0.0
 40
1.9998779296875
  0
HATCH
  5
10F
100
AcDbEntity
  8
0
370
              -2
390
0
  6
Continuous
 62
               0
100
AcDbHatch
 10
0.0
 20
0.0
 30
0.0
210
0.0
220
0.0
230
1.0
  2
SOLID
 70
               1
 71
               1
 91
        1
 92
        1
 93
        1
 72
               2
 10
466.23317022734153
 20
-532.02931279932727
 40
1.9998779296875
 50
0.0
 51
360.0
 73
               0
 97
        1
330
10E
 75
               0
 76
               1
 98
        1
 10
0.0
 20
0.0
  0
MTEXT
  5
110
100
AcDbEntity
  8
0
390
0
 62
               0
100
AcDbMText
 10
552.42066854516554
 20
-498.15169561182722
 30
0.0
 40
24.432617187500004
 41
0.0
 71
               1
 72
               1
  1
220
  7
ＭＳ ゴシック
 73
               1
 44
0.7828267384257843
  0
POINT
  5
111
100
AcDbEntity
  8
Defpoints
370
               0
390
0
 62
               0
100
AcDbPoint
 10
466.23317022734153
 20
-427.02190781411389
 30
0.0
  0
POINT
  5
112
100
AcDbEntity
  8
Defpoints
370
               0
390
0
 62
               0
100
AcDbPoint
 10
686.23317022734045
 20
-427.02190781411389
 30
0.0
  0
POINT
  5
113
100
AcDbEntity
  8
Defpoints
370
               0
390
0
 62
               0
100
AcDbPoint
 10
686.23317022734045
 20
-532.02931279932727
 30
0.0
  0
ENDBLK
  5
114
100
AcDbEntity
  8
notes
390
0
100
AcDbBlockEnd
  0
BLOCK
  5
115
100
AcDbEntity
  8
notes
390
0
100
AcDbBlockBegin
  2
*D17
 70
               1
 10
0.0
 20
0.0
 30
0.0
  3
*D17
  1

  0
LINE
  5
116
100
AcDbEntity
  8
0
370
              -2
390
0
  6
Continuous
 62
               0
100
AcDbLine
 10
674.38112302252728
 20
822.82398337189534
 30
0.0
 11
804.28370018290866
 21
822.82398337189534
 31
0.0
  0
LINE
  5
117
100
AcDbEntity
  8
0
370
              -2
390
0
  6
Continuous
 62
               0
100
AcDbLine
 10
674.38112302252728
 20
552.82398337189727
 30
0.0
 11
804.28370018290866
 21
552.82398337189727
 31
0.0
  0
LINE
  5
118
100
AcDbEntity
  8
0
370
              -2
390
0
  6
Continuous
 62
               0
100
AcDbLine
 10
804.28370018290866
 20
822.82398337189534
 30
0.0
 11
804.28370018290866
 21
552.82398337189727
 31
0.0
  0
CIRCLE
  5
119
102
{ACAD_REACTORS
330
11A
102
}
100
AcDbEntity
  8
0
370
              -2
390
0
  6
Continuous
 62
               0
100
AcDbCircle
 10
804.28370018290866
 20
822.82398337189534
 30
0.0
 40
1.9998779296875
  0
HATCH
  5
11A
100
AcDbEntity
  8
0
370
              -2
390
0
  6
Continuous
 62
               0
100
AcDbHatch
 10
0.0
 20
0.0
 30
0.0
210
0.0
220
0.0
230
1.0
  2
SOLID
 70
               1
 71
               1
 91
        1
 92
        1
 93
        1
 72
               2
 10
804.28370018290866
 20
822.82398337189534
 40
1.9998779296875
 50
0.0
 51
360.0
 73
               0
 97
        1
330
119
 75
               0
 76
               1
 98
        1
 10
0.0
 20
0.0
  0
CIRCLE
  5
11B
102
{ACAD_REACTORS
330
11C
102
}
100
AcDbEntity
  8
0
370
              -2
390
0
  6
Continuous
 62
               0
100
AcDbCircle
 10
804.28370018290866
 20
552.82398337189727
 30
0.0
 40
1.9998779296875
  0
HATCH
  5
11C
100
AcDbEntity
  8
0
370
              -2
390
0
  6
Continuous
 62
               0
100
AcDbHatch
 10
0.0
 20
0.0
 30
0.0
210
0.0
220
0.0
230
1.0
  2
SOLID
 70
               1
 71
               1
 91
        1
 92
        1
 93
        1
 72
               2
 10
804.28370018290866
 20
552.82398337189727
 40
1.9998779296875
 50
0.0
 51
360.0
 73
               0
 97
        1
330
11B
 75
               0
 76
               1
 98
        1
 10
0.0
 20
0.0
  0
MTEXT
  5
11D
100
AcDbEntity
  8
0
390
0
 62
               0
100
AcDbMText
 10
770.40608299540861
 20
664.01148168972077
 30
0.0
 40
24.432617187500004
 41
0.0
 71
               1
 72
               1
  1
270
  7
ＭＳ ゴシック
 11
0.0
 21
1.0
 31
0.0
 73
               1
 44
0.7828267384257843
  0
POINT
  5
11E
100
AcDbEntity
  8
Defpoints
370
               0
390
0
 62
               0
100
AcDbPoint
 10
649.38112302252728
 20
552.82398337189727
 30
0.0
  0
POINT
  5
11F
100
AcDbEntity
  8
Defpoints
370
               0
390
0
 62
               0
100
AcDbPoint
 10
649.38112302252728
 20
822.82398337189534
 30
0.0
  0
POINT
  5
120
100
AcDbEntity
  8
Defpoints
370
               0
390
0
 62
               0
100
AcDbPoint
 10
804.28370018290866
 20
822.82398337189534
 30
0.0
  0
ENDBLK
  5
121
100
AcDbEntity
  8
notes
390
0
100
AcDbBlockEnd
  0
BLOCK
  5
122
100
AcDbEntity
  8
notes
390
0
100
AcDbBlockBegin
  2
*D18
 70
               1
 10
0.0
 20
0.0
 30
0.0
  3
*D18
  1

  0
LINE
  5
123
100
AcDbEntity
  8
0
370
              -2
390
0
  6
Continuous
 62
               0
100
AcDbLine
 10
686.23317022734045
 20
-452.02190781411389
 30
0.0
 11
686.23317022734045
 21
-582.02931279932727
 31
0.0
  0
LINE
  5
124
100
AcDbEntity
  8
0
370
              -2
390
0
  6
Continuous
 62
               0
100
AcDbLine
 10
321.23317022734153
 20
-452.02190781411389
 30
0.0
 11
321.23317022734153
 21
-582.02931279932727
 31
0.0
  0
LINE
  5
125
100
AcDbEntity
  8
0
370
              -2
390
0
  6
Continuous
 62
               0
100
AcDbLine
 10
686.23317022734045
 20
-582.02931279932727
 30
0.0
 11
321.23317022734153
 21
-582.02931279932727
 31
0.0
  0
CIRCLE
  5
126
102
{ACAD_REACTORS
330
127
102
}
100
AcDbEntity
  8
0
370
              -2
390
0
  6
Continuous
 62
               0
100
AcDbCircle
 10
686.23317022734045
 20
-582.02931279932727
 30
0.0
 40
1.9998779296875
  0
HATCH
  5
127
100
AcDbEntity
  8
0
370
              -2
390
0
  6
Continuous
 62
               0
100
AcDbHatch
 10
0.0
 20
0.0
 30
0.0
210
0.0
220
0.0
230
1.0
  2
SOLID
 70
               1
 71
               1
 91
        1
 92
        1
 93
        1
 72
               2
 10
686.23317022734045
 20
-582.02931279932727
 40
1.9998779296875
 50
0.0
 51
360.0
 73
               0
 97
        1
330
126
 75
               0
 76
               1
 98
        1
 10
0.0
 20
0.0
  0
CIRCLE
  5
128
102
{ACAD_REACTORS
330
129
102
}
100
AcDbEntity
  8
0
370
              -2
390
0
  6
Continuous
 62
               0
100
AcDbCircle
 10
321.23317022734153
 20
-582.02931279932727
 30
0.0
 40
1.9998779296875
  0
HATCH
  5
129
100
AcDbEntity
  8
0
370
              -2
390
0
  6
Continuous
 62
               0
100
AcDbHatch
 10
0.0
 20
0.0
 30
0.0
210
0.0
220
0.0
230
1.0
  2
SOLID
 70
               1
 71
               1
 91
        1
 92
        1
 93
        1
 72
               2
 10
321.23317022734153
 20
-582.02931279932727
 40
1.9998779296875
 50
0.0
 51
360.0
 73
               0
 97
        1
330
128
 75
               0
 76
               1
 98
        1
 10
0.0
 20
0.0
  0
MTEXT
  5
12A
100
AcDbEntity
  8
0
390
0
 62
               0
100
AcDbMText
 10
479.92066854516548
 20
-548.15169561182722
 30
0.0
 40
24.432617187500004
 41
0.0
 71
               1
 72
               1
  1
365
  7
ＭＳ ゴシック
 73
               1
 44
0.7828267384257843
  0
POINT
  5
12B
100
AcDbEntity
  8
Defpoints
370
               0
390
0
 62
               0
100
AcDbPoint
 10
321.23317022734153
 20
-427.02190781411389
 30
0.0
  0
POINT
  5
12C
100
AcDbEntity
  8
Defpoints
370
               0
390
0
 62
               0
100
AcDbPoint
 10
686.23317022734045
 20
-427.02190781411389
 30
0.0
  0
POINT
  5
12D
100
AcDbEntity
  8
Defpoints
370
               0
390
0
 62
               0
100
AcDbPoint
 10
686.23317022734045
 20
-582.02931279932727
 30
0.0
  0
ENDBLK
  5
12E
100
AcDbEntity
  8
notes
390
0
100
AcDbBlockEnd
  0
BLOCK
  5
12F
100
AcDbEntity
  8
notes
390
0
100
AcDbBlockBegin
  2
*D19
 70
               1
 10
0.0
 20
0.0
 30
0.0
  3
*D19
  1

  0
LINE
  5
130
100
AcDbEntity
  8
0
370
              -2
390
0
  6
Continuous
 62
               0
100
AcDbLine
 10
411.23317022734153
 20
-417.02190781411389
 30
0.0
 11
209.23256464347321
 21
-417.02190781411389
 31
0.0
  0
LINE
  5
131
100
AcDbEntity
  8
0
370
              -2
390
0
  6
Continuous
 62
               0
100
AcDbLine
 10
241.23438139507786
 20
-307.02931279932648
 30
0.0
 11
209.23256464347321
 21
-307.02931279932648
 31
0.0
  0
LINE
  5
132
100
AcDbEntity
  8
0
370
              -2
390
0
  6
Continuous
 62
               0
100
AcDbLine
 10
209.23256464347321
 20
-417.02190781411389
 30
0.0
 11
209.23256464347321
 21
-307.02931279932648
 31
0.0
  0
CIRCLE
  5
133
102
{ACAD_REACTORS
330
134
102
}
100
AcDbEntity
  8
0
370
              -2
390
0
  6
Continuous
 62
               0
100
AcDbCircle
 10
209.23256464347321
 20
-417.02190781411389
 30
0.0
 40
1.9998779296875
  0
HATCH
  5
134
100
AcDbEntity
  8
0
370
              -2
390
0
  6
Continuous
 62
               0
100
AcDbHatch
 10
0.0
 20
0.0
 30
0.0
210
0.0
220
0.0
230
1.0
  2
SOLID
 70
               1
 71
               1
 91
        1
 92
        1
 93
        1
 72
               2
 10
209.23256464347321
 20
-417.02190781411389
 40
1.9998779296875
 50
0.0
 51
360.0
 73
               0
 97
        1
330
133
 75
               0
 76
               1
 98
        1
 10
0.0
 20
0.0
  0
CIRCLE
  5
135
102
{ACAD_REACTORS
330
136
102
}
100
AcDbEntity
  8
0
370
              -2
390
0
  6
Continuous
 62
               0
100
AcDbCircle
 10
209.23256464347321
 20
-307.02931279932648
 30
0.0
 40
1.9998779296875
  0
HATCH
  5
136
100
AcDbEntity
  8
0
370
              -2
390
0
  6
Continuous
 62
               0
100
AcDbHatch
 10
0.0
 20
0.0
 30
0.0
210
0.0
220
0.0
230
1.0
  2
SOLID
 70
               1
 71
               1
 91
        1
 92
        1
 93
        1
 72
               2
 10
209.23256464347321
 20
-307.02931279932648
 40
1.9998779296875
 50
0.0
 51
360.0
 73
               0
 97
        1
330
135
 75
               0
 76
               1
 98
        1
 10
0.0
 20
0.0
  0
MTEXT
  5
137
100
AcDbEntity
  8
0
390
0
 62
               0
100
AcDbMText
 10
175.35494745597322
 20
-385.83811198889566
 30
0.0
 40
24.432617187500004
 41
0.0
 71
               1
 72
               1
  1
110
  7
ＭＳ ゴシック
 11
0.0
 21
1.0
 31
0.0
 73
               1
 44
0.7828267384257843
  0
POINT
  5
138
100
AcDbEntity
  8
Defpoints
370
               0
390
0
 62
               0
100
AcDbPoint
 10
266.23438139507783
 20
-307.02931279932648
 30
0.0
  0
POINT
  5
139
100
AcDbEntity
  8
Defpoints
370
               0
390
0
 62
               0
100
AcDbPoint
 10
436.23317022734153
 20
-417.02190781411389
 30
0.0
  0
POINT
  5
13A
100
AcDbEntity
  8
Defpoints
370
               0
390
0
 62
               0
100
AcDbPoint
 10
209.23256464347321
 20
-417.02190781411389
 30
0.0
  0
ENDBLK
  5
13B
100
AcDbEntity
  8
notes
390
0
100
AcDbBlockEnd
  0
ENDSEC
  0
SECTION
  2
ENTITIES
  0
MTEXT
  5
13C
100
AcDbEntity
  8
template
390
0
 62
               7
100
AcDbMText
 10
-967.99999999975921
 20
-1147.4176292337002
 30
0.0
 40
16.288411458333332
 41
0.0
 71
               1
 72
               1
  1
品名
  7
ＭＳ ゴシック
 73
               1
 44
0.7828267384257843
  0
MTEXT
  5
13D
100
AcDbEntity
  8
template
390
0
 62
               7
100
AcDbMText
 10
-967.99999999975921
 20
-1232.4176292337002
 30
0.0
 40
16.288411458333332
 41
0.0
 71
               1
 72
               1
  1
仕様
  7
ＭＳ ゴシック
 73
               1
 44
0.7828267384257843
  0
MTEXT
  5
13E
100
AcDbEntity
  8
template
390
0
 62
               7
100
AcDbMText
 10
-914.99999999975921
 20
-1176.0000901712006
 30
0.0
 40
24.432617187500004
 41
0.0
 71
               1
 72
               1
  1
手洗器 -SANICO,Neo-
  7
ＭＳ ゴシック
 73
               1
 44
0.7828267384257843
  0
LINE
  5
13F
100
AcDbEntity
  8
template
370
               5
390
0
  6
Continuous
 62
               7
100
AcDbLine
 10
974.99999999975876
 20
-1224.0027073587003
 30
0.0
 11
-975.00000000024124
 21
-1224.0027073587003
 31
0.0
  0
LWPOLYLINE
  5
140
100
AcDbEntity
  8
template
370
               5
390
0
  6
Continuous
 62
               7
100
AcDbPolyline
 90
        5
 70
             128
 10
975.00000000024124
 20
1405.9972926412997
 10
-974.99999999975921
 20
1405.9972926412997
 10
-974.99999999975921
 20
-1394.0027073587003
 10
975.00000000024124
 20
-1394.0027073587003
 10
975.00000000024124
 20
1405.9972926412997
  0
LINE
  5
141
100
AcDbEntity
  8
template
370
               5
390
0
  6
Continuous
 62
               7
100
AcDbLine
 10
974.99999999975876
 20
-1139.0027073587003
 30
0.0
 11
-975.00000000024124
 21
-1139.0027073587003
 31
0.0
  0
LINE
  5
142
100
AcDbEntity
  8
template
370
               5
390
0
  6
Continuous
 62
               7
100
AcDbLine
 10
975.00000000024124
 20
-1309.0027073587003
 30
0.0
 11
222.00000000024124
 21
-1309.0027073587003
 31
0.0
  0
MTEXT
  5
143
100
AcDbEntity
  8
template
390
0
 62
               7
100
AcDbMText
 10
-914.99999999975921
 20
-1261.0000901712006
 30
0.0
 40
24.432617187500004
 41
0.0
 71
               1
 72
               1
  1
壁掛け,カウンタ ートップ/オーバーフローなし/排水金具,壁取付ボルト付属/\Pホワイトレジン/ホワイト
  7
ＭＳ ゴシック
 73
               1
 44
1.1307497332816883
  0
MTEXT
  5
144
100
AcDbEntity
  8
template
390
0
 62
               7
100
AcDbMText
 10
-974.99999999955594
 20
-1405.8565294155574
 30
0.0
 40
21.717881944444446
 41
0.0
 71
               1
 72
               1
  1
110713SH
  7
ＭＳ ゴシック
 73
               1
 44
0.7828267384257843
  0
MTEXT
  5
145
100
AcDbEntity
  8
template
390
0
 62
               7
100
AcDbMText
 10
251.87140625250089
 20
-1338.9131018320081
 30
0.0
 40
24.432617187500004
 41
0.0
 71
               1
 72
               1
  1
大洋金物株式会社 ティーフォルム事業部
  7
ＭＳ ゴシック
 73
               1
 44
0.7828267384257843
  0
INSERT
  5
146
100
AcDbEntity
  8
template
390
0
 62
               7
100
AcDbBlockReference
  2
グループ
 10
39.745770736029208
 20
195.99311697150222
 30
0.0
  0
MTEXT
  5
147
100
AcDbEntity
  8
template
390
0
 62
               7
100
AcDbMText
 10
784.00000000049999
 20
-1261.0000901712006
 30
0.0
 40
24.432617187500004
 41
0.0
 71
               1
 72
               1
  1
1:10
  7
ＭＳ ゴシック
 73
               1
 44
0.7828267384257843
  0
MTEXT
  5
148
100
AcDbEntity
  8
template
390
0
 62
               7
100
AcDbMText
 10
731.00000000049999
 20
-1232.4176292337002
 30
0.0
 40
16.288411458333332
 41
0.0
 71
               1
 72
               1
  1
縮尺
  7
ＭＳ ゴシック
 73
               1
 44
0.7828267384257843
  0
LINE
  5
149
100
AcDbEntity
  8
template
370
               5
390
0
  6
Continuous
 62
               7
100
AcDbLine
 10
724.00000000049999
 20
-1309.0027073587003
 30
0.0
 11
724.00000000049999
 21
-1224.0027073587003
 31
0.0
  0
MTEXT
  5
14A
100
AcDbEntity
  8
template
390
0
 62
               7
100
AcDbMText
 10
480.00000000049999
 20
-1232.4176292337002
 30
0.0
 40
16.288411458333332
 41
0.0
 71
               1
 72
               1
  1
容量
  7
ＭＳ ゴシック
 73
               1
 44
0.7828267384257843
  0
MTEXT
  5
14B
100
AcDbEntity
  8
template
390
0
 62
               7
100
AcDbMText
 10
533.00000000049999
 20
-1261.0000901712006
 30
0.0
 40
24.432617187500004
 41
0.0
 71
               1
 72
               1
  1
4L
  7
ＭＳ ゴシック
 73
               1
 44
0.7828267384257843
  0
LINE
  5
14C
100
AcDbEntity
  8
template
370
               5
390
0
  6
Continuous
 62
               7
100
AcDbLine
 10
473.00000000049999
 20
-1309.0027073587003
 30
0.0
 11
473.00000000049999
 21
-1224.0027073587003
 31
0.0
  0
MTEXT
  5
14D
100
AcDbEntity
  8
template
390
0
 62
               7
100
AcDbMText
 10
229.00000000049999
 20
-1147.4176292337002
 30
0.0
 40
16.288411458333332
 41
0.0
 71
               1
 72
               1
  1
品番
  7
ＭＳ ゴシック
 73
               1
 44
0.7828267384257843
  0
MTEXT
  5
14E
100
AcDbEntity
  8
template
390
0
 62
               7
100
AcDbMText
 10
229.00000000049999
 20
-1232.4176292337002
 30
0.0
 40
16.288411458333332
 41
0.0
 71
               1
 72
               1
  1
重量
  7
ＭＳ ゴシック
 73
               1
 44
0.7828267384257843
  0
MTEXT
  5
14F
100
AcDbEntity
  8
template
390
0
 62
               7
100
AcDbMText
 10
282.00000000049999
 20
-1176.0000901712006
 30
0.0
 40
24.432617187500004
 41
0.0
 71
               1
 72
               1
  1
KUF70-0002-001
  7
ＭＳ ゴシック
 73
               1
 44
0.7828267384257843
  0
MTEXT
  5
150
100
AcDbEntity
  8
template
390
0
 62
               7
100
AcDbMText
 10
282.00000000049999
 20
-1261.0000901712006
 30
0.0
 40
24.432617187500004
 41
0.0
 71
               1
 72
               1
  1
15.5kg
  7
ＭＳ ゴシック
 73
               1
 44
0.7828267384257843
  0
LINE
  5
151
100
AcDbEntity
  8
template
370
               5
390
0
  6
Continuous
 62
               7
100
AcDbLine
 10
222.00000000049999
 20
-1394.0027073587003
 30
0.0
 11
222.00000000049999
 21
-1139.0027073587003
 31
0.0
  0
DIMENSION
  5
152
100
AcDbEntity
  8
notes
370
               5
390
0
  6
Continuous
 62
               7
100
AcDbDimension
  2
*D3
 10
-167.39397778106695
 20
922.82454904564236
 30
0.0
 11
-437.40732567398959
 21
922.82454904564236
 31
0.0
 71
               5
 72
               1
 41
1.0
 42
0.0
  3
tfrom線あり
100
AcDbAlignedDimension
 13
-707.42067356691234
 23
822.82199665003145
 33
0.0
 14
-167.39397778106695
 24
822.84219242685299
 34
0.0
100
AcDbRotatedDimension
1001
ACAD
1000
DSTYLE
1002
{
1070
             279
1070
               2
1070
             340
1005
35
1070
             147
1040
5.0
1002
}
  0
DIMENSION
  5
153
100
AcDbEntity
  8
notes
370
               5
390
0
  6
Continuous
 62
               7
100
AcDbDimension
  2
*D4
 10
219.38112302252785
 20
922.82454904564236
 30
0.0
 11
434.38112302252756
 21
927.82454904564236
 31
0.0
 70
             128
 71
               5
 72
               1
 41
1.0
 42
0.0
  3
tfrom線あり
100
AcDbAlignedDimension
 13
649.38112302252728
 23
822.82398337189534
 33
0.0
 14
219.38112302252785
 24
822.82398337189534
 34
0.0
100
AcDbRotatedDimension
1001
ACAD
1000
DSTYLE
1002
{
1070
             279
1070
               2
1070
             340
1005
35
1070
             147
1040
5.0
1002
}
  0
DIMENSION
  5
154
100
AcDbEntity
  8
notes
370
               5
390
0
  6
Continuous
 62
               7
100
AcDbDimension
  2
*D5
 10
-857.42067356691234
 20
822.82199665003145
 30
0.0
 11
-857.42067356691234
 21
612.82199665003225
 31
0.0
 71
               5
 72
               1
 41
1.0
 42
0.0
  3
tfrom線あり
100
AcDbAlignedDimension
 13
-514.82789975468233
 23
402.82199665003304
 33
0.0
 14
-707.42067356691234
 24
822.82199665003145
 34
0.0
 50
90.0
100
AcDbRotatedDimension
1001
ACAD
1000
DSTYLE
1002
{
1070
             279
1070
               2
1070
             340
1005
35
1070
             147
1040
5.0
1002
}
  0
DIMENSION
  5
155
100
AcDbEntity
  8
notes
370
               5
390
0
  6
Continuous
 62
               7
100
AcDbDimension
  2
*D6
 10
-807.42067356691234
 20
822.82199665003145
 30
0.0
 11
-807.42067356691234
 21
632.82261000652784
 31
0.0
 71
               5
 72
               1
 41
1.0
 42
0.0
  3
tfrom線あり
100
AcDbAlignedDimension
 13
-707.39940679002336
 23
442.82322336302434
 33
0.0
 14
-707.42067356691234
 24
822.82199665003145
 34
0.0
 50
90.0
100
AcDbRotatedDimension
1001
ACAD
1000
DSTYLE
1002
{
1070
             279
1070
               2
1070
             340
1005
35
1070
             147
1040
5.0
1002
}
  0
DIMENSION
  5
156
100
AcDbEntity
  8
notes
370
               5
390
0
  6
Continuous
 62
               7
100
AcDbDimension
  2
*D7
 10
-796.49397778106754
 20
-367.02266986728125
 30
0.0
 11
-796.49397778106754
 21
-337.0226698672808
 31
0.0
 71
               5
 72
               1
 41
1.0
 42
0.0
  3
tfrom線あり
100
AcDbAlignedDimension
 13
-687.42067356691234
 23
-307.02266986728046
 33
0.0
 14
-627.42067356691234
 24
-367.02266986728125
 34
0.0
 50
90.0
100
AcDbRotatedDimension
1001
ACAD
1000
DSTYLE
1002
{
1070
             279
1070
               2
1070
             340
1005
35
1070
             147
1040
5.0
1002
}
  0
DIMENSION
  5
157
100
AcDbEntity
  8
notes
370
               5
390
0
  6
Continuous
 62
               7
100
AcDbDimension
  2
*D8
 10
-167.42067356691177
 20
-157.02266986728046
 30
0.0
 11
-437.420673566912
 21
-157.02266986728046
 31
0.0
 71
               5
 72
               1
 41
1.0
 42
0.0
  3
tfrom線あり
100
AcDbAlignedDimension
 13
-707.42067356691234
 23
-307.02266986728046
 33
0.0
 14
-167.42067356691177
 24
-307.02266986728046
 34
0.0
100
AcDbRotatedDimension
1001
ACAD
1000
DSTYLE
1002
{
1070
             279
1070
               2
1070
             340
1005
35
1070
             147
1040
5.0
1002
}
  0
DIMENSION
  5
158
100
AcDbEntity
  8
notes
370
               5
390
0
  6
Continuous
 62
               7
100
AcDbDimension
  2
*D9
 10
-707.42067356691234
 20
-207.02266986728046
 30
0.0
 11
-657.42067356691234
 21
-207.02266986728046
 31
0.0
 71
               5
 72
               1
 41
1.0
 42
0.0
  3
tfrom線あり
100
AcDbAlignedDimension
 13
-607.42067356691234
 23
-307.02266986728046
 33
0.0
 14
-707.42067356691234
 24
-307.02266986728046
 34
0.0
100
AcDbRotatedDimension
1001
ACAD
1000
DSTYLE
1002
{
1070
             279
1070
               2
1070
             340
1005
35
1070
             147
1040
5.0
1002
}
  0
DIMENSION
  5
159
100
AcDbEntity
  8
notes
370
               5
390
0
  6
Continuous
 62
               7
100
AcDbDimension
  2
*D10
 10
-167.42067356691177
 20
-207.02266986728046
 30
0.0
 11
-217.4206735669116
 21
-207.02266986728046
 31
0.0
 71
               5
 72
               1
 41
1.0
 42
0.0
  3
tfrom線あり
100
AcDbAlignedDimension
 13
-267.42067356691143
 23
-307.02266986728046
 33
0.0
 14
-167.42067356691177
 24
-307.02266986728046
 34
0.0
100
AcDbRotatedDimension
1001
ACAD
1000
DSTYLE
1002
{
1070
             279
1070
               2
1070
             340
1005
35
1070
             147
1040
5.0
1002
}
  0
DIMENSION
  5
15A
100
AcDbEntity
  8
notes
370
               5
390
0
  6
Continuous
 62
               7
100
AcDbDimension
  2
*D11
 10
467.23317022734153
 20
-307.02190781411298
 30
0.0
 11
472.23317022734153
 21
-299.51635431464774
 31
0.0
 70
             128
 71
               5
 72
               1
 41
1.0
 42
0.0
  3
tfrom線あり
100
AcDbAlignedDimension
 13
462.23317022734153
 23
-397.02190781411389
 33
0.0
 14
462.23317022734153
 24
-307.02190781411298
 34
0.0
 50
90.0
100
AcDbRotatedDimension
1001
ACAD
1000
DSTYLE
1002
{
1070
             279
1070
               2
1070
             340
1005
35
1070
               3
1000
<>(深さ)
1070
             174
1070
               0
1070
             147
1040
5.0
1002
}
  0
DIMENSION
  5
15B
100
AcDbEntity
  8
notes
370
               5
390
0
  6
Continuous
 62
               7
100
AcDbDimension
  2
*D12
 10
-67.393977781066951
 20
822.84140692890185
 30
0.0
 11
-67.393977781066951
 21
645.34140692890287
 31
0.0
 71
               5
 72
               1
 41
1.0
 42
0.0
  3
tfrom線あり
100
AcDbAlignedDimension
 13
-165.49397778106731
 23
467.84140692890378
 33
0.0
 14
-165.49397778106731
 24
822.84140692890185
 34
0.0
 50
90.0
100
AcDbRotatedDimension
1001
ACAD
1000
DSTYLE
1002
{
1070
             279
1070
               2
1070
             340
1005
35
1070
             147
1040
5.0
1002
}
  0
DIMENSION
  5
15C
100
AcDbEntity
  8
notes
370
               5
390
0
  6
Continuous
 62
               7
100
AcDbDimension
  2
*D13
 10
-67.420673566911773
 20
-307.02266986728046
 30
0.0
 11
-67.420673566911773
 21
-369.52637235988766
 31
0.0
 71
               5
 72
               1
 41
1.0
 42
0.0
  3
tfrom線あり
100
AcDbAlignedDimension
 13
-192.41887697747234
 23
-432.03007485249475
 33
0.0
 14
-167.42067356691177
 24
-307.02266986728046
 34
0.0
 50
90.0
100
AcDbRotatedDimension
1001
ACAD
1000
DSTYLE
1002
{
1070
             279
1070
               2
1070
             340
1005
35
1070
             147
1040
5.0
1002
}
  0
DIMENSION
  5
15D
100
AcDbEntity
  8
notes
370
               5
390
0
  6
Continuous
 62
               7
100
AcDbDimension
  2
*D14
 10
-192.41887697747234
 20
-582.03007485249475
 30
0.0
 11
-442.67067011391504
 21
-577.03007485249475
 31
0.0
 70
             128
 71
               5
 72
               1
 41
1.0
 42
0.0
  3
tfrom線あり
100
AcDbAlignedDimension
 13
-682.41887697747291
 23
-432.03007485249475
 33
0.0
 14
-192.41887697747234
 24
-432.03007485249475
 34
0.0
100
AcDbRotatedDimension
1001
ACAD
1000
DSTYLE
1002
{
1070
             279
1070
               2
1070
             340
1005
35
1070
             147
1040
5.0
1002
}
  0
DIMENSION
  5
15E
100
AcDbEntity
  8
notes
370
               5
390
0
  6
Continuous
 62
               7
100
AcDbDimension
  2
*D15
 10
-707.42067356691234
 20
-532.03007485249384
 30
0.0
 11
-602.420673566912
 21
-532.03007485249384
 31
0.0
 71
               5
 72
               1
 41
1.0
 42
0.0
  3
tfrom線あり
100
AcDbAlignedDimension
 13
-497.4206735669116
 23
-427.02266986728137
 33
0.0
 14
-707.42067356691234
 24
-307.02266986728046
 34
0.0
100
AcDbRotatedDimension
1001
ACAD
1000
DSTYLE
1002
{
1070
             279
1070
               2
1070
             340
1005
35
1070
             147
1040
5.0
1002
}
  0
DIMENSION
  5
15F
100
AcDbEntity
  8
notes
370
               5
390
0
  6
Continuous
 62
               7
100
AcDbDimension
  2
*D16
 10
686.23317022734045
 20
-532.02931279932727
 30
0.0
 11
576.23317022734102
 21
-532.02931279932727
 31
0.0
 71
               5
 72
               1
 41
1.0
 42
0.0
  3
tfrom線あり
100
AcDbAlignedDimension
 13
466.23317022734153
 23
-427.02190781411389
 33
0.0
 14
686.23317022734045
 24
-427.02190781411389
 34
0.0
100
AcDbRotatedDimension
1001
ACAD
1000
DSTYLE
1002
{
1070
             279
1070
               2
1070
             340
1005
35
1070
             147
1040
5.0
1002
}
  0
DIMENSION
  5
160
100
AcDbEntity
  8
notes
370
               5
390
0
  6
Continuous
 62
               7
100
AcDbDimension
  2
*D17
 10
804.28370018290866
 20
822.82398337189534
 30
0.0
 11
804.28370018290866
 21
687.82398337189625
 31
0.0
 71
               5
 72
               1
 41
1.0
 42
0.0
  3
tfrom線あり
100
AcDbAlignedDimension
 13
649.38112302252728
 23
552.82398337189727
 33
0.0
 14
649.38112302252728
 24
822.82398337189534
 34
0.0
 50
90.0
100
AcDbRotatedDimension
1001
ACAD
1000
DSTYLE
1002
{
1070
             279
1070
               2
1070
             340
1005
35
1070
             147
1040
5.0
1002
}
  0
DIMENSION
  5
161
100
AcDbEntity
  8
notes
370
               5
390
0
  6
Continuous
 62
               7
100
AcDbDimension
  2
*D18
 10
686.23317022734045
 20
-582.02931279932727
 30
0.0
 11
503.73317022734102
 21
-582.02931279932727
 31
0.0
 71
               5
 72
               1
 41
1.0
 42
0.0
  3
tfrom線あり
100
AcDbAlignedDimension
 13
321.23317022734153
 23
-427.02190781411389
 33
0.0
 14
686.23317022734045
 24
-427.02190781411389
 34
0.0
100
AcDbRotatedDimension
1001
ACAD
1000
DSTYLE
1002
{
1070
             279
1070
               2
1070
             340
1005
35
1070
             147
1040
5.0
1002
}
  0
DIMENSION
  5
162
100
AcDbEntity
  8
notes
370
               5
390
0
  6
Continuous
 62
               7
100
AcDbDimension
  2
*D19
 10
209.23256464347321
 20
-417.02190781411389
 30
0.0
 11
209.23256464347321
 21
-362.02561030672018
 31
0.0
 71
               5
 72
               1
 41
1.0
 42
0.0
  3
tfrom線あり
100
AcDbAlignedDimension
 13
266.23438139507783
 23
-307.02931279932648
 33
0.0
 14
436.23317022734153
 24
-417.02190781411389
 34
0.0
 50
90.0
100
AcDbRotatedDimension
1001
ACAD
1000
DSTYLE
1002
{
1070
             279
1070
               2
1070
             340
1005
35
1070
             147
1040
5.0
1002
}
  0
MTEXT
  5
163
100
AcDbEntity
  8
notes
390
0
 62
               7
100
AcDbMText
 10
-139.53600657131656
 20
-221.67385128159606
 30
0.0
 40
24.432617187500004
 41
0.0
 71
               1
 72
               1
  1
壁取付ボルト穴(2ヶ所)
  7
ＭＳ ゴシック
 73
               1
 44
0.7828267384257843
  0
LINE
  5
164
100
AcDbEntity
  8
notes
370
               5
390
0
  6
Continuous
 62
               7
100
AcDbLine
 10
-267.42067356691143
 20
-367.02266986728125
 30
0.0
 11
-127.47251241273884
 21
-251.68371028775982
 31
0.0
  0
MTEXT
  5
165
100
AcDbEntity
  8
notes
390
0
 62
               7
100
AcDbMText
 10
271.02515976641905
 20
1045.5992602761842
 30
0.0
 40
24.432617187500004
 41
0.0
 71
               1
 72
               1
  1
カウンター切込寸法
  7
ＭＳ ゴシック
 73
               1
 44
0.7828267384257843
  0
MTEXT
  5
166
100
AcDbEntity
  8
notes
390
0
 62
               7
100
AcDbMText
 10
-670.90713394140914
 20
159.75261718749999
 30
0.0
 40
24.432617187500004
 41
1301.8142678828183
 71
               1
 72
               1
  1
製品によって多少の寸法公差があります。必ず現物を合わせて取り付けやカウンターの切込を行ってください。
  7
ＭＳ ゴシック
 73
               1
 44
1.1742401076386764
  0
LINE
  5
167
100
AcDbEntity
  8
KUF70-0002
370
              15
390
0
  6
STYLE_12
 62
               7
100
AcDbLine
 10
-467.39397778106644
 20
-417.02266986728137
 30
0.0
 11
-527.39397778106718
 21
-417.02266986728137
 31
0.0
  0
LINE
  5
168
100
AcDbEntity
  8
KUF70-0002
370
              15
390
0
  6
STYLE_12
 62
               7
100
AcDbLine
 10
436.23438139507806
 20
-397.02190781411389
 30
0.0
 11
436.23438139507806
 21
-417.02190781411389
 31
0.0
  0
SPLINE
  5
169
100
AcDbEntity
  8
KUF70-0002
370
              15
390
0
  6
STYLE_12
 62
               7
100
AcDbSpline
210
0.0
220
0.0
230
1.0
 70
               8
 71
               2
 72
               7
 73
               4
 74
               0
 42
0.000001
 43
0.000001
 40
0.0
 40
0.0
 40
0.0
 40
1.0
 40
2.0
 40
2.0
 40
2.0
 10
436.23438139507806
 20
-397.02190781411389
 30
0.0
 10
360.86678578743903
 20
-387.3030153390572
 30
0.0
 10
294.20389772874989
 20
-323.29352434836085
 30
0.0
 10
275.3343813950778
 20
-307.02190781411298
 30
0.0
  0
SPLINE
  5
16A
100
AcDbEntity
  8
KUF70-0002
370
              15
390
0
  6
STYLE_12
 62
               7
100
AcDbSpline
210
0.0
220
0.0
230
1.0
 70
               8
 71
               2
 72
               7
 73
               4
 74
               0
 42
0.000001
 43
0.000001
 40
0.0
 40
0.0
 40
0.0
 40
1.0
 40
2.0
 40
2.0
 40
2.0
 10
-467.39397778106644
 20
-397.02266986728137
 30
0.0
 10
-401.28397725169259
 20
-398.3824270239694
 30
0.0
 10
-327.73640429933067
 20
-307.64792855936565
 30
0.0
 10
-306.49397778106658
 20
-307.02266986728046
 30
0.0
  0
SPLINE
  5
16B
100
AcDbEntity
  8
KUF70-0002
370
              15
390
0
  6
STYLE_12
 62
               7
100
AcDbSpline
210
0.0
220
0.0
230
1.0
 70
               8
 71
               2
 72
               7
 73
               4
 74
               0
 42
0.000001
 43
0.000001
 40
0.0
 40
0.0
 40
0.0
 40
1.0
 40
2.0
 40
2.0
 40
2.0
 10
-527.39397778106718
 20
-397.02266986728137
 30
0.0
 10
-593.50397831044188
 20
-398.3824270239694
 30
0.0
 10
-667.0515512628034
 20
-307.64792855936565
 30
0.0
 10
-688.29397778106761
 20
-307.02266986728046
 30
0.0
  0
LINE
  5
16C
100
AcDbEntity
  8
KUF70-0002
370
              15
390
0
  6
STYLE_12
 62
               7
100
AcDbLine
 10
-527.39397778106718
 20
-397.02266986728137
 30
0.0
 11
-527.39397778106718
 21
-417.02266986728137
 31
0.0
  0
CIRCLE
  5
16D
100
AcDbEntity
  8
KUF70-0002
370
              15
390
0
  6
Continuous
 62
               7
100
AcDbCircle
 10
-507.42067356691172
 20
602.82199665003282
 30
0.0
 40
25.000000000000341
  0
POLYLINE
  5
16E
100
AcDbEntity
  8
KUF70-0002
370
              15
390
0
  6
Continuous
 62
               7
100
AcDb2dPolyline
 66
               1
 10
0.0
 20
0.0
 30
0.0
 70
               1
 75
               5
  0
VERTEX
  5
16F
100
AcDbEntity
  8
KUF70-0002
370
              15
390
0
  6
Continuous
 62
               7
100
AcDbVertex
100
AcDb2dVertex
 10
-707.42067356691234
 20
-307.02266986728046
 30
0.0
  0
VERTEX
  5
170
100
AcDbEntity
  8
KUF70-0002
370
              15
390
0
  6
Continuous
 62
               7
100
AcDbVertex
100
AcDb2dVertex
 10
-167.42067356691177
 20
-307.02266986728046
 30
0.0
  0
VERTEX
  5
171
100
AcDbEntity
  8
KUF70-0002
370
              15
390
0
  6
Continuous
 62
               7
100
AcDbVertex
100
AcDb2dVertex
 10
-192.41887697747234
 20
-432.03007485249475
 30
0.0
  0
VERTEX
  5
172
100
AcDbEntity
  8
KUF70-0002
370
              15
390
0
  6
Continuous
 62
               7
100
AcDbVertex
100
AcDb2dVertex
 10
-682.41887697747291
 20
-432.03007485249475
 30
0.0
  0
SEQEND
  5
173
100
AcDbEntity
  8
KUF70-0002
370
              15
390
0
  6
Continuous
 62
               7
  0
LINE
  5
174
100
AcDbEntity
  8
KUF70-0002
370
              15
390
0
  6
STYLE_12
 62
               7
100
AcDbLine
 10
-607.42067356691234
 20
-387.02266986728137
 30
0.0
 11
-607.42067356691234
 21
-347.02266986728091
 31
0.0
  0
LINE
  5
175
100
AcDbEntity
  8
KUF70-0002
370
              15
390
0
  6
STYLE_12
 62
               7
100
AcDbLine
 10
-587.42067356691234
 20
-367.02266986728125
 30
0.0
 11
-627.42067356691234
 21
-367.02266986728125
 31
0.0
  0
CIRCLE
  5
176
100
AcDbEntity
  8
KUF70-0002
370
              15
390
0
  6
STYLE_12
 62
               7
100
AcDbCircle
 10
-607.42067356691234
 20
-367.02266986728125
 30
0.0
 40
10.0
  0
LINE
  5
177
100
AcDbEntity
  8
KUF70-0002
370
              15
390
0
  6
STYLE_12
 62
               7
100
AcDbLine
 10
-267.42067356691143
 20
-387.02266986728137
 30
0.0
 11
-267.42067356691143
 21
-347.02266986728091
 31
0.0
  0
LINE
  5
178
100
AcDbEntity
  8
KUF70-0002
370
              15
390
0
  6
STYLE_12
 62
               7
100
AcDbLine
 10
-247.42067356691155
 20
-367.02266986728125
 30
0.0
 11
-287.42067356691132
 21
-367.02266986728125
 31
0.0
  0
CIRCLE
  5
179
100
AcDbEntity
  8
KUF70-0002
370
              15
390
0
  6
STYLE_12
 62
               7
100
AcDbCircle
 10
-267.42067356691143
 20
-367.02266986728125
 30
0.0
 40
9.9999999999999432
  0
POLYLINE
  5
17A
100
AcDbEntity
  8
KUF70-0002
370
              15
390
0
  6
Continuous
 62
               7
100
AcDb2dPolyline
 66
               1
 10
0.0
 20
0.0
 30
0.0
 70
               1
 75
               5
  0
VERTEX
  5
17B
100
AcDbEntity
  8
KUF70-0002
370
              15
390
0
  6
Continuous
 62
               7
100
AcDbVertex
100
AcDb2dVertex
 10
686.23317022734045
 20
-307.02190781411298
 30
0.0
  0
VERTEX
  5
17C
100
AcDbEntity
  8
KUF70-0002
370
              15
390
0
  6
Continuous
 62
               7
100
AcDbVertex
100
AcDb2dVertex
 10
266.23438139507783
 20
-307.02931279932648
 30
0.0
  0
VERTEX
  5
17D
100
AcDbEntity
  8
KUF70-0002
370
              15
390
0
  6
Continuous
 62
               7
100
AcDbVertex
100
AcDb2dVertex
 10
321.23438139507806
 20
-432.02931279932739
 30
0.0
  0
VERTEX
  5
17E
100
AcDbEntity
  8
KUF70-0002
370
              15
390
0
  6
Continuous
 62
               7
100
AcDbVertex
100
AcDb2dVertex
 10
686.23438139507698
 20
-432.02931279932739
 30
0.0
  0
SEQEND
  5
17F
100
AcDbEntity
  8
KUF70-0002
370
              15
390
0
  6
Continuous
 62
               7
  0
LINE
  5
180
100
AcDbEntity
  8
KUF70-0002
370
              15
390
0
  6
STYLE_12
 62
               7
100
AcDbLine
 10
-467.39397778106644
 20
-397.02266986728137
 30
0.0
 11
-467.39397778106644
 21
-417.02266986728137
 31
0.0
  0
LINE
  5
181
100
AcDbEntity
  8
KUF70-0002
370
              15
390
0
  6
STYLE_12
 62
               7
100
AcDbLine
 10
496.23317022734125
 20
-397.02190781411389
 30
0.0
 11
496.23317022734125
 21
-417.02190781411389
 31
0.0
  0
CIRCLE
  5
182
100
AcDbEntity
  8
KUF70-0002
370
               5
390
0
  6
STYLE_12
 62
               7
100
AcDbCircle
 10
364.25700439706503
 20
602.82199665003282
 30
0.0
 40
25.0
  0
POLYLINE
  5
183
100
AcDbEntity
  8
KUF70-0002
370
              15
390
0
  6
Continuous
 62
               7
100
AcDb2dPolyline
 66
               1
 10
0.0
 20
0.0
 30
0.0
 70
               1
 75
               5
  0
VERTEX
  5
184
100
AcDbEntity
  8
KUF70-0002
370
              15
390
0
  6
Continuous
 62
               7
100
AcDbVertex
100
AcDb2dVertex
 10
219.38112302252785
 20
822.82398337189534
 30
0.0
  0
VERTEX
  5
185
100
AcDbEntity
  8
KUF70-0002
370
              15
390
0
  6
Continuous
 62
               7
100
AcDbVertex
100
AcDb2dVertex
 10
649.38112302252728
 20
822.82398337189534
 30
0.0
  0
VERTEX
  5
186
100
AcDbEntity
  8
KUF70-0002
370
              15
390
0
  6
Continuous
 62
               7
100
AcDbVertex
100
AcDb2dVertex
 10
649.38112302252728
 20
552.82398337189727
 30
0.0
  0
VERTEX
  5
187
100
AcDbEntity
  8
KUF70-0002
370
              15
390
0
  6
Continuous
 62
               7
100
AcDbVertex
100
AcDb2dVertex
 10
219.38112302252785
 20
552.82398337189727
 30
0.0
  0
SEQEND
  5
188
100
AcDbEntity
  8
KUF70-0002
370
              15
390
0
  6
Continuous
 62
               7
  0
LINE
  5
189
100
AcDbEntity
  8
KUF70-0002
370
              15
390
0
  6
STYLE_12
 62
               7
100
AcDbLine
 10
496.23317022734125
 20
-417.02190781411389
 30
0.0
 11
436.23317022734153
 21
-417.02190781411389
 31
0.0
  0
SPLINE
  5
18A
100
AcDbEntity
  8
KUF70-0002
370
              15
390
0
  6
Continuous
 62
               7
100
AcDbSpline
210
0.0
220
0.0
230
1.0
 70
               8
 71
               2
 72
               7
 73
               4
 74
               0
 42
0.000001
 43
0.000001
 40
0.0
 40
0.0
 40
0.0
 40
1.0
 40
2.0
 40
2.0
 40
2.0
 10
-707.39940679002336
 20
444.59528757053289
 30
0.0
 10
-498.31411033454589
 20
375.36713796118408
 30
0.0
 10
-226.5156272476197
 20
460.89655322613089
 30
0.0
 10
-167.39397778106695
 20
467.84219242685481
 30
0.0
  0
SPLINE
  5
18B
100
AcDbEntity
  8
KUF70-0002
370
              15
390
0
  6
STYLE_12
 62
               7
100
AcDbSpline
210
0.0
220
0.0
230
1.0
 70
               8
 71
               2
 72
               7
 73
               4
 74
               0
 42
0.000001
 43
0.000001
 40
0.0
 40
0.0
 40
0.0
 40
1.0
 40
2.0
 40
2.0
 40
2.0
 10
496.23317022734125
 20
-397.02190781411389
 30
0.0
 10
571.60076583497948
 20
-387.3030153390572
 30
0.0
 10
638.26365389366811
 20
-323.29352434836085
 30
0.0
 10
657.13317022734054
 20
-307.02190781411298
 30
0.0
  0
LINE
  5
18C
100
AcDbEntity
  8
KUF70-0002
370
              15
390
0
  6
Continuous
 62
               7
100
AcDbLine
 10
-707.42067356691234
 20
822.82199665003145
 30
0.0
 11
-167.39397778106695
 21
822.84219242685299
 31
0.0
  0
LINE
  5
18D
100
AcDbEntity
  8
KUF70-0002
370
              15
390
0
  6
Continuous
 62
               7
100
AcDbLine
 10
-167.39397778106695
 20
822.84219242685299
 30
0.0
 11
-167.39397778106695
 21
467.84219242685481
 31
0.0
  0
LINE
  5
18E
100
AcDbEntity
  8
KUF70-0002
370
              15
390
0
  6
Continuous
 62
               7
100
AcDbLine
 10
-707.42067356691234
 20
822.82199665003145
 30
0.0
 11
-707.39940679002336
 21
442.82322336302434
 31
0.0
  0
SPLINE
  5
18F
100
AcDbEntity
  8
KUF70-0002
370
               5
390
0
  6
STYLE_12
 62
               7
100
AcDbSpline
210
0.0
220
0.0
230
1.0
 70
               8
 71
               2
 72
               7
 73
               4
 74
               0
 42
0.000001
 43
0.000001
 40
0.0
 40
0.0
 40
0.0
 40
1.0
 40
2.0
 40
2.0
 40
2.0
 10
164.27908943746752
 20
444.59181928071229
 30
0.0
 10
373.36438589294539
 20
375.36366967136371
 30
0.0
 10
645.16286897986913
 20
460.89308493631017
 30
0.0
 10
704.28451844642257
 20
467.83872413703443
 30
0.0
  0
LINE
  5
190
100
AcDbEntity
  8
KUF70-0002
370
               5
390
0
  6
STYLE_12
 62
               7
100
AcDbLine
 10
164.25782266057831
 20
822.81852836021096
 30
0.0
 11
704.28451844642257
 21
822.8387241370325
 31
0.0
  0
LINE
  5
191
100
AcDbEntity
  8
KUF70-0002
370
               5
390
0
  6
STYLE_12
 62
               7
100
AcDbLine
 10
704.28451844642257
 20
822.8387241370325
 30
0.0
 11
704.28451844642257
 21
467.83872413703443
 31
0.0
  0
LINE
  5
192
100
AcDbEntity
  8
KUF70-0002
370
               5
390
0
  6
STYLE_12
 62
               7
100
AcDbLine
 10
164.25782266057831
 20
822.81852836021096
 30
0.0
 11
164.27908943746752
 21
442.81975507320385
 31
0.0
  0
ENDSEC
  0
SECTION
  2
OBJECTS
  0
DICTIONARY
  5
19
100
AcDbDictionary
280
               0
281
               1
  3
ACAD_GROUP
350
1A
  3
ACAD_MLINESTYLE
350
1B
  3
ACAD_LAYOUT
350
1E
  3
ACAD_PLOTSETTINGS
350
22
  3
ACAD_PLOTSTYLENAME
350
1F
  0
DICTIONARY
  5
1A
102
{ACAD_REACTORS
330
19
102
}
100
AcDbDictionary
280
               0
281
               1
  0
DICTIONARY
  5
1B
102
{ACAD_REACTORS
330
19
102
}
100
AcDbDictionary
280
               0
281
               1
  3
Standard
350
1C
  0
MLINESTYLE
  5
1C
102
{ACAD_REACTORS
330
1B
102
}
100
AcDbMlineStyle
  2
Standard
 70
               0
  3

 62
               0
 51
90.0
 52
90.0
 71
               2
 49
0.5
 62
             256
  6
ByLayer
 49
-0.5
 62
             256
  6
ByLayer
  0
ACDBDICTIONARYWDFLT
  5
1F
102
{ACAD_REACTORS
330
19
102
}
100
AcDbDictionary
281
               1
  3
Normal
350
1D
100
AcDbDictionaryWithDefault
340
1D
  0
ACDBPLACEHOLDER
  5
1D
102
{ACAD_REACTORS
330
1F
102
}
  0
LAYOUT
  5
20
102
{ACAD_REACTORS
330
1E
102
}
100
AcDbPlotSettings
  1

  2

  4

  6

 40
0.0
 41
0.0
 42
0.0
 43
0.0
 44
0.0
 45
0.0
 46
0.0
 47
0.0
 48
0.0
 49
0.0
140
0.0
141
0.0
142
1.0
143
1.0
 70
            1024
 72
               0
 73
               0
 74
               0
  7

 75
               0
147
1.0
148
0.0
149
0.0
100
AcDbLayout
  1
Model
 70
               0
 71
               0
 10
0.0
 20
0.0
 11
0.0
 21
0.0
 12
0.0
 22
0.0
 32
0.0
 14
0.0
 24
0.0
 34
0.0
 15
0.0
 25
0.0
 35
0.0
146
0.0
 13
0.0
 23
0.0
 33
0.0
 16
0.0
 26
0.0
 36
0.0
 17
0.0
 27
0.0
 37
0.0
 76
               0
330
A
331
0
345
0
346
0
  0
LAYOUT
  5
21
102
{ACAD_REACTORS
330
1E
102
}
100
AcDbPlotSettings
  1

  2

  4

  6

 40
0.0
 41
0.0
 42
0.0
 43
0.0
 44
0.0
 45
0.0
 46
0.0
 47
0.0
 48
0.0
 49
0.0
140
0.0
141
0.0
142
1.0
143
1.0
 70
               0
 72
               0
 73
               0
 74
               0
  7

 75
               0
147
1.0
148
0.0
149
0.0
100
AcDbLayout
  1
Layout1
 70
               0
 71
               0
 10
0.0
 20
0.0
 11
0.0
 21
0.0
 12
0.0
 22
0.0
 32
0.0
 14
0.0
 24
0.0
 34
0.0
 15
0.0
 25
0.0
 35
0.0
146
0.0
 13
0.0
 23
0.0
 33
0.0
 16
0.0
 26
0.0
 36
0.0
 17
0.0
 27
0.0
 37
0.0
 76
               0
330
B
331
0
345
0
346
0
  0
DICTIONARY
  5
1E
102
{ACAD_REACTORS
330
19
102
}
100
AcDbDictionary
280
               0
281
               1
  3
Layout1
350
21
  3
Model
350
20
  0
DICTIONARY
  5
22
102
{ACAD_REACTORS
330
19
102
}
100
AcDbDictionary
280
               0
281
               1
  0
ENDSEC
  0
EOF
