  0
SECTION
  2
HEADER
  9
$ACADVER
  1
AC1015
  9
$ACADMAINTVER
 70
               6
  9
$DWGCODEPAGE
  3
ANSI_932
  9
$INSBASE
 10
0.0
 20
0.0
 30
0.0
  9
$EXTMIN
 10
-975.00000000024124
 20
-1431.5255224711129
 30
-14.834305555555554
  9
$EXTMAX
 10
975.00000000024124
 20
1405.9972926412995
 30
14.834305555555554
  9
$LIMMIN
 10
0.0
 20
0.0
  9
$LIMMAX
 10
0.0
 20
0.0
  9
$ORTHOMODE
 70
               0
  9
$REGENMODE
 70
               1
  9
$FILLMODE
 70
               1
  9
$QTEXTMODE
 70
               0
  9
$MIRRTEXT
 70
               1
  9
$LTSCALE
 40
50.799999999999997
  9
$ATTMODE
 70
               1
  9
$TEXTSIZE
 40
0.2
  9
$TRACEWID
 40
1.0
  9
$TEXTSTYLE
  7
Standard
  9
$CLAYER
  8
notes
  9
$CELTYPE
  6
Continuous
  9
$CECOLOR
 62
             256
  9
$CELTSCALE
 40
1.0
  9
$DISPSILH
 70
               0
  9
$DIMSCALE
 40
1.0
  9
$DIMASZ
 40
31.75
  9
$DIMEXO
 40
0.0
  9
$DIMDLI
 40
6.9999999999999396
  9
$DIMRND
 40
0.0
  9
$DIMDLE
 40
0.0
  9
$DIMEXE
 40
19.999999999996199
  9
$DIMTP
 40
0.0
  9
$DIMTM
 40
0.0
  9
$DIMTXT
 40
24.432617187500004
  9
$DIMCEN
 40
0.0
  9
$DIMTSZ
 40
0.0
  9
$DIMTOL
 70
               0
  9
$DIMLIM
 70
               0
  9
$DIMTIH
 70
               0
  9
$DIMTOH
 70
               0
  9
$DIMSE1
 70
               0
  9
$DIMSE2
 70
               0
  9
$DIMTAD
 70
               1
  9
$DIMZIN
 70
              11
  9
$DIMBLK
  1
VW_FILLEDARROW
  9
$DIMASO
 70
               1
  9
$DIMSHO
 70
               1
  9
$DIMPOST
  1
<>
  9
$DIMAPOST
  1
[]
  9
$DIMALT
 70
               0
  9
$DIMALTD
 70
               1
  9
$DIMALTF
 40
1.0
  9
$DIMLFAC
 40
1.0
  9
$DIMTOFL
 70
               0
  9
$DIMTVP
 40
0.0
  9
$DIMTIX
 70
               1
  9
$DIMSOXD
 70
               0
  9
$DIMSAH
 70
               0
  9
$DIMBLK1
  1

  9
$DIMBLK2
  1

  9
$DIMSTYLE
  2
JIS
  9
$DIMCLRD
 70
               0
  9
$DIMCLRE
 70
               0
  9
$DIMCLRT
 70
               0
  9
$DIMTFAC
 40
1.0
  9
$DIMGAP
 40
1.00000000000108
  9
$DIMJUST
 70
               0
  9
$DIMSD1
 70
               0
  9
$DIMSD2
 70
               0
  9
$DIMTOLJ
 70
               1
  9
$DIMTZIN
 70
              11
  9
$DIMALTZ
 70
              11
  9
$DIMALTTZ
 70
              11
  9
$DIMUPT
 70
               0
  9
$DIMDEC
 70
               1
  9
$DIMTDEC
 70
               1
  9
$DIMALTU
 70
               2
  9
$DIMALTTD
 70
               2
  9
$DIMTXSTY
  7
ＭＳ ゴシック
  9
$DIMAUNIT
 70
               0
  9
$DIMADEC
 70
               2
  9
$DIMALTRND
 40
0.0
  9
$DIMAZIN
 70
               0
  9
$DIMDSEP
 70
              46
  9
$DIMATFIT
 70
               0
  9
$DIMFRAC
 70
               2
  9
$DIMLDRBLK
  1

  9
$DIMLUNIT
 70
               2
  9
$DIMLWD
 70
              -2
  9
$DIMLWE
 70
              -2
  9
$DIMTMOVE
 70
               0
  9
$LUNITS
 70
               2
  9
$LUPREC
 70
               4
  9
$SKETCHINC
 40
0.1
  9
$FILLETRAD
 40
0.0
  9
$AUNITS
 70
               0
  9
$AUPREC
 70
               0
  9
$MENU
  1
acad
  9
$ELEVATION
 40
0.0
  9
$PELEVATION
 40
0.0
  9
$THICKNESS
 40
0.0
  9
$LIMCHECK
 70
               0
  9
$CHAMFERA
 40
0.0
  9
$CHAMFERB
 40
0.0
  9
$CHAMFERC
 40
0.0
  9
$CHAMFERD
 40
0.0
  9
$SKPOLY
 70
               0
  9
$TDCREATE
 40
2456265.503148148
  9
$TDUCREATE
 40
0.000000000
  9
$TDUPDATE
 40
2456265.503148148
  9
$TDUUPDATE
 40
0.000000000
  9
$TDINDWG
 40
0.0000000000
  9
$TDUSRTIMER
 40
0.0000000000
  9
$USRTIMER
 70
               1
  9
$ANGBASE
 50
0.0
  9
$ANGDIR
 70
               0
  9
$PDMODE
 70
               1
  9
$PDSIZE
 40
-2.0
  9
$PLINEWID
 40
0.0
  9
$SPLFRAME
 70
               0
  9
$SPLINETYPE
 70
               6
  9
$SPLINESEGS
 70
               8
  9
$HANDSEED
  5
16F
  9
$SURFTAB1
 70
               6
  9
$SURFTAB2
 70
               6
  9
$SURFTYPE
 70
               6
  9
$SURFU
 70
               6
  9
$SURFV
 70
               6
  9
$UCSBASE
  2

  9
$UCSNAME
  2

  9
$UCSORG
 10
0.0
 20
0.0
 30
0.0
  9
$UCSXDIR
 10
1.0
 20
0.0
 30
0.0
  9
$UCSYDIR
 10
0.0
 20
1.0
 30
0.0
  9
$UCSORTHOREF
  2

  9
$UCSORTHOVIEW
 70
               0
  9
$UCSORGTOP
 10
0.0
 20
0.0
 30
0.0
  9
$UCSORGBOTTOM
 10
0.0
 20
0.0
 30
0.0
  9
$UCSORGLEFT
 10
0.0
 20
0.0
 30
0.0
  9
$UCSORGRIGHT
 10
0.0
 20
0.0
 30
0.0
  9
$UCSORGFRONT
 10
0.0
 20
0.0
 30
0.0
  9
$UCSORGBACK
 10
0.0
 20
0.0
 30
0.0
  9
$PUCSBASE
  2

  9
$PUCSNAME
  2

  9
$PUCSORG
 10
0.0
 20
0.0
 30
0.0
  9
$PUCSXDIR
 10
1.0
 20
0.0
 30
0.0
  9
$PUCSYDIR
 10
0.0
 20
1.0
 30
0.0
  9
$PUCSORTHOREF
  2

  9
$PUCSORTHOVIEW
 70
               0
  9
$PUCSORGTOP
 10
0.0
 20
0.0
 30
0.0
  9
$PUCSORGBOTTOM
 10
0.0
 20
0.0
 30
0.0
  9
$PUCSORGLEFT
 10
0.0
 20
0.0
 30
0.0
  9
$PUCSORGRIGHT
 10
0.0
 20
0.0
 30
0.0
  9
$PUCSORGFRONT
 10
0.0
 20
0.0
 30
0.0
  9
$PUCSORGBACK
 10
0.0
 20
0.0
 30
0.0
  9
$USERI1
 70
               0
  9
$USERI2
 70
               0
  9
$USERI3
 70
               0
  9
$USERI4
 70
               0
  9
$USERI5
 70
               0
  9
$USERR1
 40
0.0
  9
$USERR2
 40
0.0
  9
$USERR3
 40
0.0
  9
$USERR4
 40
0.0
  9
$USERR5
 40
0.0
  9
$WORLDVIEW
 70
               1
  9
$SHADEDGE
 70
               3
  9
$SHADEDIF
 70
              70
  9
$TILEMODE
 70
               1
  9
$MAXACTVP
 70
              64
  9
$PINSBASE
 10
0.0
 20
0.0
 30
0.0
  9
$PLIMCHECK
 70
               0
  9
$PEXTMIN
 10
1.0000000000000000E+20
 20
1.0000000000000000E+20
 30
1.0000000000000000E+20
  9
$PEXTMAX
 10
-1.0000000000000000E+20
 20
-1.0000000000000000E+20
 30
-1.0000000000000000E+20
  9
$PLIMMIN
 10
0.0
 20
0.0
  9
$PLIMMAX
 10
12.0
 20
9.0
  9
$UNITMODE
 70
               0
  9
$VISRETAIN
 70
               0
  9
$PLINEGEN
 70
               1
  9
$PSLTSCALE
 70
               0
  9
$TREEDEPTH
 70
            3020
  9
$CMLSTYLE
  2
Standard
  9
$CMLJUST
 70
               0
  9
$CMLSCALE
 40
1.0
  9
$PROXYGRAPHICS
 70
               0
  9
$MEASUREMENT
 70
               1
  9
$CELWEIGHT
370
               0
  9
$ENDCAPS
280
               0
  9
$JOINSTYLE
280
               0
  9
$LWDISPLAY
290
               1
  9
$INSUNITS
 70
               4
  9
$HYPERLINKBASE
  1

  9
$STYLESHEET
  1

  9
$XEDIT
290
               1
  9
$CEPSNTYPE
380
               0
  9
$PSTYLEMODE
290
               1
  9
$FINGERPRINTGUID
  2

  9
$VERSIONGUID
  2

  9
$EXTNAMES
290
               1
  9
$PSVPSCALE
 40
0.0
  0
ENDSEC
  0
SECTION
  2
CLASSES
  0
CLASS
  1
LWPOLYLINE
  2
AcDbPolyline
  3
AutoCAD 2000
 90
        0
280
               0
281
               1
  0
CLASS
  1
IMAGE
  2
AcDbRasterImage
  3
ISM
 90
      127
280
               0
281
               1
  0
CLASS
  1
OLE2FRAME
  2
AcDbOle2Frame
  3
AutoCAD 2000
 90
        0
280
               0
281
               1
  0
CLASS
  1
HATCH
  2
AcDbHatch
  3
AutoCAD 2000
 90
        0
280
               0
281
               1
  0
CLASS
  1
DICTIONARYVAR
  2
AcDbDictionaryVar
  3
AutoCAD 2000
 90
        0
280
               0
281
               0
  0
CLASS
  1
RASTERVARIABLES
  2
AcDbRasterVariables
  3
ISM
 90
        0
280
               0
281
               0
  0
CLASS
  1
IMAGEDEF
  2
AcDbRasterImageDef
  3
ISM
 90
        0
280
               0
281
               0
  0
CLASS
  1
IMAGEDEF_REACTOR
  2
AcDbRasterImageDefReactor
  3
ISM
 90
        1
280
               0
281
               0
  0
CLASS
  1
IDBUFFER
  2
AcDbIdBuffer
  3
AutoCAD 2000
 90
        0
280
               0
281
               0
  0
CLASS
  1
SPATIAL_FILTER
  2
AcDbSpatialFilter
  3
AutoCAD 2000
 90
        0
280
               0
281
               0
  0
CLASS
  1
XRECORD
  2
AcDbXrecord
  3
AutoCAD 2000
 90
        0
280
               0
281
               0
  0
CLASS
  1
SORTENTSTABLE
  2
AcDbSortentsTable
  3
AutoCAD 2000
 90
        0
280
               0
281
               0
  0
CLASS
  1
LAYER_INDEX
  2
AcDbLayerIndex
  3
AutoCAD 2000
 90
        0
280
               0
281
               0
  0
CLASS
  1
SPATIAL_INDEX
  2
AcDbSpatialIndex
  3
AutoCAD 2000
 90
        0
280
               0
281
               0
  0
CLASS
  1
OBJECT_PTR
  2
CAseDLPNTableRecord
  3
"ASE-LPNTableRecord"
 90
        1
280
               0
281
               0
  0
CLASS
  1
LAYOUT
  2
AcDbLayout
  3
AutoCAD 2000
 90
        0
280
               0
281
               0
  0
CLASS
  1
PLOTSETTINGS
  2
AcDbPlotSettings
  3
AutoCAD 2000
 90
        0
280
               0
281
               0
  0
CLASS
  1
ACDBDICTIONARYWDFLT
  2
AcDbDictionaryWithDefault
  3
AutoCAD 2000
 90
        0
280
               0
281
               0
  0
CLASS
  1
ACDBPLACEHOLDER
  2
AcDbPlaceHolder
  3
AutoCAD 2000
 90
        0
280
               0
281
               0
  0
ENDSEC
  0
SECTION
  2
TABLES
  0
TABLE
  2
VPORT
  5
7
100
AcDbSymbolTable
 70
               1
  0
VPORT
  5
15
100
AcDbSymbolTableRecord
100
AcDbViewportTableRecord
  2
*ACTIVE
 70
               0
 10
0.0
 20
0.0
 11
1.0
 21
1.0
 12
0.0
 22
-12.764114914906713
 13
0.0
 23
0.0
 14
1.0
 24
1.0
 15
0.0
 25
0.0
 16
0.0
 26
0.0
 36
1.0
 17
0.0
 27
0.0
 37
0.0
 40
2837.5228151124124
 41
0.688564
 42
50.0
 43
0.0
 44
0.0
 50
0.0
 51
0.0
 71
               0
 72
            2000
 73
               1
 74
               1
 75
               0
 76
               0
 77
               0
 78
               0
281
               0
 65
               0
110
0.0
120
0.0
130
0.0
111
1.0
121
0.0
131
0.0
112
0.0
122
1.0
132
0.0
345
0
346
0
 79
               0
146
0.0
  0
ENDTAB
  0
TABLE
  2
LTYPE
  5
4
100
AcDbSymbolTable
 70
              17
  0
LTYPE
  5
11
100
AcDbSymbolTableRecord
100
AcDbLinetypeTableRecord
  2
ByBlock
 70
              64
  3

 72
              65
 73
               0
 40
0.0
  0
LTYPE
  5
12
100
AcDbSymbolTableRecord
100
AcDbLinetypeTableRecord
  2
ByLayer
 70
              64
  3

 72
              65
 73
               0
 40
0.0
  0
LTYPE
  5
13
100
AcDbSymbolTableRecord
100
AcDbLinetypeTableRecord
  2
Continuous
 70
              64
  3
Solid line
 72
              65
 73
               0
 40
0.0
  0
LTYPE
  5
34
100
AcDbSymbolTableRecord
100
AcDbLinetypeTableRecord
  2
STYLE_01
 70
               0
  3

 72
              65
 73
               2
 40
0.1388888888888889
 49
0.1388888888888889
 74
               0
 49
-0.0005
 74
               0
  0
LTYPE
  5
35
100
AcDbSymbolTableRecord
100
AcDbLinetypeTableRecord
  2
STYLE_02
 70
               0
  3

 72
              65
 73
               2
 40
0.6944250000000001
 49
0.48607
 74
               0
 49
-0.2083550000000001
 74
               0
  0
LTYPE
  5
36
100
AcDbSymbolTableRecord
100
AcDbLinetypeTableRecord
  2
STYLE_03
 70
               0
  3

 72
              65
 73
               2
 40
1.25
 49
1.0416400000000001
 74
               0
 49
-0.2083599999999999
 74
               0
  0
LTYPE
  5
37
100
AcDbSymbolTableRecord
100
AcDbLinetypeTableRecord
  2
STYLE_04
 70
               0
  3

 72
              65
 73
               2
 40
1.5277099999999999
 49
1.3194249999999998
 74
               0
 49
-0.208285
 74
               0
  0
LTYPE
  5
38
100
AcDbSymbolTableRecord
100
AcDbLinetypeTableRecord
  2
STYLE_05
 70
               0
  3

 72
              65
 73
               2
 40
0.20828
 49
0.069425
 74
               0
 49
-0.138855
 74
               0
  0
LTYPE
  5
39
100
AcDbSymbolTableRecord
100
AcDbLinetypeTableRecord
  2
STYLE_06
 70
               0
  3

 72
              65
 73
               4
 40
1.0416400000000001
 49
0.625
 74
               0
 49
-0.20828
 74
               0
 49
0.06943
 74
               0
 49
-0.13893
 74
               0
  0
LTYPE
  5
3A
100
AcDbSymbolTableRecord
100
AcDbLinetypeTableRecord
  2
STYLE_07
 70
               0
  3

 72
              65
 73
               6
 40
1.875
 49
0.625
 74
               0
 49
-0.20828
 74
               0
 49
0.6250000000000001
 74
               0
 49
-0.2083599999999999
 74
               0
 49
0.06943
 74
               0
 49
-0.1389299999999999
 74
               0
  0
LTYPE
  5
3B
100
AcDbSymbolTableRecord
100
AcDbLinetypeTableRecord
  2
STYLE_08
 70
               0
  3

 72
              65
 73
               6
 40
1.25
 49
0.625
 74
               0
 49
-0.20828
 74
               0
 49
0.06943
 74
               0
 49
-0.13893
 74
               0
 49
0.0694299999999999
 74
               0
 49
-0.13893
 74
               0
  0
LTYPE
  5
3C
100
AcDbSymbolTableRecord
100
AcDbLinetypeTableRecord
  2
STYLE_09
 70
               0
  3

 72
              65
 73
               4
 40
5.0
 49
3.75
 74
               0
 49
-0.2777849999999998
 74
               0
 49
0.6944300000000003
 74
               0
 49
-0.2777849999999998
 74
               0
  0
LTYPE
  5
3D
100
AcDbSymbolTableRecord
100
AcDbLinetypeTableRecord
  2
STYLE_10
 70
               0
  3

 72
              65
 73
               6
 40
5.9375
 49
3.75
 74
               0
 49
-0.2777849999999998
 74
               0
 49
0.6944300000000003
 74
               0
 49
-0.2777849999999998
 74
               0
 49
0.625
 74
               0
 49
-0.3125
 74
               0
  0
LTYPE
  5
3E
100
AcDbSymbolTableRecord
100
AcDbLinetypeTableRecord
  2
STYLE_11
 70
               0
  3

 72
              65
 73
               2
 40
0.0694444881889764
 49
0.0347222440944882
 74
               0
 49
-0.0347222440944882
 74
               0
  0
LTYPE
  5
3F
100
AcDbSymbolTableRecord
100
AcDbLinetypeTableRecord
  2
STYLE_12
 70
               0
  3

 72
              65
 73
               2
 40
0.3937007874015748
 49
0.1968503937007874
 74
               0
 49
-0.1968503937007874
 74
               0
  0
LTYPE
  5
40
100
AcDbSymbolTableRecord
100
AcDbLinetypeTableRecord
  2
STYLE_13
 70
               0
  3

 72
              65
 73
               2
 40
0.5905511811023622
 49
0.2952755905511811
 74
               0
 49
-0.2952755905511811
 74
               0
  0
LTYPE
  5
41
100
AcDbSymbolTableRecord
100
AcDbLinetypeTableRecord
  2
STYLE_14
 70
               0
  3

 72
              65
 73
               2
 40
1.9685039370078738
 49
0.9842519685039369
 74
               0
 49
-0.9842519685039369
 74
               0
  0
ENDTAB
  0
TABLE
  2
LAYER
  5
2
100
AcDbSymbolTable
 70
               5
  0
LAYER
  5
14
100
AcDbSymbolTableRecord
100
AcDbLayerTableRecord
  2
0
 70
               0
 62
               7
  6
Continuous
290
               1
370
              -3
390
1D
  0
LAYER
  5
42
100
AcDbSymbolTableRecord
100
AcDbLayerTableRecord
  2
Defpoints
 70
               0
 62
               7
  6
Continuous
290
               0
370
              -3
390
1D
  0
LAYER
  5
43
100
AcDbSymbolTableRecord
100
AcDbLayerTableRecord
  2
template
 70
               0
 62
               7
  6
Continuous
290
               1
370
              -3
390
1D
  0
LAYER
  5
44
100
AcDbSymbolTableRecord
100
AcDbLayerTableRecord
  2
notes
 70
               0
 62
               7
  6
Continuous
290
               1
370
              -3
390
1D
  0
LAYER
  5
45
100
AcDbSymbolTableRecord
100
AcDbLayerTableRecord
  2
KUF70-0103
 70
               0
 62
               7
  6
Continuous
290
               1
370
              -3
390
1D
  0
ENDTAB
  0
TABLE
  2
STYLE
  5
3
100
AcDbSymbolTable
 70
               2
  0
STYLE
  5
17
100
AcDbSymbolTableRecord
100
AcDbTextStyleTableRecord
  2
Standard
 70
               0
 40
0.0
 41
1.0
 50
0.0
 71
               0
 42
0.0
  3
txt
  4
BIGFONT.SHX
  0
STYLE
  5
33
100
AcDbSymbolTableRecord
100
AcDbTextStyleTableRecord
  2
ＭＳ ゴシック
 70
               0
 40
0.0
 41
1.0
 50
0.0
 71
               0
 42
0.0
  3

  4
ＭＳ ゴシック
1001
ACAD
1000
ＭＳ ゴシック
1071
        0
  0
ENDTAB
  0
TABLE
  2
VIEW
  5
5
100
AcDbSymbolTable
 70
               0
  0
ENDTAB
  0
TABLE
  2
UCS
  5
6
100
AcDbSymbolTable
 70
               0
  0
ENDTAB
  0
TABLE
  2
APPID
  5
8
100
AcDbSymbolTable
 70
               1
  0
APPID
  5
16
100
AcDbSymbolTableRecord
100
AcDbRegAppTableRecord
  2
ACAD
 70
               0
  0
ENDTAB
  0
TABLE
  2
DIMSTYLE
  5
9
100
AcDbSymbolTable
 70
               3
100
AcDbDimStyleTable
 71
               0
  0
DIMSTYLE
105
18
100
AcDbSymbolTableRecord
100
AcDbDimStyleTableRecord
  2
Standard
 70
               0
  3

  4

 40
1.0
 41
0.18
 42
0.0625
 43
0.38
 44
0.18
 45
0.0
 46
0.0
 47
0.0
 48
0.0
 71
               0
 72
               0
 73
               1
 74
               1
 75
               0
 76
               0
 77
               0
 78
               0
 79
               0
140
0.18
141
0.09
142
0.0
143
25.399999999999999
144
1.0
145
0.0
146
1.0
147
0.09
148
0.0
170
               0
171
               2
172
               0
173
               0
174
               0
175
               0
176
               0
177
               0
178
               0
179
               0
271
               4
272
               4
273
               2
274
               2
275
               0
276
               0
277
               2
278
              46
279
               0
280
               0
281
               0
282
               0
283
               1
284
               0
285
               0
286
               0
288
               0
289
               3
340
17
341
0
342
0
343
0
344
0
371
              -2
372
              -2
  0
DIMSTYLE
105
4E
100
AcDbSymbolTableRecord
100
AcDbDimStyleTableRecord
  2
tfrom線あり
 70
               0
  3
<>
  4
[]
 40
1.0
 41
3.999755859375
 42
24.999999999999996
 43
0.9999999999999999
 44
0.0
 45
0.0
 46
0.0
 47
0.0
 48
0.0
 71
               0
 72
               0
 73
               0
 74
               0
 75
               0
 76
               0
 77
               1
 78
              11
 79
               0
140
24.432617187500004
141
0.0
142
0.0
143
1.0
144
1.0
145
0.0
146
1.0
147
0.4999999999999999
148
0.0
170
               0
171
               1
172
               0
173
               0
174
               1
175
               0
176
               0
177
               0
178
               0
179
               2
271
               1
272
               1
273
               2
274
               2
275
               0
276
               2
277
               2
278
              46
279
               0
280
               0
281
               0
282
               0
283
               1
284
              11
285
              11
286
              11
288
               0
289
               0
340
33
341
46
342
46
343
0
344
0
371
              -2
372
              -2
  0
DIMSTYLE
105
53
100
AcDbSymbolTableRecord
100
AcDbDimStyleTableRecord
  2
JIS
 70
               0
  3
<>
  4
[]
 40
1.0
 41
31.75
 42
0.0
 43
6.9999999999999396
 44
19.999999999996199
 45
0.0
 46
0.0
 47
0.0
 48
0.0
 71
               0
 72
               0
 73
               0
 74
               0
 75
               0
 76
               0
 77
               1
 78
              11
 79
               0
140
24.432617187500004
141
0.0
142
0.0
143
1.0
144
1.0
145
0.0
146
1.0
147
1.00000000000108
148
0.0
170
               0
171
               1
172
               0
173
               0
174
               1
175
               0
176
               0
177
               0
178
               0
179
               2
271
               1
272
               1
273
               2
274
               2
275
               0
276
               2
277
               2
278
              46
279
               0
280
               0
281
               0
282
               0
283
               1
284
              11
285
              11
286
              11
288
               0
289
               0
340
33
341
4F
342
4F
343
0
344
0
371
              -2
372
              -2
  0
ENDTAB
  0
TABLE
  2
BLOCK_RECORD
  5
1
100
AcDbSymbolTable
 70
              18
  0
BLOCK_RECORD
  5
A
100
AcDbSymbolTableRecord
100
AcDbBlockTableRecord
  2
*MODEL_SPACE
340
20
  0
BLOCK_RECORD
  5
B
100
AcDbSymbolTableRecord
100
AcDbBlockTableRecord
  2
*PAPER_SPACE
340
21
  0
BLOCK_RECORD
  5
46
100
AcDbSymbolTableRecord
100
AcDbBlockTableRecord
  2
_DOT
340
0
  0
BLOCK_RECORD
  5
4F
100
AcDbSymbolTableRecord
100
AcDbBlockTableRecord
  2
VW_FILLEDARROW
340
0
  0
BLOCK_RECORD
  5
23
100
AcDbSymbolTableRecord
100
AcDbBlockTableRecord
  2
グループ
340
0
102
{BLKREFS
331
124
102
}
  0
BLOCK_RECORD
  5
24
100
AcDbSymbolTableRecord
100
AcDbBlockTableRecord
  2
*D3
340
0
  0
BLOCK_RECORD
  5
25
100
AcDbSymbolTableRecord
100
AcDbBlockTableRecord
  2
*D4
340
0
  0
BLOCK_RECORD
  5
26
100
AcDbSymbolTableRecord
100
AcDbBlockTableRecord
  2
*D5
340
0
  0
BLOCK_RECORD
  5
27
100
AcDbSymbolTableRecord
100
AcDbBlockTableRecord
  2
*D6
340
0
  0
BLOCK_RECORD
  5
28
100
AcDbSymbolTableRecord
100
AcDbBlockTableRecord
  2
*D7
340
0
  0
BLOCK_RECORD
  5
29
100
AcDbSymbolTableRecord
100
AcDbBlockTableRecord
  2
*D8
340
0
  0
BLOCK_RECORD
  5
2A
100
AcDbSymbolTableRecord
100
AcDbBlockTableRecord
  2
*D9
340
0
  0
BLOCK_RECORD
  5
2B
100
AcDbSymbolTableRecord
100
AcDbBlockTableRecord
  2
*D10
340
0
  0
BLOCK_RECORD
  5
2C
100
AcDbSymbolTableRecord
100
AcDbBlockTableRecord
  2
*D11
340
0
  0
BLOCK_RECORD
  5
2D
100
AcDbSymbolTableRecord
100
AcDbBlockTableRecord
  2
*D12
340
0
  0
BLOCK_RECORD
  5
2E
100
AcDbSymbolTableRecord
100
AcDbBlockTableRecord
  2
*D13
340
0
  0
BLOCK_RECORD
  5
2F
100
AcDbSymbolTableRecord
100
AcDbBlockTableRecord
  2
*D14
340
0
  0
BLOCK_RECORD
  5
30
100
AcDbSymbolTableRecord
100
AcDbBlockTableRecord
  2
*D15
340
0
  0
BLOCK_RECORD
  5
31
100
AcDbSymbolTableRecord
100
AcDbBlockTableRecord
  2
*D16
340
0
  0
BLOCK_RECORD
  5
32
100
AcDbSymbolTableRecord
100
AcDbBlockTableRecord
  2
*D17
340
0
  0
ENDTAB
  0
ENDSEC
  0
SECTION
  2
BLOCKS
  0
BLOCK
  5
D
100
AcDbEntity
  8
0
390
0
100
AcDbBlockBegin
  2
*MODEL_SPACE
 70
               0
 10
0.0
 20
0.0
 30
0.0
  3
*MODEL_SPACE
  1

  0
ENDBLK
  5
E
100
AcDbEntity
  8
0
390
0
100
AcDbBlockEnd
  0
BLOCK
  5
F
100
AcDbEntity
 67
               1
  8
0
390
0
100
AcDbBlockBegin
  2
*PAPER_SPACE
 70
               0
 10
0.0
 20
0.0
 30
0.0
  3
*PAPER_SPACE
  1

  0
ENDBLK
  5
10
100
AcDbEntity
 67
               1
  8
0
390
0
100
AcDbBlockEnd
  0
BLOCK
  5
47
100
AcDbEntity
  8
0
390
0
100
AcDbBlockBegin
  2
_DOT
 70
               0
 10
0.0
 20
0.0
 30
0.0
  3
_DOT
  1

  0
POLYLINE
  5
48
100
AcDbEntity
  8
0
370
              -2
390
0
  6
ByBlock
 62
               0
100
AcDb2dPolyline
 66
               1
 10
0.0
 20
0.0
 30
0.0
 70
               1
 40
0.5
 41
0.5
  0
VERTEX
  5
49
100
AcDbEntity
  8
0
370
              -2
390
0
  6
ByBlock
 62
               0
100
AcDbVertex
100
AcDb2dVertex
 10
-0.25
 20
0.0
 30
0.0
 42
1.0
  0
VERTEX
  5
4A
100
AcDbEntity
  8
0
370
              -2
390
0
  6
ByBlock
 62
               0
100
AcDbVertex
100
AcDb2dVertex
 10
0.25
 20
0.0
 30
0.0
 42
1.0
  0
SEQEND
  5
4B
100
AcDbEntity
  8
0
390
0
  0
LINE
  5
4C
100
AcDbEntity
  8
0
370
              -2
390
0
  6
ByBlock
 62
               0
100
AcDbLine
 10
-0.5
 20
0.0
 30
0.0
 11
-1.0
 21
0.0
 31
0.0
  0
ENDBLK
  5
4D
100
AcDbEntity
  8
0
390
0
100
AcDbBlockEnd
  0
BLOCK
  5
50
100
AcDbEntity
  8
0
370
              -2
390
0
  6
ByBlock
 62
               0
100
AcDbBlockBegin
  2
VW_FILLEDARROW
 70
               0
 10
0.0
 20
0.0
 30
0.0
  3
VW_FILLEDARROW
  1

  0
SOLID
  5
51
100
AcDbEntity
  8
0
370
              -2
390
0
 62
               0
100
AcDbTrace
 10
0.0
 20
0.0
 30
0.0
 11
-0.9921874999999999
 21
-0.2658558393652545
 31
0.0
 12
-0.9921874999999999
 22
0.2658558393652548
 32
0.0
 13
-0.9921874999999999
 23
0.2658558393652548
 33
0.0
  0
ENDBLK
  5
52
100
AcDbEntity
  8
0
390
0
100
AcDbBlockEnd
  0
BLOCK
  5
54
100
AcDbEntity
  8
template
390
0
100
AcDbBlockBegin
  2
グループ
 70
               0
 10
0.0
 20
0.0
 30
0.0
  3
グループ
  1

  0
LWPOLYLINE
  5
55
100
AcDbEntity
  8
0
370
              15
390
0
  6
Continuous
 62
               7
100
AcDbPolyline
 90
        8
 70
             129
 10
784.31660572679561
 20
-1499.4087454610785
 10
784.31660572679561
 20
-1505.4061341546544
 10
774.81540880879231
 20
-1505.4061341546544
 10
774.81540880879231
 20
-1529.8570974181632
 10
766.46003154700952
 20
-1529.8570974181632
 10
766.46003154700952
 20
-1505.4061341546544
 10
757.1270746007001
 20
-1505.4061341546544
 10
757.1270746007001
 20
-1499.4087454610785
  0
LWPOLYLINE
  5
56
100
AcDbEntity
  8
0
370
              15
390
0
  6
Continuous
 62
               7
100
AcDbPolyline
 90
      101
 70
             128
 10
797.04489755735256
 20
-1500.136993954015
 10
797.06024758613421
 20
-1500.132633197331
 42
-0.0222221607817777
 10
797.3502521628086
 20
-1500.0640087320853
 10
797.36604592679862
 20
-1500.061005308989
 42
-0.0146883565588584
 10
797.62874863202637
 20
-1500.019002122039
 42
-0.0127458844186818
 10
797.89338759917814
 20
-1499.9914651539666
 10
797.95584267749223
 20
-1499.9865717313783
 42
-0.0198099018565024
 10
798.34669178696709
 20
-1499.9714865739816
 10
798.39850325641282
 20
-1499.9715403496466
 42
-0.0147617382759398
 10
798.89312671739037
 20
-1499.9866603748917
 10
798.96581817226377
 20
-1499.9910329817794
 42
-0.0162624549002507
 10
799.35597180172658
 20
-1500.0272658570516
 10
799.47750419298848
 20
-1500.0425524160485
 42
-0.0080020874663838
 10
799.62308322407739
 20
-1500.0632352633165
 10
799.66140269466894
 20
-1500.0693065411272
 42
-0.0053821929683784
 10
799.72988679998718
 20
-1500.0809140649492
 10
799.00348110078858
 20
-1502.2618425206631
 42
0.0108667757391066
 10
798.9361640306546
 20
-1502.2486554054426
 10
798.89869600746829
 20
-1502.2421576628487
 42
0.0170663203312596
 10
798.75547922055
 20
-1502.2223280655567
 10
798.68760388786973
 20
-1502.2152808949695
 42
0.0220162375273787
 10
798.40722448001577
 20
-1502.1985985341994
 10
798.32936891296231
 20
-1502.1973991669329
 42
0.028260691578743
 10
797.99373258938442
 20
-1502.211202443902
 10
797.94981931560631
 20
-1502.2155024339063
 42
0.0169677213691226
 10
797.7038948206532
 20
-1502.2480394834574
 42
0.0190576269865476
 10
797.46098685807078
 20
-1502.2981863555644
 10
797.45472766996227
 20
-1502.2997293296733
 42
0.0213685642849454
 10
797.20434318548496
 20
-1502.3729296147781
 10
797.19885329056831
 20
-1502.3747926108372
 42
0.0237595297600202
 10
796.94535840566925
 20
-1502.474477132733
 10
796.94025633163994
 20
-1502.4767689082109
 42
0.0261857468818867
 10
796.68808555541079
 20
-1502.606305245585
 10
796.67765936632463
 20
-1502.6123707200529
 42
0.0272553062019538
 10
796.44122959108449
 20
-1502.7677429259979
 10
796.40646657757577
 20
-1502.7934040740897
 42
0.0325996893174308
 10
796.2563112339235
 20
-1502.9201519470616
 10
796.23260180480588
 20
-1502.9429699755692
 42
0.0138050960625417
 10
796.14071864859034
 20
-1503.0364196371261
 42
0.01252801037972
 10
796.05387611575929
 20
-1503.1345829637232
 10
796.03019567084846
 20
-1503.1627414619136
 42
0.020521802473911
 10
795.90509559533541
 20
-1503.3245347761417
 10
795.88262925484764
 20
-1503.3561945059696
 42
0.016311012958739
 10
795.72691887559438
 20
-1503.5915249410427
 10
795.72419497954536
 20
-1503.595948703025
 42
0.0131897341891381
 10
795.57739445864172
 20
-1503.8490807953854
 10
795.57569436327299
 20
-1503.8521990345253
 42
0.0107895576063661
 10
795.43791766106222
 20
-1504.1184142441605
 10
795.4371847715372
 20
-1504.1199084768068
 42
0.0091371507219764
 10
795.30870482288969
 20
-1504.3944336745617
 10
795.27895919147841
 20
-1504.4611401817251
 42
0.0135418326352016
 10
795.10724525240664
 20
-1504.8760779669944
 10
795.07364044397048
 20
-1504.9639441092804
 42
0.0092834542415447
 10
794.90241138405167
 20
-1505.4378426075805
 10
794.8767942563353
 20
-1505.5130836773703
 42
0.0054261043581441
 10
794.76915610804099
 20
-1505.8408476504392
 10
794.75163012186374
 20
-1505.8962358126687
 42
0.0008225090821317
 10
794.68296007003357
 20
-1506.1145045708183
 10
793.69827093810011
 20
-1509.1393958640749
 10
796.93089477817398
 20
-1509.1393958640749
 10
796.42670234832053
 20
-1511.0438741624273
 10
793.17064606633721
 20
-1511.0438741624273
 10
787.34149703398339
 20
-1529.8570972284322
 10
785.51639942367308
 20
-1529.8570972284322
 10
791.35107745917401
 20
-1511.0438741624273
 10
788.94596109013366
 20
-1511.0438741624273
 10
789.45015351998711
 20
-1509.1393958640749
 10
791.87870233093713
 20
-1509.1393958640749
 10
792.73885724912577
 20
-1506.502982863376
 42
-0.0005863560637245
 10
792.77559192731269
 20
-1506.3861564431368
 10
792.85167976098967
 20
-1506.1451641436988
 42
-0.0087522378928675
 10
793.05114790444645
 20
-1505.5498880565526
 10
793.1434121798618
 20
-1505.2897478880341
 42
-0.0077400953829935
 10
793.40134583899112
 20
-1504.5967432104912
 10
793.41711081056997
 20
-1504.5563123271054
 42
-0.0082369946331563
 10
793.66419528118195
 20
-1503.9522332609095
 42
-0.0085725238365509
 10
793.93144137718173
 20
-1503.3568072216287
 10
794.03307097819311
 20
-1503.1403861196354
 42
-0.016810941059602
 10
794.32001540692227
 20
-1502.5791785935328
 10
794.4458587973993
 20
-1502.3522145605027
 42
-0.0007817726859979
 10
794.50014314743794
 20
-1502.2546703155044
 10
794.50027145345575
 20
-1502.254440606767
 42
-0.0036626142159625
 10
794.55515931747641
 20
-1502.1578427267993
 42
-0.0080221150661354
 10
794.61228357288144
 20
-1502.0625634920491
 10
794.6429835242443
 20
-1502.0131725429242
 42
-0.0202139325564206
 10
794.77063926405481
 20
-1501.8251909422377
 10
794.82470672923864
 20
-1501.752112078002
 42
-0.0249323791802294
 10
795.08386952295632
 20
-1501.4360668358495
 10
795.10800933708481
 20
-1501.4094525629353
 42
-0.0242132121538421
 10
795.44769007862715
 20
-1501.0695690767309
 10
795.49560165137382
 20
-1501.0260599405485
 42
-0.0251017527862362
 10
795.77958335201811
 20
-1500.7930671947802
 10
795.78102882883479
 20
-1500.7919979371991
 42
-0.0130868069033939
 10
796.07928947878918
 20
-1500.5832174686589
 10
796.0808512979313
 20
-1500.5821840283843
 42
-0.0290329526388998
 10
796.3919624393252
 20
-1500.4013585267544
 10
796.42180800131359
 20
-1500.3862561439137
 42
-0.0160250190046978
 10
796.68771241507602
 20
-1500.2622400337018
 42
-0.0267600374784093
 10
796.96298849254333
 20
-1500.1614917131535
 10
796.98972441206558
 20
-1500.1532991543274
 42
-0.0049981587669942
 10
797.04489755735256
 20
-1500.136993954015
 42
-0.0049981587669942
  0
LWPOLYLINE
  5
57
100
AcDbEntity
  8
0
370
              15
390
0
  6
Continuous
 62
               7
100
AcDbPolyline
 90
      118
 70
             128
 10
816.85926512179947
 20
-1509.2133791919023
 10
818.73438704629893
 20
-1509.2133791919023
 10
817.89634814069905
 20
-1511.8949457183023
 42
-0.001058722925599
 10
817.92780395627005
 20
-1511.858041184948
 10
817.98599804690298
 20
-1511.7900589287713
 42
-0.0071874740410313
 10
818.13637326499884
 20
-1511.6194182367447
 10
818.27809603826324
 20
-1511.4631820954291
 42
-0.0148118053512996
 10
818.72822533097394
 20
-1510.9955682494181
 10
818.81544766586899
 20
-1510.9101709285712
 42
-0.0086273358696612
 10
819.15099646688623
 20
-1510.592795294546
 10
819.19483018311303
 20
-1510.552745650212
 42
-0.0103138323114386
 10
819.45285388534558
 20
-1510.3265825128747
 10
819.49862829167409
 20
-1510.2881004656133
 42
-0.0060206748570533
 10
819.67147635578488
 20
-1510.1463058148602
 10
819.67350748667513
 20
-1510.1446801092254
 42
-0.0067069027293138
 10
819.84580030133338
 20
-1510.0105294754339
 10
819.84834906727076
 20
-1510.00859930555
 42
-0.0076184352049233
 10
820.01925433313068
 20
-1509.8832244303148
 42
-0.0089652861672345
 10
820.19421529586452
 20
-1509.7635911699824
 10
820.23056701601467
 20
-1509.739679956496
 42
-0.0156916245933787
 10
820.4265265131703
 20
-1509.6194174700249
 42
-0.0023299011070676
 10
820.62678855711704
 20
-1509.5062395305024
 10
820.64217268952996
 20
-1509.4976395354192
 42
-0.0107669341484524
 10
820.87640951463356
 20
-1509.3732394020685
 10
820.8986743157061
 20
-1509.3620226521198
 42
-0.0078058045896343
 10
821.18226443365927
 20
-1509.2246611964811
 10
821.19217152136798
 20
-1509.2200520686129
 42
-0.0181829330472748
 10
821.50248092598133
 20
-1509.0891883275181
 10
821.55653636854834
 20
-1509.0686732075744
 42
-0.0208411536031552
 10
821.90562133600065
 20
-1508.9525827450807
 10
821.91997743612774
 20
-1508.9484643001274
 42
-0.0222799817142269
 10
822.24869723004531
 20
-1508.8698227339869
 10
822.25758619328576
 20
-1508.8681107234011
 42
-0.0215509523879371
 10
822.57405716156222
 20
-1508.8211950348673
 10
822.61653912260795
 20
-1508.8167575080768
 42
-0.0182545924872201
 10
822.85064790191632
 20
-1508.8009136826856
 10
822.89004891826175
 20
-1508.7996891376065
 42
-0.0072962856533868
 10
823.04597179795337
 20
-1508.7971198090843
 10
823.07507146853322
 20
-1508.7970649736806
 42
-0.0059227516316847
 10
823.1728209676703
 20
-1508.7980386854711
 10
823.20206318514226
 20
-1508.7986764520742
 42
-0.0011833111906193
 10
823.24131446887463
 20
-1508.7996254563843
 10
822.44592787326746
 20
-1511.3383594014833
 42
0.0143932051604141
 10
822.41952649091866
 20
-1511.3281604314388
 10
822.41225451849959
 20
-1511.3255892125808
 42
0.0234388603514764
 10
822.37042365256673
 20
-1511.3129699768651
 10
822.36174198965477
 20
-1511.3107890148603
 42
0.0199162742987225
 10
822.3014531555782
 20
-1511.2981722795259
 10
822.28063921776857
 20
-1511.2946750800968
 42
0.0293643550671134
 10
822.17756435900742
 20
-1511.2835250344435
 10
822.15287917828914
 20
-1511.282313417425
 42
0.0214606686862781
 10
821.999738262336
 20
-1511.2813748570074
 10
821.99036635151867
 20
-1511.2817197685517
 42
0.0167564054175813
 10
821.8188461604085
 20
-1511.29379681092
 10
821.81038636765129
 20
-1511.2946781513469
 42
0.0137677553241547
 10
821.62303305438377
 20
-1511.3194274598909
 10
821.61568131487866
 20
-1511.3206053798585
 42
0.0118497261489513
 10
821.41518355076903
 20
-1511.3576227300493
 10
821.40903354353009
 20
-1511.3589095927678
 42
0.0106421143892849
 10
821.19815265623879
 20
-1511.4077419683442
 10
821.19324384785602
 20
-1511.4089893110277
 42
0.0099746379700225
 10
820.97478537869381
 20
-1511.4691638393422
 10
820.91323733852323
 20
-1511.4874457179731
 42
0.0191613675858793
 10
820.57725287600806
 20
-1511.6014230982598
 10
820.48919310326119
 20
-1511.6351100085844
 42
0.020527408014296
 10
820.10388633136154
 20
-1511.8009384164106
 10
820.04623704937922
 20
-1511.828606380983
 42
0.0181256912193791
 10
819.78796010871258
 20
-1511.9642901999609
 10
819.73500472539945
 20
-1511.9946078131752
 42
0.0140709242412378
 10
819.59004979077031
 20
-1512.08310248661
 10
819.56380092216091
 20
-1512.1001593053195
 42
0.0086667884386945
 10
819.47487476060928
 20
-1512.1601619732082
 42
0.0036408192032872
 10
819.38744152256345
 20
-1512.2223428310097
 10
819.35221464810729
 20
-1512.2477837769134
 42
0.0052260781284857
 10
819.19598595069715
 20
-1512.3631161635622
 10
819.17977909445653
 20
-1512.3753442741659
 42
0.0050024435894945
 10
818.99377575141318
 20
-1512.5186268424159
 10
818.97845759488257
 20
-1512.5306728648738
 42
0.0136138710286033
 10
818.76801632655122
 20
-1512.7056393697926
 10
818.73434845076372
 20
-1512.7352183425014
 42
0.0172815186916378
 10
818.46994490909981
 20
-1512.9842150151262
 10
818.46738256325852
 20
-1512.9868008322719
 42
0.018940385799064
 10
818.21680076468169
 20
-1513.2596060970734
 10
818.18416927114254
 20
-1513.2979500285744
 42
0.0185044199505771
 10
817.99221283216343
 20
-1513.541198609696
 42
0.0088565243894719
 10
817.81375272554044
 20
-1513.7947150298382
 10
817.8045747458865
 20
-1513.8082564096062
 42
0.0157195347235465
 10
817.62135413954809
 20
-1514.0977786189292
 10
817.57527119762221
 20
-1514.1759308159415
 42
0.0095451879778768
 10
817.4101856474839
 20
-1514.4685254582992
 10
817.39903772855382
 20
-1514.4891961304318
 42
0.0100351706254462
 10
817.26699397939501
 20
-1514.746251690922
 42
0.0086935915423097
 10
817.14466282759759
 20
-1515.0080848363341
 10
817.14134208618646
 20
-1515.0155271592982
 42
0.007258017486708
 10
817.02099563424122
 20
-1515.2961191508819
 10
817.01773400093521
 20
-1515.3040391768991
 42
0.00600051226186
 10
816.89853333258691
 20
-1515.603648847519
 10
816.89532235425088
 20
-1515.6120103754092
 42
0.0049017786975203
 10
816.7764221953928
 20
-1515.930939356015
 10
816.773256389003
 20
-1515.9396922932438
 42
0.0039415167600963
 10
816.65382011095244
 20
-1516.2782343556396
 10
816.65068900829419
 20
-1516.2873375565332
 42
0.00310358387672
 10
816.52988422260728
 20
-1516.6457774182882
 10
816.5267741780707
 20
-1516.6551980396816
 42
0.002507074715268
 10
816.40387282676159
 20
-1517.0338452566059
 10
816.36657893032998
 20
-1517.1507369218784
 42
0.0029081910284835
 10
816.17456063251439
 20
-1517.7649005801852
 10
816.13375746400209
 20
-1517.898123822446
 42
0.0009266453732116
 10
815.86534008971091
 20
-1518.7803482822919
 10
815.84445261703672
 20
-1518.8494601616385
 42
-0.0005809993665949
 10
815.56711593645559
 20
-1519.7632682682442
 10
815.50083413816867
 20
-1519.9807532004495
 42
-0.0012018708167743
 10
815.35384982875348
 20
-1520.4589158649246
 10
815.30152997717641
 20
-1520.6276750058278
 42
-0.0002691059599947
 10
815.25796049601934
 20
-1520.7679426261325
 10
812.42500459773009
 20
-1529.8570972284322
 10
810.60701570575156
 20
-1529.8570972284322
 10
816.85926512179947
 20
-1509.2133791919023
  0
SPLINE
  5
58
100
AcDbEntity
  8
0
370
              15
390
0
  6
Continuous
 62
               7
100
AcDbSpline
210
0.0
220
0.0
230
1.0
 70
              13
 71
               2
 72
             782
 73
             779
 74
               0
 42
0.000001
 43
0.000001
 40
0.0
 40
0.0
 40
0.0
 40
1.0
 40
1.0
 40
2.0
 40
2.0
 40
3.0
 40
3.0
 40
4.0
 40
4.0
 40
5.0
 40
5.0
 40
6.0
 40
6.0
 40
7.0
 40
7.0
 40
8.0
 40
8.0
 40
9.0
 40
9.0
 40
10.0
 40
10.0
 40
11.0
 40
11.0
 40
12.0
 40
12.0
 40
13.0
 40
13.0
 40
14.0
 40
14.0
 40
15.0
 40
15.0
 40
16.0
 40
16.0
 40
17.0
 40
17.0
 40
18.0
 40
18.0
 40
19.0
 40
19.0
 40
20.0
 40
20.0
 40
21.0
 40
21.0
 40
22.0
 40
22.0
 40
23.0
 40
23.0
 40
24.0
 40
24.0
 40
25.0
 40
25.0
 40
26.0
 40
26.0
 40
27.0
 40
27.0
 40
28.0
 40
28.0
 40
29.0
 40
29.0
 40
30.0
 40
30.0
 40
31.0
 40
31.0
 40
32.0
 40
32.0
 40
33.0
 40
33.0
 40
34.0
 40
34.0
 40
35.0
 40
35.0
 40
36.0
 40
36.0
 40
37.0
 40
37.0
 40
38.0
 40
38.0
 40
39.0
 40
39.0
 40
40.0
 40
40.0
 40
41.0
 40
41.0
 40
42.0
 40
42.0
 40
43.0
 40
43.0
 40
44.0
 40
44.0
 40
45.0
 40
45.0
 40
46.0
 40
46.0
 40
47.0
 40
47.0
 40
48.0
 40
48.0
 40
49.0
 40
49.0
 40
50.0
 40
50.0
 40
51.0
 40
51.0
 40
52.0
 40
52.0
 40
53.0
 40
53.0
 40
54.0
 40
54.0
 40
55.0
 40
55.0
 40
56.0
 40
56.0
 40
57.0
 40
57.0
 40
58.0
 40
58.0
 40
59.0
 40
59.0
 40
60.0
 40
60.0
 40
61.0
 40
61.0
 40
62.0
 40
62.0
 40
63.0
 40
63.0
 40
64.0
 40
64.0
 40
65.0
 40
65.0
 40
66.0
 40
66.0
 40
67.0
 40
67.0
 40
68.0
 40
68.0
 40
69.0
 40
69.0
 40
70.0
 40
70.0
 40
71.0
 40
71.0
 40
72.0
 40
72.0
 40
73.0
 40
73.0
 40
74.0
 40
74.0
 40
75.0
 40
75.0
 40
76.0
 40
76.0
 40
77.0
 40
77.0
 40
78.0
 40
78.0
 40
79.0
 40
79.0
 40
80.0
 40
80.0
 40
81.0
 40
81.0
 40
82.0
 40
82.0
 40
83.0
 40
83.0
 40
84.0
 40
84.0
 40
85.0
 40
85.0
 40
86.0
 40
86.0
 40
87.0
 40
87.0
 40
88.0
 40
88.0
 40
89.0
 40
89.0
 40
90.0
 40
90.0
 40
91.0
 40
91.0
 40
92.0
 40
92.0
 40
93.0
 40
93.0
 40
94.0
 40
94.0
 40
95.0
 40
95.0
 40
96.0
 40
96.0
 40
97.0
 40
97.0
 40
98.0
 40
98.0
 40
99.0
 40
99.0
 40
100.0
 40
100.0
 40
101.0
 40
101.0
 40
102.0
 40
102.0
 40
103.0
 40
103.0
 40
104.0
 40
104.0
 40
105.0
 40
105.0
 40
106.0
 40
106.0
 40
107.0
 40
107.0
 40
108.0
 40
108.0
 40
109.0
 40
109.0
 40
110.0
 40
110.0
 40
111.0
 40
111.0
 40
112.0
 40
112.0
 40
113.0
 40
113.0
 40
114.0
 40
114.0
 40
115.0
 40
115.0
 40
116.0
 40
116.0
 40
117.0
 40
117.0
 40
118.0
 40
118.0
 40
119.0
 40
119.0
 40
120.0
 40
120.0
 40
121.0
 40
121.0
 40
122.0
 40
122.0
 40
123.0
 40
123.0
 40
124.0
 40
124.0
 40
125.0
 40
125.0
 40
126.0
 40
126.0
 40
127.0
 40
127.0
 40
128.0
 40
128.0
 40
129.0
 40
129.0
 40
130.0
 40
130.0
 40
131.0
 40
131.0
 40
132.0
 40
132.0
 40
133.0
 40
133.0
 40
134.0
 40
134.0
 40
135.0
 40
135.0
 40
136.0
 40
136.0
 40
137.0
 40
137.0
 40
138.0
 40
138.0
 40
139.0
 40
139.0
 40
140.0
 40
140.0
 40
141.0
 40
141.0
 40
142.0
 40
142.0
 40
143.0
 40
143.0
 40
144.0
 40
144.0
 40
145.0
 40
145.0
 40
146.0
 40
146.0
 40
147.0
 40
147.0
 40
148.0
 40
148.0
 40
149.0
 40
149.0
 40
150.0
 40
150.0
 40
151.0
 40
151.0
 40
152.0
 40
152.0
 40
153.0
 40
153.0
 40
154.0
 40
154.0
 40
155.0
 40
155.0
 40
156.0
 40
156.0
 40
157.0
 40
157.0
 40
158.0
 40
158.0
 40
159.0
 40
159.0
 40
160.0
 40
160.0
 40
161.0
 40
161.0
 40
162.0
 40
162.0
 40
163.0
 40
163.0
 40
164.0
 40
164.0
 40
165.0
 40
165.0
 40
166.0
 40
166.0
 40
167.0
 40
167.0
 40
168.0
 40
168.0
 40
169.0
 40
169.0
 40
170.0
 40
170.0
 40
171.0
 40
171.0
 40
172.0
 40
172.0
 40
173.0
 40
173.0
 40
174.0
 40
174.0
 40
175.0
 40
175.0
 40
176.0
 40
176.0
 40
177.0
 40
177.0
 40
178.0
 40
178.0
 40
179.0
 40
179.0
 40
180.0
 40
180.0
 40
181.0
 40
181.0
 40
182.0
 40
182.0
 40
183.0
 40
183.0
 40
184.0
 40
184.0
 40
185.0
 40
185.0
 40
186.0
 40
186.0
 40
187.0
 40
187.0
 40
188.0
 40
188.0
 40
189.0
 40
189.0
 40
190.0
 40
190.0
 40
191.0
 40
191.0
 40
192.0
 40
192.0
 40
193.0
 40
193.0
 40
194.0
 40
194.0
 40
195.0
 40
195.0
 40
196.0
 40
196.0
 40
197.0
 40
197.0
 40
198.0
 40
198.0
 40
199.0
 40
199.0
 40
200.0
 40
200.0
 40
201.0
 40
201.0
 40
202.0
 40
202.0
 40
203.0
 40
203.0
 40
204.0
 40
204.0
 40
205.0
 40
205.0
 40
206.0
 40
206.0
 40
207.0
 40
207.0
 40
208.0
 40
208.0
 40
209.0
 40
209.0
 40
210.0
 40
210.0
 40
211.0
 40
211.0
 40
212.0
 40
212.0
 40
213.0
 40
213.0
 40
214.0
 40
214.0
 40
215.0
 40
215.0
 40
216.0
 40
216.0
 40
217.0
 40
217.0
 40
218.0
 40
218.0
 40
219.0
 40
219.0
 40
220.0
 40
220.0
 40
221.0
 40
221.0
 40
222.0
 40
222.0
 40
223.0
 40
223.0
 40
224.0
 40
224.0
 40
225.0
 40
225.0
 40
226.0
 40
226.0
 40
227.0
 40
227.0
 40
228.0
 40
228.0
 40
229.0
 40
229.0
 40
230.0
 40
230.0
 40
231.0
 40
231.0
 40
232.0
 40
232.0
 40
233.0
 40
233.0
 40
234.0
 40
234.0
 40
235.0
 40
235.0
 40
236.0
 40
236.0
 40
237.0
 40
237.0
 40
238.0
 40
238.0
 40
239.0
 40
239.0
 40
240.0
 40
240.0
 40
241.0
 40
241.0
 40
242.0
 40
242.0
 40
243.0
 40
243.0
 40
244.0
 40
244.0
 40
245.0
 40
245.0
 40
246.0
 40
246.0
 40
247.0
 40
247.0
 40
248.0
 40
248.0
 40
249.0
 40
249.0
 40
250.0
 40
250.0
 40
251.0
 40
251.0
 40
252.0
 40
252.0
 40
253.0
 40
253.0
 40
254.0
 40
254.0
 40
255.0
 40
255.0
 40
256.0
 40
256.0
 40
257.0
 40
257.0
 40
258.0
 40
258.0
 40
259.0
 40
259.0
 40
260.0
 40
260.0
 40
261.0
 40
261.0
 40
262.0
 40
262.0
 40
263.0
 40
263.0
 40
264.0
 40
264.0
 40
265.0
 40
265.0
 40
266.0
 40
266.0
 40
267.0
 40
267.0
 40
268.0
 40
268.0
 40
269.0
 40
269.0
 40
270.0
 40
270.0
 40
271.0
 40
271.0
 40
272.0
 40
272.0
 40
273.0
 40
273.0
 40
274.0
 40
274.0
 40
275.0
 40
275.0
 40
276.0
 40
276.0
 40
277.0
 40
277.0
 40
278.0
 40
278.0
 40
279.0
 40
279.0
 40
280.0
 40
280.0
 40
281.0
 40
281.0
 40
282.0
 40
282.0
 40
283.0
 40
283.0
 40
284.0
 40
284.0
 40
285.0
 40
285.0
 40
286.0
 40
286.0
 40
287.0
 40
287.0
 40
288.0
 40
288.0
 40
289.0
 40
289.0
 40
290.0
 40
290.0
 40
291.0
 40
291.0
 40
292.0
 40
292.0
 40
293.0
 40
293.0
 40
294.0
 40
294.0
 40
295.0
 40
295.0
 40
296.0
 40
296.0
 40
297.0
 40
297.0
 40
298.0
 40
298.0
 40
299.0
 40
299.0
 40
300.0
 40
300.0
 40
301.0
 40
301.0
 40
302.0
 40
302.0
 40
303.0
 40
303.0
 40
304.0
 40
304.0
 40
305.0
 40
305.0
 40
306.0
 40
306.0
 40
307.0
 40
307.0
 40
308.0
 40
308.0
 40
309.0
 40
309.0
 40
310.0
 40
310.0
 40
311.0
 40
311.0
 40
312.0
 40
312.0
 40
313.0
 40
313.0
 40
314.0
 40
314.0
 40
315.0
 40
315.0
 40
316.0
 40
316.0
 40
317.0
 40
317.0
 40
318.0
 40
318.0
 40
319.0
 40
319.0
 40
320.0
 40
320.0
 40
321.0
 40
321.0
 40
322.0
 40
322.0
 40
323.0
 40
323.0
 40
324.0
 40
324.0
 40
325.0
 40
325.0
 40
326.0
 40
326.0
 40
327.0
 40
327.0
 40
328.0
 40
328.0
 40
329.0
 40
329.0
 40
330.0
 40
330.0
 40
331.0
 40
331.0
 40
332.0
 40
332.0
 40
333.0
 40
333.0
 40
334.0
 40
334.0
 40
335.0
 40
335.0
 40
336.0
 40
336.0
 40
337.0
 40
337.0
 40
338.0
 40
338.0
 40
339.0
 40
339.0
 40
340.0
 40
340.0
 40
341.0
 40
341.0
 40
342.0
 40
342.0
 40
343.0
 40
343.0
 40
344.0
 40
344.0
 40
345.0
 40
345.0
 40
346.0
 40
346.0
 40
347.0
 40
347.0
 40
348.0
 40
348.0
 40
349.0
 40
349.0
 40
350.0
 40
350.0
 40
351.0
 40
351.0
 40
352.0
 40
352.0
 40
353.0
 40
353.0
 40
354.0
 40
354.0
 40
355.0
 40
355.0
 40
356.0
 40
356.0
 40
357.0
 40
357.0
 40
358.0
 40
358.0
 40
359.0
 40
359.0
 40
360.0
 40
360.0
 40
361.0
 40
361.0
 40
362.0
 40
362.0
 40
363.0
 40
363.0
 40
364.0
 40
364.0
 40
365.0
 40
365.0
 40
366.0
 40
366.0
 40
367.0
 40
367.0
 40
368.0
 40
368.0
 40
369.0
 40
369.0
 40
370.0
 40
370.0
 40
371.0
 40
371.0
 40
372.0
 40
372.0
 40
373.0
 40
373.0
 40
374.0
 40
374.0
 40
375.0
 40
375.0
 40
376.0
 40
376.0
 40
377.0
 40
377.0
 40
378.0
 40
378.0
 40
379.0
 40
379.0
 40
380.0
 40
380.0
 40
381.0
 40
381.0
 40
382.0
 40
382.0
 40
383.0
 40
383.0
 40
384.0
 40
384.0
 40
385.0
 40
385.0
 40
386.0
 40
386.0
 40
387.0
 40
387.0
 40
388.0
 40
388.0
 40
389.0
 40
389.0
 40
389.0
 10
827.1879695725321
 20
-1509.2024528285399
 30
0.0
 41
1.0
 10
828.00639368125258
 20
-1509.2024528285399
 30
0.0
 41
1.0
 10
828.82481778997305
 20
-1509.2024528285399
 30
0.0
 41
1.0
 10
828.41106405445635
 20
-1510.5450790927896
 30
0.0
 41
1.0
 10
827.99731031893953
 20
-1511.8877053570393
 30
0.0
 41
1.0
 10
828.01564981411082
 20
-1511.8590045841224
 30
0.0
 41
0.9999957264344336
 10
828.03415681094612
 20
-1511.8304115339649
 30
0.0
 41
1.0
 10
828.06458613507948
 20
-1511.7833986555952
 30
0.0
 41
1.0
 10
828.09501545921285
 20
-1511.7363857772255
 30
0.0
 41
1.0
 10
828.17438110431601
 20
-1511.6137669703257
 30
0.0
 41
0.9995394069080991
 10
828.26103949586604
 20
-1511.4961889085871
 30
0.0
 41
1.0
 10
828.2967963581284
 20
-1511.4476740159898
 30
0.0
 41
1.0
 10
828.33255322039076
 20
-1511.3991591233928
 30
0.0
 41
1.0
 10
828.46627988820865
 20
-1511.2177188482665
 30
0.0
 41
0.9994460617143349
 10
828.6117803694965
 20
-1511.0455764506169
 30
0.0
 41
1.0
 10
828.61616855047055
 20
-1511.0403847702355
 30
0.0
 41
1.0
 10
828.62055673144471
 20
-1511.0351930898539
 30
0.0
 41
1.0
 10
828.75728085078435
 20
-1510.8734340529675
 30
0.0
 41
0.9994359394934557
 10
828.90455508113587
 20
-1510.7212178518027
 30
0.0
 41
1.0
 10
828.90693843508848
 20
-1510.7187545214301
 30
0.0
 41
1.0
 10
828.9093217890412
 20
-1510.7162911910577
 30
0.0
 41
1.0
 10
829.05182931148693
 20
-1510.5690016506385
 30
0.0
 41
0.9995293688567594
 10
829.20310099246944
 20
-1510.430728438474
 30
0.0
 41
1.0
 10
829.22239475173592
 20
-1510.4130925528198
 30
0.0
 41
1.0
 10
829.24168851100251
 20
-1510.3954566671657
 30
0.0
 41
1.0
 10
829.35437267345685
 20
-1510.2924552263053
 30
0.0
 41
0.9997087614803897
 10
829.47189556240664
 20
-1510.195010945512
 30
0.0
 41
1.0
 10
829.4910616355844
 20
-1510.1791193670024
 30
0.0
 41
1.0
 10
829.51022770876216
 20
-1510.1632277884926
 30
0.0
 41
1.0
 10
829.58941845136405
 20
-1510.0975666647121
 30
0.0
 41
0.9999595338692897
 10
829.66977772221685
 20
-1510.0333409340592
 30
0.0
 41
1.0
 10
829.75013699307544
 20
-1509.9691152034013
 30
0.0
 41
0.9999749417507714
 10
829.83139752741624
 20
-1509.9060336494572
 30
0.0
 41
1.0
 10
829.85238367359307
 20
-1509.8897423621443
 30
0.0
 41
1.0
 10
829.87336981977001
 20
-1509.8734510748316
 30
0.0
 41
1.0
 10
829.95793770505793
 20
-1509.8078020650016
 30
0.0
 41
0.9999792037123231
 10
830.04334530481788
 20
-1509.743249283365
 30
0.0
 41
1.0
 10
830.06417013062787
 20
-1509.7275094611841
 30
0.0
 41
1.0
 10
830.08499495643787
 20
-1509.7117696390033
 30
0.0
 41
1.0
 10
830.12875290448483
 20
-1509.6786965017991
 30
0.0
 41
0.9999993373936073
 10
830.17243459073052
 20
-1509.6455227062975
 30
0.0
 41
1.0
 10
830.21611627687867
 20
-1509.6123489108697
 30
0.0
 41
0.9999160953817901
 10
830.26064268779953
 20
-1509.5803178456706
 30
0.0
 41
1.0
 10
830.29346457521592
 20
-1509.556706690088
 30
0.0
 41
1.0
 10
830.32628646263231
 20
-1509.5330955345053
 30
0.0
 41
1.0
 10
830.43645664838994
 20
-1509.4538421581378
 30
0.0
 41
0.9980964527231789
 10
830.55554564188878
 20
-1509.3887546852829
 30
0.0
 41
1.0
 10
830.59257824881911
 20
-1509.3685147056885
 30
0.0
 41
1.0
 10
830.62961085574943
 20
-1509.3482747260941
 30
0.0
 41
1.0
 10
830.80893786902163
 20
-1509.2502644753936
 30
0.0
 41
0.9984572810573171
 10
830.99802643537964
 20
-1509.1727422140475
 30
0.0
 41
1.0
 10
831.00167270477402
 20
-1509.1712473217101
 30
0.0
 41
1.0
 10
831.0053189741684
 20
-1509.1697524293727
 30
0.0
 41
1.0
 10
831.18711500173697
 20
-1509.0952199527017
 30
0.0
 41
0.9987838528034041
 10
831.3753676602978
 20
-1509.0389543125355
 30
0.0
 41
1.0
 10
831.37960560949671
 20
-1509.0376876588452
 30
0.0
 41
1.0
 10
831.38384355869562
 20
-1509.036421005155
 30
0.0
 41
1.0
 10
831.56362031885726
 20
-1508.9826886723697
 30
0.0
 41
0.9990652816207132
 10
831.7473662505729
 20
-1508.9446849928277
 30
0.0
 41
1.0
 10
831.75255465160399
 20
-1508.9436118897211
 30
0.0
 41
1.0
 10
831.75774305263508
 20
-1508.9425387866147
 30
0.0
 41
1.0
 10
831.93111218228853
 20
-1508.9066813132856
 30
0.0
 41
0.9992909934270392
 10
832.10668794874709
 20
-1508.8839708808191
 30
0.0
 41
1.0
 10
832.2822637152035
 20
-1508.8612604483526
 30
0.0
 41
0.9994553539447871
 10
832.45895514829442
 20
-1508.8501811441465
 30
0.0
 41
1.0
 10
832.49438955609207
 20
-1508.8479592560986
 30
0.0
 41
1.0
 10
832.52982396388984
 20
-1508.8457373680508
 30
0.0
 41
1.0
 10
832.69604973045909
 20
-1508.835314305639
 30
0.0
 41
0.9990928098292514
 10
832.86255952236183
 20
-1508.8390739468737
 30
0.0
 41
1.0
 10
832.90112135763059
 20
-1508.8399446384065
 30
0.0
 41
1.0
 10
832.93968319289934
 20
-1508.8408153299395
 30
0.0
 41
1.0
 10
833.02906931426128
 20
-1508.8428335881079
 30
0.0
 41
0.9998382089206638
 10
833.11832499705065
 20
-1508.848065714636
 30
0.0
 41
1.0
 10
833.11875490327179
 20
-1508.8480909155383
 30
0.0
 41
1.0
 10
833.11918480949294
 20
-1508.8481161164407
 30
0.0
 41
1.0
 10
833.20758067983797
 20
-1508.8532978411645
 30
0.0
 41
0.9997558016759416
 10
833.29566125703764
 20
-1508.8623803565306
 30
0.0
 41
1.0
 10
833.29613739546608
 20
-1508.8624294540132
 30
0.0
 41
1.0
 10
833.2966135338944
 20
-1508.8624785514955
 30
0.0
 41
1.0
 10
833.38374183423741
 20
-1508.8714628718969
 30
0.0
 41
0.9996565144182096
 10
833.47027968758061
 20
-1508.8850001785863
 30
0.0
 41
1.0
 10
833.47074561295676
 20
-1508.8850730643176
 30
0.0
 41
1.0
 10
833.4712115383328
 20
-1508.8851459500486
 30
0.0
 41
1.0
 10
833.55681754092132
 20
-1508.8985374852748
 30
0.0
 41
0.9995321806867379
 10
833.64144462125057
 20
-1508.9171379737045
 30
0.0
 41
1.0
 10
833.64183381582257
 20
-1508.9172235161705
 30
0.0
 41
1.0
 10
833.64222301039467
 20
-1508.9173090586364
 30
0.0
 41
1.0
 10
833.72607170157869
 20
-1508.9357384621339
 30
0.0
 41
0.9993819199219799
 10
833.80841823577475
 20
-1508.9600138453943
 30
0.0
 41
1.0
 10
833.8086566692732
 20
-1508.9600841345036
 30
0.0
 41
1.0
 10
833.80889510277154
 20
-1508.9601544236132
 30
0.0
 41
1.0
 10
833.89076476997127
 20
-1508.9842892286551
 30
0.0
 41
0.9992088568506077
 10
833.97045728895921
 20
-1509.0148544644494
 30
0.0
 41
1.0
 10
834.05013827983828
 20
-1509.0454140651827
 30
0.0
 41
0.999022610177337
 10
834.1268089497454
 20
-1509.0828914967974
 30
0.0
 41
1.0
 10
834.20346809154285
 20
-1509.1203632933502
 30
0.0
 41
0.9988424273971943
 10
834.27617171875397
 20
-1509.1650280686024
 30
0.0
 41
1.0
 10
834.27643942713416
 20
-1509.1651925326751
 30
0.0
 41
1.0
 10
834.27670713551447
 20
-1509.165356996748
 30
0.0
 41
1.0
 10
834.34994617948576
 20
-1509.2103507001457
 30
0.0
 41
0.9986928844491962
 10
834.41820904619613
 20
-1509.2625864344257
 30
0.0
 41
1.0
 10
834.41879033841838
 20
-1509.2630312476531
 30
0.0
 41
1.0
 10
834.41937163064063
 20
-1509.2634760608807
 30
0.0
 41
1.0
 10
834.48879708179641
 20
-1509.3166014216167
 30
0.0
 41
0.9986007262278906
 10
834.55222325156285
 20
-1509.3767621913098
 30
0.0
 41
1.0
 10
834.55311766701993
 20
-1509.3776105591448
 30
0.0
 41
1.0
 10
834.55401208247713
 20
-1509.3784589269799
 30
0.0
 41
1.0
 10
834.61922708315797
 20
-1509.4403164323435
 30
0.0
 41
0.9985581491382017
 10
834.67743469485981
 20
-1509.5088089226151
 30
0.0
 41
1.0
 10
834.68669314845567
 20
-1509.5197032803169
 30
0.0
 41
1.0
 10
834.69595160205154
 20
-1509.5305976380187
 30
0.0
 41
1.0
 10
834.77267612094454
 20
-1509.6208788436934
 30
0.0
 41
0.9970460233520488
 10
834.83466802210467
 20
-1509.7218459278763
 30
0.0
 41
1.0
 10
834.84913738718421
 20
-1509.7454123869575
 30
0.0
 41
1.0
 10
834.86360675226376
 20
-1509.7689788460389
 30
0.0
 41
1.0
 10
834.90334345227541
 20
-1509.8336985700691
 30
0.0
 41
0.9988468816636096
 10
834.93668982302711
 20
-1509.9019310224974
 30
0.0
 41
1.0
 10
834.94372584551911
 20
-1509.9163279436357
 30
0.0
 41
1.0
 10
834.95076186801111
 20
-1509.9307248647742
 30
0.0
 41
1.0
 10
834.97003619377892
 20
-1509.9701634749256
 30
0.0
 41
0.999843118999878
 10
834.98790152127367
 20
-1510.0102600293658
 30
0.0
 41
1.0
 10
835.00576684876637
 20
-1510.0503565838012
 30
0.0
 41
0.9999989990127541
 10
835.02374557219059
 20
-1510.0904024213903
 30
0.0
 41
1.0
 10
835.02991788378483
 20
-1510.104150638203
 30
0.0
 41
1.0
 10
835.03609019537907
 20
-1510.1178988550155
 30
0.0
 41
1.0
 10
835.06641354198973
 20
-1510.185441126225
 30
0.0
 41
0.9998790356321063
 10
835.09462142212783
 20
-1510.2538938781627
 30
0.0
 41
1.0
 10
835.10145660341084
 20
-1510.2704809795869
 30
0.0
 41
1.0
 10
835.10829178469385
 20
-1510.2870680810111
 30
0.0
 41
1.0
 10
835.13184944707541
 20
-1510.344236035899
 30
0.0
 41
0.999822757456054
 10
835.15323819546575
 20
-1510.4022503441797
 30
0.0
 41
1.0
 10
835.17462694385563
 20
-1510.4602646524586
 30
0.0
 41
0.9996797971041228
 10
835.19305322881519
 20
-1510.519286771578
 30
0.0
 41
1.0
 10
835.19695703154025
 20
-1510.5317912297455
 30
0.0
 41
1.0
 10
835.20086083426531
 20
-1510.5442956879131
 30
0.0
 41
1.0
 10
835.22709472467579
 20
-1510.6283267233691
 30
0.0
 41
0.9979274938733445
 10
835.24231924815456
 20
-1510.7150310820277
 30
0.0
 41
1.0
 10
835.24454293541567
 20
-1510.7276950828486
 30
0.0
 41
1.0
 10
835.24676662267689
 20
-1510.7403590836695
 30
0.0
 41
1.0
 10
835.25769656237537
 20
-1510.8026055909606
 30
0.0
 41
0.9994985982137303
 10
835.26466472755237
 20
-1510.8654190921038
 30
0.0
 41
1.0
 10
835.27163289272937
 20
-1510.9282325932481
 30
0.0
 41
0.9996372611203194
 10
835.27520875849746
 20
-1510.9913301719334
 30
0.0
 41
1.0
 10
835.2753773359866
 20
-1510.9943047890129
 30
0.0
 41
1.0
 10
835.27554591347575
 20
-1510.9972794060925
 30
0.0
 41
1.0
 10
835.27945893422202
 20
-1511.0663262189394
 30
0.0
 41
0.999773063073637
 10
835.28042724771012
 20
-1511.1354770429734
 30
0.0
 41
1.0
 10
835.28048435412825
 20
-1511.139555222115
 30
0.0
 41
1.0
 10
835.28054146054637
 20
-1511.1436334012565
 30
0.0
 41
1.0
 10
835.28162398687073
 20
-1511.2209405835786
 30
0.0
 41
0.9998772614068641
 10
835.2802839001389
 20
-1511.2982437301393
 30
0.0
 41
1.0
 10
835.28019463694022
 20
-1511.303392893974
 30
0.0
 41
1.0
 10
835.28010537374143
 20
-1511.3085420578086
 30
0.0
 41
1.0
 10
835.27858676061192
 20
-1511.3961435320505
 30
0.0
 41
0.9999415567326337
 10
835.27517445036608
 20
-1511.4836916937224
 30
0.0
 41
1.0
 10
835.27493312969091
 20
-1511.4898831534574
 30
0.0
 41
1.0
 10
835.27469180901562
 20
-1511.4960746131926
 30
0.0
 41
1.0
 10
835.27079685741944
 20
-1511.5960056943331
 30
0.0
 41
0.9999716810425513
 10
835.26539827430076
 20
-1511.6958668325656
 30
0.0
 41
1.0
 10
835.26218547551127
 20
-1511.7552960822366
 30
0.0
 41
1.0
 10
835.25897267672178
 20
-1511.8147253319075
 30
0.0
 41
1.0
 10
835.25089876756897
 20
-1511.9640737331865
 30
0.0
 41
0.9999819129915339
 10
835.24102897595367
 20
-1512.1133142108781
 30
0.0
 41
1.0
 10
835.23115918433712
 20
-1512.2625546885895
 30
0.0
 41
1.0
 10
835.22871986377322
 20
-1512.2997477344388
 30
0.0
 41
1.0
 10
835.25141809758736
 20
-1512.2610067371374
 30
0.0
 41
0.9999982128095892
 10
835.27426265633471
 20
-1512.2223518431936
 30
0.0
 41
1.0
 10
835.30117221623209
 20
-1512.1768186291172
 30
0.0
 41
1.0
 10
835.32808177612935
 20
-1512.1312854150408
 30
0.0
 41
1.0
 10
835.4047454546552
 20
-1512.0015640929712
 30
0.0
 41
0.9998609190057277
 10
835.48569276751812
 20
-1511.8744717110401
 30
0.0
 41
1.0
 10
835.51534108900114
 20
-1511.8279219780807
 30
0.0
 41
1.0
 10
835.54498941048428
 20
-1511.7813722451215
 30
0.0
 41
1.0
 10
835.62726163072
 20
-1511.6521996751287
 30
0.0
 41
0.999906760973155
 10
835.71303064018161
 20
-1511.5253219856909
 30
0.0
 41
1.0
 10
835.71543534338173
 20
-1511.5217647196373
 30
0.0
 41
1.0
 10
835.71784004658184
 20
-1511.5182074535835
 30
0.0
 41
1.0
 10
835.79879964964255
 20
-1511.398444296254
 30
0.0
 41
0.9998784952151487
 10
835.88345325932698
 20
-1511.2812630795411
 30
0.0
 41
1.0
 10
835.96810686900835
 20
-1511.1640818628321
 30
0.0
 41
0.9998532968283156
 10
836.0567244898341
 20
-1511.0498689543576
 30
0.0
 41
1.0
 10
836.07668627882185
 20
-1511.024141633342
 30
0.0
 41
1.0
 10
836.0966480678095
 20
-1510.9984143123263
 30
0.0
 41
1.0
 10
836.21513211757065
 20
-1510.8457087013544
 30
0.0
 41
0.9991551975795312
 10
836.34575656719562
 20
-1510.7032491392695
 30
0.0
 41
1.0
 10
836.34926618317604
 20
-1510.6994215376444
 30
0.0
 41
1.0
 10
836.35277579915635
 20
-1510.6955939360193
 30
0.0
 41
1.0
 10
836.4763810168206
 20
-1510.5607895771843
 30
0.0
 41
0.9997418144180815
 10
836.60598315651964
 20
-1510.4317401665735
 30
0.0
 41
1.0
 10
836.73558529622176
 20
-1510.3026907559599
 30
0.0
 41
0.9989238204633666
 10
836.87658784447376
 20
-1510.18620579392
 30
0.0
 41
1.0
 10
836.92183552261417
 20
-1510.1488258023105
 30
0.0
 41
1.0
 10
836.96708320075447
 20
-1510.1114458107013
 30
0.0
 41
1.0
 10
837.10732325797335
 20
-1509.9955907574126
 30
0.0
 41
0.9990825084096716
 10
837.25696319057579
 20
-1509.8921617595806
 30
0.0
 41
1.0
 10
837.26700855463469
 20
-1509.8852185464998
 30
0.0
 41
1.0
 10
837.2770539186937
 20
-1509.8782753334187
 30
0.0
 41
1.0
 10
837.40660312318187
 20
-1509.7887327617464
 30
0.0
 41
0.9998164899825218
 10
837.53948732655601
 20
-1509.7042185202313
 30
0.0
 41
1.0
 10
837.55133288707907
 20
-1509.6966847537074
 30
0.0
 41
1.0
 10
837.56317844760224
 20
-1509.6891509871834
 30
0.0
 41
1.0
 10
837.67237152992948
 20
-1509.6197042787167
 30
0.0
 41
0.9997473449131481
 10
837.78457548718166
 20
-1509.5552353208993
 30
0.0
 41
1.0
 10
837.89677944442997
 20
-1509.4907663630843
 30
0.0
 41
0.9999327861148497
 10
838.01044805519336
 20
-1509.4289163714029
 30
0.0
 41
1.0
 10
838.0110000577547
 20
-1509.4286160127235
 30
0.0
 41
1.0
 10
838.01155206031603
 20
-1509.4283156540439
 30
0.0
 41
1.0
 10
838.12632467620165
 20
-1509.3658649450038
 30
0.0
 41
0.999695642048411
 10
838.24403800204084
 20
-1509.3091514780294
 30
0.0
 41
1.0
 10
838.27447840693571
 20
-1509.2944855012984
 30
0.0
 41
1.0
 10
838.30491881183059
 20
-1509.2798195245675
 30
0.0
 41
1.0
 10
838.40789591857242
 20
-1509.2302058661251
 30
0.0
 41
0.9998070570176052
 10
838.5127423075113
 20
-1509.1846752792248
 30
0.0
 41
1.0
 10
838.6175886964503
 20
-1509.1391446923246
 30
0.0
 41
0.9997827436148207
 10
838.72424163305789
 20
-1509.0980235210138
 30
0.0
 41
1.0
 10
838.74346448269148
 20
-1509.0906119473807
 30
0.0
 41
1.0
 10
838.76268733232496
 20
-1509.0832003737473
 30
0.0
 41
1.0
 10
838.90778596819825
 20
-1509.0272560551705
 30
0.0
 41
0.9988031841976417
 10
839.05765633080318
 20
-1508.9857559910029
 30
0.0
 41
1.0
 10
839.08257357916602
 20
-1508.9788562451961
 30
0.0
 41
1.0
 10
839.10749082752886
 20
-1508.9719564993893
 30
0.0
 41
1.0
 10
839.27476085317574
 20
-1508.9256383569823
 30
0.0
 41
0.998474804054955
 10
839.44611776182489
 20
-1508.8980441247174
 30
0.0
 41
1.0
 10
839.45085689807479
 20
-1508.8972809642037
 30
0.0
 41
1.0
 10
839.45559603432469
 20
-1508.8965178036901
 30
0.0
 41
1.0
 10
839.61747467047508
 20
-1508.8704498924526
 30
0.0
 41
0.9984436495480318
 10
839.78124941419856
 20
-1508.8625719386339
 30
0.0
 41
1.0
 10
839.80294662232973
 20
-1508.8615282514343
 30
0.0
 41
1.0
 10
839.8246438304609
 20
-1508.8604845642346
 30
0.0
 41
1.0
 10
839.94502415792317
 20
-1508.8546939848152
 30
0.0
 41
0.9987954789335031
 10
840.06539240283314
 20
-1508.8607305125574
 30
0.0
 41
1.0
 10
840.08535719532836
 20
-1508.861731756896
 30
0.0
 41
1.0
 10
840.10532198782357
 20
-1508.8627330012346
 30
0.0
 41
1.0
 10
840.18576064774402
 20
-1508.8667670402997
 30
0.0
 41
0.9997941595875914
 10
840.2659694258374
 20
-1508.8740611062208
 30
0.0
 41
1.0
 10
840.34617820393146
 20
-1508.8813551721419
 30
0.0
 41
0.9998589466238576
 10
840.42609675078563
 20
-1508.8913390265918
 30
0.0
 41
1.0
 10
840.45850295259447
 20
-1508.8953873835112
 30
0.0
 41
1.0
 10
840.49090915440331
 20
-1508.8994357404304
 30
0.0
 41
1.0
 10
840.63564010487426
 20
-1508.9175163087189
 30
0.0
 41
0.99934950632493
 10
840.77869134863943
 20
-1508.9459820184602
 30
0.0
 41
1.0
 10
840.81162504579197
 20
-1508.9525354816751
 30
0.0
 41
1.0
 10
840.8445587429444
 20
-1508.95908894489
 30
0.0
 41
1.0
 10
840.95385256614964
 20
-1508.9808372790258
 30
0.0
 41
0.9996788715561135
 10
841.06190413810543
 20
-1509.0080950783886
 30
0.0
 41
1.0
 10
841.0639671406434
 20
-1509.0086155049612
 30
0.0
 41
1.0
 10
841.06603014318148
 20
-1509.009135931534
 30
0.0
 41
1.0
 10
841.16995571006112
 20
-1509.0353528777514
 30
0.0
 41
0.9995480654492507
 10
841.27211794529126
 20
-1509.0677678343759
 30
0.0
 41
1.0
 10
841.27380758742106
 20
-1509.0683039392902
 30
0.0
 41
1.0
 10
841.27549722955075
 20
-1509.0688400442043
 30
0.0
 41
1.0
 10
841.37428018052128
 20
-1509.1001827910006
 30
0.0
 41
0.9993867959456055
 10
841.47062733896325
 20
-1509.1383621602902
 30
0.0
 41
1.0
 10
841.47187028805058
 20
-1509.1388547021875
 30
0.0
 41
1.0
 10
841.47311323713791
 20
-1509.1393472440848
 30
0.0
 41
1.0
 10
841.56697449740841
 20
-1509.1765415295811
 30
0.0
 41
0.9992050256521947
 10
841.65757417243913
 20
-1509.2210954288187
 30
0.0
 41
1.0
 10
841.65830885515015
 20
-1509.2214567212789
 30
0.0
 41
1.0
 10
841.65904353786118
 20
-1509.221818013739
 30
0.0
 41
1.0
 10
841.74817384747087
 20
-1509.2656493280563
 30
0.0
 41
0.9990222350741146
 10
841.83308390886623
 20
-1509.3171825957556
 30
0.0
 41
1.0
 10
841.83326779414961
 20
-1509.3172941986609
 30
0.0
 41
1.0
 10
841.83345167943287
 20
-1509.3174058015661
 30
0.0
 41
1.0
 10
841.91799397026
 20
-1509.3687158634541
 30
0.0
 41
0.9988642743805249
 10
841.99726850487878
 20
-1509.4278400509793
 30
0.0
 41
1.0
 10
842.0765430394988
 20
-1509.4869642385054
 30
0.0
 41
0.9987681233310954
 10
842.14956682377453
 20
-1509.5536549299059
 30
0.0
 41
1.0
 10
842.14989575174013
 20
-1509.5539553311198
 30
0.0
 41
1.0
 10
842.15022467970562
 20
-1509.5542557323338
 30
0.0
 41
1.0
 10
842.22390631991379
 20
-1509.6215472261633
 30
0.0
 41
0.9987496570898283
 10
842.2905001252401
 20
-1509.695860040249
 30
0.0
 41
1.0
 10
842.29127229500068
 20
-1509.6967217136071
 30
0.0
 41
1.0
 10
842.29204446476137
 20
-1509.6975833869653
 30
0.0
 41
1.0
 10
842.36018260960918
 20
-1509.7736195477673
 30
0.0
 41
0.9988147669826902
 10
842.42060486383491
 20
-1509.8559205546107
 30
0.0
 41
1.0
 10
842.42172418991242
 20
-1509.8574451859631
 30
0.0
 41
1.0
 10
842.42284351598994
 20
-1509.8589698173153
 30
0.0
 41
1.0
 10
842.4855044223707
 20
-1509.9443200868634
 30
0.0
 41
0.9989452636216655
 10
842.5400713353315
 20
-1510.0350587760202
 30
0.0
 41
1.0
 10
842.54142006141728
 20
-1510.0373015570467
 30
0.0
 41
1.0
 10
842.54276878750306
 20
-1510.039544338073
 30
0.0
 41
1.0
 10
842.60003315263543
 20
-1510.1347685892822
 30
0.0
 41
0.9991046436069926
 10
842.64904236595657
 20
-1510.2344930223069
 30
0.0
 41
1.0
 10
842.650506227547
 20
-1510.2374717023804
 30
0.0
 41
1.0
 10
842.65197008913742
 20
-1510.2404503824537
 30
0.0
 41
1.0
 10
842.70390702563918
 20
-1510.3461321756245
 30
0.0
 41
0.9992763831101481
 10
842.74766015419459
 20
-1510.4554562375806
 30
0.0
 41
1.0
 10
842.74913942385774
 20
-1510.4591524251139
 30
0.0
 41
1.0
 10
842.75061869352089
 20
-1510.4628486126471
 30
0.0
 41
1.0
 10
842.79733036140328
 20
-1510.5795650496721
 30
0.0
 41
0.9994163472883331
 10
842.83596339259236
 20
-1510.6991986381342
 30
0.0
 41
1.0
 10
842.83720154483967
 20
-1510.7030327819184
 30
0.0
 41
1.0
 10
842.83843969708687
 20
-1510.7068669257028
 30
0.0
 41
1.0
 10
842.87832325810359
 20
-1510.8303729871798
 30
0.0
 41
0.9997268055891334
 10
842.91239131401517
 20
-1510.9556080191289
 30
0.0
 41
1.0
 10
842.91332149428513
 20
-1510.9590273852391
 30
0.0
 41
1.0
 10
842.91425167455498
 20
-1510.9624467513493
 30
0.0
 41
1.0
 10
842.94645936992686
 20
-1511.0808430510781
 30
0.0
 41
0.9996701319000518
 10
842.97254498669759
 20
-1511.200737004343
 30
0.0
 41
1.0
 10
842.99863060346809
 20
-1511.3206309576071
 30
0.0
 41
0.9995785451109269
 10
843.01771418080807
 20
-1511.4418367186399
 30
0.0
 41
1.0
 10
843.02193396298151
 20
-1511.4686378734029
 30
0.0
 41
1.0
 10
843.02615374515494
 20
-1511.4954390281659
 30
0.0
 41
1.0
 10
843.05272872109379
 20
-1511.6642250018697
 30
0.0
 41
0.9979925101216605
 10
843.05775430702022
 20
-1511.8350163299629
 30
0.0
 41
1.0
 10
843.05857911944486
 20
-1511.8630470534399
 30
0.0
 41
1.0
 10
843.05940393186938
 20
-1511.891077776917
 30
0.0
 41
1.0
 10
843.06277989294688
 20
-1512.0058076580481
 30
0.0
 41
0.9995314902262369
 10
843.05912970080806
 20
-1512.1205291418064
 30
0.0
 41
1.0
 10
843.05547950866912
 20
-1512.2352506255631
 30
0.0
 41
0.9996245486944565
 10
843.04555041353819
 20
-1512.3495998966887
 30
0.0
 41
1.0
 10
843.04538736554423
 20
-1512.3514776528209
 30
0.0
 41
1.0
 10
843.04522431755026
 20
-1512.3533554089529
 30
0.0
 41
1.0
 10
843.03496912643106
 20
-1512.4714601923458
 30
0.0
 41
0.9997286095001159
 10
843.01922380286067
 20
-1512.5889591012328
 30
0.0
 41
1.0
 10
843.01883031020975
 20
-1512.5918955259394
 30
0.0
 41
1.0
 10
843.01843681755872
 20
-1512.5948319506458
 30
0.0
 41
1.0
 10
843.00190450868672
 20
-1512.7182037089444
 30
0.0
 41
0.9998265533969634
 10
842.98078904995396
 20
-1512.8408741837325
 30
0.0
 41
1.0
 10
842.98011250781678
 20
-1512.8448045622401
 30
0.0
 41
1.0
 10
842.97943596567961
 20
-1512.8487349407478
 30
0.0
 41
1.0
 10
842.9569674226716
 20
-1512.9792661725569
 30
0.0
 41
0.9999022530856339
 10
842.93085795806087
 20
-1513.1091181411989
 30
0.0
 41
1.0
 10
842.9298793168964
 20
-1513.1139852835815
 30
0.0
 41
1.0
 10
842.92890067573205
 20
-1513.1188524259642
 30
0.0
 41
1.0
 10
842.90083392879012
 20
-1513.2584386793835
 30
0.0
 41
0.9999524761938031
 10
842.87005095995403
 20
-1513.3974511725535
 30
0.0
 41
1.0
 10
842.86877485277978
 20
-1513.4032139318501
 30
0.0
 41
1.0
 10
842.86749874560564
 20
-1513.4089766911466
 30
0.0
 41
1.0
 10
842.83416356241605
 20
-1513.5595147029323
 30
0.0
 41
0.9999813588716864
 10
842.79899256161991
 20
-1513.7096344155898
 30
0.0
 41
1.0
 10
842.79743863616545
 20
-1513.7162670060031
 30
0.0
 41
1.0
 10
842.79588471071111
 20
-1513.7228995964165
 30
0.0
 41
1.0
 10
842.75760585901082
 20
-1513.8862844898808
 30
0.0
 41
0.9999955237646153
 10
842.71834998102997
 20
-1514.0494373934889
 30
0.0
 41
1.0
 10
842.70606834539149
 20
-1514.1004815840292
 30
0.0
 41
1.0
 10
842.69378670975289
 20
-1514.1515257745698
 30
0.0
 41
1.0
 10
842.62996756048483
 20
-1514.4167670592997
 30
0.0
 41
0.9999993604203638
 10
842.5655486132971
 20
-1514.6818633100652
 30
0.0
 41
1.0
 10
842.56082977776941
 20
-1514.7012822180261
 30
0.0
 41
1.0
 10
842.55611094224162
 20
-1514.720701125987
 30
0.0
 41
1.0
 10
842.48225432398021
 20
-1515.0246351927494
 30
0.0
 41
0.9999659914731315
 10
842.40339472809444
 20
-1515.3273097393112
 30
0.0
 41
1.0
 10
842.39844203916459
 20
-1515.3463188764908
 30
0.0
 41
1.0
 10
842.39348935023463
 20
-1515.3653280136703
 30
0.0
 41
1.0
 10
842.30472437649064
 20
-1515.7060208345852
 30
0.0
 41
0.9999441976028456
 10
842.20878134352733
 20
-1516.0447622598826
 30
0.0
 41
1.0
 10
842.19208082510102
 20
-1516.1037259724133
 30
0.0
 41
1.0
 10
842.1753803066747
 20
-1516.1626896849439
 30
0.0
 41
1.0
 10
842.04603623686069
 20
-1516.6193585352958
 30
0.0
 41
0.999962512073535
 10
841.90880346953804
 20
-1517.0737190692892
 30
0.0
 41
1.0
 10
841.87301352645613
 20
-1517.1922150959126
 30
0.0
 41
1.0
 10
841.83722358337434
 20
-1517.3107111225361
 30
0.0
 41
1.0
 10
841.76270337933443
 20
-1517.5574382006348
 30
0.0
 41
0.999979338630548
 10
841.68501735619202
 20
-1517.8031868398864
 30
0.0
 41
1.0
 10
841.6073313330545
 20
-1518.0489354791225
 30
0.0
 41
1.0
 10
841.59655177418381
 20
-1518.0829533834972
 30
0.0
 41
1.0
 10
839.74617872091471
 20
-1523.9700253059646
 30
0.0
 41
1.0
 10
837.8958056676455
 20
-1529.8570972284322
 30
0.0
 41
1.0
 10
836.93454897762194
 20
-1529.8570972284322
 30
0.0
 41
1.0
 10
835.97329228759838
 20
-1529.8570972284322
 30
0.0
 41
1.0
 10
837.59223706627677
 20
-1524.7090687266427
 30
0.0
 41
1.0
 10
839.21118184495526
 20
-1519.5610402248533
 30
0.0
 41
1.0
 10
839.25634766812732
 20
-1519.4170090025907
 30
0.0
 41
1.0
 10
839.30151349129937
 20
-1519.2729777803281
 30
0.0
 41
1.0
 10
839.47181790866489
 20
-1518.7298867511563
 30
0.0
 41
0.9999911657885733
 10
839.63755072034678
 20
-1518.1853832197874
 30
0.0
 41
1.0
 10
839.66724666385039
 20
-1518.0878192797261
 30
0.0
 41
1.0
 10
839.69694260735412
 20
-1517.9902553396648
 30
0.0
 41
1.0
 10
839.80328353203413
 20
-1517.6408796883998
 30
0.0
 41
0.9999952428155881
 10
839.90746712135206
 20
-1517.2908546640742
 30
0.0
 41
1.0
 10
839.91252659168572
 20
-1517.2738563897951
 30
0.0
 41
1.0
 10
839.91758606201938
 20
-1517.256858115516
 30
0.0
 41
1.0
 10
840.01165071067976
 20
-1516.9408296397146
 30
0.0
 41
0.9999931687506419
 10
840.10337654855061
 20
-1516.6241144264541
 30
0.0
 41
1.0
 10
840.10831181300819
 20
-1516.6070737171899
 30
0.0
 41
1.0
 10
840.11324707746564
 20
-1516.5900330079257
 30
0.0
 41
1.0
 10
840.19510238642283
 20
-1516.3073992131881
 30
0.0
 41
0.9999893840776407
 10
840.27434961288111
 20
-1516.024023083937
 30
0.0
 41
1.0
 10
840.35359683933757
 20
-1515.7406469546918
 30
0.0
 41
0.9999833980086019
 10
840.42957308007647
 20
-1515.4563763716742
 30
0.0
 41
1.0
 10
840.43857701680054
 20
-1515.422687493189
 30
0.0
 41
1.0
 10
840.44758095352472
 20
-1515.3889986147037
 30
0.0
 41
1.0
 10
840.51654550238982
 20
-1515.1309627824114
 30
0.0
 41
0.9999233658064977
 10
840.57910047361145
 20
-1514.871298623684
 30
0.0
 41
1.0
 10
840.64165544483171
 20
-1514.6116344649615
 30
0.0
 41
1.0
 10
840.68113886368928
 20
-1514.4478278005354
 30
0.0
 41
1.0
 10
840.68611746766476
 20
-1514.4271728386725
 30
0.0
 41
1.0
 10
840.69109607164023
 20
-1514.4065178768096
 30
0.0
 41
1.0
 10
840.72062228254322
 20
-1514.2840211361245
 30
0.0
 41
0.9999868670875954
 10
840.74889136654303
 20
-1514.1612281904638
 30
0.0
 41
1.0
 10
840.75278885369858
 20
-1514.1442986030561
 30
0.0
 41
1.0
 10
840.75668634085423
 20
-1514.1273690156484
 30
0.0
 41
1.0
 10
840.77716045053648
 20
-1514.0384352448302
 30
0.0
 41
0.9999778173349093
 10
840.79644804865461
 20
-1513.9492366275879
 30
0.0
 41
1.0
 10
840.81573564677115
 20
-1513.8600380103524
 30
0.0
 41
0.9999602692859767
 10
840.83343000540151
 20
-1513.770509721928
 30
0.0
 41
1.0
 10
840.83663383747876
 20
-1513.7542992670437
 30
0.0
 41
1.0
 10
840.83983766955612
 20
-1513.7380888121597
 30
0.0
 41
1.0
 10
840.86393969234257
 20
-1513.6161396139596
 30
0.0
 41
0.9995617985320829
 10
840.88078303956149
 20
-1513.4929778662515
 30
0.0
 41
1.0
 10
840.88324752946744
 20
-1513.4749570488875
 30
0.0
 41
1.0
 10
840.88571201937339
 20
-1513.4569362315237
 30
0.0
 41
1.0
 10
840.90599528042162
 20
-1513.3086211818236
 30
0.0
 41
0.9991121410639389
 10
840.91372063400991
 20
-1513.1591250830174
 30
0.0
 41
1.0
 10
840.91463942403436
 20
-1513.1413452464433
 30
0.0
 41
1.0
 10
840.91555821405882
 20
-1513.1235654098691
 30
0.0
 41
1.0
 10
840.92144598759808
 20
-1513.0096289842131
 30
0.0
 41
0.9989792494905597
 10
840.91702689548083
 20
-1512.8956261483127
 30
0.0
 41
1.0
 10
840.916378923612
 20
-1512.8789099023816
 30
0.0
 41
1.0
 10
840.91573095174317
 20
-1512.8621936564505
 30
0.0
 41
1.0
 10
840.91260780336336
 20
-1512.7816233124104
 30
0.0
 41
0.9997820295393979
 10
840.90612380598782
 20
-1512.7012535906704
 30
0.0
 41
1.0
 10
840.89963980861194
 20
-1512.620883868924
 30
0.0
 41
0.9998335105974514
 10
840.89022761310059
 20
-1512.5408042524778
 30
0.0
 41
1.0
 10
840.8886326884242
 20
-1512.5272345219939
 30
0.0
 41
1.0
 10
840.88703776374768
 20
-1512.5136647915101
 30
0.0
 41
1.0
 10
840.87443571888389
 20
-1512.4064457140978
 30
0.0
 41
0.9996876457878836
 10
840.8564918060855
 20
-1512.2999902863814
 30
0.0
 41
1.0
 10
840.85426014293989
 20
-1512.2867505511374
 30
0.0
 41
1.0
 10
840.85202847979417
 20
-1512.2735108158934
 30
0.0
 41
1.0
 10
840.83823265837339
 20
-1512.1916646719355
 30
0.0
 41
0.9995547496493896
 10
840.81957933648073
 20
-1512.1107871747449
 30
0.0
 41
1.0
 10
840.81920537960946
 20
-1512.1091657640393
 30
0.0
 41
1.0
 10
840.81883142273807
 20
-1512.1075443533337
 30
0.0
 41
1.0
 10
840.80092601458841
 20
-1512.0299096775552
 30
0.0
 41
0.9994899427175505
 10
840.77810110590872
 20
-1511.9535763947192
 30
0.0
 41
1.0
 10
840.77764257916783
 20
-1511.9520429449303
 30
0.0
 41
1.0
 10
840.77718405242706
 20
-1511.9505094951417
 30
0.0
 41
1.0
 10
840.75527619722914
 20
-1511.8772431118834
 30
0.0
 41
0.9993784877589959
 10
840.72826056212284
 20
-1511.8057024067259
 30
0.0
 41
1.0
 10
840.72772887114593
 20
-1511.8042944240053
 30
0.0
 41
1.0
 10
840.72719718016901
 20
-1511.8028864412847
 30
0.0
 41
1.0
 10
840.70124492701609
 20
-1511.7341617015663
 30
0.0
 41
0.9992430832254219
 10
840.67002839185693
 20
-1511.6676625494986
 30
0.0
 41
1.0
 10
840.66944627580028
 20
-1511.6664224943811
 30
0.0
 41
1.0
 10
840.66886415974375
 20
-1511.6651824392638
 30
0.0
 41
1.0
 10
840.63881185669709
 20
-1511.6011633974294
 30
0.0
 41
0.9990789632798587
 10
840.60338122992084
 20
-1511.5399567856807
 30
0.0
 41
1.0
 10
840.6027855237387
 20
-1511.5389276998212
 30
0.0
 41
1.0
 10
840.60218981755668
 20
-1511.5378986139619
 30
0.0
 41
1.0
 10
840.56795060314334
 20
-1511.4787501739297
 30
0.0
 41
0.9988874801120382
 10
840.52829132711213
 20
-1511.4230904615133
 30
0.0
 41
1.0
 10
840.52773580104815
 20
-1511.422310809839
 30
0.0
 41
1.0
 10
840.52718027498418
 20
-1511.4215311581645
 30
0.0
 41
1.0
 10
840.48863205108023
 20
-1511.3674307490955
 30
0.0
 41
0.998676206069363
 10
840.44472957980383
 20
-1511.3175770346561
 30
0.0
 41
1.0
 10
840.44428561947154
 20
-1511.3170728928394
 30
0.0
 41
1.0
 10
840.44384165913925
 20
-1511.3165687510227
 30
0.0
 41
1.0
 10
840.40082710852755
 20
-1511.2677233202169
 30
0.0
 41
0.9984621642488376
 10
840.35266955174984
 20
-1511.2239400197459
 30
0.0
 41
1.0
 10
840.3524229172333
 20
-1511.2237157875825
 30
0.0
 41
1.0
 10
840.35217628271664
 20
-1511.2234915554188
 30
0.0
 41
1.0
 10
840.30451199497259
 20
-1511.1801567192751
 30
0.0
 41
0.9982724693850358
 10
840.2520933631306
 20
-1511.1427123687572
 30
0.0
 41
1.0
 10
840.19967473128986
 20
-1511.1052680182399
 30
0.0
 41
0.9981399180158509
 10
840.14308866789622
 20
-1511.0744814987961
 30
0.0
 41
1.0
 10
840.14304300581762
 20
-1511.0744566556389
 30
0.0
 41
1.0
 10
840.1429973437389
 20
-1511.0744318124816
 30
0.0
 41
1.0
 10
840.0863199561885
 20
-1511.0435956067238
 30
0.0
 41
0.9980927086836721
 10
840.02627460512167
 20
-1511.0199787978711
 30
0.0
 41
1.0
 10
840.02583443541027
 20
-1511.0198056719962
 30
0.0
 41
1.0
 10
840.02539426569888
 20
-1511.0196325461213
 30
0.0
 41
1.0
 10
839.96446857520834
 20
-1510.9956694855186
 30
0.0
 41
0.9981411356561383
 10
839.90108005380887
 20
-1510.9792968440131
 30
0.0
 41
1.0
 10
839.90019793710781
 20
-1510.9790690018076
 30
0.0
 41
1.0
 10
839.89931582040685
 20
-1510.9788411596023
 30
0.0
 41
1.0
 10
839.83416306560525
 20
-1510.962012833686
 30
0.0
 41
0.9983031812935214
 10
839.76749563661087
 20
-1510.9528734725097
 30
0.0
 41
1.0
 10
839.7586246112063
 20
-1510.9516573538383
 30
0.0
 41
1.0
 10
839.74975358580173
 20
-1510.9504412351669
 30
0.0
 41
1.0
 10
839.69540394329795
 20
-1510.9429905051759
 30
0.0
 41
0.9983887708264052
 10
839.64056009400508
 20
-1510.9417458315424
 30
0.0
 41
1.0
 10
839.63249668878723
 20
-1510.9415628336676
 30
0.0
 41
1.0
 10
839.62443328356937
 20
-1510.9413798357928
 30
0.0
 41
1.0
 10
839.58571624471188
 20
-1510.9405011579092
 30
0.0
 41
0.9998869563080967
 10
839.54699029150959
 20
-1510.9407870272689
 30
0.0
 41
1.0
 10
839.50826433830798
 20
-1510.9410728966286
 30
0.0
 41
0.9999972320062024
 10
839.46954015909648
 20
-1510.9415409961575
 30
0.0
 41
1.0
 10
839.45018714251637
 20
-1510.9417749362469
 30
0.0
 41
1.0
 10
839.43083412593614
 20
-1510.9420088763363
 30
0.0
 41
1.0
 10
839.35340391356851
 20
-1510.9429448560443
 30
0.0
 41
0.9997304945087066
 10
839.27610060733377
 20
-1510.9474739498301
 30
0.0
 41
1.0
 10
839.26705096562659
 20
-1510.9480041558202
 30
0.0
 41
1.0
 10
839.2580013239193
 20
-1510.9485343618103
 30
0.0
 41
1.0
 10
839.16259873427794
 20
-1510.9541238675758
 30
0.0
 41
0.9997888306416222
 10
839.06750639844006
 20
-1510.9636288320642
 30
0.0
 41
1.0
 10
839.05878533686257
 20
-1510.9645005466969
 30
0.0
 41
1.0
 10
839.05006427528508
 20
-1510.9653722613293
 30
0.0
 41
1.0
 10
838.93752981629552
 20
-1510.9766206550828
 30
0.0
 41
0.9984170238190459
 10
838.82697066894343
 20
-1511.0004367370191
 30
0.0
 41
1.0
 10
838.79058953795857
 20
-1511.0082737728249
 30
0.0
 41
1.0
 10
838.7542084069737
 20
-1511.0161108086304
 30
0.0
 41
1.0
 10
838.63901733855187
 20
-1511.0409246751403
 30
0.0
 41
0.9976592854200094
 10
838.52828917214629
 20
-1511.0812233522875
 30
0.0
 41
1.0
 10
838.41756100574173
 20
-1511.1215220294346
 30
0.0
 41
0.9993255074352234
 10
838.31008920695172
 20
-1511.1698389279265
 30
0.0
 41
1.0
 10
838.30546402802781
 20
-1511.1719183041264
 30
0.0
 41
1.0
 10
838.30083884910391
 20
-1511.1739976803265
 30
0.0
 41
1.0
 10
838.18411669246711
 20
-1511.2264733312184
 30
0.0
 41
0.9976475078275464
 10
838.07566934815634
 20
-1511.2944213208768
 30
0.0
 41
1.0
 10
838.05732695402094
 20
-1511.3059137996918
 30
0.0
 41
1.0
 10
838.03898455988542
 20
-1511.3174062785067
 30
0.0
 41
1.0
 10
837.95478236833537
 20
-1511.3701633992737
 30
0.0
 41
0.9995131336406812
 10
837.87403465337695
 20
-1511.4280696112276
 30
0.0
 41
1.0
 10
837.79328693842035
 20
-1511.4859758231803
 30
0.0
 41
0.9995810107605979
 10
837.71602529069014
 20
-1511.5484575056473
 30
0.0
 41
1.0
 10
837.71305525948037
 20
-1511.5508593771115
 30
0.0
 41
1.0
 10
837.7100852282706
 20
-1511.5532612485758
 30
0.0
 41
1.0
 10
837.62688351812778
 20
-1511.6205466739659
 30
0.0
 41
0.9996617837954996
 10
837.54729283099755
 20
-1511.6920671295206
 30
0.0
 41
1.0
 10
837.53516208011376
 20
-1511.7029678625174
 30
0.0
 41
1.0
 10
837.52303132922998
 20
-1511.7138685955142
 30
0.0
 41
1.0
 10
837.45475580183347
 20
-1511.7752212109865
 30
0.0
 41
0.9997267750051979
 10
837.38942229355121
 20
-1511.8396977475104
 30
0.0
 41
1.0
 10
837.32408878526235
 20
-1511.9041742840407
 30
0.0
 41
0.9999667288967576
 10
837.25981584211036
 20
-1511.9697080909409
 30
0.0
 41
1.0
 10
837.19098839434048
 20
-1512.0398857496939
 30
0.0
 41
1.0
 10
837.1221609465706
 20
-1512.1100634084469
 30
0.0
 41
1.0
 10
836.9202331078726
 20
-1512.3159525328588
 30
0.0
 41
0.9988205335174655
 10
836.73922749089229
 20
-1512.5404567649207
 30
0.0
 41
1.0
 10
836.70858752598861
 20
-1512.5784600153493
 30
0.0
 41
1.0
 10
836.67794756108492
 20
-1512.6164632657781
 30
0.0
 41
1.0
 10
836.43566201429246
 20
-1512.9169739987028
 30
0.0
 41
0.9997077826754498
 10
836.20818406318688
 20
-1513.2288437929203
 30
0.0
 41
1.0
 10
836.20646064805828
 20
-1513.2312065762972
 30
0.0
 41
1.0
 10
836.2047372329298
 20
-1513.233569359674
 30
0.0
 41
1.0
 10
835.97381245156237
 20
-1513.5501647206511
 30
0.0
 41
0.9989147567078898
 10
835.77334894867772
 20
-1513.8868741818383
 30
0.0
 41
1.0
 10
835.74860780337394
 20
-1513.9284307623852
 30
0.0
 41
1.0
 10
835.72386665807016
 20
-1513.9699873429324
 30
0.0
 41
1.0
 10
835.56865535943052
 20
-1514.2306887273892
 30
0.0
 41
0.999747659818132
 10
835.42531037191929
 20
-1514.4980984759743
 30
0.0
 41
1.0
 10
835.28196538440875
 20
-1514.7655082245585
 30
0.0
 41
0.9996258967110456
 10
835.15345713247621
 20
-1515.0403561611845
 30
0.0
 41
1.0
 10
835.14025722302836
 20
-1515.0685875612762
 30
0.0
 41
1.0
 10
835.12705731358039
 20
-1515.0968189613682
 30
0.0
 41
1.0
 10
834.98684859258128
 20
-1515.3966913593197
 30
0.0
 41
0.9998735413943902
 10
834.85624724585819
 20
-1515.7008709587931
 30
0.0
 41
1.0
 10
834.85280441779651
 20
-1515.7088895442603
 30
0.0
 41
1.0
 10
834.84936158973494
 20
-1515.7169081297275
 30
0.0
 41
1.0
 10
834.72564589913554
 20
-1516.0050505582667
 30
0.0
 41
0.9999377418856971
 10
834.60839109696303
 20
-1516.295882025936
 30
0.0
 41
1.0
 10
834.49113629478734
 20
-1516.5867134936129
 30
0.0
 41
0.9999508299508234
 10
834.37967235141105
 20
-1516.879813170432
 30
0.0
 41
1.0
 10
834.37659158274835
 20
-1516.8879141963964
 30
0.0
 41
1.0
 10
834.37351081408565
 20
-1516.8960152223608
 30
0.0
 41
1.0
 10
834.2558853333835
 20
-1517.2053169511091
 30
0.0
 41
0.9999609228434002
 10
834.14374673051259
 20
-1517.5166499671163
 30
0.0
 41
1.0
 10
834.14079072016125
 20
-1517.5248568075303
 30
0.0
 41
1.0
 10
834.13783470981002
 20
-1517.5330636479443
 30
0.0
 41
1.0
 10
834.01978408624063
 20
-1517.8608103447684
 30
0.0
 41
0.9999674607395507
 10
833.9070365601749
 20
-1518.1904189647557
 30
0.0
 41
1.0
 10
833.85563816960894
 20
-1518.3406781604576
 30
0.0
 41
1.0
 10
833.80423977904297
 20
-1518.4909373561597
 30
0.0
 41
1.0
 10
833.68822917228522
 20
-1518.8300853386622
 30
0.0
 41
0.9999287532310154
 10
833.58034776831505
 20
-1519.1719060776368
 30
0.0
 41
1.0
 10
833.53387051222876
 20
-1519.3191686218402
 30
0.0
 41
1.0
 10
833.48739325614247
 20
-1519.4664311660438
 30
0.0
 41
1.0
 10
833.47246636439445
 20
-1519.5137268164531
 30
0.0
 41
0.9999998224582036
 10
833.45759585561382
 20
-1519.5610402248533
 30
0.0
 41
1.0
 10
831.83693971881837
 20
-1524.7090687266427
 30
0.0
 41
1.0
 10
830.21628358202292
 20
-1529.8570972284322
 30
0.0
 41
1.0
 10
829.31097513813199
 20
-1529.8570972284322
 30
0.0
 41
1.0
 10
828.40566669424106
 20
-1529.8570972284322
 30
0.0
 41
1.0
 10
830.25775110562711
 20
-1523.9700253059646
 30
0.0
 41
1.0
 10
832.10983551701315
 20
-1518.0829533834972
 30
0.0
 41
1.0
 10
832.11995727531587
 20
-1518.0509101700475
 30
0.0
 41
1.0
 10
832.19256494416561
 20
-1517.8206106282216
 30
0.0
 41
1.0
 10
832.26517261301638
 20
-1517.5903110863928
 30
0.0
 41
0.9999825681975505
 10
832.33505565222345
 20
-1517.3591701913419
 30
0.0
 41
1.0
 10
832.38334671438395
 20
-1517.1994456078471
 30
0.0
 41
1.0
 10
832.43163777654445
 20
-1517.0397210243523
 30
0.0
 41
1.0
 10
832.52879012986239
 20
-1516.7183858025733
 30
0.0
 41
0.999967252896542
 10
832.6207289354877
 20
-1516.3955202569809
 30
0.0
 41
1.0
 10
832.62351781915936
 20
-1516.3857264115843
 30
0.0
 41
1.0
 10
832.62630670283102
 20
-1516.3759325661877
 30
0.0
 41
1.0
 10
832.71266774111382
 20
-1516.0726547113841
 30
0.0
 41
0.9999899749135848
 10
832.79630935064574
 20
-1515.768615622942
 30
0.0
 41
1.0
 10
832.80641526966224
 20
-1515.7318803852672
 30
0.0
 41
1.0
 10
832.81652118867873
 20
-1515.6951451475925
 30
0.0
 41
1.0
 10
832.87995096017903
 20
-1515.4645765344953
 30
0.0
 41
0.9999214200505938
 10
832.93758038855822
 20
-1515.2324901922802
 30
0.0
 41
1.0
 10
832.95034624073855
 20
-1515.1810793068848
 30
0.0
 41
1.0
 10
832.963112092919
 20
-1515.1296684214892
 30
0.0
 41
1.0
 10
832.99520981693536
 20
-1515.0004038500733
 30
0.0
 41
0.9999828681670963
 10
833.02579206893131
 20
-1514.8707723756036
 30
0.0
 41
1.0
 10
833.05637432092703
 20
-1514.7411409011356
 30
0.0
 41
0.9999389844476277
 10
833.08408530971622
 20
-1514.6108654452348
 30
0.0
 41
1.0
 10
833.09122305343635
 20
-1514.5773093413982
 30
0.0
 41
1.0
 10
833.09836079715637
 20
-1514.5437532375613
 30
0.0
 41
1.0
 10
833.14034727338469
 20
-1514.3463655739924
 30
0.0
 41
0.9998933699441225
 10
833.17655153778605
 20
-1514.1478359662399
 30
0.0
 41
1.0
 10
833.17792436300351
 20
-1514.1403079455372
 30
0.0
 41
1.0
 10
833.17929718822097
 20
-1514.1327799248345
 30
0.0
 41
1.0
 10
833.218247103056
 20
-1513.9191942756822
 30
0.0
 41
0.999685030519344
 10
833.24643077931478
 20
-1513.7039232702455
 30
0.0
 41
1.0
 10
833.2484258126841
 20
-1513.6886849161228
 30
0.0
 41
1.0
 10
833.25042084605343
 20
-1513.6734465620004
 30
0.0
 41
1.0
 10
833.2778287085124
 20
-1513.4641013348464
 30
0.0
 41
0.9994697936706456
 10
833.29155326773184
 20
-1513.253416139517
 30
0.0
 41
1.0
 10
833.2920303369815
 20
-1513.2460926673052
 30
0.0
 41
1.0
 10
833.29250740623127
 20
-1513.2387691950937
 30
0.0
 41
1.0
 10
833.30527782695162
 20
-1513.0427309441843
 30
0.0
 41
0.9991804893136549
 10
833.30214951067865
 20
-1512.8463020942127
 30
0.0
 41
1.0
 10
833.30206563185652
 20
-1512.8410352928004
 30
0.0
 41
1.0
 10
833.3019817530344
 20
-1512.8357684913879
 30
0.0
 41
1.0
 10
833.2990211944059
 20
-1512.6498732442394
 30
0.0
 41
0.9988448329321505
 10
833.27822964878214
 20
-1512.4651206544058
 30
0.0
 41
1.0
 10
833.27663557507913
 20
-1512.4509557986346
 30
0.0
 41
1.0
 10
833.27504150137611
 20
-1512.4367909428634
 30
0.0
 41
1.0
 10
833.25743810315839
 20
-1512.2803680645727
 30
0.0
 41
0.9985503209458645
 10
833.22312183085887
 20
-1512.1267438804832
 30
0.0
 41
1.0
 10
833.21553583878767
 20
-1512.0927835530833
 30
0.0
 41
1.0
 10
833.20794984671659
 20
-1512.0588232256837
 30
0.0
 41
1.0
 10
833.18880555855912
 20
-1511.9731196963933
 30
0.0
 41
0.9991036781370178
 10
833.16248069690801
 20
-1511.889342609069
 30
0.0
 41
1.0
 10
833.15849847145182
 20
-1511.8766694465578
 30
0.0
 41
1.0
 10
833.15451624599564
 20
-1511.8639962840466
 30
0.0
 41
1.0
 10
833.13615583525666
 20
-1511.8055655217431
 30
0.0
 41
0.9998874504369226
 10
833.11605062757849
 20
-1511.7477119195207
 30
0.0
 41
1.0
 10
833.09594541990032
 20
-1511.6898583172983
 30
0.0
 41
0.9994041637543676
 10
833.07189680696638
 20
-1511.6335296134091
 30
0.0
 41
1.0
 10
833.06770002274209
 20
-1511.6236995489267
 30
0.0
 41
1.0
 10
833.0635032385178
 20
-1511.6138694844442
 30
0.0
 41
1.0
 10
833.03562440752285
 20
-1511.5485693184755
 30
0.0
 41
0.9991846840700819
 10
833.00256805083006
 20
-1511.4857312871964
 30
0.0
 41
1.0
 10
833.00143144443473
 20
-1511.4835706707408
 30
0.0
 41
1.0
 10
833.00029483803928
 20
-1511.4814100542856
 30
0.0
 41
1.0
 10
832.96951169413637
 20
-1511.4228932559154
 30
0.0
 41
0.9989253167923109
 10
832.93344227008197
 20
-1511.367478327526
 30
0.0
 41
1.0
 10
832.93238814540769
 20
-1511.3658588327635
 30
0.0
 41
1.0
 10
832.9313340207334
 20
-1511.3642393380012
 30
0.0
 41
1.0
 10
832.89737284602711
 20
-1511.3120633991357
 30
0.0
 41
0.9986467172835783
 10
832.85817569338974
 20
-1511.2636973655062
 30
0.0
 41
1.0
 10
832.85730156468946
 20
-1511.2626187632286
 30
0.0
 41
1.0
 10
832.85642743598919
 20
-1511.2615401609507
 30
0.0
 41
1.0
 10
832.81897854075271
 20
-1511.215331331877
 30
0.0
 41
0.9984001104267911
 10
832.77655181023511
 20
-1511.1736462245076
 30
0.0
 41
1.0
 10
832.77596467212527
 20
-1511.1730693496258
 30
0.0
 41
1.0
 10
832.77537753401543
 20
-1511.1724924747441
 30
0.0
 41
1.0
 10
832.7341250797175
 20
-1511.1319611171386
 30
0.0
 41
0.9982442159083532
 10
832.68836897838241
 20
-1511.0965925558787
 30
0.0
 41
1.0
 10
832.6881541829207
 20
-1511.0964265232356
 30
0.0
 41
1.0
 10
832.6879393874591
 20
-1511.0962604905924
 30
0.0
 41
1.0
 10
832.64261287704642
 20
-1511.0612239946181
 30
0.0
 41
0.9982450060835216
 10
832.59346189797498
 20
-1511.0317922115851
 30
0.0
 41
1.0
 10
832.54431091890433
 20
-1511.002360428552
 30
0.0
 41
0.998392263963485
 10
832.49214461273948
 20
-1510.9786807938979
 30
0.0
 41
1.0
 10
832.49191773541452
 20
-1510.978577808416
 30
0.0
 41
1.0
 10
832.49169085808944
 20
-1510.9784748229345
 30
0.0
 41
1.0
 10
832.43907079727319
 20
-1510.9545892173164
 30
0.0
 41
0.9986517147149299
 10
832.38425782440311
 20
-1510.9362880981942
 30
0.0
 41
1.0
 10
832.38357990297754
 20
-1510.9360617517636
 30
0.0
 41
1.0
 10
832.3829019815521
 20
-1510.9358354053329
 30
0.0
 41
1.0
 10
832.32673316582941
 20
-1510.9170815933485
 30
0.0
 41
0.9989435598956927
 10
832.26907977867802
 20
-1510.9035638911139
 30
0.0
 41
1.0
 10
832.26799965909572
 20
-1510.9033106408608
 30
0.0
 41
1.0
 10
832.26691953951354
 20
-1510.9030573906077
 30
0.0
 41
1.0
 10
832.20710591320017
 20
-1510.8890331878674
 30
0.0
 41
0.9992249241240391
 10
832.1463744043042
 20
-1510.8797578451524
 30
0.0
 41
1.0
 10
832.14496071601184
 20
-1510.8795419367443
 30
0.0
 41
1.0
 10
832.14354702771936
 20
-1510.8793260283364
 30
0.0
 41
1.0
 10
832.07998814224163
 20
-1510.8696188688057
 30
0.0
 41
0.9994396597834304
 10
832.01592220570637
 20
-1510.8641859464599
 30
0.0
 41
1.0
 10
831.99678153822686
 20
-1510.862562778741
 30
0.0
 41
1.0
 10
831.97764087074734
 20
-1510.8609396110223
 30
0.0
 41
1.0
 10
831.87529359925384
 20
-1510.8522603532394
 30
0.0
 41
0.9987693403121353
 10
831.77258997566594
 20
-1510.8537634166921
 30
0.0
 41
1.0
 10
831.76233564143877
 20
-1510.8539134884663
 30
0.0
 41
1.0
 10
831.7520813072116
 20
-1510.8540635602405
 30
0.0
 41
1.0
 10
831.64252554103359
 20
-1510.8556669045279
 30
0.0
 41
0.9989753644966266
 10
831.53356354101788
 20
-1510.8671699114529
 30
0.0
 41
1.0
 10
831.42460154100104
 20
-1510.8786729183782
 30
0.0
 41
0.9983190067306025
 10
831.31770273003576
 20
-1510.9027079101652
 30
0.0
 41
1.0
 10
831.30880177842937
 20
-1510.9047091887278
 30
0.0
 41
1.0
 10
831.29990082682298
 20
-1510.9067104672904
 30
0.0
 41
1.0
 10
831.17520011264401
 20
-1510.9347480162025
 30
0.0
 41
0.9985539388303102
 10
831.05423035896592
 20
-1510.9760116922482
 30
0.0
 41
1.0
 10
831.05188492800596
 20
-1510.9768117360641
 30
0.0
 41
1.0
 10
831.049539497046
 20
-1510.9776117798797
 30
0.0
 41
1.0
 10
830.92387888144685
 20
-1511.0204755435573
 30
0.0
 41
0.9988468746493605
 10
830.80290853914562
 20
-1511.0751936286201
 30
0.0
 41
1.0
 10
830.79972571715768
 20
-1511.0766333031797
 30
0.0
 41
1.0
 10
830.79654289516975
 20
-1511.0780729777393
 30
0.0
 41
1.0
 10
830.66920690889219
 20
-1511.1356704119216
 30
0.0
 41
0.9991322885919208
 10
830.54710632483636
 20
-1511.2036657441029
 30
0.0
 41
1.0
 10
830.52950431379281
 20
-1511.2134679460924
 30
0.0
 41
1.0
 10
830.51190230274926
 20
-1511.2232701480821
 30
0.0
 41
1.0
 10
830.40972562169134
 20
-1511.2801702638631
 30
0.0
 41
0.9993860037849465
 10
830.31178461761681
 20
-1511.3440862794523
 30
0.0
 41
1.0
 10
830.30616630476084
 20
-1511.3477527741497
 30
0.0
 41
1.0
 10
830.30054799190498
 20
-1511.3514192688469
 30
0.0
 41
1.0
 10
830.21384361353978
 20
-1511.4080022950432
 30
0.0
 41
0.9998821494955082
 10
830.12891723773055
 20
-1511.4672205251177
 30
0.0
 41
1.0
 10
830.04399086191404
 20
-1511.526438755197
 30
0.0
 41
0.9997976482743993
 10
829.96151523150945
 20
-1511.5890251632397
 30
0.0
 41
1.0
 10
829.94687896670689
 20
-1511.6001318530177
 30
0.0
 41
1.0
 10
829.93224270190433
 20
-1511.6112385427957
 30
0.0
 41
1.0
 10
829.8204945418878
 20
-1511.6960383303995
 30
0.0
 41
0.9998091630799012
 10
829.71214426385779
 20
-1511.785138681103
 30
0.0
 41
1.0
 10
829.69913851138313
 20
-1511.7958337815469
 30
0.0
 41
1.0
 10
829.68613275890857
 20
-1511.8065288819907
 30
0.0
 41
1.0
 10
829.55177097592934
 20
-1511.9170194335818
 30
0.0
 41
0.9995035112317287
 10
829.42463509816866
 20
-1512.0357532505936
 30
0.0
 41
1.0
 10
829.41498778777679
 20
-1512.0447629967557
 30
0.0
 41
1.0
 10
829.40534047738493
 20
-1512.053772742918
 30
0.0
 41
1.0
 10
829.28191741462138
 20
-1512.1690391146719
 30
0.0
 41
0.9994630424298333
 10
829.16630900883911
 20
-1512.2921418579058
 30
0.0
 41
1.0
 10
829.16262617006601
 20
-1512.2960634374208
 30
0.0
 41
1.0
 10
829.15894333129279
 20
-1512.2999850169356
 30
0.0
 41
1.0
 10
829.05070060305366
 20
-1512.4152446011426
 30
0.0
 41
0.9995160693749381
 10
828.94983457352316
 20
-1512.5370120190137
 30
0.0
 41
1.0
 10
828.94790085344232
 20
-1512.5393464432218
 30
0.0
 41
1.0
 10
828.94596713336148
 20
-1512.5416808674302
 30
0.0
 41
1.0
 10
828.84896854399051
 20
-1512.658779436887
 30
0.0
 41
0.9996561470513936
 10
828.75824232532534
 20
-1512.7808021993353
 30
0.0
 41
1.0
 10
828.75208465942342
 20
-1512.7890839883776
 30
0.0
 41
1.0
 10
828.74592699352149
 20
-1512.7973657774198
 30
0.0
 41
1.0
 10
828.66751610665756
 20
-1512.9028249617872
 30
0.0
 41
0.9998349055175307
 10
828.59298882472717
 20
-1513.011063545448
 30
0.0
 41
1.0
 10
828.51846154279929
 20
-1513.1193021291051
 30
0.0
 41
0.9999728109554865
 10
828.44553864688748
 20
-1513.2286280546625
 30
0.0
 41
1.0
 10
828.44422343147448
 20
-1513.230599824167
 30
0.0
 41
1.0
 10
828.44290821606137
 20
-1513.2325715936715
 30
0.0
 41
1.0
 10
828.36735488934733
 20
-1513.3458410582025
 30
0.0
 41
0.9999972147349391
 10
828.29233707899357
 20
-1513.4594659010072
 30
0.0
 41
1.0
 10
828.28736553635122
 20
-1513.4669959895098
 30
0.0
 41
1.0
 10
828.28239399370898
 20
-1513.4745260780123
 30
0.0
 41
1.0
 10
828.19743309808655
 20
-1513.6032110977983
 30
0.0
 41
0.9999371979003996
 10
828.11537774868475
 20
-1513.733768011572
 30
0.0
 41
1.0
 10
828.11186886432336
 20
-1513.7393509396366
 30
0.0
 41
1.0
 10
828.10835997996196
 20
-1513.7449338677009
 30
0.0
 41
1.0
 10
828.01928686183157
 20
-1513.8866566376123
 30
0.0
 41
0.9998272025610236
 10
827.93554347095017
 20
-1514.0315925143539
 30
0.0
 41
1.0
 10
827.92032829892673
 20
-1514.0579256288097
 30
0.0
 41
1.0
 10
827.90511312690319
 20
-1514.0842587432653
 30
0.0
 41
1.0
 10
827.79093939197014
 20
-1514.2818608489263
 30
0.0
 41
0.9995217214838179
 10
827.6891997024137
 20
-1514.4861431767906
 30
0.0
 41
1.0
 10
827.68155613978183
 20
-1514.5014906264871
 30
0.0
 41
1.0
 10
827.67391257714996
 20
-1514.5168380761836
 30
0.0
 41
1.0
 10
827.5870072845579
 20
-1514.69133453427
 30
0.0
 41
0.9998269762607175
 10
827.5066528182856
 20
-1514.8689428209939
 30
0.0
 41
1.0
 10
827.42629835201592
 20
-1515.0465511077123
 30
0.0
 41
0.9998944747387545
 10
827.35113755745044
 20
-1515.2264188333429
 30
0.0
 41
1.0
 10
827.34618388786134
 20
-1515.2382734882553
 30
0.0
 41
1.0
 10
827.34123021827236
 20
-1515.2501281431676
 30
0.0
 41
1.0
 10
827.26058315771661
 20
-1515.4431250831929
 30
0.0
 41
0.9999506734410346
 10
827.1837856288098
 20
-1515.6376858880567
 30
0.0
 41
1.0
 10
827.16918566354502
 20
-1515.674673809847
 30
0.0
 41
1.0
 10
827.15458569828036
 20
-1515.7116617316374
 30
0.0
 41
1.0
 10
827.10698809991436
 20
-1515.8322466928926
 30
0.0
 41
0.9999912393937238
 10
827.06040165588365
 20
-1515.9532258956087
 30
0.0
 41
1.0
 10
827.01381521185135
 20
-1516.0742050983299
 30
0.0
 41
0.9999927113930913
 10
826.96815391745861
 20
-1516.1955365058288
 30
0.0
 41
1.0
 10
826.95418548606517
 20
-1516.2326534878166
 30
0.0
 41
1.0
 10
826.94021705467162
 20
-1516.2697704698044
 30
0.0
 41
1.0
 10
826.86661889748211
 20
-1516.4653358413038
 30
0.0
 41
0.9999487550945669
 10
826.79699527251091
 20
-1516.6623512064846
 30
0.0
 41
1.0
 10
826.7734016625742
 20
-1516.7291145167769
 30
0.0
 41
1.0
 10
826.74980805263749
 20
-1516.7958778270695
 30
0.0
 41
1.0
 10
826.65512241826718
 20
-1517.0638116618932
 30
0.0
 41
0.9999808436932367
 10
826.56376082962447
 20
-1517.3328970931616
 30
0.0
 41
1.0
 10
826.47239924097892
 20
-1517.6019825244384
 30
0.0
 41
0.9999873932897122
 10
826.38374453226413
 20
-1517.8719718794423
 30
0.0
 41
1.0
 10
826.36365217539515
 20
-1517.9331612121937
 30
0.0
 41
1.0
 10
826.34355981852627
 20
-1517.9943505449453
 30
0.0
 41
1.0
 10
826.21472039607522
 20
-1518.3867185654469
 30
0.0
 41
0.9999794883026355
 10
826.09091761112109
 20
-1518.780704771711
 30
0.0
 41
1.0
 10
826.07976535169507
 20
-1518.8161953819113
 30
0.0
 41
1.0
 10
826.06861309226906
 20
-1518.8516859921117
 30
0.0
 41
1.0
 10
825.92605492835833
 20
-1519.3053587442409
 30
0.0
 41
0.9999982761779968
 10
825.7851824883237
 20
-1519.7595577664256
 30
0.0
 41
1.0
 10
824.19704215575109
 20
-1524.8083274974288
 30
0.0
 41
1.0
 10
822.60890182317848
 20
-1529.8570972284322
 30
0.0
 41
1.0
 10
821.6601512117021
 20
-1529.8570972284322
 30
0.0
 41
1.0
 10
820.71140060022572
 20
-1529.8570972284322
 30
0.0
 41
1.0
 10
823.94968508637885
 20
-1519.529775028486
 30
0.0
 41
1.0
 10
827.1879695725321
 20
-1509.2024528285399
 30
0.0
 41
1.0
  0
LWPOLYLINE
  5
59
100
AcDbEntity
  8
0
370
              15
390
0
  6
Continuous
 62
               7
100
AcDbPolyline
 90
      232
 70
             128
 10
801.48442379870505
 20
-1510.2867956600551
 42
0.0004370800691006
 10
801.43154662459506
 20
-1510.3554622993606
 10
801.39226239350558
 20
-1510.4065694122078
 42
0.0030481992175739
 10
801.26192367637657
 20
-1510.5782911045653
 10
801.22341200463597
 20
-1510.6296778883402
 42
0.0042058245755651
 10
801.01942695396906
 20
-1510.90668363341
 10
800.96702183146544
 20
-1510.9791164801945
 42
0.0120948898743411
 10
800.6709779147028
 20
-1511.4098660847458
 10
800.57478541558044
 20
-1511.5573468199711
 42
0.0141601263946518
 10
800.2711413686601
 20
-1512.053016156704
 10
800.23160410123228
 20
-1512.1218601241392
 42
0.0071131081305925
 10
800.02633177799567
 20
-1512.4913629229738
 42
0.0068458791003529
 10
799.83145225115106
 20
-1512.8664544864528
 10
799.82464038869489
 20
-1512.8800162001735
 42
0.0064120880288541
 10
799.62649813865687
 20
-1513.2874406750793
 10
799.61896345313357
 20
-1513.3034525318137
 42
0.0058857236448259
 10
799.41620806126105
 20
-1513.7478286428507
 10
799.40803313496792
 20
-1513.7663187964827
 42
0.0053189741896131
 10
799.199328822295
 20
-1514.2522822704136
 10
799.19058101661903
 20
-1514.2732641485968
 42
0.0047503650419281
 10
798.97460729047259
 20
-1514.8054635817955
 10
798.96533904212015
 20
-1514.8289399579144
 42
0.0042071762170021
 10
798.74079165840169
 20
-1515.4120335519594
 10
798.73104225604379
 20
-1515.4379997268538
 42
0.0036680086485526
 10
798.49658761273167
 20
-1516.076635111385
 10
798.48637983288393
 20
-1516.1050836457293
 42
0.0032573142628829
 10
798.2407475469081
 20
-1516.8039363055091
 10
798.17209702608091
 20
-1517.0033993895231
 42
0.0026133366647226
 10
797.8236518273186
 20
-1518.0332626732077
 10
797.7603950398144
 20
-1518.223493508611
 42
0.0020592950741755
 10
797.54653197085076
 20
-1518.8755971612138
 10
797.54348017969085
 20
-1518.8850336496137
 42
0.002560992853428
 10
797.34165967820184
 20
-1519.5201788719894
 10
797.33906831106196
 20
-1519.5284812129721
 42
0.0031362356245142
 10
797.14957752539817
 20
-1520.1492440691095
 10
797.14744648246938
 20
-1520.1563853753253
 42
0.0037229918029172
 10
796.97064609554445
 20
-1520.7653706772949
 10
796.9689675063396
 20
-1520.7713175674639
 42
0.0043077623706928
 10
796.80522670427297
 20
-1521.3711362992381
 42
0.0047654161820224
 10
796.65239798176344
 20
-1521.9738223881141
 10
796.61793337291783
 20
-1522.1153841652904
 42
0.0112969368444889
 10
796.42206901477334
 20
-1523.0070763259191
 10
796.39406262567763
 20
-1523.1499043720123
 42
0.0130056762572022
 10
796.19322538203096
 20
-1524.3368454436572
 10
796.17268563188509
 20
-1524.4809235571254
 42
0.0138721532142908
 10
796.06898262734603
 20
-1525.38775304296
 10
796.04968713943811
 20
-1525.6112507648854
 42
0.0071254697007716
 10
796.0163404935156
 20
-1526.0744377737324
 10
796.01137951935186
 20
-1526.1604417683006
 42
0.0028881799201203
 10
795.99624122606247
 20
-1526.4521834781349
 42
0.006029729713464
 10
795.98630902628668
 20
-1526.7441324142594
 10
795.98524674461976
 20
-1526.7925247861829
 42
0.0229523164156273
 10
795.99297777240554
 20
-1527.1152796324664
 10
795.99720354592603
 20
-1527.1756831664845
 42
0.0123673300664508
 10
796.01628219244424
 20
-1527.3768038916573
 42
0.0128577674470333
 10
796.04547758285059
 20
-1527.5767017415844
 10
796.05260345623753
 20
-1527.6180305561811
 42
0.0285717853763366
 10
796.11709745793326
 20
-1527.8961467074946
 10
796.13076598159955
 20
-1527.9428014769712
 42
0.0316283099158376
 10
796.24657656151385
 20
-1528.2618159787976
 10
796.24962525326919
 20
-1528.2688023511228
 42
0.0338984824230596
 10
796.39905696423659
 20
-1528.5563683153123
 10
796.40136569360675
 20
-1528.5601593445886
 42
0.0350228718354002
 10
796.58372598428002
 20
-1528.8172113292651
 10
796.58461123605468
 20
-1528.8182904070286
 42
0.0347476747526904
 10
796.79903592329515
 20
-1529.0454754542493
 42
0.0331337701909829
 10
797.04227924904148
 20
-1529.2416041163265
 10
797.04337934755767
 20
-1529.242376819499
 42
0.0305233319078404
 10
797.31192404313038
 20
-1529.4075049895903
 10
797.31515408763221
 20
-1529.4092290014532
 42
0.0273744481150104
 10
797.60770779920369
 20
-1529.5453671453424
 10
797.61281233434408
 20
-1529.5474107298132
 42
0.0240964406197087
 10
797.92828940999118
 20
-1529.6563944560951
 10
797.93487273919982
 20
-1529.6583191957698
 42
0.0209636179810902
 10
798.27227289185419
 20
-1529.7417873437021
 10
798.27990535230106
 20
-1529.7433392567032
 42
0.0181388704691085
 10
798.63822774429639
 20
-1529.8027553499167
 10
798.64650859267772
 20
-1529.8038215337342
 42
0.0156086547588956
 10
799.02469595687342
 20
-1529.8405577203114
 10
799.06789120919268
 20
-1529.8433962227898
 42
0.0137148329019992
 10
799.39556435449242
 20
-1529.8559164780413
 10
799.44150054442218
 20
-1529.8564109111564
 42
0.0051057823881772
 10
799.67764613101065
 20
-1529.8565411655654
 42
0.0052256693309321
 10
799.9137434147782
 20
-1529.8517923411018
 10
799.98397019853871
 20
-1529.8496453750872
 42
0.0161507179051024
 10
800.35970727664392
 20
-1529.8259950047602
 10
800.37972023701309
 20
-1529.8240848094731
 42
0.0101216737834091
 10
800.79374745850726
 20
-1529.7760918791071
 10
800.8278007479305
 20
-1529.771444182298
 42
0.0245291776396842
 10
801.30459040348046
 20
-1529.6823691042221
 10
801.38941371900364
 20
-1529.6621731838763
 42
0.0143509212555117
 10
801.74604482294524
 20
-1529.5663685500972
 42
0.0156557857036098
 10
802.09626088767584
 20
-1529.4493573342772
 10
802.10376210216714
 20
-1529.4465871725242
 42
0.0170137333629999
 10
802.46035809785189
 20
-1529.3009295576514
 10
802.46746202025599
 20
-1529.2977417220893
 42
0.0183105364411775
 10
802.82681168841873
 20
-1529.1204066802668
 10
802.83375845306102
 20
-1529.1166562453927
 42
0.0194899958153454
 10
803.19223919404294
 20
-1528.9046772635033
 10
803.19925307338167
 20
-1528.900151921207
 42
0.0204869852951123
 10
803.55326737547182
 20
-1528.6506319061241
 10
803.56053298406266
 20
-1528.6450518407728
 42
0.0212516938556329
 10
803.9065229151671
 20
-1528.3551478438815
 10
803.95303960924582
 20
-1528.3126805337852
 42
0.0215248918250276
 10
804.21306577813402
 20
-1528.0539162547902
 10
804.25809551252212
 20
-1528.0050721334323
 42
0.0114578554966979
 10
804.41288766619186
 20
-1527.8292491999819
 10
804.42408220217828
 20
-1527.8159304364367
 42
0.0061531305138475
 10
804.55055684817296
 20
-1527.6616409031308
 42
0.0006325587121945
 10
804.67493533229924
 20
-1527.5056375274871
 10
804.69797546737618
 20
-1527.4766640067958
 42
0.0041897761563631
 10
804.86643087136133
 20
-1527.2611446307176
 10
804.92489299124111
 20
-1527.1850432837487
 42
0.0092993880037096
 10
805.20150491845834
 20
-1526.8107645198738
 10
805.28389941166313
 20
-1526.6948275162972
 42
0.0159321727085494
 10
805.63050589430611
 20
-1526.1726532955402
 10
805.67486202969246
 20
-1526.1009737312945
 42
0.0085547317022316
 10
805.90937379502088
 20
-1525.7070987820655
 42
0.0084601156892159
 10
806.13034997246439
 20
-1525.3054719330307
 10
806.13846544629337
 20
-1525.2901122507603
 42
0.0081429654286339
 10
806.36171471673174
 20
-1524.8503907382176
 10
806.37057488091489
 20
-1524.8322118962001
 42
0.0076574581326647
 10
806.59698239147895
 20
-1524.3490290209531
 10
806.60646203220529
 20
-1524.3279645426442
 42
0.0070682724202672
 10
806.83690694001871
 20
-1523.7959272378469
 10
806.84689722399378
 20
-1523.7719380488511
 42
0.006455951444835
 10
807.08223043217549
 20
-1523.185625782332
 10
807.0926397903404
 20
-1523.1586908568902
 42
0.0058311413907541
 10
807.3336865271001
 20
-1522.5126587625148
 10
807.34444160449073
 20
-1522.4827744213458
 42
0.0052312425817439
 10
807.592022882528
 20
-1521.7715720075221
 10
807.60306671891135
 20
-1521.7387452954417
 42
0.0046680544795756
 10
807.85799514664643
 20
-1520.956918979685
 10
807.89998729669094
 20
-1520.8239357423902
 42
0.0041666856443342
 10
808.10327330908444
 20
-1520.1609669673892
 10
808.14093574973776
 20
-1520.034385859771
 42
0.0015170975155948
 10
808.26212232816124
 20
-1519.6225175082418
 42
-0.0004887993119015
 10
808.38246210126249
 20
-1519.2103990962751
 10
808.45893935877939
 20
-1518.9494417102587
 42
0.0002583378927582
 10
808.73215392879888
 20
-1518.0153850072329
 10
808.81392677843701
 20
-1517.7352857474391
 42
0.0006636169673721
 10
809.00779453843165
 20
-1517.0679328239096
 10
809.01289119276714
 20
-1517.0503012410695
 42
0.0010589131321427
 10
809.19433989369531
 20
-1516.4175698979807
 10
809.19932196417778
 20
-1516.4000569909535
 42
0.001565552446432
 10
809.36759217135864
 20
-1515.8014403117597
 10
809.37242237176804
 20
-1515.784048152844
 42
0.0021640440476324
 10
809.52671234375953
 20
-1515.2190211348056
 10
809.53134656319082
 20
-1515.2017564048067
 42
0.0028763871853932
 10
809.67086228124253
 20
-1514.6697884539649
 10
809.67524814541491
 20
-1514.6526644757901
 42
0.0037310511945807
 10
809.79920483724663
 20
-1514.1532168817866
 10
809.80328005753211
 20
-1514.1362566105556
 42
0.0047652197771391
 10
809.91090395804406
 20
-1513.668778842236
 10
809.91459455736629
 20
-1513.6520192870908
 42
0.0060276699298384
 10
810.00512465652105
 20
-1513.2159434919417
 10
810.00834334680974
 20
-1513.1994422776352
 42
0.0075824337755462
 10
810.08103265622572
 20
-1512.7941751132064
 10
810.08367803360568
 20
-1512.7780201657574
 42
0.0095130624609924
 10
810.13779326923714
 20
-1512.4029308126842
 10
810.14477949312015
 20
-1512.346997254564
 42
0.0121054653225773
 10
810.17137082369766
 20
-1512.0821014260937
 10
810.17223731345678
 20
-1512.0706979831702
 42
0.0069050827390339
 10
810.18732613149496
 20
-1511.8277567563205
 10
810.18846143116355
 20
-1511.8042304992739
 42
0.0169063976703422
 10
810.19128871014368
 20
-1511.608037771975
 10
810.19011805861237
 20
-1511.5477020106259
 42
0.0052007732906203
 10
810.18786461001946
 20
-1511.4721086204736
 42
0.0054038123293951
 10
810.16790109817941
 20
-1511.3520903244566
 10
810.16281524231022
 20
-1511.3234318378825
 42
0.0112050460466046
 10
810.12743088025138
 20
-1511.1471053995422
 10
810.10960591821095
 20
-1511.0675638128228
 42
0.0240764468012402
 10
810.01870855206403
 20
-1510.7373267773191
 10
810.00014978925105
 20
-1510.6807066123267
 42
0.0256812331836492
 10
809.85678686906181
 20
-1510.3089824060703
 10
809.85137744324072
 20
-1510.2968510710812
 42
0.0268360501215513
 10
809.68195020239057
 20
-1509.9658579370596
 10
809.67641379475504
 20
-1509.9563382667466
 42
0.0274670231732357
 10
809.48421281834226
 20
-1509.6640508918299
 10
809.47883151837937
 20
-1509.6567717442881
 42
0.0275035967099519
 10
809.26725863881779
 20
-1509.4012558539846
 10
809.26218913785215
 20
-1509.3957767663551
 42
0.0269557673521842
 10
809.03478559441169
 20
-1509.175134480392
 10
809.03004253662914
 20
-1509.1710045259313
 42
0.025912480220913
 10
808.7904877051983
 20
-1508.9833139987786
 10
808.78595686001597
 20
-1508.9801284964481
 42
0.0245162153003235
 10
808.53804050692156
 20
-1508.8233954873381
 10
808.53351396059418
 20
-1508.8208352901354
 42
0.0229282588844504
 10
808.28109440377
 20
-1508.6929670976383
 10
808.27631390993645
 20
-1508.6908147978777
 42
0.0212984135697073
 10
808.02327595747147
 20
-1508.589615880634
 10
808.01797167250322
 20
-1508.5877523178744
 42
0.0197555462345772
 10
807.76819333477897
 20
-1508.5109368999092
 42
0.0183511896794026
 10
807.51326460931227
 20
-1508.453353992943
 10
807.42689941259562
 20
-1508.4371512025591
 42
0.0338057877143257
 10
807.14139206333255
 20
-1508.4033427974182
 10
807.05038665828226
 20
-1508.3987631421564
 42
0.009199052450147
 10
806.94453954965661
 20
-1508.3953872862348
 42
0.0028333980778658
 10
806.83862563369007
 20
-1508.3945591787183
 10
806.83771018061429
 20
-1508.3945572088942
 42
-0.0023619827803835
 10
806.72996416550143
 20
-1508.3938163678154
 10
806.69355899533252
 20
-1508.3933940613524
 42
0.0008824598464932
 10
806.51300300560604
 20
-1508.3916182831151
 10
806.46914157307674
 20
-1508.3912643215886
 42
0.0038132665763979
 10
806.20085867720525
 20
-1508.3911453855219
 10
806.18432502240444
 20
-1508.3912641516656
 42
0.0060665569337524
 10
805.88304453080093
 20
-1508.3970844510868
 10
805.86879419878778
 20
-1508.397532759054
 42
0.0080356953335875
 10
805.53933548245311
 20
-1508.4132004811206
 10
805.5272654673613
 20
-1508.4139690640613
 42
0.0098996399106022
 10
805.1745023827109
 20
-1508.4434542932595
 10
805.16445667333574
 20
-1508.4444945894577
 42
0.0117740981368925
 10
804.79329981498427
 20
-1508.491786836988
 10
804.78507711850443
 20
-1508.4930319535583
 42
0.0137435215136692
 10
804.40048829901696
 20
-1508.5621289271205
 10
804.39383125989593
 20
-1508.5635148233537
 42
0.0158359869388708
 10
804.00083416608879
 20
-1508.6584069118355
 10
803.99542097922631
 20
-1508.6598968527048
 42
0.0180554124027603
 10
803.59910593462007
 20
-1508.7845348689416
 10
803.59454914653054
 20
-1508.78615090521
 42
0.0203657431283054
 10
803.20007162871877
 20
-1508.9444112467256
 10
803.19592808971186
 20
-1508.9462728681674
 42
0.0226819684655103
 10
802.8084920335092
 20
-1509.1419154468381
 10
802.80429224249008
 20
-1509.1442810387584
 42
0.024863498460952
 10
802.42911030130608
 20
-1509.3809076847074
 10
802.38091537252512
 20
-1509.4147647265308
 42
0.0267044190883992
 10
802.10662267560838
 20
-1509.6302051023995
 42
0.0139303002204704
 10
801.85045550966242
 20
-1509.8674439433184
 10
801.84560212394865
 20
-1509.8721966061714
 42
0.0283460963445692
 10
801.60152952972146
 20
-1510.1399272666165
 10
801.56186102456491
 20
-1510.1887288440896
 42
0.0070695364819138
 10
801.48442379870505
 20
-1510.2867956600551
 42
0.0070695364819138
  0
LWPOLYLINE
  5
5A
100
AcDbEntity
  8
0
370
              15
390
0
  6
Continuous
 62
               7
100
AcDbPolyline
 90
      226
 70
             128
 10
797.95560336145866
 20
-1526.008384466239
 42
-0.0026277636623007
 10
797.95552547765863
 20
-1525.9416125404948
 10
797.95574283589065
 20
-1525.888457323053
 42
-0.0088680296729229
 10
797.95951945218371
 20
-1525.7154415406478
 10
797.96186581129609
 20
-1525.6561615151963
 42
-0.0077381705617863
 10
797.97791192205864
 20
-1525.3649010194074
 10
797.97877983323235
 20
-1525.3526127857131
 42
-0.0068872530530333
 10
798.00541191298043
 20
-1525.0373910336446
 10
798.00661613716659
 20
-1525.0251500546251
 42
-0.0062130021481534
 10
798.04420985399531
 20
-1524.686280363379
 10
798.04571375752948
 20
-1524.6741064914702
 42
-0.0056726929669106
 10
798.09463561703217
 20
-1524.3119112693544
 10
798.09640906267623
 20
-1524.2998174691115
 42
-0.0052341884494755
 10
798.15701964893663
 20
-1523.9146242135907
 10
798.1590376377128
 20
-1523.9026192836011
 42
-0.0049768450173959
 10
798.23177631913757
 20
-1523.4947747161775
 10
798.25602533386098
 20
-1523.3662267331624
 42
-0.0089029805623286
 10
798.39310618565651
 20
-1522.7044512857365
 10
798.42585156097425
 20
-1522.5594198552167
 42
-0.0080318257099636
 10
798.65540017531521
 20
-1521.6137102233622
 10
798.66738510176322
 20
-1521.567579588173
 42
-0.0074265721319188
 10
798.95139664061696
 20
-1520.5375150097796
 10
798.97127618372781
 20
-1520.4693809492101
 42
-0.0069711922703071
 10
799.2985807622365
 20
-1519.4031132088749
 10
799.35853270933933
 20
-1519.2170918505126
 42
-0.0052070422893384
 10
799.58795793460126
 20
-1518.529819773473
 10
799.6052391267998
 20
-1518.47979249278
 42
-0.0009167004446803
 10
799.80833101406301
 20
-1517.8953366447017
 42
-0.0025162726946385
 10
800.01542864432531
 20
-1517.31229538054
 10
800.05265325612584
 20
-1517.2091458346481
 42
-0.0028212681458738
 10
800.30082917509412
 20
-1516.5334152024629
 10
800.31065993785387
 20
-1516.507107757762
 42
-0.003196491682402
 10
800.54695219550706
 20
-1515.8869029956591
 10
800.5565866495084
 20
-1515.8620930055097
 42
-0.0036281836450951
 10
800.78169261060725
 20
-1515.2946523246228
 10
800.7911310207561
 20
-1515.2713548931411
 42
-0.0041269166832194
 10
801.0057487174239
 20
-1514.7539139971416
 10
801.03838167384799
 20
-1514.6770355507729
 42
-0.0047472213057997
 10
801.19542647939829
 20
-1514.3166140828971
 10
801.20232056061104
 20
-1514.3011934855551
 42
-0.0025651659996451
 10
801.35067859445667
 20
-1513.9738654298167
 42
-0.0057144634999201
 10
801.50442828822804
 20
-1513.6490557564541
 10
801.53245899362639
 20
-1513.5915473740656
 42
-0.0065388068374211
 10
801.715926021369
 20
-1513.227314877395
 10
801.72438447714921
 20
-1513.2110552980223
 42
-0.0074510843021182
 10
801.90056672302535
 20
-1512.8843670169026
 10
801.90874639355525
 20
-1512.8697262396358
 42
-0.0084648979857403
 10
802.07838024665648
 20
-1512.5778172286728
 10
802.08623637315156
 20
-1512.5648102370103
 42
-0.009563854279859
 10
802.25007182073875
 20
-1512.3049213650434
 10
802.25754676441068
 20
-1512.2935520035876
 42
-0.0107191626804603
 10
802.41634834479805
 20
-1512.062940769044
 10
802.42336507852815
 20
-1512.0532046766807
 42
-0.0118458573905762
 10
802.57791317704164
 20
-1511.8491324813685
 42
-0.0129184518191258
 10
802.74236580064337
 20
-1511.6529719651978
 10
802.77251057300737
 20
-1511.6188458862973
 42
-0.0217742579632581
 10
802.94912289534159
 20
-1511.4356391160486
 10
802.9598684398087
 20
-1511.4254222828392
 42
-0.0097266568644932
 10
803.1259260586578
 20
-1511.2735747084082
 42
-0.0187720905716971
 10
803.30027363454997
 20
-1511.1315058550172
 10
803.33097962522572
 20
-1511.1083467726196
 42
-0.01794282075143
 10
803.56340034521759
 20
-1510.9457945955112
 10
803.56705267212988
 20
-1510.9434306606256
 42
-0.0170047877697378
 10
803.80281630966374
 20
-1510.8019701464718
 10
803.80659929840715
 20
-1510.7998718414374
 42
-0.0160190788366477
 10
804.0435078460456
 20
-1510.6782205394475
 42
-0.0151102861493574
 10
804.28753962849157
 20
-1510.5715377633933
 10
804.33992613070404
 20
-1510.5504976304983
 42
-0.0271945441883617
 10
804.69858868976382
 20
-1510.4286328197918
 10
804.7676534902514
 20
-1510.4092832785257
 42
-0.0237596594022489
 10
805.18345033727292
 20
-1510.3138325665445
 10
805.25151319100291
 20
-1510.3015778784177
 42
-0.02137154405531
 10
805.53738812244865
 20
-1510.2626308469078
 10
805.59753528866952
 20
-1510.2570411322067
 42
-0.0101465655824567
 10
805.76502782066075
 20
-1510.2448975889429
 10
805.774368206855
 20
-1510.2444106739458
 42
-0.0100375910885948
 10
805.92352230742154
 20
-1510.2396348560203
 10
805.93378157710686
 20
-1510.2395124170057
 42
-0.0103625633372331
 10
806.06248957175671
 20
-1510.2406438505325
 10
806.08475522302354
 20
-1510.2413012089974
 42
-0.0115689250239473
 10
806.16880596055159
 20
-1510.2457307152426
 42
-0.0072438037429297
 10
806.25264423999965
 20
-1510.2533199149927
 10
806.26944474946356
 20
-1510.2550864577161
 42
-0.0217917313139297
 10
806.38601451277532
 20
-1510.2725063504367
 10
806.4516146033435
 20
-1510.2852529588513
 42
-0.0332943556757076
 10
806.65600676837221
 20
-1510.3392932501588
 10
806.68617933691814
 20
-1510.3494613272758
 42
-0.0184824084806874
 10
806.82468439338777
 20
-1510.4019123426638
 42
-0.0198002050693133
 10
806.95875873388718
 20
-1510.4647964028629
 10
806.96064537126404
 20
-1510.4657741897429
 42
-0.0212242342978364
 10
807.09278431366545
 20
-1510.5415369285356
 10
807.09459960920935
 20
-1510.5426827307442
 42
-0.0226090605787649
 10
807.22310351043075
 20
-1510.6321623743083
 10
807.22494795216858
 20
-1510.6335746272962
 42
-0.0238457052230023
 10
807.34813003346142
 20
-1510.7375705231584
 10
807.35008276202052
 20
-1510.7393854009247
 42
-0.0248160564151002
 10
807.46628426932205
 20
-1510.8586600021345
 10
807.46838790272318
 20
-1510.8610453358378
 42
-0.0254109591447344
 10
807.57599312058937
 20
-1510.9963337218023
 10
807.5782411425032
 20
-1510.9994752702028
 42
-0.0255528488285339
 10
807.67568782130002
 20
-1511.1515023244367
 10
807.67801892121656
 20
-1511.1555839360449
 42
-0.0252146793224366
 10
807.76379994722595
 20
-1511.3250861820425
 10
807.76610218638325
 20
-1511.3302682639546
 42
-0.0244265635949902
 10
807.83875688014473
 20
-1511.5180148360012
 10
807.84800328161305
 20
-1511.5458802543387
 42
-0.0231319612891641
 10
807.89392606060517
 20
-1511.7091813011407
 42
-0.0112130424347139
 10
807.9285620831439
 20
-1511.875384901331
 10
807.92976460825594
 20
-1511.8818814882165
 42
-0.0210527881224991
 10
807.95545108362694
 20
-1512.0629371336599
 10
807.95896167844853
 20
-1512.0983426822052
 42
-0.0190029892425299
 10
807.9744031519931
 20
-1512.3518785284764
 10
807.97521312843719
 20
-1512.3873541428466
 42
-0.0137974553663803
 10
807.97366427560178
 20
-1512.7123855495747
 10
807.9728188206459
 20
-1512.7385042941773
 42
-0.0081336634214671
 10
807.95795948542354
 20
-1513.043851761772
 42
-0.0073526923569232
 10
807.93365095204888
 20
-1513.3486000060579
 10
807.93238952826619
 20
-1513.3619366807231
 42
-0.0066886138692327
 10
807.89665394221947
 20
-1513.692522724222
 10
807.89499685274973
 20
-1513.7061443432117
 42
-0.0061359187353323
 10
807.84714625069762
 20
-1514.06290832332
 10
807.84510874962598
 20
-1514.0768031261409
 42
-0.0056698610065701
 10
807.78445841885878
 20
-1514.4600816949803
 10
807.78205298553598
 20
-1514.4742408142097
 42
-0.0052721077271863
 10
807.70792078473664
 20
-1514.8843681538856
 10
807.70515763589458
 20
-1514.8987847892736
 42
-0.0049289272178558
 10
807.61686351779565
 20
-1515.336093300391
 10
807.61375102311194
 20
-1515.3507621532119
 42
-0.0047415956709581
 10
807.51051303158272
 20
-1515.8155589106093
 10
807.47574482121991
 20
-1515.9653660060058
 42
-0.0084404470901661
 10
807.28572837764693
 20
-1516.7255900305411
 10
807.2796016896624
 20
-1516.7484541546903
 42
-0.0039635940257712
 10
807.05814800538144
 20
-1517.5494430189269
 10
807.04477121019886
 20
-1517.5963746355296
 42
-0.0072475040835939
 10
806.77732432233495
 20
-1518.4855943519224
 10
806.70711199550919
 20
-1518.7073347018893
 42
-0.0051345458826315
 10
806.4203526234495
 20
-1519.5816598897029
 10
806.39882635669312
 20
-1519.6450861568001
 42
-0.0019150016602105
 10
806.1432929498153
 20
-1520.3886352770589
 10
806.13682534540555
 20
-1520.4072227420193
 42
-0.0021524362750173
 10
805.8883472943553
 20
-1521.1115485636883
 10
805.87913687365869
 20
-1521.1373021419902
 42
-0.0024331286819501
 10
805.64288161462287
 20
-1521.7879014501082
 10
805.6338336620779
 20
-1521.8124447564473
 42
-0.002744972178759
 10
805.40921909123688
 20
-1522.4115746353868
 10
805.40032908384831
 20
-1522.4348972252294
 42
-0.0031083229770119
 10
805.18678659723469
 20
-1522.9848212628187
 10
805.17805046556441
 20
-1523.0069109786632
 42
-0.0035311343282935
 10
804.97500927996725
 20
-1523.5098941044066
 10
804.96642394081323
 20
-1523.5307368279323
 42
-0.0040245640949964
 10
804.77331213702519
 20
-1523.9890461505092
 10
804.76487602342775
 20
-1524.0086255185681
 42
-0.0046015135854388
 10
804.58111973025837
 20
-1524.4245305482236
 10
804.57283355243453
 20
-1524.4428276876661
 42
-0.0052768638273669
 10
804.39785603347445
 20
-1524.818600571946
 10
804.38972382285169
 20
-1524.8355939104804
 42
-0.0060672675645886
 10
804.22294421008155
 20
-1525.1735095336035
 10
804.21497472960129
 20
-1525.1891747925981
 42
-0.0069904648871742
 10
804.05580633559862
 20
-1525.4915105992645
 10
804.04801493599064
 20
-1525.5058211484868
 42
-0.0080637022766449
 10
803.89586307564196
 20
-1525.7748564516448
 10
803.88827404300969
 20
-1525.7877843172473
 42
-0.0093006455661744
 10
803.74253336647917
 20
-1526.0257987157488
 10
803.73518269973579
 20
-1526.0373166849215
 42
-0.0107060778048326
 10
803.59523415629701
 20
-1526.2465870023009
 10
803.58817238802578
 20
-1526.2566725448548
 42
-0.0122723111420693
 10
803.45337866981936
 20
-1526.4394658743558
 10
803.45305244626309
 20
-1526.4398862621683
 42
-0.0141836319626218
 10
803.30947084329114
 20
-1526.614456019995
 10
803.30252308764454
 20
-1526.6224310202535
 42
-0.0175957477211939
 10
803.16261691960449
 20
-1526.7720519086645
 42
-0.0080466359684374
 10
803.01515315458118
 20
-1526.9143744368091
 10
802.96911861005685
 20
-1526.9573948749069
 42
-0.0269600260392252
 10
802.71583836407137
 20
-1527.169718133418
 10
802.64927122777328
 20
-1527.2196695480427
 42
-0.0178362839749388
 10
802.40932673812108
 20
-1527.3866874742923
 10
802.4020817671244
 20
-1527.3913559864948
 42
-0.0174650732653781
 10
802.1657455696793
 20
-1527.5322169514563
 42
-0.0169240130165811
 10
801.92027932382211
 20
-1527.6565092112337
 10
801.87429316826388
 20
-1527.677871166801
 42
-0.0318883036842149
 10
801.52394231264464
 20
-1527.8142094763109
 10
801.45557677747831
 20
-1527.8359100967868
 42
-0.0284435909899035
 10
801.07952665118808
 20
-1527.9321275322613
 10
801.04436849069111
 20
-1527.9390211280895
 42
-0.0243909341012737
 10
800.73092502977056
 20
-1527.9847421591198
 10
800.68064430299728
 20
-1527.9895877060217
 42
-0.019663929292941
 10
800.46504872547212
 20
-1528.001835991535
 10
800.41322465430358
 20
-1528.0027392522718
 42
-0.0100501510681521
 10
800.3008013726444
 20
-1528.0024388539186
 10
800.26914151128449
 20
-1528.001717782033
 42
-0.0019752031127588
 10
800.22004917461902
 20
-1528.0004056218236
 10
800.21728887139989
 20
-1528.0003209299973
 42
0.006537875197063
 10
800.17371229664218
 20
-1527.9995540387824
 42
-0.0167974694637561
 10
800.13018147371247
 20
-1527.9978941402567
 10
800.12610213444827
 20
-1527.9976011293616
 42
-0.0081283276270447
 10
800.0745423367091
 20
-1527.9930541357235
 10
800.0628027628311
 20
-1527.9918262181452
 42
-0.0126703440159914
 10
799.9880844670339
 20
-1527.9820914270733
 10
799.96529659936095
 20
-1527.9785331711585
 42
-0.011785208843257
 10
799.84575761352392
 20
-1527.9569701760004
 10
799.79037716176549
 20
-1527.9456266357668
 42
-0.0251774592297906
 10
799.56353312275951
 20
-1527.8871286263343
 10
799.51881393290319
 20
-1527.8731618069974
 42
-0.0146525199889832
 10
799.33242094536809
 20
-1527.8088952798003
 42
-0.0166929435857481
 10
799.15044328923932
 20
-1527.7330881467449
 10
799.1457866579683
 20
-1527.7309632461318
 42
-0.0191684358428763
 10
798.96060302671674
 20
-1527.6377271623408
 10
798.95727044096202
 20
-1527.6358859147886
 42
-0.0221181781810743
 10
798.77396013706073
 20
-1527.5237524164181
 10
798.7716103330514
 20
-1527.5221681184266
 42
-0.0254984685380498
 10
798.59532018266475
 20
-1527.3897569684561
 10
798.57283803496364
 20
-1527.3710046595204
 42
-0.0292492648805822
 10
798.44806909612112
 20
-1527.2539118598777
 42
-0.0159048957492512
 10
798.33422909867124
 20
-1527.1258918682788
 10
798.33291030809164
 20
-1527.1243102552585
 42
-0.034381337956171
 10
798.23027304646553
 20
-1526.982438929489
 10
798.19878151510488
 20
-1526.9319355373955
 42
-0.0369117275700254
 10
798.11288901320734
 20
-1526.7684582964466
 42
-0.0191751379911118
 10
798.04569562765062
 20
-1526.5960536904413
 10
798.04393230389087
 20
-1526.5909603457658
 42
-0.0378178042241274
 10
797.99413758510684
 20
-1526.4020195696858
 10
797.98814228937613
 20
-1526.3694589514866
 42
-0.0184846046461831
 10
797.96742509008186
 20
-1526.2277061309426
 42
-0.0179866351324371
 10
797.95709208500841
 20
-1526.0848153178654
 10
797.95703564256246
 20
-1526.0832576312489
 42
-0.0085497186139104
 10
797.95560336145866
 20
-1526.008384466239
 42
-0.0085497186139104
  0
ENDBLK
  5
5B
100
AcDbEntity
  8
template
390
0
100
AcDbBlockEnd
  0
BLOCK
  5
5C
100
AcDbEntity
  8
notes
390
0
100
AcDbBlockBegin
  2
*D3
 70
               1
 10
0.0
 20
0.0
 30
0.0
  3
*D3
  1

  0
LINE
  5
5D
100
AcDbEntity
  8
0
370
              -2
390
0
  6
Continuous
 62
               0
100
AcDbLine
 10
100.9757195799134
 20
804.60614641014809
 30
0.0
 11
100.9757195799134
 21
935.0
 31
0.0
  0
LINE
  5
5E
100
AcDbEntity
  8
0
370
              -2
390
0
  6
Continuous
 62
               0
100
AcDbLine
 10
-699.0242804200866
 20
804.60614641014809
 30
0.0
 11
-699.0242804200866
 21
935.0
 31
0.0
  0
LINE
  5
5F
100
AcDbEntity
  8
0
370
              -2
390
0
  6
Continuous
 62
               0
100
AcDbLine
 10
100.9757195799134
 20
935.0
 30
0.0
 11
-699.0242804200866
 21
935.0
 31
0.0
  0
CIRCLE
  5
60
102
{ACAD_REACTORS
330
61
102
}
100
AcDbEntity
  8
0
370
              -2
390
0
  6
Continuous
 62
               0
100
AcDbCircle
 10
100.9757195799134
 20
935.0
 30
0.0
 40
1.9998779296875
  0
HATCH
  5
61
100
AcDbEntity
  8
0
370
              -2
390
0
  6
Continuous
 62
               0
100
AcDbHatch
 10
0.0
 20
0.0
 30
0.0
210
0.0
220
0.0
230
1.0
  2
SOLID
 70
               1
 71
               1
 91
        1
 92
        1
 93
        1
 72
               2
 10
100.9757195799134
 20
935.0
 40
1.9998779296875
 50
0.0
 51
360.0
 73
               0
 97
        1
330
60
 75
               0
 76
               1
 98
        1
 10
0.0
 20
0.0
  0
CIRCLE
  5
62
102
{ACAD_REACTORS
330
63
102
}
100
AcDbEntity
  8
0
370
              -2
390
0
  6
Continuous
 62
               0
100
AcDbCircle
 10
-699.0242804200866
 20
935.0
 30
0.0
 40
1.9998779296875
  0
HATCH
  5
63
100
AcDbEntity
  8
0
370
              -2
390
0
  6
Continuous
 62
               0
100
AcDbHatch
 10
0.0
 20
0.0
 30
0.0
210
0.0
220
0.0
230
1.0
  2
SOLID
 70
               1
 71
               1
 91
        1
 92
        1
 93
        1
 72
               2
 10
-699.0242804200866
 20
935.0
 40
1.9998779296875
 50
0.0
 51
360.0
 73
               0
 97
        1
330
62
 75
               0
 76
               1
 98
        1
 10
0.0
 20
0.0
  0
MTEXT
  5
64
100
AcDbEntity
  8
0
390
0
 62
               0
100
AcDbMText
 10
-322.83678210226213
 20
968.87761718750005
 30
0.0
 40
24.432617187500004
 41
0.0
 71
               1
 72
               1
  1
800
  7
ＭＳ ゴシック
 73
               1
 44
0.7828267384257843
  0
POINT
  5
65
100
AcDbEntity
  8
Defpoints
370
               0
390
0
 62
               0
100
AcDbPoint
 10
-699.0242804200866
 20
779.60614641014809
 30
0.0
  0
POINT
  5
66
100
AcDbEntity
  8
Defpoints
370
               0
390
0
 62
               0
100
AcDbPoint
 10
100.9757195799134
 20
779.60614641014809
 30
0.0
  0
POINT
  5
67
100
AcDbEntity
  8
Defpoints
370
               0
390
0
 62
               0
100
AcDbPoint
 10
100.9757195799134
 20
935.0
 30
0.0
  0
ENDBLK
  5
68
100
AcDbEntity
  8
notes
390
0
100
AcDbBlockEnd
  0
BLOCK
  5
69
100
AcDbEntity
  8
notes
390
0
100
AcDbBlockBegin
  2
*D4
 70
               1
 10
0.0
 20
0.0
 30
0.0
  3
*D4
  1

  0
LINE
  5
6A
100
AcDbEntity
  8
0
370
              -2
390
0
  6
Continuous
 62
               0
100
AcDbLine
 10
100.9757195799134
 20
803.595170795375
 30
0.0
 11
100.9757195799134
 21
884.99999999999989
 31
0.0
  0
LINE
  5
6B
100
AcDbEntity
  8
0
370
              -2
390
0
  6
Continuous
 62
               0
100
AcDbLine
 10
-169.02428042008705
 20
707.50238029728666
 30
0.0
 11
-169.02428042008705
 21
884.99999999999989
 31
0.0
  0
LINE
  5
6C
100
AcDbEntity
  8
0
370
              -2
390
0
  6
Continuous
 62
               0
100
AcDbLine
 10
100.9757195799134
 20
884.99999999999989
 30
0.0
 11
-169.02428042008705
 21
884.99999999999989
 31
0.0
  0
CIRCLE
  5
6D
102
{ACAD_REACTORS
330
6E
102
}
100
AcDbEntity
  8
0
370
              -2
390
0
  6
Continuous
 62
               0
100
AcDbCircle
 10
100.9757195799134
 20
884.99999999999989
 30
0.0
 40
1.9998779296875
  0
HATCH
  5
6E
100
AcDbEntity
  8
0
370
              -2
390
0
  6
Continuous
 62
               0
100
AcDbHatch
 10
0.0
 20
0.0
 30
0.0
210
0.0
220
0.0
230
1.0
  2
SOLID
 70
               1
 71
               1
 91
        1
 92
        1
 93
        1
 72
               2
 10
100.9757195799134
 20
884.99999999999989
 40
1.9998779296875
 50
0.0
 51
360.0
 73
               0
 97
        1
330
6D
 75
               0
 76
               1
 98
        1
 10
0.0
 20
0.0
  0
CIRCLE
  5
6F
102
{ACAD_REACTORS
330
70
102
}
100
AcDbEntity
  8
0
370
              -2
390
0
  6
Continuous
 62
               0
100
AcDbCircle
 10
-169.02428042008705
 20
884.99999999999989
 30
0.0
 40
1.9998779296875
  0
HATCH
  5
70
100
AcDbEntity
  8
0
370
              -2
390
0
  6
Continuous
 62
               0
100
AcDbHatch
 10
0.0
 20
0.0
 30
0.0
210
0.0
220
0.0
230
1.0
  2
SOLID
 70
               1
 71
               1
 91
        1
 92
        1
 93
        1
 72
               2
 10
-169.02428042008705
 20
884.99999999999989
 40
1.9998779296875
 50
0.0
 51
360.0
 73
               0
 97
        1
330
6F
 75
               0
 76
               1
 98
        1
 10
0.0
 20
0.0
  0
MTEXT
  5
71
100
AcDbEntity
  8
0
390
0
 62
               0
100
AcDbMText
 10
-57.836782102262362
 20
918.87761718749994
 30
0.0
 40
24.432617187500004
 41
0.0
 71
               1
 72
               1
  1
270
  7
ＭＳ ゴシック
 73
               1
 44
0.7828267384257843
  0
POINT
  5
72
100
AcDbEntity
  8
Defpoints
370
               0
390
0
 62
               0
100
AcDbPoint
 10
-169.02428042008705
 20
682.50238029728666
 30
0.0
  0
POINT
  5
73
100
AcDbEntity
  8
Defpoints
370
               0
390
0
 62
               0
100
AcDbPoint
 10
100.9757195799134
 20
778.595170795375
 30
0.0
  0
POINT
  5
74
100
AcDbEntity
  8
Defpoints
370
               0
390
0
 62
               0
100
AcDbPoint
 10
100.9757195799134
 20
884.99999999999989
 30
0.0
  0
ENDBLK
  5
75
100
AcDbEntity
  8
notes
390
0
100
AcDbBlockEnd
  0
BLOCK
  5
76
100
AcDbEntity
  8
notes
390
0
100
AcDbBlockBegin
  2
*D5
 70
               1
 10
0.0
 20
0.0
 30
0.0
  3
*D5
  1

  0
LINE
  5
77
100
AcDbEntity
  8
0
370
              -2
390
0
  6
Continuous
 62
               0
100
AcDbLine
 10
-717.91743968819719
 20
785.0
 30
0.0
 11
-799.02712872737857
 21
785.0
 31
0.0
  0
LINE
  5
78
100
AcDbEntity
  8
0
370
              -2
390
0
  6
Continuous
 62
               0
100
AcDbLine
 10
-717.91743968819719
 20
385.0
 30
0.0
 11
-799.02712872737857
 21
385.0
 31
0.0
  0
LINE
  5
79
100
AcDbEntity
  8
0
370
              -2
390
0
  6
Continuous
 62
               0
100
AcDbLine
 10
-799.02712872737857
 20
785.0
 30
0.0
 11
-799.02712872737857
 21
385.0
 31
0.0
  0
CIRCLE
  5
7A
102
{ACAD_REACTORS
330
7B
102
}
100
AcDbEntity
  8
0
370
              -2
390
0
  6
Continuous
 62
               0
100
AcDbCircle
 10
-799.02712872737857
 20
785.0
 30
0.0
 40
1.9998779296875
  0
HATCH
  5
7B
100
AcDbEntity
  8
0
370
              -2
390
0
  6
Continuous
 62
               0
100
AcDbHatch
 10
0.0
 20
0.0
 30
0.0
210
0.0
220
0.0
230
1.0
  2
SOLID
 70
               1
 71
               1
 91
        1
 92
        1
 93
        1
 72
               2
 10
-799.02712872737857
 20
785.0
 40
1.9998779296875
 50
0.0
 51
360.0
 73
               0
 97
        1
330
7A
 75
               0
 76
               1
 98
        1
 10
0.0
 20
0.0
  0
CIRCLE
  5
7C
102
{ACAD_REACTORS
330
7D
102
}
100
AcDbEntity
  8
0
370
              -2
390
0
  6
Continuous
 62
               0
100
AcDbCircle
 10
-799.02712872737857
 20
385.0
 30
0.0
 40
1.9998779296875
  0
HATCH
  5
7D
100
AcDbEntity
  8
0
370
              -2
390
0
  6
Continuous
 62
               0
100
AcDbHatch
 10
0.0
 20
0.0
 30
0.0
210
0.0
220
0.0
230
1.0
  2
SOLID
 70
               1
 71
               1
 91
        1
 92
        1
 93
        1
 72
               2
 10
-799.02712872737857
 20
385.0
 40
1.9998779296875
 50
0.0
 51
360.0
 73
               0
 97
        1
330
7C
 75
               0
 76
               1
 98
        1
 10
0.0
 20
0.0
  0
MTEXT
  5
7E
100
AcDbEntity
  8
0
390
0
 62
               0
100
AcDbMText
 10
-832.90474591487862
 20
561.18749831782452
 30
0.0
 40
24.432617187500004
 41
0.0
 71
               1
 72
               1
  1
400
  7
ＭＳ ゴシック
 11
0.0
 21
1.0
 31
0.0
 73
               1
 44
0.7828267384257843
  0
POINT
  5
7F
100
AcDbEntity
  8
Defpoints
370
               0
390
0
 62
               0
100
AcDbPoint
 10
-692.91743968819719
 20
385.0
 30
0.0
  0
POINT
  5
80
100
AcDbEntity
  8
Defpoints
370
               0
390
0
 62
               0
100
AcDbPoint
 10
-692.91743968819719
 20
785.0
 30
0.0
  0
POINT
  5
81
100
AcDbEntity
  8
Defpoints
370
               0
390
0
 62
               0
100
AcDbPoint
 10
-799.02712872737857
 20
785.0
 30
0.0
  0
ENDBLK
  5
82
100
AcDbEntity
  8
notes
390
0
100
AcDbBlockEnd
  0
BLOCK
  5
83
100
AcDbEntity
  8
notes
390
0
100
AcDbBlockBegin
  2
*D6
 70
               1
 10
0.0
 20
0.0
 30
0.0
  3
*D6
  1

  0
LINE
  5
84
100
AcDbEntity
  8
0
370
              -2
390
0
  6
Continuous
 62
               0
100
AcDbLine
 10
-429.02712872737857
 20
-520.26704019646547
 30
0.0
 11
-429.02712872737857
 21
-594.65557643778493
 31
0.0
  0
LINE
  5
85
100
AcDbEntity
  8
0
370
              -2
390
0
  6
Continuous
 62
               0
100
AcDbLine
 10
-699.02712872737857
 20
-375.5247984429933
 30
0.0
 11
-699.02712872737857
 21
-594.65557643778493
 31
0.0
  0
LINE
  5
86
100
AcDbEntity
  8
0
370
              -2
390
0
  6
Continuous
 62
               0
100
AcDbLine
 10
-429.02712872737857
 20
-594.65557643778493
 30
0.0
 11
-699.02712872737857
 21
-594.65557643778493
 31
0.0
  0
CIRCLE
  5
87
102
{ACAD_REACTORS
330
88
102
}
100
AcDbEntity
  8
0
370
              -2
390
0
  6
Continuous
 62
               0
100
AcDbCircle
 10
-429.02712872737857
 20
-594.65557643778493
 30
0.0
 40
1.9998779296875
  0
HATCH
  5
88
100
AcDbEntity
  8
0
370
              -2
390
0
  6
Continuous
 62
               0
100
AcDbHatch
 10
0.0
 20
0.0
 30
0.0
210
0.0
220
0.0
230
1.0
  2
SOLID
 70
               1
 71
               1
 91
        1
 92
        1
 93
        1
 72
               2
 10
-429.02712872737857
 20
-594.65557643778493
 40
1.9998779296875
 50
0.0
 51
360.0
 73
               0
 97
        1
330
87
 75
               0
 76
               1
 98
        1
 10
0.0
 20
0.0
  0
CIRCLE
  5
89
102
{ACAD_REACTORS
330
8A
102
}
100
AcDbEntity
  8
0
370
              -2
390
0
  6
Continuous
 62
               0
100
AcDbCircle
 10
-699.02712872737857
 20
-594.65557643778493
 30
0.0
 40
1.9998779296875
  0
HATCH
  5
8A
100
AcDbEntity
  8
0
370
              -2
390
0
  6
Continuous
 62
               0
100
AcDbHatch
 10
0.0
 20
0.0
 30
0.0
210
0.0
220
0.0
230
1.0
  2
SOLID
 70
               1
 71
               1
 91
        1
 92
        1
 93
        1
 72
               2
 10
-699.02712872737857
 20
-594.65557643778493
 40
1.9998779296875
 50
0.0
 51
360.0
 73
               0
 97
        1
330
89
 75
               0
 76
               1
 98
        1
 10
0.0
 20
0.0
  0
MTEXT
  5
8B
100
AcDbEntity
  8
0
390
0
 62
               0
100
AcDbMText
 10
-587.83963040955405
 20
-560.77795925028488
 30
0.0
 40
24.432617187500004
 41
0.0
 71
               1
 72
               1
  1
270
  7
ＭＳ ゴシック
 73
               1
 44
0.7828267384257843
  0
POINT
  5
8C
100
AcDbEntity
  8
Defpoints
370
               0
390
0
 62
               0
100
AcDbPoint
 10
-699.02712872737857
 20
-350.5247984429933
 30
0.0
  0
POINT
  5
8D
100
AcDbEntity
  8
Defpoints
370
               0
390
0
 62
               0
100
AcDbPoint
 10
-429.02712872737857
 20
-495.26704019646547
 30
0.0
  0
POINT
  5
8E
100
AcDbEntity
  8
Defpoints
370
               0
390
0
 62
               0
100
AcDbPoint
 10
-429.02712872737857
 20
-594.65557643778493
 30
0.0
  0
ENDBLK
  5
8F
100
AcDbEntity
  8
notes
390
0
100
AcDbBlockEnd
  0
BLOCK
  5
90
100
AcDbEntity
  8
notes
390
0
100
AcDbBlockBegin
  2
*D7
 70
               1
 10
0.0
 20
0.0
 30
0.0
  3
*D7
  1

  0
LINE
  5
91
100
AcDbEntity
  8
0
370
              -2
390
0
  6
Continuous
 62
               0
100
AcDbLine
 10
-74.022557872343441
 20
-300.26471407884389
 30
0.0
 11
-74.022557872343441
 21
-175.26668754889616
 31
0.0
  0
LINE
  5
92
100
AcDbEntity
  8
0
370
              -2
390
0
  6
Continuous
 62
               0
100
AcDbLine
 10
100.9757195799134
 20
-250.2666875488961
 30
0.0
 11
100.9757195799134
 21
-175.26668754889616
 31
0.0
  0
LINE
  5
93
100
AcDbEntity
  8
0
370
              -2
390
0
  6
Continuous
 62
               0
100
AcDbLine
 10
-74.022557872343441
 20
-175.26668754889616
 30
0.0
 11
100.9757195799134
 21
-175.26668754889616
 31
0.0
  0
CIRCLE
  5
94
102
{ACAD_REACTORS
330
95
102
}
100
AcDbEntity
  8
0
370
              -2
390
0
  6
Continuous
 62
               0
100
AcDbCircle
 10
-74.022557872343441
 20
-175.26668754889616
 30
0.0
 40
1.9998779296875
  0
HATCH
  5
95
100
AcDbEntity
  8
0
370
              -2
390
0
  6
Continuous
 62
               0
100
AcDbHatch
 10
0.0
 20
0.0
 30
0.0
210
0.0
220
0.0
230
1.0
  2
SOLID
 70
               1
 71
               1
 91
        1
 92
        1
 93
        1
 72
               2
 10
-74.022557872343441
 20
-175.26668754889616
 40
1.9998779296875
 50
0.0
 51
360.0
 73
               0
 97
        1
330
94
 75
               0
 76
               1
 98
        1
 10
0.0
 20
0.0
  0
CIRCLE
  5
96
102
{ACAD_REACTORS
330
97
102
}
100
AcDbEntity
  8
0
370
              -2
390
0
  6
Continuous
 62
               0
100
AcDbCircle
 10
100.9757195799134
 20
-175.26668754889616
 30
0.0
 40
1.9998779296875
  0
HATCH
  5
97
100
AcDbEntity
  8
0
370
              -2
390
0
  6
Continuous
 62
               0
100
AcDbHatch
 10
0.0
 20
0.0
 30
0.0
210
0.0
220
0.0
230
1.0
  2
SOLID
 70
               1
 71
               1
 91
        1
 92
        1
 93
        1
 72
               2
 10
100.9757195799134
 20
-175.26668754889616
 40
1.9998779296875
 50
0.0
 51
360.0
 73
               0
 97
        1
330
96
 75
               0
 76
               1
 98
        1
 10
0.0
 20
0.0
  0
MTEXT
  5
98
100
AcDbEntity
  8
0
390
0
 62
               0
100
AcDbMText
 10
-10.335920828390556
 20
-141.38907036139616
 30
0.0
 40
24.432617187500004
 41
0.0
 71
               1
 72
               1
  1
175
  7
ＭＳ ゴシック
 73
               1
 44
0.7828267384257843
  0
POINT
  5
99
100
AcDbEntity
  8
Defpoints
370
               0
390
0
 62
               0
100
AcDbPoint
 10
100.9757195799134
 20
-275.26668754889613
 30
0.0
  0
POINT
  5
9A
100
AcDbEntity
  8
Defpoints
370
               0
390
0
 62
               0
100
AcDbPoint
 10
-74.022557872343441
 20
-325.26471407884389
 30
0.0
  0
POINT
  5
9B
100
AcDbEntity
  8
Defpoints
370
               0
390
0
 62
               0
100
AcDbPoint
 10
-74.022557872343441
 20
-175.26668754889616
 30
0.0
  0
ENDBLK
  5
9C
100
AcDbEntity
  8
notes
390
0
100
AcDbBlockEnd
  0
BLOCK
  5
9D
100
AcDbEntity
  8
notes
390
0
100
AcDbBlockBegin
  2
*D8
 70
               1
 10
0.0
 20
0.0
 30
0.0
  3
*D8
  1

  0
LINE
  5
9E
100
AcDbEntity
  8
0
370
              -2
390
0
  6
Continuous
 62
               0
100
AcDbLine
 10
125.9757195799134
 20
-275.26668754889613
 30
0.0
 11
250.9757195799134
 21
-275.26668754889613
 31
0.0
  0
LINE
  5
9F
100
AcDbEntity
  8
0
370
              -2
390
0
  6
Continuous
 62
               0
100
AcDbLine
 10
-39.022306950034363
 20
-335.26496500115297
 30
0.0
 11
250.9757195799134
 21
-335.26496500115297
 31
0.0
  0
LINE
  5
A0
100
AcDbEntity
  8
0
370
              -2
390
0
  6
Continuous
 62
               0
100
AcDbLine
 10
250.9757195799134
 20
-275.26668754889613
 30
0.0
 11
250.9757195799134
 21
-335.26496500115297
 31
0.0
  0
CIRCLE
  5
A1
102
{ACAD_REACTORS
330
A2
102
}
100
AcDbEntity
  8
0
370
              -2
390
0
  6
Continuous
 62
               0
100
AcDbCircle
 10
250.9757195799134
 20
-275.26668754889613
 30
0.0
 40
1.9998779296875
  0
HATCH
  5
A2
100
AcDbEntity
  8
0
370
              -2
390
0
  6
Continuous
 62
               0
100
AcDbHatch
 10
0.0
 20
0.0
 30
0.0
210
0.0
220
0.0
230
1.0
  2
SOLID
 70
               1
 71
               1
 91
        1
 92
        1
 93
        1
 72
               2
 10
250.9757195799134
 20
-275.26668754889613
 40
1.9998779296875
 50
0.0
 51
360.0
 73
               0
 97
        1
330
A1
 75
               0
 76
               1
 98
        1
 10
0.0
 20
0.0
  0
CIRCLE
  5
A3
102
{ACAD_REACTORS
330
A4
102
}
100
AcDbEntity
  8
0
370
              -2
390
0
  6
Continuous
 62
               0
100
AcDbCircle
 10
250.9757195799134
 20
-335.26496500115297
 30
0.0
 40
1.9998779296875
  0
HATCH
  5
A4
100
AcDbEntity
  8
0
370
              -2
390
0
  6
Continuous
 62
               0
100
AcDbHatch
 10
0.0
 20
0.0
 30
0.0
210
0.0
220
0.0
230
1.0
  2
SOLID
 70
               1
 71
               1
 91
        1
 92
        1
 93
        1
 72
               2
 10
250.9757195799134
 20
-335.26496500115297
 40
1.9998779296875
 50
0.0
 51
360.0
 73
               0
 97
        1
330
A3
 75
               0
 76
               1
 98
        1
 10
0.0
 20
0.0
  0
MTEXT
  5
A5
100
AcDbEntity
  8
0
390
0
 62
               0
100
AcDbMText
 10
217.09810239241341
 20
-321.14082627502455
 30
0.0
 40
24.432617187500004
 41
0.0
 71
               1
 72
               1
  1
60
  7
ＭＳ ゴシック
 11
0.0
 21
1.0
 31
0.0
 73
               1
 44
0.7828267384257843
  0
POINT
  5
A6
100
AcDbEntity
  8
Defpoints
370
               0
390
0
 62
               0
100
AcDbPoint
 10
-64.022306950034363
 20
-335.26496500115297
 30
0.0
  0
POINT
  5
A7
100
AcDbEntity
  8
Defpoints
370
               0
390
0
 62
               0
100
AcDbPoint
 10
100.9757195799134
 20
-275.26668754889613
 30
0.0
  0
POINT
  5
A8
100
AcDbEntity
  8
Defpoints
370
               0
390
0
 62
               0
100
AcDbPoint
 10
250.9757195799134
 20
-275.26668754889613
 30
0.0
  0
ENDBLK
  5
A9
100
AcDbEntity
  8
notes
390
0
100
AcDbBlockEnd
  0
BLOCK
  5
AA
100
AcDbEntity
  8
notes
390
0
100
AcDbBlockBegin
  2
*D9
 70
               1
 10
0.0
 20
0.0
 30
0.0
  3
*D9
  1

  0
LINE
  5
AB
100
AcDbEntity
  8
0
370
              -2
390
0
  6
Continuous
 62
               0
100
AcDbLine
 10
125.9757195799134
 20
-275.26668754889613
 30
0.0
 11
200.9757195799134
 21
-275.26668754889613
 31
0.0
  0
LINE
  5
AC
100
AcDbEntity
  8
0
370
              -2
390
0
  6
Continuous
 62
               0
100
AcDbLine
 10
125.9757195799134
 20
-300.26668754889613
 30
0.0
 11
200.9757195799134
 21
-300.26668754889613
 31
0.0
  0
LINE
  5
AD
100
AcDbEntity
  8
0
370
              -2
390
0
  6
Continuous
 62
               0
100
AcDbLine
 10
200.9757195799134
 20
-275.26668754889613
 30
0.0
 11
200.9757195799134
 21
-240.1416875488961
 31
0.0
  0
LINE
  5
AE
100
AcDbEntity
  8
0
370
              -2
390
0
  6
Continuous
 62
               0
100
AcDbLine
 10
200.9757195799134
 20
-275.26668754889613
 30
0.0
 11
200.9757195799134
 21
-300.26668754889613
 31
0.0
  0
CIRCLE
  5
AF
102
{ACAD_REACTORS
330
B0
102
}
100
AcDbEntity
  8
0
370
              -2
390
0
  6
Continuous
 62
               0
100
AcDbCircle
 10
200.9757195799134
 20
-275.26668754889613
 30
0.0
 40
1.9998779296875
  0
HATCH
  5
B0
100
AcDbEntity
  8
0
370
              -2
390
0
  6
Continuous
 62
               0
100
AcDbHatch
 10
0.0
 20
0.0
 30
0.0
210
0.0
220
0.0
230
1.0
  2
SOLID
 70
               1
 71
               1
 91
        1
 92
        1
 93
        1
 72
               2
 10
200.9757195799134
 20
-275.26668754889613
 40
1.9998779296875
 50
0.0
 51
360.0
 73
               0
 97
        1
330
AF
 75
               0
 76
               1
 98
        1
 10
0.0
 20
0.0
  0
CIRCLE
  5
B1
102
{ACAD_REACTORS
330
B2
102
}
100
AcDbEntity
  8
0
370
              -2
390
0
  6
Continuous
 62
               0
100
AcDbCircle
 10
200.9757195799134
 20
-300.26668754889613
 30
0.0
 40
1.9998779296875
  0
HATCH
  5
B2
100
AcDbEntity
  8
0
370
              -2
390
0
  6
Continuous
 62
               0
100
AcDbHatch
 10
0.0
 20
0.0
 30
0.0
210
0.0
220
0.0
230
1.0
  2
SOLID
 70
               1
 71
               1
 91
        1
 92
        1
 93
        1
 72
               2
 10
200.9757195799134
 20
-300.26668754889613
 40
1.9998779296875
 50
0.0
 51
360.0
 73
               0
 97
        1
330
B1
 75
               0
 76
               1
 98
        1
 10
0.0
 20
0.0
  0
MTEXT
  5
B3
100
AcDbEntity
  8
0
390
0
 62
               0
100
AcDbMText
 10
167.09810239241341
 20
-271.89168754889613
 30
0.0
 40
24.432617187500004
 41
0.0
 71
               1
 72
               1
  1
25
  7
ＭＳ ゴシック
 11
0.0
 21
1.0
 31
0.0
 73
               1
 44
0.7828267384257843
  0
POINT
  5
B4
100
AcDbEntity
  8
Defpoints
370
               0
390
0
 62
               0
100
AcDbPoint
 10
100.9757195799134
 20
-300.26668754889613
 30
0.0
  0
POINT
  5
B5
100
AcDbEntity
  8
Defpoints
370
               0
390
0
 62
               0
100
AcDbPoint
 10
100.9757195799134
 20
-275.26668754889613
 30
0.0
  0
POINT
  5
B6
100
AcDbEntity
  8
Defpoints
370
               0
390
0
 62
               0
100
AcDbPoint
 10
200.9757195799134
 20
-275.26668754889613
 30
0.0
  0
ENDBLK
  5
B7
100
AcDbEntity
  8
notes
390
0
100
AcDbBlockEnd
  0
BLOCK
  5
B8
100
AcDbEntity
  8
notes
390
0
100
AcDbBlockBegin
  2
*D10
 70
               1
 10
0.0
 20
0.0
 30
0.0
  3
*D10
  1

  0
LINE
  5
B9
100
AcDbEntity
  8
0
370
              -2
390
0
  6
Continuous
 62
               0
100
AcDbLine
 10
-699.02712872737857
 20
-299.65557643778504
 30
0.0
 11
-699.02712872737857
 21
-224.65537058716771
 31
0.0
  0
LINE
  5
BA
100
AcDbEntity
  8
0
370
              -2
390
0
  6
Continuous
 62
               0
100
AcDbLine
 10
-529.02712872737857
 20
-379.65446424160461
 30
0.0
 11
-529.02712872737857
 21
-224.65537058716771
 31
0.0
  0
LINE
  5
BB
100
AcDbEntity
  8
0
370
              -2
390
0
  6
Continuous
 62
               0
100
AcDbLine
 10
-699.02712872737857
 20
-224.65537058716771
 30
0.0
 11
-529.02712872737857
 21
-224.65537058716771
 31
0.0
  0
CIRCLE
  5
BC
102
{ACAD_REACTORS
330
BD
102
}
100
AcDbEntity
  8
0
370
              -2
390
0
  6
Continuous
 62
               0
100
AcDbCircle
 10
-699.02712872737857
 20
-224.65537058716771
 30
0.0
 40
1.9998779296875
  0
HATCH
  5
BD
100
AcDbEntity
  8
0
370
              -2
390
0
  6
Continuous
 62
               0
100
AcDbHatch
 10
0.0
 20
0.0
 30
0.0
210
0.0
220
0.0
230
1.0
  2
SOLID
 70
               1
 71
               1
 91
        1
 92
        1
 93
        1
 72
               2
 10
-699.02712872737857
 20
-224.65537058716771
 40
1.9998779296875
 50
0.0
 51
360.0
 73
               0
 97
        1
330
BC
 75
               0
 76
               1
 98
        1
 10
0.0
 20
0.0
  0
CIRCLE
  5
BE
102
{ACAD_REACTORS
330
BF
102
}
100
AcDbEntity
  8
0
370
              -2
390
0
  6
Continuous
 62
               0
100
AcDbCircle
 10
-529.02712872737857
 20
-224.65537058716771
 30
0.0
 40
1.9998779296875
  0
HATCH
  5
BF
100
AcDbEntity
  8
0
370
              -2
390
0
  6
Continuous
 62
               0
100
AcDbHatch
 10
0.0
 20
0.0
 30
0.0
210
0.0
220
0.0
230
1.0
  2
SOLID
 70
               1
 71
               1
 91
        1
 92
        1
 93
        1
 72
               2
 10
-529.02712872737857
 20
-224.65537058716771
 40
1.9998779296875
 50
0.0
 51
360.0
 73
               0
 97
        1
330
BE
 75
               0
 76
               1
 98
        1
 10
0.0
 20
0.0
  0
MTEXT
  5
C0
100
AcDbEntity
  8
0
390
0
 62
               0
100
AcDbMText
 10
-637.83963040955405
 20
-190.77775339966772
 30
0.0
 40
24.432617187500004
 41
0.0
 71
               1
 72
               1
  1
170
  7
ＭＳ ゴシック
 73
               1
 44
0.7828267384257843
  0
POINT
  5
C1
100
AcDbEntity
  8
Defpoints
370
               0
390
0
 62
               0
100
AcDbPoint
 10
-529.02712872737857
 20
-404.65446424160461
 30
0.0
  0
POINT
  5
C2
100
AcDbEntity
  8
Defpoints
370
               0
390
0
 62
               0
100
AcDbPoint
 10
-699.02712872737857
 20
-324.65557643778504
 30
0.0
  0
POINT
  5
C3
100
AcDbEntity
  8
Defpoints
370
               0
390
0
 62
               0
100
AcDbPoint
 10
-699.02712872737857
 20
-224.65537058716771
 30
0.0
  0
ENDBLK
  5
C4
100
AcDbEntity
  8
notes
390
0
100
AcDbBlockEnd
  0
BLOCK
  5
C5
100
AcDbEntity
  8
notes
390
0
100
AcDbBlockBegin
  2
*D11
 70
               1
 10
0.0
 20
0.0
 30
0.0
  3
*D11
  1

  0
LINE
  5
C6
100
AcDbEntity
  8
0
370
              -2
390
0
  6
Continuous
 62
               0
100
AcDbLine
 10
797.60705485429344
 20
-275.26956903636722
 30
0.0
 11
872.60705485429355
 21
-275.26956903636722
 31
0.0
  0
LINE
  5
C7
100
AcDbEntity
  8
0
370
              -2
390
0
  6
Continuous
 62
               0
100
AcDbLine
 10
628.33180099297942
 20
-495.26956903636722
 30
0.0
 11
872.60705485429355
 21
-495.26956903636722
 31
0.0
  0
LINE
  5
C8
100
AcDbEntity
  8
0
370
              -2
390
0
  6
Continuous
 62
               0
100
AcDbLine
 10
872.60705485429355
 20
-275.26956903636722
 30
0.0
 11
872.60705485429355
 21
-495.26956903636722
 31
0.0
  0
CIRCLE
  5
C9
102
{ACAD_REACTORS
330
CA
102
}
100
AcDbEntity
  8
0
370
              -2
390
0
  6
Continuous
 62
               0
100
AcDbCircle
 10
872.60705485429355
 20
-275.26956903636722
 30
0.0
 40
1.9998779296875
  0
HATCH
  5
CA
100
AcDbEntity
  8
0
370
              -2
390
0
  6
Continuous
 62
               0
100
AcDbHatch
 10
0.0
 20
0.0
 30
0.0
210
0.0
220
0.0
230
1.0
  2
SOLID
 70
               1
 71
               1
 91
        1
 92
        1
 93
        1
 72
               2
 10
872.60705485429355
 20
-275.26956903636722
 40
1.9998779296875
 50
0.0
 51
360.0
 73
               0
 97
        1
330
C9
 75
               0
 76
               1
 98
        1
 10
0.0
 20
0.0
  0
CIRCLE
  5
CB
102
{ACAD_REACTORS
330
CC
102
}
100
AcDbEntity
  8
0
370
              -2
390
0
  6
Continuous
 62
               0
100
AcDbCircle
 10
872.60705485429355
 20
-495.26956903636722
 30
0.0
 40
1.9998779296875
  0
HATCH
  5
CC
100
AcDbEntity
  8
0
370
              -2
390
0
  6
Continuous
 62
               0
100
AcDbHatch
 10
0.0
 20
0.0
 30
0.0
210
0.0
220
0.0
230
1.0
  2
SOLID
 70
               1
 71
               1
 91
        1
 92
        1
 93
        1
 72
               2
 10
872.60705485429355
 20
-495.26956903636722
 40
1.9998779296875
 50
0.0
 51
360.0
 73
               0
 97
        1
330
CB
 75
               0
 76
               1
 98
        1
 10
0.0
 20
0.0
  0
MTEXT
  5
CD
100
AcDbEntity
  8
0
390
0
 62
               0
100
AcDbMText
 10
838.7294376667935
 20
-409.0820707185427
 30
0.0
 40
24.432617187500004
 41
0.0
 71
               1
 72
               1
  1
220
  7
ＭＳ ゴシック
 11
0.0
 21
1.0
 31
0.0
 73
               1
 44
0.7828267384257843
  0
POINT
  5
CE
100
AcDbEntity
  8
Defpoints
370
               0
390
0
 62
               0
100
AcDbPoint
 10
603.33180099297942
 20
-495.26956903636722
 30
0.0
  0
POINT
  5
CF
100
AcDbEntity
  8
Defpoints
370
               0
390
0
 62
               0
100
AcDbPoint
 10
772.60705485429344
 20
-275.26956903636722
 30
0.0
  0
POINT
  5
D0
100
AcDbEntity
  8
Defpoints
370
               0
390
0
 62
               0
100
AcDbPoint
 10
872.60705485429355
 20
-275.26956903636722
 30
0.0
  0
ENDBLK
  5
D1
100
AcDbEntity
  8
notes
390
0
100
AcDbBlockEnd
  0
BLOCK
  5
D2
100
AcDbEntity
  8
notes
390
0
100
AcDbBlockBegin
  2
*D12
 70
               1
 10
0.0
 20
0.0
 30
0.0
  3
*D12
  1

  0
LINE
  5
D3
100
AcDbEntity
  8
0
370
              -2
390
0
  6
Continuous
 62
               0
100
AcDbLine
 10
772.60705485429344
 20
-475.0
 30
0.0
 11
772.60705485429344
 21
-595.26992168393656
 31
0.0
  0
LINE
  5
D4
100
AcDbEntity
  8
0
370
              -2
390
0
  6
Continuous
 62
               0
100
AcDbLine
 10
572.60705485429344
 20
-520.26992168393656
 30
0.0
 11
572.60705485429344
 21
-595.26992168393656
 31
0.0
  0
LINE
  5
D5
100
AcDbEntity
  8
0
370
              -2
390
0
  6
Continuous
 62
               0
100
AcDbLine
 10
772.60705485429344
 20
-595.26992168393656
 30
0.0
 11
572.60705485429344
 21
-595.26992168393656
 31
0.0
  0
CIRCLE
  5
D6
102
{ACAD_REACTORS
330
D7
102
}
100
AcDbEntity
  8
0
370
              -2
390
0
  6
Continuous
 62
               0
100
AcDbCircle
 10
772.60705485429344
 20
-595.26992168393656
 30
0.0
 40
1.9998779296875
  0
HATCH
  5
D7
100
AcDbEntity
  8
0
370
              -2
390
0
  6
Continuous
 62
               0
100
AcDbHatch
 10
0.0
 20
0.0
 30
0.0
210
0.0
220
0.0
230
1.0
  2
SOLID
 70
               1
 71
               1
 91
        1
 92
        1
 93
        1
 72
               2
 10
772.60705485429344
 20
-595.26992168393656
 40
1.9998779296875
 50
0.0
 51
360.0
 73
               0
 97
        1
330
D6
 75
               0
 76
               1
 98
        1
 10
0.0
 20
0.0
  0
CIRCLE
  5
D8
102
{ACAD_REACTORS
330
D9
102
}
100
AcDbEntity
  8
0
370
              -2
390
0
  6
Continuous
 62
               0
100
AcDbCircle
 10
572.60705485429344
 20
-595.26992168393656
 30
0.0
 40
1.9998779296875
  0
HATCH
  5
D9
100
AcDbEntity
  8
0
370
              -2
390
0
  6
Continuous
 62
               0
100
AcDbHatch
 10
0.0
 20
0.0
 30
0.0
210
0.0
220
0.0
230
1.0
  2
SOLID
 70
               1
 71
               1
 91
        1
 92
        1
 93
        1
 72
               2
 10
572.60705485429344
 20
-595.26992168393656
 40
1.9998779296875
 50
0.0
 51
360.0
 73
               0
 97
        1
330
D8
 75
               0
 76
               1
 98
        1
 10
0.0
 20
0.0
  0
MTEXT
  5
DA
100
AcDbEntity
  8
0
390
0
 62
               0
100
AcDbMText
 10
648.79455317211796
 20
-561.39230449643651
 30
0.0
 40
24.432617187500004
 41
0.0
 71
               1
 72
               1
  1
200
  7
ＭＳ ゴシック
 73
               1
 44
0.7828267384257843
  0
POINT
  5
DB
100
AcDbEntity
  8
Defpoints
370
               0
390
0
 62
               0
100
AcDbPoint
 10
572.60705485429344
 20
-495.26992168393656
 30
0.0
  0
POINT
  5
DC
100
AcDbEntity
  8
Defpoints
370
               0
390
0
 62
               0
100
AcDbPoint
 10
772.60705485429344
 20
-450.0
 30
0.0
  0
POINT
  5
DD
100
AcDbEntity
  8
Defpoints
370
               0
390
0
 62
               0
100
AcDbPoint
 10
772.60705485429344
 20
-595.26992168393656
 30
0.0
  0
ENDBLK
  5
DE
100
AcDbEntity
  8
notes
390
0
100
AcDbBlockEnd
  0
BLOCK
  5
DF
100
AcDbEntity
  8
notes
390
0
100
AcDbBlockBegin
  2
*D13
 70
               1
 10
0.0
 20
0.0
 30
0.0
  3
*D13
  1

  0
LINE
  5
E0
100
AcDbEntity
  8
0
370
              -2
390
0
  6
Continuous
 62
               0
100
AcDbLine
 10
120.97344093408037
 20
785.0
 30
0.0
 11
200.83256031180326
 21
785.0
 31
0.0
  0
LINE
  5
E1
100
AcDbEntity
  8
0
370
              -2
390
0
  6
Continuous
 62
               0
100
AcDbLine
 10
-126.52566388362857
 20
665.00215657552076
 30
0.0
 11
200.83256031180326
 21
665.00215657552076
 31
0.0
  0
LINE
  5
E2
100
AcDbEntity
  8
0
370
              -2
390
0
  6
Continuous
 62
               0
100
AcDbLine
 10
200.83256031180326
 20
785.0
 30
0.0
 11
200.83256031180326
 21
665.00215657552076
 31
0.0
  0
CIRCLE
  5
E3
102
{ACAD_REACTORS
330
E4
102
}
100
AcDbEntity
  8
0
370
              -2
390
0
  6
Continuous
 62
               0
100
AcDbCircle
 10
200.83256031180326
 20
785.0
 30
0.0
 40
1.9998779296875
  0
HATCH
  5
E4
100
AcDbEntity
  8
0
370
              -2
390
0
  6
Continuous
 62
               0
100
AcDbHatch
 10
0.0
 20
0.0
 30
0.0
210
0.0
220
0.0
230
1.0
  2
SOLID
 70
               1
 71
               1
 91
        1
 92
        1
 93
        1
 72
               2
 10
200.83256031180326
 20
785.0
 40
1.9998779296875
 50
0.0
 51
360.0
 73
               0
 97
        1
330
E3
 75
               0
 76
               1
 98
        1
 10
0.0
 20
0.0
  0
CIRCLE
  5
E5
102
{ACAD_REACTORS
330
E6
102
}
100
AcDbEntity
  8
0
370
              -2
390
0
  6
Continuous
 62
               0
100
AcDbCircle
 10
200.83256031180326
 20
665.00215657552076
 30
0.0
 40
1.9998779296875
  0
HATCH
  5
E6
100
AcDbEntity
  8
0
370
              -2
390
0
  6
Continuous
 62
               0
100
AcDbHatch
 10
0.0
 20
0.0
 30
0.0
210
0.0
220
0.0
230
1.0
  2
SOLID
 70
               1
 71
               1
 91
        1
 92
        1
 93
        1
 72
               2
 10
200.83256031180326
 20
665.00215657552076
 40
1.9998779296875
 50
0.0
 51
360.0
 73
               0
 97
        1
330
E5
 75
               0
 76
               1
 98
        1
 10
0.0
 20
0.0
  0
MTEXT
  5
E7
100
AcDbEntity
  8
0
390
0
 62
               0
100
AcDbMText
 10
166.95494312430327
 20
701.1885766055849
 30
0.0
 40
24.432617187500004
 41
0.0
 71
               1
 72
               1
  1
120
  7
ＭＳ ゴシック
 11
0.0
 21
1.0
 31
0.0
 73
               1
 44
0.7828267384257843
  0
POINT
  5
E8
100
AcDbEntity
  8
Defpoints
370
               0
390
0
 62
               0
100
AcDbPoint
 10
-151.52566388362857
 20
665.00215657552076
 30
0.0
  0
POINT
  5
E9
100
AcDbEntity
  8
Defpoints
370
               0
390
0
 62
               0
100
AcDbPoint
 10
95.973440934080372
 20
785.0
 30
0.0
  0
POINT
  5
EA
100
AcDbEntity
  8
Defpoints
370
               0
390
0
 62
               0
100
AcDbPoint
 10
200.83256031180326
 20
785.0
 30
0.0
  0
ENDBLK
  5
EB
100
AcDbEntity
  8
notes
390
0
100
AcDbBlockEnd
  0
BLOCK
  5
EC
100
AcDbEntity
  8
notes
390
0
100
AcDbBlockBegin
  2
*D14
 70
               1
 10
0.0
 20
0.0
 30
0.0
  3
*D14
  1

  0
LINE
  5
ED
100
AcDbEntity
  8
0
370
              -2
390
0
  6
Continuous
 62
               0
100
AcDbLine
 10
547.60705485429344
 20
-324.65859364634537
 30
0.0
 11
563.24897429851956
 21
-324.65859364634537
 31
0.0
  0
LINE
  5
EE
100
AcDbEntity
  8
0
370
              -2
390
0
  6
Continuous
 62
               0
100
AcDbLine
 10
547.60705485429344
 20
-444.65859364634537
 30
0.0
 11
563.24897429851956
 21
-444.65859364634537
 31
0.0
  0
LINE
  5
EF
100
AcDbEntity
  8
0
370
              -2
390
0
  6
Continuous
 62
               0
100
AcDbLine
 10
563.24897429851956
 20
-324.65859364634537
 30
0.0
 11
563.24897429851956
 21
-117.12499999999997
 31
0.0
  0
LINE
  5
F0
100
AcDbEntity
  8
0
370
              -2
390
0
  6
Continuous
 62
               0
100
AcDbLine
 10
563.24897429851956
 20
-324.65859364634537
 30
0.0
 11
563.24897429851956
 21
-444.65859364634537
 31
0.0
  0
CIRCLE
  5
F1
102
{ACAD_REACTORS
330
F2
102
}
100
AcDbEntity
  8
0
370
              -2
390
0
  6
Continuous
 62
               0
100
AcDbCircle
 10
563.24897429851956
 20
-324.65859364634537
 30
0.0
 40
1.9998779296875
  0
HATCH
  5
F2
100
AcDbEntity
  8
0
370
              -2
390
0
  6
Continuous
 62
               0
100
AcDbHatch
 10
0.0
 20
0.0
 30
0.0
210
0.0
220
0.0
230
1.0
  2
SOLID
 70
               1
 71
               1
 91
        1
 92
        1
 93
        1
 72
               2
 10
563.24897429851956
 20
-324.65859364634537
 40
1.9998779296875
 50
0.0
 51
360.0
 73
               0
 97
        1
330
F1
 75
               0
 76
               1
 98
        1
 10
0.0
 20
0.0
  0
CIRCLE
  5
F3
102
{ACAD_REACTORS
330
F4
102
}
100
AcDbEntity
  8
0
370
              -2
390
0
  6
Continuous
 62
               0
100
AcDbCircle
 10
563.24897429851956
 20
-444.65859364634537
 30
0.0
 40
1.9998779296875
  0
HATCH
  5
F4
100
AcDbEntity
  8
0
370
              -2
390
0
  6
Continuous
 62
               0
100
AcDbHatch
 10
0.0
 20
0.0
 30
0.0
210
0.0
220
0.0
230
1.0
  2
SOLID
 70
               1
 71
               1
 91
        1
 92
        1
 93
        1
 72
               2
 10
563.24897429851956
 20
-444.65859364634537
 40
1.9998779296875
 50
0.0
 51
360.0
 73
               0
 97
        1
330
F3
 75
               0
 76
               1
 98
        1
 10
0.0
 20
0.0
  0
MTEXT
  5
F5
100
AcDbEntity
  8
0
390
0
 62
               0
100
AcDbMText
 10
529.37135711101951
 20
-260.0
 30
0.0
 40
24.432617187500004
 41
0.0
 71
               1
 72
               1
  1
120(深さ)
  7
ＭＳ ゴシック
 11
0.0
 21
1.0
 31
0.0
 73
               1
 44
0.7828267384257843
  0
POINT
  5
F6
100
AcDbEntity
  8
Defpoints
370
               0
390
0
 62
               0
100
AcDbPoint
 10
572.60705485429344
 20
-444.65859364634537
 30
0.0
  0
POINT
  5
F7
100
AcDbEntity
  8
Defpoints
370
               0
390
0
 62
               0
100
AcDbPoint
 10
572.60705485429344
 20
-324.65859364634537
 30
0.0
  0
POINT
  5
F8
100
AcDbEntity
  8
Defpoints
370
               0
390
0
 62
               0
100
AcDbPoint
 10
563.24897429851956
 20
-324.65859364634537
 30
0.0
  0
ENDBLK
  5
F9
100
AcDbEntity
  8
notes
390
0
100
AcDbBlockEnd
  0
BLOCK
  5
FA
100
AcDbEntity
  8
notes
390
0
100
AcDbBlockBegin
  2
*D15
 70
               1
 10
0.0
 20
0.0
 30
0.0
  3
*D15
  1

  0
LINE
  5
FB
100
AcDbEntity
  8
0
370
              -2
390
0
  6
Continuous
 62
               0
100
AcDbLine
 10
-724.02712872737857
 20
-324.65557643778504
 30
0.0
 11
-799.02712872737857
 21
-324.65557643778504
 31
0.0
  0
LINE
  5
FC
100
AcDbEntity
  8
0
370
              -2
390
0
  6
Continuous
 62
               0
100
AcDbLine
 10
-564.02824092355922
 20
-414.65557643778504
 30
0.0
 11
-799.02712872737857
 21
-414.65557643778504
 31
0.0
  0
LINE
  5
FD
100
AcDbEntity
  8
0
370
              -2
390
0
  6
Continuous
 62
               0
100
AcDbLine
 10
-799.02712872737857
 20
-324.65557643778504
 30
0.0
 11
-799.02712872737857
 21
-414.65557643778504
 31
0.0
  0
CIRCLE
  5
FE
102
{ACAD_REACTORS
330
FF
102
}
100
AcDbEntity
  8
0
370
              -2
390
0
  6
Continuous
 62
               0
100
AcDbCircle
 10
-799.02712872737857
 20
-324.65557643778504
 30
0.0
 40
1.9998779296875
  0
HATCH
  5
FF
100
AcDbEntity
  8
0
370
              -2
390
0
  6
Continuous
 62
               0
100
AcDbHatch
 10
0.0
 20
0.0
 30
0.0
210
0.0
220
0.0
230
1.0
  2
SOLID
 70
               1
 71
               1
 91
        1
 92
        1
 93
        1
 72
               2
 10
-799.02712872737857
 20
-324.65557643778504
 40
1.9998779296875
 50
0.0
 51
360.0
 73
               0
 97
        1
330
FE
 75
               0
 76
               1
 98
        1
 10
0.0
 20
0.0
  0
CIRCLE
  5
100
102
{ACAD_REACTORS
330
101
102
}
100
AcDbEntity
  8
0
370
              -2
390
0
  6
Continuous
 62
               0
100
AcDbCircle
 10
-799.02712872737857
 20
-414.65557643778504
 30
0.0
 40
1.9998779296875
  0
HATCH
  5
101
100
AcDbEntity
  8
0
370
              -2
390
0
  6
Continuous
 62
               0
100
AcDbHatch
 10
0.0
 20
0.0
 30
0.0
210
0.0
220
0.0
230
1.0
  2
SOLID
 70
               1
 71
               1
 91
        1
 92
        1
 93
        1
 72
               2
 10
-799.02712872737857
 20
-414.65557643778504
 40
1.9998779296875
 50
0.0
 51
360.0
 73
               0
 97
        1
330
100
 75
               0
 76
               1
 98
        1
 10
0.0
 20
0.0
  0
MTEXT
  5
102
100
AcDbEntity
  8
0
390
0
 62
               0
100
AcDbMText
 10
-832.90474591487862
 20
-385.53057643778504
 30
0.0
 40
24.432617187500004
 41
0.0
 71
               1
 72
               1
  1
90
  7
ＭＳ ゴシック
 11
0.0
 21
1.0
 31
0.0
 73
               1
 44
0.7828267384257843
  0
POINT
  5
103
100
AcDbEntity
  8
Defpoints
370
               0
390
0
 62
               0
100
AcDbPoint
 10
-539.02824092355922
 20
-414.65557643778504
 30
0.0
  0
POINT
  5
104
100
AcDbEntity
  8
Defpoints
370
               0
390
0
 62
               0
100
AcDbPoint
 10
-699.02712872737857
 20
-324.65557643778504
 30
0.0
  0
POINT
  5
105
100
AcDbEntity
  8
Defpoints
370
               0
390
0
 62
               0
100
AcDbPoint
 10
-799.02712872737857
 20
-324.65557643778504
 30
0.0
  0
ENDBLK
  5
106
100
AcDbEntity
  8
notes
390
0
100
AcDbBlockEnd
  0
BLOCK
  5
107
100
AcDbEntity
  8
notes
390
0
100
AcDbBlockBegin
  2
*D16
 70
               1
 10
0.0
 20
0.0
 30
0.0
  3
*D16
  1

  0
LINE
  5
108
100
AcDbEntity
  8
0
370
              -2
390
0
  6
Continuous
 62
               0
100
AcDbLine
 10
-724.02712872737857
 20
-324.65557643778504
 30
0.0
 11
-849.02712872737857
 21
-324.65557643778504
 31
0.0
  0
LINE
  5
109
100
AcDbEntity
  8
0
370
              -2
390
0
  6
Continuous
 62
               0
100
AcDbLine
 10
-484.41459346262172
 20
-494.65557643778504
 30
0.0
 11
-849.02712872737857
 21
-494.65557643778504
 31
0.0
  0
LINE
  5
10A
100
AcDbEntity
  8
0
370
              -2
390
0
  6
Continuous
 62
               0
100
AcDbLine
 10
-849.02712872737857
 20
-324.65557643778504
 30
0.0
 11
-849.02712872737857
 21
-494.65557643778504
 31
0.0
  0
CIRCLE
  5
10B
102
{ACAD_REACTORS
330
10C
102
}
100
AcDbEntity
  8
0
370
              -2
390
0
  6
Continuous
 62
               0
100
AcDbCircle
 10
-849.02712872737857
 20
-324.65557643778504
 30
0.0
 40
1.9998779296875
  0
HATCH
  5
10C
100
AcDbEntity
  8
0
370
              -2
390
0
  6
Continuous
 62
               0
100
AcDbHatch
 10
0.0
 20
0.0
 30
0.0
210
0.0
220
0.0
230
1.0
  2
SOLID
 70
               1
 71
               1
 91
        1
 92
        1
 93
        1
 72
               2
 10
-849.02712872737857
 20
-324.65557643778504
 40
1.9998779296875
 50
0.0
 51
360.0
 73
               0
 97
        1
330
10B
 75
               0
 76
               1
 98
        1
 10
0.0
 20
0.0
  0
CIRCLE
  5
10D
102
{ACAD_REACTORS
330
10E
102
}
100
AcDbEntity
  8
0
370
              -2
390
0
  6
Continuous
 62
               0
100
AcDbCircle
 10
-849.02712872737857
 20
-494.65557643778504
 30
0.0
 40
1.9998779296875
  0
HATCH
  5
10E
100
AcDbEntity
  8
0
370
              -2
390
0
  6
Continuous
 62
               0
100
AcDbHatch
 10
0.0
 20
0.0
 30
0.0
210
0.0
220
0.0
230
1.0
  2
SOLID
 70
               1
 71
               1
 91
        1
 92
        1
 93
        1
 72
               2
 10
-849.02712872737857
 20
-494.65557643778504
 40
1.9998779296875
 50
0.0
 51
360.0
 73
               0
 97
        1
330
10D
 75
               0
 76
               1
 98
        1
 10
0.0
 20
0.0
  0
MTEXT
  5
10F
100
AcDbEntity
  8
0
390
0
 62
               0
100
AcDbMText
 10
-882.90474591487862
 20
-433.46807811996052
 30
0.0
 40
24.432617187500004
 41
0.0
 71
               1
 72
               1
  1
170
  7
ＭＳ ゴシック
 11
0.0
 21
1.0
 31
0.0
 73
               1
 44
0.7828267384257843
  0
POINT
  5
110
100
AcDbEntity
  8
Defpoints
370
               0
390
0
 62
               0
100
AcDbPoint
 10
-459.41459346262172
 20
-494.65557643778504
 30
0.0
  0
POINT
  5
111
100
AcDbEntity
  8
Defpoints
370
               0
390
0
 62
               0
100
AcDbPoint
 10
-699.02712872737857
 20
-324.65557643778504
 30
0.0
  0
POINT
  5
112
100
AcDbEntity
  8
Defpoints
370
               0
390
0
 62
               0
100
AcDbPoint
 10
-849.02712872737857
 20
-324.65557643778504
 30
0.0
  0
ENDBLK
  5
113
100
AcDbEntity
  8
notes
390
0
100
AcDbBlockEnd
  0
BLOCK
  5
114
100
AcDbEntity
  8
notes
390
0
100
AcDbBlockBegin
  2
*D17
 70
               1
 10
0.0
 20
0.0
 30
0.0
  3
*D17
  1

  0
LINE
  5
115
100
AcDbEntity
  8
0
370
              -2
390
0
  6
Continuous
 62
               0
100
AcDbLine
 10
-158.29543946037762
 20
651.1777103327837
 30
0.0
 11
-71.999999999999972
 21
540.0
 31
0.0
  0
CIRCLE
  5
116
102
{ACAD_REACTORS
330
117
102
}
100
AcDbEntity
  8
0
370
              -2
390
0
  6
Continuous
 62
               0
100
AcDbCircle
 10
-158.29543946037762
 20
651.1777103327837
 30
0.0
 40
1.9998779296875
  0
HATCH
  5
117
100
AcDbEntity
  8
0
370
              -2
390
0
  6
Continuous
 62
               0
100
AcDbHatch
 10
0.0
 20
0.0
 30
0.0
210
0.0
220
0.0
230
1.0
  2
SOLID
 70
               1
 71
               1
 91
        1
 92
        1
 93
        1
 72
               2
 10
-158.29543946037762
 20
651.1777103327837
 40
1.9998779296875
 50
0.0
 51
360.0
 73
               0
 97
        1
330
116
 75
               0
 76
               1
 98
        1
 10
0.0
 20
0.0
  0
LINE
  5
118
100
AcDbEntity
  8
0
370
              -2
390
0
  6
Continuous
 62
               0
100
AcDbLine
 10
-71.999999999999972
 20
540.0
 30
0.0
 11
51.500000000000028
 21
540.0
 31
0.0
  0
MTEXT
  5
119
100
AcDbEntity
  8
0
390
0
 62
               0
100
AcDbMText
 10
-11.999999999999972
 20
573.87761718750005
 30
0.0
 40
24.432617187500004
 41
0.0
 71
               1
 72
               1
  1
φ35
  7
ＭＳ ゴシック
 73
               1
 44
0.7828267384257843
  0
POINT
  5
11A
100
AcDbEntity
  8
Defpoints
370
               0
390
0
 62
               0
100
AcDbPoint
 10
-179.75633589802595
 20
678.82660281825792
 30
0.0
  0
POINT
  5
11B
100
AcDbEntity
  8
Defpoints
370
               0
390
0
 62
               0
100
AcDbPoint
 10
-158.29543946037762
 20
651.1777103327837
 30
0.0
  0
ENDBLK
  5
11C
100
AcDbEntity
  8
notes
390
0
100
AcDbBlockEnd
  0
ENDSEC
  0
SECTION
  2
ENTITIES
  0
MTEXT
  5
11D
100
AcDbEntity
  8
template
390
0
 62
               7
100
AcDbMText
 10
-967.99999999975921
 20
-1147.4176292337004
 30
0.0
 40
16.288411458333332
 41
0.0
 71
               1
 72
               1
  1
品名
  7
ＭＳ ゴシック
 73
               1
 44
0.7828267384257843
  0
MTEXT
  5
11E
100
AcDbEntity
  8
template
390
0
 62
               7
100
AcDbMText
 10
-967.99999999975921
 20
-1232.4176292337004
 30
0.0
 40
16.288411458333332
 41
0.0
 71
               1
 72
               1
  1
仕様
  7
ＭＳ ゴシック
 73
               1
 44
0.7828267384257843
  0
LINE
  5
11F
100
AcDbEntity
  8
template
370
               5
390
0
  6
Continuous
 62
               7
100
AcDbLine
 10
974.99999999975876
 20
-1224.0027073587005
 30
0.0
 11
-975.00000000024124
 21
-1224.0027073587005
 31
0.0
  0
LWPOLYLINE
  5
120
100
AcDbEntity
  8
template
370
               5
390
0
  6
Continuous
 62
               7
100
AcDbPolyline
 90
        5
 70
             128
 10
975.00000000024124
 20
1405.9972926412995
 10
-974.99999999975921
 20
1405.9972926412995
 10
-974.99999999975921
 20
-1394.0027073587005
 10
975.00000000024124
 20
-1394.0027073587005
 10
975.00000000024124
 20
1405.9972926412995
  0
LINE
  5
121
100
AcDbEntity
  8
template
370
               5
390
0
  6
Continuous
 62
               7
100
AcDbLine
 10
974.99999999975876
 20
-1139.0027073587005
 30
0.0
 11
-975.00000000024124
 21
-1139.0027073587005
 31
0.0
  0
LINE
  5
122
100
AcDbEntity
  8
template
370
               5
390
0
  6
Continuous
 62
               7
100
AcDbLine
 10
975.00000000024124
 20
-1309.0027073587005
 30
0.0
 11
222.00000000024124
 21
-1309.0027073587005
 31
0.0
  0
MTEXT
  5
123
100
AcDbEntity
  8
template
390
0
 62
               7
100
AcDbMText
 10
251.87140625250089
 20
-1338.9131018320081
 30
0.0
 40
24.432617187500004
 41
0.0
 71
               1
 72
               1
  1
大洋金物株式会社 ティーフォルム事業部
  7
ＭＳ ゴシック
 73
               1
 44
0.7828267384257843
  0
INSERT
  5
124
100
AcDbEntity
  8
template
390
0
 62
               7
100
AcDbBlockReference
  2
グループ
 10
103.11190207627919
 20
164.91902443739266
 30
0.0
  0
MTEXT
  5
125
100
AcDbEntity
  8
template
390
0
 62
               7
100
AcDbMText
 10
784.00000000049999
 20
-1261.0000901712006
 30
0.0
 40
24.432617187500004
 41
0.0
 71
               1
 72
               1
  1
1:10
  7
ＭＳ ゴシック
 73
               1
 44
0.7828267384257843
  0
MTEXT
  5
126
100
AcDbEntity
  8
template
390
0
 62
               7
100
AcDbMText
 10
731.00000000049999
 20
-1232.4176292337004
 30
0.0
 40
16.288411458333332
 41
0.0
 71
               1
 72
               1
  1
縮尺
  7
ＭＳ ゴシック
 73
               1
 44
0.7828267384257843
  0
LINE
  5
127
100
AcDbEntity
  8
template
370
               5
390
0
  6
Continuous
 62
               7
100
AcDbLine
 10
724.00000000049999
 20
-1309.0027073587005
 30
0.0
 11
724.00000000049999
 21
-1224.0027073587005
 31
0.0
  0
MTEXT
  5
128
100
AcDbEntity
  8
template
390
0
 62
               7
100
AcDbMText
 10
480.00000000049999
 20
-1232.4176292337004
 30
0.0
 40
16.288411458333332
 41
0.0
 71
               1
 72
               1
  1
容量
  7
ＭＳ ゴシック
 73
               1
 44
0.7828267384257843
  0
LINE
  5
129
100
AcDbEntity
  8
template
370
               5
390
0
  6
Continuous
 62
               7
100
AcDbLine
 10
473.00000000049999
 20
-1309.0027073587005
 30
0.0
 11
473.00000000049999
 21
-1224.0027073587005
 31
0.0
  0
MTEXT
  5
12A
100
AcDbEntity
  8
template
390
0
 62
               7
100
AcDbMText
 10
229.00000000049999
 20
-1147.4176292337004
 30
0.0
 40
16.288411458333332
 41
0.0
 71
               1
 72
               1
  1
品番
  7
ＭＳ ゴシック
 73
               1
 44
0.7828267384257843
  0
MTEXT
  5
12B
100
AcDbEntity
  8
template
390
0
 62
               7
100
AcDbMText
 10
229.00000000049999
 20
-1232.4176292337004
 30
0.0
 40
16.288411458333332
 41
0.0
 71
               1
 72
               1
  1
重量
  7
ＭＳ ゴシック
 73
               1
 44
0.7828267384257843
  0
MTEXT
  5
12C
100
AcDbEntity
  8
template
390
0
 62
               7
100
AcDbMText
 10
282.00000000049999
 20
-1176.0000901712006
 30
0.0
 40
24.432617187500004
 41
0.0
 71
               1
 72
               1
  1
KUF70-0103
  7
ＭＳ ゴシック
 73
               1
 44
0.7828267384257843
  0
LINE
  5
12D
100
AcDbEntity
  8
template
370
               5
390
0
  6
Continuous
 62
               7
100
AcDbLine
 10
222.00000000049999
 20
-1394.0027073587005
 30
0.0
 11
222.00000000049999
 21
-1139.0027073587005
 31
0.0
  0
MTEXT
  5
12E
100
AcDbEntity
  8
template
390
0
 62
               7
100
AcDbMText
 10
-914.99999999975921
 20
-1176.0000901712006
 30
0.0
 40
24.432617187500004
 41
0.0
 71
               1
 72
               1
  1
洗面器 -SANICO,Spoon-
  7
ＭＳ ゴシック
 73
               1
 44
0.7828267384257843
  0
MTEXT
  5
12F
100
AcDbEntity
  8
template
390
0
 62
               7
100
AcDbMText
 10
-974.99999999955594
 20
-1405.8565294155574
 30
0.0
 40
21.717881944444446
 41
0.0
 71
               1
 72
               1
  1
121203SM
  7
ＭＳ ゴシック
 73
               1
 44
0.7828267384257843
  0
MTEXT
  5
130
100
AcDbEntity
  8
template
390
0
 62
               7
100
AcDbMText
 10
533.00000000049999
 20
-1261.0000901712006
 30
0.0
 40
24.432617187500004
 41
0.0
 71
               1
 72
               1
  1
7.5L
  7
ＭＳ ゴシック
 73
               1
 44
0.7828267384257843
  0
MTEXT
  5
131
100
AcDbEntity
  8
template
390
0
 62
               7
100
AcDbMText
 10
282.00000000049999
 20
-1261.0000901712006
 30
0.0
 40
24.432617187500004
 41
0.0
 71
               1
 72
               1
  1
17kg
  7
ＭＳ ゴシック
 73
               1
 44
0.7828267384257843
  0
MTEXT
  5
132
100
AcDbEntity
  8
template
390
0
 62
               7
100
AcDbMText
 10
-914.99999999975921
 20
-1261.0000901712006
 30
0.0
 40
24.432617187500004
 41
0.0
 71
               1
 72
               1
  1
壁掛け/オーバーフローなし/排水目皿,壁取付ボルト付属/磁器/ホワイト
  7
ＭＳ ゴシック
 73
               1
 44
1.1307497332816883
  0
MTEXT
  5
133
100
AcDbEntity
  8
notes
390
0
 62
               7
100
AcDbMText
 10
-138.71773247298461
 20
-475.81401606033467
 30
0.0
 40
24.432617187500004
 41
0.0
 71
               1
 72
               1
  1
壁取付ボルト穴(2ヶ所)
  7
ＭＳ ゴシック
 73
               1
 44
0.7828267384257843
  0
LINE
  5
134
100
AcDbEntity
  8
notes
370
               5
390
0
  6
Continuous
 62
               7
100
AcDbLine
 10
-74.024280420086598
 20
-335.26668754889613
 30
0.0
 11
44.709032031017614
 21
-454.0
 31
0.0
  0
DIMENSION
  5
135
100
AcDbEntity
  8
notes
370
               5
390
0
  6
Continuous
 62
               7
100
AcDbDimension
  2
*D3
 10
100.9757195799134
 20
935.0
 30
0.0
 11
-299.0242804200866
 21
935.0
 31
0.0
 71
               5
 72
               1
 41
1.0
 42
0.0
  3
tfrom線あり
100
AcDbAlignedDimension
 13
-699.0242804200866
 23
779.60614641014809
 33
0.0
 14
100.9757195799134
 24
779.60614641014809
 34
0.0
100
AcDbRotatedDimension
1001
ACAD
1000
DSTYLE
1002
{
1070
             279
1070
               2
1070
             340
1005
33
1070
             147
1040
5.0
1002
}
  0
DIMENSION
  5
136
100
AcDbEntity
  8
notes
370
               5
390
0
  6
Continuous
 62
               7
100
AcDbDimension
  2
*D4
 10
100.9757195799134
 20
884.99999999999989
 30
0.0
 11
-34.024280420086825
 21
884.99999999999989
 31
0.0
 71
               5
 72
               1
 41
1.0
 42
0.0
  3
tfrom線あり
100
AcDbAlignedDimension
 13
-169.02428042008705
 23
682.50238029728666
 33
0.0
 14
100.9757195799134
 24
778.595170795375
 34
0.0
100
AcDbRotatedDimension
1001
ACAD
1000
DSTYLE
1002
{
1070
             279
1070
               2
1070
             340
1005
33
1070
             147
1040
5.0
1002
}
  0
DIMENSION
  5
137
100
AcDbEntity
  8
notes
370
               5
390
0
  6
Continuous
 62
               7
100
AcDbDimension
  2
*D5
 10
-799.02712872737857
 20
785.0
 30
0.0
 11
-799.02712872737857
 21
585.0
 31
0.0
 71
               5
 72
               1
 41
1.0
 42
0.0
  3
tfrom線あり
100
AcDbAlignedDimension
 13
-692.91743968819719
 23
385.0
 33
0.0
 14
-692.91743968819719
 24
785.0
 34
0.0
 50
90.0
100
AcDbRotatedDimension
1001
ACAD
1000
DSTYLE
1002
{
1070
             279
1070
               2
1070
             340
1005
33
1070
             147
1040
5.0
1002
}
  0
DIMENSION
  5
138
100
AcDbEntity
  8
notes
370
               5
390
0
  6
Continuous
 62
               7
100
AcDbDimension
  2
*D6
 10
-429.02712872737857
 20
-594.65557643778493
 30
0.0
 11
-564.02712872737857
 21
-594.65557643778493
 31
0.0
 71
               5
 72
               1
 41
1.0
 42
0.0
  3
tfrom線あり
100
AcDbAlignedDimension
 13
-699.02712872737857
 23
-350.5247984429933
 33
0.0
 14
-429.02712872737857
 24
-495.26704019646547
 34
0.0
100
AcDbRotatedDimension
1001
ACAD
1000
DSTYLE
1002
{
1070
             279
1070
               2
1070
             340
1005
33
1070
             147
1040
5.0
1002
}
  0
DIMENSION
  5
139
100
AcDbEntity
  8
notes
370
               5
390
0
  6
Continuous
 62
               7
100
AcDbDimension
  2
*D7
 10
-74.022557872343441
 20
-175.26668754889616
 30
0.0
 11
13.476580853784981
 21
-175.26668754889616
 31
0.0
 71
               5
 72
               1
 41
1.0
 42
0.0
  3
tfrom線あり
100
AcDbAlignedDimension
 13
100.9757195799134
 23
-275.26668754889613
 33
0.0
 14
-74.022557872343441
 24
-325.26471407884389
 34
0.0
100
AcDbRotatedDimension
1001
ACAD
1000
DSTYLE
1002
{
1070
             279
1070
               2
1070
             340
1005
33
1070
             147
1040
5.0
1002
}
  0
DIMENSION
  5
13A
100
AcDbEntity
  8
notes
370
               5
390
0
  6
Continuous
 62
               7
100
AcDbDimension
  2
*D8
 10
250.9757195799134
 20
-275.26668754889613
 30
0.0
 11
250.9757195799134
 21
-305.26582627502455
 31
0.0
 71
               5
 72
               1
 41
1.0
 42
0.0
  3
tfrom線あり
100
AcDbAlignedDimension
 13
-64.022306950034363
 23
-335.26496500115297
 33
0.0
 14
100.9757195799134
 24
-275.26668754889613
 34
0.0
 50
90.0
100
AcDbRotatedDimension
1001
ACAD
1000
DSTYLE
1002
{
1070
             279
1070
               2
1070
             340
1005
33
1070
             147
1040
5.0
1002
}
  0
DIMENSION
  5
13B
100
AcDbEntity
  8
notes
370
               5
390
0
  6
Continuous
 62
               7
100
AcDbDimension
  2
*D9
 10
200.9757195799134
 20
-275.26668754889613
 30
0.0
 11
205.9757195799134
 21
-271.89168754889613
 31
0.0
 70
             128
 71
               5
 72
               1
 41
1.0
 42
0.0
  3
tfrom線あり
100
AcDbAlignedDimension
 13
100.9757195799134
 23
-300.26668754889613
 33
0.0
 14
100.9757195799134
 24
-275.26668754889613
 34
0.0
 50
90.0
100
AcDbRotatedDimension
1001
ACAD
1000
DSTYLE
1002
{
1070
             279
1070
               2
1070
             340
1005
33
1070
             174
1070
               0
1070
             147
1040
5.0
1002
}
  0
DIMENSION
  5
13C
100
AcDbEntity
  8
notes
370
               5
390
0
  6
Continuous
 62
               7
100
AcDbDimension
  2
*D10
 10
-699.02712872737857
 20
-224.65537058716771
 30
0.0
 11
-614.02712872737857
 21
-219.65537058716771
 31
0.0
 70
             128
 71
               5
 72
               1
 41
1.0
 42
0.0
  3
tfrom線あり
100
AcDbAlignedDimension
 13
-529.02712872737857
 23
-404.65446424160461
 33
0.0
 14
-699.02712872737857
 24
-324.65557643778504
 34
0.0
100
AcDbRotatedDimension
1001
ACAD
1000
DSTYLE
1002
{
1070
             279
1070
               2
1070
             340
1005
33
1070
             147
1040
5.0
1002
}
  0
DIMENSION
  5
13D
100
AcDbEntity
  8
notes
370
               5
390
0
  6
Continuous
 62
               7
100
AcDbDimension
  2
*D11
 10
872.60705485429355
 20
-275.26956903636722
 30
0.0
 11
872.60705485429355
 21
-385.26956903636722
 31
0.0
 71
               5
 72
               1
 41
1.0
 42
0.0
  3
tfrom線あり
100
AcDbAlignedDimension
 13
603.33180099297942
 23
-495.26956903636722
 33
0.0
 14
772.60705485429344
 24
-275.26956903636722
 34
0.0
 50
90.0
100
AcDbRotatedDimension
1001
ACAD
1000
DSTYLE
1002
{
1070
             279
1070
               2
1070
             340
1005
33
1070
             147
1040
5.0
1002
}
  0
DIMENSION
  5
13E
100
AcDbEntity
  8
notes
370
               5
390
0
  6
Continuous
 62
               7
100
AcDbDimension
  2
*D12
 10
772.60705485429344
 20
-595.26992168393656
 30
0.0
 11
672.60705485429344
 21
-595.26992168393656
 31
0.0
 71
               5
 72
               1
 41
1.0
 42
0.0
  3
tfrom線あり
100
AcDbAlignedDimension
 13
572.60705485429344
 23
-495.26992168393656
 33
0.0
 14
772.60705485429344
 24
-450.0
 34
0.0
100
AcDbRotatedDimension
1001
ACAD
1000
DSTYLE
1002
{
1070
             279
1070
               2
1070
             340
1005
33
1070
             147
1040
5.0
1002
}
  0
DIMENSION
  5
13F
100
AcDbEntity
  8
notes
370
               5
390
0
  6
Continuous
 62
               7
100
AcDbDimension
  2
*D13
 10
200.83256031180326
 20
785.0
 30
0.0
 11
200.83256031180326
 21
725.00107828776038
 31
0.0
 71
               5
 72
               1
 41
1.0
 42
0.0
  3
tfrom線あり
100
AcDbAlignedDimension
 13
-151.52566388362857
 23
665.00215657552076
 33
0.0
 14
95.973440934080372
 24
785.0
 34
0.0
 50
90.0
100
AcDbRotatedDimension
1001
ACAD
1000
DSTYLE
1002
{
1070
             279
1070
               2
1070
             340
1005
33
1070
             147
1040
5.0
1002
}
  0
DIMENSION
  5
140
100
AcDbEntity
  8
notes
370
               5
390
0
  6
Continuous
 62
               7
100
AcDbDimension
  2
*D14
 10
563.24897429851956
 20
-324.65859364634537
 30
0.0
 11
558.24897429851956
 21
-260.0
 31
0.0
 70
             128
 71
               5
 72
               1
 41
1.0
 42
0.0
  3
tfrom線あり
100
AcDbAlignedDimension
 13
572.60705485429344
 23
-444.65859364634537
 33
0.0
 14
572.60705485429344
 24
-324.65859364634537
 34
0.0
 50
90.0
100
AcDbRotatedDimension
1001
ACAD
1000
DSTYLE
1002
{
1070
             279
1070
               2
1070
             340
1005
33
1070
               3
1000
<>(深さ)
1070
             174
1070
               0
1070
             147
1040
5.0
1002
}
  0
DIMENSION
  5
141
100
AcDbEntity
  8
notes
370
               5
390
0
  6
Continuous
 62
               7
100
AcDbDimension
  2
*D15
 10
-799.02712872737857
 20
-324.65557643778504
 30
0.0
 11
-804.02712872737857
 21
-369.65557643778504
 31
0.0
 70
             128
 71
               5
 72
               1
 41
1.0
 42
0.0
  3
tfrom線あり
100
AcDbAlignedDimension
 13
-539.02824092355922
 23
-414.65557643778504
 33
0.0
 14
-699.02712872737857
 24
-324.65557643778504
 34
0.0
 50
90.0
100
AcDbRotatedDimension
1001
ACAD
1000
DSTYLE
1002
{
1070
             279
1070
               2
1070
             340
1005
33
1070
             147
1040
5.0
1002
}
  0
DIMENSION
  5
142
100
AcDbEntity
  8
notes
370
               5
390
0
  6
Continuous
 62
               7
100
AcDbDimension
  2
*D16
 10
-849.02712872737857
 20
-324.65557643778504
 30
0.0
 11
-849.02712872737857
 21
-409.65557643778504
 31
0.0
 71
               5
 72
               1
 41
1.0
 42
0.0
  3
tfrom線あり
100
AcDbAlignedDimension
 13
-459.41459346262172
 23
-494.65557643778504
 33
0.0
 14
-699.02712872737857
 24
-324.65557643778504
 34
0.0
 50
90.0
100
AcDbRotatedDimension
1001
ACAD
1000
DSTYLE
1002
{
1070
             279
1070
               2
1070
             340
1005
33
1070
             147
1040
5.0
1002
}
  0
DIMENSION
  5
143
100
AcDbEntity
  8
notes
370
               5
390
0
  6
Continuous
 62
               7
100
AcDbDimension
  2
*D17
 10
-179.75633589802595
 20
678.82660281825792
 30
0.0
 11
-11.999999999999886
 21
540.00000000000011
 31
0.0
 70
               3
 71
               5
 72
               1
 41
1.0
 42
0.0
  3
tfrom線あり
100
AcDbDiametricDimension
 15
-158.29543946037762
 25
651.1777103327837
 35
0.0
 40
140.73871587626502
1001
ACAD
1000
DSTYLE
1002
{
1070
             289
1070
               0
1070
             342
1005
46
1070
             340
1005
33
1070
              75
1070
               1
1070
              76
1070
               1
1070
               3
1000

1070
             174
1070
               0
1070
             147
1040
5.0
1002
}
  0
LWPOLYLINE
  5
144
100
AcDbEntity
  8
KUF70-0103
370
              15
390
0
  6
Continuous
 62
               7
100
AcDbPolyline
 90
       67
 70
             128
 10
100.9757195799134
 20
389.99568684895826
 42
-0.0072037947750563
 10
100.97360116426536
 20
389.84865977644006
 10
100.9642509766345
 20
389.52425570545859
 42
-0.071774263525045
 10
100.82929542971148
 20
388.74792399976417
 10
100.72823819536069
 20
388.43823114173563
 42
-0.0560490787949563
 10
100.27071851588607
 20
387.43375174158632
 10
100.26891953693138
 20
387.43074638175665
 42
-0.0547742327175537
 10
99.605989589833825
 20
386.5565679392389
 42
-0.0546657687621974
 10
98.769195135132932
 20
385.84699323706548
 10
98.76758498519257
 20
385.84590558748516
 42
-0.0556209289320286
 10
97.792714955044886
 20
385.33470072146201
 10
97.660898939028158
 20
385.28329559752126
 42
-0.0569528049463161
 10
96.836129586221205
 20
385.06560791925085
 10
96.591657154742876
 20
385.03009109369901
 42
-0.0288852570045143
 10
96.22913818632901
 20
384.9986490347768
 10
96.120468119750271
 20
384.99552268929688
 42
-0.0071904282139281
 10
95.973440934080372
 20
384.993408203125
 10
-694.02829517703185
 20
384.993408203125
 42
-0.0072206606341552
 10
-694.17514415578728
 20
384.9955290069795
 10
-694.49923060405422
 20
385.00489192093289
 42
-0.0718287491207747
 10
-695.27473442027372
 20
385.13984406511992
 10
-695.58402352410269
 20
385.24086684625365
 42
-0.0560561119111184
 10
-696.58784718950074
 20
385.69844947225999
 10
-696.59073880085361
 20
385.70018158945578
 42
-0.0547598257081781
 10
-697.46448761067836
 20
386.3631761109757
 42
-0.0546412899898613
 10
-698.17369532947669
 20
387.19988725209294
 10
-698.17483126080629
 20
387.20156944827227
 42
-0.0555974802218078
 10
-698.68586871936247
 20
388.17638211009915
 10
-698.73727588615589
 20
388.30822819244406
 42
-0.0569388499803206
 10
-698.95493286992155
 20
389.13300132877714
 10
-698.99044723060786
 20
389.37747071961718
 42
-0.0288831684958722
 10
-699.02188785447356
 20
389.73998969634113
 10
-699.0250142232785
 20
389.84865965674885
 42
-0.00719048885383
 10
-699.02712872737857
 20
389.99568684895826
 10
-699.02712872737857
 20
779.99944390190944
 42
-0.0071374411257499
 10
-699.02503108839983
 20
780.14638256533146
 10
-699.01782622468136
 20
780.39867986374406
 42
-0.0576605346959823
 10
-698.92508020000832
 20
781.03945192958554
 10
-698.85945085394758
 20
781.28721931643599
 42
-0.0563114396787511
 10
-698.45779774091261
 20
782.3183651291871
 10
-698.45558149496253
 20
782.32258145255707
 42
-0.0550063479266191
 10
-697.84149276410244
 20
783.23215280602005
 42
-0.0545031780286711
 10
-697.04406252625859
 20
783.98710656589355
 42
-0.0552699172810757
 10
-696.10117297819124
 20
784.55065909943994
 10
-696.04078781298188
 20
784.57822807644925
 42
-0.0567119524777522
 10
-695.09795836798639
 20
784.8854347383575
 10
-694.85769152429373
 20
784.93456067837951
 42
-0.0432534163141761
 10
-694.35540006164456
 20
784.99269792203199
 10
-694.17514437903765
 20
784.99788681540826
 42
-0.0071947112284587
 10
-694.02829517703185
 20
785.0
 10
95.973440934080372
 20
785.0
 42
-0.0071302612766767
 10
96.12046863001126
 20
784.99790320162356
 10
96.372895421734484
 20
784.9907018950413
 42
-0.0576395928586674
 10
97.014018923394104
 20
784.89795112453101
 10
97.261948217075414
 20
784.83230866273982
 42
-0.0563137446494626
 10
98.293475440195152
 20
784.43063482454136
 10
98.297726199213713
 20
784.42840103687763
 42
-0.0550241901684227
 10
99.207573093007568
 20
783.81421560269939
 42
-0.0545247124373216
 10
99.962714388833319
 20
783.01656787756815
 42
-0.0552845053058295
 10
100.52633824966145
 20
782.07337872239498
 10
100.5539054589042
 20
782.01297932351872
 42
-0.0567079647643726
 10
100.8611575526993
 20
781.06967321787704
 10
100.91027888577385
 20
780.82930967113975
 42
-0.0432343287590923
 10
100.96841881640285
 20
780.32673425759253
 10
100.97360666860499
 20
780.14638212055183
 42
-0.0071894232696104
 10
100.9757195799134
 20
779.99944390190944
 10
100.9757195799134
 20
389.99568684895826
  0
CIRCLE
  5
145
100
AcDbEntity
  8
KUF70-0103
370
              15
390
0
  6
Continuous
 62
               7
100
AcDbCircle
 10
-429.02810528987857
 20
585.00187174479174
 30
0.0
 40
22.999457465278283
  0
CIRCLE
  5
146
100
AcDbEntity
  8
KUF70-0103
370
              15
390
0
  6
Continuous
 62
               7
100
AcDbCircle
 10
-169.02588767920179
 20
665.00215657552076
 30
0.0
 40
17.500223795572765
  0
POLYLINE
  5
147
100
AcDbEntity
  8
KUF70-0103
370
              15
390
0
  6
Continuous
 62
               7
100
AcDb2dPolyline
 66
               1
 10
0.0
 20
0.0
 30
0.0
 70
               1
 75
               5
  0
VERTEX
  5
148
100
AcDbEntity
  8
KUF70-0103
370
              15
390
0
  6
Continuous
 62
               7
100
AcDbVertex
100
AcDb2dVertex
 10
372.60705485429344
 20
-324.65859364634537
 30
0.0
  0
VERTEX
  5
149
100
AcDbEntity
  8
KUF70-0103
370
              15
390
0
  6
Continuous
 62
               7
100
AcDbVertex
100
AcDb2dVertex
 10
772.60705485429344
 20
-324.65859364634537
 30
0.0
  0
VERTEX
  5
14A
100
AcDbEntity
  8
KUF70-0103
370
              15
390
0
  6
Continuous
 62
               7
100
AcDbVertex
100
AcDb2dVertex
 10
772.60705485429344
 20
-350.52767993046439
 30
0.0
  0
VERTEX
  5
14B
100
AcDbEntity
  8
KUF70-0103
370
              15
390
0
  6
Continuous
 62
               7
100
AcDbVertex
100
AcDb2dVertex
 10
372.60705485429344
 20
-350.52767993046439
 30
0.0
  0
SEQEND
  5
14C
100
AcDbEntity
  8
KUF70-0103
370
              15
390
0
  6
Continuous
 62
               7
  0
LINE
  5
14D
100
AcDbEntity
  8
KUF70-0103
370
              15
390
0
  6
Continuous
 62
               7
100
AcDbLine
 10
542.21959011905028
 20
-495.26992168393656
 30
0.0
 11
602.99451958953659
 21
-495.26992168393656
 31
0.0
  0
LINE
  5
14E
100
AcDbEntity
  8
KUF70-0103
370
              15
390
0
  6
Continuous
 62
               7
100
AcDbLine
 10
602.99451958953659
 20
-495.26992168393656
 30
0.0
 11
602.99451958953659
 21
-456.4648874932285
 31
0.0
  0
LINE
  5
14F
100
AcDbEntity
  8
KUF70-0103
370
              15
390
0
  6
Continuous
 62
               7
100
AcDbLine
 10
542.21959011905028
 20
-495.26992168393656
 30
0.0
 11
542.21959011905028
 21
-456.4648874932285
 31
0.0
  0
ARC
  5
150
100
AcDbEntity
  8
KUF70-0103
370
              15
390
0
  6
Continuous
 62
               7
100
AcDbCircle
 10
539.18677222108136
 20
-272.57153644039283
 30
0.0
 40
183.91835837089121
100
AcDbArc
 50
205.07870120858587
 51
270.94485152685991
  0
LINE
  5
151
100
AcDbEntity
  8
KUF70-0103
370
              15
390
0
  6
Continuous
 62
               7
100
AcDbLine
 10
372.60705485429344
 20
-324.65859364634537
 30
0.0
 11
372.60705485429344
 21
-275.26956903636722
 31
0.0
  0
LINE
  5
152
100
AcDbEntity
  8
KUF70-0103
370
              15
390
0
  6
Continuous
 62
               7
100
AcDbLine
 10
372.60705485429344
 20
-275.26956903636722
 30
0.0
 11
772.60705485429344
 21
-275.26956903636722
 31
0.0
  0
ARC
  5
153
100
AcDbEntity
  8
KUF70-0103
370
              15
390
0
  6
Continuous
 62
               7
100
AcDbCircle
 10
606.02733748750552
 20
-272.57153644039283
 30
0.0
 40
183.91835837089155
100
AcDbArc
 50
269.05514847314009
 51
320.43563448296499
  0
LINE
  5
154
100
AcDbEntity
  8
KUF70-0103
370
              15
390
0
  6
Continuous
 62
               7
100
AcDbLine
 10
753.60705485429344
 20
-446.44284577189114
 30
0.0
 11
772.60705485429344
 21
-446.44284577189114
 31
0.0
  0
LINE
  5
155
100
AcDbEntity
  8
KUF70-0103
370
              15
390
0
  6
Continuous
 62
               7
100
AcDbLine
 10
747.60705485429344
 20
-440.44284577189114
 30
0.0
 11
747.60705485429344
 21
-389.96466305427964
 31
0.0
  0
ARC
  5
156
100
AcDbEntity
  8
KUF70-0103
370
              15
390
0
  6
Continuous
 62
               7
100
AcDbCircle
 10
753.60705485429344
 20
-440.44284577189114
 30
0.0
 40
6.0
100
AcDbArc
 50
180.0
 51
270.0
  0
ARC
  5
157
100
AcDbEntity
  8
KUF70-0103
370
              15
390
0
  6
STYLE_12
 62
               7
100
AcDbCircle
 10
548.30512758511986
 20
-284.77079582077329
 30
0.0
 40
161.0731492024187
100
AcDbArc
 50
194.33777235901076
 51
271.36987488742335
  0
LINE
  5
158
100
AcDbEntity
  8
KUF70-0103
370
              15
390
0
  6
STYLE_12
 62
               7
100
AcDbLine
 10
552.21959011905028
 20
-495.26992168393656
 30
0.0
 11
552.21959011905028
 21
-446.44284577189114
 31
0.0
  0
ARC
  5
159
100
AcDbEntity
  8
KUF70-0103
370
              15
390
0
  6
STYLE_12
 62
               7
100
AcDbCircle
 10
596.90898212346701
 20
-284.77079582077329
 30
0.0
 40
161.07314920241842
100
AcDbArc
 50
268.63012511257665
 51
345.66222764098922
  0
LINE
  5
15A
100
AcDbEntity
  8
KUF70-0103
370
              15
390
0
  6
STYLE_12
 62
               7
100
AcDbLine
 10
592.99451958953659
 20
-495.26992168393656
 30
0.0
 11
592.99451958953659
 21
-446.44284577189114
 31
0.0
  0
LINE
  5
15B
100
AcDbEntity
  8
KUF70-0103
370
              15
390
0
  6
Continuous
 62
               7
100
AcDbLine
 10
772.60705485429344
 20
-275.26956903636722
 30
0.0
 11
772.60705485429344
 21
-446.44284577189114
 31
0.0
  0
SPLINE
  5
15C
100
AcDbEntity
  8
KUF70-0103
370
              15
390
0
  6
Continuous
 62
               7
100
AcDbSpline
210
0.0
220
0.0
230
1.0
 70
              13
 71
               2
 72
             194
 73
             191
 74
               0
 42
0.000001
 43
0.000001
 40
0.0
 40
0.0
 40
0.0
 40
1.0
 40
1.0
 40
2.0
 40
2.0
 40
3.0
 40
3.0
 40
4.0
 40
4.0
 40
5.0
 40
5.0
 40
6.0
 40
6.0
 40
7.0
 40
7.0
 40
8.0
 40
8.0
 40
9.0
 40
9.0
 40
10.0
 40
10.0
 40
11.0
 40
11.0
 40
12.0
 40
12.0
 40
13.0
 40
13.0
 40
14.0
 40
14.0
 40
15.0
 40
15.0
 40
16.0
 40
16.0
 40
17.0
 40
17.0
 40
18.0
 40
18.0
 40
19.0
 40
19.0
 40
20.0
 40
20.0
 40
21.0
 40
21.0
 40
22.0
 40
22.0
 40
23.0
 40
23.0
 40
24.0
 40
24.0
 40
25.0
 40
25.0
 40
26.0
 40
26.0
 40
27.0
 40
27.0
 40
28.0
 40
28.0
 40
29.0
 40
29.0
 40
30.0
 40
30.0
 40
31.0
 40
31.0
 40
32.0
 40
32.0
 40
33.0
 40
33.0
 40
34.0
 40
34.0
 40
35.0
 40
35.0
 40
36.0
 40
36.0
 40
37.0
 40
37.0
 40
38.0
 40
38.0
 40
39.0
 40
39.0
 40
40.0
 40
40.0
 40
41.0
 40
41.0
 40
42.0
 40
42.0
 40
43.0
 40
43.0
 40
44.0
 40
44.0
 40
45.0
 40
45.0
 40
46.0
 40
46.0
 40
47.0
 40
47.0
 40
48.0
 40
48.0
 40
49.0
 40
49.0
 40
50.0
 40
50.0
 40
51.0
 40
51.0
 40
52.0
 40
52.0
 40
53.0
 40
53.0
 40
54.0
 40
54.0
 40
55.0
 40
55.0
 40
56.0
 40
56.0
 40
57.0
 40
57.0
 40
58.0
 40
58.0
 40
59.0
 40
59.0
 40
60.0
 40
60.0
 40
61.0
 40
61.0
 40
62.0
 40
62.0
 40
63.0
 40
63.0
 40
64.0
 40
64.0
 40
65.0
 40
65.0
 40
66.0
 40
66.0
 40
67.0
 40
67.0
 40
68.0
 40
68.0
 40
69.0
 40
69.0
 40
70.0
 40
70.0
 40
71.0
 40
71.0
 40
72.0
 40
72.0
 40
73.0
 40
73.0
 40
74.0
 40
74.0
 40
75.0
 40
75.0
 40
76.0
 40
76.0
 40
77.0
 40
77.0
 40
78.0
 40
78.0
 40
79.0
 40
79.0
 40
80.0
 40
80.0
 40
81.0
 40
81.0
 40
82.0
 40
82.0
 40
83.0
 40
83.0
 40
84.0
 40
84.0
 40
85.0
 40
85.0
 40
86.0
 40
86.0
 40
87.0
 40
87.0
 40
88.0
 40
88.0
 40
89.0
 40
89.0
 40
90.0
 40
90.0
 40
91.0
 40
91.0
 40
92.0
 40
92.0
 40
93.0
 40
93.0
 40
94.0
 40
94.0
 40
95.0
 40
95.0
 40
95.0
 10
-204.90052824994791
 20
-275.26668754889613
 30
0.0
 41
1.0
 10
-205.33614100601017
 20
-275.2665423292342
 30
0.0
 41
1.0
 10
-205.77175376207236
 20
-275.26639710957238
 30
0.0
 41
1.0
 10
-209.79128316066351
 20
-275.26505712424807
 30
0.0
 41
0.9995840625194081
 10
-213.80420371449804
 20
-275.49546330975625
 30
0.0
 41
1.0
 10
-217.81712426833201
 20
-275.72586949526453
 30
0.0
 41
0.9998165687323436
 10
-221.81827649389629
 20
-276.10979559437055
 30
0.0
 41
1.0
 10
-222.1107058256905
 20
-276.13785532474094
 30
0.0
 41
1.0
 10
-222.40313515748471
 20
-276.16591505511121
 30
0.0
 41
1.0
 10
-226.98914604663764
 20
-276.60596061495801
 30
0.0
 41
0.9993092339556419
 10
-231.5298060344029
 20
-277.38541096339657
 30
0.0
 41
1.0
 10
-232.98202341524745
 20
-277.63469880845832
 30
0.0
 41
1.0
 10
-234.43424079609207
 20
-277.88398665352008
 30
0.0
 41
1.0
 10
-238.6979601453217
 20
-278.61589733200219
 30
0.0
 41
0.9994160016209315
 10
-242.90173138716682
 20
-279.63731951528598
 30
0.0
 41
1.0
 10
-242.96010748561298
 20
-279.65150359869494
 30
0.0
 41
1.0
 10
-243.01848358405914
 20
-279.66568768210391
 30
0.0
 41
1.0
 10
-247.10550262901154
 20
-280.65874169856977
 30
0.0
 41
0.9998754000751254
 10
-251.15913688426826
 20
-281.78031660825343
 30
0.0
 41
1.0
 10
-251.18026060343993
 20
-281.78616119904041
 30
0.0
 41
1.0
 10
-251.2013843226116
 20
-281.79200578982739
 30
0.0
 41
1.0
 10
-255.21277113952522
 20
-282.90189151793709
 30
0.0
 41
0.9996332774290478
 10
-259.15818604923379
 20
-284.22732416979807
 30
0.0
 41
1.0
 10
-259.18608172943595
 20
-284.23669551507658
 30
0.0
 41
1.0
 10
-259.21397740963818
 20
-284.24606686035509
 30
0.0
 41
1.0
 10
-263.10360095894021
 20
-285.55275682165825
 30
0.0
 41
0.999932490968053
 10
-266.96181000522984
 20
-286.94947904366154
 30
0.0
 41
1.0
 10
-266.96990592605857
 20
-286.95240987306806
 30
0.0
 41
1.0
 10
-266.97800184688737
 20
-286.95534070247447
 30
0.0
 41
1.0
 10
-270.82001905151645
 20
-288.34620126566381
 30
0.0
 41
0.9998440402790487
 10
-274.61052057281086
 20
-289.87187735315888
 30
0.0
 41
1.0
 10
-274.61674777346258
 20
-289.87438380014828
 30
0.0
 41
1.0
 10
-274.6229749741143
 20
-289.87689024713768
 30
0.0
 41
1.0
 10
-278.40102209410372
 20
-291.39755344065327
 30
0.0
 41
0.9999786197317341
 10
-282.15885894488156
 20
-292.96749573000977
 30
0.0
 41
1.0
 10
-285.91793191192858
 20
-294.53795444178775
 30
0.0
 41
0.999975140407966
 10
-289.65448459139589
 20
-296.16126716906763
 30
0.0
 41
1.0
 10
-290.27328871824983
 20
-296.43009781575563
 30
0.0
 41
1.0
 10
-290.89209284510378
 20
-296.69892846244352
 30
0.0
 41
1.0
 10
-293.39227338712834
 20
-297.78509631876739
 30
0.0
 41
0.9999997511490284
 10
-295.89091852675142
 20
-298.87479160694079
 30
0.0
 41
1.0
 10
-298.3895636660709
 20
-299.96448689498209
 30
0.0
 41
0.9999998467944918
 10
-300.88941417013416
 20
-301.0514141300381
 30
0.0
 41
1.0
 10
-301.52746549290623
 20
-301.32883686350033
 30
0.0
 41
1.0
 10
-302.1655168156783
 20
-301.60625959696245
 30
0.0
 41
1.0
 10
-305.94146996498012
 20
-303.24803229880968
 30
0.0
 41
0.9999753958618125
 10
-309.74008440885814
 20
-304.83666948116536
 30
0.0
 41
1.0
 10
-310.39919610980871
 20
-305.11231981918365
 30
0.0
 41
1.0
 10
-311.05830781075929
 20
-305.38797015720183
 30
0.0
 41
1.0
 10
-316.17514565652959
 20
-307.52790801559024
 30
0.0
 41
0.9999040617834376
 10
-321.34929749707698
 20
-309.52528537319142
 30
0.0
 41
1.0
 10
-321.39692715463786
 20
-309.54367184550506
 30
0.0
 41
1.0
 10
-321.4445568121987
 20
-309.56205831781858
 30
0.0
 41
1.0
 10
-326.71396796786587
 20
-311.59620862004613
 30
0.0
 41
0.9998002057305346
 10
-332.06047219483025
 20
-313.4181180389179
 30
0.0
 41
1.0
 10
-332.12765829414229
 20
-313.44101280939924
 30
0.0
 41
1.0
 10
-332.19484439345433
 20
-313.46390757988058
 30
0.0
 41
1.0
 10
-337.67572081904177
 20
-315.3316065397147
 30
0.0
 41
0.9996804698548638
 10
-343.24398495007398
 20
-316.91992022541854
 30
0.0
 41
1.0
 10
-343.33528428957891
 20
-316.94596281014856
 30
0.0
 41
1.0
 10
-343.42658362908378
 20
-316.97200539487858
 30
0.0
 41
1.0
 10
-349.17744643912636
 20
-318.61240425004257
 30
0.0
 41
0.9995641108516703
 10
-355.0151001826178
 20
-319.91052991231186
 30
0.0
 41
1.0
 10
-355.13597863723533
 20
-319.93740979091547
 30
0.0
 41
1.0
 10
-355.25685709185291
 20
-319.96428966951896
 30
0.0
 41
1.0
 10
-361.33626774458037
 20
-321.31617508899558
 30
0.0
 41
0.9994724092613898
 10
-367.49062219668957
 20
-322.27050697554716
 30
0.0
 41
1.0
 10
-368.35109161568619
 20
-322.40393663260397
 30
0.0
 41
1.0
 10
-369.21156103468275
 20
-322.53736628966078
 30
0.0
 41
1.0
 10
-374.26706375246158
 20
-323.32130349764373
 30
0.0
 41
0.9994191968369847
 10
-379.36422292044426
 20
-323.75906335392506
 30
0.0
 41
1.0
 10
-380.13228077151626
 20
-323.8250265470333
 30
0.0
 41
1.0
 10
-380.90033862258827
 20
-323.89098974014144
 30
0.0
 41
1.0
 10
-384.46138208842746
 20
-324.19682321020639
 30
0.0
 41
0.9998545364870589
 10
-388.03078474840459
 20
-324.38102236317957
 30
0.0
 41
1.0
 10
-388.16464572204245
 20
-324.38793026355086
 30
0.0
 41
1.0
 10
-388.29850669568037
 20
-324.39483816392215
 30
0.0
 41
1.0
 10
-391.60018740838308
 20
-324.56522151615275
 30
0.0
 41
0.9998325686401287
 10
-394.90589155828093
 20
-324.61467946485209
 30
0.0
 41
1.0
 10
-398.21159570817957
 20
-324.66413741355143
 30
0.0
 41
0.9999677893476492
 10
-401.51766784493833
 20
-324.6605260572835
 30
0.0
 41
1.0
 10
-401.79456366603836
 20
-324.66022359278259
 30
0.0
 41
1.0
 10
-402.07145948713833
 20
-324.65992112828155
 30
0.0
 41
1.0
 10
-405.93132326613124
 20
-324.65570484301156
 30
0.0
 41
0.9999998532869526
 10
-409.7911893477758
 20
-324.65567001617569
 30
0.0
 41
1.0
 10
-445.09089593620092
 20
-324.655351513651
 30
0.0
 41
1.0
 10
-480.39060252462605
 20
-324.65503301112642
 30
0.0
 41
1.0
 10
-554.84988178315552
 20
-324.65436117924116
 30
0.0
 41
1.0
 10
-699.02712872737857
 20
-324.65557643778504
 30
0.0
 41
1.0
 10
-699.02712872737857
 20
-337.59018744038917
 30
0.0
 41
1.0
 10
-699.02712872737857
 20
-350.5247984429933
 30
0.0
 41
1.0
 10
-566.39522005681329
 20
-350.52479623888883
 30
0.0
 41
1.0
 10
-493.20240074515687
 20
-350.52582967671833
 30
0.0
 41
1.0
 10
-460.65949778933464
 20
-350.52628916259846
 30
0.0
 41
1.0
 10
-428.11659483351252
 20
-350.52674864847847
 30
0.0
 41
1.0
 10
-420.00958143377125
 20
-350.52686311455136
 30
0.0
 41
0.9999999899499537
 10
-411.90256821026014
 20
-350.52516885853481
 30
0.0
 41
1.0
 10
-409.23515147258161
 20
-350.52461140454739
 30
0.0
 41
1.0
 10
-406.56773473490301
 20
-350.52405395056007
 30
0.0
 41
1.0
 10
-403.79555498725443
 20
-350.52347460252167
 30
0.0
 41
0.9999995073151161
 10
-401.02337955229177
 20
-350.52839895071838
 30
0.0
 41
1.0
 10
-398.25120411756836
 20
-350.53332329891498
 30
0.0
 41
0.9999686777026158
 10
-395.4792980532705
 20
-350.49436613196201
 30
0.0
 41
1.0
 10
-394.27727709963631
 20
-350.47747258294351
 30
0.0
 41
1.0
 10
-393.07525614600218
 20
-350.460579033925
 30
0.0
 41
1.0
 10
-387.89930817444053
 20
-350.38783476893502
 30
0.0
 41
0.9994572825747101
 10
-382.73938346714772
 20
-349.9744268015819
 30
0.0
 41
1.0
 10
-382.48000161564175
 20
-349.9536453890455
 30
0.0
 41
1.0
 10
-382.22061976413579
 20
-349.932863976509
 30
0.0
 41
1.0
 10
-377.21272364362312
 20
-349.53163638631372
 30
0.0
 41
0.9998708822685031
 10
-372.22030692680482
 20
-348.96969114111994
 30
0.0
 41
1.0
 10
-367.22789020998499
 20
-348.40774589592604
 30
0.0
 41
0.9994886014146027
 10
-362.281603733412
 20
-347.52782702202649
 30
0.0
 41
1.0
 10
-361.43406476470886
 20
-347.37705420721693
 30
0.0
 41
1.0
 10
-360.58652579600573
 20
-347.22628139240737
 30
0.0
 41
1.0
 10
-354.60015975373329
 20
-346.16133772373485
 30
0.0
 41
0.9995315393841787
 10
-348.69016449954825
 20
-344.73212832514116
 30
0.0
 41
1.0
 10
-348.55587848070303
 20
-344.69965404521724
 30
0.0
 41
1.0
 10
-348.42159246185781
 20
-344.66717976529333
 30
0.0
 41
1.0
 10
-342.78016924536246
 20
-343.30291892654725
 30
0.0
 41
0.9996040394578301
 10
-337.22442496320105
 20
-341.62346395097541
 30
0.0
 41
1.0
 10
-336.4658443122741
 20
-341.39415137216167
 30
0.0
 41
1.0
 10
-335.70726366134716
 20
-341.16483879334805
 30
0.0
 41
1.0
 10
-331.66868068103895
 20
-339.94400897540334
 30
0.0
 41
0.999701802796103
 10
-327.69452016227979
 20
-338.52745466851877
 30
0.0
 41
1.0
 10
-327.6250659122897
 20
-338.5026983164563
 30
0.0
 41
1.0
 10
-327.55561166229961
 20
-338.47794196439395
 30
0.0
 41
1.0
 10
-323.72035964351994
 20
-337.11090036163398
 30
0.0
 41
0.9999415903731164
 10
-319.91555228298193
 20
-335.66127912130048
 30
0.0
 41
1.0
 10
-319.88568414518897
 20
-335.64989944216006
 30
0.0
 41
1.0
 10
-319.85581600739607
 20
-335.63851976301976
 30
0.0
 41
1.0
 10
-316.11074492244484
 20
-334.21165788096732
 30
0.0
 41
0.9998511321213834
 10
-312.4171356559732
 20
-332.65642707866607
 30
0.0
 41
1.0
 10
-312.36605718931986
 20
-332.63491998385916
 30
0.0
 41
1.0
 10
-312.31497872266652
 20
-332.61341288905226
 30
0.0
 41
1.0
 10
-308.72352638950747
 20
-331.1011962763672
 30
0.0
 41
0.9999770292615874
 10
-305.15290310880437
 20
-329.54043417649075
 30
0.0
 41
1.0
 10
-305.13093757617548
 20
-329.53083277972166
 30
0.0
 41
1.0
 10
-305.10897204354654
 20
-329.52123138295269
 30
0.0
 41
1.0
 10
-301.58227982809871
 20
-327.97967207661304
 30
0.0
 41
0.9999656364799812
 10
-298.081630864609
 20
-326.37985336443614
 30
0.0
 41
1.0
 10
-298.04409422683807
 20
-326.36269888361721
 30
0.0
 41
1.0
 10
-298.00655758906714
 20
-326.34554440279817
 30
0.0
 41
1.0
 10
-294.58098190117539
 20
-324.78003465228517
 30
0.0
 41
0.9999980722477314
 10
-291.1615804981659
 20
-323.20108448892006
 30
0.0
 41
1.0
 10
-291.14575881324691
 20
-323.19377863358363
 30
0.0
 41
1.0
 10
-291.12993712832792
 20
-323.18647277824721
 30
0.0
 41
1.0
 10
-287.7421790952219
 20
-321.62213432558508
 30
0.0
 41
0.9999979952979452
 10
-284.34818354466302
 20
-320.07137532169725
 30
0.0
 41
1.0
 10
-284.32252250151015
 20
-320.05965047022778
 30
0.0
 41
1.0
 10
-284.29686145835728
 20
-320.0479256187582
 30
0.0
 41
1.0
 10
-280.95418799410965
 20
-318.52061631781191
 30
0.0
 41
0.999993985946713
 10
-277.60100112939335
 20
-317.01652940555027
 30
0.0
 41
1.0
 10
-274.24781426467871
 20
-315.51244249328943
 30
0.0
 41
0.9999181287615548
 10
-270.85723624896883
 20
-314.09465537643655
 30
0.0
 41
1.0
 10
-270.29807544436949
 20
-313.86083949568206
 30
0.0
 41
1.0
 10
-269.73891463977009
 20
-313.62702361492745
 30
0.0
 41
1.0
 10
-265.27445890927504
 20
-311.76018917279748
 30
0.0
 41
0.9997911854651893
 10
-260.7374505141288
 20
-310.07733724044147
 30
0.0
 41
1.0
 10
-256.20044211898266
 20
-308.39448530808534
 30
0.0
 41
0.9996161825381456
 10
-251.57719170567816
 20
-306.96550265607721
 30
0.0
 41
1.0
 10
-251.56973290112978
 20
-306.96319724292596
 30
0.0
 41
1.0
 10
-251.5622740965814
 20
-306.96089182977471
 30
0.0
 41
1.0
 10
-246.92410607418094
 20
-305.52729835146431
 30
0.0
 41
0.9994147401652899
 10
-242.19877010347909
 20
-304.41419780386286
 30
0.0
 41
1.0
 10
-242.16660394659334
 20
-304.40662074118075
 30
0.0
 41
1.0
 10
-242.13443778970759
 20
-304.39904367849874
 30
0.0
 41
1.0
 10
-237.34476950523469
 20
-303.27078900553329
 30
0.0
 41
0.9992156183471785
 10
-232.48083569940405
 20
-302.52511560862627
 30
0.0
 41
1.0
 10
-231.84411232646812
 20
-302.42750168143459
 30
0.0
 41
1.0
 10
-231.20738895353219
 20
-302.32988775424303
 30
0.0
 41
1.0
 10
-227.3619067879186
 20
-301.74034976634096
 30
0.0
 41
0.9990873952715054
 10
-223.48014025370117
 20
-301.48116508496605
 30
0.0
 41
1.0
 10
-222.7322339167772
 20
-301.43122754649607
 30
0.0
 41
1.0
 10
-221.98432757985324
 20
-301.3812900080261
 30
0.0
 41
1.0
 10
-219.59837371948242
 20
-301.22198040359115
 30
0.0
 41
0.9997232923751639
 10
-217.20756748604981
 20
-301.17506635386962
 30
0.0
 41
1.0
 10
-214.8167612526172
 20
-301.1281523041481
 30
0.0
 41
0.9999449607493021
 10
-212.42549699667029
 20
-301.13141299756126
 30
0.0
 41
1.0
 10
-212.22966058218856
 20
-301.13168003726855
 30
0.0
 41
1.0
 10
-212.03382416770683
 20
-301.13194707697573
 30
0.0
 41
1.0
 10
-209.25088708230624
 20
-301.13574184980359
 30
0.0
 41
0.9999997715396249
 10
-206.46794741081362
 20
-301.13577383301526
 30
0.0
 41
1.0
 10
-168.65185155666302
 20
-301.13620843827084
 30
0.0
 41
1.0
 10
-130.83575570251242
 20
-301.13664304352642
 30
0.0
 41
1.0
 10
-52.420624322227468
 20
-301.13754423724947
 30
0.0
 41
1.0
 10
100.9757195799134
 20
-301.13590955410439
 30
0.0
 41
1.0
 10
100.9757195799134
 20
-288.20129855150026
 30
0.0
 41
1.0
 10
100.9757195799134
 20
-275.26668754889613
 30
0.0
 41
1.0
 10
-51.962404335017254
 20
-275.26668754889613
 30
0.0
 41
1.0
 10
-204.90052824994791
 20
-275.26668754889613
 30
0.0
 41
1.0
  0
LWPOLYLINE
  5
15D
100
AcDbEntity
  8
KUF70-0103
370
              15
390
0
  6
Continuous
 62
               7
100
AcDbPolyline
 90
       98
 70
             128
 10
-234.30614077165001
 20
-302.84984455844472
 42
-0.0035253907265901
 10
-235.10081105407949
 20
-304.32562179642707
 10
-235.57435095250912
 20
-305.19036783532954
 42
-0.0050652508536688
 10
-237.35873846361483
 20
-308.37195683046116
 10
-238.28941185548865
 20
-309.99265745627304
 42
-0.0058822978276281
 10
-242.04221244457517
 20
-316.35341878928148
 10
-242.8959068304348
 20
-317.76224022203849
 42
-0.0067151769774502
 10
-248.55259192871893
 20
-326.82051800228874
 10
-249.31659632338915
 20
-328.00814478560494
 42
-0.0077070422152455
 10
-256.79625097801267
 20
-339.25040254649389
 10
-257.46599471594936
 20
-340.22417175739997
 42
-0.0088941739913291
 10
-266.68810978528143
 20
-353.13460989305304
 10
-268.3188332070161
 20
-355.33375119762491
 42
-0.010402976472365
 10
-277.02601544766458
 20
-366.57923444332266
 10
-278.36867745096396
 20
-368.24071732527136
 42
-0.0058570066429296
 10
-284.71434843459019
 20
-375.90771815108985
 42
-0.0063358596705795
 10
-291.24500110391995
 20
-383.41762523274008
 10
-291.32624688078067
 20
-383.50869690543675
 42
-0.0068908070311595
 10
-298.21812255314603
 20
-391.02300373167111
 10
-298.28567740681729
 20
-391.09465200023953
 42
-0.0075100160632944
 10
-305.52819004312295
 20
-398.54848077449731
 10
-305.58206472405777
 20
-398.60228633392103
 42
-0.0082010879005989
 10
-313.16449751169631
 20
-405.93056055792272
 10
-313.20486273276106
 20
-405.96831214623478
 42
-0.0089719071341279
 10
-321.1163166739745
 20
-413.10573969771076
 10
-321.14356297724544
 20
-413.12944756491584
 42
-0.009830223147544
 10
-329.37289033972257
 20
-420.0105098778655
 10
-329.38770458052159
 20
-420.02241007073678
 42
-0.0107786528752426
 10
-337.92688514871588
 20
-426.58390540846483
 10
-339.01517627081745
 20
-427.3834380706279
 42
-0.0118834224722023
 10
-345.63260474952631
 20
-432.00701099826722
 10
-345.64144080145701
 20
-432.0128772528501
 42
-0.0063026510446918
 10
-352.40617856639187
 20
-436.38214511134902
 10
-352.4126800163167
 20
-436.38622911681227
 42
-0.0136417888002378
 10
-359.33102263783417
 20
-440.47326174216983
 10
-359.34480379363845
 20
-440.48090373846435
 42
-0.007241745542253
 10
-366.40187491636152
 20
-444.2616437123022
 10
-366.40945967284205
 20
-444.26556685115065
 42
-0.0156103569715649
 10
-373.61372590803148
 20
-447.7112670016196
 10
-373.62557886105236
 20
-447.71648797518912
 42
-0.0082668807677286
 10
-380.96481771174695
 20
-450.8054155015875
 10
-380.96951147972095
 20
-450.80730027995639
 42
-0.0177008389518034
 10
-388.44601838956692
 20
-453.50634088595336
 10
-389.71021618219419
 20
-453.91275554225888
 42
-0.0093980261504765
 10
-394.78259517790798
 20
-455.43885386804607
 42
-0.0096404040567732
 10
-399.90934367535385
 20
-456.77074602988819
 10
-401.20414141556967
 20
-457.08060580995834
 42
-0.0203686134783108
 10
-409.00871254348749
 20
-458.61529194465197
 10
-410.96756323047634
 20
-458.91822026297484
 42
-0.0215767334818932
 10
-420.29440546085812
 20
-459.95101002009437
 10
-420.94125651175329
 20
-459.99450301899151
 42
-0.0167534388573585
 10
-429.02810528987857
 20
-460.26659260531972
 42
-0.0022726950202345
 10
-429.36541499500152
 20
-460.28385430890012
 10
-429.87286127699804
 20
-460.30751063509672
 42
-0.0044521664568595
 10
-431.22559609942209
 20
-460.35850633901191
 10
-431.84488921912384
 20
-460.3763321061482
 42
-0.0035184281074922
 10
-434.43706098066752
 20
-460.43269293858953
 10
-435.93734532961753
 20
-460.45475239129496
 42
-0.0073733271184376
 10
-441.53047877334086
 20
-460.45450667402258
 10
-443.74985130779123
 20
-460.42167905259419
 42
-0.0082102811288187
 10
-453.77658553828928
 20
-460.1086378902188
 10
-455.34025645442625
 20
-460.03410276711384
 42
-0.0091698876602591
 10
-468.47327812384299
 20
-459.1664587243497
 10
-469.84611204666135
 20
-459.05044113943757
 42
-0.0102625864739517
 10
-485.67470006653195
 20
-457.38496627828295
 10
-488.54128631550429
 20
-457.02372211599175
 42
-0.01152580927087
 10
-503.3088838081826
 20
-454.8158482774403
 42
-0.0062559645338257
 10
-517.99139492190102
 20
-452.08379845863658
 10
-518.66362327648676
 20
-451.94999075556325
 42
-0.0137539354189926
 10
-534.55679136176366
 20
-448.32934186942884
 10
-537.312640910759
 20
-447.62126726325232
 42
-0.0075176152849699
 10
-548.71317495974245
 20
-444.50862497421326
 42
-0.0079556775208228
 10
-560.01178904505582
 20
-441.04477569998664
 10
-560.16584491776462
 20
-440.99485140050547
 42
-0.0084362665465053
 10
-571.65101605428436
 20
-437.05756816508404
 10
-571.79114793948156
 20
-437.00687111417415
 42
-0.008940738053572
 10
-583.41074129802314
 20
-432.56660396290556
 10
-583.53859681669064
 20
-432.51510740145261
 42
-0.0094668754396932
 10
-595.24033735668661
 20
-427.54247733761179
 10
-595.35769797346188
 20
-427.48996033194987
 42
-0.0100112714658112
 10
-607.08918171729113
 20
-421.95580087670044
 10
-607.19794581582619
 20
-421.90180495729089
 42
-0.0105691067337947
 10
-618.90666118222839
 20
-415.77720700623331
 10
-619.00881574199616
 20
-415.72099071378705
 42
-0.0111339507325839
 10
-630.64217732838131
 20
-408.97734853585291
 10
-630.73975597241247
 20
-408.91784266548973
 42
-0.011697619343389
 10
-642.24515288522298
 20
-401.52689773627083
 10
-642.34017863203417
 20
-401.46266527797218
 42
-0.0122501319446453
 10
-653.66503867836491
 20
-393.39654338482046
 10
-653.75945086719184
 20
-393.32574935129753
 42
-0.0127798173020893
 10
-664.85132049777201
 20
-384.55698524231116
 10
-664.94688722713454
 20
-384.47738242214552
 42
-0.013273629219482
 10
-675.75352486129657
 20
-374.97892507010567
 10
-677.13695717141695
 20
-373.69629547607428
 42
-0.0137176852679746
 10
-685.1032991837692
 20
-365.89329721275215
 10
-686.36920493422087
 20
-364.58340358855889
 42
-0.0070057947910903
 10
-691.51291538555006
 20
-359.10951679623906
 42
-0.0106486513911814
 10
-699.02712872737857
 20
-350.5247984429933
 42
-0.0106486513911814
  0
SPLINE
  5
15E
100
AcDbEntity
  8
KUF70-0103
370
              15
390
0
  6
Continuous
 62
               7
100
AcDbSpline
210
0.0
220
0.0
230
1.0
 70
              12
 71
               2
 72
             198
 73
             195
 74
               0
 42
0.000001
 43
0.000001
 40
0.0
 40
0.0
 40
0.0
 40
1.0
 40
1.0
 40
2.0
 40
2.0
 40
3.0
 40
3.0
 40
4.0
 40
4.0
 40
5.0
 40
5.0
 40
6.0
 40
6.0
 40
7.0
 40
7.0
 40
8.0
 40
8.0
 40
9.0
 40
9.0
 40
10.0
 40
10.0
 40
11.0
 40
11.0
 40
12.0
 40
12.0
 40
13.0
 40
13.0
 40
14.0
 40
14.0
 40
15.0
 40
15.0
 40
16.0
 40
16.0
 40
17.0
 40
17.0
 40
18.0
 40
18.0
 40
19.0
 40
19.0
 40
20.0
 40
20.0
 40
21.0
 40
21.0
 40
22.0
 40
22.0
 40
23.0
 40
23.0
 40
24.0
 40
24.0
 40
25.0
 40
25.0
 40
26.0
 40
26.0
 40
27.0
 40
27.0
 40
28.0
 40
28.0
 40
29.0
 40
29.0
 40
30.0
 40
30.0
 40
31.0
 40
31.0
 40
32.0
 40
32.0
 40
33.0
 40
33.0
 40
34.0
 40
34.0
 40
35.0
 40
35.0
 40
36.0
 40
36.0
 40
37.0
 40
37.0
 40
38.0
 40
38.0
 40
39.0
 40
39.0
 40
40.0
 40
40.0
 40
41.0
 40
41.0
 40
42.0
 40
42.0
 40
43.0
 40
43.0
 40
44.0
 40
44.0
 40
45.0
 40
45.0
 40
46.0
 40
46.0
 40
47.0
 40
47.0
 40
48.0
 40
48.0
 40
49.0
 40
49.0
 40
50.0
 40
50.0
 40
51.0
 40
51.0
 40
52.0
 40
52.0
 40
53.0
 40
53.0
 40
54.0
 40
54.0
 40
55.0
 40
55.0
 40
56.0
 40
56.0
 40
57.0
 40
57.0
 40
58.0
 40
58.0
 40
59.0
 40
59.0
 40
60.0
 40
60.0
 40
61.0
 40
61.0
 40
62.0
 40
62.0
 40
63.0
 40
63.0
 40
64.0
 40
64.0
 40
65.0
 40
65.0
 40
66.0
 40
66.0
 40
67.0
 40
67.0
 40
68.0
 40
68.0
 40
69.0
 40
69.0
 40
70.0
 40
70.0
 40
71.0
 40
71.0
 40
72.0
 40
72.0
 40
73.0
 40
73.0
 40
74.0
 40
74.0
 40
75.0
 40
75.0
 40
76.0
 40
76.0
 40
77.0
 40
77.0
 40
78.0
 40
78.0
 40
79.0
 40
79.0
 40
80.0
 40
80.0
 40
81.0
 40
81.0
 40
82.0
 40
82.0
 40
83.0
 40
83.0
 40
84.0
 40
84.0
 40
85.0
 40
85.0
 40
86.0
 40
86.0
 40
87.0
 40
87.0
 40
88.0
 40
88.0
 40
89.0
 40
89.0
 40
90.0
 40
90.0
 40
91.0
 40
91.0
 40
92.0
 40
92.0
 40
93.0
 40
93.0
 40
94.0
 40
94.0
 40
95.0
 40
95.0
 40
96.0
 40
96.0
 40
97.0
 40
97.0
 40
97.0
 10
-256.54939977772619
 20
-338.88554334316689
 30
0.0
 41
1.0
 10
-241.75205531388872
 20
-338.88584388254412
 30
0.0
 41
1.0
 10
-226.9547108500513
 20
-338.88614442192136
 30
0.0
 41
1.0
 10
-196.45280050309987
 20
-338.88676392669743
 30
0.0
 41
0.9999999547906587
 10
-165.95089015703979
 20
-338.88610198914387
 30
0.0
 41
1.0
 10
-135.44897980973337
 20
-338.88544005161918
 30
0.0
 41
1.0
 10
-134.5711350238812
 20
-338.88576499607973
 30
0.0
 41
1.0
 10
-133.69329023804556
 20
-338.88608994054027
 30
0.0
 41
0.9999992481551902
 10
-132.81544729521099
 20
-338.88426201186041
 30
0.0
 41
1.0
 10
-132.81161661838155
 20
-338.88425403525821
 30
0.0
 41
1.0
 10
-132.80778594155208
 20
-338.88424605865589
 30
0.0
 41
1.0
 10
-131.92228164507816
 20
-338.88240217677139
 30
0.0
 41
0.9999674720682161
 10
-131.03686281795643
 20
-338.89484241614286
 30
0.0
 41
1.0
 10
-130.75699676209214
 20
-338.89877456736917
 30
0.0
 41
1.0
 10
-130.47713070622785
 20
-338.90270671859548
 30
0.0
 41
1.0
 10
-129.03197976738113
 20
-338.92301126041934
 30
0.0
 41
0.9993716442399879
 10
-127.59189842960168
 20
-339.04564588459994
 30
0.0
 41
1.0
 10
-127.29902984974689
 20
-339.07058602324537
 30
0.0
 41
1.0
 10
-127.00616126989206
 20
-339.09552616189069
 30
0.0
 41
1.0
 10
-125.26654005597032
 20
-339.24366903978864
 30
0.0
 41
0.9993281366109875
 10
-123.54244421359635
 20
-339.51884499532923
 30
0.0
 41
1.0
 10
-123.48394131399766
 20
-339.52818240622207
 30
0.0
 41
1.0
 10
-123.425438414399
 20
-339.53751981711503
 30
0.0
 41
1.0
 10
-121.81834837122148
 20
-339.79402095087005
 30
0.0
 41
0.9992835672475054
 10
-120.2352635604675
 20
-340.17134537422282
 30
0.0
 41
1.0
 10
-120.1890293579292
 20
-340.18236518421247
 30
0.0
 41
1.0
 10
-120.14279515539087
 20
-340.19338499420201
 30
0.0
 41
1.0
 10
-118.65217874971242
 20
-340.54866979757594
 30
0.0
 41
0.9992907850314663
 10
-117.19252730012067
 20
-341.01512687608511
 30
0.0
 41
1.0
 10
-117.15729886495129
 20
-341.02638473696288
 30
0.0
 41
1.0
 10
-117.1220704297819
 20
-341.03764259784066
 30
0.0
 41
1.0
 10
-115.73287585052896
 20
-341.48158395459427
 30
0.0
 41
0.9993595342700751
 10
-114.37899103370137
 20
-342.02374759227723
 30
0.0
 41
1.0
 10
-114.35321609038351
 20
-342.03406917713926
 30
0.0
 41
1.0
 10
-114.32744114706568
 20
-342.04439076200117
 30
0.0
 41
1.0
 10
-113.02510621687492
 20
-342.56591122995962
 30
0.0
 41
0.9994775730417135
 10
-111.75918552397457
 20
-343.17048105072513
 30
0.0
 41
1.0
 10
-111.5900037451687
 20
-343.25127773748682
 30
0.0
 41
1.0
 10
-111.42082196636287
 20
-343.3320744242485
 30
0.0
 41
1.0
 10
-110.49326483107475
 20
-343.77505087149029
 30
0.0
 41
0.9996331300096666
 10
-109.59105598177484
 20
-344.26760499468753
 30
0.0
 41
1.0
 10
-109.43538777822943
 20
-344.35259087746454
 30
0.0
 41
1.0
 10
-109.27971957468398
 20
-344.43757676024154
 30
0.0
 41
1.0
 10
-108.68884713247238
 20
-344.76015911788613
 30
0.0
 41
0.999936766330082
 10
-108.10537893808464
 20
-345.09594846638959
 30
0.0
 41
1.0
 10
-107.52191074369591
 20
-345.43173781489349
 30
0.0
 41
0.9999496535383821
 10
-106.9452986389218
 20
-345.77916852892929
 30
0.0
 41
1.0
 10
-106.80640067207099
 20
-345.86285983440405
 30
0.0
 41
1.0
 10
-106.66750270522016
 20
-345.94655113987881
 30
0.0
 41
1.0
 10
-105.81309466674554
 20
-346.46136446486344
 30
0.0
 41
0.999900615374956
 10
-104.97354071598892
 20
-347.00006198626477
 30
0.0
 41
1.0
 10
-104.83490602451826
 20
-347.08901656102228
 30
0.0
 41
1.0
 10
-104.69627133304763
 20
-347.17797113577967
 30
0.0
 41
1.0
 10
-103.5925484340907
 20
-347.88617194818289
 30
0.0
 41
0.9999798392387473
 10
-102.49790835663885
 20
-348.60833240765226
 30
0.0
 41
1.0
 10
-101.40313023383217
 20
-349.3305839389717
 30
0.0
 41
0.9999987742034454
 10
-100.30609573494803
 20
-350.04940361110516
 30
0.0
 41
1.0
 10
-99.208923190708049
 20
-350.76831435508927
 30
0.0
 41
0.9999553583833295
 10
-98.098361371248586
 20
-351.46636356166823
 30
0.0
 41
1.0
 10
-98.094706790563492
 20
-351.46866066670361
 30
0.0
 41
1.0
 10
-98.091052209878399
 20
-351.47095777173899
 30
0.0
 41
1.0
 10
-96.973181229046759
 20
-352.17360118838997
 30
0.0
 41
0.9998553856844612
 10
-95.832061838098525
 20
-352.83782241384995
 30
0.0
 41
1.0
 10
-95.824261229912054
 20
-352.84236298127007
 30
0.0
 41
1.0
 10
-95.816460621725582
 20
-352.84690354869008
 30
0.0
 41
1.0
 10
-94.659740014404605
 20
-353.52020590899008
 30
0.0
 41
0.9997140580028602
 10
-93.47215091278153
 20
-354.13743419536047
 30
0.0
 41
1.0
 10
-93.459101487615897
 20
-354.1442164016994
 30
0.0
 41
1.0
 10
-93.446052062450235
 20
-354.15099860803844
 30
0.0
 41
1.0
 10
-92.232364110496263
 20
-354.78179130708656
 30
0.0
 41
0.9995561075215065
 10
-90.983261677911202
 20
-355.33917895208845
 30
0.0
 41
1.0
 10
-90.963484894815053
 20
-355.34800395656214
 30
0.0
 41
1.0
 10
-90.943708111718934
 20
-355.35682896103583
 30
0.0
 41
1.0
 10
-89.655052112942229
 20
-355.93186661498476
 30
0.0
 41
0.9994097776393975
 10
-88.329952911963147
 20
-356.41706213661041
 30
0.0
 41
1.0
 10
-88.301686959076619
 20
-356.42741193815345
 30
0.0
 41
1.0
 10
-88.273421006190119
 20
-356.4377617396965
 30
0.0
 41
1.0
 10
-86.891789899437811
 20
-356.94365686440824
 30
0.0
 41
0.9993069359280201
 10
-85.476350629693457
 20
-357.34536081761007
 30
0.0
 41
1.0
 10
-85.437955308867402
 20
-357.35625747173708
 30
0.0
 41
1.0
 10
-85.399559988041347
 20
-357.3671541258642
 30
0.0
 41
1.0
 10
-83.907330076644769
 20
-357.79065138732028
 30
0.0
 41
0.9992606716121134
 10
-82.386971881496152
 20
-358.09824039455521
 30
0.0
 41
1.0
 10
-82.167549807147765
 20
-358.14263244521112
 30
0.0
 41
1.0
 10
-81.948127732799378
 20
-358.18702449586704
 30
0.0
 41
1.0
 10
-80.666411896750787
 20
-358.4463329291201
 30
0.0
 41
0.9992820052679839
 10
-79.368740734277708
 20
-358.60784423528742
 30
0.0
 41
1.0
 10
-79.178577651207576
 20
-358.63151239469448
 30
0.0
 41
1.0
 10
-78.988414568137443
 20
-358.65518055410166
 30
0.0
 41
1.0
 10
-78.071069571802923
 20
-358.76935554145496
 30
0.0
 41
0.9998320180046603
 10
-77.150156292426345
 20
-358.8498322579984
 30
0.0
 41
1.0
 10
-76.229243013049199
 20
-358.93030897454196
 30
0.0
 41
0.9998312148948791
 10
-75.3059948399559
 20
-358.97689846819219
 30
0.0
 41
1.0
 10
-75.286181645645229
 20
-358.97789829328519
 30
0.0
 41
1.0
 10
-75.266368451334529
 20
-358.9788981183782
 30
0.0
 41
1.0
 10
-74.303493889619659
 20
-359.02748726221444
 30
0.0
 41
0.9998886905777648
 10
-73.339598273247731
 20
-359.04732579125107
 30
0.0
 41
1.0
 10
-73.318027777983048
 20
-359.04776974689253
 30
0.0
 41
1.0
 10
-73.296457282718336
 20
-359.04821370253387
 30
0.0
 41
1.0
 10
-72.369582169026046
 20
-359.06729028981579
 30
0.0
 41
0.999587089864073
 10
-71.443141758488991
 20
-359.03309148445021
 30
0.0
 41
1.0
 10
-71.438019388927557
 20
-359.03290239628257
 30
0.0
 41
1.0
 10
-71.432897019366152
 20
-359.03271330811492
 30
0.0
 41
1.0
 10
-70.516701347951823
 20
-358.99889267908463
 30
0.0
 41
0.9991999951677556
 10
-69.606139300848326
 20
-358.89195764440922
 30
0.0
 41
1.0
 10
-68.695577253745796
 20
-358.7850226097338
 30
0.0
 41
0.9994346162158055
 10
-67.794260595202303
 20
-358.61713388379837
 30
0.0
 41
1.0
 10
-67.781629569150937
 20
-358.61478109596192
 30
0.0
 41
1.0
 10
-67.768998543099542
 20
-358.61242830812546
 30
0.0
 41
1.0
 10
-66.842419832453714
 20
-358.43983400651712
 30
0.0
 41
0.9995240137478973
 10
-65.928248987543157
 20
-358.21042483868484
 30
0.0
 41
1.0
 10
-65.914771573678649
 20
-358.20704271124509
 30
0.0
 41
1.0
 10
-65.901294159814142
 20
-358.20366058380534
 30
0.0
 41
1.0
 10
-64.960168487173917
 20
-357.96748716109346
 30
0.0
 41
0.9996151497474852
 10
-64.033589545629724
 20
-357.67948215699698
 30
0.0
 41
1.0
 10
-64.019776165901192
 20
-357.67518859677568
 30
0.0
 41
1.0
 10
-64.005962786172631
 20
-357.67089503655438
 30
0.0
 41
1.0
 10
-63.051757085170465
 20
-357.37430291201508
 30
0.0
 41
0.9996871732979032
 10
-62.113576755900539
 20
-357.03036530439761
 30
0.0
 41
1.0
 10
-62.099760655720161
 20
-357.02530031177901
 30
0.0
 41
1.0
 10
-62.085944555539754
 20
-357.02023531916041
 30
0.0
 41
1.0
 10
-61.12013202590947
 20
-356.66616772630584
 30
0.0
 41
0.9997458268740764
 10
-60.171262228343863
 20
-356.26892244946941
 30
0.0
 41
1.0
 10
-60.157728104272849
 20
-356.26325637507534
 30
0.0
 41
1.0
 10
-60.144193980201862
 20
-356.25759030068116
 30
0.0
 41
1.0
 10
-59.16825593449542
 20
-355.84901287505681
 30
0.0
 41
0.9997929058405628
 10
-58.209752367076049
 20
-355.40106031837968
 30
0.0
 41
1.0
 10
-58.19671731604177
 20
-355.39496844283985
 30
0.0
 41
1.0
 10
-58.183682265007519
 20
-355.38887656730003
 30
0.0
 41
1.0
 10
-57.199108595519533
 20
-354.92874025954302
 30
0.0
 41
0.9998306442097354
 10
-56.232135063580102
 20
-354.43268288292984
 30
0.0
 41
1.0
 10
-56.219766062600854
 20
-354.42633758600664
 30
0.0
 41
1.0
 10
-56.207397061621577
 20
-354.41999228908332
 30
0.0
 41
1.0
 10
-55.215685527722428
 20
-353.91124431862295
 30
0.0
 41
0.999860879762878
 10
-54.241495256144304
 20
-353.36970061892771
 30
0.0
 41
1.0
 10
-54.229917946332819
 20
-353.36326489546514
 30
0.0
 41
1.0
 10
-54.218340636521361
 20
-353.35682917200256
 30
0.0
 41
1.0
 10
-53.220995745319442
 20
-352.80241402538172
 30
0.0
 41
0.9998805512843445
 10
-52.241263214628987
 20
-352.21743782491376
 30
0.0
 41
1.0
 10
-51.972865816361121
 20
-352.05718379094424
 30
0.0
 41
1.0
 10
-51.704468418093256
 20
-351.89692975697483
 30
0.0
 41
1.0
 10
-50.187941090866559
 20
-350.99144548856771
 30
0.0
 41
0.9996507855047152
 10
-48.721370803846241
 20
-350.00710383660783
 30
0.0
 41
1.0
 10
-48.450676719473591
 20
-349.82541771863225
 30
0.0
 41
1.0
 10
-48.179982635100941
 20
-349.64373160065657
 30
0.0
 41
1.0
 10
-46.172024179335381
 20
-348.29601771274554
 30
0.0
 41
0.9997560211854295
 10
-44.225548284790449
 20
-346.86093531939366
 30
0.0
 41
1.0
 10
-44.197240307886091
 20
-346.84006463748051
 30
0.0
 41
1.0
 10
-44.168932330981761
 20
-346.81919395556724
 30
0.0
 41
1.0
 10
-42.165840482628596
 20
-345.34237019838929
 30
0.0
 41
0.9998245404217836
 10
-40.219472418063845
 20
-343.79155211752345
 30
0.0
 41
1.0
 10
-40.199602440407176
 20
-343.77572020927471
 30
0.0
 41
1.0
 10
-40.179732462750508
 20
-343.75988830102608
 30
0.0
 41
1.0
 10
-38.193624442871567
 20
-342.17740640366219
 30
0.0
 41
0.9998712817386255
 10
-36.259312081659232
 20
-340.53201596021938
 30
0.0
 41
1.0
 10
-36.247990989895413
 20
-340.52238586294493
 30
0.0
 41
1.0
 10
-36.236669898131595
 20
-340.51275576567059
 30
0.0
 41
1.0
 10
-34.279715353390372
 20
-338.84810512767797
 30
0.0
 41
0.9999038172175931
 10
-32.369684170504115
 20
-337.12981710841314
 30
0.0
 41
1.0
 10
-32.361099966367618
 20
-337.122094650657
 30
0.0
 41
1.0
 10
-32.352515762231121
 20
-337.11437219290087
 30
0.0
 41
1.0
 10
-30.448513506531413
 20
-335.40150787218431
 30
0.0
 41
0.9999269061557874
 10
-28.586483963945739
 20
-333.64310667978714
 30
0.0
 41
1.0
 10
-28.572179898521142
 20
-333.62959868481528
 30
0.0
 41
1.0
 10
-28.557875833096546
 20
-333.61609068984342
 30
0.0
 41
1.0
 10
-26.724454421360434
 20
-331.88470548739031
 30
0.0
 41
0.9999435912647435
 10
-24.928224101272463
 20
-330.11476610156581
 30
0.0
 41
1.0
 10
-24.905573068588865
 20
-330.09244660588206
 30
0.0
 41
1.0
 10
-24.882922035905281
 20
-330.0701271101982
 30
0.0
 41
1.0
 10
-23.131993781184718
 20
-328.34482671574142
 30
0.0
 41
0.9999558538630595
 10
-21.413796131894742
 20
-326.58692795806132
 30
0.0
 41
1.0
 10
-19.695598482604495
 20
-324.82902920038089
 30
0.0
 41
0.999964335245355
 10
-18.007337921867716
 20
-323.04235981760701
 30
0.0
 41
1.0
 10
-17.660914579679115
 20
-322.6757434354198
 30
0.0
 41
1.0
 10
-17.314491237490529
 20
-322.30912705323271
 30
0.0
 41
1.0
 10
-14.93338399237669
 20
-319.78922490608466
 30
0.0
 41
0.9998993472083096
 10
-12.624732214427922
 20
-317.20277840323388
 30
0.0
 41
1.0
 10
-12.141546415237229
 20
-316.66145197519438
 30
0.0
 41
1.0
 10
-11.658360616046551
 20
-316.120125547155
 30
0.0
 41
1.0
 10
-9.3247152201938661
 20
-313.50567800220733
 30
0.0
 41
0.9999330864772464
 10
-7.0521791155517803
 20
-310.83794179860922
 30
0.0
 41
1.0
 10
-6.6100802419206559
 20
-310.31896074992676
 30
0.0
 41
1.0
 10
-6.1679813682895315
 20
-309.79997970124441
 30
0.0
 41
1.0
 10
-4.7796430109116272
 20
-308.17020559501327
 30
0.0
 41
0.9999531348819595
 10
-3.4231201705654257
 20
-306.51385635178656
 30
0.0
 41
1.0
 10
-3.1285410313699344
 20
-306.15416765376779
 30
0.0
 41
1.0
 10
-2.833961892174429
 20
-305.79447895574901
 30
0.0
 41
1.0
 10
-2.0665973302192242
 20
-304.85750710855984
 30
0.0
 41
0.999991163344257
 10
-1.3071377973915332
 20
-303.91411650474447
 30
0.0
 41
1.0
 10
-0.5476782645616254
 20
-302.97072590092648
 30
0.0
 41
0.9999845612448777
 10
0.201250192055241
 20
-302.01895345951027
 30
0.0
 41
1.0
 10
0.2102392347966884
 20
-302.00752977400282
 30
0.0
 41
1.0
 10
0.21922827753815
 20
-301.99610608849525
 30
0.0
 41
1.0
 10
0.5562780312872917
 20
-301.56776788853813
 30
0.0
 41
0.9999861809508202
 10
0.8888055174134024
 20
-301.13590955410439
 30
0.0
 41
1.0
  0
CIRCLE
  5
15F
100
AcDbEntity
  8
KUF70-0103
370
              15
390
0
  6
STYLE_12
 62
               7
100
AcDbCircle
 10
-74.022557872343441
 20
-335.26496500115297
 30
0.0
 40
10.000250922309078
  0
CIRCLE
  5
160
100
AcDbEntity
  8
KUF70-0103
370
              15
390
0
  6
STYLE_12
 62
               7
100
AcDbCircle
 10
-529.02712872737857
 20
-414.65557643778504
 30
0.0
 40
10.001112196180657
  0
LINE
  5
161
100
AcDbEntity
  8
KUF70-0103
370
              15
390
0
  6
STYLE_12
 62
               7
100
AcDbLine
 10
-519.02601653119791
 20
-414.65557643778504
 30
0.0
 11
-539.02824092355922
 21
-414.65557643778504
 31
0.0
  0
LINE
  5
162
100
AcDbEntity
  8
KUF70-0103
370
              15
390
0
  6
STYLE_12
 62
               7
100
AcDbLine
 10
-509.02834943050357
 20
-414.65557643778504
 30
0.0
 11
-549.02590802425357
 21
-414.65557643778504
 31
0.0
  0
LINE
  5
163
100
AcDbEntity
  8
KUF70-0103
370
              15
390
0
  6
STYLE_12
 62
               7
100
AcDbLine
 10
-529.02712872737857
 20
-394.65679714091004
 30
0.0
 11
-529.02712872737857
 21
-434.65607828240297
 31
0.0
  0
LINE
  5
164
100
AcDbEntity
  8
KUF70-0103
370
              15
390
0
  6
STYLE_12
 62
               7
100
AcDbLine
 10
-54.024639849340019
 20
-335.26668754889613
 30
0.0
 11
-94.023920990832721
 21
-335.26668754889613
 31
0.0
  0
LINE
  5
165
100
AcDbEntity
  8
KUF70-0103
370
              15
390
0
  6
STYLE_12
 62
               7
100
AcDbLine
 10
-74.023419146215019
 20
-315.26790825202113
 30
0.0
 11
-74.023419146215019
 21
-355.26718939351406
 31
0.0
  0
LINE
  5
166
100
AcDbEntity
  8
KUF70-0103
370
              15
390
0
  6
Continuous
 62
               7
100
AcDbLine
 10
-398.63966399213541
 20
-494.65557643778504
 30
0.0
 11
-459.41459346262172
 21
-494.65557643778504
 31
0.0
  0
LINE
  5
167
100
AcDbEntity
  8
KUF70-0103
370
              15
390
0
  6
Continuous
 62
               7
100
AcDbLine
 10
-459.41459346262172
 20
-494.65557643778504
 30
0.0
 11
-459.41459346262172
 21
-459.81667090279905
 31
0.0
  0
LINE
  5
168
100
AcDbEntity
  8
KUF70-0103
370
              15
390
0
  6
Continuous
 62
               7
100
AcDbLine
 10
-398.63966399213541
 20
-494.65557643778504
 30
0.0
 11
-398.63966399213541
 21
-456.46200600575742
 31
0.0
  0
ARC
  5
169
100
AcDbEntity
  8
KUF70-0103
370
              15
390
0
  6
STYLE_12
 62
               7
100
AcDbCircle
 10
-574.26906366730191
 20
-124.47804347833105
 30
0.0
 40
373.9000000000002
100
AcDbArc
 50
312.84394917019858
 51
334.02067343800098
  0
ARC
  5
16A
100
AcDbEntity
  8
KUF70-0103
370
              15
390
0
  6
STYLE_12
 62
               7
100
AcDbCircle
 10
-448.37333864977836
 20
-274.66681963410269
 30
0.0
 40
178.40000000000006
100
AcDbArc
 50
282.86066849433155
 51
315.83141180428788
  0
LINE
  5
16B
100
AcDbEntity
  8
KUF70-0103
370
              15
390
0
  6
STYLE_12
 62
               7
100
AcDbLine
 10
-408.63966399213541
 20
-494.65557643778504
 30
0.0
 11
-408.66490167850088
 21
-448.59151607856427
 31
0.0
  0
LINE
  5
16C
100
AcDbEntity
  8
KUF70-0103
370
              15
390
0
  6
STYLE_12
 62
               7
100
AcDbLine
 10
-449.41459346262172
 20
-494.65557643778504
 30
0.0
 11
-449.41459346262172
 21
-449.82783081192736
 31
0.0
  0
ARC
  5
16D
100
AcDbEntity
  8
KUF70-0103
370
              15
390
0
  6
STYLE_12
 62
               7
100
AcDbCircle
 10
-455.05048153354574
 20
-167.36396996222115
 30
0.0
 40
282.52008056148895
100
AcDbArc
 50
213.7645634708166
 51
271.14304802874437
  0
ARC
  5
16E
100
AcDbEntity
  8
KUF70-0103
370
              15
390
0
  6
STYLE_12
 62
               7
100
AcDbCircle
 10
-209.20041804117
 20
-313.87345496199566
 30
0.0
 40
38.652097642725387
100
AcDbArc
 50
87.249915367990013
 51
138.50385489102382
  0
ENDSEC
  0
SECTION
  2
OBJECTS
  0
DICTIONARY
  5
19
100
AcDbDictionary
280
               0
281
               1
  3
ACAD_GROUP
350
1A
  3
ACAD_MLINESTYLE
350
1B
  3
ACAD_LAYOUT
350
1E
  3
ACAD_PLOTSETTINGS
350
22
  3
ACAD_PLOTSTYLENAME
350
1F
  0
DICTIONARY
  5
1A
102
{ACAD_REACTORS
330
19
102
}
100
AcDbDictionary
280
               0
281
               1
  0
DICTIONARY
  5
1B
102
{ACAD_REACTORS
330
19
102
}
100
AcDbDictionary
280
               0
281
               1
  3
Standard
350
1C
  0
MLINESTYLE
  5
1C
102
{ACAD_REACTORS
330
1B
102
}
100
AcDbMlineStyle
  2
Standard
 70
               0
  3

 62
               0
 51
90.0
 52
90.0
 71
               2
 49
0.5
 62
             256
  6
ByLayer
 49
-0.5
 62
             256
  6
ByLayer
  0
ACDBDICTIONARYWDFLT
  5
1F
102
{ACAD_REACTORS
330
19
102
}
100
AcDbDictionary
281
               1
  3
Normal
350
1D
100
AcDbDictionaryWithDefault
340
1D
  0
ACDBPLACEHOLDER
  5
1D
102
{ACAD_REACTORS
330
1F
102
}
  0
LAYOUT
  5
20
102
{ACAD_REACTORS
330
1E
102
}
100
AcDbPlotSettings
  1

  2

  4

  6

 40
0.0
 41
0.0
 42
0.0
 43
0.0
 44
0.0
 45
0.0
 46
0.0
 47
0.0
 48
0.0
 49
0.0
140
0.0
141
0.0
142
1.0
143
1.0
 70
            1024
 72
               0
 73
               0
 74
               0
  7

 75
               0
147
1.0
148
0.0
149
0.0
100
AcDbLayout
  1
Model
 70
               0
 71
               0
 10
0.0
 20
0.0
 11
0.0
 21
0.0
 12
0.0
 22
0.0
 32
0.0
 14
0.0
 24
0.0
 34
0.0
 15
0.0
 25
0.0
 35
0.0
146
0.0
 13
0.0
 23
0.0
 33
0.0
 16
0.0
 26
0.0
 36
0.0
 17
0.0
 27
0.0
 37
0.0
 76
               0
330
A
331
0
345
0
346
0
  0
LAYOUT
  5
21
102
{ACAD_REACTORS
330
1E
102
}
100
AcDbPlotSettings
  1

  2

  4

  6

 40
0.0
 41
0.0
 42
0.0
 43
0.0
 44
0.0
 45
0.0
 46
0.0
 47
0.0
 48
0.0
 49
0.0
140
0.0
141
0.0
142
1.0
143
1.0
 70
               0
 72
               0
 73
               0
 74
               0
  7

 75
               0
147
1.0
148
0.0
149
0.0
100
AcDbLayout
  1
Layout1
 70
               0
 71
               0
 10
0.0
 20
0.0
 11
0.0
 21
0.0
 12
0.0
 22
0.0
 32
0.0
 14
0.0
 24
0.0
 34
0.0
 15
0.0
 25
0.0
 35
0.0
146
0.0
 13
0.0
 23
0.0
 33
0.0
 16
0.0
 26
0.0
 36
0.0
 17
0.0
 27
0.0
 37
0.0
 76
               0
330
B
331
0
345
0
346
0
  0
DICTIONARY
  5
1E
102
{ACAD_REACTORS
330
19
102
}
100
AcDbDictionary
280
               0
281
               1
  3
Layout1
350
21
  3
Model
350
20
  0
DICTIONARY
  5
22
102
{ACAD_REACTORS
330
19
102
}
100
AcDbDictionary
280
               0
281
               1
  0
ENDSEC
  0
EOF
