  0
SECTION
  2
HEADER
  9
$ACADVER
  1
AC1015
  9
$ACADMAINTVER
 70
               6
  9
$DWGCODEPAGE
  3
ANSI_932
  9
$INSBASE
 10
0.0
 20
0.0
 30
0.0
  9
$EXTMIN
 10
-975.00000000024113
 20
-1431.5255224711129
 30
-14.834305555555554
  9
$EXTMAX
 10
975.00000000024124
 20
1405.9972926412995
 30
14.834305555555554
  9
$LIMMIN
 10
0.0
 20
0.0
  9
$LIMMAX
 10
0.0
 20
0.0
  9
$ORTHOMODE
 70
               0
  9
$REGENMODE
 70
               1
  9
$FILLMODE
 70
               1
  9
$QTEXTMODE
 70
               0
  9
$MIRRTEXT
 70
               1
  9
$LTSCALE
 40
50.799999999999997
  9
$ATTMODE
 70
               1
  9
$TEXTSIZE
 40
0.2
  9
$TRACEWID
 40
1.0
  9
$TEXTSTYLE
  7
Standard
  9
$CLAYER
  8
template
  9
$CELTYPE
  6
Continuous
  9
$CECOLOR
 62
             256
  9
$CELTSCALE
 40
1.0
  9
$DISPSILH
 70
               0
  9
$DIMSCALE
 40
1.0
  9
$DIMASZ
 40
31.75
  9
$DIMEXO
 40
0.0
  9
$DIMDLI
 40
6.9999999999999396
  9
$DIMRND
 40
0.0
  9
$DIMDLE
 40
0.0
  9
$DIMEXE
 40
19.999999999996199
  9
$DIMTP
 40
0.0
  9
$DIMTM
 40
0.0
  9
$DIMTXT
 40
24.432617187500004
  9
$DIMCEN
 40
0.0
  9
$DIMTSZ
 40
0.0
  9
$DIMTOL
 70
               0
  9
$DIMLIM
 70
               0
  9
$DIMTIH
 70
               0
  9
$DIMTOH
 70
               0
  9
$DIMSE1
 70
               0
  9
$DIMSE2
 70
               0
  9
$DIMTAD
 70
               1
  9
$DIMZIN
 70
              11
  9
$DIMBLK
  1
VW_FILLEDARROW
  9
$DIMASO
 70
               1
  9
$DIMSHO
 70
               1
  9
$DIMPOST
  1
<>
  9
$DIMAPOST
  1
[]
  9
$DIMALT
 70
               0
  9
$DIMALTD
 70
               1
  9
$DIMALTF
 40
1.0
  9
$DIMLFAC
 40
1.0
  9
$DIMTOFL
 70
               0
  9
$DIMTVP
 40
0.0
  9
$DIMTIX
 70
               1
  9
$DIMSOXD
 70
               0
  9
$DIMSAH
 70
               0
  9
$DIMBLK1
  1

  9
$DIMBLK2
  1

  9
$DIMSTYLE
  2
JIS
  9
$DIMCLRD
 70
               0
  9
$DIMCLRE
 70
               0
  9
$DIMCLRT
 70
               0
  9
$DIMTFAC
 40
1.0
  9
$DIMGAP
 40
1.00000000000108
  9
$DIMJUST
 70
               0
  9
$DIMSD1
 70
               0
  9
$DIMSD2
 70
               0
  9
$DIMTOLJ
 70
               1
  9
$DIMTZIN
 70
              11
  9
$DIMALTZ
 70
              11
  9
$DIMALTTZ
 70
              11
  9
$DIMUPT
 70
               0
  9
$DIMDEC
 70
               1
  9
$DIMTDEC
 70
               1
  9
$DIMALTU
 70
               2
  9
$DIMALTTD
 70
               2
  9
$DIMTXSTY
  7
ＭＳ ゴシック
  9
$DIMAUNIT
 70
               0
  9
$DIMADEC
 70
               2
  9
$DIMALTRND
 40
0.0
  9
$DIMAZIN
 70
               0
  9
$DIMDSEP
 70
              46
  9
$DIMATFIT
 70
               0
  9
$DIMFRAC
 70
               2
  9
$DIMLDRBLK
  1

  9
$DIMLUNIT
 70
               2
  9
$DIMLWD
 70
              -2
  9
$DIMLWE
 70
              -2
  9
$DIMTMOVE
 70
               0
  9
$LUNITS
 70
               2
  9
$LUPREC
 70
               4
  9
$SKETCHINC
 40
0.1
  9
$FILLETRAD
 40
0.0
  9
$AUNITS
 70
               0
  9
$AUPREC
 70
               0
  9
$MENU
  1
acad
  9
$ELEVATION
 40
0.0
  9
$PELEVATION
 40
0.0
  9
$THICKNESS
 40
0.0
  9
$LIMCHECK
 70
               0
  9
$CHAMFERA
 40
0.0
  9
$CHAMFERB
 40
0.0
  9
$CHAMFERC
 40
0.0
  9
$CHAMFERD
 40
0.0
  9
$SKPOLY
 70
               0
  9
$TDCREATE
 40
2456104.457233796
  9
$TDUCREATE
 40
0.000000000
  9
$TDUPDATE
 40
2456104.457233796
  9
$TDUUPDATE
 40
0.000000000
  9
$TDINDWG
 40
0.0000000000
  9
$TDUSRTIMER
 40
0.0000000000
  9
$USRTIMER
 70
               1
  9
$ANGBASE
 50
0.0
  9
$ANGDIR
 70
               0
  9
$PDMODE
 70
               1
  9
$PDSIZE
 40
-2.0
  9
$PLINEWID
 40
0.0
  9
$SPLFRAME
 70
               0
  9
$SPLINETYPE
 70
               6
  9
$SPLINESEGS
 70
               8
  9
$HANDSEED
  5
E7
  9
$SURFTAB1
 70
               6
  9
$SURFTAB2
 70
               6
  9
$SURFTYPE
 70
               6
  9
$SURFU
 70
               6
  9
$SURFV
 70
               6
  9
$UCSBASE
  2

  9
$UCSNAME
  2

  9
$UCSORG
 10
0.0
 20
0.0
 30
0.0
  9
$UCSXDIR
 10
1.0
 20
0.0
 30
0.0
  9
$UCSYDIR
 10
0.0
 20
1.0
 30
0.0
  9
$UCSORTHOREF
  2

  9
$UCSORTHOVIEW
 70
               0
  9
$UCSORGTOP
 10
0.0
 20
0.0
 30
0.0
  9
$UCSORGBOTTOM
 10
0.0
 20
0.0
 30
0.0
  9
$UCSORGLEFT
 10
0.0
 20
0.0
 30
0.0
  9
$UCSORGRIGHT
 10
0.0
 20
0.0
 30
0.0
  9
$UCSORGFRONT
 10
0.0
 20
0.0
 30
0.0
  9
$UCSORGBACK
 10
0.0
 20
0.0
 30
0.0
  9
$PUCSBASE
  2

  9
$PUCSNAME
  2

  9
$PUCSORG
 10
0.0
 20
0.0
 30
0.0
  9
$PUCSXDIR
 10
1.0
 20
0.0
 30
0.0
  9
$PUCSYDIR
 10
0.0
 20
1.0
 30
0.0
  9
$PUCSORTHOREF
  2

  9
$PUCSORTHOVIEW
 70
               0
  9
$PUCSORGTOP
 10
0.0
 20
0.0
 30
0.0
  9
$PUCSORGBOTTOM
 10
0.0
 20
0.0
 30
0.0
  9
$PUCSORGLEFT
 10
0.0
 20
0.0
 30
0.0
  9
$PUCSORGRIGHT
 10
0.0
 20
0.0
 30
0.0
  9
$PUCSORGFRONT
 10
0.0
 20
0.0
 30
0.0
  9
$PUCSORGBACK
 10
0.0
 20
0.0
 30
0.0
  9
$USERI1
 70
               0
  9
$USERI2
 70
               0
  9
$USERI3
 70
               0
  9
$USERI4
 70
               0
  9
$USERI5
 70
               0
  9
$USERR1
 40
0.0
  9
$USERR2
 40
0.0
  9
$USERR3
 40
0.0
  9
$USERR4
 40
0.0
  9
$USERR5
 40
0.0
  9
$WORLDVIEW
 70
               1
  9
$SHADEDGE
 70
               3
  9
$SHADEDIF
 70
              70
  9
$TILEMODE
 70
               1
  9
$MAXACTVP
 70
              64
  9
$PINSBASE
 10
0.0
 20
0.0
 30
0.0
  9
$PLIMCHECK
 70
               0
  9
$PEXTMIN
 10
1.0000000000000000E+20
 20
1.0000000000000000E+20
 30
1.0000000000000000E+20
  9
$PEXTMAX
 10
-1.0000000000000000E+20
 20
-1.0000000000000000E+20
 30
-1.0000000000000000E+20
  9
$PLIMMIN
 10
0.0
 20
0.0
  9
$PLIMMAX
 10
12.0
 20
9.0
  9
$UNITMODE
 70
               0
  9
$VISRETAIN
 70
               0
  9
$PLINEGEN
 70
               1
  9
$PSLTSCALE
 70
               0
  9
$TREEDEPTH
 70
            3020
  9
$CMLSTYLE
  2
Standard
  9
$CMLJUST
 70
               0
  9
$CMLSCALE
 40
1.0
  9
$PROXYGRAPHICS
 70
               0
  9
$MEASUREMENT
 70
               1
  9
$CELWEIGHT
370
               0
  9
$ENDCAPS
280
               0
  9
$JOINSTYLE
280
               0
  9
$LWDISPLAY
290
               1
  9
$INSUNITS
 70
               4
  9
$HYPERLINKBASE
  1

  9
$STYLESHEET
  1

  9
$XEDIT
290
               1
  9
$CEPSNTYPE
380
               0
  9
$PSTYLEMODE
290
               1
  9
$FINGERPRINTGUID
  2

  9
$VERSIONGUID
  2

  9
$EXTNAMES
290
               1
  9
$PSVPSCALE
 40
0.0
  0
ENDSEC
  0
SECTION
  2
CLASSES
  0
CLASS
  1
LWPOLYLINE
  2
AcDbPolyline
  3
AutoCAD 2000
 90
        0
280
               0
281
               1
  0
CLASS
  1
IMAGE
  2
AcDbRasterImage
  3
ISM
 90
      127
280
               0
281
               1
  0
CLASS
  1
OLE2FRAME
  2
AcDbOle2Frame
  3
AutoCAD 2000
 90
        0
280
               0
281
               1
  0
CLASS
  1
HATCH
  2
AcDbHatch
  3
AutoCAD 2000
 90
        0
280
               0
281
               1
  0
CLASS
  1
DICTIONARYVAR
  2
AcDbDictionaryVar
  3
AutoCAD 2000
 90
        0
280
               0
281
               0
  0
CLASS
  1
RASTERVARIABLES
  2
AcDbRasterVariables
  3
ISM
 90
        0
280
               0
281
               0
  0
CLASS
  1
IMAGEDEF
  2
AcDbRasterImageDef
  3
ISM
 90
        0
280
               0
281
               0
  0
CLASS
  1
IMAGEDEF_REACTOR
  2
AcDbRasterImageDefReactor
  3
ISM
 90
        1
280
               0
281
               0
  0
CLASS
  1
IDBUFFER
  2
AcDbIdBuffer
  3
AutoCAD 2000
 90
        0
280
               0
281
               0
  0
CLASS
  1
SPATIAL_FILTER
  2
AcDbSpatialFilter
  3
AutoCAD 2000
 90
        0
280
               0
281
               0
  0
CLASS
  1
XRECORD
  2
AcDbXrecord
  3
AutoCAD 2000
 90
        0
280
               0
281
               0
  0
CLASS
  1
SORTENTSTABLE
  2
AcDbSortentsTable
  3
AutoCAD 2000
 90
        0
280
               0
281
               0
  0
CLASS
  1
LAYER_INDEX
  2
AcDbLayerIndex
  3
AutoCAD 2000
 90
        0
280
               0
281
               0
  0
CLASS
  1
SPATIAL_INDEX
  2
AcDbSpatialIndex
  3
AutoCAD 2000
 90
        0
280
               0
281
               0
  0
CLASS
  1
OBJECT_PTR
  2
CAseDLPNTableRecord
  3
"ASE-LPNTableRecord"
 90
        1
280
               0
281
               0
  0
CLASS
  1
LAYOUT
  2
AcDbLayout
  3
AutoCAD 2000
 90
        0
280
               0
281
               0
  0
CLASS
  1
PLOTSETTINGS
  2
AcDbPlotSettings
  3
AutoCAD 2000
 90
        0
280
               0
281
               0
  0
CLASS
  1
ACDBDICTIONARYWDFLT
  2
AcDbDictionaryWithDefault
  3
AutoCAD 2000
 90
        0
280
               0
281
               0
  0
CLASS
  1
ACDBPLACEHOLDER
  2
AcDbPlaceHolder
  3
AutoCAD 2000
 90
        0
280
               0
281
               0
  0
ENDSEC
  0
SECTION
  2
TABLES
  0
TABLE
  2
VPORT
  5
7
100
AcDbSymbolTable
 70
               1
  0
VPORT
  5
15
100
AcDbSymbolTableRecord
100
AcDbViewportTableRecord
  2
*ACTIVE
 70
               0
 10
0.0
 20
0.0
 11
1.0
 21
1.0
 12
0.0000000000001137
 22
-12.764114914906713
 13
0.0
 23
0.0
 14
1.0
 24
1.0
 15
0.0
 25
0.0
 16
0.0
 26
0.0
 36
1.0
 17
0.0
 27
0.0
 37
0.0
 40
2837.5228151124124
 41
0.688564
 42
50.0
 43
0.0
 44
0.0
 50
0.0
 51
0.0
 71
               0
 72
            2000
 73
               1
 74
               1
 75
               0
 76
               0
 77
               0
 78
               0
281
               0
 65
               0
110
0.0
120
0.0
130
0.0
111
1.0
121
0.0
131
0.0
112
0.0
122
1.0
132
0.0
345
0
346
0
 79
               0
146
0.0
  0
ENDTAB
  0
TABLE
  2
LTYPE
  5
4
100
AcDbSymbolTable
 70
              17
  0
LTYPE
  5
11
100
AcDbSymbolTableRecord
100
AcDbLinetypeTableRecord
  2
ByBlock
 70
              64
  3

 72
              65
 73
               0
 40
0.0
  0
LTYPE
  5
12
100
AcDbSymbolTableRecord
100
AcDbLinetypeTableRecord
  2
ByLayer
 70
              64
  3

 72
              65
 73
               0
 40
0.0
  0
LTYPE
  5
13
100
AcDbSymbolTableRecord
100
AcDbLinetypeTableRecord
  2
Continuous
 70
              64
  3
Solid line
 72
              65
 73
               0
 40
0.0
  0
LTYPE
  5
2D
100
AcDbSymbolTableRecord
100
AcDbLinetypeTableRecord
  2
STYLE_01
 70
               0
  3

 72
              65
 73
               2
 40
0.3936937120225694
 49
0.1968468560112847
 74
               0
 49
-0.1968468560112847
 74
               0
  0
LTYPE
  5
2E
100
AcDbSymbolTableRecord
100
AcDbLinetypeTableRecord
  2
STYLE_02
 70
               0
  3

 72
              65
 73
               4
 40
1.0826651255289712
 49
0.5905479855007596
 74
               0
 49
-0.1968468560112847
 74
               0
 49
0.0984234280056423
 74
               0
 49
-0.1968468560112847
 74
               0
  0
LTYPE
  5
2F
100
AcDbSymbolTableRecord
100
AcDbLinetypeTableRecord
  2
STYLE_03
 70
               0
  3

 72
              65
 73
               2
 40
1.25
 49
1.0416400000000001
 74
               0
 49
-0.2083599999999999
 74
               0
  0
LTYPE
  5
30
100
AcDbSymbolTableRecord
100
AcDbLinetypeTableRecord
  2
STYLE_04
 70
               0
  3

 72
              65
 73
               2
 40
1.5277099999999999
 49
1.3194249999999998
 74
               0
 49
-0.208285
 74
               0
  0
LTYPE
  5
31
100
AcDbSymbolTableRecord
100
AcDbLinetypeTableRecord
  2
STYLE_05
 70
               0
  3

 72
              65
 73
               2
 40
0.20828
 49
0.069425
 74
               0
 49
-0.138855
 74
               0
  0
LTYPE
  5
32
100
AcDbSymbolTableRecord
100
AcDbLinetypeTableRecord
  2
STYLE_06
 70
               0
  3

 72
              65
 73
               4
 40
1.0416400000000001
 49
0.625
 74
               0
 49
-0.20828
 74
               0
 49
0.06943
 74
               0
 49
-0.13893
 74
               0
  0
LTYPE
  5
33
100
AcDbSymbolTableRecord
100
AcDbLinetypeTableRecord
  2
STYLE_07
 70
               0
  3

 72
              65
 73
               6
 40
1.875
 49
0.625
 74
               0
 49
-0.20828
 74
               0
 49
0.6250000000000001
 74
               0
 49
-0.2083599999999999
 74
               0
 49
0.06943
 74
               0
 49
-0.1389299999999999
 74
               0
  0
LTYPE
  5
34
100
AcDbSymbolTableRecord
100
AcDbLinetypeTableRecord
  2
STYLE_08
 70
               0
  3

 72
              65
 73
               6
 40
1.25
 49
0.625
 74
               0
 49
-0.20828
 74
               0
 49
0.06943
 74
               0
 49
-0.13893
 74
               0
 49
0.0694299999999999
 74
               0
 49
-0.13893
 74
               0
  0
LTYPE
  5
35
100
AcDbSymbolTableRecord
100
AcDbLinetypeTableRecord
  2
STYLE_09
 70
               0
  3

 72
              65
 73
               4
 40
5.0
 49
3.75
 74
               0
 49
-0.2777849999999998
 74
               0
 49
0.6944300000000003
 74
               0
 49
-0.2777849999999998
 74
               0
  0
LTYPE
  5
36
100
AcDbSymbolTableRecord
100
AcDbLinetypeTableRecord
  2
STYLE_10
 70
               0
  3

 72
              65
 73
               6
 40
5.9375
 49
3.75
 74
               0
 49
-0.2777849999999998
 74
               0
 49
0.6944300000000003
 74
               0
 49
-0.2777849999999998
 74
               0
 49
0.625
 74
               0
 49
-0.3125
 74
               0
  0
LTYPE
  5
37
100
AcDbSymbolTableRecord
100
AcDbLinetypeTableRecord
  2
STYLE_11
 70
               0
  3

 72
              65
 73
               2
 40
0.0694444881889764
 49
0.0347222440944882
 74
               0
 49
-0.0347222440944882
 74
               0
  0
LTYPE
  5
38
100
AcDbSymbolTableRecord
100
AcDbLinetypeTableRecord
  2
STYLE_12
 70
               0
  3

 72
              65
 73
               2
 40
0.3937007874015748
 49
0.1968503937007874
 74
               0
 49
-0.1968503937007874
 74
               0
  0
LTYPE
  5
39
100
AcDbSymbolTableRecord
100
AcDbLinetypeTableRecord
  2
STYLE_13
 70
               0
  3

 72
              65
 73
               2
 40
0.5905511811023622
 49
0.2952755905511811
 74
               0
 49
-0.2952755905511811
 74
               0
  0
LTYPE
  5
3A
100
AcDbSymbolTableRecord
100
AcDbLinetypeTableRecord
  2
STYLE_14
 70
               0
  3

 72
              65
 73
               2
 40
1.9685039370078738
 49
0.9842519685039369
 74
               0
 49
-0.9842519685039369
 74
               0
  0
ENDTAB
  0
TABLE
  2
LAYER
  5
2
100
AcDbSymbolTable
 70
               5
  0
LAYER
  5
14
100
AcDbSymbolTableRecord
100
AcDbLayerTableRecord
  2
0
 70
               0
 62
               7
  6
Continuous
290
               1
370
              -3
390
1D
  0
LAYER
  5
3B
100
AcDbSymbolTableRecord
100
AcDbLayerTableRecord
  2
Defpoints
 70
               0
 62
               7
  6
Continuous
290
               0
370
              -3
390
1D
  0
LAYER
  5
3C
100
AcDbSymbolTableRecord
100
AcDbLayerTableRecord
  2
template
 70
               0
 62
               7
  6
Continuous
290
               1
370
              -3
390
1D
  0
LAYER
  5
3D
100
AcDbSymbolTableRecord
100
AcDbLayerTableRecord
  2
notes
 70
               0
 62
               7
  6
Continuous
290
               1
370
              -3
390
1D
  0
LAYER
  5
3E
100
AcDbSymbolTableRecord
100
AcDbLayerTableRecord
  2
KUF70-0301
 70
               0
 62
               7
  6
Continuous
290
               1
370
              -3
390
1D
  0
ENDTAB
  0
TABLE
  2
STYLE
  5
3
100
AcDbSymbolTable
 70
               2
  0
STYLE
  5
17
100
AcDbSymbolTableRecord
100
AcDbTextStyleTableRecord
  2
Standard
 70
               0
 40
0.0
 41
1.0
 50
0.0
 71
               0
 42
0.0
  3
txt
  4
BIGFONT.SHX
  0
STYLE
  5
2C
100
AcDbSymbolTableRecord
100
AcDbTextStyleTableRecord
  2
ＭＳ ゴシック
 70
               0
 40
0.0
 41
1.0
 50
0.0
 71
               0
 42
0.0
  3

  4
ＭＳ ゴシック
1001
ACAD
1000
ＭＳ ゴシック
1071
        0
  0
ENDTAB
  0
TABLE
  2
VIEW
  5
5
100
AcDbSymbolTable
 70
               0
  0
ENDTAB
  0
TABLE
  2
UCS
  5
6
100
AcDbSymbolTable
 70
               0
  0
ENDTAB
  0
TABLE
  2
APPID
  5
8
100
AcDbSymbolTable
 70
               1
  0
APPID
  5
16
100
AcDbSymbolTableRecord
100
AcDbRegAppTableRecord
  2
ACAD
 70
               0
  0
ENDTAB
  0
TABLE
  2
DIMSTYLE
  5
9
100
AcDbSymbolTable
 70
               3
100
AcDbDimStyleTable
 71
               0
  0
DIMSTYLE
105
18
100
AcDbSymbolTableRecord
100
AcDbDimStyleTableRecord
  2
Standard
 70
               0
  3

  4

 40
1.0
 41
0.18
 42
0.0625
 43
0.38
 44
0.18
 45
0.0
 46
0.0
 47
0.0
 48
0.0
 71
               0
 72
               0
 73
               1
 74
               1
 75
               0
 76
               0
 77
               0
 78
               0
 79
               0
140
0.18
141
0.09
142
0.0
143
25.399999999999999
144
1.0
145
0.0
146
1.0
147
0.09
148
0.0
170
               0
171
               2
172
               0
173
               0
174
               0
175
               0
176
               0
177
               0
178
               0
179
               0
271
               4
272
               4
273
               2
274
               2
275
               0
276
               0
277
               2
278
              46
279
               0
280
               0
281
               0
282
               0
283
               1
284
               0
285
               0
286
               0
288
               0
289
               3
340
17
341
0
342
0
343
0
344
0
371
              -2
372
              -2
  0
DIMSTYLE
105
47
100
AcDbSymbolTableRecord
100
AcDbDimStyleTableRecord
  2
tfrom線あり
 70
               0
  3
<>
  4
[]
 40
1.0
 41
3.999755859375
 42
24.999999999999996
 43
0.9999999999999999
 44
0.0
 45
0.0
 46
0.0
 47
0.0
 48
0.0
 71
               0
 72
               0
 73
               0
 74
               0
 75
               0
 76
               0
 77
               1
 78
              11
 79
               0
140
24.432617187500004
141
0.0
142
0.0
143
1.0
144
1.0
145
0.0
146
1.0
147
0.4999999999999999
148
0.0
170
               0
171
               1
172
               0
173
               0
174
               1
175
               0
176
               0
177
               0
178
               0
179
               2
271
               1
272
               1
273
               2
274
               2
275
               0
276
               2
277
               2
278
              46
279
               0
280
               0
281
               0
282
               0
283
               1
284
              11
285
              11
286
              11
288
               0
289
               0
340
2C
341
3F
342
3F
343
0
344
0
371
              -2
372
              -2
  0
DIMSTYLE
105
4C
100
AcDbSymbolTableRecord
100
AcDbDimStyleTableRecord
  2
JIS
 70
               0
  3
<>
  4
[]
 40
1.0
 41
31.75
 42
0.0
 43
6.9999999999999396
 44
19.999999999996199
 45
0.0
 46
0.0
 47
0.0
 48
0.0
 71
               0
 72
               0
 73
               0
 74
               0
 75
               0
 76
               0
 77
               1
 78
              11
 79
               0
140
24.432617187500004
141
0.0
142
0.0
143
1.0
144
1.0
145
0.0
146
1.0
147
1.00000000000108
148
0.0
170
               0
171
               1
172
               0
173
               0
174
               1
175
               0
176
               0
177
               0
178
               0
179
               2
271
               1
272
               1
273
               2
274
               2
275
               0
276
               2
277
               2
278
              46
279
               0
280
               0
281
               0
282
               0
283
               1
284
              11
285
              11
286
              11
288
               0
289
               0
340
2C
341
48
342
48
343
0
344
0
371
              -2
372
              -2
  0
ENDTAB
  0
TABLE
  2
BLOCK_RECORD
  5
1
100
AcDbSymbolTable
 70
              11
  0
BLOCK_RECORD
  5
A
100
AcDbSymbolTableRecord
100
AcDbBlockTableRecord
  2
*MODEL_SPACE
340
20
  0
BLOCK_RECORD
  5
B
100
AcDbSymbolTableRecord
100
AcDbBlockTableRecord
  2
*PAPER_SPACE
340
21
  0
BLOCK_RECORD
  5
3F
100
AcDbSymbolTableRecord
100
AcDbBlockTableRecord
  2
_DOT
340
0
  0
BLOCK_RECORD
  5
48
100
AcDbSymbolTableRecord
100
AcDbBlockTableRecord
  2
VW_FILLEDARROW
340
0
  0
BLOCK_RECORD
  5
23
100
AcDbSymbolTableRecord
100
AcDbBlockTableRecord
  2
グループ
340
0
102
{BLKREFS
331
C5
102
}
  0
BLOCK_RECORD
  5
24
100
AcDbSymbolTableRecord
100
AcDbBlockTableRecord
  2
*D3
340
0
  0
BLOCK_RECORD
  5
25
100
AcDbSymbolTableRecord
100
AcDbBlockTableRecord
  2
*D4
340
0
  0
BLOCK_RECORD
  5
26
100
AcDbSymbolTableRecord
100
AcDbBlockTableRecord
  2
*D5
340
0
  0
BLOCK_RECORD
  5
27
100
AcDbSymbolTableRecord
100
AcDbBlockTableRecord
  2
*D6
340
0
  0
BLOCK_RECORD
  5
28
100
AcDbSymbolTableRecord
100
AcDbBlockTableRecord
  2
*D7
340
0
  0
BLOCK_RECORD
  5
29
100
AcDbSymbolTableRecord
100
AcDbBlockTableRecord
  2
*D8
340
0
  0
BLOCK_RECORD
  5
2A
100
AcDbSymbolTableRecord
100
AcDbBlockTableRecord
  2
*D9
340
0
  0
BLOCK_RECORD
  5
2B
100
AcDbSymbolTableRecord
100
AcDbBlockTableRecord
  2
*D10
340
0
  0
ENDTAB
  0
ENDSEC
  0
SECTION
  2
BLOCKS
  0
BLOCK
  5
D
100
AcDbEntity
  8
0
390
0
100
AcDbBlockBegin
  2
*MODEL_SPACE
 70
               0
 10
0.0
 20
0.0
 30
0.0
  3
*MODEL_SPACE
  1

  0
ENDBLK
  5
E
100
AcDbEntity
  8
0
390
0
100
AcDbBlockEnd
  0
BLOCK
  5
F
100
AcDbEntity
 67
               1
  8
0
390
0
100
AcDbBlockBegin
  2
*PAPER_SPACE
 70
               0
 10
0.0
 20
0.0
 30
0.0
  3
*PAPER_SPACE
  1

  0
ENDBLK
  5
10
100
AcDbEntity
 67
               1
  8
0
390
0
100
AcDbBlockEnd
  0
BLOCK
  5
40
100
AcDbEntity
  8
0
390
0
100
AcDbBlockBegin
  2
_DOT
 70
               0
 10
0.0
 20
0.0
 30
0.0
  3
_DOT
  1

  0
POLYLINE
  5
41
100
AcDbEntity
  8
0
370
              -2
390
0
  6
ByBlock
 62
               0
100
AcDb2dPolyline
 66
               1
 10
0.0
 20
0.0
 30
0.0
 70
               1
 40
0.5
 41
0.5
  0
VERTEX
  5
42
100
AcDbEntity
  8
0
370
              -2
390
0
  6
ByBlock
 62
               0
100
AcDbVertex
100
AcDb2dVertex
 10
-0.25
 20
0.0
 30
0.0
 42
1.0
  0
VERTEX
  5
43
100
AcDbEntity
  8
0
370
              -2
390
0
  6
ByBlock
 62
               0
100
AcDbVertex
100
AcDb2dVertex
 10
0.25
 20
0.0
 30
0.0
 42
1.0
  0
SEQEND
  5
44
100
AcDbEntity
  8
0
390
0
  0
LINE
  5
45
100
AcDbEntity
  8
0
370
              -2
390
0
  6
ByBlock
 62
               0
100
AcDbLine
 10
-0.5
 20
0.0
 30
0.0
 11
-1.0
 21
0.0
 31
0.0
  0
ENDBLK
  5
46
100
AcDbEntity
  8
0
390
0
100
AcDbBlockEnd
  0
BLOCK
  5
49
100
AcDbEntity
  8
0
370
              -2
390
0
  6
ByBlock
 62
               0
100
AcDbBlockBegin
  2
VW_FILLEDARROW
 70
               0
 10
0.0
 20
0.0
 30
0.0
  3
VW_FILLEDARROW
  1

  0
SOLID
  5
4A
100
AcDbEntity
  8
0
370
              -2
390
0
 62
               0
100
AcDbTrace
 10
0.0
 20
0.0
 30
0.0
 11
-0.9921874999999999
 21
-0.2658558393652545
 31
0.0
 12
-0.9921874999999999
 22
0.2658558393652548
 32
0.0
 13
-0.9921874999999999
 23
0.2658558393652548
 33
0.0
  0
ENDBLK
  5
4B
100
AcDbEntity
  8
0
390
0
100
AcDbBlockEnd
  0
BLOCK
  5
4D
100
AcDbEntity
  8
template
390
0
100
AcDbBlockBegin
  2
グループ
 70
               0
 10
0.0
 20
0.0
 30
0.0
  3
グループ
  1

  0
LWPOLYLINE
  5
4E
100
AcDbEntity
  8
0
370
              15
390
0
  6
Continuous
 62
               7
100
AcDbPolyline
 90
        8
 70
             129
 10
770.65889110385604
 20
-1485.7209037404298
 10
770.65889110385604
 20
-1491.7182924340057
 10
761.15769418585273
 20
-1491.7182924340057
 10
761.15769418585273
 20
-1516.1692556975145
 10
752.80231692406994
 20
-1516.1692556975145
 10
752.80231692406994
 20
-1491.7182924340057
 10
743.46935997776052
 20
-1491.7182924340057
 10
743.46935997776052
 20
-1485.7209037404298
  0
LWPOLYLINE
  5
4F
100
AcDbEntity
  8
0
370
              15
390
0
  6
Continuous
 62
               7
100
AcDbPolyline
 90
      101
 70
             128
 10
783.38718293441298
 20
-1486.4491522333662
 10
783.40253296319997
 20
-1486.4447914766806
 42
-0.0222221607813469
 10
783.69253753986914
 20
-1486.3761670114366
 10
783.70833130385654
 20
-1486.3731635883407
 42
-0.014688356558988
 10
783.97103400908691
 20
-1486.3311604013902
 42
-0.0127458844188229
 10
784.2356729762397
 20
-1486.3036234333179
 10
784.29812805455265
 20
-1486.2987300107295
 42
-0.0198099018568136
 10
784.68897716402751
 20
-1486.283644853333
 10
784.74078863347336
 20
-1486.2836986289981
 42
-0.0147617382762395
 10
785.23541209445273
 20
-1486.2988186542432
 10
785.30810354932783
 20
-1486.3031912611309
 42
-0.0162624549001662
 10
785.698257178787
 20
-1486.3394241364028
 10
785.81978957004083
 20
-1486.3547106953986
 42
-0.0080020874663517
 10
785.9653686011377
 20
-1486.3753935426678
 10
786.00368807172526
 20
-1486.3814648204775
 42
-0.0053821929668454
 10
786.07217217704761
 20
-1486.3930723443004
 10
785.345766477849
 20
-1488.5740008000143
 42
0.0108667757398477
 10
785.27844940771615
 20
-1488.5608136847941
 10
785.2409813845286
 20
-1488.5543159422
 42
0.017066320330951
 10
785.09776459761486
 20
-1488.5344863449084
 10
785.02988926493015
 20
-1488.5274391743208
 42
0.0220162375277914
 10
784.74950985707255
 20
-1488.5107568135506
 10
784.67165429002273
 20
-1488.5095574462841
 42
0.0282606915784415
 10
784.33601796644484
 20
-1488.5233607232531
 10
784.29210469266843
 20
-1488.5276607132571
 42
0.0169677213688831
 10
784.04618019771351
 20
-1488.5601977628089
 42
0.0190576269868849
 10
783.80327223513461
 20
-1488.610344634915
 10
783.79701304702269
 20
-1488.6118876090245
 42
0.0213685642844115
 10
783.54662856254242
 20
-1488.68508789413
 10
783.54113866762873
 20
-1488.6869508901882
 42
0.0237595297592639
 10
783.28764378272638
 20
-1488.7866354120854
 10
783.28254170870036
 20
-1488.788927187562
 42
0.026185746881127
 10
783.03037093247065
 20
-1488.9184635249362
 10
783.0199447433821
 20
-1488.9245289994055
 42
0.0272553062020485
 10
782.78351496814503
 20
-1489.0799012053494
 10
782.74875195463665
 20
-1489.1055623534407
 42
0.0325996893175533
 10
782.59859661098403
 20
-1489.2323102264129
 10
782.57488718185357
 20
-1489.2551282549327
 42
0.0138050960650729
 10
782.48300402565076
 20
-1489.3485779164776
 42
0.0125280103806412
 10
782.39616149281539
 20
-1489.4467412430795
 10
782.37248104790888
 20
-1489.4748997412648
 42
0.0205218024734237
 10
782.24738097239572
 20
-1489.6366930554932
 10
782.22491463190806
 20
-1489.6683527853208
 42
0.0163110129584124
 10
782.0692042526556
 20
-1489.9036832203926
 10
782.06648035660578
 20
-1489.9081069823762
 42
0.0131897341899926
 10
781.91967983570044
 20
-1490.1612390747396
 10
781.91797974033341
 20
-1490.1643573138763
 42
0.0107895576058128
 10
781.78020303812605
 20
-1490.4305725235042
 10
781.77947014859751
 20
-1490.4320667561581
 42
0.0091371507219019
 10
781.65099019994636
 20
-1490.7065919539216
 10
781.62124456853894
 20
-1490.7732984610766
 42
0.0135418326354308
 10
781.4495306294682
 20
-1491.1882362463427
 10
781.41592582103431
 20
-1491.276102388623
 42
0.0092834542413398
 10
781.24469676111198
 20
-1491.750000886932
 10
781.21907963339595
 20
-1491.8252419567204
 42
0.0054261043581274
 10
781.11144148510152
 20
-1492.1530059297902
 10
781.09391549889358
 20
-1492.2083940921166
 42
0.0008225090817689
 10
781.02524544709399
 20
-1492.4266628501696
 10
780.04055631516053
 20
-1495.4515541434262
 10
783.2731801552344
 20
-1495.4515541434262
 10
782.76898772538095
 20
-1497.3560324417786
 10
779.51293144339763
 20
-1497.3560324417786
 10
773.68378241104381
 20
-1516.1692555077834
 10
771.8586848007335
 20
-1516.1692555077834
 10
777.69336283623443
 20
-1497.3560324417786
 10
775.28824646719409
 20
-1497.3560324417786
 10
775.79243889704753
 20
-1495.4515541434262
 10
778.22098770799755
 20
-1495.4515541434262
 10
779.08114262618619
 20
-1492.8151411427273
 42
-0.0005863560632511
 10
779.1178773043913
 20
-1492.6983147224303
 10
779.19396513805009
 20
-1492.4573224230501
 42
-0.0087522378928993
 10
779.39343328150255
 20
-1491.8620463359161
 10
779.48569755692029
 20
-1491.6019061673908
 42
-0.0077400953830652
 10
779.74363121605154
 20
-1490.9089014898423
 10
779.7593961876297
 20
-1490.868470606458
 42
-0.0082369946330029
 10
780.00648065824237
 20
-1490.2643915402605
 42
-0.0085725238368375
 10
780.27372675423999
 20
-1489.6689655009848
 10
780.37535635525524
 20
-1489.452544398983
 42
-0.016810941059585
 10
780.66230078398257
 20
-1488.891336872884
 10
780.78814417440583
 20
-1488.6643728399511
 42
-0.0007817726860601
 10
780.84242852449825
 20
-1488.5668285948555
 10
780.84255683050367
 20
-1488.5665988861404
 42
-0.0036626142161008
 10
780.89744469453683
 20
-1488.4700010061506
 42
-0.008022115066324
 10
780.95456894994322
 20
-1488.3747217713983
 10
780.98526890130472
 20
-1488.3253308222756
 42
-0.0202139325583199
 10
781.11292464110943
 20
-1488.1373492215969
 10
781.16699210629906
 20
-1488.0642703573533
 42
-0.0249323791800383
 10
781.42615490001754
 20
-1487.7482251151996
 10
781.45029471414523
 20
-1487.7216108422863
 42
-0.0242132121535773
 10
781.78997545568939
 20
-1487.3817273560803
 10
781.83788702844197
 20
-1487.3382182198925
 42
-0.0251017527856949
 10
782.12186872907864
 20
-1487.1052254741317
 10
782.12331420589453
 20
-1487.104156216551
 42
-0.0130868069037966
 10
782.42157485584971
 20
-1486.8953757480101
 10
782.42313667499161
 20
-1486.8943423077355
 42
-0.0290329526393257
 10
782.73424781638573
 20
-1486.7135168061059
 10
782.76409337837356
 20
-1486.6984144232654
 42
-0.0160250190048859
 10
783.02999779213633
 20
-1486.5743983130528
 42
-0.0267600374782252
 10
783.30527386960296
 20
-1486.473649992505
 10
783.332009789126
 20
-1486.4654574336787
 42
-0.0049981587669956
 10
783.38718293441298
 20
-1486.4491522333662
 42
-0.0049981587669956
  0
LWPOLYLINE
  5
50
100
AcDbEntity
  8
0
370
              15
390
0
  6
Continuous
 62
               7
100
AcDbPolyline
 90
      118
 70
             128
 10
803.20155049885989
 20
-1495.5255374712535
 10
805.07667242335935
 20
-1495.5255374712535
 10
804.23863351775947
 20
-1498.2071039976536
 42
-0.0010587229224661
 10
804.27008933333366
 20
-1498.1701994642956
 10
804.32828342396328
 20
-1498.1022172081225
 42
-0.0071874740412505
 10
804.47865864205198
 20
-1497.9315765161041
 10
804.62038141532366
 20
-1497.7753403747802
 42
-0.014811805351286
 10
805.07051070803755
 20
-1497.3077265287661
 10
805.15773304294032
 20
-1497.2223292079116
 42
-0.0086273358688631
 10
805.49328184394653
 20
-1496.9049535738973
 10
805.53711556017242
 20
-1496.8649039295642
 42
-0.0103138323111432
 10
805.795139262406
 20
-1496.6387407922259
 10
805.84091366874236
 20
-1496.600258744958
 42
-0.0060206748562141
 10
806.0137617328453
 20
-1496.4584640942112
 10
806.01579286374522
 20
-1496.4568383885687
 42
-0.0067069027282645
 10
806.18808567839369
 20
-1496.322687754785
 10
806.19063444432879
 20
-1496.3207575849028
 42
-0.0076184352040178
 10
806.3615397101911
 20
-1496.1953827096659
 42
-0.0089652861679577
 10
806.53650067292119
 20
-1496.0757494493364
 10
806.57285239306918
 20
-1496.0518382358514
 42
-0.0156916245935819
 10
806.76881189023061
 20
-1495.931575749376
 42
-0.0023299011061086
 10
806.96907393421532
 20
-1495.8183978098325
 10
806.98445806659038
 20
-1495.8097978147705
 42
-0.0107669341492461
 10
807.21869489168841
 20
-1495.6853976814227
 10
807.24095969276664
 20
-1495.674180931471
 42
-0.0078058045900594
 10
807.52454981070798
 20
-1495.5368194758378
 10
807.53445689842852
 20
-1495.5322103479641
 42
-0.0181829330472113
 10
807.84476630304437
 20
-1495.4013466068684
 10
807.89882174560853
 20
-1495.3808314869259
 42
-0.0208411536029705
 10
808.24790671306107
 20
-1495.2647410244317
 10
808.26226281318975
 20
-1495.260622579478
 42
-0.0222799817135938
 10
808.59098260710584
 20
-1495.1819810133379
 10
808.5998715703422
 20
-1495.180269002753
 42
-0.0215509523884845
 10
808.91634253862253
 20
-1495.1333533142188
 10
808.95882449967394
 20
-1495.1289157874276
 42
-0.0182545924870484
 10
809.19293327897685
 20
-1495.1130719620369
 10
809.2323342953157
 20
-1495.111847416958
 42
-0.0072962856537711
 10
809.38825717501368
 20
-1495.1092780884355
 10
809.41735684558387
 20
-1495.1092232530318
 42
-0.0059227516310122
 10
809.51510634473073
 20
-1495.1101969648221
 10
809.54434856216767
 20
-1495.1108347314246
 42
-0.0011833111899743
 10
809.58359984593505
 20
-1495.1117837357356
 10
808.78821325032789
 20
-1497.6505176808346
 42
0.0143932051548186
 10
808.76181186797635
 20
-1497.640318710789
 10
808.75453989556001
 20
-1497.6377474919318
 42
0.0234388603513512
 10
808.71270902962374
 20
-1497.6251282562155
 10
808.7040273667152
 20
-1497.6229472942116
 42
0.019916274296397
 10
808.64373853263726
 20
-1497.6103305588767
 10
808.62292459482899
 20
-1497.606833359448
 42
0.029364355067766
 10
808.51984973606943
 20
-1497.595683313795
 10
808.49516455534945
 20
-1497.5944716967763
 42
0.0214606686870043
 10
808.34202363939903
 20
-1497.5935331363589
 10
808.33265172857909
 20
-1497.5938780479032
 42
0.0167564054183412
 10
808.16113153747256
 20
-1497.605955090271
 10
808.1526717447116
 20
-1497.6068364306984
 42
0.0137677553248503
 10
807.96531843144271
 20
-1497.6315857392424
 10
807.95796669193919
 20
-1497.6327636592098
 42
0.0118497261485078
 10
807.75746892783457
 20
-1497.6697810093995
 10
807.75131892059062
 20
-1497.671067872119
 42
0.0106421143892027
 10
807.54043803329978
 20
-1497.7199002476953
 10
807.53552922491644
 20
-1497.7211475903789
 42
0.0099746379701881
 10
807.31707075575048
 20
-1497.7813221186946
 10
807.25552271558377
 20
-1497.7996039973243
 42
0.0191613675862587
 10
806.9195382530678
 20
-1497.9135813776115
 10
806.83147848032445
 20
-1497.9472682879348
 42
0.0205274080145039
 10
806.44617170842207
 20
-1498.1130966957619
 10
806.38852242643941
 20
-1498.1407646603345
 42
0.0181256912194423
 10
806.130245485773
 20
-1498.276448479312
 10
806.0772901024601
 20
-1498.3067660925262
 42
0.0140709242409792
 10
805.93233516783062
 20
-1498.3952607659612
 10
805.90608629921087
 20
-1498.4123175846773
 42
0.0086667884383117
 10
805.81716013766959
 20
-1498.4723202525595
 42
0.0036408192027268
 10
805.72972689962899
 20
-1498.534501110357
 10
805.6945000251676
 20
-1498.5599420562646
 42
0.0052260781276836
 10
805.53827132776598
 20
-1498.6752744429068
 10
805.52206447151707
 20
-1498.6875025535169
 42
0.0050024435898358
 10
805.33606112845848
 20
-1498.8307851217789
 10
805.32074297194299
 20
-1498.8428311442249
 42
0.013613871027673
 10
805.11030170361812
 20
-1499.0177976491379
 10
805.07663382782403
 20
-1499.0473766218524
 42
0.0172815186913761
 10
804.81223028616023
 20
-1499.2963732944772
 10
804.80966794031906
 20
-1499.2989591116229
 42
0.0189403857990494
 10
804.5590861417445
 20
-1499.5717643764219
 10
804.52645464820262
 20
-1499.6101083079261
 42
0.0185044199513206
 10
804.33449820922385
 20
-1499.8533568890475
 42
0.0088565243897877
 10
804.15603810260359
 20
-1500.1068733091854
 10
804.14686012294692
 20
-1500.1204146889575
 42
0.0157195347231647
 10
803.96363951660851
 20
-1500.4099368982806
 10
803.91755657468536
 20
-1500.4880890952882
 42
0.0095451879782549
 10
803.75247102454432
 20
-1500.7806837376506
 10
803.74132310561288
 20
-1500.801354409786
 42
0.0100351706255624
 10
803.60927935645532
 20
-1501.0584099702733
 42
0.0086935915420574
 10
803.48694820466665
 20
-1501.320243115666
 10
803.48362746324688
 20
-1501.3276854386495
 42
0.0072580174868649
 10
803.36328101129834
 20
-1501.6082774302413
 10
803.36001937799551
 20
-1501.6161974562506
 42
0.0060005122615119
 10
803.24081870965153
 20
-1501.9158071268591
 10
803.2376077313113
 20
-1501.9241686547603
 42
0.0049017786978643
 10
803.1187075724481
 20
-1502.2430976353805
 10
803.11554176606342
 20
-1502.2518505725952
 42
0.0039415167601332
 10
802.99610548800172
 20
-1502.5903926350229
 10
802.9929743853545
 20
-1502.5994958358845
 42
0.0031035838763667
 10
802.87216959965872
 20
-1502.9579356976662
 10
802.86905955513112
 20
-1502.9673563190327
 42
0.0025070747152597
 10
802.74615820381064
 20
-1503.3460035359924
 10
802.70886430739029
 20
-1503.4628952012297
 42
0.0029081910284167
 10
802.5168460095847
 20
-1504.0770588595042
 10
802.47604284106251
 20
-1504.2102821017972
 42
0.0009266453734137
 10
802.20762546675678
 20
-1505.0925065616907
 10
802.18673799413193
 20
-1505.1616184408745
 42
-0.0005809993666427
 10
801.90940131351601
 20
-1506.0754265475957
 10
801.84311951525547
 20
-1506.2929114797146
 42
-0.0012018708170342
 10
801.69613520581379
 20
-1506.7710741442761
 10
801.64381535423536
 20
-1506.9398332851833
 42
-0.0002691059615933
 10
801.60024587307976
 20
-1507.0801009054837
 10
798.76728997479051
 20
-1516.1692555077834
 10
796.94930108281198
 20
-1516.1692555077834
 10
803.20155049885989
 20
-1495.5255374712535
  0
SPLINE
  5
51
100
AcDbEntity
  8
0
370
              15
390
0
  6
Continuous
 62
               7
100
AcDbSpline
210
0.0
220
0.0
230
1.0
 70
              13
 71
               2
 72
             782
 73
             779
 74
               0
 42
0.000001
 43
0.000001
 40
0.0
 40
0.0
 40
0.0
 40
1.0
 40
1.0
 40
2.0
 40
2.0
 40
3.0
 40
3.0
 40
4.0
 40
4.0
 40
5.0
 40
5.0
 40
6.0
 40
6.0
 40
7.0
 40
7.0
 40
8.0
 40
8.0
 40
9.0
 40
9.0
 40
10.0
 40
10.0
 40
11.0
 40
11.0
 40
12.0
 40
12.0
 40
13.0
 40
13.0
 40
14.0
 40
14.0
 40
15.0
 40
15.0
 40
16.0
 40
16.0
 40
17.0
 40
17.0
 40
18.0
 40
18.0
 40
19.0
 40
19.0
 40
20.0
 40
20.0
 40
21.0
 40
21.0
 40
22.0
 40
22.0
 40
23.0
 40
23.0
 40
24.0
 40
24.0
 40
25.0
 40
25.0
 40
26.0
 40
26.0
 40
27.0
 40
27.0
 40
28.0
 40
28.0
 40
29.0
 40
29.0
 40
30.0
 40
30.0
 40
31.0
 40
31.0
 40
32.0
 40
32.0
 40
33.0
 40
33.0
 40
34.0
 40
34.0
 40
35.0
 40
35.0
 40
36.0
 40
36.0
 40
37.0
 40
37.0
 40
38.0
 40
38.0
 40
39.0
 40
39.0
 40
40.0
 40
40.0
 40
41.0
 40
41.0
 40
42.0
 40
42.0
 40
43.0
 40
43.0
 40
44.0
 40
44.0
 40
45.0
 40
45.0
 40
46.0
 40
46.0
 40
47.0
 40
47.0
 40
48.0
 40
48.0
 40
49.0
 40
49.0
 40
50.0
 40
50.0
 40
51.0
 40
51.0
 40
52.0
 40
52.0
 40
53.0
 40
53.0
 40
54.0
 40
54.0
 40
55.0
 40
55.0
 40
56.0
 40
56.0
 40
57.0
 40
57.0
 40
58.0
 40
58.0
 40
59.0
 40
59.0
 40
60.0
 40
60.0
 40
61.0
 40
61.0
 40
62.0
 40
62.0
 40
63.0
 40
63.0
 40
64.0
 40
64.0
 40
65.0
 40
65.0
 40
66.0
 40
66.0
 40
67.0
 40
67.0
 40
68.0
 40
68.0
 40
69.0
 40
69.0
 40
70.0
 40
70.0
 40
71.0
 40
71.0
 40
72.0
 40
72.0
 40
73.0
 40
73.0
 40
74.0
 40
74.0
 40
75.0
 40
75.0
 40
76.0
 40
76.0
 40
77.0
 40
77.0
 40
78.0
 40
78.0
 40
79.0
 40
79.0
 40
80.0
 40
80.0
 40
81.0
 40
81.0
 40
82.0
 40
82.0
 40
83.0
 40
83.0
 40
84.0
 40
84.0
 40
85.0
 40
85.0
 40
86.0
 40
86.0
 40
87.0
 40
87.0
 40
88.0
 40
88.0
 40
89.0
 40
89.0
 40
90.0
 40
90.0
 40
91.0
 40
91.0
 40
92.0
 40
92.0
 40
93.0
 40
93.0
 40
94.0
 40
94.0
 40
95.0
 40
95.0
 40
96.0
 40
96.0
 40
97.0
 40
97.0
 40
98.0
 40
98.0
 40
99.0
 40
99.0
 40
100.0
 40
100.0
 40
101.0
 40
101.0
 40
102.0
 40
102.0
 40
103.0
 40
103.0
 40
104.0
 40
104.0
 40
105.0
 40
105.0
 40
106.0
 40
106.0
 40
107.0
 40
107.0
 40
108.0
 40
108.0
 40
109.0
 40
109.0
 40
110.0
 40
110.0
 40
111.0
 40
111.0
 40
112.0
 40
112.0
 40
113.0
 40
113.0
 40
114.0
 40
114.0
 40
115.0
 40
115.0
 40
116.0
 40
116.0
 40
117.0
 40
117.0
 40
118.0
 40
118.0
 40
119.0
 40
119.0
 40
120.0
 40
120.0
 40
121.0
 40
121.0
 40
122.0
 40
122.0
 40
123.0
 40
123.0
 40
124.0
 40
124.0
 40
125.0
 40
125.0
 40
126.0
 40
126.0
 40
127.0
 40
127.0
 40
128.0
 40
128.0
 40
129.0
 40
129.0
 40
130.0
 40
130.0
 40
131.0
 40
131.0
 40
132.0
 40
132.0
 40
133.0
 40
133.0
 40
134.0
 40
134.0
 40
135.0
 40
135.0
 40
136.0
 40
136.0
 40
137.0
 40
137.0
 40
138.0
 40
138.0
 40
139.0
 40
139.0
 40
140.0
 40
140.0
 40
141.0
 40
141.0
 40
142.0
 40
142.0
 40
143.0
 40
143.0
 40
144.0
 40
144.0
 40
145.0
 40
145.0
 40
146.0
 40
146.0
 40
147.0
 40
147.0
 40
148.0
 40
148.0
 40
149.0
 40
149.0
 40
150.0
 40
150.0
 40
151.0
 40
151.0
 40
152.0
 40
152.0
 40
153.0
 40
153.0
 40
154.0
 40
154.0
 40
155.0
 40
155.0
 40
156.0
 40
156.0
 40
157.0
 40
157.0
 40
158.0
 40
158.0
 40
159.0
 40
159.0
 40
160.0
 40
160.0
 40
161.0
 40
161.0
 40
162.0
 40
162.0
 40
163.0
 40
163.0
 40
164.0
 40
164.0
 40
165.0
 40
165.0
 40
166.0
 40
166.0
 40
167.0
 40
167.0
 40
168.0
 40
168.0
 40
169.0
 40
169.0
 40
170.0
 40
170.0
 40
171.0
 40
171.0
 40
172.0
 40
172.0
 40
173.0
 40
173.0
 40
174.0
 40
174.0
 40
175.0
 40
175.0
 40
176.0
 40
176.0
 40
177.0
 40
177.0
 40
178.0
 40
178.0
 40
179.0
 40
179.0
 40
180.0
 40
180.0
 40
181.0
 40
181.0
 40
182.0
 40
182.0
 40
183.0
 40
183.0
 40
184.0
 40
184.0
 40
185.0
 40
185.0
 40
186.0
 40
186.0
 40
187.0
 40
187.0
 40
188.0
 40
188.0
 40
189.0
 40
189.0
 40
190.0
 40
190.0
 40
191.0
 40
191.0
 40
192.0
 40
192.0
 40
193.0
 40
193.0
 40
194.0
 40
194.0
 40
195.0
 40
195.0
 40
196.0
 40
196.0
 40
197.0
 40
197.0
 40
198.0
 40
198.0
 40
199.0
 40
199.0
 40
200.0
 40
200.0
 40
201.0
 40
201.0
 40
202.0
 40
202.0
 40
203.0
 40
203.0
 40
204.0
 40
204.0
 40
205.0
 40
205.0
 40
206.0
 40
206.0
 40
207.0
 40
207.0
 40
208.0
 40
208.0
 40
209.0
 40
209.0
 40
210.0
 40
210.0
 40
211.0
 40
211.0
 40
212.0
 40
212.0
 40
213.0
 40
213.0
 40
214.0
 40
214.0
 40
215.0
 40
215.0
 40
216.0
 40
216.0
 40
217.0
 40
217.0
 40
218.0
 40
218.0
 40
219.0
 40
219.0
 40
220.0
 40
220.0
 40
221.0
 40
221.0
 40
222.0
 40
222.0
 40
223.0
 40
223.0
 40
224.0
 40
224.0
 40
225.0
 40
225.0
 40
226.0
 40
226.0
 40
227.0
 40
227.0
 40
228.0
 40
228.0
 40
229.0
 40
229.0
 40
230.0
 40
230.0
 40
231.0
 40
231.0
 40
232.0
 40
232.0
 40
233.0
 40
233.0
 40
234.0
 40
234.0
 40
235.0
 40
235.0
 40
236.0
 40
236.0
 40
237.0
 40
237.0
 40
238.0
 40
238.0
 40
239.0
 40
239.0
 40
240.0
 40
240.0
 40
241.0
 40
241.0
 40
242.0
 40
242.0
 40
243.0
 40
243.0
 40
244.0
 40
244.0
 40
245.0
 40
245.0
 40
246.0
 40
246.0
 40
247.0
 40
247.0
 40
248.0
 40
248.0
 40
249.0
 40
249.0
 40
250.0
 40
250.0
 40
251.0
 40
251.0
 40
252.0
 40
252.0
 40
253.0
 40
253.0
 40
254.0
 40
254.0
 40
255.0
 40
255.0
 40
256.0
 40
256.0
 40
257.0
 40
257.0
 40
258.0
 40
258.0
 40
259.0
 40
259.0
 40
260.0
 40
260.0
 40
261.0
 40
261.0
 40
262.0
 40
262.0
 40
263.0
 40
263.0
 40
264.0
 40
264.0
 40
265.0
 40
265.0
 40
266.0
 40
266.0
 40
267.0
 40
267.0
 40
268.0
 40
268.0
 40
269.0
 40
269.0
 40
270.0
 40
270.0
 40
271.0
 40
271.0
 40
272.0
 40
272.0
 40
273.0
 40
273.0
 40
274.0
 40
274.0
 40
275.0
 40
275.0
 40
276.0
 40
276.0
 40
277.0
 40
277.0
 40
278.0
 40
278.0
 40
279.0
 40
279.0
 40
280.0
 40
280.0
 40
281.0
 40
281.0
 40
282.0
 40
282.0
 40
283.0
 40
283.0
 40
284.0
 40
284.0
 40
285.0
 40
285.0
 40
286.0
 40
286.0
 40
287.0
 40
287.0
 40
288.0
 40
288.0
 40
289.0
 40
289.0
 40
290.0
 40
290.0
 40
291.0
 40
291.0
 40
292.0
 40
292.0
 40
293.0
 40
293.0
 40
294.0
 40
294.0
 40
295.0
 40
295.0
 40
296.0
 40
296.0
 40
297.0
 40
297.0
 40
298.0
 40
298.0
 40
299.0
 40
299.0
 40
300.0
 40
300.0
 40
301.0
 40
301.0
 40
302.0
 40
302.0
 40
303.0
 40
303.0
 40
304.0
 40
304.0
 40
305.0
 40
305.0
 40
306.0
 40
306.0
 40
307.0
 40
307.0
 40
308.0
 40
308.0
 40
309.0
 40
309.0
 40
310.0
 40
310.0
 40
311.0
 40
311.0
 40
312.0
 40
312.0
 40
313.0
 40
313.0
 40
314.0
 40
314.0
 40
315.0
 40
315.0
 40
316.0
 40
316.0
 40
317.0
 40
317.0
 40
318.0
 40
318.0
 40
319.0
 40
319.0
 40
320.0
 40
320.0
 40
321.0
 40
321.0
 40
322.0
 40
322.0
 40
323.0
 40
323.0
 40
324.0
 40
324.0
 40
325.0
 40
325.0
 40
326.0
 40
326.0
 40
327.0
 40
327.0
 40
328.0
 40
328.0
 40
329.0
 40
329.0
 40
330.0
 40
330.0
 40
331.0
 40
331.0
 40
332.0
 40
332.0
 40
333.0
 40
333.0
 40
334.0
 40
334.0
 40
335.0
 40
335.0
 40
336.0
 40
336.0
 40
337.0
 40
337.0
 40
338.0
 40
338.0
 40
339.0
 40
339.0
 40
340.0
 40
340.0
 40
341.0
 40
341.0
 40
342.0
 40
342.0
 40
343.0
 40
343.0
 40
344.0
 40
344.0
 40
345.0
 40
345.0
 40
346.0
 40
346.0
 40
347.0
 40
347.0
 40
348.0
 40
348.0
 40
349.0
 40
349.0
 40
350.0
 40
350.0
 40
351.0
 40
351.0
 40
352.0
 40
352.0
 40
353.0
 40
353.0
 40
354.0
 40
354.0
 40
355.0
 40
355.0
 40
356.0
 40
356.0
 40
357.0
 40
357.0
 40
358.0
 40
358.0
 40
359.0
 40
359.0
 40
360.0
 40
360.0
 40
361.0
 40
361.0
 40
362.0
 40
362.0
 40
363.0
 40
363.0
 40
364.0
 40
364.0
 40
365.0
 40
365.0
 40
366.0
 40
366.0
 40
367.0
 40
367.0
 40
368.0
 40
368.0
 40
369.0
 40
369.0
 40
370.0
 40
370.0
 40
371.0
 40
371.0
 40
372.0
 40
372.0
 40
373.0
 40
373.0
 40
374.0
 40
374.0
 40
375.0
 40
375.0
 40
376.0
 40
376.0
 40
377.0
 40
377.0
 40
378.0
 40
378.0
 40
379.0
 40
379.0
 40
380.0
 40
380.0
 40
381.0
 40
381.0
 40
382.0
 40
382.0
 40
383.0
 40
383.0
 40
384.0
 40
384.0
 40
385.0
 40
385.0
 40
386.0
 40
386.0
 40
387.0
 40
387.0
 40
388.0
 40
388.0
 40
389.0
 40
389.0
 40
389.0
 10
813.53025494959252
 20
-1495.5146111078911
 30
0.0
 41
1.0
 10
814.348679058313
 20
-1495.5146111078911
 30
0.0
 41
1.0
 10
815.16710316703347
 20
-1495.5146111078911
 30
0.0
 41
1.0
 10
814.75334943151665
 20
-1496.8572373721408
 30
0.0
 41
1.0
 10
814.33959569599995
 20
-1498.1998636363905
 30
0.0
 41
1.0
 10
814.35793519118624
 20
-1498.1711628634505
 30
0.0
 41
0.9999957264383366
 10
814.37644218803609
 20
-1498.1425698132703
 30
0.0
 41
1.0
 10
814.40687151215457
 20
-1498.0955569349235
 30
0.0
 41
1.0
 10
814.43730083627315
 20
-1498.0485440565767
 30
0.0
 41
1.0
 10
814.51666648137984
 20
-1497.9259252496727
 30
0.0
 41
0.9995394069081764
 10
814.60332487293442
 20
-1497.8083471879272
 30
0.0
 41
1.0
 10
814.63908173519417
 20
-1497.759832295334
 30
0.0
 41
1.0
 10
814.6748385974538
 20
-1497.7113174027406
 30
0.0
 41
1.0
 10
814.80856526526941
 20
-1497.5298771276173
 30
0.0
 41
0.9994460617143105
 10
814.95406574655692
 20
-1497.3577347299683
 30
0.0
 41
1.0
 10
814.95845392753199
 20
-1497.3525430495856
 30
0.0
 41
1.0
 10
814.96284210850706
 20
-1497.3473513692031
 30
0.0
 41
1.0
 10
815.09956622784591
 20
-1497.1855923323176
 30
0.0
 41
0.9994359394934497
 10
815.24684045819617
 20
-1497.033376131154
 30
0.0
 41
1.0
 10
815.24922381215049
 20
-1497.0309128007798
 30
0.0
 41
1.0
 10
815.2516071661048
 20
-1497.0284494704056
 30
0.0
 41
1.0
 10
815.39411468854723
 20
-1496.8811599299897
 30
0.0
 41
0.9995293688568038
 10
815.54538636952987
 20
-1496.7428867178251
 30
0.0
 41
1.0
 10
815.56468012878622
 20
-1496.7252508321803
 30
0.0
 41
1.0
 10
815.58397388804269
 20
-1496.7076149465354
 30
0.0
 41
1.0
 10
815.69665805050556
 20
-1496.6046135056663
 30
0.0
 41
0.9997087614803524
 10
815.81418093946695
 20
-1496.5071692248632
 30
0.0
 41
1.0
 10
815.8333470126372
 20
-1496.4912776463595
 30
0.0
 41
1.0
 10
815.85251308580757
 20
-1496.4753860678559
 30
0.0
 41
1.0
 10
815.93170382841367
 20
-1496.409724944072
 30
0.0
 41
0.999959533869184
 10
816.01206309927716
 20
-1496.3454992134102
 30
0.0
 41
1.0
 10
816.09242237014814
 20
-1496.281273482743
 30
0.0
 41
0.9999749417500464
 10
816.17368290450156
 20
-1496.2181919287891
 30
0.0
 41
1.0
 10
816.19466905065451
 20
-1496.2019006414948
 30
0.0
 41
1.0
 10
816.21565519680735
 20
-1496.1856093542006
 30
0.0
 41
1.0
 10
816.30022308210653
 20
-1496.1199603443617
 30
0.0
 41
0.9999792037126091
 10
816.38563068187818
 20
-1496.0554075627165
 30
0.0
 41
1.0
 10
816.40645550777458
 20
-1496.0396677404701
 30
0.0
 41
1.0
 10
816.42728033367086
 20
-1496.0239279182238
 30
0.0
 41
1.0
 10
816.47103828162744
 20
-1495.990854781088
 30
0.0
 41
0.9999993373998712
 10
816.51471996779094
 20
-1495.9576809856487
 30
0.0
 41
1.0
 10
816.55840165393101
 20
-1495.9245071902269
 30
0.0
 41
0.99991609538142
 10
816.60292806485199
 20
-1495.8924761250278
 30
0.0
 41
1.0
 10
816.63574995227236
 20
-1495.8688649694423
 30
0.0
 41
1.0
 10
816.66857183969273
 20
-1495.8452538138567
 30
0.0
 41
1.0
 10
816.77874202545183
 20
-1495.7660004374884
 30
0.0
 41
0.998096452723149
 10
816.89783101895239
 20
-1495.7009129646326
 30
0.0
 41
1.0
 10
816.93486362588044
 20
-1495.6806729850396
 30
0.0
 41
1.0
 10
816.97189623280849
 20
-1495.6604330054463
 30
0.0
 41
1.0
 10
817.15122324608092
 20
-1495.5624227547453
 30
0.0
 41
0.9984572810572554
 10
817.34031181243995
 20
-1495.484900493399
 30
0.0
 41
1.0
 10
817.34395808183581
 20
-1495.4834056010609
 30
0.0
 41
1.0
 10
817.34760435123167
 20
-1495.481910708723
 30
0.0
 41
1.0
 10
817.52940037879887
 20
-1495.4073782320525
 30
0.0
 41
0.9987838528034106
 10
817.7176530373581
 20
-1495.3511125918867
 30
0.0
 41
1.0
 10
817.72189098655747
 20
-1495.3498459381963
 30
0.0
 41
1.0
 10
817.72612893575683
 20
-1495.3485792845058
 30
0.0
 41
1.0
 10
817.90590569591814
 20
-1495.2948469517207
 30
0.0
 41
0.9990652816207474
 10
818.0896516276332
 20
-1495.2568432721789
 30
0.0
 41
1.0
 10
818.09484002866645
 20
-1495.2557701690721
 30
0.0
 41
1.0
 10
818.10002842969971
 20
-1495.254697065965
 30
0.0
 41
1.0
 10
818.273397559351
 20
-1495.2188395926366
 30
0.0
 41
0.999290993427066
 10
818.4489733258074
 20
-1495.1961291601704
 30
0.0
 41
1.0
 10
818.62454909226631
 20
-1495.1734187277038
 30
0.0
 41
0.9994553539448934
 10
818.80124052535973
 20
-1495.1623394234975
 30
0.0
 41
1.0
 10
818.83667493315409
 20
-1495.1601175354499
 30
0.0
 41
1.0
 10
818.87210934094844
 20
-1495.157895647402
 30
0.0
 41
1.0
 10
819.03833510751906
 20
-1495.1474725849903
 30
0.0
 41
0.9990928098293084
 10
819.20484489942214
 20
-1495.1512322262247
 30
0.0
 41
1.0
 10
819.24340673469078
 20
-1495.1521029177575
 30
0.0
 41
1.0
 10
819.2819685699593
 20
-1495.1529736092905
 30
0.0
 41
1.0
 10
819.3713546913217
 20
-1495.1549918674591
 30
0.0
 41
0.9998382089206097
 10
819.46061037411107
 20
-1495.1602239939875
 30
0.0
 41
1.0
 10
819.46104028033244
 20
-1495.1602491948897
 30
0.0
 41
1.0
 10
819.46147018655381
 20
-1495.1602743957922
 30
0.0
 41
1.0
 10
819.54986605689885
 20
-1495.1654561205157
 30
0.0
 41
0.9997558016758639
 10
819.63794663409806
 20
-1495.1745386358821
 30
0.0
 41
1.0
 10
819.63842277253002
 20
-1495.1745877333649
 30
0.0
 41
1.0
 10
819.6388989109621
 20
-1495.1746368308477
 30
0.0
 41
1.0
 10
819.72602721130124
 20
-1495.1836211512489
 30
0.0
 41
0.9996565144181494
 10
819.81256506464092
 20
-1495.1971584579373
 30
0.0
 41
1.0
 10
819.81303099001912
 20
-1495.1972313436688
 30
0.0
 41
1.0
 10
819.81349691539742
 20
-1495.1973042294003
 30
0.0
 41
1.0
 10
819.89910291798412
 20
-1495.2106957646267
 30
0.0
 41
0.9995321806867585
 10
819.98372999831099
 20
-1495.2292962530557
 30
0.0
 41
1.0
 10
819.98411919288196
 20
-1495.2293817955215
 30
0.0
 41
1.0
 10
819.98450838745305
 20
-1495.2294673379872
 30
0.0
 41
1.0
 10
820.0683570786382
 20
-1495.2478967414847
 30
0.0
 41
0.9993819199218783
 10
820.15070361283517
 20
-1495.2721721247458
 30
0.0
 41
1.0
 10
820.15094204633408
 20
-1495.2722424138556
 30
0.0
 41
1.0
 10
820.15118047983299
 20
-1495.2723127029651
 30
0.0
 41
1.0
 10
820.23305014703271
 20
-1495.2964475080068
 30
0.0
 41
0.9992088568504879
 10
820.31274266601963
 20
-1495.3270127438009
 30
0.0
 41
1.0
 10
820.39242365689859
 20
-1495.357572344534
 30
0.0
 41
0.9990226101773193
 10
820.46909432680582
 20
-1495.3950497761484
 30
0.0
 41
1.0
 10
820.54575346860554
 20
-1495.4325215727029
 30
0.0
 41
0.9988424273973267
 10
820.6184570958186
 20
-1495.4771863479564
 30
0.0
 41
1.0
 10
820.61872480419675
 20
-1495.4773508120279
 30
0.0
 41
1.0
 10
820.61899251257489
 20
-1495.4775152760994
 30
0.0
 41
1.0
 10
820.69223155654572
 20
-1495.5225089794967
 30
0.0
 41
0.9986928844490611
 10
820.76049442325564
 20
-1495.5747447137765
 30
0.0
 41
1.0
 10
820.76107571547846
 20
-1495.5751895270043
 30
0.0
 41
1.0
 10
820.76165700770116
 20
-1495.5756343402322
 30
0.0
 41
1.0
 10
820.83108245885649
 20
-1495.6287597009677
 30
0.0
 41
0.998600726227814
 10
820.89450862862327
 20
-1495.6889204706613
 30
0.0
 41
1.0
 10
820.89540304408047
 20
-1495.6897688384963
 30
0.0
 41
1.0
 10
820.89629745953755
 20
-1495.6906172063314
 30
0.0
 41
1.0
 10
820.96151246021839
 20
-1495.7524747116945
 30
0.0
 41
0.9985581491380237
 10
821.01972007191978
 20
-1495.8209672019659
 30
0.0
 41
1.0
 10
821.02897852551587
 20
-1495.8318615596681
 30
0.0
 41
1.0
 10
821.03823697911207
 20
-1495.8427559173701
 30
0.0
 41
1.0
 10
821.11496149800575
 20
-1495.9330371230458
 30
0.0
 41
0.9970460233520462
 10
821.17695339916497
 20
-1496.0340042072273
 30
0.0
 41
1.0
 10
821.19142276424441
 20
-1496.0575706663085
 30
0.0
 41
1.0
 10
821.20589212932396
 20
-1496.0811371253894
 30
0.0
 41
1.0
 10
821.24562882933651
 20
-1496.145856849422
 30
0.0
 41
0.9988468816637112
 10
821.27897520008753
 20
-1496.2140893018486
 30
0.0
 41
1.0
 10
821.28601122257885
 20
-1496.2284862229858
 30
0.0
 41
1.0
 10
821.29304724507017
 20
-1496.242883144123
 30
0.0
 41
1.0
 10
821.31232157084003
 20
-1496.2823217542782
 30
0.0
 41
0.999843118999808
 10
821.33018689833398
 20
-1496.322418308717
 30
0.0
 41
1.0
 10
821.34805222584896
 20
-1496.3625148632027
 30
0.0
 41
0.9999989989840399
 10
821.36603094926693
 20
-1496.402560700777
 30
0.0
 41
1.0
 10
821.37220326085321
 20
-1496.416308917572
 30
0.0
 41
1.0
 10
821.3783755724395
 20
-1496.430057134367
 30
0.0
 41
1.0
 10
821.40869891904958
 20
-1496.4975994055753
 30
0.0
 41
0.9998790356320926
 10
821.43690679918757
 20
-1496.5660521575123
 30
0.0
 41
1.0
 10
821.44374198047217
 20
-1496.5826392589406
 30
0.0
 41
1.0
 10
821.45057716175688
 20
-1496.5992263603689
 30
0.0
 41
1.0
 10
821.47413482413799
 20
-1496.6563943152562
 30
0.0
 41
0.9998227574561142
 10
821.49552357252617
 20
-1496.7144086235307
 30
0.0
 41
1.0
 10
821.51691232091628
 20
-1496.7724229318105
 30
0.0
 41
0.9996797971041326
 10
821.53533860587606
 20
-1496.8314450509308
 30
0.0
 41
1.0
 10
821.53924240860101
 20
-1496.8439495090975
 30
0.0
 41
1.0
 10
821.54314621132585
 20
-1496.8564539672643
 30
0.0
 41
1.0
 10
821.56938010173587
 20
-1496.9404850027197
 30
0.0
 41
0.9979274938735095
 10
821.58460462521498
 20
-1497.027189361379
 30
0.0
 41
1.0
 10
821.5868283124762
 20
-1497.0398533622001
 30
0.0
 41
1.0
 10
821.58905199973731
 20
-1497.052517363021
 30
0.0
 41
1.0
 10
821.59998193943545
 20
-1497.1147638703105
 30
0.0
 41
0.9994985982137722
 10
821.60695010461291
 20
-1497.1775773714553
 30
0.0
 41
1.0
 10
821.61391826979002
 20
-1497.2403908725996
 30
0.0
 41
0.9996372611202034
 10
821.61749413555765
 20
-1497.3034884512804
 30
0.0
 41
1.0
 10
821.61766271304691
 20
-1497.3064630683621
 30
0.0
 41
1.0
 10
821.61783129053617
 20
-1497.3094376854438
 30
0.0
 41
1.0
 10
821.62174431128244
 20
-1497.3784844982929
 30
0.0
 41
0.9997730630736854
 10
821.62271262477077
 20
-1497.4476353223297
 30
0.0
 41
1.0
 10
821.62276973118878
 20
-1497.4517135014687
 30
0.0
 41
1.0
 10
821.62282683760691
 20
-1497.4557916806077
 30
0.0
 41
1.0
 10
821.62390936393092
 20
-1497.5330988629285
 30
0.0
 41
0.9998772614073372
 10
821.62256927719932
 20
-1497.6104020094956
 30
0.0
 41
1.0
 10
821.62248001400064
 20
-1497.6155511733277
 30
0.0
 41
1.0
 10
821.62239075080197
 20
-1497.6207003371599
 30
0.0
 41
1.0
 10
821.62087213767279
 20
-1497.7083018113917
 30
0.0
 41
0.9999415567324824
 10
821.61745982742696
 20
-1497.7958499730642
 30
0.0
 41
1.0
 10
821.61721850675156
 20
-1497.8020414328039
 30
0.0
 41
1.0
 10
821.61697718607616
 20
-1497.8082328925439
 30
0.0
 41
1.0
 10
821.61308223447941
 20
-1497.9081639736964
 30
0.0
 41
0.9999716810429802
 10
821.60768365136153
 20
-1498.0080251119109
 30
0.0
 41
1.0
 10
821.60447085257238
 20
-1498.0674543615764
 30
0.0
 41
1.0
 10
821.60125805378311
 20
-1498.126883611242
 30
0.0
 41
1.0
 10
821.59318414463053
 20
-1498.2762320125205
 30
0.0
 41
0.9999819129900224
 10
821.5833143530142
 20
-1498.4254724902294
 30
0.0
 41
1.0
 10
821.57344456139754
 20
-1498.5747129679407
 30
0.0
 41
1.0
 10
821.57100524083364
 20
-1498.6119060137901
 30
0.0
 41
1.0
 10
821.59370347465256
 20
-1498.5731650164812
 30
0.0
 41
0.9999982128210716
 10
821.616548033404
 20
-1498.5345101225296
 30
0.0
 41
1.0
 10
821.64345759329694
 20
-1498.4889769084607
 30
0.0
 41
1.0
 10
821.67036715318977
 20
-1498.443443694392
 30
0.0
 41
1.0
 10
821.74703083171448
 20
-1498.3137223723243
 30
0.0
 41
0.9998609190057144
 10
821.82797814457888
 20
-1498.1866299903904
 30
0.0
 41
1.0
 10
821.85762646606145
 20
-1498.1400802574317
 30
0.0
 41
1.0
 10
821.88727478754413
 20
-1498.0935305244732
 30
0.0
 41
1.0
 10
821.96954700777997
 20
-1497.9643579544804
 30
0.0
 41
0.9999067609734058
 10
822.05531601724192
 20
-1497.8374802650424
 30
0.0
 41
1.0
 10
822.05772072043965
 20
-1497.8339229989922
 30
0.0
 41
1.0
 10
822.06012542363737
 20
-1497.830365732942
 30
0.0
 41
1.0
 10
822.14108502670206
 20
-1497.7106025756066
 30
0.0
 41
0.9998784952148435
 10
822.2257386363874
 20
-1497.5934213588921
 30
0.0
 41
1.0
 10
822.31039224606786
 20
-1497.4762401421845
 30
0.0
 41
0.9998532968285169
 10
822.3990098668927
 20
-1497.3620272337114
 30
0.0
 41
1.0
 10
822.41897165588398
 20
-1497.3362999126912
 30
0.0
 41
1.0
 10
822.43893344487526
 20
-1497.3105725916707
 30
0.0
 41
1.0
 10
822.55741749463391
 20
-1497.1578669807025
 30
0.0
 41
0.9991551975795572
 10
822.68804194425593
 20
-1497.0154074186207
 30
0.0
 41
1.0
 10
822.69155156023101
 20
-1497.0115798170013
 30
0.0
 41
1.0
 10
822.69506117620608
 20
-1497.0077522153822
 30
0.0
 41
1.0
 10
822.81866639387442
 20
-1496.8729478565424
 30
0.0
 41
0.9997418144179869
 10
822.94826853358018
 20
-1496.7438984459247
 30
0.0
 41
1.0
 10
823.0778706732799
 20
-1496.614849035313
 30
0.0
 41
0.9989238204633559
 10
823.21887322152998
 20
-1496.4983640732748
 30
0.0
 41
1.0
 10
823.26412089967039
 20
-1496.4609840816654
 30
0.0
 41
1.0
 10
823.3093685778108
 20
-1496.423604090056
 30
0.0
 41
1.0
 10
823.44960863503275
 20
-1496.3077490367646
 30
0.0
 41
0.9990825084096562
 10
823.59924856763621
 20
-1496.2043200389321
 30
0.0
 41
1.0
 10
823.60929393168908
 20
-1496.1973768258554
 30
0.0
 41
1.0
 10
823.61933929574207
 20
-1496.1904336127786
 30
0.0
 41
1.0
 10
823.74888850023603
 20
-1496.1008910411017
 30
0.0
 41
0.9998164899827338
 10
823.88177270361643
 20
-1496.0163767995828
 30
0.0
 41
1.0
 10
823.89361826414472
 20
-1496.0088430330557
 30
0.0
 41
1.0
 10
823.90546382467301
 20
-1496.0013092665283
 30
0.0
 41
1.0
 10
824.01465690699547
 20
-1495.9318625580647
 30
0.0
 41
0.9997473449130947
 10
824.12686086424219
 20
-1495.8673936002506
 30
0.0
 41
1.0
 10
824.23906482148891
 20
-1495.8029246424362
 30
0.0
 41
0.999932786114313
 10
824.35273343224696
 20
-1495.7410746507578
 30
0.0
 41
1.0
 10
824.35328543481171
 20
-1495.7407742920764
 30
0.0
 41
1.0
 10
824.35383743737646
 20
-1495.7404739333952
 30
0.0
 41
1.0
 10
824.46861005326343
 20
-1495.6780232243543
 30
0.0
 41
0.9996956420483564
 10
824.58632337910353
 20
-1495.6213097573798
 30
0.0
 41
1.0
 10
824.61676378399579
 20
-1495.6066437806498
 30
0.0
 41
1.0
 10
824.64720418888805
 20
-1495.5919778039201
 30
0.0
 41
1.0
 10
824.75018129563136
 20
-1495.542364145477
 30
0.0
 41
0.999807057017619
 10
824.85502768457172
 20
-1495.4968335585763
 30
0.0
 41
1.0
 10
824.95987407351083
 20
-1495.4513029716759
 30
0.0
 41
0.999782743614792
 10
825.0665270101166
 20
-1495.4101818003655
 30
0.0
 41
1.0
 10
825.08574985975088
 20
-1495.4027702267322
 30
0.0
 41
1.0
 10
825.10497270938527
 20
-1495.3953586530986
 30
0.0
 41
1.0
 10
825.25007134525902
 20
-1495.3394143345215
 30
0.0
 41
0.9988031841976913
 10
825.3999417078652
 20
-1495.2979142703534
 30
0.0
 41
1.0
 10
825.42485895622895
 20
-1495.2910145245464
 30
0.0
 41
1.0
 10
825.44977620459258
 20
-1495.2841147787394
 30
0.0
 41
1.0
 10
825.6170462302382
 20
-1495.2377966363333
 30
0.0
 41
0.9984748040550373
 10
825.78840313888531
 20
-1495.2102024040687
 30
0.0
 41
1.0
 10
825.7931422751326
 20
-1495.2094392435556
 30
0.0
 41
1.0
 10
825.79788141137999
 20
-1495.2086760830423
 30
0.0
 41
1.0
 10
825.95976004753254
 20
-1495.1826081718038
 30
0.0
 41
0.9984436495479601
 10
826.12353479125909
 20
-1495.1747302179851
 30
0.0
 41
1.0
 10
826.14523199938981
 20
-1495.1736865307855
 30
0.0
 41
1.0
 10
826.16692920752064
 20
-1495.1726428435859
 30
0.0
 41
1.0
 10
826.28730953498325
 20
-1495.1668522641664
 30
0.0
 41
0.9987954789335212
 10
826.40767777989356
 20
-1495.1728887919087
 30
0.0
 41
1.0
 10
826.42764257239082
 20
-1495.1738900362475
 30
0.0
 41
1.0
 10
826.4476073648882
 20
-1495.1748912805863
 30
0.0
 41
1.0
 10
826.52804602480614
 20
-1495.1789253196512
 30
0.0
 41
0.9997941595877172
 10
826.60825480289782
 20
-1495.186219385572
 30
0.0
 41
1.0
 10
826.68846358099393
 20
-1495.1935134514933
 30
0.0
 41
0.9998589466239246
 10
826.7683821278506
 20
-1495.2034973059435
 30
0.0
 41
1.0
 10
826.80078832965717
 20
-1495.2075456628627
 30
0.0
 41
1.0
 10
826.83319453146373
 20
-1495.2115940197816
 30
0.0
 41
1.0
 10
826.97792548193297
 20
-1495.2296745880697
 30
0.0
 41
0.9993495063249268
 10
827.12097672569621
 20
-1495.258140297811
 30
0.0
 41
1.0
 10
827.15391042284909
 20
-1495.2646937610259
 30
0.0
 41
1.0
 10
827.18684412000198
 20
-1495.2712472242408
 30
0.0
 41
1.0
 10
827.29613794320824
 20
-1495.2929955583766
 30
0.0
 41
0.9996788715561144
 10
827.40418951516585
 20
-1495.3202533577398
 30
0.0
 41
1.0
 10
827.4062525177053
 20
-1495.3207737843129
 30
0.0
 41
1.0
 10
827.40831552024474
 20
-1495.321294210886
 30
0.0
 41
1.0
 10
827.51224108712233
 20
-1495.3475111571029
 30
0.0
 41
0.9995480654492444
 10
827.61440332235168
 20
-1495.3799261137274
 30
0.0
 41
1.0
 10
827.61609296448012
 20
-1495.3804622186412
 30
0.0
 41
1.0
 10
827.61778260660856
 20
-1495.3809983235549
 30
0.0
 41
1.0
 10
827.71656555758091
 20
-1495.4123410703517
 30
0.0
 41
0.9993867959455969
 10
827.81291271602367
 20
-1495.4505204396414
 30
0.0
 41
1.0
 10
827.81415566510941
 20
-1495.451012981538
 30
0.0
 41
1.0
 10
827.81539861419515
 20
-1495.4515055234347
 30
0.0
 41
1.0
 10
827.90925987446735
 20
-1495.4886998089319
 30
0.0
 41
0.9992050256522221
 10
827.99985954949955
 20
-1495.5332537081699
 30
0.0
 41
1.0
 10
828.00059423221137
 20
-1495.5336150006306
 30
0.0
 41
1.0
 10
828.00132891492331
 20
-1495.533976293091
 30
0.0
 41
1.0
 10
828.09045922453208
 20
-1495.5778076074082
 30
0.0
 41
0.9990222350741485
 10
828.17536928592654
 20
-1495.6293408751071
 30
0.0
 41
1.0
 10
828.17555317120878
 20
-1495.6294524780117
 30
0.0
 41
1.0
 10
828.17573705649113
 20
-1495.6295640809162
 30
0.0
 41
1.0
 10
828.26027934732042
 20
-1495.6808741428056
 30
0.0
 41
0.9988642743805413
 10
828.33955388193931
 20
-1495.7399983303305
 30
0.0
 41
1.0
 10
828.41882841655831
 20
-1495.7991225178559
 30
0.0
 41
0.99876812333109
 10
828.4918522008345
 20
-1495.8658132092567
 30
0.0
 41
1.0
 10
828.49218112880021
 20
-1495.8661136104706
 30
0.0
 41
1.0
 10
828.49251005676592
 20
-1495.8664140116848
 30
0.0
 41
1.0
 10
828.56619169697308
 20
-1495.9337055055134
 30
0.0
 41
0.9987496570898825
 10
828.63278550230086
 20
-1496.0080183196005
 30
0.0
 41
1.0
 10
828.63355767206144
 20
-1496.0088799929586
 30
0.0
 41
1.0
 10
828.63432984182191
 20
-1496.0097416663166
 30
0.0
 41
1.0
 10
828.70246798667029
 20
-1496.0857778271195
 30
0.0
 41
0.9988147669827291
 10
828.76289024089533
 20
-1496.168078833962
 30
0.0
 41
1.0
 10
828.76400956697285
 20
-1496.1696034653141
 30
0.0
 41
1.0
 10
828.76512889305036
 20
-1496.1711280966665
 30
0.0
 41
1.0
 10
828.82778979943134
 20
-1496.2564783662151
 30
0.0
 41
0.998945263621716
 10
828.88235671239261
 20
-1496.3472170553723
 30
0.0
 41
1.0
 10
828.88370543847805
 20
-1496.3494598363982
 30
0.0
 41
1.0
 10
828.88505416456348
 20
-1496.3517026174241
 30
0.0
 41
1.0
 10
828.94231852969563
 20
-1496.4469268686332
 30
0.0
 41
0.9991046436070492
 10
828.99132774301779
 20
-1496.5466513016597
 30
0.0
 41
1.0
 10
828.99279160460787
 20
-1496.5496299817323
 30
0.0
 41
1.0
 10
828.99425546619784
 20
-1496.5526086618047
 30
0.0
 41
1.0
 10
829.04619240269869
 20
-1496.6582904549734
 30
0.0
 41
0.9992763831100603
 10
829.08994553125399
 20
-1496.7676145169298
 30
0.0
 41
1.0
 10
829.09142480091759
 20
-1496.7713107044642
 30
0.0
 41
1.0
 10
829.0929040705812
 20
-1496.7750068919984
 30
0.0
 41
1.0
 10
829.13961573846268
 20
-1496.8917233290199
 30
0.0
 41
0.9994163472883056
 10
829.17824876965187
 20
-1497.0113569174825
 30
0.0
 41
1.0
 10
829.17948692189907
 20
-1497.0151910612667
 30
0.0
 41
1.0
 10
829.18072507414615
 20
-1497.0190252050506
 30
0.0
 41
1.0
 10
829.22060863516344
 20
-1497.1425312665292
 30
0.0
 41
0.9997268055891316
 10
829.25467669107559
 20
-1497.2677662984802
 30
0.0
 41
1.0
 10
829.25560687134521
 20
-1497.2711856645892
 30
0.0
 41
1.0
 10
829.25653705161483
 20
-1497.2746050306985
 30
0.0
 41
1.0
 10
829.28874474698796
 20
-1497.393001330433
 30
0.0
 41
0.999670131900102
 10
829.31483036375812
 20
-1497.5128952836944
 30
0.0
 41
1.0
 10
829.34091598052828
 20
-1497.6327892369554
 30
0.0
 41
0.999578545110888
 10
829.35999955786826
 20
-1497.7539949979887
 30
0.0
 41
1.0
 10
829.36421934004181
 20
-1497.7807961527528
 30
0.0
 41
1.0
 10
829.36843912221536
 20
-1497.8075973075167
 30
0.0
 41
1.0
 10
829.39501409815443
 20
-1497.9763832812205
 30
0.0
 41
0.9979925101215805
 10
829.40003968408064
 20
-1498.1471746093141
 30
0.0
 41
1.0
 10
829.40086449650539
 20
-1498.1752053327973
 30
0.0
 41
1.0
 10
829.40168930893003
 20
-1498.2032360562803
 30
0.0
 41
1.0
 10
829.40506527000696
 20
-1498.3179659374093
 30
0.0
 41
0.9995314902263075
 10
829.40141507786848
 20
-1498.4326874211579
 30
0.0
 41
1.0
 10
829.39776488572988
 20
-1498.5474089049114
 30
0.0
 41
0.9996245486944734
 10
829.38783579059907
 20
-1498.6617581760338
 30
0.0
 41
1.0
 10
829.38767274260476
 20
-1498.663635932169
 30
0.0
 41
1.0
 10
829.38750969461057
 20
-1498.6655136883041
 30
0.0
 41
1.0
 10
829.37725450349126
 20
-1498.7836184716989
 30
0.0
 41
0.9997286095001248
 10
829.36150917991995
 20
-1498.9011173805927
 30
0.0
 41
1.0
 10
829.3611156872696
 20
-1498.904053805295
 30
0.0
 41
1.0
 10
829.36072219461914
 20
-1498.9069902299971
 30
0.0
 41
1.0
 10
829.3441898857476
 20
-1499.0303619882925
 30
0.0
 41
0.9998265533969233
 10
829.32307442701551
 20
-1499.1530324630778
 30
0.0
 41
1.0
 10
829.32239788487777
 20
-1499.1569628415882
 30
0.0
 41
1.0
 10
829.32172134274015
 20
-1499.1608932200988
 30
0.0
 41
1.0
 10
829.29925279973145
 20
-1499.2914244519109
 30
0.0
 41
0.9999022530855692
 10
829.27314333512174
 20
-1499.4212764205481
 30
0.0
 41
1.0
 10
829.27216469395717
 20
-1499.4261435629319
 30
0.0
 41
1.0
 10
829.27118605279247
 20
-1499.4310107053154
 30
0.0
 41
1.0
 10
829.24311930585236
 20
-1499.5705969587259
 30
0.0
 41
0.9999524761937917
 10
829.21233633701593
 20
-1499.7096094518979
 30
0.0
 41
1.0
 10
829.211060229841
 20
-1499.715372211198
 30
0.0
 41
1.0
 10
829.20978412266606
 20
-1499.721134970498
 30
0.0
 41
1.0
 10
829.17644893947772
 20
-1499.8716729822781
 30
0.0
 41
0.9999813588726565
 10
829.14127793868306
 20
-1500.0217926949294
 30
0.0
 41
1.0
 10
829.13972401322735
 20
-1500.0284252853485
 30
0.0
 41
1.0
 10
829.13817008777153
 20
-1500.0350578757677
 30
0.0
 41
1.0
 10
829.09989123606226
 20
-1500.1984427692698
 30
0.0
 41
0.9999955237725895
 10
829.06063535808141
 20
-1500.3615956728779
 30
0.0
 41
1.0
 10
829.04835372244736
 20
-1500.4126398633994
 30
0.0
 41
1.0
 10
829.03607208681331
 20
-1500.463684053921
 30
0.0
 41
1.0
 10
828.97225293757265
 20
-1500.7289253385379
 30
0.0
 41
0.9999993604279214
 10
828.90783399040731
 20
-1500.9940215892113
 30
0.0
 41
1.0
 10
828.90311515485473
 20
-1501.013440497275
 30
0.0
 41
1.0
 10
828.89839631930204
 20
-1501.0328594053385
 30
0.0
 41
1.0
 10
828.82453970103825
 20
-1501.3367934721109
 30
0.0
 41
0.9999659914725146
 10
828.74568010514918
 20
-1501.6394680186836
 30
0.0
 41
1.0
 10
828.74072741622206
 20
-1501.6584771558526
 30
0.0
 41
1.0
 10
828.73577472729494
 20
-1501.6774862930215
 30
0.0
 41
1.0
 10
828.64700975355004
 20
-1502.0181791139391
 30
0.0
 41
0.9999441976026204
 10
828.55106672058912
 20
-1502.3569205392289
 30
0.0
 41
1.0
 10
828.53436620216212
 20
-1502.4158842517618
 30
0.0
 41
1.0
 10
828.517665683735
 20
-1502.4748479642949
 30
0.0
 41
1.0
 10
828.38832161392224
 20
-1502.9315168146431
 30
0.0
 41
0.9999625120735463
 10
828.25108884660108
 20
-1503.385877348632
 30
0.0
 41
1.0
 10
828.21529890351144
 20
-1503.5043733752814
 30
0.0
 41
1.0
 10
828.17950896042169
 20
-1503.6228694019305
 30
0.0
 41
1.0
 10
828.10498875638837
 20
-1503.8695964800072
 30
0.0
 41
0.9999793386325777
 10
828.02730273325255
 20
-1504.1153451192376
 30
0.0
 41
1.0
 10
827.94961671011492
 20
-1504.3610937584738
 30
0.0
 41
1.0
 10
827.93883715124423
 20
-1504.3951116628484
 30
0.0
 41
1.0
 10
826.08846409797502
 20
-1510.282183585316
 30
0.0
 41
1.0
 10
824.23809104470593
 20
-1516.1692555077834
 30
0.0
 41
1.0
 10
823.27683435468236
 20
-1516.1692555077834
 30
0.0
 41
1.0
 10
822.3155776646588
 20
-1516.1692555077834
 30
0.0
 41
1.0
 10
823.9345224433373
 20
-1511.021227005994
 30
0.0
 41
1.0
 10
825.55346722201568
 20
-1505.8731985042045
 30
0.0
 41
1.0
 10
825.59863304519399
 20
-1505.7291672819219
 30
0.0
 41
1.0
 10
825.6437988683723
 20
-1505.5851360596391
 30
0.0
 41
1.0
 10
825.81410328573509
 20
-1505.0420450304769
 30
0.0
 41
0.9999911657909948
 10
825.97983609740731
 20
-1504.4975414991386
 30
0.0
 41
1.0
 10
826.00953204090797
 20
-1504.3999775590878
 30
0.0
 41
1.0
 10
826.03922798440851
 20
-1504.3024136190368
 30
0.0
 41
1.0
 10
826.14556890909239
 20
-1503.9530379677585
 30
0.0
 41
0.9999952428136678
 10
826.24975249841236
 20
-1503.6030129434253
 30
0.0
 41
1.0
 10
826.25481196875671
 20
-1503.5860146691102
 30
0.0
 41
1.0
 10
826.25987143910106
 20
-1503.569016394795
 30
0.0
 41
1.0
 10
826.35393608775462
 20
-1503.2529879190179
 30
0.0
 41
0.9999931687498261
 10
826.44566192561103
 20
-1502.9362727058053
 30
0.0
 41
1.0
 10
826.45059719007395
 20
-1502.9192319965227
 30
0.0
 41
1.0
 10
826.45553245453675
 20
-1502.9021912872404
 30
0.0
 41
1.0
 10
826.53738776348814
 20
-1502.619557492523
 30
0.0
 41
0.9999893840812134
 10
826.61663498994153
 20
-1502.3361813632882
 30
0.0
 41
1.0
 10
826.69588221640129
 20
-1502.0528052340314
 30
0.0
 41
0.9999833980069873
 10
826.77185845713836
 20
-1501.7685346510195
 30
0.0
 41
1.0
 10
826.78086239386357
 20
-1501.7348457725302
 30
0.0
 41
1.0
 10
826.78986633058878
 20
-1501.7011568940409
 30
0.0
 41
1.0
 10
826.85883087945217
 20
-1501.4431210617554
 30
0.0
 41
0.9999233658064909
 10
826.92138585067187
 20
-1501.1834569030352
 30
0.0
 41
1.0
 10
826.98394082189213
 20
-1500.9237927443128
 30
0.0
 41
1.0
 10
827.0234242407497
 20
-1500.7599860798866
 30
0.0
 41
1.0
 10
827.02840284472609
 20
-1500.7393311180199
 30
0.0
 41
1.0
 10
827.03338144870247
 20
-1500.7186761561532
 30
0.0
 41
1.0
 10
827.06290765960443
 20
-1500.5961794154723
 30
0.0
 41
0.9999868670843657
 10
827.09117674360346
 20
-1500.4733864698151
 30
0.0
 41
1.0
 10
827.09507423076502
 20
-1500.4564568823812
 30
0.0
 41
1.0
 10
827.0989717179267
 20
-1500.4395272949473
 30
0.0
 41
1.0
 10
827.11944582760111
 20
-1500.3505935241635
 30
0.0
 41
0.9999778173344948
 10
827.13873342571515
 20
-1500.2613949069391
 30
0.0
 41
1.0
 10
827.15802102383054
 20
-1500.1721962897088
 30
0.0
 41
0.9999602692858093
 10
827.17571538246239
 20
-1500.0826680012769
 30
0.0
 41
1.0
 10
827.17891921453952
 20
-1500.0664575463938
 30
0.0
 41
1.0
 10
827.18212304661654
 20
-1500.050247091511
 30
0.0
 41
1.0
 10
827.20622506940265
 20
-1499.9282978933134
 30
0.0
 41
0.9995617985320092
 10
827.22306841662123
 20
-1499.8051361456078
 30
0.0
 41
1.0
 10
827.22553290652775
 20
-1499.7871153282404
 30
0.0
 41
1.0
 10
827.22799739643426
 20
-1499.7690945108729
 30
0.0
 41
1.0
 10
827.24828065748216
 20
-1499.6207794611737
 30
0.0
 41
0.9991121410639584
 10
827.25600601107033
 20
-1499.4712833623685
 30
0.0
 41
1.0
 10
827.25692480109501
 20
-1499.4535035257913
 30
0.0
 41
1.0
 10
827.25784359111958
 20
-1499.4357236892142
 30
0.0
 41
1.0
 10
827.26373136465884
 20
-1499.3217872635603
 30
0.0
 41
0.9989792494904456
 10
827.25931227254125
 20
-1499.2077844276641
 30
0.0
 41
1.0
 10
827.25866430067276
 20
-1499.191068181739
 30
0.0
 41
1.0
 10
827.25801632880416
 20
-1499.174351935814
 30
0.0
 41
1.0
 10
827.25489318042401
 20
-1499.093781591765
 30
0.0
 41
0.9997820295393843
 10
827.24840918304824
 20
-1499.0134118700216
 30
0.0
 41
1.0
 10
827.24192518567213
 20
-1498.9330421482714
 30
0.0
 41
0.9998335105974324
 10
827.2325129901601
 20
-1498.8529625318213
 30
0.0
 41
1.0
 10
827.23091806548416
 20
-1498.8393928013415
 30
0.0
 41
1.0
 10
827.22932314080822
 20
-1498.8258230708616
 30
0.0
 41
1.0
 10
827.21672109594385
 20
-1498.7186039934463
 30
0.0
 41
0.999687645787897
 10
827.19877718314569
 20
-1498.6121485657311
 30
0.0
 41
1.0
 10
827.19654552000054
 20
-1498.59890883049
 30
0.0
 41
1.0
 10
827.19431385685539
 20
-1498.5856690952487
 30
0.0
 41
1.0
 10
827.18051803543369
 20
-1498.503822951287
 30
0.0
 41
0.9995547496495101
 10
827.16186471354115
 20
-1498.4229454540962
 30
0.0
 41
1.0
 10
827.16149075666988
 20
-1498.421324043391
 30
0.0
 41
1.0
 10
827.16111679979861
 20
-1498.4197026326858
 30
0.0
 41
1.0
 10
827.14321139164815
 20
-1498.342067956904
 30
0.0
 41
0.9994899427175292
 10
827.12038648296925
 20
-1498.2657346740707
 30
0.0
 41
1.0
 10
827.11992795622837
 20
-1498.2642012242818
 30
0.0
 41
1.0
 10
827.11946942948759
 20
-1498.2626677744929
 30
0.0
 41
1.0
 10
827.0975615742899
 20
-1498.1894013912363
 30
0.0
 41
0.9993784877591024
 10
827.07054593918326
 20
-1498.1178606860772
 30
0.0
 41
1.0
 10
827.07001424820658
 20
-1498.1164527033573
 30
0.0
 41
1.0
 10
827.06948255722989
 20
-1498.1150447206373
 30
0.0
 41
1.0
 10
827.04353030407617
 20
-1498.0463199809169
 30
0.0
 41
0.9992430832254122
 10
827.01231376891724
 20
-1497.9798208288498
 30
0.0
 41
1.0
 10
827.01173165286059
 20
-1497.9785807737326
 30
0.0
 41
1.0
 10
827.01114953680406
 20
-1497.9773407186151
 30
0.0
 41
1.0
 10
826.98109723375785
 20
-1497.9133216767816
 30
0.0
 41
0.9990789632799078
 10
826.94566660698126
 20
-1497.852115065032
 30
0.0
 41
1.0
 10
826.94507090079946
 20
-1497.8510859791731
 30
0.0
 41
1.0
 10
826.94447519461767
 20
-1497.8500568933143
 30
0.0
 41
1.0
 10
826.91023598020502
 20
-1497.7909084532832
 30
0.0
 41
0.9988874801121793
 10
826.87057670417244
 20
-1497.7352487408643
 30
0.0
 41
1.0
 10
826.87002117810846
 20
-1497.73446908919
 30
0.0
 41
1.0
 10
826.86946565204448
 20
-1497.7336894375155
 30
0.0
 41
1.0
 10
826.83091742814054
 20
-1497.679589028447
 30
0.0
 41
0.9986762060694292
 10
826.78701495686437
 20
-1497.6297353140076
 30
0.0
 41
1.0
 10
826.78657099653242
 20
-1497.6292311721911
 30
0.0
 41
1.0
 10
826.78612703620036
 20
-1497.6287270303746
 30
0.0
 41
1.0
 10
826.74311248558888
 20
-1497.579881599569
 30
0.0
 41
0.9984621642488162
 10
826.69495492881038
 20
-1497.5360982990971
 30
0.0
 41
1.0
 10
826.69470829429383
 20
-1497.5358740669337
 30
0.0
 41
1.0
 10
826.6944616597774
 20
-1497.5356498347703
 30
0.0
 41
1.0
 10
826.64679737203221
 20
-1497.4923149986257
 30
0.0
 41
0.9982724693852132
 10
826.59437874019113
 20
-1497.4548706481082
 30
0.0
 41
1.0
 10
826.54196010834983
 20
-1497.4174262975907
 30
0.0
 41
0.9981399180159346
 10
826.48537404495562
 20
-1497.3866397781469
 30
0.0
 41
1.0
 10
826.48532838287747
 20
-1497.3866149349899
 30
0.0
 41
1.0
 10
826.48528272079943
 20
-1497.3865900918329
 30
0.0
 41
1.0
 10
826.42860533324927
 20
-1497.3557538860753
 30
0.0
 41
0.9980927086837911
 10
826.36855998218289
 20
-1497.3321370772226
 30
0.0
 41
1.0
 10
826.36811981247115
 20
-1497.3319639513475
 30
0.0
 41
1.0
 10
826.36767964275941
 20
-1497.3317908254726
 30
0.0
 41
1.0
 10
826.30675395226956
 20
-1497.3078277648701
 30
0.0
 41
0.9981411356561836
 10
826.24336543087031
 20
-1497.2914551233646
 30
0.0
 41
1.0
 10
826.24248331416879
 20
-1497.2912272811591
 30
0.0
 41
1.0
 10
826.24160119746739
 20
-1497.2909994389536
 30
0.0
 41
1.0
 10
826.1764484426659
 20
-1497.2741711130373
 30
0.0
 41
0.998303181293572
 10
826.10978101367198
 20
-1497.265031751861
 30
0.0
 41
1.0
 10
826.10090998826604
 20
-1497.2638156331896
 30
0.0
 41
1.0
 10
826.0920389628601
 20
-1497.2625995145179
 30
0.0
 41
1.0
 10
826.03768932035734
 20
-1497.2551487845269
 30
0.0
 41
0.9983887708262091
 10
825.9828454710655
 20
-1497.2539041108939
 30
0.0
 41
1.0
 10
825.97478206584253
 20
-1497.2537211130189
 30
0.0
 41
1.0
 10
825.96671866061956
 20
-1497.253538115144
 30
0.0
 41
1.0
 10
825.92800162176707
 20
-1497.2526594372603
 30
0.0
 41
0.9998869563078271
 10
825.88927566857001
 20
-1497.2529453066202
 30
0.0
 41
1.0
 10
825.85054971537261
 20
-1497.2532311759799
 30
0.0
 41
0.999997232015242
 10
825.81182553616691
 20
-1497.2536992755088
 30
0.0
 41
1.0
 10
825.79247251958168
 20
-1497.2539332155984
 30
0.0
 41
1.0
 10
825.77311950299656
 20
-1497.2541671556878
 30
0.0
 41
1.0
 10
825.69568929062325
 20
-1497.2551031353955
 30
0.0
 41
0.9997304945086406
 10
825.61838598438305
 20
-1497.2596322291818
 30
0.0
 41
1.0
 10
825.60933634268144
 20
-1497.2601624351714
 30
0.0
 41
1.0
 10
825.60028670097972
 20
-1497.2606926411613
 30
0.0
 41
1.0
 10
825.50488411133301
 20
-1497.2662821469273
 30
0.0
 41
0.9997888306415821
 10
825.40979177549059
 20
-1497.2757871114165
 30
0.0
 41
1.0
 10
825.40107071391799
 20
-1497.2766588260488
 30
0.0
 41
1.0
 10
825.3923496523455
 20
-1497.2775305406808
 30
0.0
 41
1.0
 10
825.27981519335788
 20
-1497.288778934434
 30
0.0
 41
0.9984170238190541
 10
825.16925604600681
 20
-1497.3125950163696
 30
0.0
 41
1.0
 10
825.13287491502194
 20
-1497.3204320521754
 30
0.0
 41
1.0
 10
825.09649378403708
 20
-1497.3282690879812
 30
0.0
 41
1.0
 10
824.98130271561365
 20
-1497.3530829544911
 30
0.0
 41
0.9976592854199556
 10
824.87057454920671
 20
-1497.3933816316389
 30
0.0
 41
1.0
 10
824.75984638280249
 20
-1497.4336803087856
 30
0.0
 41
0.9993255074351994
 10
824.65237458401134
 20
-1497.4819972072783
 30
0.0
 41
1.0
 10
824.64774940508778
 20
-1497.4840765834781
 30
0.0
 41
1.0
 10
824.64312422616433
 20
-1497.4861559596779
 30
0.0
 41
1.0
 10
824.52640206952753
 20
-1497.5386316105694
 30
0.0
 41
0.9976475078275491
 10
824.41795472521676
 20
-1497.6065796002279
 30
0.0
 41
1.0
 10
824.39961233107988
 20
-1497.6180720790437
 30
0.0
 41
1.0
 10
824.38126993694311
 20
-1497.6295645578596
 30
0.0
 41
1.0
 10
824.29706774539284
 20
-1497.6823216786267
 30
0.0
 41
0.999513133640662
 10
824.21632003043737
 20
-1497.7402278905788
 30
0.0
 41
1.0
 10
824.13557231548202
 20
-1497.7981341025304
 30
0.0
 41
0.9995810107605818
 10
824.05831066775693
 20
-1497.8606157849931
 30
0.0
 41
1.0
 10
824.05534063654397
 20
-1497.86301765646
 30
0.0
 41
1.0
 10
824.05237060533102
 20
-1497.8654195279269
 30
0.0
 41
1.0
 10
823.96916889518025
 20
-1497.9327049533233
 30
0.0
 41
0.9996617837954936
 10
823.88957820804251
 20
-1498.0042254088855
 30
0.0
 41
1.0
 10
823.87744745716896
 20
-1498.0151261418732
 30
0.0
 41
1.0
 10
823.86531670629529
 20
-1498.0260268748609
 30
0.0
 41
1.0
 10
823.79704117889628
 20
-1498.0873794903357
 30
0.0
 41
0.9997267750053083
 10
823.73170767061151
 20
-1498.1518560268619
 30
0.0
 41
1.0
 10
823.66637416232811
 20
-1498.2163325633869
 30
0.0
 41
0.9999667288964732
 10
823.60210121918828
 20
-1498.2818663702744
 30
0.0
 41
1.0
 10
823.53327377140954
 20
-1498.3520440290363
 30
0.0
 41
1.0
 10
823.46444632363091
 20
-1498.4222216877979
 30
0.0
 41
1.0
 10
823.26251848493416
 20
-1498.6281108122089
 30
0.0
 41
0.998820533517524
 10
823.08151286795362
 20
-1498.8526150442708
 30
0.0
 41
1.0
 10
823.05087290304937
 20
-1498.8906182947001
 30
0.0
 41
1.0
 10
823.02023293814523
 20
-1498.9286215451293
 30
0.0
 41
1.0
 10
822.77794739135402
 20
-1499.2291322780525
 30
0.0
 41
0.9997077826754676
 10
822.55046944024707
 20
-1499.5410020722716
 30
0.0
 41
1.0
 10
822.54874602511859
 20
-1499.5433648556484
 30
0.0
 41
1.0
 10
822.54702260999022
 20
-1499.5457276390252
 30
0.0
 41
1.0
 10
822.31609782862324
 20
-1499.8623230000017
 30
0.0
 41
0.9989147567078681
 10
822.11563432573985
 20
-1500.1990324611868
 30
0.0
 41
1.0
 10
822.09089318043607
 20
-1500.2405890417338
 30
0.0
 41
1.0
 10
822.06615203513229
 20
-1500.2821456222807
 30
0.0
 41
1.0
 10
821.91094073649299
 20
-1500.5428470067372
 30
0.0
 41
0.9997476598181961
 10
821.76759574897972
 20
-1500.8102567553256
 30
0.0
 41
1.0
 10
821.62425076146917
 20
-1501.0776665039098
 30
0.0
 41
0.9996258967109263
 10
821.49574250953515
 20
-1501.3525144405389
 30
0.0
 41
1.0
 10
821.4825426000873
 20
-1501.3807458406304
 30
0.0
 41
1.0
 10
821.46934269063956
 20
-1501.4089772407222
 30
0.0
 41
1.0
 10
821.32913396963966
 20
-1501.7088496386752
 30
0.0
 41
0.9998735413944568
 10
821.19853262291861
 20
-1502.0130292381446
 30
0.0
 41
1.0
 10
821.19508979486
 20
-1502.0210478236049
 30
0.0
 41
1.0
 10
821.19164696680139
 20
-1502.0290664090651
 30
0.0
 41
1.0
 10
821.06793127619869
 20
-1502.3172088376109
 30
0.0
 41
0.9999377418858155
 10
820.95067647402357
 20
-1502.608040305287
 30
0.0
 41
1.0
 10
820.83342167184924
 20
-1502.898871772961
 30
0.0
 41
0.9999508299506005
 10
820.72195772847363
 20
-1503.1919714497774
 30
0.0
 41
1.0
 10
820.71887695980979
 20
-1503.2000724757449
 30
0.0
 41
1.0
 10
820.71579619114596
 20
-1503.2081735017123
 30
0.0
 41
1.0
 10
820.59817071043733
 20
-1503.5174752304783
 30
0.0
 41
0.9999609228439436
 10
820.48603210756085
 20
-1503.8288082465017
 30
0.0
 41
1.0
 10
820.48307609721564
 20
-1503.8370150868986
 30
0.0
 41
1.0
 10
820.48012008687044
 20
-1503.8452219272958
 30
0.0
 41
1.0
 10
820.36206946329821
 20
-1504.1729686241272
 30
0.0
 41
0.9999674607406608
 10
820.24932193722987
 20
-1504.5025772441229
 30
0.0
 41
1.0
 10
820.19792354666697
 20
-1504.6528364398159
 30
0.0
 41
1.0
 10
820.14652515610408
 20
-1504.803095635509
 30
0.0
 41
1.0
 10
820.03051454934757
 20
-1505.1422436180083
 30
0.0
 41
0.9999287532308965
 10
819.92263314537536
 20
-1505.4840643569878
 30
0.0
 41
1.0
 10
819.87615588923575
 20
-1505.6313269013604
 30
0.0
 41
1.0
 10
819.82967863309614
 20
-1505.7785894457329
 30
0.0
 41
1.0
 10
819.81475174137381
 20
-1505.8258850960617
 30
0.0
 41
0.999999822414116
 10
819.79988123267424
 20
-1505.8731985042045
 30
0.0
 41
1.0
 10
818.17922509587879
 20
-1511.021227005994
 30
0.0
 41
1.0
 10
816.55856895908335
 20
-1516.1692555077834
 30
0.0
 41
1.0
 10
815.65326051519241
 20
-1516.1692555077834
 30
0.0
 41
1.0
 10
814.74795207130148
 20
-1516.1692555077834
 30
0.0
 41
1.0
 10
816.60003648268753
 20
-1510.282183585316
 30
0.0
 41
1.0
 10
818.45212089407357
 20
-1504.3951116628484
 30
0.0
 41
1.0
 10
818.46224265237629
 20
-1504.3630684493987
 30
0.0
 41
1.0
 10
818.53485032122603
 20
-1504.1327689075729
 30
0.0
 41
1.0
 10
818.60745799007509
 20
-1503.9024693657491
 30
0.0
 41
0.9999825681973553
 10
818.67734102928068
 20
-1503.6713284707037
 30
0.0
 41
1.0
 10
818.72563209144357
 20
-1503.5116038872006
 30
0.0
 41
1.0
 10
818.77392315360646
 20
-1503.3518793036978
 30
0.0
 41
1.0
 10
818.87107550692372
 20
-1503.030544081922
 30
0.0
 41
0.9999672528965237
 10
818.96301431254813
 20
-1502.707678536332
 30
0.0
 41
1.0
 10
818.96580319622592
 20
-1502.6978846909137
 30
0.0
 41
1.0
 10
818.96859207990371
 20
-1502.6880908454955
 30
0.0
 41
1.0
 10
819.05495311818026
 20
-1502.3848129907144
 30
0.0
 41
0.9999899749122641
 10
819.13859472770616
 20
-1502.0807739022935
 30
0.0
 41
1.0
 10
819.14870064672414
 20
-1502.0440386646137
 30
0.0
 41
1.0
 10
819.158806565742
 20
-1502.007303426934
 30
0.0
 41
1.0
 10
819.2222363372407
 20
-1501.7767348138416
 30
0.0
 41
0.9999214200504202
 10
819.27986576561852
 20
-1501.5446484716317
 30
0.0
 41
1.0
 10
819.29263161780045
 20
-1501.49323758623
 30
0.0
 41
1.0
 10
819.30539746998249
 20
-1501.4418267008282
 30
0.0
 41
1.0
 10
819.33749519399498
 20
-1501.3125621294273
 30
0.0
 41
0.9999828681675136
 10
819.36807744599173
 20
-1501.1829306549548
 30
0.0
 41
1.0
 10
819.39865969798586
 20
-1501.0532991804923
 30
0.0
 41
0.9999389844475797
 10
819.42637068677413
 20
-1500.9230237245974
 30
0.0
 41
1.0
 10
819.43350843049552
 20
-1500.8894676207549
 30
0.0
 41
1.0
 10
819.44064617421679
 20
-1500.8559115169123
 30
0.0
 41
1.0
 10
819.48263265044807
 20
-1500.6585238533296
 30
0.0
 41
0.9998933699440159
 10
819.51883691485023
 20
-1500.4599942455707
 30
0.0
 41
1.0
 10
819.52020974006587
 20
-1500.4524662248782
 30
0.0
 41
1.0
 10
819.52158256528139
 20
-1500.4449382041857
 30
0.0
 41
1.0
 10
819.56053248011665
 20
-1500.2313525550326
 30
0.0
 41
0.9996850305193573
 10
819.58871615637543
 20
-1500.0160815495944
 30
0.0
 41
1.0
 10
819.5907111897443
 20
-1500.0008431954757
 30
0.0
 41
1.0
 10
819.59270622311317
 20
-1499.9856048413569
 30
0.0
 41
1.0
 10
819.62011408557225
 20
-1499.776259614202
 30
0.0
 41
0.9994697936706882
 10
819.63383864479238
 20
-1499.565574418868
 30
0.0
 41
1.0
 10
819.63431571404215
 20
-1499.5582509466553
 30
0.0
 41
1.0
 10
819.63479278329191
 20
-1499.5509274744427
 30
0.0
 41
1.0
 10
819.64756320401204
 20
-1499.354889223536
 30
0.0
 41
0.999180489313705
 10
819.64443488773918
 20
-1499.1584603735639
 30
0.0
 41
1.0
 10
819.64435100891706
 20
-1499.1531935721523
 30
0.0
 41
1.0
 10
819.64426713009493
 20
-1499.1479267707405
 30
0.0
 41
1.0
 10
819.6413065714662
 20
-1498.9620315235927
 30
0.0
 41
0.9988448329322266
 10
819.62051502584256
 20
-1498.7772789337571
 30
0.0
 41
1.0
 10
819.61892095213966
 20
-1498.7631140779865
 30
0.0
 41
1.0
 10
819.61732687843664
 20
-1498.748949222216
 30
0.0
 41
1.0
 10
819.59972348021904
 20
-1498.5925263439246
 30
0.0
 41
0.9985503209458193
 10
819.56540720791918
 20
-1498.4389021598345
 30
0.0
 41
1.0
 10
819.55782121584809
 20
-1498.4049418324348
 30
0.0
 41
1.0
 10
819.55023522377701
 20
-1498.3709815050349
 30
0.0
 41
1.0
 10
819.53109093561977
 20
-1498.2852779757454
 30
0.0
 41
0.9991036781370395
 10
819.50476607396854
 20
-1498.2015008884202
 30
0.0
 41
1.0
 10
819.50078384851236
 20
-1498.1888277259091
 30
0.0
 41
1.0
 10
819.49680162305617
 20
-1498.1761545633981
 30
0.0
 41
1.0
 10
819.47844121231708
 20
-1498.1177238010944
 30
0.0
 41
0.9998874504368994
 10
819.4583360046388
 20
-1498.059870198872
 30
0.0
 41
1.0
 10
819.43823079696006
 20
-1498.0020165966478
 30
0.0
 41
0.9994041637544003
 10
819.41418218402532
 20
-1497.9456878927567
 30
0.0
 41
1.0
 10
819.40998539980183
 20
-1497.9358578282761
 30
0.0
 41
1.0
 10
819.40578861557833
 20
-1497.9260277637954
 30
0.0
 41
1.0
 10
819.37790978458361
 20
-1497.8607275978279
 30
0.0
 41
0.9991846840701856
 10
819.34485342789048
 20
-1497.7978895665476
 30
0.0
 41
1.0
 10
819.34371682149526
 20
-1497.7957289500923
 30
0.0
 41
1.0
 10
819.34258021509993
 20
-1497.7935683336373
 30
0.0
 41
1.0
 10
819.31179707119747
 20
-1497.7350515352678
 30
0.0
 41
0.9989253167924308
 10
819.2757276471425
 20
-1497.679636606877
 30
0.0
 41
1.0
 10
819.27467352246833
 20
-1497.6780171121147
 30
0.0
 41
1.0
 10
819.27361939779416
 20
-1497.6763976173524
 30
0.0
 41
1.0
 10
819.2396582230873
 20
-1497.6242216784867
 30
0.0
 41
0.9986467172837814
 10
819.20046107045005
 20
-1497.5758556448573
 30
0.0
 41
1.0
 10
819.19958694174943
 20
-1497.5747770425792
 30
0.0
 41
1.0
 10
819.1987128130487
 20
-1497.5736984403009
 30
0.0
 41
1.0
 10
819.16126391781256
 20
-1497.5274896112276
 30
0.0
 41
0.9984001104266704
 10
819.11883718729553
 20
-1497.4858045038591
 30
0.0
 41
1.0
 10
819.11825004918614
 20
-1497.4852276289778
 30
0.0
 41
1.0
 10
819.11766291107688
 20
-1497.4846507540965
 30
0.0
 41
1.0
 10
819.07641045677849
 20
-1497.4441193964901
 30
0.0
 41
0.998244215908242
 10
819.03065435544272
 20
-1497.40875083523
 30
0.0
 41
1.0
 10
819.03043955998055
 20
-1497.4085848025866
 30
0.0
 41
1.0
 10
819.03022476451849
 20
-1497.408418769943
 30
0.0
 41
1.0
 10
818.98489825410684
 20
-1497.3733822739696
 30
0.0
 41
0.9982450060836751
 10
818.9357472750354
 20
-1497.3439504909361
 30
0.0
 41
1.0
 10
818.88659629596475
 20
-1497.3145187079033
 30
0.0
 41
0.998392263963618
 10
818.83442998980013
 20
-1497.2908390732491
 30
0.0
 41
1.0
 10
818.83420311247505
 20
-1497.2907360877675
 30
0.0
 41
1.0
 10
818.83397623514986
 20
-1497.2906331022857
 30
0.0
 41
1.0
 10
818.78135617433645
 20
-1497.266747496669
 30
0.0
 41
0.9986517147149702
 10
818.72654320146887
 20
-1497.2484463775475
 30
0.0
 41
1.0
 10
818.72586528004058
 20
-1497.2482200311158
 30
0.0
 41
1.0
 10
818.7251873586124
 20
-1497.2479936846842
 30
0.0
 41
1.0
 10
818.66901854289017
 20
-1497.2292398727
 30
0.0
 41
0.9989435598957051
 10
818.61136515574003
 20
-1497.2157221704656
 30
0.0
 41
1.0
 10
818.61028503615705
 20
-1497.2154689202123
 30
0.0
 41
1.0
 10
818.60920491657407
 20
-1497.215215669959
 30
0.0
 41
1.0
 10
818.54939129025945
 20
-1497.2011914672185
 30
0.0
 41
0.9992249241240491
 10
818.48865978136223
 20
-1497.1919161245032
 30
0.0
 41
1.0
 10
818.48724609307101
 20
-1497.1917002160953
 30
0.0
 41
1.0
 10
818.48583240477979
 20
-1497.1914843076875
 30
0.0
 41
1.0
 10
818.42227351929773
 20
-1497.1817771481562
 30
0.0
 41
0.9994396597833337
 10
818.35820758275815
 20
-1497.1763442258107
 30
0.0
 41
1.0
 10
818.33906691528296
 20
-1497.1747210580922
 30
0.0
 41
1.0
 10
818.31992624780776
 20
-1497.1730978903738
 30
0.0
 41
1.0
 10
818.21757897631608
 20
-1497.1644186325907
 30
0.0
 41
0.9987693403121901
 10
818.11487535272977
 20
-1497.1659216960431
 30
0.0
 41
1.0
 10
818.10462101850328
 20
-1497.1660717678174
 30
0.0
 41
1.0
 10
818.09436668427679
 20
-1497.1662218395916
 30
0.0
 41
1.0
 10
817.98481091809663
 20
-1497.1678251838791
 30
0.0
 41
0.9989753644966439
 10
817.8758489180783
 20
-1497.1793281908044
 30
0.0
 41
1.0
 10
817.76688691806123
 20
-1497.1908311977295
 30
0.0
 41
0.9983190067305497
 10
817.65998810709607
 20
-1497.2148661895164
 30
0.0
 41
1.0
 10
817.65108715548968
 20
-1497.216867468079
 30
0.0
 41
1.0
 10
817.6421862038834
 20
-1497.2188687466416
 30
0.0
 41
1.0
 10
817.51748548970556
 20
-1497.2469062955536
 30
0.0
 41
0.9985539388303117
 10
817.39651573602839
 20
-1497.288169971599
 30
0.0
 41
1.0
 10
817.39417030506729
 20
-1497.2889700154151
 30
0.0
 41
1.0
 10
817.39182487410631
 20
-1497.2897700592312
 30
0.0
 41
1.0
 10
817.26616425850852
 20
-1497.3326338229081
 30
0.0
 41
0.9988468746493512
 10
817.14519391620865
 20
-1497.3873519079702
 30
0.0
 41
1.0
 10
817.14201109421947
 20
-1497.3887915825303
 30
0.0
 41
1.0
 10
817.13882827223017
 20
-1497.3902312570906
 30
0.0
 41
1.0
 10
817.01149228595318
 20
-1497.4478286912724
 30
0.0
 41
0.9991322885919132
 10
816.88939170189667
 20
-1497.5158240234543
 30
0.0
 41
1.0
 10
816.87178969085153
 20
-1497.5256262254447
 30
0.0
 41
1.0
 10
816.85418767980627
 20
-1497.5354284274354
 30
0.0
 41
1.0
 10
816.75201099875005
 20
-1497.5923285432154
 30
0.0
 41
0.9993860037849084
 10
816.65406999467723
 20
-1497.6562445588036
 30
0.0
 41
1.0
 10
816.64845168182308
 20
-1497.6599110534999
 30
0.0
 41
1.0
 10
816.64283336896892
 20
-1497.6635775481959
 30
0.0
 41
1.0
 10
816.55612899060202
 20
-1497.7201605743933
 30
0.0
 41
0.9998821494953671
 10
816.47120261479108
 20
-1497.7793788044687
 30
0.0
 41
1.0
 10
816.38627623897776
 20
-1497.838597034546
 30
0.0
 41
0.9997976482744551
 10
816.30380060857067
 20
-1497.9011834425903
 30
0.0
 41
1.0
 10
816.28916434376765
 20
-1497.9122901323685
 30
0.0
 41
1.0
 10
816.27452807896475
 20
-1497.923396822147
 30
0.0
 41
1.0
 10
816.16277991894981
 20
-1498.0081966097493
 30
0.0
 41
0.9998091630798507
 10
816.05442964092401
 20
-1498.0972969604493
 30
0.0
 41
1.0
 10
816.0414238884465
 20
-1498.1079920608954
 30
0.0
 41
1.0
 10
816.02841813596899
 20
-1498.1186871613418
 30
0.0
 41
1.0
 10
815.89405635298647
 20
-1498.2291777129358
 30
0.0
 41
0.9995035112317556
 10
815.76692047522442
 20
-1498.3479115299492
 30
0.0
 41
1.0
 10
815.75727316483449
 20
-1498.3569212761095
 30
0.0
 41
1.0
 10
815.74762585444455
 20
-1498.3659310222699
 30
0.0
 41
1.0
 10
815.62420279168157
 20
-1498.4811973940236
 30
0.0
 41
0.9994630424298798
 10
815.50859438589941
 20
-1498.604300137257
 30
0.0
 41
1.0
 10
815.50491154713018
 20
-1498.6082217167677
 30
0.0
 41
1.0
 10
815.50122870836083
 20
-1498.6121432962784
 30
0.0
 41
1.0
 10
815.39298598011874
 20
-1498.7274028804889
 30
0.0
 41
0.9995160693750194
 10
815.29211995058358
 20
-1498.8491702983647
 30
0.0
 41
1.0
 10
815.29018623050388
 20
-1498.8515047225717
 30
0.0
 41
1.0
 10
815.28825251042406
 20
-1498.8538391467787
 30
0.0
 41
1.0
 10
815.19125392105093
 20
-1498.9709377162383
 30
0.0
 41
0.9996561470514361
 10
815.10052770238576
 20
-1499.0929604786866
 30
0.0
 41
1.0
 10
815.09437003648236
 20
-1499.1012422677309
 30
0.0
 41
1.0
 10
815.08821237057884
 20
-1499.1095240567752
 30
0.0
 41
1.0
 10
815.00980148371661
 20
-1499.2149832411401
 30
0.0
 41
0.9998349055173609
 10
814.93527420178771
 20
-1499.323221824799
 30
0.0
 41
1.0
 10
814.86074691985186
 20
-1499.4314604084675
 30
0.0
 41
0.9999728109555064
 10
814.78782402393995
 20
-1499.5407863340256
 30
0.0
 41
1.0
 10
814.78650880853093
 20
-1499.5427581035242
 30
0.0
 41
1.0
 10
814.78519359312179
 20
-1499.5447298730228
 30
0.0
 41
1.0
 10
814.70964026640013
 20
-1499.6579993375653
 30
0.0
 41
0.9999972147363421
 10
814.63462245603989
 20
-1499.7716241803796
 30
0.0
 41
1.0
 10
814.6296509134047
 20
-1499.7791542688715
 30
0.0
 41
1.0
 10
814.6246793707694
 20
-1499.7866843573634
 30
0.0
 41
1.0
 10
814.53971847515174
 20
-1499.9153693771423
 30
0.0
 41
0.9999371979001914
 10
814.4576631257496
 20
-1500.045926290916
 30
0.0
 41
1.0
 10
814.45415424138594
 20
-1500.0515092189839
 30
0.0
 41
1.0
 10
814.45064535702227
 20
-1500.0570921470521
 30
0.0
 41
1.0
 10
814.36157223889313
 20
-1500.198814916962
 30
0.0
 41
0.9998272025611108
 10
814.27782884801275
 20
-1500.3437507937012
 30
0.0
 41
1.0
 10
814.26261367598818
 20
-1500.3700839081589
 30
0.0
 41
1.0
 10
814.24739850396372
 20
-1500.3964170226163
 30
0.0
 41
1.0
 10
814.13322476903238
 20
-1500.5940191282741
 30
0.0
 41
0.9995217214838328
 10
814.03148507947571
 20
-1500.7983014561385
 30
0.0
 41
1.0
 10
814.02384151684328
 20
-1500.8136489058361
 30
0.0
 41
1.0
 10
814.01619795421084
 20
-1500.8289963555339
 30
0.0
 41
1.0
 10
813.92929266162105
 20
-1501.0034928136156
 30
0.0
 41
0.9998269762607451
 10
813.84893819534602
 20
-1501.1811011003451
 30
0.0
 41
1.0
 10
813.76858372907122
 20
-1501.3587093870742
 30
0.0
 41
0.9998944747386733
 10
813.69342293450723
 20
-1501.538577112703
 30
0.0
 41
1.0
 10
813.68846926491597
 20
-1501.5504317676209
 30
0.0
 41
1.0
 10
813.68351559532459
 20
-1501.5622864225386
 30
0.0
 41
1.0
 10
813.60286853477294
 20
-1501.7552833625541
 30
0.0
 41
0.9999506734411389
 10
813.52607100587022
 20
-1501.9498441674082
 30
0.0
 41
1.0
 10
813.51147104060112
 20
-1501.9868320892097
 30
0.0
 41
1.0
 10
813.49687107533202
 20
-1502.0238200110109
 30
0.0
 41
1.0
 10
813.44927347696148
 20
-1502.1444049722772
 30
0.0
 41
0.9999912393910418
 10
813.40268703294419
 20
-1502.26538417496
 30
0.0
 41
1.0
 10
813.35610058892564
 20
-1502.3863633776455
 30
0.0
 41
0.999992711395796
 10
813.31043929453631
 20
-1502.5076947851339
 30
0.0
 41
1.0
 10
813.29647086313412
 20
-1502.5448117671449
 30
0.0
 41
1.0
 10
813.28250243173193
 20
-1502.5819287491556
 30
0.0
 41
1.0
 10
813.20890427454401
 20
-1502.7774941206512
 30
0.0
 41
0.9999487550948641
 10
813.13928064957418
 20
-1502.9745094858281
 30
0.0
 41
1.0
 10
813.11568703963553
 20
-1503.0412727961261
 30
0.0
 41
1.0
 10
813.09209342969677
 20
-1503.1080361064239
 30
0.0
 41
1.0
 10
812.99740779532658
 20
-1503.3759699412474
 30
0.0
 41
0.9999808436930856
 10
812.90604620668489
 20
-1503.6450553725128
 30
0.0
 41
1.0
 10
812.81468461804525
 20
-1503.9141408037722
 30
0.0
 41
0.999987393290293
 10
812.72602990933592
 20
-1504.1841301587585
 30
0.0
 41
1.0
 10
812.70593755246125
 20
-1504.2453194915274
 30
0.0
 41
1.0
 10
812.68584519558658
 20
-1504.3065088242965
 30
0.0
 41
1.0
 10
812.55700577312916
 20
-1504.6988768448177
 30
0.0
 41
0.9999794883026484
 10
812.43320298816889
 20
-1505.092863051103
 30
0.0
 41
1.0
 10
812.42205072874037
 20
-1505.1283536613114
 30
0.0
 41
1.0
 10
812.41089846931186
 20
-1505.16384427152
 30
0.0
 41
1.0
 10
812.26834030542068
 20
-1505.6175170235865
 30
0.0
 41
0.9999982761775307
 10
812.12746786538412
 20
-1506.0717160457768
 30
0.0
 41
1.0
 10
810.53932753281151
 20
-1511.1204857767802
 30
0.0
 41
1.0
 10
808.95118720023891
 20
-1516.1692555077834
 30
0.0
 41
1.0
 10
808.00243658876252
 20
-1516.1692555077834
 30
0.0
 41
1.0
 10
807.05368597728614
 20
-1516.1692555077834
 30
0.0
 41
1.0
 10
810.29197046343938
 20
-1505.8419333078373
 30
0.0
 41
1.0
 10
813.53025494959252
 20
-1495.5146111078911
 30
0.0
 41
1.0
  0
LWPOLYLINE
  5
52
100
AcDbEntity
  8
0
370
              15
390
0
  6
Continuous
 62
               7
100
AcDbPolyline
 90
      232
 70
             128
 10
787.82670917576547
 20
-1496.5989539394063
 42
0.0004370800680846
 10
787.77383200176644
 20
-1496.6676205785675
 10
787.734547770566
 20
-1496.7187276915593
 42
0.0030481992180247
 10
787.60420905341232
 20
-1496.8904493839493
 10
787.5656973816964
 20
-1496.9418361676915
 42
0.004205824576141
 10
787.36171233102266
 20
-1497.2188419127706
 10
787.30930720852587
 20
-1497.291274759546
 42
0.0120948898744805
 10
787.01326329176027
 20
-1497.7220243641013
 10
786.91707079263858
 20
-1497.8695050993258
 42
0.0141601263948813
 10
786.61342674572052
 20
-1498.3651744360552
 10
786.57388947828815
 20
-1498.4340184034982
 42
0.0071131081304023
 10
786.3686171550562
 20
-1498.8035212023251
 42
0.006845879100513
 10
786.17373762821046
 20
-1499.1786127658065
 10
786.16692576575531
 20
-1499.192174479525
 42
0.0064120880291875
 10
785.96878351570933
 20
-1499.5995989544474
 10
785.96124883019399
 20
-1499.615610811165
 42
0.0058857236447811
 10
785.75849343832783
 20
-1500.0599869221874
 10
785.75031851202834
 20
-1500.0784770758339
 42
0.0053189741896809
 10
785.54161419936122
 20
-1500.5644405497508
 10
785.53286639367946
 20
-1500.5854224279478
 42
0.0047503650420128
 10
785.31689266752244
 20
-1501.1176218611736
 10
785.30762441918068
 20
-1501.1410982372654
 42
0.0042071762171885
 10
785.08307703545017
 20
-1501.7241918313423
 10
785.07332763310421
 20
-1501.7501580062049
 42
0.0036680086485337
 10
784.83887298979391
 20
-1502.3887933907315
 10
784.82866520994435
 20
-1502.4172419250808
 42
0.0032573142627658
 10
784.58303292397511
 20
-1503.1160945848414
 10
784.51438240313462
 20
-1503.3155576688939
 42
0.0026133366649271
 10
784.16593720437891
 20
-1504.3454209525589
 10
784.10268041687618
 20
-1504.5356517879582
 42
0.0020592950741687
 10
783.88881734791119
 20
-1505.1877554405651
 10
783.88576555674354
 20
-1505.197191928989
 42
0.0025609928535662
 10
783.68394505526226
 20
-1505.8323371513407
 10
783.68135368813978
 20
-1505.8406394922674
 42
0.0031362356240982
 10
783.49186290245871
 20
-1506.4614023484608
 10
783.48973185953082
 20
-1506.4685436546736
 42
0.0037229918026935
 10
783.31293147260487
 20
-1507.0775289566459
 10
783.3112528834049
 20
-1507.0834758467972
 42
0.0043077623707347
 10
783.14751208133339
 20
-1507.6832945785895
 42
0.0047654161823602
 10
782.99468335881829
 20
-1508.2859806674883
 10
782.96021874997837
 20
-1508.4275424446414
 42
0.0112969368445595
 10
782.76435439183547
 20
-1509.319234605262
 10
782.73634800273805
 20
-1509.4620626513636
 42
0.0130056762570127
 10
782.53551075909149
 20
-1510.6490037230085
 10
782.51497100894392
 20
-1510.7930818364889
 42
0.0138721532145601
 10
782.41126800440645
 20
-1511.6999113223112
 10
782.39197251649784
 20
-1511.9234090442455
 42
0.0071254697012206
 10
782.35862587057591
 20
-1512.3865960530834
 10
782.3536648964124
 20
-1512.4726000476494
 42
0.0028881799198681
 10
782.33852660312277
 20
-1512.7643417574864
 42
0.0060297297141143
 10
782.32859440334721
 20
-1513.0562906936082
 10
782.32753212168018
 20
-1513.1046830655353
 42
0.022952316415756
 10
782.33526314946596
 20
-1513.4274379118178
 10
782.33948892298633
 20
-1513.4878414458333
 42
0.0123673300666995
 10
782.35856756950466
 20
-1513.6889621710088
 42
0.0128577674471234
 10
782.38776295991113
 20
-1513.8888600209368
 10
782.39488883329795
 20
-1513.9301888355326
 42
0.0285717853764708
 10
782.45938283499413
 20
-1514.2083049868475
 10
782.47305135866031
 20
-1514.2549597563234
 42
0.0316283099165186
 10
782.58886193857438
 20
-1514.5739742581488
 10
782.59191063032972
 20
-1514.580960630474
 42
0.0338984824237245
 10
782.74134234129701
 20
-1514.8685265946635
 10
782.74365107066626
 20
-1514.8723176239384
 42
0.0350228718357916
 10
782.92601136134044
 20
-1515.1293696086163
 10
782.92689661311624
 20
-1515.1304486863812
 42
0.0347476747533861
 10
783.14132130035557
 20
-1515.3576337336003
 42
0.0331337701910321
 10
783.38456462610247
 20
-1515.5537623956782
 10
783.3856647246181
 20
-1515.5545350988505
 42
0.0305233319081612
 10
783.65420942019387
 20
-1515.7196632689429
 10
783.65743946469274
 20
-1515.7213872808043
 42
0.0273744481156478
 10
783.94999317626718
 20
-1515.8575254246948
 10
783.95509771140451
 20
-1515.8595690091645
 42
0.024096440619625
 10
784.27057478705001
 20
-1515.9685527354457
 10
784.27715811626013
 20
-1515.9704774751208
 42
0.020963617981643
 10
784.61455826891677
 20
-1516.0539456230538
 10
784.62219072936148
 20
-1516.0554975360544
 42
0.0181388704692426
 10
784.98051312135976
 20
-1516.1149136292684
 10
784.98879396973803
 20
-1516.1159798130855
 42
0.0156086547587568
 10
785.36698133392849
 20
-1516.1527159996622
 10
785.41017658625219
 20
-1516.1555545021411
 42
0.013714832902181
 10
785.73784973155284
 20
-1516.1680747573923
 10
785.78378592150534
 20
-1516.1685691905077
 42
0.0051057823887087
 10
786.01993150807107
 20
-1516.1686994449169
 42
0.0052256693310596
 10
786.2560287918584
 20
-1516.1639506204524
 10
786.32625557559913
 20
-1516.1618036544385
 42
0.0161507179046362
 10
786.70199265369888
 20
-1516.1381532841121
 10
786.7220056140734
 20
-1516.1362430888244
 42
0.0101216737834311
 10
787.13603283556756
 20
-1516.0882501584583
 10
787.17008612499092
 20
-1516.0836024616492
 42
0.0245291776397038
 10
787.64687578053929
 20
-1515.9945273835735
 10
787.73169909606418
 20
-1515.9743314632276
 42
0.0143509212558901
 10
788.08833020000566
 20
-1515.8785268294482
 42
0.0156557857041892
 10
788.43854626473546
 20
-1515.7615156136285
 10
788.44604747922756
 20
-1515.7587454518753
 42
0.0170137333631036
 10
788.80264347490822
 20
-1515.6130878370045
 10
788.80974739731641
 20
-1515.6099000014406
 42
0.0183105364407092
 10
789.16909706548176
 20
-1515.4325649596169
 10
789.17604383012144
 20
-1515.4288145247442
 42
0.0194899958148726
 10
789.5345245711045
 20
-1515.2168355428541
 10
789.5415384504422
 20
-1515.2123102005585
 42
0.0204869852946716
 10
789.89555275253281
 20
-1514.9627901854751
 10
789.90281836112308
 20
-1514.9572101201243
 42
0.0212516938554876
 10
790.24880829223071
 20
-1514.66730612323
 10
790.29532498630817
 20
-1514.6248388131346
 42
0.0215248918255579
 10
790.55535115519433
 20
-1514.3660745341413
 10
790.60038088958174
 20
-1514.3172304127843
 42
0.0114578554956806
 10
790.7551730432524
 20
-1514.1414074793333
 10
790.76636757923859
 20
-1514.1280887157884
 42
0.006153130513605
 10
790.89284222523338
 20
-1513.9737991824823
 42
0.0006325587111853
 10
791.01722070925302
 20
-1513.8177958069725
 10
791.04026084443672
 20
-1513.788822286147
 42
0.0041897761550778
 10
791.20871624840993
 20
-1513.5733029100845
 10
791.26717836830153
 20
-1513.4972015631001
 42
0.0092993880040918
 10
791.54379029553388
 20
-1513.1229227992039
 10
791.62618478872423
 20
-1513.0069857956476
 42
0.0159321727085459
 10
791.97279127136653
 20
-1512.4848115748914
 10
792.01714740675186
 20
-1512.4131320106474
 42
0.0085547317019168
 10
792.25165917208142
 20
-1512.0192570614167
 42
0.008460115688772
 10
792.4726353495297
 20
-1511.6176302123729
 10
792.48075082335379
 20
-1511.6022705301116
 42
0.0081429654284242
 10
792.70400009378545
 20
-1511.1625490175827
 10
792.71286025797531
 20
-1511.1443701755516
 42
0.0076574581329638
 10
792.93926776854721
 20
-1510.6611873002869
 10
792.94874740926571
 20
-1510.6401228219952
 42
0.0070682724201307
 10
793.17919231707458
 20
-1510.1080855172092
 10
793.1891826010542
 20
-1510.0840963282026
 42
0.0064559514449016
 10
793.4245158092366
 20
-1509.4977840616816
 10
793.43492516740093
 20
-1509.4708491362412
 42
0.0058311413905054
 10
793.67597190416063
 20
-1508.824817041866
 10
793.68672698155115
 20
-1508.7949327006972
 42
0.0052312425819044
 10
793.93430825959445
 20
-1508.0837302868554
 10
793.94535209597188
 20
-1508.0509035747928
 42
0.0046680544795846
 10
794.20028052369969
 20
-1507.2690772590588
 10
794.24227267374772
 20
-1507.1360940217528
 42
0.0041666856446073
 10
794.44555868614475
 20
-1506.4731252467404
 10
794.48322112679386
 20
-1506.3465441391363
 42
0.0015170975156772
 10
794.60440770522166
 20
-1505.9346757875931
 42
-0.0004887993115324
 10
794.72474747830017
 20
-1505.5225573757041
 10
794.80122473583992
 20
-1505.26159998961
 42
0.0002583378929194
 10
795.07443930590705
 20
-1504.3275432864209
 10
795.15621215549254
 20
-1504.0474440268072
 42
0.0006636169672779
 10
795.35007991549207
 20
-1503.3800911032608
 10
795.3551765698495
 20
-1503.3624595203448
 42
0.0010589131323524
 10
795.53662527075574
 20
-1502.7297281773319
 10
795.54160734123752
 20
-1502.7122152703071
 42
0.0015655524464586
 10
795.70987754841894
 20
-1502.113598591111
 10
795.71470774882926
 20
-1502.0962064321918
 42
0.0021640440480012
 10
795.86899772082006
 20
-1501.5311794141571
 10
795.87363194026102
 20
-1501.513914684122
 42
0.0028763871856634
 10
796.01314765830284
 20
-1500.9819467333161
 10
796.0175335224684
 20
-1500.9648227551684
 42
0.0037310511947574
 10
796.14149021430694
 20
-1500.4653751611377
 10
796.14556543459469
 20
-1500.4484148898973
 42
0.0047652197772541
 10
796.25318933510448
 20
-1499.9809371215872
 10
796.25687993442909
 20
-1499.9641775664318
 42
0.0060276699299547
 10
796.34741003358158
 20
-1499.528101771293
 10
796.35062872387027
 20
-1499.511600556986
 42
0.0075824337759361
 10
796.42331803328614
 20
-1499.1063333925576
 10
796.42596341066678
 20
-1499.0901784451048
 42
0.0095130624607647
 10
796.48007864629767
 20
-1498.7150890920352
 10
796.48706487018046
 20
-1498.6591555339166
 42
0.0121054653226232
 10
796.51365620075808
 20
-1498.3942597054449
 10
796.51452269051765
 20
-1498.3828562625158
 42
0.0069050827391665
 10
796.52961150855526
 20
-1498.1399150356715
 10
796.53074680822431
 20
-1498.1163887786158
 42
0.0169063976699925
 10
796.53357408720422
 20
-1497.920196051326
 10
796.53240343567325
 20
-1497.8598602899895
 42
0.0052007732883333
 10
796.53014998707988
 20
-1497.7842668998248
 42
0.0054038123303107
 10
796.51018647524143
 20
-1497.6642486038174
 10
796.50510061937052
 20
-1497.6355901172337
 42
0.0112050460467125
 10
796.46971625731135
 20
-1497.4592636788914
 10
796.45189129527148
 20
-1497.3797220921738
 42
0.0240764468005715
 10
796.36099392912479
 20
-1497.0494850566713
 10
796.34243516631193
 20
-1496.9928648916793
 42
0.0256812331835757
 10
796.19907224612234
 20
-1496.6211406854216
 10
796.1936628203008
 20
-1496.6090093504315
 42
0.0268360501219895
 10
796.02423557945099
 20
-1496.2780162164108
 10
796.01869917181546
 20
-1496.2684965460976
 42
0.0274670231732586
 10
795.82649819540256
 20
-1495.9762091711814
 10
795.82111689543865
 20
-1495.9689300236382
 42
0.0275035967106908
 10
795.6095440158781
 20
-1495.7134141333358
 10
795.60447451491143
 20
-1495.7079350457052
 42
0.026955767352942
 10
795.37707097147199
 20
-1495.487292759743
 10
795.37232791368865
 20
-1495.4831628052816
 42
0.0259124802209192
 10
795.13277308225861
 20
-1495.2954722781301
 10
795.12824223707435
 20
-1495.2922867757982
 42
0.0245162153007905
 10
794.88032588398198
 20
-1495.1355537666891
 10
794.8757993376604
 20
-1495.1329935694898
 42
0.0229282588834924
 10
794.62337978083042
 20
-1495.0051253769893
 10
794.61859928699357
 20
-1495.0029730772274
 42
0.0212984135693542
 10
794.365561334532
 20
-1494.9017741599851
 10
794.36025704956148
 20
-1494.8999105972248
 42
0.0197555462339904
 10
794.11047871183951
 20
-1494.8230951792602
 42
0.0183511896789596
 10
793.85554998637235
 20
-1494.7655122722942
 10
793.76918478965422
 20
-1494.7493094819101
 42
0.0338057877151175
 10
793.48367744039297
 20
-1494.7155010767697
 10
793.39267203534678
 20
-1494.7109214215079
 42
0.0091990524499131
 10
793.28682492671703
 20
-1494.7075455655861
 42
0.002833398077229
 10
793.18091101073844
 20
-1494.7067174580693
 10
793.17999555767483
 20
-1494.7067154882452
 42
-0.0023619827808536
 10
793.07224954255423
 20
-1494.7059746471666
 10
793.03584437239306
 20
-1494.7055523407039
 42
0.0008824598484354
 10
792.85528838252583
 20
-1494.7037765624655
 10
792.81142695013716
 20
-1494.70342260094
 42
0.0038132665772587
 10
792.54314405423884
 20
-1494.7033036648734
 10
792.52661039946486
 20
-1494.7034224310169
 42
0.0060665569332342
 10
792.22532990788068
 20
-1494.7092427304374
 10
792.2110795758482
 20
-1494.7096910384053
 42
0.0080356953338907
 10
791.8816208595033
 20
-1494.7253587604725
 10
791.86955084442172
 20
-1494.7261273434126
 42
0.0098996399105973
 10
791.51678775977405
 20
-1494.7556125726105
 10
791.50674205039616
 20
-1494.7566528688089
 42
0.0117740981365734
 10
791.13558519205174
 20
-1494.8039451163381
 10
791.12736249556485
 20
-1494.8051902329096
 42
0.0137435215135692
 10
790.74277367607704
 20
-1494.8742872064718
 10
790.73611663695647
 20
-1494.8756731027047
 42
0.0158359869385572
 10
790.34311954315228
 20
-1494.9705651911861
 10
790.33770635628684
 20
-1494.9720551320561
 42
0.0180554124026387
 10
789.9413913116764
 20
-1495.096693148294
 10
789.93683452359096
 20
-1495.098309184561
 42
0.0203657431281901
 10
789.54235700577897
 20
-1495.2565695260771
 10
789.53821346677228
 20
-1495.2584311475189
 42
0.0226819684655173
 10
789.15077741056996
 20
-1495.4540737261889
 10
789.1465776195505
 20
-1495.4564393181095
 42
0.0248634984608661
 10
788.77139567836673
 20
-1495.6930659640586
 10
788.72320074958805
 20
-1495.7269230058807
 42
0.026704419088376
 10
788.4489080526688
 20
-1495.9423633817505
 42
0.0139303002196105
 10
788.19274088673376
 20
-1496.179602222659
 10
788.18788750100907
 20
-1496.1843548855227
 42
0.0283460963442266
 10
787.94381490677858
 20
-1496.4520855459716
 10
787.90414640162533
 20
-1496.5008871234409
 42
0.0070695364826246
 10
787.82670917576547
 20
-1496.5989539394063
 42
0.0070695364826246
  0
LWPOLYLINE
  5
53
100
AcDbEntity
  8
0
370
              15
390
0
  6
Continuous
 62
               7
100
AcDbPolyline
 90
      226
 70
             128
 10
784.29788873851908
 20
-1512.3205427455903
 42
-0.0026277636626413
 10
784.29781085471905
 20
-1512.2537708198511
 10
784.29802821295107
 20
-1512.200615602404
 42
-0.0088680296725808
 10
784.30180482924436
 20
-1512.027599819997
 10
784.30415118835663
 20
-1511.9683197945474
 42
-0.0077381705614733
 10
784.32019729911917
 20
-1511.6770592987566
 10
784.32106521029277
 20
-1511.6647710650641
 42
-0.0068872530535301
 10
784.34769729004017
 20
-1511.3495493130029
 10
784.34890151422701
 20
-1511.3373083339766
 42
-0.0062130021491051
 10
784.38649523105551
 20
-1510.9984386427332
 10
784.38799913459002
 20
-1510.9862647708214
 42
-0.0056726929670023
 10
784.436920994091
 20
-1510.6240695487161
 10
784.43869443973665
 20
-1510.6119757484626
 42
-0.0052341884499197
 10
784.49930502599443
 20
-1510.2267824929581
 10
784.50132301477333
 20
-1510.2147775629523
 42
-0.0049768450167517
 10
784.57406169619799
 20
-1509.8069329955283
 10
784.5983107109214
 20
-1509.6783850125139
 42
-0.0089029805625258
 10
784.73539156271465
 20
-1509.016609565098
 10
784.76813693803467
 20
-1508.8715781345679
 42
-0.0080318257096905
 10
784.99768555237756
 20
-1507.9258685027057
 10
785.00967047882364
 20
-1507.879737867524
 42
-0.0074265721319394
 10
785.2936820176742
 20
-1506.8496732891415
 10
785.3135615607905
 20
-1506.7815392285531
 42
-0.0069711922702355
 10
785.64086613929692
 20
-1505.7152714882263
 10
785.70081808639873
 20
-1505.529250129867
 42
-0.0052070422894357
 10
785.9302433116618
 20
-1504.8419780528243
 10
785.94752450383157
 20
-1504.7919507722142
 42
-0.0009167004450512
 10
786.15061639112332
 20
-1504.2074949240532
 42
-0.0025162726943876
 10
786.35771402138857
 20
-1503.6244536598833
 10
786.39493863319092
 20
-1503.5213041139862
 42
-0.0028212681456279
 10
786.64311455215443
 20
-1502.845573481814
 10
786.65294531490304
 20
-1502.8192660371428
 42
-0.0031964916820112
 10
786.88923757256748
 20
-1502.1990612750103
 10
786.89887202657019
 20
-1502.1742512848575
 42
-0.0036281836450339
 10
787.12397798766767
 20
-1501.6068106039738
 10
787.13341639781959
 20
-1501.5835131724846
 42
-0.0041269166833825
 10
787.34803409448432
 20
-1501.0660722764928
 10
787.38066705091114
 20
-1500.9891938301178
 42
-0.0047472213054854
 10
787.53771185645871
 20
-1500.6287723622484
 10
787.54460593767055
 20
-1500.6133517649082
 42
-0.0025651659995342
 10
787.69296397151709
 20
-1500.2860237091679
 42
-0.0057144634997987
 10
787.84671366528391
 20
-1499.9612140358147
 10
787.87474437069318
 20
-1499.9037056534041
 42
-0.0065388068373722
 10
788.05821139842942
 20
-1499.5394731567462
 10
788.0666698542077
 20
-1499.523213577377
 42
-0.0074510843022822
 10
788.24285210008577
 20
-1499.1965252962541
 10
788.25103177061817
 20
-1499.1818845189828
 42
-0.0084648979857419
 10
788.42066562371679
 20
-1498.889975508024
 10
788.42852175020766
 20
-1498.8769685163686
 42
-0.0095638542806444
 10
788.59235719779917
 20
-1498.6170796443946
 10
788.59983214146894
 20
-1498.6057102829423
 42
-0.0107191626806597
 10
788.75863372185847
 20
-1498.375099048395
 10
788.765650455588
 20
-1498.3653629560324
 42
-0.0118458573904045
 10
788.92019855410206
 20
-1498.1612907607198
 42
-0.0129184518193354
 10
789.08465117770538
 20
-1497.9651302445473
 10
789.11479595006813
 20
-1497.9310041656483
 42
-0.0217742579635521
 10
789.29140827240212
 20
-1497.7477973953996
 10
789.30215381685127
 20
-1497.7375805622073
 42
-0.009726656865493
 10
789.4682114357181
 20
-1497.5857329877595
 42
-0.0187720905719651
 10
789.64255901160948
 20
-1497.4436641343689
 10
789.67326500228671
 20
-1497.4205050519704
 42
-0.0179428207514494
 10
789.90568572227801
 20
-1497.2579528748624
 10
789.90933804919223
 20
-1497.2555889399757
 42
-0.0170047877702255
 10
790.14510168672416
 20
-1497.1141284258233
 10
790.14888467546803
 20
-1497.1120301207884
 42
-0.0160190788370475
 10
790.38579322310602
 20
-1496.9903788187989
 42
-0.015110286149157
 10
790.62982500555393
 20
-1496.8836960427436
 10
790.68221150776446
 20
-1496.8626559098495
 42
-0.0271945441888129
 10
791.04087406682231
 20
-1496.7407910991437
 10
791.10993886731137
 20
-1496.7214415578771
 42
-0.0237596594021134
 10
791.52573571433322
 20
-1496.6259908458956
 10
791.5937985680639
 20
-1496.6137361577689
 42
-0.0213715440554466
 10
791.87967349950895
 20
-1496.574789126259
 10
791.93982066573494
 20
-1496.5691994115575
 42
-0.0101465655815126
 10
792.10731319772117
 20
-1496.5570558682939
 10
792.11665358391747
 20
-1496.5565689532968
 42
-0.0100375910880865
 10
792.26580768448196
 20
-1496.5517931353716
 10
792.27606695416421
 20
-1496.5516706963572
 42
-0.0103625633381723
 10
792.40477494881725
 20
-1496.5528021298837
 10
792.42704060008623
 20
-1496.5534594883486
 42
-0.0115689250219849
 10
792.51109133761202
 20
-1496.5578889945937
 42
-0.0072438037439932
 10
792.59492961704552
 20
-1496.5654781943426
 10
792.61173012652398
 20
-1496.5672447370673
 42
-0.0217917313123553
 10
792.7282998898396
 20
-1496.5846646297887
 10
792.79389998040347
 20
-1496.5974112382028
 42
-0.0332943556756555
 10
792.99829214543274
 20
-1496.6514515295098
 10
793.02846471398357
 20
-1496.6616196066286
 42
-0.0184824084796009
 10
793.16696977044808
 20
-1496.7140706220148
 42
-0.0198002050689139
 10
793.30104411094726
 20
-1496.7769546822142
 10
793.30293074832434
 20
-1496.7779324690941
 42
-0.0212242342980283
 10
793.43506969072416
 20
-1496.8536952078859
 10
793.43688498626989
 20
-1496.8548410100957
 42
-0.0226090605801128
 10
793.56538888749049
 20
-1496.9443206536594
 10
793.56723332922888
 20
-1496.9457329066477
 42
-0.0238457052230487
 10
793.69041541052172
 20
-1497.0497288025097
 10
793.69236813908094
 20
-1497.0515436802762
 42
-0.0248160564154609
 10
793.80856964638178
 20
-1497.170818281485
 10
793.81067327978371
 20
-1497.1732036151893
 42
-0.0254109591448671
 10
793.91827849764945
 20
-1497.3084920011534
 10
793.92052651956374
 20
-1497.3116335495542
 42
-0.0255528488284985
 10
794.01797319836146
 20
-1497.4636606037895
 10
794.02030429827687
 20
-1497.4677422153959
 42
-0.0252146793217284
 10
794.10608532428569
 20
-1497.6372444613921
 10
794.10838756344367
 20
-1497.6424265433059
 42
-0.0244265635948051
 10
794.1810422572056
 20
-1497.8301731153538
 10
794.19028865867313
 20
-1497.8580385336886
 42
-0.0231319612906979
 10
794.23621143766559
 20
-1498.0213395804919
 42
-0.0112130424358314
 10
794.27084746020375
 20
-1498.1875431806804
 10
794.27204998531624
 20
-1498.194039767568
 42
-0.0210527881239189
 10
794.29773646068702
 20
-1498.3750954130078
 10
794.30124705550907
 20
-1498.4105009615564
 42
-0.0190029892420864
 10
794.31668852905352
 20
-1498.6640368078272
 10
794.31749850549761
 20
-1498.6995124221976
 42
-0.0137974553662333
 10
794.31594965266208
 20
-1499.0245438289312
 10
794.31510419770655
 20
-1499.0506625735227
 42
-0.008133663421567
 10
794.30024486248396
 20
-1499.3560100411232
 42
-0.0073526923571998
 10
794.27593632910987
 20
-1499.6607582854035
 10
794.27467490532661
 20
-1499.6740949600744
 42
-0.0066886138699455
 10
794.23893931928228
 20
-1500.0046810035547
 10
794.23728222981026
 20
-1500.0183026225632
 42
-0.0061359187354092
 10
794.18943162776009
 20
-1500.3750666026579
 10
794.18739412668651
 20
-1500.3889614054924
 42
-0.0056698610058933
 10
794.12674379591749
 20
-1500.7722399743418
 10
794.12433836259629
 20
-1500.7863990935612
 42
-0.0052721077276089
 10
794.05020616179968
 20
-1501.1965264332237
 10
794.047443012955
 20
-1501.2109430686251
 42
-0.0049289272177193
 10
793.95914889485584
 20
-1501.6482515797436
 10
793.95603640017248
 20
-1501.6629204325632
 42
-0.0047415956714293
 10
793.85279840864462
 20
-1502.127717189954
 10
793.81803019828033
 20
-1502.277524285357
 42
-0.0084404470903725
 10
793.62801375471111
 20
-1503.0377483098785
 10
793.62188706672282
 20
-1503.0606124340416
 42
-0.0039635940257257
 10
793.40043338243311
 20
-1503.8616012983086
 10
793.38705658725928
 20
-1503.9085329148807
 42
-0.0072475040835911
 10
793.11960969939605
 20
-1504.7977526312718
 10
793.04939737257268
 20
-1505.0194929812312
 42
-0.0051345458829167
 10
792.76263800050992
 20
-1505.8938181690542
 10
792.74111173374604
 20
-1505.9572444361736
 42
-0.0019150016602576
 10
792.48557832687572
 20
-1506.7007935564102
 10
792.47911072248269
 20
-1506.7193810213223
 42
-0.0021524362750818
 10
792.23063267141561
 20
-1507.4237068430398
 10
792.22142225072309
 20
-1507.4494604213301
 42
-0.002433128682338
 10
791.98516699168317
 20
-1508.1000597294592
 10
791.97611903913207
 20
-1508.1246030358152
 42
-0.002744972179032
 10
791.7515044682973
 20
-1508.7237329147381
 10
791.74261446089622
 20
-1508.7470555046134
 42
-0.003108322976849
 10
791.52907197429511
 20
-1509.29697954217
 10
791.52033584262585
 20
-1509.319069258012
 42
-0.003531134328378
 10
791.31729465702779
 20
-1509.8220523837579
 10
791.3087093178832
 20
-1509.8428951072606
 42
-0.0040245640950239
 10
791.11559751408561
 20
-1510.3012044298607
 10
791.10716140047907
 20
-1510.320783797941
 42
-0.0046015135849939
 10
790.92340510731879
 20
-1510.7366888275749
 10
790.91511892949416
 20
-1510.7549859670191
 42
-0.0052768638269342
 10
790.74014141053499
 20
-1511.1307588512973
 10
790.73200919990677
 20
-1511.147752189843
 42
-0.0060672675638748
 10
790.56522958714208
 20
-1511.4856678129547
 10
790.55726010665865
 20
-1511.5013330719557
 42
-0.0069904648868277
 10
790.39809171265892
 20
-1511.8036688786156
 10
790.39030031304821
 20
-1511.8179794278428
 42
-0.0080637022773111
 10
790.23814845270226
 20
-1512.0870147309961
 10
790.23055942006431
 20
-1512.0999425966081
 42
-0.0093006455661543
 10
790.08481874353959
 20
-1512.3379569950998
 10
790.07746807678666
 20
-1512.3494749642875
 42
-0.0107060778046537
 10
789.93751953335754
 20
-1512.5587452816521
 10
789.93045776507847
 20
-1512.5688308242172
 42
-0.0122723111418961
 10
789.79566404687966
 20
-1512.7516241537069
 10
789.79533782332942
 20
-1512.7520445415116
 42
-0.0141836319632877
 10
789.65175622035167
 20
-1512.9266142993461
 10
789.6448084646978
 20
-1512.934589299613
 42
-0.0175957477201456
 10
789.50490229666502
 20
-1513.0842101880157
 42
-0.0080466359676025
 10
789.35743853163183
 20
-1513.2265327161695
 10
789.31140398711727
 20
-1513.2695531542581
 42
-0.0269600260390024
 10
789.05812374113202
 20
-1513.4818764127692
 10
788.99155660483439
 20
-1513.5318278273935
 42
-0.0178362839751391
 10
788.7516121151815
 20
-1513.6988457536436
 10
788.74436714417914
 20
-1513.7035142658497
 42
-0.0174650732645733
 10
788.50803094673984
 20
-1513.8443752308076
 42
-0.0169240130166045
 10
788.26256470087981
 20
-1513.9686674905861
 10
788.21657854532418
 20
-1513.9900294461522
 42
-0.031888303684045
 10
787.86622768970335
 20
-1514.1263677556626
 10
787.7978621545401
 20
-1514.1480683761376
 42
-0.028443590990309
 10
787.4218120282485
 20
-1514.2442858116124
 10
787.38665386774676
 20
-1514.2511794074414
 42
-0.0243909341013025
 10
787.07321040683098
 20
-1514.2969004384711
 10
787.022929680066
 20
-1514.3017459853722
 42
-0.0196639292934591
 10
786.80733410253265
 20
-1514.3139942708863
 10
786.75551003136843
 20
-1514.314897531623
 42
-0.0100501510682074
 10
786.64308674970493
 20
-1514.3145971332699
 10
786.61142688831762
 20
-1514.3138760613836
 42
-0.0019752031099694
 10
786.56233455167944
 20
-1514.3125639011751
 10
786.55957424846224
 20
-1514.3124792093488
 42
0.0065378751988453
 10
786.51599767370249
 20
-1514.3117123181337
 42
-0.016797469463795
 10
786.47246685076846
 20
-1514.3100524196075
 10
786.46838751150858
 20
-1514.3097594087126
 42
-0.0081283276306891
 10
786.41682771377486
 20
-1514.3052124150752
 10
786.40508813989163
 20
-1514.3039844974965
 42
-0.0126703440174584
 10
786.33036984409659
 20
-1514.2942497064248
 10
786.30758197642126
 20
-1514.2906914505097
 42
-0.0117852088432405
 10
786.18804299058775
 20
-1514.2691284553523
 10
786.13266253882591
 20
-1514.257784915118
 42
-0.0251774592290689
 10
785.90581849981652
 20
-1514.1992869056846
 10
785.8610993099669
 20
-1514.18532008635
 42
-0.0146525199880158
 10
785.67470632242851
 20
-1514.1210535591517
 42
-0.0166929435851767
 10
785.49272866630167
 20
-1514.045246426097
 10
785.48807203502861
 20
-1514.043121525483
 42
-0.0191684358437735
 10
785.30288840377796
 20
-1513.949885441692
 10
785.29955581802255
 20
-1513.9480441941396
 42
-0.022118178180981
 10
785.11624551411785
 20
-1513.8359106957673
 10
785.11389571011182
 20
-1513.8343263977779
 42
-0.0254984685386482
 10
784.93760555972733
 20
-1513.7019152478088
 10
784.91512341202565
 20
-1513.6831629388728
 42
-0.0292492648814268
 10
784.79035447318154
 20
-1513.5660701392289
 42
-0.0159048957497739
 10
784.67651447573235
 20
-1513.438050147631
 10
784.67519568515218
 20
-1513.43646853461
 42
-0.0343813379563369
 10
784.57255842352549
 20
-1513.2945972088398
 10
784.54106689216496
 20
-1513.2440938167463
 42
-0.0369117275700743
 10
784.45517439026776
 20
-1513.0806165757979
 42
-0.0191751379907284
 10
784.38798100471104
 20
-1512.908211969793
 10
784.38621768095118
 20
-1512.903118625117
 42
-0.0378178042219879
 10
784.33642296216681
 20
-1512.7141778490343
 10
784.33042766643598
 20
-1512.6816172308338
 42
-0.0184846046474378
 10
784.30971046714239
 20
-1512.5398644102938
 42
-0.0179866351324298
 10
784.29937746206872
 20
-1512.3969735972144
 10
784.29932101962288
 20
-1512.3954159106001
 42
-0.0085497186109318
 10
784.29788873851908
 20
-1512.3205427455903
 42
-0.0085497186109318
  0
ENDBLK
  5
54
100
AcDbEntity
  8
template
390
0
100
AcDbBlockEnd
  0
BLOCK
  5
55
100
AcDbEntity
  8
notes
390
0
100
AcDbBlockBegin
  2
*D3
 70
               1
 10
0.0
 20
0.0
 30
0.0
  3
*D3
  1

  0
LINE
  5
56
100
AcDbEntity
  8
0
370
              -2
390
0
  6
Continuous
 62
               0
100
AcDbLine
 10
-659.71113947406752
 20
320.89524772944554
 30
0.0
 11
-659.71113947406752
 21
148.47544422260387
 31
0.0
  0
LINE
  5
57
100
AcDbEntity
  8
0
370
              -2
390
0
  6
Continuous
 62
               0
100
AcDbLine
 10
-299.71286202181011
 20
320.89524772944554
 30
0.0
 11
-299.71286202181011
 21
148.47544422260387
 31
0.0
  0
LINE
  5
58
100
AcDbEntity
  8
0
370
              -2
390
0
  6
Continuous
 62
               0
100
AcDbLine
 10
-659.71113947406752
 20
148.47544422260387
 30
0.0
 11
-299.71286202181011
 21
148.47544422260387
 31
0.0
  0
CIRCLE
  5
59
102
{ACAD_REACTORS
330
5A
102
}
100
AcDbEntity
  8
0
370
              -2
390
0
  6
Continuous
 62
               0
100
AcDbCircle
 10
-659.71113947406752
 20
148.47544422260387
 30
0.0
 40
1.9998779296875
  0
HATCH
  5
5A
100
AcDbEntity
  8
0
370
              -2
390
0
  6
Continuous
 62
               0
100
AcDbHatch
 10
0.0
 20
0.0
 30
0.0
210
0.0
220
0.0
230
1.0
  2
SOLID
 70
               1
 71
               1
 91
        1
 92
        1
 93
        1
 72
               2
 10
-659.71113947406752
 20
148.47544422260387
 40
1.9998779296875
 50
0.0
 51
360.0
 73
               0
 97
        1
330
59
 75
               0
 76
               1
 98
        1
 10
0.0
 20
0.0
  0
CIRCLE
  5
5B
102
{ACAD_REACTORS
330
5C
102
}
100
AcDbEntity
  8
0
370
              -2
390
0
  6
Continuous
 62
               0
100
AcDbCircle
 10
-299.71286202181011
 20
148.47544422260387
 30
0.0
 40
1.9998779296875
  0
HATCH
  5
5C
100
AcDbEntity
  8
0
370
              -2
390
0
  6
Continuous
 62
               0
100
AcDbHatch
 10
0.0
 20
0.0
 30
0.0
210
0.0
220
0.0
230
1.0
  2
SOLID
 70
               1
 71
               1
 91
        1
 92
        1
 93
        1
 72
               2
 10
-299.71286202181011
 20
148.47544422260387
 40
1.9998779296875
 50
0.0
 51
360.0
 73
               0
 97
        1
330
5B
 75
               0
 76
               1
 98
        1
 10
0.0
 20
0.0
  0
MTEXT
  5
5D
100
AcDbEntity
  8
0
390
0
 62
               0
100
AcDbMText
 10
-503.52450243011424
 20
182.35306141010386
 30
0.0
 40
24.432617187500004
 41
0.0
 71
               1
 72
               1
  1
360
  7
ＭＳ ゴシック
 73
               1
 44
0.7828267384257843
  0
POINT
  5
5E
100
AcDbEntity
  8
Defpoints
370
               0
390
0
 62
               0
100
AcDbPoint
 10
-299.71286202181011
 20
345.89524772944554
 30
0.0
  0
POINT
  5
5F
100
AcDbEntity
  8
Defpoints
370
               0
390
0
 62
               0
100
AcDbPoint
 10
-659.71113947406752
 20
345.89524772944554
 30
0.0
  0
POINT
  5
60
100
AcDbEntity
  8
Defpoints
370
               0
390
0
 62
               0
100
AcDbPoint
 10
-659.71113947406752
 20
148.47544422260387
 30
0.0
  0
ENDBLK
  5
61
100
AcDbEntity
  8
notes
390
0
100
AcDbBlockEnd
  0
BLOCK
  5
62
100
AcDbEntity
  8
notes
390
0
100
AcDbBlockBegin
  2
*D4
 70
               1
 10
0.0
 20
0.0
 30
0.0
  3
*D4
  1

  0
LINE
  5
63
100
AcDbEntity
  8
0
370
              -2
390
0
  6
Continuous
 62
               0
100
AcDbLine
 10
-694.70604381057262
 20
512.0239942985587
 30
0.0
 11
-694.70604381057262
 21
778.4733147738192
 31
0.0
  0
LINE
  5
64
100
AcDbEntity
  8
0
370
              -2
390
0
  6
Continuous
 62
               0
100
AcDbLine
 10
-264.71795768530524
 20
512.0239942985587
 30
0.0
 11
-264.71795768530524
 21
778.4733147738192
 31
0.0
  0
LINE
  5
65
100
AcDbEntity
  8
0
370
              -2
390
0
  6
Continuous
 62
               0
100
AcDbLine
 10
-694.70604381057262
 20
778.4733147738192
 30
0.0
 11
-264.71795768530524
 21
778.4733147738192
 31
0.0
  0
CIRCLE
  5
66
102
{ACAD_REACTORS
330
67
102
}
100
AcDbEntity
  8
0
370
              -2
390
0
  6
Continuous
 62
               0
100
AcDbCircle
 10
-694.70604381057262
 20
778.4733147738192
 30
0.0
 40
1.9998779296875
  0
HATCH
  5
67
100
AcDbEntity
  8
0
370
              -2
390
0
  6
Continuous
 62
               0
100
AcDbHatch
 10
0.0
 20
0.0
 30
0.0
210
0.0
220
0.0
230
1.0
  2
SOLID
 70
               1
 71
               1
 91
        1
 92
        1
 93
        1
 72
               2
 10
-694.70604381057262
 20
778.4733147738192
 40
1.9998779296875
 50
0.0
 51
360.0
 73
               0
 97
        1
330
66
 75
               0
 76
               1
 98
        1
 10
0.0
 20
0.0
  0
CIRCLE
  5
68
102
{ACAD_REACTORS
330
69
102
}
100
AcDbEntity
  8
0
370
              -2
390
0
  6
Continuous
 62
               0
100
AcDbCircle
 10
-264.71795768530524
 20
778.4733147738192
 30
0.0
 40
1.9998779296875
  0
HATCH
  5
69
100
AcDbEntity
  8
0
370
              -2
390
0
  6
Continuous
 62
               0
100
AcDbHatch
 10
0.0
 20
0.0
 30
0.0
210
0.0
220
0.0
230
1.0
  2
SOLID
 70
               1
 71
               1
 91
        1
 92
        1
 93
        1
 72
               2
 10
-264.71795768530524
 20
778.4733147738192
 40
1.9998779296875
 50
0.0
 51
360.0
 73
               0
 97
        1
330
68
 75
               0
 76
               1
 98
        1
 10
0.0
 20
0.0
  0
MTEXT
  5
6A
100
AcDbEntity
  8
0
390
0
 62
               0
100
AcDbMText
 10
-503.52450243011435
 20
812.35093196131925
 30
0.0
 40
24.432617187500004
 41
0.0
 71
               1
 72
               1
  1
430
  7
ＭＳ ゴシック
 73
               1
 44
0.7828267384257843
  0
POINT
  5
6B
100
AcDbEntity
  8
Defpoints
370
               0
390
0
 62
               0
100
AcDbPoint
 10
-264.71795768530524
 20
487.0239942985587
 30
0.0
  0
POINT
  5
6C
100
AcDbEntity
  8
Defpoints
370
               0
390
0
 62
               0
100
AcDbPoint
 10
-694.70604381057262
 20
487.0239942985587
 30
0.0
  0
POINT
  5
6D
100
AcDbEntity
  8
Defpoints
370
               0
390
0
 62
               0
100
AcDbPoint
 10
-694.70604381057262
 20
778.4733147738192
 30
0.0
  0
ENDBLK
  5
6E
100
AcDbEntity
  8
notes
390
0
100
AcDbBlockEnd
  0
BLOCK
  5
6F
100
AcDbEntity
  8
notes
390
0
100
AcDbBlockBegin
  2
*D5
 70
               1
 10
0.0
 20
0.0
 30
0.0
  3
*D5
  1

  0
LINE
  5
70
100
AcDbEntity
  8
0
370
              -2
390
0
  6
Continuous
 62
               0
100
AcDbLine
 10
-659.71113947406752
 20
320.89524772944554
 30
0.0
 11
-659.71113947406752
 21
148.47544422260387
 31
0.0
  0
LINE
  5
71
100
AcDbEntity
  8
0
370
              -2
390
0
  6
Continuous
 62
               0
100
AcDbLine
 10
-694.66672114918424
 20
434.11429384911958
 30
0.0
 11
-694.66672114918424
 21
148.4754442226039
 31
0.0
  0
LINE
  5
72
100
AcDbEntity
  8
0
370
              -2
390
0
  6
Continuous
 62
               0
100
AcDbLine
 10
-694.66672114918424
 20
148.4754442226039
 30
0.0
 11
-745.17335354227987
 21
148.4754442226039
 31
0.0
  0
LINE
  5
73
100
AcDbEntity
  8
0
370
              -2
390
0
  6
Continuous
 62
               0
100
AcDbLine
 10
-659.71113947406752
 20
148.47544422260387
 30
0.0
 11
-694.66672114918424
 21
148.4754442226039
 31
0.0
  0
CIRCLE
  5
74
102
{ACAD_REACTORS
330
75
102
}
100
AcDbEntity
  8
0
370
              -2
390
0
  6
Continuous
 62
               0
100
AcDbCircle
 10
-659.71113947406752
 20
148.47544422260387
 30
0.0
 40
1.9998779296875
  0
HATCH
  5
75
100
AcDbEntity
  8
0
370
              -2
390
0
  6
Continuous
 62
               0
100
AcDbHatch
 10
0.0
 20
0.0
 30
0.0
210
0.0
220
0.0
230
1.0
  2
SOLID
 70
               1
 71
               1
 91
        1
 92
        1
 93
        1
 72
               2
 10
-659.71113947406752
 20
148.47544422260387
 40
1.9998779296875
 50
0.0
 51
360.0
 73
               0
 97
        1
330
74
 75
               0
 76
               1
 98
        1
 10
0.0
 20
0.0
  0
CIRCLE
  5
76
102
{ACAD_REACTORS
330
77
102
}
100
AcDbEntity
  8
0
370
              -2
390
0
  6
Continuous
 62
               0
100
AcDbCircle
 10
-694.66672114918424
 20
148.4754442226039
 30
0.0
 40
1.9998779296875
  0
HATCH
  5
77
100
AcDbEntity
  8
0
370
              -2
390
0
  6
Continuous
 62
               0
100
AcDbHatch
 10
0.0
 20
0.0
 30
0.0
210
0.0
220
0.0
230
1.0
  2
SOLID
 70
               1
 71
               1
 91
        1
 92
        1
 93
        1
 72
               2
 10
-694.66672114918424
 20
148.4754442226039
 40
1.9998779296875
 50
0.0
 51
360.0
 73
               0
 97
        1
330
76
 75
               0
 76
               1
 98
        1
 10
0.0
 20
0.0
  0
MTEXT
  5
78
100
AcDbEntity
  8
0
390
0
 62
               0
100
AcDbMText
 10
-745.17335354227987
 20
182.35306141010392
 30
0.0
 40
24.432617187500004
 41
0.0
 71
               1
 72
               1
  1
35
  7
ＭＳ ゴシック
 73
               1
 44
0.7828267384257843
  0
POINT
  5
79
100
AcDbEntity
  8
Defpoints
370
               0
390
0
 62
               0
100
AcDbPoint
 10
-694.66672114918424
 20
459.11429384911958
 30
0.0
  0
POINT
  5
7A
100
AcDbEntity
  8
Defpoints
370
               0
390
0
 62
               0
100
AcDbPoint
 10
-659.71113947406752
 20
345.89524772944554
 30
0.0
  0
POINT
  5
7B
100
AcDbEntity
  8
Defpoints
370
               0
390
0
 62
               0
100
AcDbPoint
 10
-659.71113947406752
 20
148.47544422260387
 30
0.0
  0
ENDBLK
  5
7C
100
AcDbEntity
  8
notes
390
0
100
AcDbBlockEnd
  0
BLOCK
  5
7D
100
AcDbEntity
  8
notes
390
0
100
AcDbBlockBegin
  2
*D6
 70
               1
 10
0.0
 20
0.0
 30
0.0
  3
*D6
  1

  0
LINE
  5
7E
100
AcDbEntity
  8
0
370
              -2
390
0
  6
Continuous
 62
               0
100
AcDbLine
 10
-240.22227564764231
 20
-457.65746470289378
 30
0.0
 11
-165.00157024276771
 21
-457.65746470289378
 31
0.0
  0
LINE
  5
7F
100
AcDbEntity
  8
0
370
              -2
390
0
  6
Continuous
 62
               0
100
AcDbLine
 10
-308.63219291553901
 20
-587.63998310291151
 30
0.0
 11
-165.00157024276771
 21
-587.63998310291151
 31
0.0
  0
LINE
  5
80
100
AcDbEntity
  8
0
370
              -2
390
0
  6
Continuous
 62
               0
100
AcDbLine
 10
-165.00157024276771
 20
-457.65746470289378
 30
0.0
 11
-165.00157024276771
 21
-587.63998310291151
 31
0.0
  0
CIRCLE
  5
81
102
{ACAD_REACTORS
330
82
102
}
100
AcDbEntity
  8
0
370
              -2
390
0
  6
Continuous
 62
               0
100
AcDbCircle
 10
-165.00157024276771
 20
-457.65746470289378
 30
0.0
 40
1.9998779296875
  0
HATCH
  5
82
100
AcDbEntity
  8
0
370
              -2
390
0
  6
Continuous
 62
               0
100
AcDbHatch
 10
0.0
 20
0.0
 30
0.0
210
0.0
220
0.0
230
1.0
  2
SOLID
 70
               1
 71
               1
 91
        1
 92
        1
 93
        1
 72
               2
 10
-165.00157024276771
 20
-457.65746470289378
 40
1.9998779296875
 50
0.0
 51
360.0
 73
               0
 97
        1
330
81
 75
               0
 76
               1
 98
        1
 10
0.0
 20
0.0
  0
CIRCLE
  5
83
102
{ACAD_REACTORS
330
84
102
}
100
AcDbEntity
  8
0
370
              -2
390
0
  6
Continuous
 62
               0
100
AcDbCircle
 10
-165.00157024276771
 20
-587.63998310291151
 30
0.0
 40
1.9998779296875
  0
HATCH
  5
84
100
AcDbEntity
  8
0
370
              -2
390
0
  6
Continuous
 62
               0
100
AcDbHatch
 10
0.0
 20
0.0
 30
0.0
210
0.0
220
0.0
230
1.0
  2
SOLID
 70
               1
 71
               1
 91
        1
 92
        1
 93
        1
 72
               2
 10
-165.00157024276771
 20
-587.63998310291151
 40
1.9998779296875
 50
0.0
 51
360.0
 73
               0
 97
        1
330
83
 75
               0
 76
               1
 98
        1
 10
0.0
 20
0.0
  0
MTEXT
  5
85
100
AcDbEntity
  8
0
390
0
 62
               0
100
AcDbMText
 10
-198.87918743026771
 20
-546.46122558507807
 30
0.0
 40
24.432617187500004
 41
0.0
 71
               1
 72
               1
  1
130
  7
ＭＳ ゴシック
 11
0.0
 21
1.0
 31
0.0
 73
               1
 44
0.7828267384257843
  0
POINT
  5
86
100
AcDbEntity
  8
Defpoints
370
               0
390
0
 62
               0
100
AcDbPoint
 10
-333.63219291553901
 20
-587.63998310291151
 30
0.0
  0
POINT
  5
87
100
AcDbEntity
  8
Defpoints
370
               0
390
0
 62
               0
100
AcDbPoint
 10
-265.22227564764228
 20
-457.65746470289378
 30
0.0
  0
POINT
  5
88
100
AcDbEntity
  8
Defpoints
370
               0
390
0
 62
               0
100
AcDbPoint
 10
-165.00157024276771
 20
-457.65746470289378
 30
0.0
  0
ENDBLK
  5
89
100
AcDbEntity
  8
notes
390
0
100
AcDbBlockEnd
  0
BLOCK
  5
8A
100
AcDbEntity
  8
notes
390
0
100
AcDbBlockBegin
  2
*D7
 70
               1
 10
0.0
 20
0.0
 30
0.0
  3
*D7
  1

  0
LINE
  5
8B
100
AcDbEntity
  8
0
370
              -2
390
0
  6
Continuous
 62
               0
100
AcDbLine
 10
-488.81268501985733
 20
-456.79681787056359
 30
0.0
 11
-479.71458456955361
 21
-456.79681787056359
 31
0.0
  0
LINE
  5
8C
100
AcDbEntity
  8
0
370
              -2
390
0
  6
Continuous
 62
               0
100
AcDbLine
 10
-481.21458456955361
 20
-546.84228860101882
 30
0.0
 11
-479.71458456955361
 21
-546.84228860101882
 31
0.0
  0
LINE
  5
8D
100
AcDbEntity
  8
0
370
              -2
390
0
  6
Continuous
 62
               0
100
AcDbLine
 10
-479.71458456955361
 20
-456.79681787056359
 30
0.0
 11
-479.71458456955361
 21
-305.60474488598982
 31
0.0
  0
LINE
  5
8E
100
AcDbEntity
  8
0
370
              -2
390
0
  6
Continuous
 62
               0
100
AcDbLine
 10
-479.71458456955361
 20
-456.79681787056359
 30
0.0
 11
-479.71458456955361
 21
-546.84228860101882
 31
0.0
  0
CIRCLE
  5
8F
102
{ACAD_REACTORS
330
90
102
}
100
AcDbEntity
  8
0
370
              -2
390
0
  6
Continuous
 62
               0
100
AcDbCircle
 10
-479.71458456955361
 20
-456.79681787056359
 30
0.0
 40
1.9998779296875
  0
HATCH
  5
90
100
AcDbEntity
  8
0
370
              -2
390
0
  6
Continuous
 62
               0
100
AcDbHatch
 10
0.0
 20
0.0
 30
0.0
210
0.0
220
0.0
230
1.0
  2
SOLID
 70
               1
 71
               1
 91
        1
 92
        1
 93
        1
 72
               2
 10
-479.71458456955361
 20
-456.79681787056359
 40
1.9998779296875
 50
0.0
 51
360.0
 73
               0
 97
        1
330
8F
 75
               0
 76
               1
 98
        1
 10
0.0
 20
0.0
  0
CIRCLE
  5
91
102
{ACAD_REACTORS
330
92
102
}
100
AcDbEntity
  8
0
370
              -2
390
0
  6
Continuous
 62
               0
100
AcDbCircle
 10
-479.71458456955361
 20
-546.84228860101882
 30
0.0
 40
1.9998779296875
  0
HATCH
  5
92
100
AcDbEntity
  8
0
370
              -2
390
0
  6
Continuous
 62
               0
100
AcDbHatch
 10
0.0
 20
0.0
 30
0.0
210
0.0
220
0.0
230
1.0
  2
SOLID
 70
               1
 71
               1
 91
        1
 92
        1
 93
        1
 72
               2
 10
-479.71458456955361
 20
-546.84228860101882
 40
1.9998779296875
 50
0.0
 51
360.0
 73
               0
 97
        1
330
91
 75
               0
 76
               1
 98
        1
 10
0.0
 20
0.0
  0
MTEXT
  5
93
100
AcDbEntity
  8
0
390
0
 62
               0
100
AcDbMText
 10
-513.59220175705366
 20
-432.60474488598982
 30
0.0
 40
24.432617187500004
 41
0.0
 71
               1
 72
               1
  1
90(深さ)
  7
ＭＳ ゴシック
 11
0.0
 21
1.0
 31
0.0
 73
               1
 44
0.7828267384257843
  0
POINT
  5
94
100
AcDbEntity
  8
Defpoints
370
               0
390
0
 62
               0
100
AcDbPoint
 10
-506.21458456955361
 20
-546.84228860101882
 30
0.0
  0
POINT
  5
95
100
AcDbEntity
  8
Defpoints
370
               0
390
0
 62
               0
100
AcDbPoint
 10
-463.81268501985733
 20
-456.79681787056359
 30
0.0
  0
POINT
  5
96
100
AcDbEntity
  8
Defpoints
370
               0
390
0
 62
               0
100
AcDbPoint
 10
-479.71458456955361
 20
-456.79681787056359
 30
0.0
  0
ENDBLK
  5
97
100
AcDbEntity
  8
notes
390
0
100
AcDbBlockEnd
  0
BLOCK
  5
98
100
AcDbEntity
  8
notes
390
0
100
AcDbBlockBegin
  2
*D8
 70
               1
 10
0.0
 20
0.0
 30
0.0
  3
*D8
  1

  0
LINE
  5
99
100
AcDbEntity
  8
0
370
              -2
390
0
  6
Continuous
 62
               0
100
AcDbLine
 10
462.72547687981216
 20
492.19240576562845
 30
0.0
 11
640.07087862316837
 21
639.26326459940753
 31
0.0
  0
CIRCLE
  5
9A
102
{ACAD_REACTORS
330
9B
102
}
100
AcDbEntity
  8
0
370
              -2
390
0
  6
Continuous
 62
               0
100
AcDbCircle
 10
462.72547687981216
 20
492.19240576562845
 30
0.0
 40
1.9998779296875
  0
HATCH
  5
9B
100
AcDbEntity
  8
0
370
              -2
390
0
  6
Continuous
 62
               0
100
AcDbHatch
 10
0.0
 20
0.0
 30
0.0
210
0.0
220
0.0
230
1.0
  2
SOLID
 70
               1
 71
               1
 91
        1
 92
        1
 93
        1
 72
               2
 10
462.72547687981216
 20
492.19240576562845
 40
1.9998779296875
 50
0.0
 51
360.0
 73
               0
 97
        1
330
9A
 75
               0
 76
               1
 98
        1
 10
0.0
 20
0.0
  0
LINE
  5
9C
100
AcDbEntity
  8
0
370
              -2
390
0
  6
Continuous
 62
               0
100
AcDbLine
 10
640.07087862316837
 20
639.26326459940753
 30
0.0
 11
763.57087862316837
 21
639.26326459940753
 31
0.0
  0
MTEXT
  5
9D
100
AcDbEntity
  8
0
390
0
 62
               0
100
AcDbMText
 10
700.07087862316837
 20
673.14088178690758
 30
0.0
 40
24.432617187500004
 41
0.0
 71
               1
 72
               1
  1
φ90
  7
ＭＳ ゴシック
 73
               1
 44
0.7828267384257843
  0
POINT
  5
9E
100
AcDbEntity
  8
Defpoints
370
               0
390
0
 62
               0
100
AcDbPoint
 10
393.44959327169454
 20
434.74257284885039
 30
0.0
  0
POINT
  5
9F
100
AcDbEntity
  8
Defpoints
370
               0
390
0
 62
               0
100
AcDbPoint
 10
462.72547687981216
 20
492.19240576562845
 30
0.0
  0
ENDBLK
  5
A0
100
AcDbEntity
  8
notes
390
0
100
AcDbBlockEnd
  0
BLOCK
  5
A1
100
AcDbEntity
  8
notes
390
0
100
AcDbBlockBegin
  2
*D9
 70
               1
 10
0.0
 20
0.0
 30
0.0
  3
*D9
  1

  0
LINE
  5
A2
100
AcDbEntity
  8
0
370
              -2
390
0
  6
Continuous
 62
               0
100
AcDbLine
 10
-536.71263144455349
 20
-596.72970632542467
 30
0.0
 11
-795.06801825544687
 21
-596.72970632542467
 31
0.0
  0
LINE
  5
A3
100
AcDbEntity
  8
0
370
              -2
390
0
  6
Continuous
 62
               0
100
AcDbLine
 10
-656.46267620366814
 20
-587.72970632542467
 30
0.0
 11
-795.06801825544687
 21
-587.72970632542467
 31
0.0
  0
LINE
  5
A4
100
AcDbEntity
  8
0
370
              -2
390
0
  6
Continuous
 62
               0
100
AcDbLine
 10
-795.06801825544687
 20
-596.72970632542467
 30
0.0
 11
-795.06801825544687
 21
-587.72970632542467
 31
0.0
  0
CIRCLE
  5
A5
102
{ACAD_REACTORS
330
A6
102
}
100
AcDbEntity
  8
0
370
              -2
390
0
  6
Continuous
 62
               0
100
AcDbCircle
 10
-795.06801825544687
 20
-596.72970632542467
 30
0.0
 40
1.9998779296875
  0
HATCH
  5
A6
100
AcDbEntity
  8
0
370
              -2
390
0
  6
Continuous
 62
               0
100
AcDbHatch
 10
0.0
 20
0.0
 30
0.0
210
0.0
220
0.0
230
1.0
  2
SOLID
 70
               1
 71
               1
 91
        1
 92
        1
 93
        1
 72
               2
 10
-795.06801825544687
 20
-596.72970632542467
 40
1.9998779296875
 50
0.0
 51
360.0
 73
               0
 97
        1
330
A5
 75
               0
 76
               1
 98
        1
 10
0.0
 20
0.0
  0
CIRCLE
  5
A7
102
{ACAD_REACTORS
330
A8
102
}
100
AcDbEntity
  8
0
370
              -2
390
0
  6
Continuous
 62
               0
100
AcDbCircle
 10
-795.06801825544687
 20
-587.72970632542467
 30
0.0
 40
1.9998779296875
  0
HATCH
  5
A8
100
AcDbEntity
  8
0
370
              -2
390
0
  6
Continuous
 62
               0
100
AcDbHatch
 10
0.0
 20
0.0
 30
0.0
210
0.0
220
0.0
230
1.0
  2
SOLID
 70
               1
 71
               1
 91
        1
 92
        1
 93
        1
 72
               2
 10
-795.06801825544687
 20
-587.72970632542467
 40
1.9998779296875
 50
0.0
 51
360.0
 73
               0
 97
        1
330
A7
 75
               0
 76
               1
 98
        1
 10
0.0
 20
0.0
  0
MTEXT
  5
A9
100
AcDbEntity
  8
0
390
0
 62
               0
100
AcDbMText
 10
-828.94563544294692
 20
-600.16720632542467
 30
0.0
 40
24.432617187500004
 41
0.0
 71
               1
 72
               1
  1
9
  7
ＭＳ ゴシック
 11
0.0
 21
1.0
 31
0.0
 73
               1
 44
0.7828267384257843
  0
POINT
  5
AA
100
AcDbEntity
  8
Defpoints
370
               0
390
0
 62
               0
100
AcDbPoint
 10
-631.46267620366814
 20
-587.72970632542467
 30
0.0
  0
POINT
  5
AB
100
AcDbEntity
  8
Defpoints
370
               0
390
0
 62
               0
100
AcDbPoint
 10
-511.71263144455349
 20
-596.72970632542467
 30
0.0
  0
POINT
  5
AC
100
AcDbEntity
  8
Defpoints
370
               0
390
0
 62
               0
100
AcDbPoint
 10
-795.06801825544687
 20
-596.72970632542467
 30
0.0
  0
ENDBLK
  5
AD
100
AcDbEntity
  8
notes
390
0
100
AcDbBlockEnd
  0
BLOCK
  5
AE
100
AcDbEntity
  8
notes
390
0
100
AcDbBlockBegin
  2
*D10
 70
               1
 10
0.0
 20
0.0
 30
0.0
  3
*D10
  1

  0
LINE
  5
AF
100
AcDbEntity
  8
0
370
              -2
390
0
  6
Continuous
 62
               0
100
AcDbLine
 10
-511.71263144455349
 20
-621.72970632542467
 30
0.0
 11
-511.71263144455349
 21
-705.72829573514696
 31
0.0
  0
LINE
  5
B0
100
AcDbEntity
  8
0
370
              -2
390
0
  6
Continuous
 62
               0
100
AcDbLine
 10
-447.71309259906741
 20
-621.72970632542467
 30
0.0
 11
-447.71309259906741
 21
-705.72829573514696
 31
0.0
  0
LINE
  5
B1
100
AcDbEntity
  8
0
370
              -2
390
0
  6
Continuous
 62
               0
100
AcDbLine
 10
-511.71263144455349
 20
-705.72829573514696
 30
0.0
 11
-447.71309259906741
 21
-705.72829573514696
 31
0.0
  0
CIRCLE
  5
B2
102
{ACAD_REACTORS
330
B3
102
}
100
AcDbEntity
  8
0
370
              -2
390
0
  6
Continuous
 62
               0
100
AcDbCircle
 10
-511.71263144455349
 20
-705.72829573514696
 30
0.0
 40
1.9998779296875
  0
HATCH
  5
B3
100
AcDbEntity
  8
0
370
              -2
390
0
  6
Continuous
 62
               0
100
AcDbHatch
 10
0.0
 20
0.0
 30
0.0
210
0.0
220
0.0
230
1.0
  2
SOLID
 70
               1
 71
               1
 91
        1
 92
        1
 93
        1
 72
               2
 10
-511.71263144455349
 20
-705.72829573514696
 40
1.9998779296875
 50
0.0
 51
360.0
 73
               0
 97
        1
330
B2
 75
               0
 76
               1
 98
        1
 10
0.0
 20
0.0
  0
CIRCLE
  5
B4
102
{ACAD_REACTORS
330
B5
102
}
100
AcDbEntity
  8
0
370
              -2
390
0
  6
Continuous
 62
               0
100
AcDbCircle
 10
-447.71309259906741
 20
-705.72829573514696
 30
0.0
 40
1.9998779296875
  0
HATCH
  5
B5
100
AcDbEntity
  8
0
370
              -2
390
0
  6
Continuous
 62
               0
100
AcDbHatch
 10
0.0
 20
0.0
 30
0.0
210
0.0
220
0.0
230
1.0
  2
SOLID
 70
               1
 71
               1
 91
        1
 92
        1
 93
        1
 72
               2
 10
-447.71309259906741
 20
-705.72829573514696
 40
1.9998779296875
 50
0.0
 51
360.0
 73
               0
 97
        1
330
B4
 75
               0
 76
               1
 98
        1
 10
0.0
 20
0.0
  0
MTEXT
  5
B6
100
AcDbEntity
  8
0
390
0
 62
               0
100
AcDbMText
 10
-495.58786202181045
 20
-671.85067854764691
 30
0.0
 40
24.432617187500004
 41
0.0
 71
               1
 72
               1
  1
64
  7
ＭＳ ゴシック
 73
               1
 44
0.7828267384257843
  0
POINT
  5
B7
100
AcDbEntity
  8
Defpoints
370
               0
390
0
 62
               0
100
AcDbPoint
 10
-447.71309259906741
 20
-596.72970632542467
 30
0.0
  0
POINT
  5
B8
100
AcDbEntity
  8
Defpoints
370
               0
390
0
 62
               0
100
AcDbPoint
 10
-511.71263144455349
 20
-596.72970632542467
 30
0.0
  0
POINT
  5
B9
100
AcDbEntity
  8
Defpoints
370
               0
390
0
 62
               0
100
AcDbPoint
 10
-511.71263144455349
 20
-705.72829573514696
 30
0.0
  0
ENDBLK
  5
BA
100
AcDbEntity
  8
notes
390
0
100
AcDbBlockEnd
  0
ENDSEC
  0
SECTION
  2
ENTITIES
  0
MTEXT
  5
BB
100
AcDbEntity
  8
template
390
0
 62
               7
100
AcDbMText
 10
-967.9999999997591
 20
-1147.4176292337004
 30
0.0
 40
16.288411458333332
 41
0.0
 71
               1
 72
               1
  1
品名
  7
ＭＳ ゴシック
 73
               1
 44
0.7828267384257843
  0
MTEXT
  5
BC
100
AcDbEntity
  8
template
390
0
 62
               7
100
AcDbMText
 10
-967.9999999997591
 20
-1232.4176292337004
 30
0.0
 40
16.288411458333332
 41
0.0
 71
               1
 72
               1
  1
仕様
  7
ＭＳ ゴシック
 73
               1
 44
0.7828267384257843
  0
MTEXT
  5
BD
100
AcDbEntity
  8
template
390
0
 62
               7
100
AcDbMText
 10
-914.9999999997591
 20
-1176.0000901712006
 30
0.0
 40
24.432617187500004
 41
0.0
 71
               1
 72
               1
  1
手洗器 -SANICO,Moon-
  7
ＭＳ ゴシック
 73
               1
 44
0.7828267384257843
  0
LINE
  5
BE
100
AcDbEntity
  8
template
370
               5
390
0
  6
Continuous
 62
               7
100
AcDbLine
 10
974.99999999975876
 20
-1224.0027073587005
 30
0.0
 11
-975.00000000024113
 21
-1224.0027073587005
 31
0.0
  0
LWPOLYLINE
  5
BF
100
AcDbEntity
  8
template
370
               5
390
0
  6
Continuous
 62
               7
100
AcDbPolyline
 90
        5
 70
             128
 10
975.00000000024124
 20
1405.9972926412995
 10
-974.9999999997591
 20
1405.9972926412995
 10
-974.9999999997591
 20
-1394.0027073587005
 10
975.00000000024124
 20
-1394.0027073587005
 10
975.00000000024124
 20
1405.9972926412995
  0
LINE
  5
C0
100
AcDbEntity
  8
template
370
               5
390
0
  6
Continuous
 62
               7
100
AcDbLine
 10
974.99999999975876
 20
-1139.0027073587005
 30
0.0
 11
-975.00000000024113
 21
-1139.0027073587005
 31
0.0
  0
LINE
  5
C1
100
AcDbEntity
  8
template
370
               5
390
0
  6
Continuous
 62
               7
100
AcDbLine
 10
975.00000000024124
 20
-1309.0027073587005
 30
0.0
 11
222.00000000024124
 21
-1309.0027073587005
 31
0.0
  0
MTEXT
  5
C2
100
AcDbEntity
  8
template
390
0
 62
               7
100
AcDbMText
 10
-914.9999999997591
 20
-1261.0000901712006
 30
0.0
 40
24.432617187500004
 41
0.0
 71
               1
 72
               1
  1
カウンタートップ/オーバーフローなし/排水金具付属/大理石
  7
ＭＳ ゴシック
 73
               1
 44
1.1307497332816883
  0
MTEXT
  5
C3
100
AcDbEntity
  8
template
390
0
 62
               7
100
AcDbMText
 10
-974.99999999955583
 20
-1405.8565294155574
 30
0.0
 40
21.717881944444446
 41
0.0
 71
               1
 72
               1
  1
100709SH
  7
ＭＳ ゴシック
 73
               1
 44
0.7828267384257843
  0
MTEXT
  5
C4
100
AcDbEntity
  8
template
390
0
 62
               7
100
AcDbMText
 10
251.87140625250089
 20
-1338.9131018320081
 30
0.0
 40
24.432617187500004
 41
0.0
 71
               1
 72
               1
  1
大洋金物株式会社 ティーフォルム事業部
  7
ＭＳ ゴシック
 73
               1
 44
0.7828267384257843
  0
INSERT
  5
C5
100
AcDbEntity
  8
template
390
0
 62
               7
100
AcDbBlockReference
  2
グループ
 10
116.76961669921874
 20
151.23118271674397
 30
0.0
  0
MTEXT
  5
C6
100
AcDbEntity
  8
template
390
0
 62
               7
100
AcDbMText
 10
784.00000000049999
 20
-1261.0000901712006
 30
0.0
 40
24.432617187500004
 41
0.0
 71
               1
 72
               1
  1
1:10
  7
ＭＳ ゴシック
 73
               1
 44
0.7828267384257843
  0
MTEXT
  5
C7
100
AcDbEntity
  8
template
390
0
 62
               7
100
AcDbMText
 10
731.00000000049999
 20
-1232.4176292337004
 30
0.0
 40
16.288411458333332
 41
0.0
 71
               1
 72
               1
  1
縮尺
  7
ＭＳ ゴシック
 73
               1
 44
0.7828267384257843
  0
LINE
  5
C8
100
AcDbEntity
  8
template
370
               5
390
0
  6
Continuous
 62
               7
100
AcDbLine
 10
724.00000000049999
 20
-1309.0027073587005
 30
0.0
 11
724.00000000049999
 21
-1224.0027073587005
 31
0.0
  0
MTEXT
  5
C9
100
AcDbEntity
  8
template
390
0
 62
               7
100
AcDbMText
 10
480.00000000049999
 20
-1232.4176292337004
 30
0.0
 40
16.288411458333332
 41
0.0
 71
               1
 72
               1
  1
容量
  7
ＭＳ ゴシック
 73
               1
 44
0.7828267384257843
  0
MTEXT
  5
CA
100
AcDbEntity
  8
template
390
0
 62
               7
100
AcDbMText
 10
533.00000000049999
 20
-1261.0000901712006
 30
0.0
 40
24.432617187500004
 41
0.0
 71
               1
 72
               1
  1
7L
  7
ＭＳ ゴシック
 73
               1
 44
0.7828267384257843
  0
LINE
  5
CB
100
AcDbEntity
  8
template
370
               5
390
0
  6
Continuous
 62
               7
100
AcDbLine
 10
473.00000000049999
 20
-1309.0027073587005
 30
0.0
 11
473.00000000049999
 21
-1224.0027073587005
 31
0.0
  0
MTEXT
  5
CC
100
AcDbEntity
  8
template
390
0
 62
               7
100
AcDbMText
 10
229.00000000049999
 20
-1147.4176292337004
 30
0.0
 40
16.288411458333332
 41
0.0
 71
               1
 72
               1
  1
品番
  7
ＭＳ ゴシック
 73
               1
 44
0.7828267384257843
  0
MTEXT
  5
CD
100
AcDbEntity
  8
template
390
0
 62
               7
100
AcDbMText
 10
229.00000000049999
 20
-1232.4176292337004
 30
0.0
 40
16.288411458333332
 41
0.0
 71
               1
 72
               1
  1
重量
  7
ＭＳ ゴシック
 73
               1
 44
0.7828267384257843
  0
MTEXT
  5
CE
100
AcDbEntity
  8
template
390
0
 62
               7
100
AcDbMText
 10
282.00000000049999
 20
-1176.0000901712006
 30
0.0
 40
24.432617187500004
 41
0.0
 71
               1
 72
               1
  1
KUF70-0301
  7
ＭＳ ゴシック
 73
               1
 44
0.7828267384257843
  0
MTEXT
  5
CF
100
AcDbEntity
  8
template
390
0
 62
               7
100
AcDbMText
 10
282.00000000049999
 20
-1261.0000901712006
 30
0.0
 40
24.432617187500004
 41
0.0
 71
               1
 72
               1
  1
25kg
  7
ＭＳ ゴシック
 73
               1
 44
0.7828267384257843
  0
LINE
  5
D0
100
AcDbEntity
  8
template
370
               5
390
0
  6
Continuous
 62
               7
100
AcDbLine
 10
222.00000000049999
 20
-1394.0027073587005
 30
0.0
 11
222.00000000049999
 21
-1139.0027073587005
 31
0.0
  0
MTEXT
  5
D1
100
AcDbEntity
  8
template
390
0
 62
               7
100
AcDbMText
 10
276.53492783611841
 20
-979.92028229346749
 30
0.0
 40
23.5469713560537
 41
0.0
 71
               1
 72
               1
  1
KUF70-0301{\H1.038x;\l-002 ビアンコカララ \P}KUF70-0301{\H1.038x;\l-003 ブラックマーブル \P}KUF70-0301{\H1.038x;\l-005 クリームマーブル }
  7
ＭＳ ゴシック
 73
               1
 44
1.3047112307096407
  0
MTEXT
  5
D2
100
AcDbEntity
  8
notes
390
0
 62
               7
100
AcDbMText
 10
94.242508068990759
 20
75.407847196903333
 30
0.0
 40
24.432617187500004
 41
763.59263325865322
 71
               1
 72
               1
  1
※陶器製品には寸法公差があります。\P  洗面器の収め方をご確認の上、必ず現物を合わせて\P  カウンターに切込を行ってください。
  7
ＭＳ ゴシック
 73
               1
 44
1.0437689845677123
  0
MTEXT
  5
D3
100
AcDbEntity
  8
notes
390
0
 62
               7
100
AcDbMText
 10
284.88221535576622
 20
941.48237455399169
 30
0.0
 40
24.432617187500004
 41
0.0
 71
               1
 72
               1
  1
カウンター切込寸法
  7
ＭＳ ゴシック
 73
               1
 44
0.7828267384257843
  0
DIMENSION
  5
D4
100
AcDbEntity
  8
notes
370
               5
390
0
  6
Continuous
 62
               7
100
AcDbDimension
  2
*D3
 10
-659.71113947406752
 20
148.47544422260387
 30
0.0
 11
-479.71200074793876
 21
148.47544422260387
 31
0.0
 71
               5
 72
               1
 41
1.0
 42
0.0
  3
tfrom線あり
100
AcDbAlignedDimension
 13
-299.71286202181011
 23
345.89524772944554
 33
0.0
 14
-659.71113947406752
 24
345.89524772944554
 34
0.0
100
AcDbRotatedDimension
1001
ACAD
1000
DSTYLE
1002
{
1070
             279
1070
               2
1070
             340
1005
2C
1070
             147
1040
5.0
1002
}
  0
DIMENSION
  5
D5
100
AcDbEntity
  8
notes
370
               5
390
0
  6
Continuous
 62
               7
100
AcDbDimension
  2
*D4
 10
-694.70604381057262
 20
778.4733147738192
 30
0.0
 11
-479.71200074793887
 21
778.4733147738192
 31
0.0
 71
               5
 72
               1
 41
1.0
 42
0.0
  3
tfrom線あり
100
AcDbAlignedDimension
 13
-264.71795768530524
 23
487.0239942985587
 33
0.0
 14
-694.70604381057262
 24
487.0239942985587
 34
0.0
100
AcDbRotatedDimension
1001
ACAD
1000
DSTYLE
1002
{
1070
             279
1070
               2
1070
             340
1005
2C
1070
             147
1040
5.0
1002
}
  0
DIMENSION
  5
D6
100
AcDbEntity
  8
notes
370
               5
390
0
  6
Continuous
 62
               7
100
AcDbDimension
  2
*D5
 10
-659.71113947406752
 20
148.47544422260387
 30
0.0
 11
-713.42335354227987
 21
153.47544422260387
 31
0.0
 70
             128
 71
               5
 72
               1
 41
1.0
 42
0.0
  3
tfrom線あり
100
AcDbAlignedDimension
 13
-694.66672114918424
 23
459.11429384911958
 33
0.0
 14
-659.71113947406752
 24
345.89524772944554
 34
0.0
100
AcDbRotatedDimension
1001
ACAD
1000
DSTYLE
1002
{
1070
             279
1070
               2
1070
             340
1005
2C
1070
             174
1070
               0
1070
             147
1040
5.0
1002
}
  0
DIMENSION
  5
D7
100
AcDbEntity
  8
notes
370
               5
390
0
  6
Continuous
 62
               7
100
AcDbDimension
  2
*D6
 10
-165.00157024276771
 20
-457.65746470289378
 30
0.0
 11
-165.00157024276771
 21
-522.64872390290259
 31
0.0
 71
               5
 72
               1
 41
1.0
 42
0.0
  3
tfrom線あり
100
AcDbAlignedDimension
 13
-333.63219291553901
 23
-587.63998310291151
 33
0.0
 14
-265.22227564764228
 24
-457.65746470289378
 34
0.0
 50
90.0
100
AcDbRotatedDimension
1001
ACAD
1000
DSTYLE
1002
{
1070
             279
1070
               2
1070
             340
1005
2C
1070
             147
1040
5.0
1002
}
  0
DIMENSION
  5
D8
100
AcDbEntity
  8
notes
370
               5
390
0
  6
Continuous
 62
               7
100
AcDbDimension
  2
*D7
 10
-479.71458456955361
 20
-456.79681787056359
 30
0.0
 11
-484.71458456955361
 21
-432.60474488598982
 31
0.0
 70
             128
 71
               5
 72
               1
 41
1.0
 42
0.0
  3
tfrom線あり
100
AcDbAlignedDimension
 13
-506.21458456955361
 23
-546.84228860101882
 33
0.0
 14
-463.81268501985733
 24
-456.79681787056359
 34
0.0
 50
90.0
100
AcDbRotatedDimension
1001
ACAD
1000
DSTYLE
1002
{
1070
             279
1070
               2
1070
             340
1005
2C
1070
               3
1000
<>(深さ)
1070
             174
1070
               0
1070
             147
1040
5.0
1002
}
  0
DIMENSION
  5
D9
100
AcDbEntity
  8
notes
370
               5
390
0
  6
Continuous
 62
               7
100
AcDbDimension
  2
*D8
 10
393.44959327169454
 20
434.74257284885039
 30
0.0
 11
700.07087862316905
 21
639.26326459940674
 31
0.0
 70
               3
 71
               5
 72
               1
 41
1.0
 42
0.0
  3
tfrom線あり
100
AcDbDiametricDimension
 15
462.72547687981216
 25
492.19240576562845
 35
0.0
 40
230.3936393167524
1001
ACAD
1000
DSTYLE
1002
{
1070
             289
1070
               0
1070
             342
1005
3F
1070
             340
1005
2C
1070
              73
1070
               1
1070
              74
1070
               1
1070
              75
1070
               1
1070
              76
1070
               1
1070
               3
1000

1070
             174
1070
               0
1070
             147
1040
5.0
1002
}
  0
DIMENSION
  5
DA
100
AcDbEntity
  8
notes
370
               5
390
0
  6
Continuous
 62
               7
100
AcDbDimension
  2
*D9
 10
-795.06801825544687
 20
-596.72970632542467
 30
0.0
 11
-795.06801825544687
 21
-592.22970632542467
 31
0.0
 71
               5
 72
               1
 41
1.0
 42
0.0
  3
tfrom線あり
100
AcDbAlignedDimension
 13
-631.46267620366814
 23
-587.72970632542467
 33
0.0
 14
-511.71263144455349
 24
-596.72970632542467
 34
0.0
 50
90.0
100
AcDbRotatedDimension
1001
ACAD
1000
DSTYLE
1002
{
1070
             279
1070
               2
1070
             340
1005
2C
1070
             147
1040
5.0
1002
}
  0
DIMENSION
  5
DB
100
AcDbEntity
  8
notes
370
               5
390
0
  6
Continuous
 62
               7
100
AcDbDimension
  2
*D10
 10
-511.71263144455349
 20
-705.72829573514696
 30
0.0
 11
-479.71286202181045
 21
-705.72829573514696
 31
0.0
 71
               5
 72
               1
 41
1.0
 42
0.0
  3
tfrom線あり
100
AcDbAlignedDimension
 13
-447.71309259906741
 23
-596.72970632542467
 33
0.0
 14
-511.71263144455349
 24
-596.72970632542467
 34
0.0
100
AcDbRotatedDimension
1001
ACAD
1000
DSTYLE
1002
{
1070
             279
1070
               2
1070
             340
1005
2C
1070
             147
1040
5.0
1002
}
  0
CIRCLE
  5
DC
100
AcDbEntity
  8
KUF70-0301
370
              15
390
0
  6
Continuous
 62
               7
100
AcDbCircle
 10
-479.71200074793899
 20
463.47437949821153
 30
0.0
 40
214.99893527560778
  0
LWPOLYLINE
  5
DD
100
AcDbEntity
  8
KUF70-0301
370
              15
390
0
  6
Continuous
 62
               7
100
AcDbPolyline
 90
      145
 70
             128
 10
-603.00249418326882
 20
-587.7311169157025
 42
-0.0001317714975749
 10
-633.38823637076882
 20
-587.60709347820227
 42
-0.0144533204331202
 10
-634.18168881779638
 20
-587.520239191217
 10
-634.25880162487351
 20
-587.50953471707339
 42
-0.01043884632174
 10
-635.20081826508635
 20
-587.35866136733341
 10
-635.3867631744032
 20
-587.32488496103576
 42
-0.0116608863445892
 10
-636.69125612633763
 20
-587.05636229598849
 10
-636.90175858802365
 20
-587.00788883320013
 42
-0.0124305247940396
 10
-638.61009305596383
 20
-586.5695144656305
 10
-638.80636440822161
 20
-586.5139144024414
 42
-0.0131815909581372
 10
-640.87928914178076
 20
-585.86720396804697
 10
-641.06283674890528
 20
-585.80458599252199
 42
-0.0139092275246365
 10
-643.46094853509078
 20
-584.91125654417215
 10
-643.63341073425545
 20
-584.84149034534346
 42
-0.0145987774811264
 10
-646.31719009320852
 20
-583.66352732613666
 10
-646.4802895509041
 20
-583.58618529936905
 42
-0.0152302310617462
 10
-649.41015674261314
 20
-582.08589591263865
 10
-649.56563313351251
 20
-582.00020768591037
 42
-0.0157811200870556
 10
-652.70202425196635
 20
-580.14025984188697
 10
-652.85154884672909
 20
-580.04508619518833
 42
-0.0162287866313165
 10
-656.1550085934839
 20
-577.78852433494421
 10
-656.30008653702419
 20
-577.68235838211422
 42
-0.0165527420316052
 10
-659.73136982020537
 20
-574.99258865585853
 10
-659.87324012817169
 20
-574.87359008710018
 42
-0.016737005912628
 10
-663.39341076984965
 20
-571.71433054514978
 10
-663.53295693031203
 20
-571.58039425191328
 42
-0.016772091460729
 10
-667.10346975514994
 20
-567.91559123551235
 10
-667.2411542075605
 20
-567.76444558477544
 42
-0.0166561714609505
 10
-670.82390856341488
 20
-563.5581645685354
 10
-671.34358294200877
 20
-562.90518703667976
 42
-0.0163264044694929
 10
-674.16622347101804
 20
-559.11058212252897
 42
-0.0081048241079173
 10
-676.80122626505329
 20
-555.18107021841831
 10
-677.17192204571518
 20
-554.60840799946561
 42
-0.0201799837036
 10
-680.27293241298753
 20
-549.36564871733174
 10
-680.92630666998673
 20
-548.15177021232046
 42
-0.0132071511390262
 10
-684.01519815191432
 20
-542.03101111441708
 10
-684.11219864322379
 20
-541.82547855492578
 42
-0.0125178532645818
 10
-686.69875164253915
 20
-535.96941309791907
 10
-687.24087232935153
 20
-534.65387556624319
 42
-0.0086334138884232
 10
-688.53935515310388
 20
-531.34169649154285
 10
-689.05674885495341
 20
-529.9517675275066
 42
-0.0222986141195412
 10
-689.23813573464963
 20
-529.38893065398975
 42
-0.0083899075609781
 10
-689.38478708699404
 20
-528.81553944833468
 10
-689.49649488667148
 20
-528.34609832243609
 42
-0.0069297307956168
 10
-689.83588015407588
 20
-526.82665998621053
 10
-689.97286154986966
 20
-526.17079349145342
 42
-0.004304569838484
 10
-690.54069301409186
 20
-523.33002961178022
 10
-690.62933290573494
 20
-522.86582243901103
 42
-0.0037927867566627
 10
-691.32131847498999
 20
-519.08650639992379
 10
-691.50061464727855
 20
-518.06352917531092
 42
-0.0060263934296399
 10
-692.45210907259695
 20
-512.22154092807443
 10
-692.56842252695799
 20
-511.44881192519279
 42
-0.0047151664048795
 10
-693.35514237366135
 20
-505.86497802924339
 42
-0.00571865236859
 10
-694.0251650280801
 20
-500.26606143444235
 10
-694.10665674248219
 20
-499.51209797939509
 42
-0.0073618547657347
 10
-694.50502694676322
 20
-495.23827070222114
 10
-694.55751674057387
 20
-494.5685829130058
 42
-0.0046948517998989
 10
-694.7603501528929
 20
-491.62636082158781
 42
-0.0043031970420226
 10
-694.91020647898392
 20
-488.6809443960866
 10
-694.94305483030632
 20
-487.90351924530489
 42
-0.0072430583527366
 10
-695.06801825544721
 20
-483.40015244200333
 10
-695.0769598816803
 20
-482.72565293252705
 42
-0.0059935637852872
 10
-695.08438849478568
 20
-476.87138772959941
 10
-695.06587433712718
 20
-475.14407456540675
 42
-0.0109486224609199
 10
-694.78495567876303
 20
-466.53380500824233
 10
-694.65154128709992
 20
-464.08874425004512
 42
-0.0047445421711199
 10
-694.41366583281592
 20
-460.37700556247216
 10
-694.33093878012551
 20
-459.25332355485023
 42
-0.003284293033826
 10
-694.21369654798707
 20
-457.79197627759208
 10
-694.17329370228663
 20
-457.32673771912926
 42
-0.0018760145933695
 10
-694.12526979090774
 20
-456.79681787056359
 10
-603.00249418326882
 20
-456.79681787056359
 10
-356.42150731260892
 20
-456.79681787056359
 10
-265.29873170497001
 20
-456.79681787056359
 42
-0.0023828749170948
 10
-265.2222756476433
 20
-457.65746470288207
 10
-265.16687903089917
 20
-458.31667966998623
 42
-0.0040899229168143
 10
-265.00157024276814
 20
-460.49747303203651
 10
-264.83968925400643
 20
-462.89286218015991
 42
-0.0093220090777298
 10
-264.49859054425883
 20
-469.87214606469649
 10
-264.44916256088698
 20
-471.50884154589096
 42
-0.0049280023532584
 10
-264.33677375658021
 20
-477.03500895441232
 42
-0.0059203649847599
 10
-264.34430041812004
 20
-482.56219497013046
 10
-264.35536638881479
 20
-483.40032856333221
 42
-0.0072938355882934
 10
-264.48054334763776
 20
-487.90359706536321
 10
-264.51350612012709
 20
-488.68097411469762
 42
-0.0042917083931933
 10
-264.66373527995847
 20
-491.62637287735708
 42
-0.0047195012442858
 10
-264.86701845197649
 20
-494.56856330367259
 10
-264.9196467666369
 20
-495.23828025107662
 42
-0.0072905889206984
 10
-265.31828023044795
 20
-499.51217288469957
 10
-265.39513040970735
 20
-500.22374468402506
 42
-0.005806637785972
 10
-266.07579010164113
 20
-505.90706310679502
 10
-266.36491084228896
 20
-508.10467816795756
 42
-0.0107009713794745
 10
-267.68293335132421
 20
-516.69688159496388
 10
-268.1020391613373
 20
-519.08661388914697
 42
-0.003741705650711
 10
-268.79404377307606
 20
-522.86596262733826
 10
-268.93166500363873
 20
-523.58707188764561
 42
-0.0044988427219681
 10
-269.3976548355439
 20
-525.91483056279014
 10
-269.51927395883069
 20
-526.49517538704868
 42
-0.0030306605229966
 10
-269.77000982650964
 20
-527.65653169433472
 10
-269.80215251003153
 20
-527.8011547815878
 42
-0.0042520342347259
 10
-270.00303159443229
 20
-528.6700367894457
 10
-270.03802912428046
 20
-528.81575721010154
 42
-0.0078255551960573
 10
-270.18527765083843
 20
-529.38918531219315
 42
-0.0224808655985902
 10
-270.36682581152036
 20
-529.95214182316556
 10
-270.90106478962548
 20
-531.38486160172647
 42
-0.0087249401228182
 10
-272.23569588364114
 20
-534.78179989701005
 10
-272.84102862485724
 20
-536.24687053445223
 42
-0.0137483105492505
 10
-275.59466423470553
 20
-542.42449650525828
 10
-275.81089471238022
 20
-542.87580542878447
 42
-0.0118438745089569
 10
-278.42367532764683
 20
-548.0131839887872
 42
-0.0121591163783249
 10
-281.27992126380855
 20
-553.01919385014116
 10
-281.36502835920055
 20
-553.16027325480536
 42
-0.0159623976248925
 10
-284.67651541262637
 20
-558.27322731149309
 10
-284.9065181244066
 20
-558.60466660252678
 42
-0.0163952004359656
 10
-288.46400181377453
 20
-563.38830518471104
 10
-288.59984297446613
 20
-563.55898350647851
 42
-0.0166564366305997
 10
-292.18270379522926
 20
-567.76519425303968
 10
-292.32039621726994
 20
-567.91634153414384
 42
-0.0167720395788867
 10
-295.89099634235015
 20
-571.58106301240957
 10
-296.03054975752968
 20
-571.71500003847348
 42
-0.0167366853207066
 10
-299.55078518430844
 20
-574.87417410799719
 10
-299.69266158313928
 20
-574.99317247912904
 42
-0.0165521715837302
 10
-303.12398677875626
 20
-577.68285974809214
 10
-303.26906933941189
 20
-577.78902469665343
 42
-0.0162280101853566
 10
-306.57255007065294
 20
-580.04551309095336
 10
-306.72207768957105
 20
-580.140685181138
 42
-0.0157802025740812
 10
-309.8584725343436
 20
-582.00057276699033
 10
-310.01395038315115
 20
-582.0862591822156
 42
-0.0152292309932797
 10
-312.94380869800375
 20
-583.58650371046167
 10
-313.10690834094817
 20
-583.6638440468098
 42
-0.0145978077505648
 10
-315.79067093127514
 20
-584.84177742111319
 10
-315.9631320460677
 20
-584.91154217319661
 42
-0.0139081612186286
 10
-318.36122374655656
 20
-585.80485624425194
 10
-318.54477022539993
 20
-585.86747367936186
 42
-0.013181345757155
 10
-320.61767429234771
 20
-586.51417705534027
 10
-320.81394238351425
 20
-586.56977624174158
 42
-0.0124279079174189
 10
-322.52226004790953
 20
-587.00815622936625
 10
-322.73276344997885
 20
-587.05663227779462
 42
-0.0116711395621298
 10
-324.03724068346639
 20
-587.32513836002363
 10
-324.22313885285905
 20
-587.3589004538286
 42
-0.0101394091783202
 10
-325.16515914567481
 20
-587.51032370594851
 10
-325.24232545278244
 20
-587.52112743381372
 42
-0.0155895378768483
 10
-326.03576512510892
 20
-587.60709347820227
 42
-0.0001239900973628
 10
-356.42150731260892
 20
-587.7311169157025
 10
-603.00249418326882
 20
-587.7311169157025
  0
LWPOLYLINE
  5
DE
100
AcDbEntity
  8
KUF70-0301
370
              15
390
0
  6
STYLE_01
 62
               7
100
AcDbPolyline
 90
       68
 70
             128
 10
-662.20990520757437
 20
-456.79681787056359
 42
0.0029332266502698
 10
-662.31027696758497
 20
-457.95236521782761
 10
-662.35682116377427
 20
-458.52731826187539
 42
0.0299592971147805
 10
-662.40502995874385
 20
-460.83625172677591
 10
-661.8865961003529
 20
-474.11435034444992
 42
0.0324044543289869
 10
-659.91458456955354
 20
-493.04228860101887
 10
-658.3656187488989
 20
-502.14246279736585
 42
-0.0008620657623311
 10
-658.26458456955368
 20
-502.7422886010188
 10
-658.25649825177015
 20
-502.79080650771982
 42
0.0080618952604915
 10
-658.16458456955354
 20
-503.29228860101875
 42
0.0416699424106843
 10
-658.02382321344669
 20
-503.78053716079933
 10
-657.71458456955361
 20
-504.59228860101882
 42
0.0007987194970069
 10
-656.91123199549895
 20
-506.69100529356103
 10
-656.7647420448626
 20
-507.07187916521536
 42
0.0107387894570668
 10
-655.81458456955363
 20
-509.39228860101878
 42
0.0041250615436293
 10
-654.79567831730083
 20
-511.6838823559749
 10
-654.56458456955363
 20
-512.19228860101873
 42
0.0039367027988111
 10
-653.03869652193146
 20
-515.48027447933214
 10
-652.8670032736303
 20
-515.84273800352332
 42
0.0137429884559917
 10
-651.06458456955363
 20
-519.39228860101878
 10
-650.81005949505879
 20
-519.86115058035136
 42
0.0107696123214989
 10
-649.36458456955359
 20
-522.39228860101878
 42
0.0053755672744278
 10
-647.83788243343531
 20
-524.87587434661828
 10
-647.76458456955356
 20
-524.9922886010188
 42
0.0167202389173124
 10
-645.97627095863493
 20
-527.63246981603174
 10
-645.62161370806723
 20
-528.12012353556247
 42
0.0156364347610572
 10
-643.31458456955363
 20
-531.09228860101882
 10
-643.24255700123615
 20
-531.17932191273576
 42
0.0135214608282317
 10
-640.91458456955354
 20
-533.84228860101882
 10
-640.84193833726113
 20
-533.92098868600226
 42
0.0153142153081669
 10
-638.51458456955368
 20
-536.29228860101887
 10
-638.41960396906711
 20
-536.38331167648516
 42
0.023625852285722
 10
-636.11458456955359
 20
-538.39228860101878
 10
-636.03579751239431
 20
-538.45466168793655
 42
0.0082828718825063
 10
-633.76458456955356
 20
-540.19228860101873
 10
-633.73178176984959
 20
-540.21653414862601
 42
0.0271150841649516
 10
-631.41458456955354
 20
-541.7422886010188
 10
-631.29689643022527
 20
-541.81094001562701
 42
0.0071820551707629
 10
-629.11458456955359
 20
-543.04228860101887
 10
-629.07534982630807
 20
-543.06368937006187
 42
0.0181818102445109
 10
-626.91458456955354
 20
-544.14228860101878
 10
-626.82217562053904
 20
-544.18429266875262
 42
0.0262252444576263
 10
-624.76458456955368
 20
-544.9922886010188
 10
-624.70503901070788
 20
-545.01213712063407
 42
0.0075735847796019
 10
-622.71458456955361
 20
-545.64228860101878
 10
-622.64446569049437
 20
-545.6633242647365
 42
0.0209932252087441
 10
-620.76458456955368
 20
-546.14228860101878
 10
-620.65920398850392
 20
-546.16447398650291
 42
0.008206191055248
 10
-618.96458456955361
 20
-546.4922886010188
 10
-618.90854245730054
 20
-546.50217838553408
 42
0.0125799646685887
 10
-617.31458456955363
 20
-546.7422886010188
 10
-617.2109487536718
 20
-546.75524307800401
 42
0.0132626599841214
 10
-615.81458456955363
 20
-546.89228860101878
 10
-615.76293272444286
 20
-546.89597801852665
 42
0.0178287548789354
 10
-614.46458456955361
 20
-546.94228860101884
 10
-613.16735382645993
 20
-546.94228860101884
 42
0.0276713647460386
 10
-612.26458456955368
 20
-546.89228860101878
 10
-612.11274968995542
 20
-546.87541805884121
 42
-0.0276713647459413
 10
-611.51458456955368
 20
-546.84228860101882
 10
-611.4695355452335
 20
-546.84228860101882
 42
0.0493889890211296
 10
-610.96458456955361
 20
-546.79228860101887
 10
-610.93384907438008
 20
-546.78614150198416
 42
0.0666614922848493
 10
-610.51458456955356
 20
-546.64228860101878
 42
0.0000149066843134
 10
-584.71457863098226
 20
-546.84151941593086
 10
-584.61458456955359
 20
-546.84228860101882
 10
-506.21458456955361
 20
-546.84228860101882
 10
-503.71311972580349
 20
-566.79871674209119
 10
-503.71311972580349
 20
-587.7311169157025
  0
LWPOLYLINE
  5
DF
100
AcDbEntity
  8
KUF70-0301
370
              15
390
0
  6
Continuous
 62
               7
100
AcDbPolyline
 90
        4
 70
             129
 10
-459.71236017719252
 20
-605.72829573514684
 10
-499.71336386642861
 20
-605.72829573514684
 10
-499.71336386642861
 20
-596.72970632542467
 10
-459.71236017719252
 20
-596.72970632542467
  0
LWPOLYLINE
  5
E0
100
AcDbEntity
  8
KUF70-0301
370
              15
390
0
  6
Continuous
 62
               7
100
AcDbPolyline
 90
        4
 70
             129
 10
-447.71309259906741
 20
-596.72970632542467
 10
-511.71263144455349
 20
-596.72970632542467
 10
-511.71263144455349
 20
-587.7311169157025
 10
-447.71309259906741
 20
-587.7311169157025
  0
CIRCLE
  5
E1
100
AcDbEntity
  8
KUF70-0301
370
               5
390
0
  6
STYLE_12
 62
               7
100
AcDbCircle
 10
428.089257623496
 20
463.47093440272545
 30
0.0
 40
214.99893527560795
  0
CIRCLE
  5
E2
100
AcDbEntity
  8
KUF70-0301
370
              15
390
0
  6
Continuous
 62
               7
100
AcDbCircle
 10
428.08753507575307
 20
463.46748930723936
 30
0.0
 40
44.998975965712361
  0
CIRCLE
  5
E3
100
AcDbEntity
  8
KUF70-0301
370
               5
390
0
  6
STYLE_12
 62
               7
100
AcDbCircle
 10
428.08753507575307
 20
463.47093440272545
 30
0.0
 40
32.000630696615019
  0
CIRCLE
  5
E4
100
AcDbEntity
  8
KUF70-0301
370
              15
390
0
  6
Continuous
 62
               7
100
AcDbCircle
 10
-479.71372329568192
 20
463.47437949821153
 30
0.0
 40
26.498813205295164
  0
CIRCLE
  5
E5
100
AcDbEntity
  8
KUF70-0301
370
              15
390
0
  6
Continuous
 62
               7
100
AcDbCircle
 10
-479.71200074793899
 20
463.47437949821153
 30
0.0
 40
180.00000000000023
  0
LWPOLYLINE
  5
E6
100
AcDbEntity
  8
KUF70-0301
370
              15
390
0
  6
STYLE_01
 62
               7
100
AcDbPolyline
 90
       68
 70
             128
 10
-297.21926393153262
 20
-456.79681787056359
 42
-0.0029332266502935
 10
-297.11889217152122
 20
-457.9523652178367
 10
-297.07234797533272
 20
-458.52731826187539
 42
-0.0299592971147131
 10
-297.02413918036302
 20
-460.83625172677773
 10
-297.5425730387542
 20
-474.11435034445265
 42
-0.0324044543289824
 10
-299.51458456955345
 20
-493.04228860101887
 10
-301.06355039020843
 20
-502.14246279736767
 42
0.0008620657622265
 10
-301.16458456955343
 20
-502.7422886010188
 10
-301.17267088733934
 20
-502.79080650773437
 42
-0.0080618952608669
 10
-301.26458456955345
 20
-503.29228860101875
 42
-0.0416699424105216
 10
-301.40534592566041
 20
-503.78053716079955
 10
-301.71458456955338
 20
-504.59228860101882
 42
-0.0007987194970069
 10
-302.51793714357893
 20
-506.69100529348509
 10
-302.66442709424314
 20
-507.07187916521207
 42
-0.0107387894570668
 10
-303.61458456955336
 20
-509.39228860101878
 42
-0.0041250615436394
 10
-304.63349082180946
 20
-511.68388235598218
 10
-304.86458456955336
 20
-512.19228860101873
 42
-0.0039367027988093
 10
-306.3904726171744
 20
-515.48027447932986
 10
-306.56216586547725
 20
-515.8427380035248
 42
-0.0137429884559947
 10
-308.36458456955347
 20
-519.39228860101878
 10
-308.6191096440491
 20
-519.86115058035296
 42
-0.0107696123215131
 10
-310.0645845695534
 20
-522.39228860101878
 42
-0.0053755672744098
 10
-311.59128670567475
 20
-524.87587434662328
 10
-311.66458456955343
 20
-524.9922886010188
 42
-0.01672023891729
 10
-313.45289818046967
 20
-527.63246981602867
 10
-313.80755543104283
 20
-528.12012353556656
 42
-0.0156364347610874
 10
-316.11458456955347
 20
-531.09228860101882
 10
-316.18661213787152
 20
-531.17932191273655
 42
-0.0135214608282409
 10
-318.51458456955345
 20
-533.84228860101882
 10
-318.58723080184245
 20
-533.92098868599862
 42
-0.015314215308152
 10
-320.91458456955343
 20
-536.29228860101887
 10
-321.00956517003874
 20
-536.38331167648403
 42
-0.0236258522857191
 10
-323.3145845695534
 20
-538.39228860101878
 10
-323.39337162671848
 20
-538.4546616879411
 42
-0.008282871882523
 10
-325.66458456955343
 20
-540.19228860101873
 10
-325.69738736925615
 20
-540.2165341486251
 42
-0.0271150841649259
 10
-328.01458456955345
 20
-541.7422886010188
 10
-328.13227270889183
 20
-541.81094001563292
 42
-0.0071820551707928
 10
-330.3145845695534
 20
-543.04228860101887
 10
-330.3538193127996
 20
-543.06368937006221
 42
-0.0181818102444998
 10
-332.51458456955345
 20
-544.14228860101878
 10
-332.60699351856658
 20
-544.18429266875205
 42
-0.0262252444576194
 10
-334.66458456955343
 20
-544.9922886010188
 10
-334.72413012840275
 20
-545.01213712063532
 42
-0.0075735847795909
 10
-336.71458456955338
 20
-545.64228860101878
 10
-336.78470344861057
 20
-545.66332426473593
 42
-0.0209932252087567
 10
-338.66458456955343
 20
-546.14228860101878
 10
-338.76996515060182
 20
-546.16447398650268
 42
-0.0082061910552632
 10
-340.46458456955338
 20
-546.4922886010188
 10
-340.52062668180577
 20
-546.50217838553397
 42
-0.0125799646685832
 10
-342.11458456955347
 20
-546.7422886010188
 10
-342.21822038543542
 20
-546.75524307800401
 42
-0.0132626599841225
 10
-343.61458456955347
 20
-546.89228860101878
 10
-343.66623641466458
 20
-546.89597801852676
 42
-0.0178287548788761
 10
-344.96458456955338
 20
-546.94228860101884
 10
-346.26181531264547
 20
-546.94228860101884
 42
-0.0276713647460487
 10
-347.16458456955343
 20
-546.89228860101878
 10
-347.31641944915214
 20
-546.87541805884121
 42
0.0276713647460338
 10
-347.91458456955343
 20
-546.84228860101882
 10
-347.95963359387338
 20
-546.84228860101882
 42
-0.0493889890212078
 10
-348.46458456955338
 20
-546.79228860101887
 10
-348.49532006472646
 20
-546.78614150198428
 42
-0.0666614922847698
 10
-348.91458456955343
 20
-546.64228860101878
 42
-0.0000149066847789
 10
-374.71459050642386
 20
-546.84151941591779
 10
-374.8145845695534
 20
-546.84228860101882
 10
-453.21458456955361
 20
-546.84228860101882
 10
-455.71604941330372
 20
-566.79871674209119
 10
-455.71604941330372
 20
-587.7311169157025
  0
ENDSEC
  0
SECTION
  2
OBJECTS
  0
DICTIONARY
  5
19
100
AcDbDictionary
280
               0
281
               1
  3
ACAD_GROUP
350
1A
  3
ACAD_MLINESTYLE
350
1B
  3
ACAD_LAYOUT
350
1E
  3
ACAD_PLOTSETTINGS
350
22
  3
ACAD_PLOTSTYLENAME
350
1F
  0
DICTIONARY
  5
1A
102
{ACAD_REACTORS
330
19
102
}
100
AcDbDictionary
280
               0
281
               1
  0
DICTIONARY
  5
1B
102
{ACAD_REACTORS
330
19
102
}
100
AcDbDictionary
280
               0
281
               1
  3
Standard
350
1C
  0
MLINESTYLE
  5
1C
102
{ACAD_REACTORS
330
1B
102
}
100
AcDbMlineStyle
  2
Standard
 70
               0
  3

 62
               0
 51
90.0
 52
90.0
 71
               2
 49
0.5
 62
             256
  6
ByLayer
 49
-0.5
 62
             256
  6
ByLayer
  0
ACDBDICTIONARYWDFLT
  5
1F
102
{ACAD_REACTORS
330
19
102
}
100
AcDbDictionary
281
               1
  3
Normal
350
1D
100
AcDbDictionaryWithDefault
340
1D
  0
ACDBPLACEHOLDER
  5
1D
102
{ACAD_REACTORS
330
1F
102
}
  0
LAYOUT
  5
20
102
{ACAD_REACTORS
330
1E
102
}
100
AcDbPlotSettings
  1

  2

  4

  6

 40
0.0
 41
0.0
 42
0.0
 43
0.0
 44
0.0
 45
0.0
 46
0.0
 47
0.0
 48
0.0
 49
0.0
140
0.0
141
0.0
142
1.0
143
1.0
 70
            1024
 72
               0
 73
               0
 74
               0
  7

 75
               0
147
1.0
148
0.0
149
0.0
100
AcDbLayout
  1
Model
 70
               0
 71
               0
 10
0.0
 20
0.0
 11
0.0
 21
0.0
 12
0.0
 22
0.0
 32
0.0
 14
0.0
 24
0.0
 34
0.0
 15
0.0
 25
0.0
 35
0.0
146
0.0
 13
0.0
 23
0.0
 33
0.0
 16
0.0
 26
0.0
 36
0.0
 17
0.0
 27
0.0
 37
0.0
 76
               0
330
A
331
0
345
0
346
0
  0
LAYOUT
  5
21
102
{ACAD_REACTORS
330
1E
102
}
100
AcDbPlotSettings
  1

  2

  4

  6

 40
0.0
 41
0.0
 42
0.0
 43
0.0
 44
0.0
 45
0.0
 46
0.0
 47
0.0
 48
0.0
 49
0.0
140
0.0
141
0.0
142
1.0
143
1.0
 70
               0
 72
               0
 73
               0
 74
               0
  7

 75
               0
147
1.0
148
0.0
149
0.0
100
AcDbLayout
  1
Layout1
 70
               0
 71
               0
 10
0.0
 20
0.0
 11
0.0
 21
0.0
 12
0.0
 22
0.0
 32
0.0
 14
0.0
 24
0.0
 34
0.0
 15
0.0
 25
0.0
 35
0.0
146
0.0
 13
0.0
 23
0.0
 33
0.0
 16
0.0
 26
0.0
 36
0.0
 17
0.0
 27
0.0
 37
0.0
 76
               0
330
B
331
0
345
0
346
0
  0
DICTIONARY
  5
1E
102
{ACAD_REACTORS
330
19
102
}
100
AcDbDictionary
280
               0
281
               1
  3
Layout1
350
21
  3
Model
350
20
  0
DICTIONARY
  5
22
102
{ACAD_REACTORS
330
19
102
}
100
AcDbDictionary
280
               0
281
               1
  0
ENDSEC
  0
EOF
