  0
SECTION
  2
HEADER
  9
$ACADVER
  1
AC1015
  9
$ACADMAINTVER
 70
               6
  9
$DWGCODEPAGE
  3
ANSI_932
  9
$INSBASE
 10
0.0
 20
0.0
 30
0.0
  9
$EXTMIN
 10
-975.00000000023283
 20
-1431.5255224711145
 30
-14.83430555555562
  9
$EXTMAX
 10
975.00000000023283
 20
1405.9972926412884
 30
14.83430555555562
  9
$LIMMIN
 10
0.0
 20
0.0
  9
$LIMMAX
 10
0.0
 20
0.0
  9
$ORTHOMODE
 70
               0
  9
$REGENMODE
 70
               1
  9
$FILLMODE
 70
               1
  9
$QTEXTMODE
 70
               0
  9
$MIRRTEXT
 70
               1
  9
$LTSCALE
 40
127.0
  9
$ATTMODE
 70
               1
  9
$TEXTSIZE
 40
0.2
  9
$TRACEWID
 40
1.0
  9
$TEXTSTYLE
  7
Standard
  9
$CLAYER
  8
PLT70-1405
  9
$CELTYPE
  6
Continuous
  9
$CECOLOR
 62
             256
  9
$CELTSCALE
 40
1.0
  9
$DISPSILH
 70
               0
  9
$DIMSCALE
 40
1.0
  9
$DIMASZ
 40
31.75
  9
$DIMEXO
 40
0.0
  9
$DIMDLI
 40
6.9999999999999396
  9
$DIMRND
 40
0.0
  9
$DIMDLE
 40
0.0
  9
$DIMEXE
 40
19.999999999996199
  9
$DIMTP
 40
0.0
  9
$DIMTM
 40
0.0
  9
$DIMTXT
 40
24.432617187500004
  9
$DIMCEN
 40
0.0
  9
$DIMTSZ
 40
0.0
  9
$DIMTOL
 70
               0
  9
$DIMLIM
 70
               0
  9
$DIMTIH
 70
               0
  9
$DIMTOH
 70
               0
  9
$DIMSE1
 70
               0
  9
$DIMSE2
 70
               0
  9
$DIMTAD
 70
               1
  9
$DIMZIN
 70
              11
  9
$DIMBLK
  1
VW_FILLEDARROW
  9
$DIMASO
 70
               1
  9
$DIMSHO
 70
               1
  9
$DIMPOST
  1
<>
  9
$DIMAPOST
  1
[]
  9
$DIMALT
 70
               0
  9
$DIMALTD
 70
               1
  9
$DIMALTF
 40
1.0
  9
$DIMLFAC
 40
1.0
  9
$DIMTOFL
 70
               0
  9
$DIMTVP
 40
0.0
  9
$DIMTIX
 70
               1
  9
$DIMSOXD
 70
               0
  9
$DIMSAH
 70
               0
  9
$DIMBLK1
  1

  9
$DIMBLK2
  1

  9
$DIMSTYLE
  2
JIS
  9
$DIMCLRD
 70
               0
  9
$DIMCLRE
 70
               0
  9
$DIMCLRT
 70
               0
  9
$DIMTFAC
 40
1.0
  9
$DIMGAP
 40
1.00000000000108
  9
$DIMJUST
 70
               0
  9
$DIMSD1
 70
               0
  9
$DIMSD2
 70
               0
  9
$DIMTOLJ
 70
               1
  9
$DIMTZIN
 70
              11
  9
$DIMALTZ
 70
              11
  9
$DIMALTTZ
 70
              11
  9
$DIMUPT
 70
               0
  9
$DIMDEC
 70
               1
  9
$DIMTDEC
 70
               1
  9
$DIMALTU
 70
               2
  9
$DIMALTTD
 70
               2
  9
$DIMTXSTY
  7
ＭＳ ゴシック
  9
$DIMAUNIT
 70
               0
  9
$DIMADEC
 70
               2
  9
$DIMALTRND
 40
0.0
  9
$DIMAZIN
 70
               0
  9
$DIMDSEP
 70
              46
  9
$DIMATFIT
 70
               0
  9
$DIMFRAC
 70
               2
  9
$DIMLDRBLK
  1

  9
$DIMLUNIT
 70
               2
  9
$DIMLWD
 70
              -2
  9
$DIMLWE
 70
              -2
  9
$DIMTMOVE
 70
               0
  9
$LUNITS
 70
               2
  9
$LUPREC
 70
               4
  9
$SKETCHINC
 40
0.1
  9
$FILLETRAD
 40
0.0
  9
$AUNITS
 70
               0
  9
$AUPREC
 70
               0
  9
$MENU
  1
acad
  9
$ELEVATION
 40
0.0
  9
$PELEVATION
 40
0.0
  9
$THICKNESS
 40
0.0
  9
$LIMCHECK
 70
               0
  9
$CHAMFERA
 40
0.0
  9
$CHAMFERB
 40
0.0
  9
$CHAMFERC
 40
0.0
  9
$CHAMFERD
 40
0.0
  9
$SKPOLY
 70
               0
  9
$TDCREATE
 40
2455551.764664352
  9
$TDUCREATE
 40
0.000000000
  9
$TDUPDATE
 40
2455551.764664352
  9
$TDUUPDATE
 40
0.000000000
  9
$TDINDWG
 40
0.0000000000
  9
$TDUSRTIMER
 40
0.0000000000
  9
$USRTIMER
 70
               1
  9
$ANGBASE
 50
0.0
  9
$ANGDIR
 70
               0
  9
$PDMODE
 70
               1
  9
$PDSIZE
 40
-2.0
  9
$PLINEWID
 40
0.0
  9
$SPLFRAME
 70
               0
  9
$SPLINETYPE
 70
               6
  9
$SPLINESEGS
 70
               8
  9
$HANDSEED
  5
350
  9
$SURFTAB1
 70
               6
  9
$SURFTAB2
 70
               6
  9
$SURFTYPE
 70
               6
  9
$SURFU
 70
               6
  9
$SURFV
 70
               6
  9
$UCSBASE
  2

  9
$UCSNAME
  2

  9
$UCSORG
 10
0.0
 20
0.0
 30
0.0
  9
$UCSXDIR
 10
1.0
 20
0.0
 30
0.0
  9
$UCSYDIR
 10
0.0
 20
1.0
 30
0.0
  9
$UCSORTHOREF
  2

  9
$UCSORTHOVIEW
 70
               0
  9
$UCSORGTOP
 10
0.0
 20
0.0
 30
0.0
  9
$UCSORGBOTTOM
 10
0.0
 20
0.0
 30
0.0
  9
$UCSORGLEFT
 10
0.0
 20
0.0
 30
0.0
  9
$UCSORGRIGHT
 10
0.0
 20
0.0
 30
0.0
  9
$UCSORGFRONT
 10
0.0
 20
0.0
 30
0.0
  9
$UCSORGBACK
 10
0.0
 20
0.0
 30
0.0
  9
$PUCSBASE
  2

  9
$PUCSNAME
  2

  9
$PUCSORG
 10
0.0
 20
0.0
 30
0.0
  9
$PUCSXDIR
 10
1.0
 20
0.0
 30
0.0
  9
$PUCSYDIR
 10
0.0
 20
1.0
 30
0.0
  9
$PUCSORTHOREF
  2

  9
$PUCSORTHOVIEW
 70
               0
  9
$PUCSORGTOP
 10
0.0
 20
0.0
 30
0.0
  9
$PUCSORGBOTTOM
 10
0.0
 20
0.0
 30
0.0
  9
$PUCSORGLEFT
 10
0.0
 20
0.0
 30
0.0
  9
$PUCSORGRIGHT
 10
0.0
 20
0.0
 30
0.0
  9
$PUCSORGFRONT
 10
0.0
 20
0.0
 30
0.0
  9
$PUCSORGBACK
 10
0.0
 20
0.0
 30
0.0
  9
$USERI1
 70
               0
  9
$USERI2
 70
               0
  9
$USERI3
 70
               0
  9
$USERI4
 70
               0
  9
$USERI5
 70
               0
  9
$USERR1
 40
0.0
  9
$USERR2
 40
0.0
  9
$USERR3
 40
0.0
  9
$USERR4
 40
0.0
  9
$USERR5
 40
0.0
  9
$WORLDVIEW
 70
               1
  9
$SHADEDGE
 70
               3
  9
$SHADEDIF
 70
              70
  9
$TILEMODE
 70
               1
  9
$MAXACTVP
 70
              64
  9
$PINSBASE
 10
0.0
 20
0.0
 30
0.0
  9
$PLIMCHECK
 70
               0
  9
$PEXTMIN
 10
1.0000000000000000E+20
 20
1.0000000000000000E+20
 30
1.0000000000000000E+20
  9
$PEXTMAX
 10
-1.0000000000000000E+20
 20
-1.0000000000000000E+20
 30
-1.0000000000000000E+20
  9
$PLIMMIN
 10
0.0
 20
0.0
  9
$PLIMMAX
 10
12.0
 20
9.0
  9
$UNITMODE
 70
               0
  9
$VISRETAIN
 70
               0
  9
$PLINEGEN
 70
               1
  9
$PSLTSCALE
 70
               0
  9
$TREEDEPTH
 70
            3020
  9
$CMLSTYLE
  2
Standard
  9
$CMLJUST
 70
               0
  9
$CMLSCALE
 40
1.0
  9
$PROXYGRAPHICS
 70
               0
  9
$MEASUREMENT
 70
               1
  9
$CELWEIGHT
370
               0
  9
$ENDCAPS
280
               0
  9
$JOINSTYLE
280
               0
  9
$LWDISPLAY
290
               1
  9
$INSUNITS
 70
               4
  9
$HYPERLINKBASE
  1

  9
$STYLESHEET
  1

  9
$XEDIT
290
               1
  9
$CEPSNTYPE
380
               0
  9
$PSTYLEMODE
290
               1
  9
$FINGERPRINTGUID
  2

  9
$VERSIONGUID
  2

  9
$EXTNAMES
290
               1
  9
$PSVPSCALE
 40
0.0
  0
ENDSEC
  0
SECTION
  2
CLASSES
  0
CLASS
  1
LWPOLYLINE
  2
AcDbPolyline
  3
AutoCAD 2000
 90
        0
280
               0
281
               1
  0
CLASS
  1
IMAGE
  2
AcDbRasterImage
  3
ISM
 90
      127
280
               0
281
               1
  0
CLASS
  1
OLE2FRAME
  2
AcDbOle2Frame
  3
AutoCAD 2000
 90
        0
280
               0
281
               1
  0
CLASS
  1
HATCH
  2
AcDbHatch
  3
AutoCAD 2000
 90
        0
280
               0
281
               1
  0
CLASS
  1
DICTIONARYVAR
  2
AcDbDictionaryVar
  3
AutoCAD 2000
 90
        0
280
               0
281
               0
  0
CLASS
  1
RASTERVARIABLES
  2
AcDbRasterVariables
  3
ISM
 90
        0
280
               0
281
               0
  0
CLASS
  1
IMAGEDEF
  2
AcDbRasterImageDef
  3
ISM
 90
        0
280
               0
281
               0
  0
CLASS
  1
IMAGEDEF_REACTOR
  2
AcDbRasterImageDefReactor
  3
ISM
 90
        1
280
               0
281
               0
  0
CLASS
  1
IDBUFFER
  2
AcDbIdBuffer
  3
AutoCAD 2000
 90
        0
280
               0
281
               0
  0
CLASS
  1
SPATIAL_FILTER
  2
AcDbSpatialFilter
  3
AutoCAD 2000
 90
        0
280
               0
281
               0
  0
CLASS
  1
XRECORD
  2
AcDbXrecord
  3
AutoCAD 2000
 90
        0
280
               0
281
               0
  0
CLASS
  1
SORTENTSTABLE
  2
AcDbSortentsTable
  3
AutoCAD 2000
 90
        0
280
               0
281
               0
  0
CLASS
  1
LAYER_INDEX
  2
AcDbLayerIndex
  3
AutoCAD 2000
 90
        0
280
               0
281
               0
  0
CLASS
  1
SPATIAL_INDEX
  2
AcDbSpatialIndex
  3
AutoCAD 2000
 90
        0
280
               0
281
               0
  0
CLASS
  1
OBJECT_PTR
  2
CAseDLPNTableRecord
  3
"ASE-LPNTableRecord"
 90
        1
280
               0
281
               0
  0
CLASS
  1
LAYOUT
  2
AcDbLayout
  3
AutoCAD 2000
 90
        0
280
               0
281
               0
  0
CLASS
  1
PLOTSETTINGS
  2
AcDbPlotSettings
  3
AutoCAD 2000
 90
        0
280
               0
281
               0
  0
CLASS
  1
ACDBDICTIONARYWDFLT
  2
AcDbDictionaryWithDefault
  3
AutoCAD 2000
 90
        0
280
               0
281
               0
  0
CLASS
  1
ACDBPLACEHOLDER
  2
AcDbPlaceHolder
  3
AutoCAD 2000
 90
        0
280
               0
281
               0
  0
ENDSEC
  0
SECTION
  2
TABLES
  0
TABLE
  2
VPORT
  5
7
100
AcDbSymbolTable
 70
               1
  0
VPORT
  5
15
100
AcDbSymbolTableRecord
100
AcDbViewportTableRecord
  2
*ACTIVE
 70
               0
 10
0.0
 20
0.0
 11
1.0
 21
1.0
 12
0.0
 22
-12.76411491491308
 13
0.0
 23
0.0
 14
1.0
 24
1.0
 15
0.0
 25
0.0
 16
0.0
 26
0.0
 36
1.0
 17
0.0
 27
0.0
 37
0.0
 40
2837.5228151124029
 41
0.688564
 42
50.0
 43
0.0
 44
0.0
 50
0.0
 51
0.0
 71
               0
 72
            2000
 73
               1
 74
               1
 75
               0
 76
               0
 77
               0
 78
               0
281
               0
 65
               0
110
0.0
120
0.0
130
0.0
111
1.0
121
0.0
131
0.0
112
0.0
122
1.0
132
0.0
345
0
346
0
 79
               0
146
0.0
  0
ENDTAB
  0
TABLE
  2
LTYPE
  5
4
100
AcDbSymbolTable
 70
              17
  0
LTYPE
  5
11
100
AcDbSymbolTableRecord
100
AcDbLinetypeTableRecord
  2
ByBlock
 70
              64
  3

 72
              65
 73
               0
 40
0.0
  0
LTYPE
  5
12
100
AcDbSymbolTableRecord
100
AcDbLinetypeTableRecord
  2
ByLayer
 70
              64
  3

 72
              65
 73
               0
 40
0.0
  0
LTYPE
  5
13
100
AcDbSymbolTableRecord
100
AcDbLinetypeTableRecord
  2
Continuous
 70
              64
  3
Solid line
 72
              65
 73
               0
 40
0.0
  0
LTYPE
  5
34
100
AcDbSymbolTableRecord
100
AcDbLinetypeTableRecord
  2
STYLE_01
 70
               0
  3

 72
              65
 73
               4
 40
1.9999999999999996
 49
0.9999999999999999
 74
               0
 49
-0.4999999999999999
 74
               0
 49
0.0002
 74
               0
 49
-0.4997999999999998
 74
               0
  0
LTYPE
  5
35
100
AcDbSymbolTableRecord
100
AcDbLinetypeTableRecord
  2
STYLE_02
 70
               0
  3

 72
              65
 73
               2
 40
0.7499999999999998
 49
0.4999999999999999
 74
               0
 49
-0.2499999999999999
 74
               0
  0
LTYPE
  5
36
100
AcDbSymbolTableRecord
100
AcDbLinetypeTableRecord
  2
STYLE_03
 70
               0
  3

 72
              65
 73
               2
 40
0.5
 49
0.416656
 74
               0
 49
-0.083344
 74
               0
  0
LTYPE
  5
37
100
AcDbSymbolTableRecord
100
AcDbLinetypeTableRecord
  2
STYLE_04
 70
               0
  3

 72
              65
 73
               2
 40
0.611084
 49
0.52777
 74
               0
 49
-0.083314
 74
               0
  0
LTYPE
  5
38
100
AcDbSymbolTableRecord
100
AcDbLinetypeTableRecord
  2
STYLE_05
 70
               0
  3

 72
              65
 73
               2
 40
0.083312
 49
0.02777
 74
               0
 49
-0.055542
 74
               0
  0
LTYPE
  5
39
100
AcDbSymbolTableRecord
100
AcDbLinetypeTableRecord
  2
STYLE_06
 70
               0
  3

 72
              65
 73
               4
 40
0.416656
 49
0.25
 74
               0
 49
-0.083312
 74
               0
 49
0.027772
 74
               0
 49
-0.055572
 74
               0
  0
LTYPE
  5
3A
100
AcDbSymbolTableRecord
100
AcDbLinetypeTableRecord
  2
STYLE_07
 70
               0
  3

 72
              65
 73
               6
 40
0.75
 49
0.25
 74
               0
 49
-0.083312
 74
               0
 49
0.2500000000000001
 74
               0
 49
-0.083344
 74
               0
 49
0.027772
 74
               0
 49
-0.055572
 74
               0
  0
LTYPE
  5
3B
100
AcDbSymbolTableRecord
100
AcDbLinetypeTableRecord
  2
STYLE_08
 70
               0
  3

 72
              65
 73
               6
 40
0.5
 49
0.25
 74
               0
 49
-0.083312
 74
               0
 49
0.027772
 74
               0
 49
-0.055572
 74
               0
 49
0.027772
 74
               0
 49
-0.055572
 74
               0
  0
LTYPE
  5
3C
100
AcDbSymbolTableRecord
100
AcDbLinetypeTableRecord
  2
STYLE_09
 70
               0
  3

 72
              65
 73
               4
 40
2.0
 49
1.5
 74
               0
 49
-0.1111139999999999
 74
               0
 49
0.2777720000000001
 74
               0
 49
-0.1111139999999999
 74
               0
  0
LTYPE
  5
3D
100
AcDbSymbolTableRecord
100
AcDbLinetypeTableRecord
  2
STYLE_10
 70
               0
  3

 72
              65
 73
               6
 40
2.375
 49
1.5
 74
               0
 49
-0.1111139999999999
 74
               0
 49
0.2777720000000001
 74
               0
 49
-0.1111139999999999
 74
               0
 49
0.25
 74
               0
 49
-0.125
 74
               0
  0
LTYPE
  5
3E
100
AcDbSymbolTableRecord
100
AcDbLinetypeTableRecord
  2
STYLE_11
 70
               0
  3

 72
              65
 73
               2
 40
0.0277777952755906
 49
0.0138888976377953
 74
               0
 49
-0.0138888976377953
 74
               0
  0
LTYPE
  5
3F
100
AcDbSymbolTableRecord
100
AcDbLinetypeTableRecord
  2
STYLE_12
 70
               0
  3

 72
              65
 73
               2
 40
0.1574803149606299
 49
0.078740157480315
 74
               0
 49
-0.078740157480315
 74
               0
  0
LTYPE
  5
40
100
AcDbSymbolTableRecord
100
AcDbLinetypeTableRecord
  2
STYLE_13
 70
               0
  3

 72
              65
 73
               2
 40
0.2362204724409449
 49
0.1181102362204724
 74
               0
 49
-0.1181102362204724
 74
               0
  0
LTYPE
  5
41
100
AcDbSymbolTableRecord
100
AcDbLinetypeTableRecord
  2
STYLE_14
 70
               0
  3

 72
              65
 73
               2
 40
0.7874015748031495
 49
0.3937007874015748
 74
               0
 49
-0.3937007874015748
 74
               0
  0
ENDTAB
  0
TABLE
  2
LAYER
  5
2
100
AcDbSymbolTable
 70
               5
  0
LAYER
  5
14
100
AcDbSymbolTableRecord
100
AcDbLayerTableRecord
  2
0
 70
               0
 62
               7
  6
Continuous
290
               1
370
              -3
390
1D
  0
LAYER
  5
42
100
AcDbSymbolTableRecord
100
AcDbLayerTableRecord
  2
Defpoints
 70
               0
 62
               7
  6
Continuous
290
               0
370
              -3
390
1D
  0
LAYER
  5
43
100
AcDbSymbolTableRecord
100
AcDbLayerTableRecord
  2
template
 70
               0
 62
               7
  6
Continuous
290
               1
370
              -3
390
1D
  0
LAYER
  5
44
100
AcDbSymbolTableRecord
100
AcDbLayerTableRecord
  2
notes
 70
               0
 62
               7
  6
Continuous
290
               1
370
              -3
390
1D
  0
LAYER
  5
45
100
AcDbSymbolTableRecord
100
AcDbLayerTableRecord
  2
PLT70-1405
 70
               0
 62
               7
  6
Continuous
290
               1
370
              -3
390
1D
  0
ENDTAB
  0
TABLE
  2
STYLE
  5
3
100
AcDbSymbolTable
 70
               2
  0
STYLE
  5
17
100
AcDbSymbolTableRecord
100
AcDbTextStyleTableRecord
  2
Standard
 70
               0
 40
0.0
 41
1.0
 50
0.0
 71
               0
 42
0.0
  3
txt
  4
BIGFONT.SHX
  0
STYLE
  5
33
100
AcDbSymbolTableRecord
100
AcDbTextStyleTableRecord
  2
ＭＳ ゴシック
 70
               0
 40
0.0
 41
1.0
 50
0.0
 71
               0
 42
0.0
  3

  4
ＭＳ ゴシック
1001
ACAD
1000
ＭＳ ゴシック
1071
        0
  0
ENDTAB
  0
TABLE
  2
VIEW
  5
5
100
AcDbSymbolTable
 70
               0
  0
ENDTAB
  0
TABLE
  2
UCS
  5
6
100
AcDbSymbolTable
 70
               0
  0
ENDTAB
  0
TABLE
  2
APPID
  5
8
100
AcDbSymbolTable
 70
               1
  0
APPID
  5
16
100
AcDbSymbolTableRecord
100
AcDbRegAppTableRecord
  2
ACAD
 70
               0
  0
ENDTAB
  0
TABLE
  2
DIMSTYLE
  5
9
100
AcDbSymbolTable
 70
               3
100
AcDbDimStyleTable
 71
               0
  0
DIMSTYLE
105
18
100
AcDbSymbolTableRecord
100
AcDbDimStyleTableRecord
  2
Standard
 70
               0
  3

  4

 40
1.0
 41
0.18
 42
0.0625
 43
0.38
 44
0.18
 45
0.0
 46
0.0
 47
0.0
 48
0.0
 71
               0
 72
               0
 73
               1
 74
               1
 75
               0
 76
               0
 77
               0
 78
               0
 79
               0
140
0.18
141
0.09
142
0.0
143
25.399999999999999
144
1.0
145
0.0
146
1.0
147
0.09
148
0.0
170
               0
171
               2
172
               0
173
               0
174
               0
175
               0
176
               0
177
               0
178
               0
179
               0
271
               4
272
               4
273
               2
274
               2
275
               0
276
               0
277
               2
278
              46
279
               0
280
               0
281
               0
282
               0
283
               1
284
               0
285
               0
286
               0
288
               0
289
               3
340
17
341
0
342
0
343
0
344
0
371
              -2
372
              -2
  0
DIMSTYLE
105
4E
100
AcDbSymbolTableRecord
100
AcDbDimStyleTableRecord
  2
tfrom線あり
 70
               0
  3
<>
  4
[]
 40
1.0
 41
3.999755859375
 42
24.999999999999996
 43
0.9999999999999999
 44
0.0
 45
0.0
 46
0.0
 47
0.0
 48
0.0
 71
               0
 72
               0
 73
               0
 74
               0
 75
               0
 76
               0
 77
               1
 78
              11
 79
               0
140
24.432617187500004
141
0.0
142
0.0
143
1.0
144
1.0
145
0.0
146
1.0
147
0.4999999999999999
148
0.0
170
               0
171
               1
172
               0
173
               0
174
               1
175
               0
176
               0
177
               0
178
               0
179
               2
271
               1
272
               1
273
               2
274
               2
275
               0
276
               2
277
               2
278
              46
279
               0
280
               0
281
               0
282
               0
283
               1
284
              11
285
              11
286
              11
288
               0
289
               0
340
33
341
46
342
46
343
0
344
0
371
              -2
372
              -2
  0
DIMSTYLE
105
53
100
AcDbSymbolTableRecord
100
AcDbDimStyleTableRecord
  2
JIS
 70
               0
  3
<>
  4
[]
 40
1.0
 41
31.75
 42
0.0
 43
6.9999999999999396
 44
19.999999999996199
 45
0.0
 46
0.0
 47
0.0
 48
0.0
 71
               0
 72
               0
 73
               0
 74
               0
 75
               0
 76
               0
 77
               1
 78
              11
 79
               0
140
24.432617187500004
141
0.0
142
0.0
143
1.0
144
1.0
145
0.0
146
1.0
147
1.00000000000108
148
0.0
170
               0
171
               1
172
               0
173
               0
174
               1
175
               0
176
               0
177
               0
178
               0
179
               2
271
               1
272
               1
273
               2
274
               2
275
               0
276
               2
277
               2
278
              46
279
               0
280
               0
281
               0
282
               0
283
               1
284
              11
285
              11
286
              11
288
               0
289
               0
340
33
341
4F
342
4F
343
0
344
0
371
              -2
372
              -2
  0
ENDTAB
  0
TABLE
  2
BLOCK_RECORD
  5
1
100
AcDbSymbolTable
 70
              18
  0
BLOCK_RECORD
  5
A
100
AcDbSymbolTableRecord
100
AcDbBlockTableRecord
  2
*MODEL_SPACE
340
20
  0
BLOCK_RECORD
  5
B
100
AcDbSymbolTableRecord
100
AcDbBlockTableRecord
  2
*PAPER_SPACE
340
21
  0
BLOCK_RECORD
  5
46
100
AcDbSymbolTableRecord
100
AcDbBlockTableRecord
  2
_DOT
340
0
  0
BLOCK_RECORD
  5
4F
100
AcDbSymbolTableRecord
100
AcDbBlockTableRecord
  2
VW_FILLEDARROW
340
0
  0
BLOCK_RECORD
  5
23
100
AcDbSymbolTableRecord
100
AcDbBlockTableRecord
  2
グループ
340
0
102
{BLKREFS
331
123
102
}
  0
BLOCK_RECORD
  5
24
100
AcDbSymbolTableRecord
100
AcDbBlockTableRecord
  2
*D3
340
0
  0
BLOCK_RECORD
  5
25
100
AcDbSymbolTableRecord
100
AcDbBlockTableRecord
  2
*D4
340
0
  0
BLOCK_RECORD
  5
26
100
AcDbSymbolTableRecord
100
AcDbBlockTableRecord
  2
*D5
340
0
  0
BLOCK_RECORD
  5
27
100
AcDbSymbolTableRecord
100
AcDbBlockTableRecord
  2
*D6
340
0
  0
BLOCK_RECORD
  5
28
100
AcDbSymbolTableRecord
100
AcDbBlockTableRecord
  2
*D7
340
0
  0
BLOCK_RECORD
  5
29
100
AcDbSymbolTableRecord
100
AcDbBlockTableRecord
  2
*D8
340
0
  0
BLOCK_RECORD
  5
2A
100
AcDbSymbolTableRecord
100
AcDbBlockTableRecord
  2
*D9
340
0
  0
BLOCK_RECORD
  5
2B
100
AcDbSymbolTableRecord
100
AcDbBlockTableRecord
  2
*D10
340
0
  0
BLOCK_RECORD
  5
2C
100
AcDbSymbolTableRecord
100
AcDbBlockTableRecord
  2
*D11
340
0
  0
BLOCK_RECORD
  5
2D
100
AcDbSymbolTableRecord
100
AcDbBlockTableRecord
  2
*D12
340
0
  0
BLOCK_RECORD
  5
2E
100
AcDbSymbolTableRecord
100
AcDbBlockTableRecord
  2
*D13
340
0
  0
BLOCK_RECORD
  5
2F
100
AcDbSymbolTableRecord
100
AcDbBlockTableRecord
  2
*D14
340
0
  0
BLOCK_RECORD
  5
30
100
AcDbSymbolTableRecord
100
AcDbBlockTableRecord
  2
*D15
340
0
  0
BLOCK_RECORD
  5
31
100
AcDbSymbolTableRecord
100
AcDbBlockTableRecord
  2
*D16
340
0
  0
BLOCK_RECORD
  5
32
100
AcDbSymbolTableRecord
100
AcDbBlockTableRecord
  2
*D17
340
0
  0
ENDTAB
  0
ENDSEC
  0
SECTION
  2
BLOCKS
  0
BLOCK
  5
D
100
AcDbEntity
  8
0
390
0
100
AcDbBlockBegin
  2
*MODEL_SPACE
 70
               0
 10
0.0
 20
0.0
 30
0.0
  3
*MODEL_SPACE
  1

  0
ENDBLK
  5
E
100
AcDbEntity
  8
0
390
0
100
AcDbBlockEnd
  0
BLOCK
  5
F
100
AcDbEntity
 67
               1
  8
0
390
0
100
AcDbBlockBegin
  2
*PAPER_SPACE
 70
               0
 10
0.0
 20
0.0
 30
0.0
  3
*PAPER_SPACE
  1

  0
ENDBLK
  5
10
100
AcDbEntity
 67
               1
  8
0
390
0
100
AcDbBlockEnd
  0
BLOCK
  5
47
100
AcDbEntity
  8
0
390
0
100
AcDbBlockBegin
  2
_DOT
 70
               0
 10
0.0
 20
0.0
 30
0.0
  3
_DOT
  1

  0
POLYLINE
  5
48
100
AcDbEntity
  8
0
370
              -2
390
0
  6
ByBlock
 62
               0
100
AcDb2dPolyline
 66
               1
 10
0.0
 20
0.0
 30
0.0
 70
               1
 40
0.5
 41
0.5
  0
VERTEX
  5
49
100
AcDbEntity
  8
0
370
              -2
390
0
  6
ByBlock
 62
               0
100
AcDbVertex
100
AcDb2dVertex
 10
-0.25
 20
0.0
 30
0.0
 42
1.0
  0
VERTEX
  5
4A
100
AcDbEntity
  8
0
370
              -2
390
0
  6
ByBlock
 62
               0
100
AcDbVertex
100
AcDb2dVertex
 10
0.25
 20
0.0
 30
0.0
 42
1.0
  0
SEQEND
  5
4B
100
AcDbEntity
  8
0
390
0
  0
LINE
  5
4C
100
AcDbEntity
  8
0
370
              -2
390
0
  6
ByBlock
 62
               0
100
AcDbLine
 10
-0.5
 20
0.0
 30
0.0
 11
-1.0
 21
0.0
 31
0.0
  0
ENDBLK
  5
4D
100
AcDbEntity
  8
0
390
0
100
AcDbBlockEnd
  0
BLOCK
  5
50
100
AcDbEntity
  8
0
370
              -2
390
0
  6
ByBlock
 62
               0
100
AcDbBlockBegin
  2
VW_FILLEDARROW
 70
               0
 10
0.0
 20
0.0
 30
0.0
  3
VW_FILLEDARROW
  1

  0
SOLID
  5
51
100
AcDbEntity
  8
0
370
              -2
390
0
 62
               0
100
AcDbTrace
 10
0.0
 20
0.0
 30
0.0
 11
-0.9921874999999999
 21
-0.2658558393652545
 31
0.0
 12
-0.9921874999999999
 22
0.2658558393652548
 32
0.0
 13
-0.9921874999999999
 23
0.2658558393652548
 33
0.0
  0
ENDBLK
  5
52
100
AcDbEntity
  8
0
390
0
100
AcDbBlockEnd
  0
BLOCK
  5
54
100
AcDbEntity
  8
template
390
0
100
AcDbBlockBegin
  2
グループ
 70
               0
 10
0.0
 20
0.0
 30
0.0
  3
グループ
  1

  0
LWPOLYLINE
  5
55
100
AcDbEntity
  8
0
370
              15
390
0
  6
Continuous
 62
               7
100
AcDbPolyline
 90
        8
 70
             129
 10
-205854.07911937262
 20
-230622.32021889379
 10
-205854.07911937262
 20
-230628.31760758738
 10
-205863.58031629061
 20
-230628.31760758738
 10
-205863.58031629061
 20
-230652.76857085087
 10
-205871.9356935524
 20
-230652.76857085087
 10
-205871.9356935524
 20
-230628.31760758738
 10
-205881.26865049871
 20
-230628.31760758738
 10
-205881.26865049871
 20
-230622.32021889379
  0
LWPOLYLINE
  5
56
100
AcDbEntity
  8
0
370
              15
390
0
  6
Continuous
 62
               7
100
AcDbPolyline
 90
      101
 70
             128
 10
-205841.35082754205
 20
-230623.04846738672
 10
-205841.33547751314
 20
-230623.04410663
 42
-0.0222221607321155
 10
-205841.04547293659
 20
-230622.97548216479
 10
-205841.02967917299
 20
-230622.97247874178
 42
-0.0146883566234148
 10
-205840.76697646739
 20
-230622.93047555475
 42
-0.0127458843739518
 10
-205840.50233749999
 20
-230622.90293858666
 10
-205840.43988242192
 20
-230622.8980451641
 42
-0.0198099018562203
 10
-205840.04903331207
 20
-230622.88296000671
 10
-205839.99722184299
 20
-230622.88301378238
 42
-0.0147617382968559
 10
-205839.50259838221
 20
-230622.89813380761
 10
-205839.42990692679
 20
-230622.90250641451
 42
-0.0162624548936622
 10
-205839.03975329769
 20
-230622.93873928976
 10
-205838.91822090719
 20
-230622.95402584865
 42
-0.0080020873955658
 10
-205838.77264187532
 20
-230622.97470869601
 10
-205838.73432240597
 20
-230622.98077997362
 42
-0.0053821928397691
 10
-205838.66583829941
 20
-230622.99238749765
 10
-205839.39224399862
 20
-230625.17331595338
 42
0.0108667757966172
 10
-205839.45956106947
 20
-230625.160128838
 10
-205839.49702909193
 20
-230625.15363109554
 42
0.0170663203245977
 10
-205839.64024587939
 20
-230625.13380149822
 10
-205839.70812121156
 20
-230625.12675432768
 42
0.0220162375552961
 10
-205839.98850061974
 20
-230625.11007196689
 10
-205840.06635618641
 20
-230625.10887259964
 42
0.0282606915639536
 10
-205840.40199251001
 20
-230625.1226758766
 10
-205840.44590578429
 20
-230625.12697586665
 42
0.0169677213444109
 10
-205840.69183027875
 20
-230625.15951291617
 42
0.0190576269566928
 10
-205840.93473824064
 20
-230625.20965978812
 10
-205840.94099742942
 20
-230625.21120276238
 42
0.0213685642933763
 10
-205841.19138191378
 20
-230625.28440304744
 10
-205841.19687180885
 20
-230625.28626604355
 42
0.02375952975792
 10
-205841.45036669384
 20
-230625.38595056551
 10
-205841.45546876776
 20
-230625.38824234094
 42
0.0261857469260095
 10
-205841.70763954398
 20
-230625.51777867827
 10
-205841.71806573297
 20
-230625.52384415269
 42
0.0272553061616563
 10
-205841.95449550831
 20
-230625.67921635869
 10
-205841.98925852202
 20
-230625.70487750694
 42
0.0325996894036029
 10
-205842.13941386546
 20
-230625.8316253798
 10
-205842.16312329442
 20
-230625.85444340814
 42
0.0138050959739706
 10
-205842.25500645081
 20
-230625.94789306982
 42
0.0125280104387232
 10
-205842.34184898381
 20
-230626.04605639662
 10
-205842.36552942856
 20
-230626.07421489462
 42
0.0205218024679859
 10
-205842.49062950411
 20
-230626.23600820891
 10
-205842.51309584454
 20
-230626.26766793866
 42
0.0163110129960677
 10
-205842.66880622422
 20
-230626.50299837443
 10
-205842.67153011984
 20
-230626.50742213574
 42
0.0131897341959393
 10
-205842.81833064041
 20
-230626.76055422745
 10
-205842.82003073613
 20
-230626.76367246723
 42
0.0107895575941085
 10
-205842.95780743833
 20
-230627.02988767688
 10
-205842.95854032785
 20
-230627.0313819095
 42
0.0091371507634049
 10
-205843.08702027646
 20
-230627.30590710719
 10
-205843.11676590791
 20
-230627.37261361443
 42
0.0135418326161872
 10
-205843.28847984684
 20
-230627.78755139932
 10
-205843.32208465532
 20
-230627.87541754168
 42
0.0092834542444181
 10
-205843.49331371536
 20
-230628.34931604029
 10
-205843.51893084368
 20
-230628.42455711187
 42
0.0054261043832805
 10
-205843.62656899137
 20
-230628.75232108316
 10
-205843.64409497307
 20
-230628.80770923122
 42
0.0008225090364577
 10
-205843.71276502937
 20
-230629.02597800354
 10
-205844.6974541613
 20
-230632.0508692968
 10
-205841.46483032123
 20
-230632.0508692968
 10
-205841.96902275109
 20
-230633.95534759515
 10
-205845.22507903306
 20
-230633.95534759515
 10
-205851.05422806542
 20
-230652.76857066114
 10
-205852.87932567572
 20
-230652.76857066114
 10
-205847.04464764023
 20
-230633.95534759515
 10
-205849.44976400927
 20
-230633.95534759515
 10
-205848.94557157942
 20
-230632.0508692968
 10
-205846.51702276847
 20
-230632.0508692968
 10
-205845.65686785028
 20
-230629.4144562961
 42
-0.0005863561706796
 10
-205845.62013317447
 20
-230629.2976298834
 10
-205845.54404533841
 20
-230629.05663757643
 42
-0.0087522378972484
 10
-205845.34457719489
 20
-230628.46136148903
 10
-205845.25231292017
 20
-230628.20122132244
 42
-0.0077400954008316
 10
-205844.9943792604
 20
-230627.50821664318
 10
-205844.97861428937
 20
-230627.4677857612
 42
-0.0082369946646666
 10
-205844.73152981821
 20
-230626.86370669364
 42
-0.0085725238659209
 10
-205844.46428372248
 20
-230626.26828065491
 10
-205844.36265412133
 20
-230626.05185955256
 42
-0.0168109410680525
 10
-205844.07570969249
 20
-230625.49065202626
 10
-205843.94986630321
 20
-230625.26368799538
 42
-0.0007817727048769
 10
-205843.89558195198
 20
-230625.16614374821
 10
-205843.8954536469
 20
-230625.16591404114
 42
-0.0036626142266292
 10
-205843.84056578192
 20
-230625.06931615953
 42
-0.0080221151946789
 10
-205843.78344152667
 20
-230624.97403692495
 10
-205843.75274157518
 20
-230624.92464597564
 42
-0.0202139325569284
 10
-205843.62508583543
 20
-230624.73666437506
 10
-205843.57101837016
 20
-230624.66358551072
 42
-0.0249323791971802
 10
-205843.31185557667
 20
-230624.34754026879
 10
-205843.28771576233
 20
-230624.32092599565
 42
-0.0242132121456757
 10
-205842.94803502058
 20
-230623.98104250926
 10
-205842.9001234482
 20
-230623.93753337339
 42
-0.0251017528068609
 10
-205842.61614174739
 20
-230623.70454062748
 10
-205842.61469627012
 20
-230623.70347136958
 42
-0.0130868068998803
 10
-205842.3164356206
 20
-230623.49469090137
 10
-205842.31487380157
 20
-230623.49365746116
 42
-0.0290329526307101
 10
-205842.00376266008
 20
-230623.31283195945
 10
-205841.97391709822
 20
-230623.29772957668
 42
-0.0160250189616667
 10
-205841.70801268431
 20
-230623.17371346641
 42
-0.0267600374899022
 10
-205841.43273660669
 20
-230623.07296514581
 10
-205841.40600068733
 20
-230623.06477258704
 42
-0.0049981585148236
 10
-205841.35082754205
 20
-230623.04846738672
 42
-0.0049981585148236
  0
LWPOLYLINE
  5
57
100
AcDbEntity
  8
0
370
              15
390
0
  6
Continuous
 62
               7
100
AcDbPolyline
 90
      118
 70
             128
 10
-205821.53645997759
 20
-230632.12485262461
 10
-205819.66133805312
 20
-230632.12485262461
 10
-205820.4993769587
 20
-230634.80641915102
 42
-0.0010587232364838
 10
-205820.46792114343
 20
-230634.769514618
 10
-205820.40972705249
 20
-230634.70153236148
 42
-0.0071874740233973
 10
-205820.25935183384
 20
-230634.53089166881
 10
-205820.11762906116
 20
-230634.37465552814
 42
-0.0148118053262847
 10
-205819.66749976808
 20
-230633.90704168178
 10
-205819.58027743292
 20
-230633.82164436069
 42
-0.008627335854079
 10
-205819.2447286325
 20
-230633.50426872727
 10
-205819.20089491634
 20
-230633.46421908299
 42
-0.0103138323548908
 10
-205818.94287121407
 20
-230633.23805594561
 10
-205818.89709680772
 20
-230633.19957389834
 42
-0.0060206749071025
 10
-205818.72424874362
 20
-230633.05777924758
 10
-205818.72221761369
 20
-230633.05615354271
 42
-0.0067069027568978
 10
-205818.54992479808
 20
-230632.92200290813
 10
-205818.54737603187
 20
-230632.92007273805
 42
-0.007618435186734
 10
-205818.37647076626
 20
-230632.79469786302
 42
-0.0089652862199777
 10
-205818.20150980423
 20
-230632.67506460313
 10
-205818.16515808349
 20
-230632.65115338925
 42
-0.0156916245584447
 10
-205817.96919858624
 20
-230632.53089090274
 42
-0.0023299010386898
 10
-205817.76893654073
 20
-230632.41771296234
 10
-205817.75355240988
 20
-230632.40911296813
 42
-0.010766934123818
 10
-205817.51931558459
 20
-230632.28471283469
 10
-205817.49705078371
 20
-230632.27349608485
 42
-0.0078058045994675
 10
-205817.2134606661
 20
-230632.13613462934
 10
-205817.20355357806
 20
-230632.13152550132
 42
-0.0181829330642837
 10
-205816.89324417341
 20
-230632.00066176022
 10
-205816.83918873101
 20
-230631.98014664033
 42
-0.0208411535811926
 10
-205816.49010376341
 20
-230631.86405617779
 10
-205816.47574766321
 20
-230631.85993773281
 42
-0.022279981745426
 10
-205816.14702786936
 20
-230631.78129616671
 10
-205816.13813890616
 20
-230631.77958415612
 42
-0.0215509523527226
 10
-205815.82166793785
 20
-230631.73266846756
 10
-205815.77918597669
 20
-230631.72823094076
 42
-0.0182545924603042
 10
-205815.54507719749
 20
-230631.7123871154
 10
-205815.50567618108
 20
-230631.71116257034
 42
-0.0072962856831038
 10
-205815.34975330145
 20
-230631.70859324181
 10
-205815.32065363185
 20
-230631.70853840641
 42
-0.0059227519560583
 10
-205815.22290413175
 20
-230631.70951211819
 10
-205815.19366191735
 20
-230631.71014988472
 42
-0.0011833112159753
 10
-205815.15441063052
 20
-230631.71109888909
 10
-205815.94979722615
 20
-230634.2498328342
 42
0.0143932050061166
 10
-205815.97619860817
 20
-230634.23963386426
 10
-205815.98347058089
 20
-230634.23706264529
 42
0.0234388604000036
 10
-205816.02530144667
 20
-230634.22444340962
 10
-205816.03398310975
 20
-230634.22226244758
 42
0.0199162744062537
 10
-205816.09427194379
 20
-230634.20964571225
 10
-205816.11508588164
 20
-230634.20614851281
 42
0.0293643550533005
 10
-205816.21816074016
 20
-230634.19499846717
 10
-205816.24284592114
 20
-230634.19378685014
 42
0.0214606686637632
 10
-205816.39598683713
 20
-230634.19284828973
 10
-205816.40535874787
 20
-230634.19319320127
 42
0.0167564053756833
 10
-205816.57687893865
 20
-230634.20527024358
 10
-205816.58533873176
 20
-230634.20615158405
 42
0.0137677552629762
 10
-205816.77269204496
 20
-230634.23090089261
 10
-205816.78004378453
 20
-230634.23207881258
 42
0.0118497261355804
 10
-205816.98054154846
 20
-230634.26909616272
 10
-205816.98669155588
 20
-230634.27038302546
 42
0.0106421144411526
 10
-205817.19757244369
 20
-230634.31921540119
 10
-205817.20248125156
 20
-230634.32046274375
 42
0.0099746379712564
 10
-205817.42093972061
 20
-230634.38063727203
 10
-205817.48248776089
 20
-230634.3989191507
 42
0.0191613676116867
 10
-205817.81847222318
 20
-230634.51289653088
 10
-205817.90653199589
 20
-230634.5465834412
 42
0.0205274079922466
 10
-205818.29183876805
 20
-230634.71241184912
 10
-205818.34948804989
 20
-230634.74007981364
 42
0.018125691225201
 10
-205818.60776499071
 20
-230634.87576363268
 10
-205818.66072037432
 20
-230634.90608124607
 42
0.0140709242118463
 10
-205818.80567530863
 20
-230634.99457591932
 10
-205818.83192417651
 20
-230635.01163273756
 42
0.0086667883934349
 10
-205818.92085033879
 20
-230635.07163540591
 42
0.0036408192200444
 10
-205819.00828357882
 20
-230635.13381626512
 10
-205819.0435104513
 20
-230635.15925720963
 42
0.0052260780965964
 10
-205819.19973914849
 20
-230635.27458959611
 10
-205819.21594600496
 20
-230635.28681770689
 42
0.0050024435498486
 10
-205819.40194934746
 20
-230635.43010027474
 10
-205819.4172675045
 20
-230635.4421462976
 42
0.0136138710629433
 10
-205819.62770877313
 20
-230635.61711280272
 10
-205819.66137664864
 20
-230635.64669177521
 42
0.0172815186988131
 10
-205819.92578019021
 20
-230635.89568844775
 10
-205819.92834253615
 20
-230635.898274265
 42
0.0189403858244371
 10
-205820.17892433476
 20
-230636.17107952983
 10
-205820.21155582846
 20
-230636.20942346152
 42
0.0185044200028835
 10
-205820.40351226722
 20
-230636.45267204242
 42
0.0088565244018665
 10
-205820.58197237362
 20
-230636.70618846218
 10
-205820.59115035352
 20
-230636.71972984233
 42
0.0157195347405464
 10
-205820.77437095976
 20
-230637.00925205147
 10
-205820.82045390186
 20
-230637.0874042488
 42
0.0095451879733317
 10
-205820.98553945194
 20
-230637.37999889103
 10
-205820.99668737059
 20
-230637.40066956263
 42
0.0100351705758529
 10
-205821.12873112003
 20
-230637.65772512363
 42
0.0086935914955592
 10
-205821.25106227174
 20
-230637.91955826886
 10
-205821.25438301323
 20
-230637.927000592
 42
0.0072580174377785
 10
-205821.37472946502
 20
-230638.20759258326
 10
-205821.37799109847
 20
-230638.21551260963
 42
0.0060005122659473
 10
-205821.49719176666
 20
-230638.51512227979
 10
-205821.50040274515
 20
-230638.52348380812
 42
0.004901778661081
 10
-205821.61930290403
 20
-230638.84241278877
 10
-205821.62246871041
 20
-230638.85116572597
 42
0.0039415167621825
 10
-205821.74190498845
 20
-230639.18970778832
 10
-205821.74503609113
 20
-230639.19881098924
 42
0.0031035838866338
 10
-205821.86584087848
 20
-230639.55725085604
 10
-205821.86895092134
 20
-230639.56667147239
 42
0.0025070747448834
 10
-205821.99185227396
 20
-230639.94531869341
 10
-205822.02914616908
 20
-230640.0622103546
 42
0.0029081910073501
 10
-205822.22116446609
 20
-230640.67637401025
 10
-205822.26196763542
 20
-230640.80959725517
 42
0.0009266453847734
 10
-205822.53038501117
 20
-230641.69182171993
 10
-205822.55127248101
 20
-230641.76093358992
 42
-0.000580999357781
 10
-205822.82860916294
 20
-230642.67474170096
 10
-205822.89489096371
 20
-230642.89222664127
 42
-0.0012018707853784
 10
-205823.04187527066
 20
-230643.37038929763
 10
-205823.09419512816
 20
-230643.53914845758
 42
-0.0002691059780442
 10
-205823.13776460339
 20
-230643.67941605885
 10
-205825.97072050167
 20
-230652.76857066114
 10
-205827.78870939364
 20
-230652.76857066114
 10
-205821.53645997759
 20
-230632.12485262461
  0
SPLINE
  5
58
100
AcDbEntity
  8
0
370
              15
390
0
  6
Continuous
 62
               7
100
AcDbSpline
210
0.0
220
0.0
230
1.0
 70
              13
 71
               2
 72
             782
 73
             779
 74
               0
 42
0.000001
 43
0.000001
 40
0.0
 40
0.0
 40
0.0
 40
1.0
 40
1.0
 40
2.0
 40
2.0
 40
3.0
 40
3.0
 40
4.0
 40
4.0
 40
5.0
 40
5.0
 40
6.0
 40
6.0
 40
7.0
 40
7.0
 40
8.0
 40
8.0
 40
9.0
 40
9.0
 40
10.0
 40
10.0
 40
11.0
 40
11.0
 40
12.0
 40
12.0
 40
13.0
 40
13.0
 40
14.0
 40
14.0
 40
15.0
 40
15.0
 40
16.0
 40
16.0
 40
17.0
 40
17.0
 40
18.0
 40
18.0
 40
19.0
 40
19.0
 40
20.0
 40
20.0
 40
21.0
 40
21.0
 40
22.0
 40
22.0
 40
23.0
 40
23.0
 40
24.0
 40
24.0
 40
25.0
 40
25.0
 40
26.0
 40
26.0
 40
27.0
 40
27.0
 40
28.0
 40
28.0
 40
29.0
 40
29.0
 40
30.0
 40
30.0
 40
31.0
 40
31.0
 40
32.0
 40
32.0
 40
33.0
 40
33.0
 40
34.0
 40
34.0
 40
35.0
 40
35.0
 40
36.0
 40
36.0
 40
37.0
 40
37.0
 40
38.0
 40
38.0
 40
39.0
 40
39.0
 40
40.0
 40
40.0
 40
41.0
 40
41.0
 40
42.0
 40
42.0
 40
43.0
 40
43.0
 40
44.0
 40
44.0
 40
45.0
 40
45.0
 40
46.0
 40
46.0
 40
47.0
 40
47.0
 40
48.0
 40
48.0
 40
49.0
 40
49.0
 40
50.0
 40
50.0
 40
51.0
 40
51.0
 40
52.0
 40
52.0
 40
53.0
 40
53.0
 40
54.0
 40
54.0
 40
55.0
 40
55.0
 40
56.0
 40
56.0
 40
57.0
 40
57.0
 40
58.0
 40
58.0
 40
59.0
 40
59.0
 40
60.0
 40
60.0
 40
61.0
 40
61.0
 40
62.0
 40
62.0
 40
63.0
 40
63.0
 40
64.0
 40
64.0
 40
65.0
 40
65.0
 40
66.0
 40
66.0
 40
67.0
 40
67.0
 40
68.0
 40
68.0
 40
69.0
 40
69.0
 40
70.0
 40
70.0
 40
71.0
 40
71.0
 40
72.0
 40
72.0
 40
73.0
 40
73.0
 40
74.0
 40
74.0
 40
75.0
 40
75.0
 40
76.0
 40
76.0
 40
77.0
 40
77.0
 40
78.0
 40
78.0
 40
79.0
 40
79.0
 40
80.0
 40
80.0
 40
81.0
 40
81.0
 40
82.0
 40
82.0
 40
83.0
 40
83.0
 40
84.0
 40
84.0
 40
85.0
 40
85.0
 40
86.0
 40
86.0
 40
87.0
 40
87.0
 40
88.0
 40
88.0
 40
89.0
 40
89.0
 40
90.0
 40
90.0
 40
91.0
 40
91.0
 40
92.0
 40
92.0
 40
93.0
 40
93.0
 40
94.0
 40
94.0
 40
95.0
 40
95.0
 40
96.0
 40
96.0
 40
97.0
 40
97.0
 40
98.0
 40
98.0
 40
99.0
 40
99.0
 40
100.0
 40
100.0
 40
101.0
 40
101.0
 40
102.0
 40
102.0
 40
103.0
 40
103.0
 40
104.0
 40
104.0
 40
105.0
 40
105.0
 40
106.0
 40
106.0
 40
107.0
 40
107.0
 40
108.0
 40
108.0
 40
109.0
 40
109.0
 40
110.0
 40
110.0
 40
111.0
 40
111.0
 40
112.0
 40
112.0
 40
113.0
 40
113.0
 40
114.0
 40
114.0
 40
115.0
 40
115.0
 40
116.0
 40
116.0
 40
117.0
 40
117.0
 40
118.0
 40
118.0
 40
119.0
 40
119.0
 40
120.0
 40
120.0
 40
121.0
 40
121.0
 40
122.0
 40
122.0
 40
123.0
 40
123.0
 40
124.0
 40
124.0
 40
125.0
 40
125.0
 40
126.0
 40
126.0
 40
127.0
 40
127.0
 40
128.0
 40
128.0
 40
129.0
 40
129.0
 40
130.0
 40
130.0
 40
131.0
 40
131.0
 40
132.0
 40
132.0
 40
133.0
 40
133.0
 40
134.0
 40
134.0
 40
135.0
 40
135.0
 40
136.0
 40
136.0
 40
137.0
 40
137.0
 40
138.0
 40
138.0
 40
139.0
 40
139.0
 40
140.0
 40
140.0
 40
141.0
 40
141.0
 40
142.0
 40
142.0
 40
143.0
 40
143.0
 40
144.0
 40
144.0
 40
145.0
 40
145.0
 40
146.0
 40
146.0
 40
147.0
 40
147.0
 40
148.0
 40
148.0
 40
149.0
 40
149.0
 40
150.0
 40
150.0
 40
151.0
 40
151.0
 40
152.0
 40
152.0
 40
153.0
 40
153.0
 40
154.0
 40
154.0
 40
155.0
 40
155.0
 40
156.0
 40
156.0
 40
157.0
 40
157.0
 40
158.0
 40
158.0
 40
159.0
 40
159.0
 40
160.0
 40
160.0
 40
161.0
 40
161.0
 40
162.0
 40
162.0
 40
163.0
 40
163.0
 40
164.0
 40
164.0
 40
165.0
 40
165.0
 40
166.0
 40
166.0
 40
167.0
 40
167.0
 40
168.0
 40
168.0
 40
169.0
 40
169.0
 40
170.0
 40
170.0
 40
171.0
 40
171.0
 40
172.0
 40
172.0
 40
173.0
 40
173.0
 40
174.0
 40
174.0
 40
175.0
 40
175.0
 40
176.0
 40
176.0
 40
177.0
 40
177.0
 40
178.0
 40
178.0
 40
179.0
 40
179.0
 40
180.0
 40
180.0
 40
181.0
 40
181.0
 40
182.0
 40
182.0
 40
183.0
 40
183.0
 40
184.0
 40
184.0
 40
185.0
 40
185.0
 40
186.0
 40
186.0
 40
187.0
 40
187.0
 40
188.0
 40
188.0
 40
189.0
 40
189.0
 40
190.0
 40
190.0
 40
191.0
 40
191.0
 40
192.0
 40
192.0
 40
193.0
 40
193.0
 40
194.0
 40
194.0
 40
195.0
 40
195.0
 40
196.0
 40
196.0
 40
197.0
 40
197.0
 40
198.0
 40
198.0
 40
199.0
 40
199.0
 40
200.0
 40
200.0
 40
201.0
 40
201.0
 40
202.0
 40
202.0
 40
203.0
 40
203.0
 40
204.0
 40
204.0
 40
205.0
 40
205.0
 40
206.0
 40
206.0
 40
207.0
 40
207.0
 40
208.0
 40
208.0
 40
209.0
 40
209.0
 40
210.0
 40
210.0
 40
211.0
 40
211.0
 40
212.0
 40
212.0
 40
213.0
 40
213.0
 40
214.0
 40
214.0
 40
215.0
 40
215.0
 40
216.0
 40
216.0
 40
217.0
 40
217.0
 40
218.0
 40
218.0
 40
219.0
 40
219.0
 40
220.0
 40
220.0
 40
221.0
 40
221.0
 40
222.0
 40
222.0
 40
223.0
 40
223.0
 40
224.0
 40
224.0
 40
225.0
 40
225.0
 40
226.0
 40
226.0
 40
227.0
 40
227.0
 40
228.0
 40
228.0
 40
229.0
 40
229.0
 40
230.0
 40
230.0
 40
231.0
 40
231.0
 40
232.0
 40
232.0
 40
233.0
 40
233.0
 40
234.0
 40
234.0
 40
235.0
 40
235.0
 40
236.0
 40
236.0
 40
237.0
 40
237.0
 40
238.0
 40
238.0
 40
239.0
 40
239.0
 40
240.0
 40
240.0
 40
241.0
 40
241.0
 40
242.0
 40
242.0
 40
243.0
 40
243.0
 40
244.0
 40
244.0
 40
245.0
 40
245.0
 40
246.0
 40
246.0
 40
247.0
 40
247.0
 40
248.0
 40
248.0
 40
249.0
 40
249.0
 40
250.0
 40
250.0
 40
251.0
 40
251.0
 40
252.0
 40
252.0
 40
253.0
 40
253.0
 40
254.0
 40
254.0
 40
255.0
 40
255.0
 40
256.0
 40
256.0
 40
257.0
 40
257.0
 40
258.0
 40
258.0
 40
259.0
 40
259.0
 40
260.0
 40
260.0
 40
261.0
 40
261.0
 40
262.0
 40
262.0
 40
263.0
 40
263.0
 40
264.0
 40
264.0
 40
265.0
 40
265.0
 40
266.0
 40
266.0
 40
267.0
 40
267.0
 40
268.0
 40
268.0
 40
269.0
 40
269.0
 40
270.0
 40
270.0
 40
271.0
 40
271.0
 40
272.0
 40
272.0
 40
273.0
 40
273.0
 40
274.0
 40
274.0
 40
275.0
 40
275.0
 40
276.0
 40
276.0
 40
277.0
 40
277.0
 40
278.0
 40
278.0
 40
279.0
 40
279.0
 40
280.0
 40
280.0
 40
281.0
 40
281.0
 40
282.0
 40
282.0
 40
283.0
 40
283.0
 40
284.0
 40
284.0
 40
285.0
 40
285.0
 40
286.0
 40
286.0
 40
287.0
 40
287.0
 40
288.0
 40
288.0
 40
289.0
 40
289.0
 40
290.0
 40
290.0
 40
291.0
 40
291.0
 40
292.0
 40
292.0
 40
293.0
 40
293.0
 40
294.0
 40
294.0
 40
295.0
 40
295.0
 40
296.0
 40
296.0
 40
297.0
 40
297.0
 40
298.0
 40
298.0
 40
299.0
 40
299.0
 40
300.0
 40
300.0
 40
301.0
 40
301.0
 40
302.0
 40
302.0
 40
303.0
 40
303.0
 40
304.0
 40
304.0
 40
305.0
 40
305.0
 40
306.0
 40
306.0
 40
307.0
 40
307.0
 40
308.0
 40
308.0
 40
309.0
 40
309.0
 40
310.0
 40
310.0
 40
311.0
 40
311.0
 40
312.0
 40
312.0
 40
313.0
 40
313.0
 40
314.0
 40
314.0
 40
315.0
 40
315.0
 40
316.0
 40
316.0
 40
317.0
 40
317.0
 40
318.0
 40
318.0
 40
319.0
 40
319.0
 40
320.0
 40
320.0
 40
321.0
 40
321.0
 40
322.0
 40
322.0
 40
323.0
 40
323.0
 40
324.0
 40
324.0
 40
325.0
 40
325.0
 40
326.0
 40
326.0
 40
327.0
 40
327.0
 40
328.0
 40
328.0
 40
329.0
 40
329.0
 40
330.0
 40
330.0
 40
331.0
 40
331.0
 40
332.0
 40
332.0
 40
333.0
 40
333.0
 40
334.0
 40
334.0
 40
335.0
 40
335.0
 40
336.0
 40
336.0
 40
337.0
 40
337.0
 40
338.0
 40
338.0
 40
339.0
 40
339.0
 40
340.0
 40
340.0
 40
341.0
 40
341.0
 40
342.0
 40
342.0
 40
343.0
 40
343.0
 40
344.0
 40
344.0
 40
345.0
 40
345.0
 40
346.0
 40
346.0
 40
347.0
 40
347.0
 40
348.0
 40
348.0
 40
349.0
 40
349.0
 40
350.0
 40
350.0
 40
351.0
 40
351.0
 40
352.0
 40
352.0
 40
353.0
 40
353.0
 40
354.0
 40
354.0
 40
355.0
 40
355.0
 40
356.0
 40
356.0
 40
357.0
 40
357.0
 40
358.0
 40
358.0
 40
359.0
 40
359.0
 40
360.0
 40
360.0
 40
361.0
 40
361.0
 40
362.0
 40
362.0
 40
363.0
 40
363.0
 40
364.0
 40
364.0
 40
365.0
 40
365.0
 40
366.0
 40
366.0
 40
367.0
 40
367.0
 40
368.0
 40
368.0
 40
369.0
 40
369.0
 40
370.0
 40
370.0
 40
371.0
 40
371.0
 40
372.0
 40
372.0
 40
373.0
 40
373.0
 40
374.0
 40
374.0
 40
375.0
 40
375.0
 40
376.0
 40
376.0
 40
377.0
 40
377.0
 40
378.0
 40
378.0
 40
379.0
 40
379.0
 40
380.0
 40
380.0
 40
381.0
 40
381.0
 40
382.0
 40
382.0
 40
383.0
 40
383.0
 40
384.0
 40
384.0
 40
385.0
 40
385.0
 40
386.0
 40
386.0
 40
387.0
 40
387.0
 40
388.0
 40
388.0
 40
389.0
 40
389.0
 40
389.0
 10
-205811.20775552688
 20
-230632.11392626126
 30
0.0
 41
1.0
 10
-205810.38933141815
 20
-230632.11392626126
 30
0.0
 41
1.0
 10
-205809.57090730942
 20
-230632.11392626126
 30
0.0
 41
1.0
 10
-205809.98466104496
 20
-230633.45655252552
 30
0.0
 41
1.0
 10
-205810.39841478047
 20
-230634.79917878975
 30
0.0
 41
1.0
 10
-205810.38007528736
 20
-230634.77047802004
 30
0.0
 41
0.9999957264445675
 10
-205810.3615682926
 20
-230634.7418849731
 30
0.0
 41
1.0
 10
-205810.3311389664
 20
-230634.69487209152
 30
0.0
 41
1.0
 10
-205810.3007096402
 20
-230634.64785920994
 30
0.0
 41
1.0
 10
-205810.22134399504
 20
-230634.52524040299
 30
0.0
 41
0.9995394069062167
 10
-205810.13468560347
 20
-230634.40766234123
 30
0.0
 41
1.0
 10
-205810.09892874127
 20
-230634.35914744873
 30
0.0
 41
1.0
 10
-205810.06317187907
 20
-230634.31063255621
 30
0.0
 41
1.0
 10
-205809.92944521119
 20
-230634.12919228099
 30
0.0
 41
0.9994460617135509
 10
-205809.78394472989
 20
-230633.95704988332
 30
0.0
 41
1.0
 10
-205809.77955654898
 20
-230633.95185820299
 30
0.0
 41
1.0
 10
-205809.77516836804
 20
-230633.94666652268
 30
0.0
 41
1.0
 10
-205809.63844424865
 20
-230633.78490748571
 30
0.0
 41
0.9994359394921506
 10
-205809.49117001827
 20
-230633.63269128453
 30
0.0
 41
1.0
 10
-205809.48878666421
 20
-230633.63022795401
 30
0.0
 41
1.0
 10
-205809.48640331012
 20
-230633.62776462352
 30
0.0
 41
1.0
 10
-205809.34389578778
 20
-230633.48047508323
 30
0.0
 41
0.9995293688560767
 10
-205809.19262410695
 20
-230633.34220187119
 30
0.0
 41
1.0
 10
-205809.17333034787
 20
-230633.32456598571
 30
0.0
 41
1.0
 10
-205809.15403658876
 20
-230633.3069301002
 30
0.0
 41
1.0
 10
-205809.04135242614
 20
-230633.20392865918
 30
0.0
 41
0.9997087614801903
 10
-205808.923829537
 20
-230633.10648437822
 30
0.0
 41
1.0
 10
-205808.90466346423
 20
-230633.09059280006
 30
0.0
 41
1.0
 10
-205808.88549739146
 20
-230633.07470122189
 30
0.0
 41
1.0
 10
-205808.80630664848
 20
-230633.00904009776
 30
0.0
 41
0.9999595338687219
 10
-205808.72594737718
 20
-230632.94481436675
 30
0.0
 41
1.0
 10
-205808.64558810607
 20
-230632.88058863592
 30
0.0
 41
0.9999749417507639
 10
-205808.56432757148
 20
-230632.81750708178
 30
0.0
 41
1.0
 10
-205808.54334142516
 20
-230632.80121579434
 30
0.0
 41
1.0
 10
-205808.52235527884
 20
-230632.78492450694
 30
0.0
 41
1.0
 10
-205808.43778739395
 20
-230632.71927549742
 30
0.0
 41
0.9999792037123451
 10
-205808.35237979458
 20
-230632.65472271608
 30
0.0
 41
1.0
 10
-205808.33155496838
 20
-230632.63898289361
 30
0.0
 41
1.0
 10
-205808.31073014217
 20
-230632.62324307111
 30
0.0
 41
1.0
 10
-205808.26697219448
 20
-230632.59016993421
 30
0.0
 41
0.999999337412656
 10
-205808.22329050867
 20
-230632.556996139
 30
0.0
 41
1.0
 10
-205808.17960882274
 20
-230632.52382234373
 30
0.0
 41
0.9999160953802964
 10
-205808.13508241205
 20
-230632.49179127871
 30
0.0
 41
1.0
 10
-205808.10226052441
 20
-230632.46818012296
 30
0.0
 41
1.0
 10
-205808.06943863677
 20
-230632.44456896721
 30
0.0
 41
1.0
 10
-205807.95926845097
 20
-230632.36531559081
 30
0.0
 41
0.9980964527195733
 10
-205807.84017945742
 20
-230632.30022811794
 30
0.0
 41
1.0
 10
-205807.80314685041
 20
-230632.2799881383
 30
0.0
 41
1.0
 10
-205807.76611424339
 20
-230632.25974815866
 30
0.0
 41
1.0
 10
-205807.58678723025
 20
-230632.16173790806
 30
0.0
 41
0.9984572810596876
 10
-205807.39769866405
 20
-230632.08421564678
 30
0.0
 41
1.0
 10
-205807.39405239472
 20
-230632.08272075449
 30
0.0
 41
1.0
 10
-205807.3904061254
 20
-230632.08122586217
 30
0.0
 41
1.0
 10
-205807.20861009776
 20
-230632.00669338545
 30
0.0
 41
0.9987838528040788
 10
-205807.02035743912
 20
-230631.95042774524
 30
0.0
 41
1.0
 10
-205807.01611948988
 20
-230631.94916109153
 30
0.0
 41
1.0
 10
-205807.01188154065
 20
-230631.94789443782
 30
0.0
 41
1.0
 10
-205806.83210478054
 20
-230631.89416210508
 30
0.0
 41
0.9990652816234946
 10
-205806.64835884882
 20
-230631.85615842554
 30
0.0
 41
1.0
 10
-205806.64317044773
 20
-230631.8550853224
 30
0.0
 41
1.0
 10
-205806.63798204667
 20
-230631.85401221929
 30
0.0
 41
1.0
 10
-205806.46461291707
 20
-230631.818154746
 30
0.0
 41
0.9992909934292692
 10
-205806.28903715068
 20
-230631.79544431352
 30
0.0
 41
1.0
 10
-205806.11346138429
 20
-230631.77273388105
 30
0.0
 41
0.99945535394315
 10
-205805.93676995137
 20
-230631.76165457687
 30
0.0
 41
1.0
 10
-205805.90133554357
 20
-230631.75943268882
 30
0.0
 41
1.0
 10
-205805.86590113578
 20
-230631.75721080077
 30
0.0
 41
1.0
 10
-205805.69967536908
 20
-230631.74678773835
 30
0.0
 41
0.9990928098251944
 10
-205805.53316557704
 20
-230631.7505473796
 30
0.0
 41
1.0
 10
-205805.49460374203
 20
-230631.75141807113
 30
0.0
 41
1.0
 10
-205805.45604190705
 20
-230631.75228876265
 30
0.0
 41
1.0
 10
-205805.36665578542
 20
-230631.75430702083
 30
0.0
 41
0.9998382089185008
 10
-205805.27740010235
 20
-230631.75953914737
 30
0.0
 41
1.0
 10
-205805.27697019611
 20
-230631.75956434826
 30
0.0
 41
1.0
 10
-205805.27654028987
 20
-230631.75958954918
 30
0.0
 41
1.0
 10
-205805.18814441952
 20
-230631.76477127388
 30
0.0
 41
0.9997558016725944
 10
-205805.10006384237
 20
-230631.77385378926
 30
0.0
 41
1.0
 10
-205805.09958770394
 20
-230631.77390288672
 30
0.0
 41
1.0
 10
-205805.09911156548
 20
-230631.77395198421
 30
0.0
 41
1.0
 10
-205805.01198326514
 20
-230631.7829363046
 30
0.0
 41
0.9996565144174345
 10
-205804.92544541182
 20
-230631.79647361129
 30
0.0
 41
1.0
 10
-205804.92497948656
 20
-230631.796546497
 30
0.0
 41
1.0
 10
-205804.92451356127
 20
-230631.79661938272
 30
0.0
 41
1.0
 10
-205804.83890755862
 20
-230631.81001091795
 30
0.0
 41
0.9995321806846131
 10
-205804.75428047817
 20
-230631.82861140641
 30
0.0
 41
1.0
 10
-205804.75389128306
 20
-230631.828696949
 30
0.0
 41
1.0
 10
-205804.75350208796
 20
-230631.82878249156
 30
0.0
 41
1.0
 10
-205804.66965339732
 20
-230631.84721189499
 30
0.0
 41
0.9993819199377007
 10
-205804.58730686363
 20
-230631.87148727808
 30
0.0
 41
1.0
 10
-205804.58706842997
 20
-230631.87155756724
 30
0.0
 41
1.0
 10
-205804.58682999632
 20
-230631.8716278564
 30
0.0
 41
1.0
 10
-205804.50496032927
 20
-230631.89576266141
 30
0.0
 41
0.9992088568506212
 10
-205804.42526781047
 20
-230631.92632789718
 30
0.0
 41
1.0
 10
-205804.3455868196
 20
-230631.95688749789
 30
0.0
 41
0.9990226101772231
 10
-205804.26891614968
 20
-230631.9943649295
 30
0.0
 41
1.0
 10
-205804.19225700799
 20
-230632.03183672598
 30
0.0
 41
0.9988424273997459
 10
-205804.11955338091
 20
-230632.07650150114
 30
0.0
 41
1.0
 10
-205804.11928567238
 20
-230632.07666596532
 30
0.0
 41
1.0
 10
-205804.11901796388
 20
-230632.07683042946
 30
0.0
 41
1.0
 10
-205804.04577892026
 20
-230632.12182413257
 30
0.0
 41
0.9986928844345372
 10
-205803.97751605391
 20
-230632.17405986661
 30
0.0
 41
1.0
 10
-205803.97693476133
 20
-230632.17450468009
 30
0.0
 41
1.0
 10
-205803.97635346878
 20
-230632.17494949361
 30
0.0
 41
1.0
 10
-205803.90692801736
 20
-230632.22807485456
 30
0.0
 41
0.9986007262275157
 10
-205803.84350184738
 20
-230632.2882356245
 30
0.0
 41
1.0
 10
-205803.84260743216
 20
-230632.2890839921
 30
0.0
 41
1.0
 10
-205803.84171301694
 20
-230632.28993235971
 30
0.0
 41
1.0
 10
-205803.77649801614
 20
-230632.35178986521
 30
0.0
 41
0.998558149142781
 10
-205803.71829040433
 20
-230632.4202823556
 30
0.0
 41
1.0
 10
-205803.70903195086
 20
-230632.43117671314
 30
0.0
 41
1.0
 10
-205803.69977349736
 20
-230632.44207107072
 30
0.0
 41
1.0
 10
-205803.62304897848
 20
-230632.53235227638
 30
0.0
 41
0.9970460233416855
 10
-205803.56105707734
 20
-230632.63331936055
 30
0.0
 41
1.0
 10
-205803.54658771236
 20
-230632.65688581945
 30
0.0
 41
1.0
 10
-205803.53211834739
 20
-230632.68045227838
 30
0.0
 41
1.0
 10
-205803.49238164723
 20
-230632.74517200261
 30
0.0
 41
0.9988468816639473
 10
-205803.45903527638
 20
-230632.8134044552
 30
0.0
 41
1.0
 10
-205803.45199925365
 20
-230632.82780137681
 30
0.0
 41
1.0
 10
-205803.44496323096
 20
-230632.8421982984
 30
0.0
 41
1.0
 10
-205803.42568890541
 20
-230632.88163690813
 30
0.0
 41
0.9998431190019903
 10
-205803.40782357811
 20
-230632.92173346208
 30
0.0
 41
1.0
 10
-205803.38995825153
 20
-230632.96183001451
 30
0.0
 41
0.9999989990094984
 10
-205803.37197952898
 20
-230633.00187585014
 30
0.0
 41
1.0
 10
-205803.3658072165
 20
-230633.01562406894
 30
0.0
 41
1.0
 10
-205803.35963490402
 20
-230633.02937228774
 30
0.0
 41
1.0
 10
-205803.32931155723
 20
-230633.09691455937
 30
0.0
 41
0.9998790356307383
 10
-205803.30110367693
 20
-230633.16536731174
 30
0.0
 41
1.0
 10
-205803.29426849593
 20
-230633.18195441249
 30
0.0
 41
1.0
 10
-205803.28743331489
 20
-230633.19854151327
 30
0.0
 41
1.0
 10
-205803.26387565242
 20
-230633.25570946842
 30
0.0
 41
0.9998227574586593
 10
-205803.24248690394
 20
-230633.3137237769
 30
0.0
 41
1.0
 10
-205803.22109815569
 20
-230633.37173808474
 30
0.0
 41
0.999679797095389
 10
-205803.20267187088
 20
-230633.43076020337
 30
0.0
 41
1.0
 10
-205803.19876806802
 20
-230633.443264662
 30
0.0
 41
1.0
 10
-205803.19486426516
 20
-230633.45576912063
 30
0.0
 41
1.0
 10
-205803.16863037477
 20
-230633.53980015591
 30
0.0
 41
0.9979274938716506
 10
-205803.15340585131
 20
-230633.62650451437
 30
0.0
 41
1.0
 10
-205803.15118216403
 20
-230633.63916851528
 30
0.0
 41
1.0
 10
-205803.14895847676
 20
-230633.65183251619
 30
0.0
 41
1.0
 10
-205803.13802853704
 20
-230633.7140790236
 30
0.0
 41
0.9994985982143644
 10
-205803.13106037187
 20
-230633.77689252482
 30
0.0
 41
1.0
 10
-205803.12409220668
 20
-230633.83970602602
 30
0.0
 41
0.9996372611142647
 10
-205803.12051634092
 20
-230633.90280360475
 30
0.0
 41
1.0
 10
-205803.12034776341
 20
-230633.90577822179
 30
0.0
 41
1.0
 10
-205803.12017918593
 20
-230633.90875283879
 30
0.0
 41
1.0
 10
-205803.11626616519
 20
-230633.97779965171
 30
0.0
 41
0.9997730630738114
 10
-205803.11529785171
 20
-230634.04695047575
 30
0.0
 41
1.0
 10
-205803.1152407453
 20
-230634.05102865485
 30
0.0
 41
1.0
 10
-205803.11518363887
 20
-230634.05510683398
 30
0.0
 41
1.0
 10
-205803.11410111253
 20
-230634.1324140169
 30
0.0
 41
0.9998772614074405
 10
-205803.11544119928
 20
-230634.20971716402
 30
0.0
 41
1.0
 10
-205803.11553046247
 20
-230634.2148663273
 30
0.0
 41
1.0
 10
-205803.11561972566
 20
-230634.22001549054
 30
0.0
 41
1.0
 10
-205803.11713833883
 20
-230634.30761696585
 30
0.0
 41
0.9999415567349663
 10
-205803.12055064912
 20
-230634.39516512858
 30
0.0
 41
1.0
 10
-205803.12079196976
 20
-230634.40135658724
 30
0.0
 41
1.0
 10
-205803.1210332904
 20
-230634.40754804591
 30
0.0
 41
1.0
 10
-205803.12492824203
 20
-230634.50747912796
 30
0.0
 41
0.9999716810420811
 10
-205803.13032682519
 20
-230634.60734026707
 30
0.0
 41
1.0
 10
-205803.13353962402
 20
-230634.66676951735
 30
0.0
 41
1.0
 10
-205803.13675242284
 20
-230634.7261987676
 30
0.0
 41
1.0
 10
-205803.14482633193
 20
-230634.87554716738
 30
0.0
 41
0.999981912990933
 10
-205803.15469612344
 20
-230635.02478764358
 30
0.0
 41
1.0
 10
-205803.16456591507
 20
-230635.17402812131
 30
0.0
 41
1.0
 10
-205803.16700523562
 20
-230635.21122116715
 30
0.0
 41
1.0
 10
-205803.14430700347
 20
-230635.17248017262
 30
0.0
 41
0.9999982128167166
 10
-205803.12146244635
 20
-230635.13382528146
 30
0.0
 41
1.0
 10
-205803.09455288481
 20
-230635.08829206461
 30
0.0
 41
1.0
 10
-205803.06764332327
 20
-230635.04275884776
 30
0.0
 41
1.0
 10
-205802.99097964462
 20
-230634.91303752546
 30
0.0
 41
0.9998609190060284
 10
-205802.91003233162
 20
-230634.78594514332
 30
0.0
 41
1.0
 10
-205802.88038401003
 20
-230634.73939541017
 30
0.0
 41
1.0
 10
-205802.85073568841
 20
-230634.69284567703
 30
0.0
 41
1.0
 10
-205802.76846346841
 20
-230634.56367310745
 30
0.0
 41
0.9999067609750826
 10
-205802.68269445922
 20
-230634.43679541841
 30
0.0
 41
1.0
 10
-205802.68028975622
 20
-230634.43323815265
 30
0.0
 41
1.0
 10
-205802.67788505321
 20
-230634.42968088691
 30
0.0
 41
1.0
 10
-205802.59692544997
 20
-230634.30991772923
 30
0.0
 41
0.9998784952129436
 10
-205802.51227184007
 20
-230634.19273651225
 30
0.0
 41
1.0
 10
-205802.42761823023
 20
-230634.07555529531
 30
0.0
 41
0.9998532968273788
 10
-205802.33900060924
 20
-230633.96134238664
 30
0.0
 41
1.0
 10
-205802.31903882051
 20
-230633.93561506597
 30
0.0
 41
1.0
 10
-205802.29907703181
 20
-230633.90988774531
 30
0.0
 41
1.0
 10
-205802.18059298195
 20
-230633.7571821342
 30
0.0
 41
0.9991551975787012
 10
-205802.04996853223
 20
-230633.61472257198
 30
0.0
 41
1.0
 10
-205802.04645891636
 20
-230633.61089497048
 30
0.0
 41
1.0
 10
-205802.04294930049
 20
-230633.60706736895
 30
0.0
 41
1.0
 10
-205801.91934408274
 20
-230633.47226301004
 30
0.0
 41
0.9997418144188487
 10
-205801.78974194289
 20
-230633.34321359929
 30
0.0
 41
1.0
 10
-205801.66013980308
 20
-230633.2141641886
 30
0.0
 41
0.9989238204619729
 10
-205801.51913725474
 20
-230633.09767922651
 30
0.0
 41
1.0
 10
-205801.47388957674
 20
-230633.06029923499
 30
0.0
 41
1.0
 10
-205801.4286418987
 20
-230633.02291924346
 30
0.0
 41
1.0
 10
-205801.28840184142
 20
-230632.90706419013
 30
0.0
 41
0.9990825084124205
 10
-205801.13876190881
 20
-230632.80363519228
 30
0.0
 41
1.0
 10
-205801.12871654471
 20
-230632.79669197917
 30
0.0
 41
1.0
 10
-205801.11867118065
 20
-230632.78974876608
 30
0.0
 41
1.0
 10
-205800.98912197616
 20
-230632.70020619442
 30
0.0
 41
0.9998164899834132
 10
-205800.85623777285
 20
-230632.61569195293
 30
0.0
 41
1.0
 10
-205800.84439221231
 20
-230632.6081581864
 30
0.0
 41
1.0
 10
-205800.83254665177
 20
-230632.60062441987
 30
0.0
 41
1.0
 10
-205800.72335356945
 20
-230632.53117771144
 30
0.0
 41
0.9997473449156594
 10
-205800.61114961223
 20
-230632.46670875361
 30
0.0
 41
1.0
 10
-205800.49894565486
 20
-230632.40223979575
 30
0.0
 41
0.9999327861151267
 10
-205800.38527704397
 20
-230632.34038980398
 30
0.0
 41
1.0
 10
-205800.38472504154
 20
-230632.34008944538
 30
0.0
 41
1.0
 10
-205800.38417303911
 20
-230632.33978908678
 30
0.0
 41
1.0
 10
-205800.26940042342
 20
-230632.27733837781
 30
0.0
 41
0.9996956420482812
 10
-205800.15168709779
 20
-230632.22062491093
 30
0.0
 41
1.0
 10
-205800.12124669267
 20
-230632.20595893409
 30
0.0
 41
1.0
 10
-205800.09080628754
 20
-230632.19129295726
 30
0.0
 41
1.0
 10
-205799.98782918081
 20
-230632.1416792988
 30
0.0
 41
0.9998070570179609
 10
-205799.8829827919
 20
-230632.09614871192
 30
0.0
 41
1.0
 10
-205799.77813640345
 20
-230632.05061812524
 30
0.0
 41
0.9997827436131621
 10
-205799.67148346733
 20
-230632.00949695412
 30
0.0
 41
1.0
 10
-205799.65226061721
 20
-230632.00208538031
 30
0.0
 41
1.0
 10
-205799.63303776708
 20
-230631.99467380648
 30
0.0
 41
1.0
 10
-205799.48793913116
 20
-230631.93872948785
 30
0.0
 41
0.9988031841998026
 10
-205799.3380687685
 20
-230631.89722942366
 30
0.0
 41
1.0
 10
-205799.31315152018
 20
-230631.89032967787
 30
0.0
 41
1.0
 10
-205799.28823427187
 20
-230631.88342993209
 30
0.0
 41
1.0
 10
-205799.12096424622
 20
-230631.8371117897
 30
0.0
 41
0.9984748040587087
 10
-205798.94960733759
 20
-230631.80951755744
 30
0.0
 41
1.0
 10
-205798.94486820145
 20
-230631.80875439695
 30
0.0
 41
1.0
 10
-205798.9401290653
 20
-230631.80799123645
 30
0.0
 41
1.0
 10
-205798.77825042905
 20
-230631.78192332518
 30
0.0
 41
0.9984436495513445
 10
-205798.61447568523
 20
-230631.77404537133
 30
0.0
 41
1.0
 10
-205798.59277847712
 20
-230631.77300168414
 30
0.0
 41
1.0
 10
-205798.57108126901
 20
-230631.77195799694
 30
0.0
 41
1.0
 10
-205798.4507009415
 20
-230631.76616741752
 30
0.0
 41
0.9987954789323037
 10
-205798.33033269658
 20
-230631.77220394526
 30
0.0
 41
1.0
 10
-205798.31036790457
 20
-230631.77320518956
 30
0.0
 41
1.0
 10
-205798.29040311257
 20
-230631.77420643388
 30
0.0
 41
1.0
 10
-205798.20996445219
 20
-230631.77824047295
 30
0.0
 41
0.999794159589247
 10
-205798.12975567358
 20
-230631.78553453891
 30
0.0
 41
1.0
 10
-205798.04954689569
 20
-230631.79282860481
 30
0.0
 41
0.9998589466242795
 10
-205797.96962834898
 20
-230631.80281245924
 30
0.0
 41
1.0
 10
-205797.93722214701
 20
-230631.8068608162
 30
0.0
 41
1.0
 10
-205797.90481594502
 20
-230631.81090917313
 30
0.0
 41
1.0
 10
-205797.76008499437
 20
-230631.82898974145
 30
0.0
 41
0.9993495063253193
 10
-205797.61703375043
 20
-230631.85745545125
 30
0.0
 41
1.0
 10
-205797.58410005335
 20
-230631.86400891445
 30
0.0
 41
1.0
 10
-205797.55116635631
 20
-230631.87056237765
 30
0.0
 41
1.0
 10
-205797.44187253315
 20
-230631.89231071176
 30
0.0
 41
0.9996788715565587
 10
-205797.3338209613
 20
-230631.91956851108
 30
0.0
 41
1.0
 10
-205797.33175795921
 20
-230631.92008893754
 30
0.0
 41
1.0
 10
-205797.32969495715
 20
-230631.920609364
 30
0.0
 41
1.0
 10
-205797.2257693898
 20
-230631.9468263103
 30
0.0
 41
0.9995480654436484
 10
-205797.12360715412
 20
-230631.97924126708
 30
0.0
 41
1.0
 10
-205797.12191751203
 20
-230631.97977737198
 30
0.0
 41
1.0
 10
-205797.12022786995
 20
-230631.98031347687
 30
0.0
 41
1.0
 10
-205797.02144491894
 20
-230632.01165622368
 30
0.0
 41
0.9993867959446969
 10
-205796.92509776045
 20
-230632.049835593
 30
0.0
 41
1.0
 10
-205796.92385481126
 20
-230632.05032813494
 30
0.0
 41
1.0
 10
-205796.92261186207
 20
-230632.05082067687
 30
0.0
 41
1.0
 10
-205796.82875060188
 20
-230632.08801496236
 30
0.0
 41
0.9992050256574467
 10
-205796.73815092695
 20
-230632.13256886153
 30
0.0
 41
1.0
 10
-205796.73741624423
 20
-230632.13293015398
 30
0.0
 41
1.0
 10
-205796.73668156154
 20
-230632.13329144643
 30
0.0
 41
1.0
 10
-205796.64755125192
 20
-230632.17712276077
 30
0.0
 41
0.999022235078429
 10
-205796.56264119054
 20
-230632.22865602846
 30
0.0
 41
1.0
 10
-205796.562457305
 20
-230632.22876763152
 30
0.0
 41
1.0
 10
-205796.56227341946
 20
-230632.22887923458
 30
0.0
 41
1.0
 10
-205796.47773112889
 20
-230632.28018929638
 30
0.0
 41
0.998864274396211
 10
-205796.39845659453
 20
-230632.33931348368
 30
0.0
 41
1.0
 10
-205796.31918206002
 20
-230632.3984376711
 30
0.0
 41
0.9987681233257891
 10
-205796.24615827587
 20
-230632.46512836241
 30
0.0
 41
1.0
 10
-205796.24582934778
 20
-230632.46542876374
 30
0.0
 41
1.0
 10
-205796.2455004197
 20
-230632.46572916507
 30
0.0
 41
1.0
 10
-205796.17181877964
 20
-230632.53302065874
 30
0.0
 41
0.9987496570787983
 10
-205796.10522497448
 20
-230632.60733347264
 30
0.0
 41
1.0
 10
-205796.10445280455
 20
-230632.60819514617
 30
0.0
 41
1.0
 10
-205796.10368063464
 20
-230632.6090568197
 30
0.0
 41
1.0
 10
-205796.03554248964
 20
-230632.68509298068
 30
0.0
 41
0.9988147669826487
 10
-205795.97512023526
 20
-230632.76739398774
 30
0.0
 41
1.0
 10
-205795.97400090934
 20
-230632.76891861888
 30
0.0
 41
1.0
 10
-205795.97288158341
 20
-230632.77044325002
 30
0.0
 41
1.0
 10
-205795.910220677
 20
-230632.85579351961
 30
0.0
 41
0.9989452636262541
 10
-205795.85565376404
 20
-230632.94653220879
 30
0.0
 41
1.0
 10
-205795.85430503797
 20
-230632.94877498981
 30
0.0
 41
1.0
 10
-205795.85295631189
 20
-230632.9510177708
 30
0.0
 41
1.0
 10
-205795.79569194675
 20
-230633.04624202201
 30
0.0
 41
0.9991046436112729
 10
-205795.74668273344
 20
-230633.14596645502
 30
0.0
 41
1.0
 10
-205795.74521887186
 20
-230633.14894513509
 30
0.0
 41
1.0
 10
-205795.74375501028
 20
-230633.15192381517
 30
0.0
 41
1.0
 10
-205795.69181807365
 20
-230633.25760560864
 30
0.0
 41
0.9992763831140432
 10
-205795.64806494495
 20
-230633.36692967097
 30
0.0
 41
1.0
 10
-205795.64658567542
 20
-230633.37062585817
 30
0.0
 41
1.0
 10
-205795.64510640589
 20
-230633.37432204536
 30
0.0
 41
1.0
 10
-205795.5983947379
 20
-230633.49103848275
 30
0.0
 41
0.9994163472949598
 10
-205795.55976170657
 20
-230633.61067207158
 30
0.0
 41
1.0
 10
-205795.55852355433
 20
-230633.61450621532
 30
0.0
 41
1.0
 10
-205795.55728540209
 20
-230633.61834035907
 30
0.0
 41
1.0
 10
-205795.51740184121
 20
-230633.74184642025
 30
0.0
 41
0.9997268055925122
 10
-205795.48333378538
 20
-230633.86708145184
 30
0.0
 41
1.0
 10
-205795.48240360513
 20
-230633.87050081789
 30
0.0
 41
1.0
 10
-205795.48147342485
 20
-230633.87392018398
 30
0.0
 41
1.0
 10
-205795.44926572949
 20
-230633.99231648372
 30
0.0
 41
0.999670131901812
 10
-205795.42318011273
 20
-230634.11221043704
 30
0.0
 41
1.0
 10
-205795.39709449603
 20
-230634.2321043897
 30
0.0
 41
0.9995785451049755
 10
-205795.37801091879
 20
-230634.35331015012
 30
0.0
 41
1.0
 10
-205795.37379113652
 20
-230634.38011130551
 30
0.0
 41
1.0
 10
-205795.36957135424
 20
-230634.40691246092
 30
0.0
 41
1.0
 10
-205795.34299637831
 20
-230634.57569843461
 30
0.0
 41
0.9979925101254363
 10
-205795.33797079237
 20
-230634.74648976268
 30
0.0
 41
1.0
 10
-205795.33714597995
 20
-230634.77452048566
 30
0.0
 41
1.0
 10
-205795.33632116753
 20
-230634.80255120865
 30
0.0
 41
1.0
 10
-205795.33294520644
 20
-230634.91728109028
 30
0.0
 41
0.9995314902271825
 10
-205795.33659539861
 20
-230635.03200257453
 30
0.0
 41
1.0
 10
-205795.34024559072
 20
-230635.14672405782
 30
0.0
 41
0.9996245486938864
 10
-205795.35017468579
 20
-230635.26107332855
 30
0.0
 41
1.0
 10
-205795.35033773381
 20
-230635.26295108511
 30
0.0
 41
1.0
 10
-205795.35050078185
 20
-230635.26482884167
 30
0.0
 41
1.0
 10
-205795.36075597291
 20
-230635.38293362455
 30
0.0
 41
0.9997286094980508
 10
-205795.37650129641
 20
-230635.50043253295
 30
0.0
 41
1.0
 10
-205795.37689478914
 20
-230635.50336895813
 30
0.0
 41
1.0
 10
-205795.37728828186
 20
-230635.50630538334
 30
0.0
 41
1.0
 10
-205795.39382059069
 20
-230635.62967714143
 30
0.0
 41
0.9998265533949808
 10
-205795.41493604938
 20
-230635.75234761601
 30
0.0
 41
1.0
 10
-205795.41561259155
 20
-230635.75627799475
 30
0.0
 41
1.0
 10
-205795.41628913372
 20
-230635.76020837348
 30
0.0
 41
1.0
 10
-205795.43875767669
 20
-230635.89073960515
 30
0.0
 41
0.9999022530840042
 10
-205795.4648671413
 20
-230636.0205915737
 30
0.0
 41
1.0
 10
-205795.46584578248
 20
-230636.02545871621
 30
0.0
 41
1.0
 10
-205795.46682442367
 20
-230636.03032585868
 30
0.0
 41
1.0
 10
-205795.49489117085
 20
-230636.16991211308
 30
0.0
 41
0.9999524761943632
 10
-205795.52567413991
 20
-230636.30892460729
 30
0.0
 41
1.0
 10
-205795.52695024686
 20
-230636.31468736558
 30
0.0
 41
1.0
 10
-205795.52822635381
 20
-230636.32045012387
 30
0.0
 41
1.0
 10
-205795.56156153706
 20
-230636.47098813605
 30
0.0
 41
0.9999813588714352
 10
-205795.59673253796
 20
-230636.62110784906
 30
0.0
 41
1.0
 10
-205795.59828646333
 20
-230636.62774043909
 30
0.0
 41
1.0
 10
-205795.59984038869
 20
-230636.63437302914
 30
0.0
 41
1.0
 10
-205795.63811924047
 20
-230636.7977579229
 30
0.0
 41
0.9999955237650897
 10
-205795.67737511851
 20
-230636.96091082678
 30
0.0
 41
1.0
 10
-205795.68965675408
 20
-230637.01195501705
 30
0.0
 41
1.0
 10
-205795.70193838965
 20
-230637.06299920729
 30
0.0
 41
1.0
 10
-205795.76575753649
 20
-230637.32824048202
 30
0.0
 41
0.9999993604737734
 10
-205795.83017648125
 20
-230637.59333672281
 30
0.0
 41
1.0
 10
-205795.83489531919
 20
-230637.61275564076
 30
0.0
 41
1.0
 10
-205795.83961415716
 20
-230637.6321745587
 30
0.0
 41
1.0
 10
-205795.91347077538
 20
-230637.93610862538
 30
0.0
 41
0.9999659914721595
 10
-205795.99233037126
 20
-230638.23878317184
 30
0.0
 41
1.0
 10
-205795.99728306022
 20
-230638.2577923091
 30
0.0
 41
1.0
 10
-205796.00223574915
 20
-230638.27680144639
 30
0.0
 41
1.0
 10
-205796.09100072287
 20
-230638.61749426706
 30
0.0
 41
0.9999441976027398
 10
-205796.18694375575
 20
-230638.95623569214
 30
0.0
 41
1.0
 10
-205796.20364427424
 20
-230639.01519940491
 30
0.0
 41
1.0
 10
-205796.22034479273
 20
-230639.07416311765
 30
0.0
 41
1.0
 10
-205796.34968886239
 20
-230639.53083196751
 30
0.0
 41
0.9999625120729684
 10
-205796.48692162958
 20
-230639.98519250107
 30
0.0
 41
1.0
 10
-205796.52271157264
 20
-230640.10368852771
 30
0.0
 41
1.0
 10
-205796.55850151574
 20
-230640.22218455435
 30
0.0
 41
1.0
 10
-205796.63302171993
 20
-230640.46891163292
 30
0.0
 41
0.9999793386312347
 10
-205796.71070774322
 20
-230640.71466027258
 30
0.0
 41
1.0
 10
-205796.78839376636
 20
-230640.96040891184
 30
0.0
 41
1.0
 10
-205796.79917332521
 20
-230640.99442681621
 30
0.0
 41
1.0
 10
-205798.64954637847
 20
-230646.88149873866
 30
0.0
 41
1.0
 10
-205800.49991943175
 20
-230652.76857066114
 30
0.0
 41
1.0
 10
-205801.46117612178
 20
-230652.76857066114
 30
0.0
 41
1.0
 10
-205802.42243281181
 20
-230652.76857066114
 30
0.0
 41
1.0
 10
-205800.80348803313
 20
-230647.62054215936
 30
0.0
 41
1.0
 10
-205799.18454325444
 20
-230642.47251365756
 30
0.0
 41
1.0
 10
-205799.13937743133
 20
-230642.32848243549
 30
0.0
 41
1.0
 10
-205799.09421160823
 20
-230642.18445121343
 30
0.0
 41
1.0
 10
-205798.92390719079
 20
-230641.64136018403
 30
0.0
 41
0.9999911657914251
 10
-205798.75817437907
 20
-230641.0968566525
 30
0.0
 41
1.0
 10
-205798.72847843642
 20
-230640.99929271522
 30
0.0
 41
1.0
 10
-205798.69878249374
 20
-230640.90172877791
 30
0.0
 41
1.0
 10
-205798.59244156821
 20
-230640.5523531239
 30
0.0
 41
0.9999952428154525
 10
-205798.48825797805
 20
-230640.20232809678
 30
0.0
 41
1.0
 10
-205798.48319850772
 20
-230640.18532982247
 30
0.0
 41
1.0
 10
-205798.47813903738
 20
-230640.16833154819
 30
0.0
 41
1.0
 10
-205798.38407438874
 20
-230639.8523030724
 30
0.0
 41
0.9999931687516597
 10
-205798.29234855087
 20
-230639.53558785917
 30
0.0
 41
1.0
 10
-205798.28741328642
 20
-230639.51854714993
 30
0.0
 41
1.0
 10
-205798.28247802198
 20
-230639.50150644069
 30
0.0
 41
1.0
 10
-205798.20062271299
 20
-230639.2188726459
 30
0.0
 41
0.9999893840799631
 10
-205798.12137548655
 20
-230638.93549651664
 30
0.0
 41
1.0
 10
-205798.04212825961
 20
-230638.65212038578
 30
0.0
 41
0.9999833980066555
 10
-205797.96615201846
 20
-230638.36784980114
 30
0.0
 41
1.0
 10
-205797.95714808226
 20
-230638.3341609246
 30
0.0
 41
1.0
 10
-205797.94814414604
 20
-230638.30047204805
 30
0.0
 41
1.0
 10
-205797.8791795971
 20
-230638.04243621547
 30
0.0
 41
0.9999233658071415
 10
-205797.81662462579
 20
-230637.78277205641
 30
0.0
 41
1.0
 10
-205797.75406965456
 20
-230637.52310789766
 30
0.0
 41
1.0
 10
-205797.7145862357
 20
-230637.35930123326
 30
0.0
 41
1.0
 10
-205797.70960763225
 20
-230637.33864627357
 30
0.0
 41
1.0
 10
-205797.7046290288
 20
-230637.31799131387
 30
0.0
 41
1.0
 10
-205797.67510281739
 20
-230637.195494571
 30
0.0
 41
0.9999868670852345
 10
-205797.64683373287
 20
-230637.07270162317
 30
0.0
 41
1.0
 10
-205797.642936246
 20
-230637.05577203713
 30
0.0
 41
1.0
 10
-205797.63903875917
 20
-230637.03884245106
 30
0.0
 41
1.0
 10
-205797.61856464919
 20
-230636.94990867889
 30
0.0
 41
0.9999778173368208
 10
-205797.59927705076
 20
-230636.86071006028
 30
0.0
 41
1.0
 10
-205797.57998945305
 20
-230636.77151144491
 30
0.0
 41
0.9999602692884365
 10
-205797.56229509474
 20
-230636.6819831584
 30
0.0
 41
1.0
 10
-205797.55909126229
 20
-230636.66577270164
 30
0.0
 41
1.0
 10
-205797.55588742986
 20
-230636.64956224489
 30
0.0
 41
1.0
 10
-205797.53178540713
 20
-230636.5276130469
 30
0.0
 41
0.9995617985330956
 10
-205797.51494205993
 20
-230636.40445129946
 30
0.0
 41
1.0
 10
-205797.51247756992
 20
-230636.38643048151
 30
0.0
 41
1.0
 10
-205797.51001307994
 20
-230636.36840966356
 30
0.0
 41
1.0
 10
-205797.48972981892
 20
-230636.2200946142
 30
0.0
 41
0.9991121410578348
 10
-205797.48200446539
 20
-230636.07059851574
 30
0.0
 41
1.0
 10
-205797.48108567536
 20
-230636.05281867893
 30
0.0
 41
1.0
 10
-205797.48016688533
 20
-230636.03503884212
 30
0.0
 41
1.0
 10
-205797.4742791118
 20
-230635.92110241673
 30
0.0
 41
0.9989792494838975
 10
-205797.47869820392
 20
-230635.80709958103
 30
0.0
 41
1.0
 10
-205797.47934617579
 20
-230635.79038333526
 30
0.0
 41
1.0
 10
-205797.47999414764
 20
-230635.77366708952
 30
0.0
 41
1.0
 10
-205797.48311729604
 20
-230635.69309674529
 30
0.0
 41
0.9997820295429426
 10
-205797.4896012934
 20
-230635.61272702337
 30
0.0
 41
1.0
 10
-205797.4960852908
 20
-230635.5323573018
 30
0.0
 41
0.9998335106033014
 10
-205797.50549748624
 20
-230635.45227768552
 30
0.0
 41
1.0
 10
-205797.50709241093
 20
-230635.43870795486
 30
0.0
 41
1.0
 10
-205797.50868733565
 20
-230635.42513822421
 30
0.0
 41
1.0
 10
-205797.52128938056
 20
-230635.31791914647
 30
0.0
 41
0.9996876457893508
 10
-205797.53923329341
 20
-230635.2114637185
 30
0.0
 41
1.0
 10
-205797.54146495636
 20
-230635.19822398451
 30
0.0
 41
1.0
 10
-205797.54369661928
 20
-230635.18498425052
 30
0.0
 41
1.0
 10
-205797.55749244089
 20
-230635.10313810559
 30
0.0
 41
0.9995547496623235
 10
-205797.57614576293
 20
-230635.02226060745
 30
0.0
 41
1.0
 10
-205797.57651971973
 20
-230635.02063919697
 30
0.0
 41
1.0
 10
-205797.57689367657
 20
-230635.01901778646
 30
0.0
 41
1.0
 10
-205797.59479908476
 20
-230634.94138311048
 30
0.0
 41
0.9994899427252348
 10
-205797.61762399349
 20
-230634.86504982744
 30
0.0
 41
1.0
 10
-205797.61808252
 20
-230634.86351637839
 30
0.0
 41
1.0
 10
-205797.61854104651
 20
-230634.86198292935
 30
0.0
 41
1.0
 10
-205797.64044890195
 20
-230634.78871654536
 30
0.0
 41
0.9993784877787267
 10
-205797.66746453728
 20
-230634.71717583944
 30
0.0
 41
1.0
 10
-205797.66799622838
 20
-230634.7157678564
 30
0.0
 41
1.0
 10
-205797.66852791948
 20
-230634.71435987335
 30
0.0
 41
1.0
 10
-205797.6944801725
 20
-230634.64563513396
 30
0.0
 41
0.9992430832180744
 10
-205797.72569670755
 20
-230634.5791359822
 30
0.0
 41
1.0
 10
-205797.72627882345
 20
-230634.57789592745
 30
0.0
 41
1.0
 10
-205797.72686093932
 20
-230634.57665587269
 30
0.0
 41
1.0
 10
-205797.75691324254
 20
-230634.51263683051
 30
0.0
 41
0.9990789632973584
 10
-205797.79234386949
 20
-230634.45143021841
 30
0.0
 41
1.0
 10
-205797.79293957568
 20
-230634.45040113258
 30
0.0
 41
1.0
 10
-205797.79353528185
 20
-230634.44937204671
 30
0.0
 41
1.0
 10
-205797.82777449625
 20
-230634.39022360666
 30
0.0
 41
0.9988874800962038
 10
-205797.86743377231
 20
-230634.33456389423
 30
0.0
 41
1.0
 10
-205797.86798929848
 20
-230634.33378424236
 30
0.0
 41
1.0
 10
-205797.86854482468
 20
-230634.3330045905
 30
0.0
 41
1.0
 10
-205797.90709304844
 20
-230634.27890418164
 30
0.0
 41
0.9986762060737031
 10
-205797.95099551958
 20
-230634.22905046737
 30
0.0
 41
1.0
 10
-205797.95143948001
 20
-230634.22854632547
 30
0.0
 41
1.0
 10
-205797.9518834404
 20
-230634.22804218356
 30
0.0
 41
1.0
 10
-205797.99489799095
 20
-230634.17919675284
 30
0.0
 41
0.9984621642467723
 10
-205798.04305554763
 20
-230634.13541345246
 30
0.0
 41
1.0
 10
-205798.04330218217
 20
-230634.13518922031
 30
0.0
 41
1.0
 10
-205798.04354881667
 20
-230634.13496498813
 30
0.0
 41
1.0
 10
-205798.09121310443
 20
-230634.09163015199
 30
0.0
 41
0.9982724693882605
 10
-205798.14363173628
 20
-230634.05418580148
 30
0.0
 41
1.0
 10
-205798.19605036822
 20
-230634.01674145088
 30
0.0
 41
0.998139918017652
 10
-205798.25263643169
 20
-230633.98595493138
 30
0.0
 41
1.0
 10
-205798.25268209368
 20
-230633.98593008827
 30
0.0
 41
1.0
 10
-205798.25272775567
 20
-230633.98590524518
 30
0.0
 41
1.0
 10
-205798.30940514343
 20
-230633.95506903931
 30
0.0
 41
0.9980927086708018
 10
-205798.36945049473
 20
-230633.9314522304
 30
0.0
 41
1.0
 10
-205798.36989066424
 20
-230633.93127910461
 30
0.0
 41
1.0
 10
-205798.37033083371
 20
-230633.93110597885
 30
0.0
 41
1.0
 10
-205798.43125652403
 20
-230633.90714291829
 30
0.0
 41
0.9981411356707249
 10
-205798.49464504526
 20
-230633.8907702768
 30
0.0
 41
1.0
 10
-205798.49552716213
 20
-230633.89054243456
 30
0.0
 41
1.0
 10
-205798.496409279
 20
-230633.89031459231
 30
0.0
 41
1.0
 10
-205798.56156203384
 20
-230633.87348626638
 30
0.0
 41
0.9983031812854794
 10
-205798.62822946286
 20
-230633.8643469052
 30
0.0
 41
1.0
 10
-205798.63710048801
 20
-230633.86313078657
 30
0.0
 41
1.0
 10
-205798.64597151318
 20
-230633.86191466794
 30
0.0
 41
1.0
 10
-205798.70032115589
 20
-230633.85446393793
 30
0.0
 41
0.9983887708488146
 10
-205798.75516500539
 20
-230633.85321926425
 30
0.0
 41
1.0
 10
-205798.7632284112
 20
-230633.85303626634
 30
0.0
 41
1.0
 10
-205798.77129181701
 20
-230633.85285326847
 30
0.0
 41
1.0
 10
-205798.8100088553
 20
-230633.85197459062
 30
0.0
 41
0.9998869563081946
 10
-205798.84873480789
 20
-230633.85226045997
 30
0.0
 41
1.0
 10
-205798.88746075815
 20
-230633.85254632932
 30
0.0
 41
0.9999972320104784
 10
-205798.92618493436
 20
-230633.85301442881
 30
0.0
 41
1.0
 10
-205798.94553795393
 20
-230633.85324836895
 30
0.0
 41
1.0
 10
-205798.96489097347
 20
-230633.85348230906
 30
0.0
 41
1.0
 10
-205799.0423211857
 20
-230633.85441828877
 30
0.0
 41
0.999730494514094
 10
-205799.11962449175
 20
-230633.85894738251
 30
0.0
 41
1.0
 10
-205799.12867413362
 20
-230633.8594775885
 30
0.0
 41
1.0
 10
-205799.13772377549
 20
-230633.86000779452
 30
0.0
 41
1.0
 10
-205799.23312636474
 20
-230633.86559730026
 30
0.0
 41
0.999788830644499
 10
-205799.32821870013
 20
-230633.87510226469
 30
0.0
 41
1.0
 10
-205799.33693976211
 20
-230633.87597397936
 30
0.0
 41
1.0
 10
-205799.34566082412
 20
-230633.87684569403
 30
0.0
 41
1.0
 10
-205799.45819528314
 20
-230633.8880940878
 30
0.0
 41
0.9984170238163334
 10
-205799.56875443057
 20
-230633.91191016979
 30
0.0
 41
1.0
 10
-205799.6051355614
 20
-230633.91974720557
 30
0.0
 41
1.0
 10
-205799.64151669224
 20
-230633.92758424132
 30
0.0
 41
1.0
 10
-205799.7567077608
 20
-230633.95239810785
 30
0.0
 41
0.9976592854134384
 10
-205799.86743592727
 20
-230633.99269678502
 30
0.0
 41
1.0
 10
-205799.97816409366
 20
-230634.03299546216
 30
0.0
 41
0.9993255074363077
 10
-205800.08563589241
 20
-230634.08131236062
 30
0.0
 41
1.0
 10
-205800.09026107134
 20
-230634.08339173684
 30
0.0
 41
1.0
 10
-205800.0948862503
 20
-230634.08547111304
 30
0.0
 41
1.0
 10
-205800.21160840694
 20
-230634.13794676392
 30
0.0
 41
0.9976475078251534
 10
-205800.32005575119
 20
-230634.20589475354
 30
0.0
 41
1.0
 10
-205800.33839814545
 20
-230634.21738723243
 30
0.0
 41
1.0
 10
-205800.35674053969
 20
-230634.22887971133
 30
0.0
 41
1.0
 10
-205800.44094273113
 20
-230634.28163683202
 30
0.0
 41
0.9995131336400925
 10
-205800.52169044601
 20
-230634.33954304393
 30
0.0
 41
1.0
 10
-205800.602438161
 20
-230634.39744925592
 30
0.0
 41
0.9995810107571853
 10
-205800.6796998088
 20
-230634.45993093846
 30
0.0
 41
1.0
 10
-205800.68266983994
 20
-230634.46233280987
 30
0.0
 41
1.0
 10
-205800.68563987111
 20
-230634.4647346813
 30
0.0
 41
1.0
 10
-205800.7688415811
 20
-230634.53202010653
 30
0.0
 41
0.9996617837940524
 10
-205800.84843226802
 20
-230634.60354056189
 30
0.0
 41
1.0
 10
-205800.86056301929
 20
-230634.61444129527
 30
0.0
 41
1.0
 10
-205800.87269377059
 20
-230634.62534202862
 30
0.0
 41
1.0
 10
-205800.94096929778
 20
-230634.68669464387
 30
0.0
 41
0.9997267749997607
 10
-205801.00630280585
 20
-230634.75117118022
 30
0.0
 41
1.0
 10
-205801.07163631424
 20
-230634.81564771687
 30
0.0
 41
0.9999667288956839
 10
-205801.13590925749
 20
-230634.88118152387
 30
0.0
 41
1.0
 10
-205801.20473670517
 20
-230634.95135918254
 30
0.0
 41
1.0
 10
-205801.27356415283
 20
-230635.02153684117
 30
0.0
 41
1.0
 10
-205801.47549199144
 20
-230635.22742596548
 30
0.0
 41
0.9988205335173839
 10
-205801.65649760835
 20
-230635.45193019742
 30
0.0
 41
1.0
 10
-205801.68713757332
 20
-230635.48993344797
 30
0.0
 41
1.0
 10
-205801.71777753832
 20
-230635.52793669849
 30
0.0
 41
1.0
 10
-205801.96006308505
 20
-230635.82844743133
 30
0.0
 41
0.9997077826765786
 10
-205802.18754103614
 20
-230636.14031722548
 30
0.0
 41
1.0
 10
-205802.18926445133
 20
-230636.14268000892
 30
0.0
 41
1.0
 10
-205802.19098786649
 20
-230636.14504279237
 30
0.0
 41
1.0
 10
-205802.42191264787
 20
-230636.46163815339
 30
0.0
 41
0.9989147567091097
 10
-205802.6223761508
 20
-230636.79834761465
 30
0.0
 41
1.0
 10
-205802.647117296
 20
-230636.83990419499
 30
0.0
 41
1.0
 10
-205802.67185844117
 20
-230636.88146077533
 30
0.0
 41
1.0
 10
-205802.8270697399
 20
-230637.14216215996
 30
0.0
 41
0.9997476598185008
 10
-205802.97041472749
 20
-230637.40957190871
 30
0.0
 41
1.0
 10
-205803.11375971511
 20
-230637.67698165748
 30
0.0
 41
0.9996258967107388
 10
-205803.24226796714
 20
-230637.95182959436
 30
0.0
 41
1.0
 10
-205803.25546787633
 20
-230637.98006099384
 30
0.0
 41
1.0
 10
-205803.26866778548
 20
-230638.00829239332
 30
0.0
 41
1.0
 10
-205803.40887650664
 20
-230638.3081647917
 30
0.0
 41
0.9998735413955197
 10
-205803.53947785354
 20
-230638.61234439153
 30
0.0
 41
1.0
 10
-205803.54292068168
 20
-230638.62036297718
 30
0.0
 41
1.0
 10
-205803.54636350981
 20
-230638.62838156283
 30
0.0
 41
1.0
 10
-205803.67007920035
 20
-230638.91652399121
 30
0.0
 41
0.9999377418855743
 10
-205803.78733400244
 20
-230639.20735545864
 30
0.0
 41
1.0
 10
-205803.90458880452
 20
-230639.4981869261
 30
0.0
 41
0.9999508299515686
 10
-205804.01605274781
 20
-230639.79128660265
 30
0.0
 41
1.0
 10
-205804.01913351659
 20
-230639.79938762885
 30
0.0
 41
1.0
 10
-205804.02221428533
 20
-230639.80748865509
 30
0.0
 41
1.0
 10
-205804.13983976594
 20
-230640.11679038362
 30
0.0
 41
0.9999609228433621
 10
-205804.25197836873
 20
-230640.42812339938
 30
0.0
 41
1.0
 10
-205804.25493437916
 20
-230640.43633024002
 30
0.0
 41
1.0
 10
-205804.25789038959
 20
-230640.44453708065
 30
0.0
 41
1.0
 10
-205804.37594101366
 20
-230640.77228377885
 30
0.0
 41
0.9999674607404678
 10
-205804.48868854015
 20
-230641.10189240015
 30
0.0
 41
1.0
 10
-205804.54008693004
 20
-230641.25215159386
 30
0.0
 41
1.0
 10
-205804.59148531992
 20
-230641.40241078753
 30
0.0
 41
1.0
 10
-205804.70749592691
 20
-230641.74155877074
 30
0.0
 41
0.9999287532319747
 10
-205804.81537733111
 20
-230642.08337951035
 30
0.0
 41
1.0
 10
-205804.86185458425
 20
-230642.23064204515
 30
0.0
 41
1.0
 10
-205804.90833183736
 20
-230642.37790457995
 30
0.0
 41
1.0
 10
-205804.92325873204
 20
-230642.42520023973
 30
0.0
 41
0.9999998224482227
 10
-205804.93812924379
 20
-230642.47251365756
 30
0.0
 41
1.0
 10
-205806.55878538059
 20
-230647.62054215936
 30
0.0
 41
1.0
 10
-205808.17944151739
 20
-230652.76857066114
 30
0.0
 41
1.0
 10
-205809.08474996127
 20
-230652.76857066114
 30
0.0
 41
1.0
 10
-205809.99005840515
 20
-230652.76857066114
 30
0.0
 41
1.0
 10
-205808.13797399378
 20
-230646.88149873866
 30
0.0
 41
1.0
 10
-205806.28588958239
 20
-230640.99442681621
 30
0.0
 41
1.0
 10
-205806.27576782409
 20
-230640.96238360275
 30
0.0
 41
1.0
 10
-205806.20316015524
 20
-230640.73208406093
 30
0.0
 41
1.0
 10
-205806.13055248643
 20
-230640.50178451918
 30
0.0
 41
0.9999825681970702
 10
-205806.06066944724
 20
-230640.27064362419
 30
0.0
 41
1.0
 10
-205806.01237838506
 20
-230640.11091904072
 30
0.0
 41
1.0
 10
-205805.96408732291
 20
-230639.95119445724
 30
0.0
 41
1.0
 10
-205805.86693496956
 20
-230639.62985923537
 30
0.0
 41
0.9999672528958938
 10
-205805.77499616391
 20
-230639.30699368968
 30
0.0
 41
1.0
 10
-205805.77220728085
 20
-230639.29719984645
 30
0.0
 41
1.0
 10
-205805.7694183978
 20
-230639.28740600322
 30
0.0
 41
1.0
 10
-205805.6830573589
 20
-230638.98412814626
 30
0.0
 41
0.9999899749150027
 10
-205805.59941574876
 20
-230638.68008905565
 30
0.0
 41
1.0
 10
-205805.58930982969
 20
-230638.64335381778
 30
0.0
 41
1.0
 10
-205805.57920391063
 20
-230638.60661857991
 30
0.0
 41
1.0
 10
-205805.51577413917
 20
-230638.37604996702
 30
0.0
 41
0.9999214200499146
 10
-205805.45814471086
 20
-230638.14396362499
 30
0.0
 41
1.0
 10
-205805.44537885865
 20
-230638.09255273949
 30
0.0
 41
1.0
 10
-205805.43261300644
 20
-230638.04114185396
 30
0.0
 41
1.0
 10
-205805.40051528244
 20
-230637.91187728266
 30
0.0
 41
0.9999828681679666
 10
-205805.36993303045
 20
-230637.78224580831
 30
0.0
 41
1.0
 10
-205805.33935077835
 20
-230637.65261433335
 30
0.0
 41
0.9999389844467638
 10
-205805.31163978946
 20
-230637.52233887688
 30
0.0
 41
1.0
 10
-205805.30450204585
 20
-230637.48878277355
 30
0.0
 41
1.0
 10
-205805.29736430224
 20
-230637.45522667025
 30
0.0
 41
1.0
 10
-205805.25537782599
 20
-230637.2578390066
 30
0.0
 41
0.9998933699444003
 10
-205805.21917356158
 20
-230637.05930939876
 30
0.0
 41
1.0
 10
-205805.21780073637
 20
-230637.05178137816
 30
0.0
 41
1.0
 10
-205805.21642791119
 20
-230637.04425335754
 30
0.0
 41
1.0
 10
-205805.17747799648
 20
-230636.83066770909
 30
0.0
 41
0.9996850305200522
 10
-205805.14929432032
 20
-230636.61539670441
 30
0.0
 41
1.0
 10
-205805.14729928685
 20
-230636.60015834958
 30
0.0
 41
1.0
 10
-205805.14530425338
 20
-230636.58491999476
 30
0.0
 41
1.0
 10
-205805.1178963909
 20
-230636.37557476762
 30
0.0
 41
0.9994697936697471
 10
-205805.10417183168
 20
-230636.16488957225
 30
0.0
 41
1.0
 10
-205805.10369476242
 20
-230636.15756609989
 30
0.0
 41
1.0
 10
-205805.10321769316
 20
-230636.15024262757
 30
0.0
 41
1.0
 10
-205805.09044727247
 20
-230635.95420437679
 30
0.0
 41
0.9991804893152317
 10
-205805.09357558872
 20
-230635.75777552693
 30
0.0
 41
1.0
 10
-205805.09365946753
 20
-230635.75250872568
 30
0.0
 41
1.0
 10
-205805.09374334637
 20
-230635.74724192446
 30
0.0
 41
1.0
 10
-205805.096703905
 20
-230635.5613466771
 30
0.0
 41
0.9988448329334954
 10
-205805.11749545063
 20
-230635.37659408711
 30
0.0
 41
1.0
 10
-205805.11908952432
 20
-230635.36242923129
 30
0.0
 41
1.0
 10
-205805.12068359804
 20
-230635.34826437544
 30
0.0
 41
1.0
 10
-205805.13828699625
 20
-230635.1918414972
 30
0.0
 41
0.9985503209468928
 10
-205805.17260326855
 20
-230635.03821731318
 30
0.0
 41
1.0
 10
-205805.18018926066
 20
-230635.00425698562
 30
0.0
 41
1.0
 10
-205805.18777525277
 20
-230634.97029665805
 30
0.0
 41
1.0
 10
-205805.20691954091
 20
-230634.8845931289
 30
0.0
 41
0.9991036781350059
 10
-205805.23324440251
 20
-230634.80081604177
 30
0.0
 41
1.0
 10
-205805.23722662803
 20
-230634.78814287906
 30
0.0
 41
1.0
 10
-205805.24120885355
 20
-230634.77546971635
 30
0.0
 41
1.0
 10
-205805.25956926422
 20
-230634.71703895429
 30
0.0
 41
0.9998874504390356
 10
-205805.27967447182
 20
-230634.65918535224
 30
0.0
 41
1.0
 10
-205805.2997796796
 20
-230634.60133174979
 30
0.0
 41
0.9994041637478492
 10
-205805.32382829263
 20
-230634.54500304573
 30
0.0
 41
1.0
 10
-205805.32802507665
 20
-230634.53517298173
 30
0.0
 41
1.0
 10
-205805.33222186068
 20
-230634.52534291771
 30
0.0
 41
1.0
 10
-205805.36010069176
 20
-230634.46004275148
 30
0.0
 41
0.9991846840748299
 10
-205805.39315704856
 20
-230634.39720471989
 30
0.0
 41
1.0
 10
-205805.39429365512
 20
-230634.39504410315
 30
0.0
 41
1.0
 10
-205805.39543026168
 20
-230634.39288348638
 30
0.0
 41
1.0
 10
-205805.42621340542
 20
-230634.33436668833
 30
0.0
 41
0.9989253167812071
 10
-205805.46228282934
 20
-230634.27895176024
 30
0.0
 41
1.0
 10
-205805.46333695398
 20
-230634.27733226551
 30
0.0
 41
1.0
 10
-205805.46439107863
 20
-230634.27571277079
 30
0.0
 41
1.0
 10
-205805.49835225334
 20
-230634.22353683188
 30
0.0
 41
0.9986467172921694
 10
-205805.537549406
 20
-230634.1751707982
 30
0.0
 41
1.0
 10
-205805.53842353463
 20
-230634.17409219602
 30
0.0
 41
1.0
 10
-205805.53929766326
 20
-230634.17301359383
 30
0.0
 41
1.0
 10
-205805.57674655857
 20
-230634.1268047647
 30
0.0
 41
0.998400110446118
 10
-205805.61917328916
 20
-230634.08511965722
 30
0.0
 41
1.0
 10
-205805.6197604271
 20
-230634.08454278251
 30
0.0
 41
1.0
 10
-205805.62034756501
 20
-230634.08396590783
 30
0.0
 41
1.0
 10
-205805.66160001949
 20
-230634.04343455003
 30
0.0
 41
0.9982442159174152
 10
-205805.70735612104
 20
-230634.0080659886
 30
0.0
 41
1.0
 10
-205805.70757091616
 20
-230634.00789995625
 30
0.0
 41
1.0
 10
-205805.70778571125
 20
-230634.00773392388
 30
0.0
 41
1.0
 10
-205805.75311222201
 20
-230633.97269742761
 30
0.0
 41
0.9982450060811157
 10
-205805.80226320145
 20
-230633.94326564431
 30
0.0
 41
1.0
 10
-205805.85141418024
 20
-230633.91383386141
 30
0.0
 41
0.9983922639666083
 10
-205805.90358048616
 20
-230633.89015422686
 30
0.0
 41
1.0
 10
-205805.90380736376
 20
-230633.89005124127
 30
0.0
 41
1.0
 10
-205805.90403424134
 20
-230633.88994825564
 30
0.0
 41
1.0
 10
-205805.95665430208
 20
-230633.86606265005
 30
0.0
 41
0.9986517147136309
 10
-205806.01146727492
 20
-230633.84776153092
 30
0.0
 41
1.0
 10
-205806.01214519638
 20
-230633.84753518447
 30
0.0
 41
1.0
 10
-205806.01282311784
 20
-230633.84730883804
 30
0.0
 41
1.0
 10
-205806.06899193372
 20
-230633.828555026
 30
0.0
 41
0.9989435598916904
 10
-205806.12664532108
 20
-230633.81503732374
 30
0.0
 41
1.0
 10
-205806.12772544048
 20
-230633.81478407353
 30
0.0
 41
1.0
 10
-205806.12880555989
 20
-230633.81453082332
 30
0.0
 41
1.0
 10
-205806.18861918626
 20
-230633.80050662058
 30
0.0
 41
0.9992249241204919
 10
-205806.24935069514
 20
-230633.79123127786
 30
0.0
 41
1.0
 10
-205806.25076438341
 20
-230633.79101536947
 30
0.0
 41
1.0
 10
-205806.25217807168
 20
-230633.79079946104
 30
0.0
 41
1.0
 10
-205806.31573695727
 20
-230633.78109230148
 30
0.0
 41
0.999439659787023
 10
-205806.37980289393
 20
-230633.77565937911
 30
0.0
 41
1.0
 10
-205806.3989435613
 20
-230633.77403621143
 30
0.0
 41
1.0
 10
-205806.41808422864
 20
-230633.77241304371
 30
0.0
 41
1.0
 10
-205806.52043150016
 20
-230633.76373378595
 30
0.0
 41
0.9987693403166246
 10
-205806.62313512384
 20
-230633.7652368494
 30
0.0
 41
1.0
 10
-205806.633389458
 20
-230633.76538692118
 30
0.0
 41
1.0
 10
-205806.64364379219
 20
-230633.76553699296
 30
0.0
 41
1.0
 10
-205806.75319955838
 20
-230633.76714033724
 30
0.0
 41
0.9989753644917918
 10
-205806.86216155841
 20
-230633.77864334418
 30
0.0
 41
1.0
 10
-205806.97112355864
 20
-230633.79014635112
 30
0.0
 41
0.9983190067200904
 10
-205807.07802236982
 20
-230633.81418134298
 30
0.0
 41
1.0
 10
-205807.08692332121
 20
-230633.81618262149
 30
0.0
 41
1.0
 10
-205807.0958242726
 20
-230633.8181839
 30
0.0
 41
1.0
 10
-205807.22052498689
 20
-230633.84622144894
 30
0.0
 41
0.9985539388226483
 10
-205807.34149474071
 20
-230633.88748512507
 30
0.0
 41
1.0
 10
-205807.34384017152
 20
-230633.88828516885
 30
0.0
 41
1.0
 10
-205807.34618560236
 20
-230633.88908521261
 30
0.0
 41
1.0
 10
-205807.47184621822
 20
-230633.93194897636
 30
0.0
 41
0.998846874640834
 10
-205807.5928165607
 20
-230633.98666706154
 30
0.0
 41
1.0
 10
-205807.59599938247
 20
-230633.98810673598
 30
0.0
 41
1.0
 10
-205807.59918220423
 20
-230633.98954641045
 30
0.0
 41
1.0
 10
-205807.72651819067
 20
-230634.04714384468
 30
0.0
 41
0.9991322885904306
 10
-205807.84861877482
 20
-230634.11513917692
 30
0.0
 41
1.0
 10
-205807.86622078586
 20
-230634.12494137889
 30
0.0
 41
1.0
 10
-205807.8838227969
 20
-230634.13474358089
 30
0.0
 41
1.0
 10
-205807.98599947782
 20
-230634.19164369663
 30
0.0
 41
0.9993860037844878
 10
-205808.08394048177
 20
-230634.25555971218
 30
0.0
 41
1.0
 10
-205808.08955879469
 20
-230634.25922620692
 30
0.0
 41
1.0
 10
-205808.09517710758
 20
-230634.26289270163
 30
0.0
 41
1.0
 10
-205808.18188148594
 20
-230634.31947572783
 30
0.0
 41
0.9998821494954214
 10
-205808.26680786168
 20
-230634.37869395784
 30
0.0
 41
1.0
 10
-205808.35173423731
 20
-230634.4379121878
 30
0.0
 41
0.9997976482776287
 10
-205808.43420986758
 20
-230634.50049859571
 30
0.0
 41
1.0
 10
-205808.44884613255
 20
-230634.5116052856
 30
0.0
 41
1.0
 10
-205808.46348239749
 20
-230634.5227119755
 30
0.0
 41
1.0
 10
-205808.57523055747
 20
-230634.60751176308
 30
0.0
 41
0.9998091630807424
 10
-205808.68358083547
 20
-230634.69661211377
 30
0.0
 41
1.0
 10
-205808.69658658799
 20
-230634.70730721424
 30
0.0
 41
1.0
 10
-205808.70959234048
 20
-230634.71800231471
 30
0.0
 41
1.0
 10
-205808.84395412335
 20
-230634.82849286619
 30
0.0
 41
0.99950351123333
 10
-205808.97109000105
 20
-230634.94722668314
 30
0.0
 41
1.0
 10
-205808.98073731142
 20
-230634.95623642928
 30
0.0
 41
1.0
 10
-205808.99038462178
 20
-230634.96524617539
 30
0.0
 41
1.0
 10
-205809.11380768465
 20
-230635.08051254725
 30
0.0
 41
0.9994630424322044
 10
-205809.22941609056
 20
-230635.20361529061
 30
0.0
 41
1.0
 10
-205809.23309892934
 20
-230635.20753687015
 30
0.0
 41
1.0
 10
-205809.23678176815
 20
-230635.21145844969
 30
0.0
 41
1.0
 10
-205809.34502449638
 20
-230635.32671803387
 30
0.0
 41
0.9995160693743038
 10
-205809.44589052588
 20
-230635.44848545172
 30
0.0
 41
1.0
 10
-205809.4478242461
 20
-230635.4508198761
 30
0.0
 41
1.0
 10
-205809.44975796633
 20
-230635.45315430049
 30
0.0
 41
1.0
 10
-205809.54675655559
 20
-230635.5702528698
 30
0.0
 41
0.9996561470510978
 10
-205809.63748277409
 20
-230635.69227563206
 30
0.0
 41
1.0
 10
-205809.64364044019
 20
-230635.70055742137
 30
0.0
 41
1.0
 10
-205809.64979810631
 20
-230635.70883921071
 30
0.0
 41
1.0
 10
-205809.72820899298
 20
-230635.81429839481
 30
0.0
 41
0.9998349055151219
 10
-205809.80273627467
 20
-230635.92253697815
 30
0.0
 41
1.0
 10
-205809.87726355714
 20
-230636.03077556254
 30
0.0
 41
0.999972810955082
 10
-205809.95018645353
 20
-230636.14010148891
 30
0.0
 41
1.0
 10
-205809.95150166843
 20
-230636.14207325765
 30
0.0
 41
1.0
 10
-205809.95281688333
 20
-230636.14404502639
 30
0.0
 41
1.0
 10
-205810.02837020811
 20
-230636.25731448797
 30
0.0
 41
0.9999972147411297
 10
-205810.10338801649
 20
-230636.37093932775
 30
0.0
 41
1.0
 10
-205810.1083595611
 20
-230636.37846941923
 30
0.0
 41
1.0
 10
-205810.11333110571
 20
-230636.38599951071
 30
0.0
 41
1.0
 10
-205810.19829200074
 20
-230636.51468452963
 30
0.0
 41
0.9999371979008724
 10
-205810.28034734962
 20
-230636.64524144254
 30
0.0
 41
1.0
 10
-205810.28385623451
 20
-230636.65082437149
 30
0.0
 41
1.0
 10
-205810.28736511944
 20
-230636.65640730041
 30
0.0
 41
1.0
 10
-205810.37643823758
 20
-230636.79813007032
 30
0.0
 41
0.9998272025595955
 10
-205810.46018162841
 20
-230636.94306594701
 30
0.0
 41
1.0
 10
-205810.47539680047
 20
-230636.96939906152
 30
0.0
 41
1.0
 10
-205810.49061197252
 20
-230636.995732176
 30
0.0
 41
1.0
 10
-205810.60478570749
 20
-230637.19333428174
 30
0.0
 41
0.9995217214851627
 10
-205810.70652539708
 20
-230637.39761660967
 30
0.0
 41
1.0
 10
-205810.71416895959
 20
-230637.4129640591
 30
0.0
 41
1.0
 10
-205810.72181252207
 20
-230637.42831150856
 30
0.0
 41
1.0
 10
-205810.80871781477
 20
-230637.60280796679
 30
0.0
 41
0.9998269762602368
 10
-205810.88907228113
 20
-230637.78041625372
 30
0.0
 41
1.0
 10
-205810.96942674756
 20
-230637.95802454077
 30
0.0
 41
0.9998944747384104
 10
-205811.04458754224
 20
-230638.13789226679
 30
0.0
 41
1.0
 10
-205811.04954121145
 20
-230638.14974692074
 30
0.0
 41
1.0
 10
-205811.05449488063
 20
-230638.16160157471
 30
0.0
 41
1.0
 10
-205811.13514194146
 20
-230638.35459851532
 30
0.0
 41
0.999950673441096
 10
-205811.21193947061
 20
-230638.54915932077
 30
0.0
 41
1.0
 10
-205811.22653943673
 20
-230638.58614724473
 30
0.0
 41
1.0
 10
-205811.24113940285
 20
-230638.62313516869
 30
0.0
 41
1.0
 10
-205811.28873700034
 20
-230638.74372012782
 30
0.0
 41
0.9999912393955978
 10
-205811.33532344352
 20
-230638.86469932832
 30
0.0
 41
1.0
 10
-205811.3819098869
 20
-230638.9856785294
 30
0.0
 41
0.9999927113981504
 10
-205811.42757118068
 20
-230639.10700993519
 30
0.0
 41
1.0
 10
-205811.44153961272
 20
-230639.14412691887
 30
0.0
 41
1.0
 10
-205811.45550804475
 20
-230639.18124390254
 30
0.0
 41
1.0
 10
-205811.52910620175
 20
-230639.37680927353
 30
0.0
 41
0.9999487550956997
 10
-205811.59872982654
 20
-230639.57382463815
 30
0.0
 41
1.0
 10
-205811.62232343675
 20
-230639.64058794922
 30
0.0
 41
1.0
 10
-205811.64591704696
 20
-230639.70735126029
 30
0.0
 41
1.0
 10
-205811.74060268124
 20
-230639.97528509481
 30
0.0
 41
0.9999808436956927
 10
-205811.8319642698
 20
-230640.24437052588
 30
0.0
 41
1.0
 10
-205811.92332585767
 20
-230640.51345595488
 30
0.0
 41
0.9999873932929577
 10
-205812.01198056567
 20
-230640.78344530766
 30
0.0
 41
1.0
 10
-205812.03207292326
 20
-230640.84463464265
 30
0.0
 41
1.0
 10
-205812.05216528088
 20
-230640.90582397766
 30
0.0
 41
1.0
 10
-205812.18100470412
 20
-230641.2981920006
 30
0.0
 41
0.9999794883023674
 10
-205812.30480748983
 20
-230641.69217820931
 30
0.0
 41
1.0
 10
-205812.31595974852
 20
-230641.72766881716
 30
0.0
 41
1.0
 10
-205812.32711200719
 20
-230641.76315942497
 30
0.0
 41
1.0
 10
-205812.46967017106
 20
-230642.21683217702
 30
0.0
 41
0.9999982761757976
 10
-205812.61054261107
 20
-230642.67103119913
 30
0.0
 41
1.0
 10
-205814.19868294365
 20
-230647.71980093012
 30
0.0
 41
1.0
 10
-205815.78682327623
 20
-230652.76857066114
 30
0.0
 41
1.0
 10
-205816.73557388771
 20
-230652.76857066114
 30
0.0
 41
1.0
 10
-205817.68432449919
 20
-230652.76857066114
 30
0.0
 41
1.0
 10
-205814.44604001305
 20
-230642.4412484612
 30
0.0
 41
1.0
 10
-205811.20775552688
 20
-230632.11392626126
 30
0.0
 41
1.0
  0
LWPOLYLINE
  5
59
100
AcDbEntity
  8
0
370
              15
390
0
  6
Continuous
 62
               7
100
AcDbPolyline
 90
      232
 70
             128
 10
-205836.91130130069
 20
-230633.19826909277
 42
0.0004370801054081
 10
-205836.96417847733
 20
-230633.26693573536
 10
-205837.00346270588
 20
-230633.31804284494
 42
0.0030481992460299
 10
-205837.13380142307
 20
-230633.48976453734
 10
-205837.17231309478
 20
-230633.54115132106
 42
0.0042058245378358
 10
-205837.37629814469
 20
-230633.81815706508
 10
-205837.42870326794
 20
-230633.89058991289
 42
0.0120948898627988
 10
-205837.72474718408
 20
-230634.32133951652
 10
-205837.82093968362
 20
-230634.46882025237
 42
0.0141601263687608
 10
-205838.12458373074
 20
-230634.96448958942
 10
-205838.16412099841
 20
-230635.03333355725
 42
0.0071131081384967
 10
-205838.36939332139
 20
-230635.40283635567
 42
0.0068458790975974
 10
-205838.56427284813
 20
-230635.77792791891
 10
-205838.57108471071
 20
-230635.79148963289
 42
0.0064120880321574
 10
-205838.76922696034
 20
-230636.19891410696
 10
-205838.77676164627
 20
-230636.21492596454
 42
0.0058857236264709
 10
-205838.97951703778
 20
-230636.65930207472
 10
-205838.98769196443
 20
-230636.67779222919
 42
0.0053189741756606
 10
-205839.19639627659
 20
-230637.16375570188
 10
-205839.20514408278
 20
-230637.18473758129
 42
0.0047503650073383
 10
-205839.42111780908
 20
-230637.7169370148
 10
-205839.4303860573
 20
-230637.74041339062
 42
0.004207176238461
 10
-205839.65493344178
 20
-230638.32350698675
 10
-205839.66468284337
 20
-230638.34947315959
 42
0.003668008637037
 10
-205839.89913748717
 20
-230638.98810854551
 10
-205839.90934526653
 20
-230639.01655707846
 42
0.0032573142664257
 10
-205840.15497755367
 20
-230639.71540974159
 10
-205840.22362807413
 20
-230639.91487282451
 42
0.0026133366609522
 10
-205840.57207327208
 20
-230640.94473610591
 10
-205840.63533006012
 20
-230641.13496694289
 42
0.0020592950582271
 10
-205840.84919312855
 20
-230641.78707059391
 10
-205840.85224491931
 20
-230641.79650708105
 42
0.0025609928388914
 10
-205841.05406542122
 20
-230642.43165230472
 10
-205841.05665678892
 20
-230642.43995464745
 42
0.0031362356167569
 10
-205841.24614757401
 20
-230643.06071750182
 10
-205841.24827861623
 20
-230643.06785880565
 42
0.0037229918035211
 10
-205841.42507900385
 20
-230643.67684411001
 10
-205841.42675759282
 20
-230643.68279099933
 42
0.0043077623477019
 10
-205841.59049839515
 20
-230644.28260973195
 42
0.0047654161629123
 10
-205841.743327117
 20
-230644.88529581821
 10
-205841.77779172649
 20
-230645.02685759799
 42
0.0112969368480133
 10
-205841.97365608468
 20
-230645.91854975891
 10
-205842.00166247372
 20
-230646.06137780473
 42
0.0130056762755488
 10
-205842.20249971736
 20
-230647.24831887637
 10
-205842.22303946747
 20
-230647.39239698963
 42
0.0138721532025145
 10
-205842.32674247207
 20
-230648.29922647568
 10
-205842.34603796006
 20
-230648.52272419861
 42
0.0071254696945603
 10
-205842.37938460591
 20
-230648.98591120646
 10
-205842.38434558024
 20
-230649.07191520423
 42
0.0028881800083004
 10
-205842.39948387333
 20
-230649.36365691083
 42
0.0060297297432183
 10
-205842.40941607309
 20
-230649.65560584652
 10
-205842.41047835478
 20
-230649.70399821913
 42
0.0229523164321514
 10
-205842.402747327
 20
-230650.02675306518
 10
-205842.39852155349
 20
-230650.08715659895
 42
0.0123673300437777
 10
-205842.37944290697
 20
-230650.28827732435
 42
0.0128577675256368
 10
-205842.35024751641
 20
-230650.48817517518
 10
-205842.34312164318
 20
-230650.52950398889
 42
0.0285717853580132
 10
-205842.2786276415
 20
-230650.80762014014
 10
-205842.26495911783
 20
-230650.85427490965
 42
0.0316283098845474
 10
-205842.14914853789
 20
-230651.17328941153
 10
-205842.14609984632
 20
-230651.18027578344
 42
0.033898482377072
 10
-205841.99666813517
 20
-230651.46784174803
 10
-205841.99435940592
 20
-230651.47163277713
 42
0.0350228717865031
 10
-205841.8119991151
 20
-230651.72868476197
 10
-205841.81111386296
 20
-230651.72976384018
 42
0.0347476748146122
 10
-205841.59668917611
 20
-230651.95694888697
 42
0.0331337701931364
 10
-205841.35344585043
 20
-230652.15307754898
 10
-205841.35234575183
 20
-230652.15385025222
 42
0.0305233319278104
 10
-205841.08380105643
 20
-230652.3189784222
 10
-205841.08057101176
 20
-230652.32070243417
 42
0.0273744481120838
 10
-205840.78801730039
 20
-230652.45684057797
 10
-205840.78291276505
 20
-230652.45888416254
 42
0.0240964405790565
 10
-205840.46743568988
 20
-230652.56786788866
 10
-205840.46085236021
 20
-230652.56979262846
 42
0.0209636180374849
 10
-205840.12345220719
 20
-230652.65326077648
 10
-205840.11581974709
 20
-230652.6548126894
 42
0.0181388705328011
 10
-205839.75749735467
 20
-230652.71422878269
 10
-205839.74921650672
 20
-230652.71529496645
 42
0.0156086547724926
 10
-205839.37102914209
 20
-230652.75203115304
 10
-205839.32783389048
 20
-230652.75486965547
 42
0.0137148329013359
 10
-205839.00016074491
 20
-230652.76738991076
 10
-205838.95422455444
 20
-230652.76788434389
 42
0.0051057823950505
 10
-205838.71807896841
 20
-230652.76801459829
 42
0.0052256693133508
 10
-205838.48198168457
 20
-230652.76326577383
 10
-205838.41175490088
 20
-230652.7611188078
 42
0.0161507178644511
 10
-205838.03601782329
 20
-230652.73746843752
 10
-205838.01600486238
 20
-230652.73555824219
 42
0.0101216738148989
 10
-205837.60197764044
 20
-230652.68756531176
 10
-205837.56792435149
 20
-230652.68291761502
 42
0.0245291776564874
 10
-205837.09113469615
 20
-230652.59384253697
 10
-205837.00631138057
 20
-230652.57364661663
 42
0.0143509212714547
 10
-205836.64968027646
 20
-230652.47784198279
 42
0.0156557856917213
 10
-205836.29946421203
 20
-230652.36083076711
 10
-205836.29196299723
 20
-230652.35806060524
 42
0.0170137333962509
 10
-205835.93536700137
 20
-230652.21240299029
 10
-205835.92826307914
 20
-230652.20921515481
 42
0.0183105364529197
 10
-205835.56891341123
 20
-230652.03188011309
 10
-205835.56196664635
 20
-230652.0281296781
 42
0.0194899957809494
 10
-205835.20348590551
 20
-230651.81615069631
 10
-205835.19647202603
 20
-230651.81162535393
 42
0.0204869853169401
 10
-205834.8424577236
 20
-230651.56210533858
 10
-205834.83519211534
 20
-230651.55652527348
 42
0.0212516938719536
 10
-205834.48920218422
 20
-230651.26662127656
 10
-205834.44268549015
 20
-230651.22415396647
 42
0.0215248918838784
 10
-205834.18265932129
 20
-230650.96538968751
 10
-205834.13762958697
 20
-230650.91654556626
 42
0.0114578554574719
 10
-205833.98283743323
 20
-230650.74072263271
 10
-205833.9716428977
 20
-230650.72740386974
 42
0.006153130496705
 10
-205833.84516825122
 20
-230650.57311433586
 42
0.0006325587424267
 10
-205833.72078976428
 20
-230650.41711095665
 10
-205833.69774963203
 20
-230650.3881374395
 42
0.004189776084713
 10
-205833.52929422949
 20
-230650.17261806532
 10
-205833.47083210817
 20
-230650.09651671647
 42
0.0092993879889677
 10
-205833.19422018118
 20
-230649.7222379529
 10
-205833.11182568737
 20
-230649.60630094848
 42
0.0159321727508576
 10
-205832.76521920512
 20
-230649.08412672824
 10
-205832.72086306982
 20
-230649.01244716416
 42
0.0085547316942122
 10
-205832.4863513044
 20
-230648.61857221479
 42
0.0084601156962231
 10
-205832.26537512644
 20
-230648.21694536478
 10
-205832.25725965312
 20
-230648.20158568348
 42
0.0081429654610329
 10
-205832.0340103824
 20
-230647.76186417032
 10
-205832.02515021851
 20
-230647.74368532893
 42
0.007657458132681
 10
-205831.79874270785
 20
-230647.26050245354
 10
-205831.78926306718
 20
-230647.23943797537
 42
0.007068272423207
 10
-205831.55881815933
 20
-230646.70740067042
 10
-205831.54882787541
 20
-230646.68341148156
 42
0.0064559514658929
 10
-205831.31349466657
 20
-230646.09709921337
 10
-205831.30308530905
 20
-230646.07016428962
 42
0.0058311413630287
 10
-205831.06203857268
 20
-230645.42413219626
 10
-205831.05128349492
 20
-230645.39424785407
 42
0.0052312425762492
 10
-205830.80370221645
 20
-230644.68304543899
 10
-205830.79265838049
 20
-230644.65021872817
 42
0.0046680544795831
 10
-205830.53772995324
 20
-230643.86839241392
 10
-205830.49573780346
 20
-230643.73540917746
 42
0.0041666856348678
 10
-205830.2924517903
 20
-230643.07244040008
 10
-205830.25478935236
 20
-230642.94585930154
 42
0.0015170974610655
 10
-205830.13360277124
 20
-230642.53399094095
 42
-0.0004887992881235
 10
-205830.01326299901
 20
-230642.12187253195
 10
-205829.9367857406
 20
-230641.86091514298
 42
0.0002583378659522
 10
-205829.66357118162
 20
-230640.9268584777
 10
-205829.58179831915
 20
-230640.64675917392
 42
0.0006636169569472
 10
-205829.38793056097
 20
-230639.97940625664
 10
-205829.3828339077
 20
-230639.9617746775
 42
0.0010589131271822
 10
-205829.2013852057
 20
-230639.32904333068
 10
-205829.19640313557
 20
-230639.31153042495
 42
0.0015655524383165
 10
-205829.02813292804
 20
-230638.7129137445
 10
-205829.02330272784
 20
-230638.69552158634
 42
0.0021640440393468
 10
-205828.86901275563
 20
-230638.13049456751
 10
-205828.86437853743
 20
-230638.11322984204
 42
0.0028763871504079
 10
-205828.72486281817
 20
-230637.58126188669
 10
-205828.72047695477
 20
-230637.56413791148
 42
0.0037310511766572
 10
-205828.59652026216
 20
-230637.0646903145
 10
-205828.59244504187
 20
-230637.04773004318
 42
0.0047652197914471
 10
-205828.48482114135
 20
-230636.58025227493
 10
-205828.48113054188
 20
-230636.56349271911
 42
0.0060276699185023
 10
-205828.39060044289
 20
-230636.12741692466
 10
-205828.38738175307
 20
-230636.11091571281
 42
0.0075824337366214
 10
-205828.31469244318
 20
-230635.70564854593
 10
-205828.31204706564
 20
-230635.68949359746
 42
0.0095130625079066
 10
-205828.25793183019
 20
-230635.31440424541
 10
-205828.2509456063
 20
-230635.25847068717
 42
0.0121054653508029
 10
-205828.22435427571
 20
-230634.99357485882
 10
-205828.22348778593
 20
-230634.98217141582
 42
0.0069050827753447
 10
-205828.20839896792
 20
-230634.73923018901
 10
-205828.20726366824
 20
-230634.71570393199
 42
0.0169063976492836
 10
-205828.20443638926
 20
-230634.51951120468
 10
-205828.2056070407
 20
-230634.45917544799
 42
0.0052007728909575
 10
-205828.20786048938
 20
-230634.38358205318
 42
0.0054038123341942
 10
-205828.22782400131
 20
-230634.26356375671
 10
-205828.23290985709
 20
-230634.2349052706
 42
0.0112050460949025
 10
-205828.26829421928
 20
-230634.0585788317
 10
-205828.2861191812
 20
-230633.97903724553
 42
0.0240764467687633
 10
-205828.37701654734
 20
-230633.64880021001
 10
-205828.39557531028
 20
-230633.59218004462
 42
0.0256812331836665
 10
-205828.53893823034
 20
-230633.22045583877
 10
-205828.54434765645
 20
-230633.20832450312
 42
0.026836050193813
 10
-205828.71377489701
 20
-230632.87733136976
 10
-205828.71931130436
 20
-230632.86781169995
 42
0.027467023112686
 10
-205828.91151228105
 20
-230632.57552432455
 10
-205828.91689358102
 20
-230632.56824517698
 42
0.027503596678817
 10
-205829.12846646056
 20
-230632.3127292867
 10
-205829.13353596115
 20
-230632.30725019949
 42
0.0269557673095875
 10
-205829.36093950499
 20
-230632.08660791311
 10
-205829.36568256319
 20
-230632.08247795829
 42
0.025912480293074
 10
-205829.60523739422
 20
-230631.89478743149
 10
-205829.60976823996
 20
-230631.89160192877
 42
0.0245162153875531
 10
-205829.85768459248
 20
-230631.73486892006
 10
-205829.86221113941
 20
-230631.73230872251
 42
0.0229282589738686
 10
-205830.11463069564
 20
-230631.60444053035
 10
-205830.11941118949
 20
-230631.60228823058
 42
0.0212984136306804
 10
-205830.37244914193
 20
-230631.50108931336
 10
-205830.37775342696
 20
-230631.49922575057
 42
0.0197555461983171
 10
-205830.62753176462
 20
-230631.42241033263
 42
0.0183511896523112
 10
-205830.88246048967
 20
-230631.36482742574
 10
-205830.96882568719
 20
-230631.3486246352
 42
0.0338057877730238
 10
-205831.25433303608
 20
-230631.31481623015
 10
-205831.34533844161
 20
-230631.31023657485
 42
0.0091990524298802
 10
-205831.45118554973
 20
-230631.30686071893
 42
0.0028333978805904
 10
-205831.55709946156
 20
-230631.30603261144
 10
-205831.55801491879
 20
-230631.3060306416
 42
-0.0023619828054371
 10
-205831.66576092815
 20
-230631.3052898006
 10
-205831.70216610408
 20
-230631.30486749407
 42
0.0008824597744275
 10
-205831.88272208284
 20
-230631.30309171593
 10
-205831.92658352634
 20
-230631.3027377543
 42
0.0038132666756504
 10
-205832.19486642437
 20
-230631.30261881827
 10
-205832.21140007701
 20
-230631.3027375844
 42
0.0060665569399973
 10
-205832.5126805683
 20
-230631.30855788381
 10
-205832.52693090064
 20
-230631.30900619179
 42
0.00803569533316
 10
-205832.85638961528
 20
-230631.32467391374
 10
-205832.86845963204
 20
-230631.32544249677
 42
0.009899639882954
 10
-205833.22122271566
 20
-230631.35492772586
 10
-205833.23126842605
 20
-230631.35596802217
 42
0.0117740981185469
 10
-205833.60242528431
 20
-230631.40326026967
 10
-205833.61064798088
 20
-230631.40450538625
 42
0.0137435215203089
 10
-205833.9952368011
 20
-230631.47360235997
 10
-205834.00189383951
 20
-230631.47498825606
 42
0.0158359869675951
 10
-205834.39489093353
 20
-230631.56988034461
 10
-205834.40030412018
 20
-230631.57137028541
 42
0.0180554123545868
 10
-205834.796619164
 20
-230631.69600830137
 10
-205834.80117595289
 20
-230631.69762433792
 42
0.0203657431024265
 10
-205835.1956534702
 20
-230631.85588467921
 10
-205835.1997970097
 20
-230631.85774630087
 42
0.0226819684609712
 10
-205835.58723306624
 20
-230632.05338887972
 10
-205835.59143285692
 20
-230632.05575447145
 42
0.0248634984312375
 10
-205835.96661479821
 20
-230632.2923811175
 10
-205836.01480972688
 20
-230632.32623815924
 42
0.0267044190510545
 10
-205836.28910242382
 20
-230632.54167853511
 42
0.013930300227424
 10
-205836.54526958973
 20
-230632.77891737601
 10
-205836.55012297546
 20
-230632.78367003889
 42
0.0283460963299142
 10
-205836.79419556985
 20
-230633.05140069954
 10
-205836.83386407484
 20
-230633.10020227681
 42
0.0070695366465546
 10
-205836.91130130069
 20
-230633.19826909277
 42
0.0070695366465546
  0
LWPOLYLINE
  5
5A
100
AcDbEntity
  8
0
370
              15
390
0
  6
Continuous
 62
               7
100
AcDbPolyline
 90
      226
 70
             128
 10
-205840.44012173795
 20
-230648.91985789896
 42
-0.0026277644488591
 10
-205840.44019962178
 20
-230648.85308598564
 10
-205840.43998226352
 20
-230648.79993075578
 42
-0.0088680295138923
 10
-205840.43620564713
 20
-230648.6269149711
 10
-205840.43385928811
 20
-230648.56763494792
 42
-0.0077381705642681
 10
-205840.41781317737
 20
-230648.27637445217
 10
-205840.41694526619
 20
-230648.26408621843
 42
-0.0068872529450614
 10
-205840.39031318625
 20
-230647.94886446444
 10
-205840.38910896223
 20
-230647.93662348733
 42
-0.006213002148026
 10
-205840.35151524513
 20
-230647.59775379402
 10
-205840.35001134186
 20
-230647.58557992417
 42
-0.0056726929787406
 10
-205840.30108948247
 20
-230647.22338470272
 10
-205840.29931603672
 20
-230647.21129090182
 42
-0.0052341884607451
 10
-205840.23870545029
 20
-230646.82609764542
 10
-205840.23668746167
 20
-230646.81409271632
 42
-0.0049768450844541
 10
-205840.1639487806
 20
-230646.40624815071
 10
-205840.13969976554
 20
-230646.27770016587
 42
-0.0089029805614437
 10
-205840.0026189138
 20
-230645.6159247187
 10
-205839.96987353842
 20
-230645.47089328791
 42
-0.0080318257053455
 10
-205839.74032492386
 20
-230644.52518365512
 10
-205839.72833999764
 20
-230644.47905302088
 42
-0.0074265721245836
 10
-205839.4443284586
 20
-230643.44898844184
 10
-205839.42444891532
 20
-230643.38085438078
 42
-0.0069711922676888
 10
-205839.09714433717
 20
-230642.31458664159
 10
-205839.03719238969
 20
-230642.12856528204
 42
-0.0052070422802718
 10
-205838.80776716481
 20
-230641.44129320618
 10
-205838.79048597449
 20
-230641.39126593096
 42
-0.0009167004387156
 10
-205838.58739408536
 20
-230640.8068100774
 42
-0.0025162727051563
 10
-205838.38029645712
 20
-230640.22376881886
 10
-205838.34307184411
 20
-230640.12061926964
 42
-0.0028212681422755
 10
-205838.09489592433
 20
-230639.44488863519
 10
-205838.08506516111
 20
-230639.41858118927
 42
-0.003196491666572
 10
-205837.8487729039
 20
-230638.79837642837
 10
-205837.83913845051
 20
-230638.77356643981
 42
-0.0036281836872182
 10
-205837.61403248878
 20
-230638.20612575734
 10
-205837.60459407937
 20
-230638.1828283277
 42
-0.0041269167172796
 10
-205837.38997638196
 20
-230637.66538742988
 10
-205837.35734342519
 20
-230637.58850898268
 42
-0.0047472213359056
 10
-205837.20029862001
 20
-230637.22808751563
 10
-205837.19340453768
 20
-230637.21266691582
 42
-0.0025651660207748
 10
-205837.04504650494
 20
-230636.88533886254
 42
-0.0057144635408755
 10
-205836.89129681129
 20
-230636.56052918939
 10
-205836.86326610605
 20
-230636.50302080737
 42
-0.0065388068946925
 10
-205836.67979907803
 20
-230636.13878831011
 10
-205836.67134062218
 20
-230636.1225287306
 42
-0.0074510842962034
 10
-205836.49515837641
 20
-230635.79584044963
 10
-205836.48697870606
 20
-230635.78119967267
 42
-0.0084648979877115
 10
-205836.31734485275
 20
-230635.48929066138
 10
-205836.3094887264
 20
-230635.47628366997
 42
-0.0095638542526561
 10
-205836.14565327868
 20
-230635.21639479775
 10
-205836.13817833524
 20
-230635.20502543665
 42
-0.0107191626954361
 10
-205835.97937675461
 20
-230634.97441420174
 10
-205835.97236002132
 20
-230634.96467811
 42
-0.0118458573903201
 10
-205835.81781192234
 20
-230634.76060591408
 42
-0.0129184518592257
 10
-205835.65335929877
 20
-230634.5644453979
 10
-205835.62321452631
 20
-230634.5303193189
 42
-0.0217742579684483
 10
-205835.44660220406
 20
-230634.34711254877
 10
-205835.43585665975
 20
-230634.33689571571
 42
-0.0097266568622837
 10
-205835.26979904075
 20
-230634.18504814111
 42
-0.0187720905069742
 10
-205835.09545146485
 20
-230634.04297928771
 10
-205835.06474547423
 20
-230634.01982020534
 42
-0.0179428207525599
 10
-205834.83232475418
 20
-230633.85726802822
 10
-205834.82867242754
 20
-230633.85490409352
 42
-0.0170047877970838
 10
-205834.59290878975
 20
-230633.71344357921
 10
-205834.58912580082
 20
-230633.71134527406
 42
-0.0160190788181261
 10
-205834.35221725336
 20
-230633.58969397217
 42
-0.015110286181002
 10
-205834.10818547115
 20
-230633.48301119622
 10
-205834.05579896871
 20
-230633.46197106323
 42
-0.0271945442269168
 10
-205833.69713640984
 20
-230633.34010625255
 10
-205833.6280716091
 20
-230633.32075671121
 42
-0.0237596593753329
 10
-205833.21227476213
 20
-230633.22530599928
 10
-205833.14421190778
 20
-230633.21305131103
 42
-0.0213715440001759
 10
-205832.85833697696
 20
-230633.17410427961
 10
-205832.79818981045
 20
-230633.1685145649
 42
-0.0101465655557305
 10
-205832.63069727874
 20
-230633.15637102164
 10
-205832.62135689179
 20
-230633.15588410661
 42
-0.0100375909566682
 10
-205832.47220279198
 20
-230633.15110828873
 10
-205832.46194352271
 20
-230633.15098584973
 42
-0.0103625635513584
 10
-205832.33323552765
 20
-230633.15211728326
 10
-205832.31096987703
 20
-230633.1527746417
 42
-0.0115689250139891
 10
-205832.22691913886
 20
-230633.15720414795
 42
-0.0072438036317556
 10
-205832.14308085947
 20
-230633.16479334771
 10
-205832.12628034994
 20
-230633.16655989044
 42
-0.0217917314630007
 10
-205832.00971058712
 20
-230633.18397978306
 10
-205831.94411049562
 20
-230633.19672639164
 42
-0.0332943555847606
 10
-205831.73971833102
 20
-230633.25076668288
 10
-205831.70954576239
 20
-230633.26093476004
 42
-0.0184824085035829
 10
-205831.57104070601
 20
-230633.31338577537
 42
-0.0198002050599298
 10
-205831.43696636517
 20
-230633.37626983575
 10
-205831.43507972814
 20
-230633.37724762247
 42
-0.0212242342970461
 10
-205831.30294078586
 20
-230633.45301036118
 10
-205831.30112549019
 20
-230633.45415616347
 42
-0.0226090607193582
 10
-205831.17262158971
 20
-230633.54363580648
 10
-205831.17077714723
 20
-230633.54504806001
 42
-0.0238457051626769
 10
-205831.04759506608
 20
-230633.64904395572
 10
-205831.04564233738
 20
-230633.65085883363
 42
-0.0248160564977824
 10
-205830.92944083028
 20
-230633.77013343459
 10
-205830.92733719666
 20
-230633.77251876856
 42
-0.0254109591992152
 10
-205830.8197319789
 20
-230633.90780715441
 10
-205830.8174839569
 20
-230633.91094870292
 42
-0.0255528487280673
 10
-205830.7200372779
 20
-230634.06297575749
 10
-205830.7177061782
 20
-230634.06705736875
 42
-0.0252146793375674
 10
-205830.63192515215
 20
-230634.2365596148
 10
-205830.62962291302
 20
-230634.24174169666
 42
-0.0244265635497929
 10
-205830.55696821932
 20
-230634.42948826856
 10
-205830.54772181777
 20
-230634.45735368712
 42
-0.0231319613056584
 10
-205830.50179903879
 20
-230634.62065473385
 42
-0.0112130424247997
 10
-205830.4671630165
 20
-230634.78685833281
 10
-205830.46596049116
 20
-230634.79335492093
 42
-0.0210527881090908
 10
-205830.44027401577
 20
-230634.97441056644
 10
-205830.43676342096
 20
-230635.00981611491
 42
-0.0190029890772615
 10
-205830.42132194736
 20
-230635.26335196249
 10
-205830.42051197097
 20
-230635.29882757558
 42
-0.0137974553954204
 10
-205830.42206082377
 20
-230635.62385898177
 10
-205830.42290627872
 20
-230635.64997772622
 42
-0.008133663404054
 10
-205830.43776561398
 20
-230635.95532519449
 42
-0.007352692396267
 10
-205830.46207414716
 20
-230636.26007343674
 10
-205830.46333557114
 20
-230636.27341011344
 42
-0.0066886138606216
 10
-205830.49907115719
 20
-230636.60399615698
 10
-205830.50072824664
 20
-230636.61761777592
 42
-0.0061359187011139
 10
-205830.54857884898
 20
-230636.97438175781
 10
-205830.55061634979
 20
-230636.98827655887
 42
-0.0056698610204158
 10
-205830.61126668044
 20
-230637.37155512712
 10
-205830.61367211386
 20
-230637.38571424695
 42
-0.0052721076649926
 10
-205830.68780431492
 20
-230637.79584158794
 10
-205830.69056746352
 20
-230637.81025822199
 42
-0.004928927218488
 10
-205830.77886158152
 20
-230638.24756673267
 10
-205830.78197407629
 20
-230638.26223558592
 42
-0.0047415956904583
 10
-205830.88521206801
 20
-230638.72703234409
 10
-205830.91998027818
 20
-230638.87683943872
 42
-0.0084404470714078
 10
-205831.10999672214
 20
-230639.63706346467
 10
-205831.11612340974
 20
-230639.6599275874
 42
-0.003963594016156
 10
-205831.3375770947
 20
-230640.46091645406
 10
-205831.3509538892
 20
-230640.50784806826
 42
-0.0072475040938165
 10
-205831.61840077676
 20
-230641.39706778366
 10
-205831.68861310388
 20
-230641.61880813463
 42
-0.0051345458734504
 10
-205831.97537247595
 20
-230642.49313332239
 10
-205831.9968987407
 20
-230642.55655958361
 42
-0.0019150016804695
 10
-205832.2524321496
 20
-230643.30010870978
 10
-205832.25889975432
 20
-230643.31869617561
 42
-0.0021524362942021
 10
-205832.50737780507
 20
-230644.0230219964
 10
-205832.51658822401
 20
-230644.04877556977
 42
-0.0024331287154058
 10
-205832.75284348481
 20
-230644.69937488282
 10
-205832.76189143522
 20
-230644.72391818339
 42
-0.0027449722183591
 10
-205832.98650600816
 20
-230645.32304806809
 10
-205832.99539601503
 20
-230645.3463706566
 42
-0.0031083230086658
 10
-205833.20893850218
 20
-230645.89629469553
 10
-205833.21767463299
 20
-230645.91838440919
 42
-0.0035311343592408
 10
-205833.42071581946
 20
-230646.42136753711
 10
-205833.42930115876
 20
-230646.44221026098
 42
-0.0040245640869234
 10
-205833.62241296237
 20
-230646.90051958323
 10
-205833.63084907553
 20
-230646.92009895027
 42
-0.0046015135822537
 10
-205833.81460536915
 20
-230647.33600398095
 10
-205833.82289154717
 20
-230647.35430112085
 42
-0.0052768638248024
 10
-205833.99786906593
 20
-230647.73007400468
 10
-205834.00600127672
 20
-230647.74706734356
 42
-0.0060672675136127
 10
-205834.17278088932
 20
-230648.08498296631
 10
-205834.18075036982
 20
-230648.10064822534
 42
-0.0069904648775072
 10
-205834.33991876381
 20
-230648.402984032
 10
-205834.34771016351
 20
-230648.41729458136
 42
-0.0080637022580772
 10
-205834.49986202375
 20
-230648.68632988434
 10
-205834.50745105659
 20
-230648.6992577503
 42
-0.0093006456055826
 10
-205834.65319173294
 20
-230648.93727214844
 10
-205834.66054240035
 20
-230648.94879011868
 42
-0.0107060777473174
 10
-205834.80049094313
 20
-230649.15806043503
 10
-205834.80755271073
 20
-230649.16814597664
 42
-0.0122723111638778
 10
-205834.94234642957
 20
-230649.35093930707
 10
-205834.94267265301
 20
-230649.35135969476
 42
-0.0141836319283862
 10
-205835.08625425611
 20
-230649.52592945271
 10
-205835.09320201169
 20
-230649.5339044529
 42
-0.0175957477155584
 10
-205835.23310817982
 20
-230649.68352534139
 42
-0.0080466359943608
 10
-205835.38057194458
 20
-230649.82584786927
 10
-205835.42660648935
 20
-230649.86886830762
 42
-0.0269600260523398
 10
-205835.67988673563
 20
-230650.08119156634
 10
-205835.74645387172
 20
-230650.13114298083
 42
-0.0178362839484961
 10
-205835.98639836127
 20
-230650.298160907
 10
-205835.99364333227
 20
-230650.3028294192
 42
-0.0174650733392931
 10
-205836.22997952974
 20
-230650.44369038416
 42
-0.0169240129774725
 10
-205836.47544577598
 20
-230650.56798264413
 10
-205836.52143193115
 20
-230650.58934459952
 42
-0.0318883037525115
 10
-205836.87178278639
 20
-230650.7256829089
 10
-205836.94014832197
 20
-230650.74738352949
 42
-0.028443590967195
 10
-205837.31619844824
 20
-230650.84360096499
 10
-205837.35135660862
 20
-230650.85049456079
 42
-0.0243909341071438
 10
-205837.66480006964
 20
-230650.89621559184
 10
-205837.71508079639
 20
-230650.90106113875
 42
-0.0196639293148269
 10
-205837.93067637394
 20
-230650.91330942424
 10
-205837.98250044516
 20
-230650.91421268499
 42
-0.0100501511089363
 10
-205838.09492372675
 20
-230650.91391228663
 10
-205838.12658359105
 20
-230650.91319121467
 42
-0.0019752030170701
 10
-205838.17567592478
 20
-230650.91187905453
 10
-205838.1784362277
 20
-230650.91179436271
 42
0.0065378748413956
 10
-205838.22201280278
 20
-230650.91102747148
 42
-0.0167974695163214
 10
-205838.26554362563
 20
-230650.90936757298
 10
-205838.26962296496
 20
-230650.90907456208
 42
-0.0081283279580019
 10
-205838.3211827614
 20
-230650.90452756858
 10
-205838.33292233659
 20
-230650.90329965088
 42
-0.0126703441177956
 10
-205838.40764063117
 20
-230650.89356485996
 10
-205838.43042850005
 20
-230650.89000660385
 42
-0.0117852088366679
 10
-205838.54996748583
 20
-230650.86844360872
 10
-205838.60534793761
 20
-230650.85710006848
 42
-0.0251774592183078
 10
-205838.83219197678
 20
-230650.79860205902
 10
-205838.87691116522
 20
-230650.78463524012
 42
-0.0146525201658736
 10
-205839.06330415403
 20
-230650.7203687125
 42
-0.0166929435029621
 10
-205839.24528181108
 20
-230650.64456157904
 10
-205839.24993844144
 20
-230650.64243667884
 42
-0.0191684358582678
 10
-205839.43512207229
 20
-230650.5492005953
 10
-205839.43845465843
 20
-230650.54735934752
 42
-0.0221181782743905
 10
-205839.62176496166
 20
-230650.43522584959
 10
-205839.62411476637
 20
-230650.43364155112
 42
-0.0254984684313392
 10
-205839.80040491684
 20
-230650.30123040112
 10
-205839.82288706451
 20
-230650.28247809218
 42
-0.0292492648354729
 10
-205839.94765600329
 20
-230650.16538529258
 42
-0.0159048958036052
 10
-205840.06149600059
 20
-230650.03736530116
 10
-205840.06281479134
 20
-230650.03578368796
 42
-0.0343813380016313
 10
-205840.1654520529
 20
-230649.89391236225
 10
-205840.19694358474
 20
-230649.84340896941
 42
-0.0369117273776719
 10
-205840.2828360862
 20
-230649.67993172916
 42
-0.0191751379785738
 10
-205840.35002947183
 20
-230649.507527123
 10
-205840.35179279553
 20
-230649.50243377849
 42
-0.0378178043312998
 10
-205840.40158751421
 20
-230649.31349300296
 10
-205840.40758281006
 20
-230649.28093238419
 42
-0.0184846045064956
 10
-205840.42830000931
 20
-230649.13917956367
 42
-0.0179866352089696
 10
-205840.43863301436
 20
-230648.99628875178
 10
-205840.43868945685
 20
-230648.99473106395
 42
-0.0085497186045419
 10
-205840.44012173795
 20
-230648.91985789896
 42
-0.0085497186045419
  0
ENDBLK
  5
5B
100
AcDbEntity
  8
template
390
0
100
AcDbBlockEnd
  0
BLOCK
  5
5C
100
AcDbEntity
  8
notes
390
0
100
AcDbBlockBegin
  2
*D3
 70
               1
 10
0.0
 20
0.0
 30
0.0
  3
*D3
  1

  0
LINE
  5
5D
100
AcDbEntity
  8
0
370
              -2
390
0
  6
Continuous
 62
               0
100
AcDbLine
 10
-757.90434505807934
 20
851.84343391409493
 30
0.0
 11
-757.90434505807934
 21
931.84099405090092
 31
0.0
  0
LINE
  5
5E
100
AcDbEntity
  8
0
370
              -2
390
0
  6
Continuous
 62
               0
100
AcDbLine
 10
-147.90434505807934
 20
851.84343391409493
 30
0.0
 11
-147.90434505807934
 21
931.84099405090092
 31
0.0
  0
LINE
  5
5F
100
AcDbEntity
  8
0
370
              -2
390
0
  6
Continuous
 62
               0
100
AcDbLine
 10
-757.90434505807934
 20
931.84099405090092
 30
0.0
 11
-147.90434505807934
 21
931.84099405090092
 31
0.0
  0
CIRCLE
  5
60
102
{ACAD_REACTORS
330
61
102
}
100
AcDbEntity
  8
0
370
              -2
390
0
  6
Continuous
 62
               0
100
AcDbCircle
 10
-757.90434505807934
 20
931.84099405090092
 30
0.0
 40
1.9998779296875
  0
HATCH
  5
61
100
AcDbEntity
  8
0
370
              -2
390
0
  6
Continuous
 62
               0
100
AcDbHatch
 10
0.0
 20
0.0
 30
0.0
210
0.0
220
0.0
230
1.0
  2
SOLID
 70
               1
 71
               1
 91
        1
 92
        1
 93
        1
 72
               2
 10
-757.90434505807934
 20
931.84099405090092
 40
1.9998779296875
 50
0.0
 51
360.0
 73
               0
 97
        1
330
60
 75
               0
 76
               1
 98
        1
 10
0.0
 20
0.0
  0
CIRCLE
  5
62
102
{ACAD_REACTORS
330
63
102
}
100
AcDbEntity
  8
0
370
              -2
390
0
  6
Continuous
 62
               0
100
AcDbCircle
 10
-147.90434505807934
 20
931.84099405090092
 30
0.0
 40
1.9998779296875
  0
HATCH
  5
63
100
AcDbEntity
  8
0
370
              -2
390
0
  6
Continuous
 62
               0
100
AcDbHatch
 10
0.0
 20
0.0
 30
0.0
210
0.0
220
0.0
230
1.0
  2
SOLID
 70
               1
 71
               1
 91
        1
 92
        1
 93
        1
 72
               2
 10
-147.90434505807934
 20
931.84099405090092
 40
1.9998779296875
 50
0.0
 51
360.0
 73
               0
 97
        1
330
62
 75
               0
 76
               1
 98
        1
 10
0.0
 20
0.0
  0
MTEXT
  5
64
100
AcDbEntity
  8
0
390
0
 62
               0
100
AcDbMText
 10
-476.71684674025164
 20
965.7186112384079
 30
0.0
 40
24.432617187500004
 41
0.0
 71
               1
 72
               1
  1
610
  7
ＭＳ ゴシック
 73
               1
 44
0.7828267384257843
  0
POINT
  5
65
100
AcDbEntity
  8
Defpoints
370
               0
390
0
 62
               0
100
AcDbPoint
 10
-147.90434505807934
 20
826.84343391409493
 30
0.0
  0
POINT
  5
66
100
AcDbEntity
  8
Defpoints
370
               0
390
0
 62
               0
100
AcDbPoint
 10
-757.90434505807934
 20
826.84343391409493
 30
0.0
  0
POINT
  5
67
100
AcDbEntity
  8
Defpoints
370
               0
390
0
 62
               0
100
AcDbPoint
 10
-757.90434505807934
 20
931.84099405090092
 30
0.0
  0
ENDBLK
  5
68
100
AcDbEntity
  8
notes
390
0
100
AcDbBlockEnd
  0
BLOCK
  5
69
100
AcDbEntity
  8
notes
390
0
100
AcDbBlockBegin
  2
*D4
 70
               1
 10
0.0
 20
0.0
 30
0.0
  3
*D4
  1

  0
LINE
  5
6A
100
AcDbEntity
  8
0
370
              -2
390
0
  6
Continuous
 62
               0
100
AcDbLine
 10
-307.90434505807934
 20
400.09431158422376
 30
0.0
 11
-307.90434505807934
 21
326.90516611372004
 31
0.0
  0
LINE
  5
6B
100
AcDbEntity
  8
0
370
              -2
390
0
  6
Continuous
 62
               0
100
AcDbLine
 10
-147.90434505807934
 20
412.03933554780087
 30
0.0
 11
-147.90434505807934
 21
326.90516611372004
 31
0.0
  0
LINE
  5
6C
100
AcDbEntity
  8
0
370
              -2
390
0
  6
Continuous
 62
               0
100
AcDbLine
 10
-307.90434505807934
 20
326.90516611372004
 30
0.0
 11
-147.90434505807934
 21
326.90516611372004
 31
0.0
  0
CIRCLE
  5
6D
102
{ACAD_REACTORS
330
6E
102
}
100
AcDbEntity
  8
0
370
              -2
390
0
  6
Continuous
 62
               0
100
AcDbCircle
 10
-307.90434505807934
 20
326.90516611372004
 30
0.0
 40
1.9998779296875
  0
HATCH
  5
6E
100
AcDbEntity
  8
0
370
              -2
390
0
  6
Continuous
 62
               0
100
AcDbHatch
 10
0.0
 20
0.0
 30
0.0
210
0.0
220
0.0
230
1.0
  2
SOLID
 70
               1
 71
               1
 91
        1
 92
        1
 93
        1
 72
               2
 10
-307.90434505807934
 20
326.90516611372004
 40
1.9998779296875
 50
0.0
 51
360.0
 73
               0
 97
        1
330
6D
 75
               0
 76
               1
 98
        1
 10
0.0
 20
0.0
  0
CIRCLE
  5
6F
102
{ACAD_REACTORS
330
70
102
}
100
AcDbEntity
  8
0
370
              -2
390
0
  6
Continuous
 62
               0
100
AcDbCircle
 10
-147.90434505807934
 20
326.90516611372004
 30
0.0
 40
1.9998779296875
  0
HATCH
  5
70
100
AcDbEntity
  8
0
370
              -2
390
0
  6
Continuous
 62
               0
100
AcDbHatch
 10
0.0
 20
0.0
 30
0.0
210
0.0
220
0.0
230
1.0
  2
SOLID
 70
               1
 71
               1
 91
        1
 92
        1
 93
        1
 72
               2
 10
-147.90434505807934
 20
326.90516611372004
 40
1.9998779296875
 50
0.0
 51
360.0
 73
               0
 97
        1
330
6F
 75
               0
 76
               1
 98
        1
 10
0.0
 20
0.0
  0
MTEXT
  5
71
100
AcDbEntity
  8
0
390
0
 62
               0
100
AcDbMText
 10
-251.71684674025164
 20
360.78278330122703
 30
0.0
 40
24.432617187500004
 41
0.0
 71
               1
 72
               1
  1
160
  7
ＭＳ ゴシック
 73
               1
 44
0.7828267384257843
  0
POINT
  5
72
100
AcDbEntity
  8
Defpoints
370
               0
390
0
 62
               0
100
AcDbPoint
 10
-147.90434505807934
 20
437.03933554780087
 30
0.0
  0
POINT
  5
73
100
AcDbEntity
  8
Defpoints
370
               0
390
0
 62
               0
100
AcDbPoint
 10
-307.90434505807934
 20
425.09431158422376
 30
0.0
  0
POINT
  5
74
100
AcDbEntity
  8
Defpoints
370
               0
390
0
 62
               0
100
AcDbPoint
 10
-307.90434505807934
 20
326.90516611372004
 30
0.0
  0
ENDBLK
  5
75
100
AcDbEntity
  8
notes
390
0
100
AcDbBlockEnd
  0
BLOCK
  5
76
100
AcDbEntity
  8
notes
390
0
100
AcDbBlockBegin
  2
*D5
 70
               1
 10
0.0
 20
0.0
 30
0.0
  3
*D5
  1

  0
LINE
  5
77
100
AcDbEntity
  8
0
370
              -2
390
0
  6
Continuous
 62
               0
100
AcDbLine
 10
-307.90434505807934
 20
400.09431158422376
 30
0.0
 11
-307.90434505807934
 21
326.90516611372004
 31
0.0
  0
LINE
  5
78
100
AcDbEntity
  8
0
370
              -2
390
0
  6
Continuous
 62
               0
100
AcDbLine
 10
-717.90434505807934
 20
400.09498390820227
 30
0.0
 11
-717.90434505807934
 21
326.90516611372004
 31
0.0
  0
LINE
  5
79
100
AcDbEntity
  8
0
370
              -2
390
0
  6
Continuous
 62
               0
100
AcDbLine
 10
-307.90434505807934
 20
326.90516611372004
 30
0.0
 11
-717.90434505807934
 21
326.90516611372004
 31
0.0
  0
CIRCLE
  5
7A
102
{ACAD_REACTORS
330
7B
102
}
100
AcDbEntity
  8
0
370
              -2
390
0
  6
Continuous
 62
               0
100
AcDbCircle
 10
-307.90434505807934
 20
326.90516611372004
 30
0.0
 40
1.9998779296875
  0
HATCH
  5
7B
100
AcDbEntity
  8
0
370
              -2
390
0
  6
Continuous
 62
               0
100
AcDbHatch
 10
0.0
 20
0.0
 30
0.0
210
0.0
220
0.0
230
1.0
  2
SOLID
 70
               1
 71
               1
 91
        1
 92
        1
 93
        1
 72
               2
 10
-307.90434505807934
 20
326.90516611372004
 40
1.9998779296875
 50
0.0
 51
360.0
 73
               0
 97
        1
330
7A
 75
               0
 76
               1
 98
        1
 10
0.0
 20
0.0
  0
CIRCLE
  5
7C
102
{ACAD_REACTORS
330
7D
102
}
100
AcDbEntity
  8
0
370
              -2
390
0
  6
Continuous
 62
               0
100
AcDbCircle
 10
-717.90434505807934
 20
326.90516611372004
 30
0.0
 40
1.9998779296875
  0
HATCH
  5
7D
100
AcDbEntity
  8
0
370
              -2
390
0
  6
Continuous
 62
               0
100
AcDbHatch
 10
0.0
 20
0.0
 30
0.0
210
0.0
220
0.0
230
1.0
  2
SOLID
 70
               1
 71
               1
 91
        1
 92
        1
 93
        1
 72
               2
 10
-717.90434505807934
 20
326.90516611372004
 40
1.9998779296875
 50
0.0
 51
360.0
 73
               0
 97
        1
330
7C
 75
               0
 76
               1
 98
        1
 10
0.0
 20
0.0
  0
MTEXT
  5
7E
100
AcDbEntity
  8
0
390
0
 62
               0
100
AcDbMText
 10
-536.71684674025164
 20
360.78278330122703
 30
0.0
 40
24.432617187500004
 41
0.0
 71
               1
 72
               1
  1
410
  7
ＭＳ ゴシック
 73
               1
 44
0.7828267384257843
  0
POINT
  5
7F
100
AcDbEntity
  8
Defpoints
370
               0
390
0
 62
               0
100
AcDbPoint
 10
-717.90434505807934
 20
425.09498390820227
 30
0.0
  0
POINT
  5
80
100
AcDbEntity
  8
Defpoints
370
               0
390
0
 62
               0
100
AcDbPoint
 10
-307.90434505807934
 20
425.09431158422376
 30
0.0
  0
POINT
  5
81
100
AcDbEntity
  8
Defpoints
370
               0
390
0
 62
               0
100
AcDbPoint
 10
-307.90434505807934
 20
326.90516611372004
 30
0.0
  0
ENDBLK
  5
82
100
AcDbEntity
  8
notes
390
0
100
AcDbBlockEnd
  0
BLOCK
  5
83
100
AcDbEntity
  8
notes
390
0
100
AcDbBlockBegin
  2
*D6
 70
               1
 10
0.0
 20
0.0
 30
0.0
  3
*D6
  1

  0
LINE
  5
84
100
AcDbEntity
  8
0
370
              -2
390
0
  6
Continuous
 62
               0
100
AcDbLine
 10
-134.56141638837289
 20
-384.08120383261121
 30
0.0
 11
-47.904345058050239
 21
-384.08120383261121
 31
0.0
  0
LINE
  5
85
100
AcDbEntity
  8
0
370
              -2
390
0
  6
Continuous
 62
               0
100
AcDbLine
 10
-124.90336911275517
 20
-604.08120383261121
 30
0.0
 11
-47.904345058050239
 21
-604.08120383261121
 31
0.0
  0
LINE
  5
86
100
AcDbEntity
  8
0
370
              -2
390
0
  6
Continuous
 62
               0
100
AcDbLine
 10
-47.904345058050239
 20
-384.08120383261121
 30
0.0
 11
-47.904345058050239
 21
-604.08120383261121
 31
0.0
  0
CIRCLE
  5
87
102
{ACAD_REACTORS
330
88
102
}
100
AcDbEntity
  8
0
370
              -2
390
0
  6
Continuous
 62
               0
100
AcDbCircle
 10
-47.904345058050239
 20
-384.08120383261121
 30
0.0
 40
1.9998779296875
  0
HATCH
  5
88
100
AcDbEntity
  8
0
370
              -2
390
0
  6
Continuous
 62
               0
100
AcDbHatch
 10
0.0
 20
0.0
 30
0.0
210
0.0
220
0.0
230
1.0
  2
SOLID
 70
               1
 71
               1
 91
        1
 92
        1
 93
        1
 72
               2
 10
-47.904345058050239
 20
-384.08120383261121
 40
1.9998779296875
 50
0.0
 51
360.0
 73
               0
 97
        1
330
87
 75
               0
 76
               1
 98
        1
 10
0.0
 20
0.0
  0
CIRCLE
  5
89
102
{ACAD_REACTORS
330
8A
102
}
100
AcDbEntity
  8
0
370
              -2
390
0
  6
Continuous
 62
               0
100
AcDbCircle
 10
-47.904345058050239
 20
-604.08120383261121
 30
0.0
 40
1.9998779296875
  0
HATCH
  5
8A
100
AcDbEntity
  8
0
370
              -2
390
0
  6
Continuous
 62
               0
100
AcDbHatch
 10
0.0
 20
0.0
 30
0.0
210
0.0
220
0.0
230
1.0
  2
SOLID
 70
               1
 71
               1
 91
        1
 92
        1
 93
        1
 72
               2
 10
-47.904345058050239
 20
-604.08120383261121
 40
1.9998779296875
 50
0.0
 51
360.0
 73
               0
 97
        1
330
89
 75
               0
 76
               1
 98
        1
 10
0.0
 20
0.0
  0
MTEXT
  5
8B
100
AcDbEntity
  8
0
390
0
 62
               0
100
AcDbMText
 10
-81.781962245557224
 20
-517.89370551478351
 30
0.0
 40
24.432617187500004
 41
0.0
 71
               1
 72
               1
  1
220
  7
ＭＳ ゴシック
 11
0.0
 21
1.0
 31
0.0
 73
               1
 44
0.7828267384257843
  0
POINT
  5
8C
100
AcDbEntity
  8
Defpoints
370
               0
390
0
 62
               0
100
AcDbPoint
 10
-149.90336911275517
 20
-604.08120383261121
 30
0.0
  0
POINT
  5
8D
100
AcDbEntity
  8
Defpoints
370
               0
390
0
 62
               0
100
AcDbPoint
 10
-159.56141638837289
 20
-384.08120383261121
 30
0.0
  0
POINT
  5
8E
100
AcDbEntity
  8
Defpoints
370
               0
390
0
 62
               0
100
AcDbPoint
 10
-47.904345058050239
 20
-384.08120383261121
 30
0.0
  0
ENDBLK
  5
8F
100
AcDbEntity
  8
notes
390
0
100
AcDbBlockEnd
  0
BLOCK
  5
90
100
AcDbEntity
  8
notes
390
0
100
AcDbBlockBegin
  2
*D7
 70
               1
 10
0.0
 20
0.0
 30
0.0
  3
*D7
  1

  0
LINE
  5
91
100
AcDbEntity
  8
0
370
              -2
390
0
  6
Continuous
 62
               0
100
AcDbLine
 10
-147.90434505796293
 20
-627.01873120901291
 30
0.0
 11
-147.90434505796293
 21
-754.08120383264031
 31
0.0
  0
LINE
  5
92
100
AcDbEntity
  8
0
370
              -2
390
0
  6
Continuous
 62
               0
100
AcDbLine
 10
-757.90434505796293
 20
-627.01873120901291
 30
0.0
 11
-757.90434505796293
 21
-754.08120383264031
 31
0.0
  0
LINE
  5
93
100
AcDbEntity
  8
0
370
              -2
390
0
  6
Continuous
 62
               0
100
AcDbLine
 10
-147.90434505796293
 20
-754.08120383264031
 30
0.0
 11
-757.90434505796293
 21
-754.08120383264031
 31
0.0
  0
CIRCLE
  5
94
102
{ACAD_REACTORS
330
95
102
}
100
AcDbEntity
  8
0
370
              -2
390
0
  6
Continuous
 62
               0
100
AcDbCircle
 10
-147.90434505796293
 20
-754.08120383264031
 30
0.0
 40
1.9998779296875
  0
HATCH
  5
95
100
AcDbEntity
  8
0
370
              -2
390
0
  6
Continuous
 62
               0
100
AcDbHatch
 10
0.0
 20
0.0
 30
0.0
210
0.0
220
0.0
230
1.0
  2
SOLID
 70
               1
 71
               1
 91
        1
 92
        1
 93
        1
 72
               2
 10
-147.90434505796293
 20
-754.08120383264031
 40
1.9998779296875
 50
0.0
 51
360.0
 73
               0
 97
        1
330
94
 75
               0
 76
               1
 98
        1
 10
0.0
 20
0.0
  0
CIRCLE
  5
96
102
{ACAD_REACTORS
330
97
102
}
100
AcDbEntity
  8
0
370
              -2
390
0
  6
Continuous
 62
               0
100
AcDbCircle
 10
-757.90434505796293
 20
-754.08120383264031
 30
0.0
 40
1.9998779296875
  0
HATCH
  5
97
100
AcDbEntity
  8
0
370
              -2
390
0
  6
Continuous
 62
               0
100
AcDbHatch
 10
0.0
 20
0.0
 30
0.0
210
0.0
220
0.0
230
1.0
  2
SOLID
 70
               1
 71
               1
 91
        1
 92
        1
 93
        1
 72
               2
 10
-757.90434505796293
 20
-754.08120383264031
 40
1.9998779296875
 50
0.0
 51
360.0
 73
               0
 97
        1
330
96
 75
               0
 76
               1
 98
        1
 10
0.0
 20
0.0
  0
MTEXT
  5
98
100
AcDbEntity
  8
0
390
0
 62
               0
100
AcDbMText
 10
-476.71684674013522
 20
-720.20358664513333
 30
0.0
 40
24.432617187500004
 41
0.0
 71
               1
 72
               1
  1
610
  7
ＭＳ ゴシック
 73
               1
 44
0.7828267384257843
  0
POINT
  5
99
100
AcDbEntity
  8
Defpoints
370
               0
390
0
 62
               0
100
AcDbPoint
 10
-757.90434505796293
 20
-602.01873120901291
 30
0.0
  0
POINT
  5
9A
100
AcDbEntity
  8
Defpoints
370
               0
390
0
 62
               0
100
AcDbPoint
 10
-147.90434505796293
 20
-602.01873120901291
 30
0.0
  0
POINT
  5
9B
100
AcDbEntity
  8
Defpoints
370
               0
390
0
 62
               0
100
AcDbPoint
 10
-147.90434505796293
 20
-754.08120383264031
 30
0.0
  0
ENDBLK
  5
9C
100
AcDbEntity
  8
notes
390
0
100
AcDbBlockEnd
  0
BLOCK
  5
9D
100
AcDbEntity
  8
notes
390
0
100
AcDbBlockBegin
  2
*D8
 70
               1
 10
0.0
 20
0.0
 30
0.0
  3
*D8
  1

  0
LINE
  5
9E
100
AcDbEntity
  8
0
370
              -2
390
0
  6
Continuous
 62
               0
100
AcDbLine
 10
269.13175310293445
 20
-566.08120383261121
 30
0.0
 11
269.13175310293445
 21
-644.08120383261121
 31
0.0
  0
LINE
  5
9F
100
AcDbEntity
  8
0
370
              -2
390
0
  6
Continuous
 62
               0
100
AcDbLine
 10
471.63175310293445
 20
-567.08120383261121
 30
0.0
 11
471.63175310293445
 21
-644.08120383261121
 31
0.0
  0
LINE
  5
A0
100
AcDbEntity
  8
0
370
              -2
390
0
  6
Continuous
 62
               0
100
AcDbLine
 10
269.13175310293445
 20
-644.08120383261121
 30
0.0
 11
471.63175310293445
 21
-644.08120383261121
 31
0.0
  0
CIRCLE
  5
A1
102
{ACAD_REACTORS
330
A2
102
}
100
AcDbEntity
  8
0
370
              -2
390
0
  6
Continuous
 62
               0
100
AcDbCircle
 10
269.13175310293445
 20
-644.08120383261121
 30
0.0
 40
1.9998779296875
  0
HATCH
  5
A2
100
AcDbEntity
  8
0
370
              -2
390
0
  6
Continuous
 62
               0
100
AcDbHatch
 10
0.0
 20
0.0
 30
0.0
210
0.0
220
0.0
230
1.0
  2
SOLID
 70
               1
 71
               1
 91
        1
 92
        1
 93
        1
 72
               2
 10
269.13175310293445
 20
-644.08120383261121
 40
1.9998779296875
 50
0.0
 51
360.0
 73
               0
 97
        1
330
A1
 75
               0
 76
               1
 98
        1
 10
0.0
 20
0.0
  0
CIRCLE
  5
A3
102
{ACAD_REACTORS
330
A4
102
}
100
AcDbEntity
  8
0
370
              -2
390
0
  6
Continuous
 62
               0
100
AcDbCircle
 10
471.63175310293445
 20
-644.08120383261121
 30
0.0
 40
1.9998779296875
  0
HATCH
  5
A4
100
AcDbEntity
  8
0
370
              -2
390
0
  6
Continuous
 62
               0
100
AcDbHatch
 10
0.0
 20
0.0
 30
0.0
210
0.0
220
0.0
230
1.0
  2
SOLID
 70
               1
 71
               1
 91
        1
 92
        1
 93
        1
 72
               2
 10
471.63175310293445
 20
-644.08120383261121
 40
1.9998779296875
 50
0.0
 51
360.0
 73
               0
 97
        1
330
A3
 75
               0
 76
               1
 98
        1
 10
0.0
 20
0.0
  0
MTEXT
  5
A5
100
AcDbEntity
  8
0
390
0
 62
               0
100
AcDbMText
 10
330.69425310293445
 20
-610.20358664510422
 30
0.0
 40
24.432617187500004
 41
0.0
 71
               1
 72
               1
  1
202.5
  7
ＭＳ ゴシック
 73
               1
 44
0.7828267384257843
  0
POINT
  5
A6
100
AcDbEntity
  8
Defpoints
370
               0
390
0
 62
               0
100
AcDbPoint
 10
471.63175310293445
 20
-542.08120383261121
 30
0.0
  0
POINT
  5
A7
100
AcDbEntity
  8
Defpoints
370
               0
390
0
 62
               0
100
AcDbPoint
 10
269.13175310293445
 20
-541.08120383261121
 30
0.0
  0
POINT
  5
A8
100
AcDbEntity
  8
Defpoints
370
               0
390
0
 62
               0
100
AcDbPoint
 10
269.13175310293445
 20
-644.08120383261121
 30
0.0
  0
ENDBLK
  5
A9
100
AcDbEntity
  8
notes
390
0
100
AcDbBlockEnd
  0
BLOCK
  5
AA
100
AcDbEntity
  8
notes
390
0
100
AcDbBlockBegin
  2
*D9
 70
               1
 10
0.0
 20
0.0
 30
0.0
  3
*D9
  1

  0
LINE
  5
AB
100
AcDbEntity
  8
0
370
              -2
390
0
  6
Continuous
 62
               0
100
AcDbLine
 10
253.88443153625121
 20
-384.08120383261121
 30
0.0
 11
169.13175310290535
 21
-384.08120383261121
 31
0.0
  0
LINE
  5
AC
100
AcDbEntity
  8
0
370
              -2
390
0
  6
Continuous
 62
               0
100
AcDbLine
 10
245.89756357047008
 20
-544.08120383261121
 30
0.0
 11
169.13175310290535
 21
-544.08120383261121
 31
0.0
  0
LINE
  5
AD
100
AcDbEntity
  8
0
370
              -2
390
0
  6
Continuous
 62
               0
100
AcDbLine
 10
169.13175310290535
 20
-384.08120383261121
 30
0.0
 11
169.13175310290535
 21
-544.08120383261121
 31
0.0
  0
CIRCLE
  5
AE
102
{ACAD_REACTORS
330
AF
102
}
100
AcDbEntity
  8
0
370
              -2
390
0
  6
Continuous
 62
               0
100
AcDbCircle
 10
169.13175310290535
 20
-384.08120383261121
 30
0.0
 40
1.9998779296875
  0
HATCH
  5
AF
100
AcDbEntity
  8
0
370
              -2
390
0
  6
Continuous
 62
               0
100
AcDbHatch
 10
0.0
 20
0.0
 30
0.0
210
0.0
220
0.0
230
1.0
  2
SOLID
 70
               1
 71
               1
 91
        1
 92
        1
 93
        1
 72
               2
 10
169.13175310290535
 20
-384.08120383261121
 40
1.9998779296875
 50
0.0
 51
360.0
 73
               0
 97
        1
330
AE
 75
               0
 76
               1
 98
        1
 10
0.0
 20
0.0
  0
CIRCLE
  5
B0
102
{ACAD_REACTORS
330
B1
102
}
100
AcDbEntity
  8
0
370
              -2
390
0
  6
Continuous
 62
               0
100
AcDbCircle
 10
169.13175310290535
 20
-544.08120383261121
 30
0.0
 40
1.9998779296875
  0
HATCH
  5
B1
100
AcDbEntity
  8
0
370
              -2
390
0
  6
Continuous
 62
               0
100
AcDbHatch
 10
0.0
 20
0.0
 30
0.0
210
0.0
220
0.0
230
1.0
  2
SOLID
 70
               1
 71
               1
 91
        1
 92
        1
 93
        1
 72
               2
 10
169.13175310290535
 20
-544.08120383261121
 40
1.9998779296875
 50
0.0
 51
360.0
 73
               0
 97
        1
330
B0
 75
               0
 76
               1
 98
        1
 10
0.0
 20
0.0
  0
MTEXT
  5
B2
100
AcDbEntity
  8
0
390
0
 62
               0
100
AcDbMText
 10
135.25413591539836
 20
-487.89370551478351
 30
0.0
 40
24.432617187500004
 41
0.0
 71
               1
 72
               1
  1
160
  7
ＭＳ ゴシック
 11
0.0
 21
1.0
 31
0.0
 73
               1
 44
0.7828267384257843
  0
POINT
  5
B3
100
AcDbEntity
  8
Defpoints
370
               0
390
0
 62
               0
100
AcDbPoint
 10
270.89756357047008
 20
-544.08120383261121
 30
0.0
  0
POINT
  5
B4
100
AcDbEntity
  8
Defpoints
370
               0
390
0
 62
               0
100
AcDbPoint
 10
278.88443153625121
 20
-384.08120383261121
 30
0.0
  0
POINT
  5
B5
100
AcDbEntity
  8
Defpoints
370
               0
390
0
 62
               0
100
AcDbPoint
 10
169.13175310290535
 20
-384.08120383261121
 30
0.0
  0
ENDBLK
  5
B6
100
AcDbEntity
  8
notes
390
0
100
AcDbBlockEnd
  0
BLOCK
  5
B7
100
AcDbEntity
  8
notes
390
0
100
AcDbBlockBegin
  2
*D10
 70
               1
 10
0.0
 20
0.0
 30
0.0
  3
*D10
  1

  0
LINE
  5
B8
100
AcDbEntity
  8
0
370
              -2
390
0
  6
Continuous
 62
               0
100
AcDbLine
 10
689.19206504453905
 20
-384.08120383261121
 30
0.0
 11
775.60282621960505
 21
-384.08120383261121
 31
0.0
  0
LINE
  5
B9
100
AcDbEntity
  8
0
370
              -2
390
0
  6
Continuous
 62
               0
100
AcDbLine
 10
696.16235598979983
 20
-454.08120383261121
 30
0.0
 11
775.60282621960505
 21
-454.08120383261121
 31
0.0
  0
LINE
  5
BA
100
AcDbEntity
  8
0
370
              -2
390
0
  6
Continuous
 62
               0
100
AcDbLine
 10
775.60282621960505
 20
-384.08120383261121
 30
0.0
 11
775.60282621960505
 21
-454.08120383261121
 31
0.0
  0
CIRCLE
  5
BB
102
{ACAD_REACTORS
330
BC
102
}
100
AcDbEntity
  8
0
370
              -2
390
0
  6
Continuous
 62
               0
100
AcDbCircle
 10
775.60282621960505
 20
-384.08120383261121
 30
0.0
 40
1.9998779296875
  0
HATCH
  5
BC
100
AcDbEntity
  8
0
370
              -2
390
0
  6
Continuous
 62
               0
100
AcDbHatch
 10
0.0
 20
0.0
 30
0.0
210
0.0
220
0.0
230
1.0
  2
SOLID
 70
               1
 71
               1
 91
        1
 92
        1
 93
        1
 72
               2
 10
775.60282621960505
 20
-384.08120383261121
 40
1.9998779296875
 50
0.0
 51
360.0
 73
               0
 97
        1
330
BB
 75
               0
 76
               1
 98
        1
 10
0.0
 20
0.0
  0
CIRCLE
  5
BD
102
{ACAD_REACTORS
330
BE
102
}
100
AcDbEntity
  8
0
370
              -2
390
0
  6
Continuous
 62
               0
100
AcDbCircle
 10
775.60282621960505
 20
-454.08120383261121
 30
0.0
 40
1.9998779296875
  0
HATCH
  5
BE
100
AcDbEntity
  8
0
370
              -2
390
0
  6
Continuous
 62
               0
100
AcDbHatch
 10
0.0
 20
0.0
 30
0.0
210
0.0
220
0.0
230
1.0
  2
SOLID
 70
               1
 71
               1
 91
        1
 92
        1
 93
        1
 72
               2
 10
775.60282621960505
 20
-454.08120383261121
 40
1.9998779296875
 50
0.0
 51
360.0
 73
               0
 97
        1
330
BD
 75
               0
 76
               1
 98
        1
 10
0.0
 20
0.0
  0
MTEXT
  5
BF
100
AcDbEntity
  8
0
390
0
 62
               0
100
AcDbMText
 10
741.72520903209806
 20
-434.95620383261121
 30
0.0
 40
24.432617187500004
 41
0.0
 71
               1
 72
               1
  1
70
  7
ＭＳ ゴシック
 11
0.0
 21
1.0
 31
0.0
 73
               1
 44
0.7828267384257843
  0
POINT
  5
C0
100
AcDbEntity
  8
Defpoints
370
               0
390
0
 62
               0
100
AcDbPoint
 10
671.16235598979983
 20
-454.08120383261121
 30
0.0
  0
POINT
  5
C1
100
AcDbEntity
  8
Defpoints
370
               0
390
0
 62
               0
100
AcDbPoint
 10
664.19206504453905
 20
-384.08120383261121
 30
0.0
  0
POINT
  5
C2
100
AcDbEntity
  8
Defpoints
370
               0
390
0
 62
               0
100
AcDbPoint
 10
775.60282621960505
 20
-384.08120383261121
 30
0.0
  0
ENDBLK
  5
C3
100
AcDbEntity
  8
notes
390
0
100
AcDbBlockEnd
  0
BLOCK
  5
C4
100
AcDbEntity
  8
notes
390
0
100
AcDbBlockBegin
  2
*D11
 70
               1
 10
0.0
 20
0.0
 30
0.0
  3
*D11
  1

  0
LINE
  5
C5
100
AcDbEntity
  8
0
370
              -2
390
0
  6
Continuous
 62
               0
100
AcDbLine
 10
696.16235598979983
 20
-454.04925353985163
 30
0.0
 11
775.60282621963415
 21
-454.04925353985163
 31
0.0
  0
LINE
  5
C6
100
AcDbEntity
  8
0
370
              -2
390
0
  6
Continuous
 62
               0
100
AcDbLine
 10
698.19370750052622
 20
-519.04925353985163
 30
0.0
 11
775.60282621963415
 21
-519.04925353985163
 31
0.0
  0
LINE
  5
C7
100
AcDbEntity
  8
0
370
              -2
390
0
  6
Continuous
 62
               0
100
AcDbLine
 10
775.60282621963415
 20
-454.04925353985163
 30
0.0
 11
775.60282621963415
 21
-519.04925353985163
 31
0.0
  0
CIRCLE
  5
C8
102
{ACAD_REACTORS
330
C9
102
}
100
AcDbEntity
  8
0
370
              -2
390
0
  6
Continuous
 62
               0
100
AcDbCircle
 10
775.60282621963415
 20
-454.04925353985163
 30
0.0
 40
1.9998779296875
  0
HATCH
  5
C9
100
AcDbEntity
  8
0
370
              -2
390
0
  6
Continuous
 62
               0
100
AcDbHatch
 10
0.0
 20
0.0
 30
0.0
210
0.0
220
0.0
230
1.0
  2
SOLID
 70
               1
 71
               1
 91
        1
 92
        1
 93
        1
 72
               2
 10
775.60282621963415
 20
-454.04925353985163
 40
1.9998779296875
 50
0.0
 51
360.0
 73
               0
 97
        1
330
C8
 75
               0
 76
               1
 98
        1
 10
0.0
 20
0.0
  0
CIRCLE
  5
CA
102
{ACAD_REACTORS
330
CB
102
}
100
AcDbEntity
  8
0
370
              -2
390
0
  6
Continuous
 62
               0
100
AcDbCircle
 10
775.60282621963415
 20
-519.04925353985163
 30
0.0
 40
1.9998779296875
  0
HATCH
  5
CB
100
AcDbEntity
  8
0
370
              -2
390
0
  6
Continuous
 62
               0
100
AcDbHatch
 10
0.0
 20
0.0
 30
0.0
210
0.0
220
0.0
230
1.0
  2
SOLID
 70
               1
 71
               1
 91
        1
 92
        1
 93
        1
 72
               2
 10
775.60282621963415
 20
-519.04925353985163
 40
1.9998779296875
 50
0.0
 51
360.0
 73
               0
 97
        1
330
CA
 75
               0
 76
               1
 98
        1
 10
0.0
 20
0.0
  0
MTEXT
  5
CC
100
AcDbEntity
  8
0
390
0
 62
               0
100
AcDbMText
 10
741.72520903212717
 20
-502.42425353985163
 30
0.0
 40
24.432617187500004
 41
0.0
 71
               1
 72
               1
  1
65
  7
ＭＳ ゴシック
 11
0.0
 21
1.0
 31
0.0
 73
               1
 44
0.7828267384257843
  0
POINT
  5
CD
100
AcDbEntity
  8
Defpoints
370
               0
390
0
 62
               0
100
AcDbPoint
 10
673.19370750052622
 20
-519.04925353985163
 30
0.0
  0
POINT
  5
CE
100
AcDbEntity
  8
Defpoints
370
               0
390
0
 62
               0
100
AcDbPoint
 10
671.16235598979983
 20
-454.04925353985163
 30
0.0
  0
POINT
  5
CF
100
AcDbEntity
  8
Defpoints
370
               0
390
0
 62
               0
100
AcDbPoint
 10
775.60282621963415
 20
-454.04925353985163
 30
0.0
  0
ENDBLK
  5
D0
100
AcDbEntity
  8
notes
390
0
100
AcDbBlockEnd
  0
BLOCK
  5
D1
100
AcDbEntity
  8
notes
390
0
100
AcDbBlockBegin
  2
*D12
 70
               1
 10
0.0
 20
0.0
 30
0.0
  3
*D12
  1

  0
LINE
  5
D2
100
AcDbEntity
  8
0
370
              -2
390
0
  6
Continuous
 62
               0
100
AcDbLine
 10
269.13175310293445
 20
-567.01873120901291
 30
0.0
 11
269.13175310293445
 21
-709.3849627962627
 31
0.0
  0
LINE
  5
D3
100
AcDbEntity
  8
0
370
              -2
390
0
  6
Continuous
 62
               0
100
AcDbLine
 10
569.13175310293445
 20
-623.12995824558311
 30
0.0
 11
569.13175310293445
 21
-709.3849627962627
 31
0.0
  0
LINE
  5
D4
100
AcDbEntity
  8
0
370
              -2
390
0
  6
Continuous
 62
               0
100
AcDbLine
 10
269.13175310293445
 20
-709.3849627962627
 30
0.0
 11
569.13175310293445
 21
-709.3849627962627
 31
0.0
  0
CIRCLE
  5
D5
102
{ACAD_REACTORS
330
D6
102
}
100
AcDbEntity
  8
0
370
              -2
390
0
  6
Continuous
 62
               0
100
AcDbCircle
 10
269.13175310293445
 20
-709.3849627962627
 30
0.0
 40
1.9998779296875
  0
HATCH
  5
D6
100
AcDbEntity
  8
0
370
              -2
390
0
  6
Continuous
 62
               0
100
AcDbHatch
 10
0.0
 20
0.0
 30
0.0
210
0.0
220
0.0
230
1.0
  2
SOLID
 70
               1
 71
               1
 91
        1
 92
        1
 93
        1
 72
               2
 10
269.13175310293445
 20
-709.3849627962627
 40
1.9998779296875
 50
0.0
 51
360.0
 73
               0
 97
        1
330
D5
 75
               0
 76
               1
 98
        1
 10
0.0
 20
0.0
  0
CIRCLE
  5
D7
102
{ACAD_REACTORS
330
D8
102
}
100
AcDbEntity
  8
0
370
              -2
390
0
  6
Continuous
 62
               0
100
AcDbCircle
 10
569.13175310293445
 20
-709.3849627962627
 30
0.0
 40
1.9998779296875
  0
HATCH
  5
D8
100
AcDbEntity
  8
0
370
              -2
390
0
  6
Continuous
 62
               0
100
AcDbHatch
 10
0.0
 20
0.0
 30
0.0
210
0.0
220
0.0
230
1.0
  2
SOLID
 70
               1
 71
               1
 91
        1
 92
        1
 93
        1
 72
               2
 10
569.13175310293445
 20
-709.3849627962627
 40
1.9998779296875
 50
0.0
 51
360.0
 73
               0
 97
        1
330
D7
 75
               0
 76
               1
 98
        1
 10
0.0
 20
0.0
  0
MTEXT
  5
D9
100
AcDbEntity
  8
0
390
0
 62
               0
100
AcDbMText
 10
395.31925142076216
 20
-675.50734560875571
 30
0.0
 40
24.432617187500004
 41
0.0
 71
               1
 72
               1
  1
300
  7
ＭＳ ゴシック
 73
               1
 44
0.7828267384257843
  0
POINT
  5
DA
100
AcDbEntity
  8
Defpoints
370
               0
390
0
 62
               0
100
AcDbPoint
 10
569.13175310293445
 20
-598.12995824558311
 30
0.0
  0
POINT
  5
DB
100
AcDbEntity
  8
Defpoints
370
               0
390
0
 62
               0
100
AcDbPoint
 10
269.13175310293445
 20
-542.01873120901291
 30
0.0
  0
POINT
  5
DC
100
AcDbEntity
  8
Defpoints
370
               0
390
0
 62
               0
100
AcDbPoint
 10
269.13175310293445
 20
-709.3849627962627
 30
0.0
  0
ENDBLK
  5
DD
100
AcDbEntity
  8
notes
390
0
100
AcDbBlockEnd
  0
BLOCK
  5
DE
100
AcDbEntity
  8
notes
390
0
100
AcDbBlockBegin
  2
*D13
 70
               1
 10
0.0
 20
0.0
 30
0.0
  3
*D13
  1

  0
LINE
  5
DF
100
AcDbEntity
  8
0
370
              -2
390
0
  6
Continuous
 62
               0
100
AcDbLine
 10
-757.90434505796293
 20
-627.01873120901291
 30
0.0
 11
-757.90434505796293
 21
-704.08120383264031
 31
0.0
  0
LINE
  5
E0
100
AcDbEntity
  8
0
370
              -2
390
0
  6
Continuous
 62
               0
100
AcDbLine
 10
-517.90434505796293
 20
-567.08120383261121
 30
0.0
 11
-517.90434505796293
 21
-704.08120383264031
 31
0.0
  0
LINE
  5
E1
100
AcDbEntity
  8
0
370
              -2
390
0
  6
Continuous
 62
               0
100
AcDbLine
 10
-757.90434505796293
 20
-704.08120383264031
 30
0.0
 11
-517.90434505796293
 21
-704.08120383264031
 31
0.0
  0
CIRCLE
  5
E2
102
{ACAD_REACTORS
330
E3
102
}
100
AcDbEntity
  8
0
370
              -2
390
0
  6
Continuous
 62
               0
100
AcDbCircle
 10
-757.90434505796293
 20
-704.08120383264031
 30
0.0
 40
1.9998779296875
  0
HATCH
  5
E3
100
AcDbEntity
  8
0
370
              -2
390
0
  6
Continuous
 62
               0
100
AcDbHatch
 10
0.0
 20
0.0
 30
0.0
210
0.0
220
0.0
230
1.0
  2
SOLID
 70
               1
 71
               1
 91
        1
 92
        1
 93
        1
 72
               2
 10
-757.90434505796293
 20
-704.08120383264031
 40
1.9998779296875
 50
0.0
 51
360.0
 73
               0
 97
        1
330
E2
 75
               0
 76
               1
 98
        1
 10
0.0
 20
0.0
  0
CIRCLE
  5
E4
102
{ACAD_REACTORS
330
E5
102
}
100
AcDbEntity
  8
0
370
              -2
390
0
  6
Continuous
 62
               0
100
AcDbCircle
 10
-517.90434505796293
 20
-704.08120383264031
 30
0.0
 40
1.9998779296875
  0
HATCH
  5
E5
100
AcDbEntity
  8
0
370
              -2
390
0
  6
Continuous
 62
               0
100
AcDbHatch
 10
0.0
 20
0.0
 30
0.0
210
0.0
220
0.0
230
1.0
  2
SOLID
 70
               1
 71
               1
 91
        1
 92
        1
 93
        1
 72
               2
 10
-517.90434505796293
 20
-704.08120383264031
 40
1.9998779296875
 50
0.0
 51
360.0
 73
               0
 97
        1
330
E4
 75
               0
 76
               1
 98
        1
 10
0.0
 20
0.0
  0
MTEXT
  5
E6
100
AcDbEntity
  8
0
390
0
 62
               0
100
AcDbMText
 10
-661.71684674013522
 20
-670.20358664513333
 30
0.0
 40
24.432617187500004
 41
0.0
 71
               1
 72
               1
  1
240
  7
ＭＳ ゴシック
 73
               1
 44
0.7828267384257843
  0
POINT
  5
E7
100
AcDbEntity
  8
Defpoints
370
               0
390
0
 62
               0
100
AcDbPoint
 10
-517.90434505796293
 20
-542.08120383261121
 30
0.0
  0
POINT
  5
E8
100
AcDbEntity
  8
Defpoints
370
               0
390
0
 62
               0
100
AcDbPoint
 10
-757.90434505796293
 20
-602.01873120901291
 30
0.0
  0
POINT
  5
E9
100
AcDbEntity
  8
Defpoints
370
               0
390
0
 62
               0
100
AcDbPoint
 10
-757.90434505796293
 20
-704.08120383264031
 30
0.0
  0
ENDBLK
  5
EA
100
AcDbEntity
  8
notes
390
0
100
AcDbBlockEnd
  0
BLOCK
  5
EB
100
AcDbEntity
  8
notes
390
0
100
AcDbBlockBegin
  2
*D14
 70
               1
 10
0.0
 20
0.0
 30
0.0
  3
*D14
  1

  0
LINE
  5
EC
100
AcDbEntity
  8
0
370
              -2
390
0
  6
Continuous
 62
               0
100
AcDbLine
 10
-130.47549970645923
 20
831.87400086494745
 30
0.0
 11
-47.90399732082733
 21
831.87400086494745
 31
0.0
  0
LINE
  5
ED
100
AcDbEntity
  8
0
370
              -2
390
0
  6
Continuous
 62
               0
100
AcDbLine
 10
-130.47549970645923
 20
426.90517852341873
 30
0.0
 11
-47.90399732082733
 21
426.90517852341873
 31
0.0
  0
LINE
  5
EE
100
AcDbEntity
  8
0
370
              -2
390
0
  6
Continuous
 62
               0
100
AcDbLine
 10
-47.90399732082733
 20
831.87400086494745
 30
0.0
 11
-47.90399732082733
 21
426.90517852341873
 31
0.0
  0
CIRCLE
  5
EF
102
{ACAD_REACTORS
330
F0
102
}
100
AcDbEntity
  8
0
370
              -2
390
0
  6
Continuous
 62
               0
100
AcDbCircle
 10
-47.90399732082733
 20
831.87400086494745
 30
0.0
 40
1.9998779296875
  0
HATCH
  5
F0
100
AcDbEntity
  8
0
370
              -2
390
0
  6
Continuous
 62
               0
100
AcDbHatch
 10
0.0
 20
0.0
 30
0.0
210
0.0
220
0.0
230
1.0
  2
SOLID
 70
               1
 71
               1
 91
        1
 92
        1
 93
        1
 72
               2
 10
-47.90399732082733
 20
831.87400086494745
 40
1.9998779296875
 50
0.0
 51
360.0
 73
               0
 97
        1
330
EF
 75
               0
 76
               1
 98
        1
 10
0.0
 20
0.0
  0
CIRCLE
  5
F1
102
{ACAD_REACTORS
330
F2
102
}
100
AcDbEntity
  8
0
370
              -2
390
0
  6
Continuous
 62
               0
100
AcDbCircle
 10
-47.90399732082733
 20
426.90517852341873
 30
0.0
 40
1.9998779296875
  0
HATCH
  5
F2
100
AcDbEntity
  8
0
370
              -2
390
0
  6
Continuous
 62
               0
100
AcDbHatch
 10
0.0
 20
0.0
 30
0.0
210
0.0
220
0.0
230
1.0
  2
SOLID
 70
               1
 71
               1
 91
        1
 92
        1
 93
        1
 72
               2
 10
-47.90399732082733
 20
426.90517852341873
 40
1.9998779296875
 50
0.0
 51
360.0
 73
               0
 97
        1
330
F1
 75
               0
 76
               1
 98
        1
 10
0.0
 20
0.0
  0
MTEXT
  5
F3
100
AcDbEntity
  8
0
390
0
 62
               0
100
AcDbMText
 10
-81.781614508334314
 20
605.57708801201079
 30
0.0
 40
24.432617187500004
 41
0.0
 71
               1
 72
               1
  1
405
  7
ＭＳ ゴシック
 11
0.0
 21
1.0
 31
0.0
 73
               1
 44
0.7828267384257843
  0
POINT
  5
F4
100
AcDbEntity
  8
Defpoints
370
               0
390
0
 62
               0
100
AcDbPoint
 10
-155.47549970645923
 20
426.90517852341873
 30
0.0
  0
POINT
  5
F5
100
AcDbEntity
  8
Defpoints
370
               0
390
0
 62
               0
100
AcDbPoint
 10
-155.47549970645923
 20
831.87400086494745
 30
0.0
  0
POINT
  5
F6
100
AcDbEntity
  8
Defpoints
370
               0
390
0
 62
               0
100
AcDbPoint
 10
-47.90399732082733
 20
831.87400086494745
 30
0.0
  0
ENDBLK
  5
F7
100
AcDbEntity
  8
notes
390
0
100
AcDbBlockEnd
  0
BLOCK
  5
F8
100
AcDbEntity
  8
notes
390
0
100
AcDbBlockBegin
  2
*D15
 70
               1
 10
0.0
 20
0.0
 30
0.0
  3
*D15
  1

  0
LINE
  5
F9
100
AcDbEntity
  8
0
370
              -2
390
0
  6
Continuous
 62
               0
100
AcDbLine
 10
-781.55230114370352
 20
799.37401028352906
 30
0.0
 11
-853.17927059010253
 21
799.37401028352906
 31
0.0
  0
LINE
  5
FA
100
AcDbEntity
  8
0
370
              -2
390
0
  6
Continuous
 62
               0
100
AcDbLine
 10
-781.55230114370352
 20
459.37401028352906
 30
0.0
 11
-853.17927059010253
 21
459.37401028352906
 31
0.0
  0
LINE
  5
FB
100
AcDbEntity
  8
0
370
              -2
390
0
  6
Continuous
 62
               0
100
AcDbLine
 10
-853.17927059010253
 20
799.37401028352906
 30
0.0
 11
-853.17927059010253
 21
459.37401028352906
 31
0.0
  0
CIRCLE
  5
FC
102
{ACAD_REACTORS
330
FD
102
}
100
AcDbEntity
  8
0
370
              -2
390
0
  6
Continuous
 62
               0
100
AcDbCircle
 10
-853.17927059010253
 20
799.37401028352906
 30
0.0
 40
1.9998779296875
  0
HATCH
  5
FD
100
AcDbEntity
  8
0
370
              -2
390
0
  6
Continuous
 62
               0
100
AcDbHatch
 10
0.0
 20
0.0
 30
0.0
210
0.0
220
0.0
230
1.0
  2
SOLID
 70
               1
 71
               1
 91
        1
 92
        1
 93
        1
 72
               2
 10
-853.17927059010253
 20
799.37401028352906
 40
1.9998779296875
 50
0.0
 51
360.0
 73
               0
 97
        1
330
FC
 75
               0
 76
               1
 98
        1
 10
0.0
 20
0.0
  0
CIRCLE
  5
FE
102
{ACAD_REACTORS
330
FF
102
}
100
AcDbEntity
  8
0
370
              -2
390
0
  6
Continuous
 62
               0
100
AcDbCircle
 10
-853.17927059010253
 20
459.37401028352906
 30
0.0
 40
1.9998779296875
  0
HATCH
  5
FF
100
AcDbEntity
  8
0
370
              -2
390
0
  6
Continuous
 62
               0
100
AcDbHatch
 10
0.0
 20
0.0
 30
0.0
210
0.0
220
0.0
230
1.0
  2
SOLID
 70
               1
 71
               1
 91
        1
 92
        1
 93
        1
 72
               2
 10
-853.17927059010253
 20
459.37401028352906
 40
1.9998779296875
 50
0.0
 51
360.0
 73
               0
 97
        1
330
FE
 75
               0
 76
               1
 98
        1
 10
0.0
 20
0.0
  0
MTEXT
  5
100
100
AcDbEntity
  8
0
390
0
 62
               0
100
AcDbMText
 10
-887.05688777760952
 20
605.56150860135676
 30
0.0
 40
24.432617187500004
 41
0.0
 71
               1
 72
               1
  1
340
  7
ＭＳ ゴシック
 11
0.0
 21
1.0
 31
0.0
 73
               1
 44
0.7828267384257843
  0
POINT
  5
101
100
AcDbEntity
  8
Defpoints
370
               0
390
0
 62
               0
100
AcDbPoint
 10
-756.55230114370352
 20
459.37401028352906
 30
0.0
  0
POINT
  5
102
100
AcDbEntity
  8
Defpoints
370
               0
390
0
 62
               0
100
AcDbPoint
 10
-756.55230114370352
 20
799.37401028352906
 30
0.0
  0
POINT
  5
103
100
AcDbEntity
  8
Defpoints
370
               0
390
0
 62
               0
100
AcDbPoint
 10
-853.17927059010253
 20
799.37401028352906
 30
0.0
  0
ENDBLK
  5
104
100
AcDbEntity
  8
notes
390
0
100
AcDbBlockEnd
  0
BLOCK
  5
105
100
AcDbEntity
  8
notes
390
0
100
AcDbBlockBegin
  2
*D16
 70
               1
 10
0.0
 20
0.0
 30
0.0
  3
*D16
  1

  0
LINE
  5
106
100
AcDbEntity
  8
0
370
              -2
390
0
  6
Continuous
 62
               0
100
AcDbLine
 10
422.79716611898039
 20
590.51432670347276
 30
0.0
 11
457.0374825388717
 21
556.27401028358145
 31
0.0
  0
CIRCLE
  5
107
102
{ACAD_REACTORS
330
108
102
}
100
AcDbEntity
  8
0
370
              -2
390
0
  6
Continuous
 62
               0
100
AcDbCircle
 10
422.79716611898039
 20
590.51432670347276
 30
0.0
 40
1.9998779296875
  0
HATCH
  5
108
100
AcDbEntity
  8
0
370
              -2
390
0
  6
Continuous
 62
               0
100
AcDbHatch
 10
0.0
 20
0.0
 30
0.0
210
0.0
220
0.0
230
1.0
  2
SOLID
 70
               1
 71
               1
 91
        1
 92
        1
 93
        1
 72
               2
 10
422.79716611898039
 20
590.51432670347276
 40
1.9998779296875
 50
0.0
 51
360.0
 73
               0
 97
        1
330
107
 75
               0
 76
               1
 98
        1
 10
0.0
 20
0.0
  0
LINE
  5
109
100
AcDbEntity
  8
0
370
              -2
390
0
  6
Continuous
 62
               0
100
AcDbLine
 10
457.0374825388717
 20
556.27401028358145
 30
0.0
 11
596.4124825388717
 21
556.27401028358145
 31
0.0
  0
MTEXT
  5
10A
100
AcDbEntity
  8
0
390
0
 62
               0
100
AcDbMText
 10
517.0374825388717
 20
590.15162747108843
 30
0.0
 40
24.432617187500004
 41
0.0
 71
               1
 72
               1
  1
φ110
  7
ＭＳ ゴシック
 73
               1
 44
0.7828267384257843
  0
POINT
  5
10B
100
AcDbEntity
  8
Defpoints
370
               0
390
0
 62
               0
100
AcDbPoint
 10
345.01542018848704
 20
668.29607263396611
 30
0.0
  0
POINT
  5
10C
100
AcDbEntity
  8
Defpoints
370
               0
390
0
 62
               0
100
AcDbPoint
 10
422.79716611898039
 20
590.51432670347276
 30
0.0
  0
ENDBLK
  5
10D
100
AcDbEntity
  8
notes
390
0
100
AcDbBlockEnd
  0
BLOCK
  5
10E
100
AcDbEntity
  8
notes
390
0
100
AcDbBlockBegin
  2
*D17
 70
               1
 10
0.0
 20
0.0
 30
0.0
  3
*D17
  1

  0
LINE
  5
10F
100
AcDbEntity
  8
0
370
              -2
390
0
  6
Continuous
 62
               0
100
AcDbLine
 10
453.28594103950309
 20
-519.08120383261121
 30
0.0
 11
473.02256357044098
 21
-519.08120383261121
 31
0.0
  0
LINE
  5
110
100
AcDbEntity
  8
0
370
              -2
390
0
  6
Continuous
 62
               0
100
AcDbLine
 10
453.28594103950309
 20
-384.08120383261121
 30
0.0
 11
473.02256357044098
 21
-384.08120383261121
 31
0.0
  0
LINE
  5
111
100
AcDbEntity
  8
0
370
              -2
390
0
  6
Continuous
 62
               0
100
AcDbLine
 10
473.02256357044098
 20
-384.08120383261121
 30
0.0
 11
473.02256357044098
 21
-228.20620383261121
 31
0.0
  0
LINE
  5
112
100
AcDbEntity
  8
0
370
              -2
390
0
  6
Continuous
 62
               0
100
AcDbLine
 10
473.02256357044098
 20
-519.08120383261121
 30
0.0
 11
473.02256357044098
 21
-384.08120383261121
 31
0.0
  0
CIRCLE
  5
113
102
{ACAD_REACTORS
330
114
102
}
100
AcDbEntity
  8
0
370
              -2
390
0
  6
Continuous
 62
               0
100
AcDbCircle
 10
473.02256357044098
 20
-519.08120383261121
 30
0.0
 40
1.9998779296875
  0
HATCH
  5
114
100
AcDbEntity
  8
0
370
              -2
390
0
  6
Continuous
 62
               0
100
AcDbHatch
 10
0.0
 20
0.0
 30
0.0
210
0.0
220
0.0
230
1.0
  2
SOLID
 70
               1
 71
               1
 91
        1
 92
        1
 93
        1
 72
               2
 10
473.02256357044098
 20
-519.08120383261121
 40
1.9998779296875
 50
0.0
 51
360.0
 73
               0
 97
        1
330
113
 75
               0
 76
               1
 98
        1
 10
0.0
 20
0.0
  0
CIRCLE
  5
115
102
{ACAD_REACTORS
330
116
102
}
100
AcDbEntity
  8
0
370
              -2
390
0
  6
Continuous
 62
               0
100
AcDbCircle
 10
473.02256357044098
 20
-384.08120383261121
 30
0.0
 40
1.9998779296875
  0
HATCH
  5
116
100
AcDbEntity
  8
0
370
              -2
390
0
  6
Continuous
 62
               0
100
AcDbHatch
 10
0.0
 20
0.0
 30
0.0
210
0.0
220
0.0
230
1.0
  2
SOLID
 70
               1
 71
               1
 91
        1
 92
        1
 93
        1
 72
               2
 10
473.02256357044098
 20
-384.08120383261121
 40
1.9998779296875
 50
0.0
 51
360.0
 73
               0
 97
        1
330
115
 75
               0
 76
               1
 98
        1
 10
0.0
 20
0.0
  0
MTEXT
  5
117
100
AcDbEntity
  8
0
390
0
 62
               0
100
AcDbMText
 10
439.14494638293399
 20
-371.08120383261121
 30
0.0
 40
24.432617187500004
 41
0.0
 71
               1
 72
               1
  1
135(深さ)
  7
ＭＳ ゴシック
 11
0.0
 21
1.0
 31
0.0
 73
               1
 44
0.7828267384257843
  0
POINT
  5
118
100
AcDbEntity
  8
Defpoints
370
               0
390
0
 62
               0
100
AcDbPoint
 10
478.28594103950309
 20
-384.08120383261121
 30
0.0
  0
POINT
  5
119
100
AcDbEntity
  8
Defpoints
370
               0
390
0
 62
               0
100
AcDbPoint
 10
478.28594103950309
 20
-519.08120383261121
 30
0.0
  0
POINT
  5
11A
100
AcDbEntity
  8
Defpoints
370
               0
390
0
 62
               0
100
AcDbPoint
 10
473.02256357044098
 20
-519.08120383261121
 30
0.0
  0
ENDBLK
  5
11B
100
AcDbEntity
  8
notes
390
0
100
AcDbBlockEnd
  0
ENDSEC
  0
SECTION
  2
ENTITIES
  0
MTEXT
  5
11C
100
AcDbEntity
  8
template
390
0
 62
               7
100
AcDbMText
 10
-967.99999999976717
 20
-1147.417629233707
 30
0.0
 40
16.288411458333332
 41
0.0
 71
               1
 72
               1
  1
品名
  7
ＭＳ ゴシック
 73
               1
 44
0.7828267384257843
  0
MTEXT
  5
11D
100
AcDbEntity
  8
template
390
0
 62
               7
100
AcDbMText
 10
-967.99999999976717
 20
-1232.417629233707
 30
0.0
 40
16.288411458333332
 41
0.0
 71
               1
 72
               1
  1
仕様
  7
ＭＳ ゴシック
 73
               1
 44
0.7828267384257843
  0
LINE
  5
11E
100
AcDbEntity
  8
template
370
               5
390
0
  6
Continuous
 62
               7
100
AcDbLine
 10
974.99999999976717
 20
-1224.0027073587116
 30
0.0
 11
-975.00000000023283
 21
-1224.0027073587116
 31
0.0
  0
LWPOLYLINE
  5
11F
100
AcDbEntity
  8
template
370
               5
390
0
  6
Continuous
 62
               7
100
AcDbPolyline
 90
        5
 70
             128
 10
975.00000000023283
 20
1405.9972926412884
 10
-974.99999999976717
 20
1405.9972926412884
 10
-974.99999999976717
 20
-1394.0027073587116
 10
975.00000000023283
 20
-1394.0027073587116
 10
975.00000000023283
 20
1405.9972926412884
  0
LINE
  5
120
100
AcDbEntity
  8
template
370
               5
390
0
  6
Continuous
 62
               7
100
AcDbLine
 10
974.99999999976717
 20
-1139.0027073587116
 30
0.0
 11
-975.00000000023283
 21
-1139.0027073587116
 31
0.0
  0
LINE
  5
121
100
AcDbEntity
  8
template
370
               5
390
0
  6
Continuous
 62
               7
100
AcDbLine
 10
975.00000000023283
 20
-1309.0027073587116
 30
0.0
 11
222.00000000023283
 21
-1309.0027073587116
 31
0.0
  0
MTEXT
  5
122
100
AcDbEntity
  8
template
390
0
 62
               7
100
AcDbMText
 10
251.87140625249594
 20
-1338.913101832004
 30
0.0
 40
24.432617187500004
 41
0.0
 71
               1
 72
               1
  1
大洋金物株式会社 ティーフォルム事業部
  7
ＭＳ ゴシック
 73
               1
 44
0.7828267384257843
  0
INSERT
  5
123
100
AcDbEntity
  8
template
390
0
 62
               7
100
AcDbBlockReference
  2
グループ
 10
206741.50762717568
 20
229287.83049787011
 30
0.0
  0
MTEXT
  5
124
100
AcDbEntity
  8
template
390
0
 62
               7
100
AcDbMText
 10
784.00000000049477
 20
-1261.0000901712046
 30
0.0
 40
24.432617187500004
 41
0.0
 71
               1
 72
               1
  1
1:10
  7
ＭＳ ゴシック
 73
               1
 44
0.7828267384257843
  0
MTEXT
  5
125
100
AcDbEntity
  8
template
390
0
 62
               7
100
AcDbMText
 10
731.00000000049477
 20
-1232.417629233707
 30
0.0
 40
16.288411458333332
 41
0.0
 71
               1
 72
               1
  1
縮尺
  7
ＭＳ ゴシック
 73
               1
 44
0.7828267384257843
  0
LINE
  5
126
100
AcDbEntity
  8
template
370
               5
390
0
  6
Continuous
 62
               7
100
AcDbLine
 10
724.00000000049477
 20
-1309.0027073587116
 30
0.0
 11
724.00000000049477
 21
-1224.0027073587116
 31
0.0
  0
MTEXT
  5
127
100
AcDbEntity
  8
template
390
0
 62
               7
100
AcDbMText
 10
480.00000000049477
 20
-1232.417629233707
 30
0.0
 40
16.288411458333332
 41
0.0
 71
               1
 72
               1
  1
容量
  7
ＭＳ ゴシック
 73
               1
 44
0.7828267384257843
  0
MTEXT
  5
128
100
AcDbEntity
  8
template
390
0
 62
               7
100
AcDbMText
 10
533.00000000049477
 20
-1261.0000901712046
 30
0.0
 40
24.432617187500004
 41
0.0
 71
               1
 72
               1
  1
22.5L
  7
ＭＳ ゴシック
 73
               1
 44
0.7828267384257843
  0
LINE
  5
129
100
AcDbEntity
  8
template
370
               5
390
0
  6
Continuous
 62
               7
100
AcDbLine
 10
473.00000000049477
 20
-1309.0027073587116
 30
0.0
 11
473.00000000049477
 21
-1224.0027073587116
 31
0.0
  0
MTEXT
  5
12A
100
AcDbEntity
  8
template
390
0
 62
               7
100
AcDbMText
 10
229.00000000049477
 20
-1147.417629233707
 30
0.0
 40
16.288411458333332
 41
0.0
 71
               1
 72
               1
  1
品番
  7
ＭＳ ゴシック
 73
               1
 44
0.7828267384257843
  0
MTEXT
  5
12B
100
AcDbEntity
  8
template
390
0
 62
               7
100
AcDbMText
 10
229.00000000049477
 20
-1232.417629233707
 30
0.0
 40
16.288411458333332
 41
0.0
 71
               1
 72
               1
  1
重量
  7
ＭＳ ゴシック
 73
               1
 44
0.7828267384257843
  0
MTEXT
  5
12C
100
AcDbEntity
  8
template
390
0
 62
               7
100
AcDbMText
 10
282.00000000049477
 20
-1176.0000901712046
 30
0.0
 40
24.432617187500004
 41
0.0
 71
               1
 72
               1
  1
PLT70-1405
  7
ＭＳ ゴシック
 73
               1
 44
0.7828267384257843
  0
MTEXT
  5
12D
100
AcDbEntity
  8
template
390
0
 62
               7
100
AcDbMText
 10
282.00000000049477
 20
-1261.0000901712046
 30
0.0
 40
24.432617187500004
 41
0.0
 71
               1
 72
               1
  1
21kg
  7
ＭＳ ゴシック
 73
               1
 44
0.7828267384257843
  0
LINE
  5
12E
100
AcDbEntity
  8
template
370
               5
390
0
  6
Continuous
 62
               7
100
AcDbLine
 10
222.00000000049477
 20
-1394.0027073587116
 30
0.0
 11
222.00000000049477
 21
-1139.0027073587116
 31
0.0
  0
MTEXT
  5
12F
100
AcDbEntity
  8
template
390
0
 62
               7
100
AcDbMText
 10
-914.99999999973807
 20
-1176.0000901712046
 30
0.0
 40
24.432617187500004
 41
0.0
 71
               1
 72
               1
  1
洗面器 -SANINDUSA,Comby-
  7
ＭＳ ゴシック
 73
               1
 44
0.7828267384257843
  0
MTEXT
  5
130
100
AcDbEntity
  8
template
390
0
 62
               7
100
AcDbMText
 10
-914.99999999973807
 20
-1261.0000901712046
 30
0.0
 40
24.432617187500004
 41
0.0
 71
               1
 72
               1
  1
カウンタートップ/オーバーフロー無/陶器/ホワイト/背面釉薬あり
  7
ＭＳ ゴシック
 73
               1
 44
1.1307497332816883
  0
MTEXT
  5
131
100
AcDbEntity
  8
template
390
0
 62
               7
100
AcDbMText
 10
-974.99999999953434
 20
-1405.856529415556
 30
0.0
 40
21.717881944444446
 41
0.0
 71
               1
 72
               1
  1
100710SH
  7
ＭＳ ゴシック
 73
               1
 44
0.7828267384257843
  0
LWPOLYLINE
  5
132
100
AcDbEntity
  8
template
370
               5
390
0
  6
Continuous
 62
               7
100
AcDbPolyline
 90
        5
 70
             128
 10
975.00000000023283
 20
1405.9972926412884
 10
-974.99999999976717
 20
1405.9972926412884
 10
-974.99999999976717
 20
-1394.0027073587116
 10
975.00000000023283
 20
-1394.0027073587116
 10
975.00000000023283
 20
1405.9972926412884
  0
MTEXT
  5
133
100
AcDbEntity
  8
notes
390
0
 62
               7
100
AcDbMText
 10
329.75770537188509
 20
993.6719532412535
 30
0.0
 40
24.432617187500004
 41
0.0
 71
               1
 72
               1
  1
カウンター切込寸法
  7
ＭＳ ゴシック
 73
               1
 44
0.7828267384257843
  0
MTEXT
  5
134
100
AcDbEntity
  8
notes
390
0
 62
               7
100
AcDbMText
 10
93.474380515166558
 20
258.63342341678799
 30
0.0
 40
24.432617187500004
 41
764.7717154610109
 71
               1
 72
               1
  1
※陶器製品には寸法公差があります。\P  洗面器の収め方をご確認の上、必ず現物を合わせて\P  カウンターに切込を行ってください。
  7
ＭＳ ゴシック
 73
               1
 44
1.0437689845677123
  0
DIMENSION
  5
135
100
AcDbEntity
  8
notes
370
               5
390
0
  6
Continuous
 62
               7
100
AcDbDimension
  2
*D3
 10
-757.90434505807934
 20
931.84099405090092
 30
0.0
 11
-452.90434505807934
 21
931.84099405090092
 31
0.0
 71
               5
 72
               1
 41
1.0
 42
0.0
  3
tfrom線あり
100
AcDbAlignedDimension
 13
-147.90434505807934
 23
826.84343391409493
 33
0.0
 14
-757.90434505807934
 24
826.84343391409493
 34
0.0
100
AcDbRotatedDimension
1001
ACAD
1000
DSTYLE
1002
{
1070
             279
1070
               2
1070
             340
1005
33
1070
             147
1040
5.0
1002
}
  0
DIMENSION
  5
136
100
AcDbEntity
  8
notes
370
               5
390
0
  6
Continuous
 62
               7
100
AcDbDimension
  2
*D4
 10
-307.90434505807934
 20
326.90516611372004
 30
0.0
 11
-227.90434505807934
 21
326.90516611372004
 31
0.0
 71
               5
 72
               1
 41
1.0
 42
0.0
  3
tfrom線あり
100
AcDbAlignedDimension
 13
-147.90434505807934
 23
437.03933554780087
 33
0.0
 14
-307.90434505807934
 24
425.09431158422376
 34
0.0
100
AcDbRotatedDimension
1001
ACAD
1000
DSTYLE
1002
{
1070
             279
1070
               2
1070
             340
1005
33
1070
             147
1040
5.0
1002
}
  0
DIMENSION
  5
137
100
AcDbEntity
  8
notes
370
               5
390
0
  6
Continuous
 62
               7
100
AcDbDimension
  2
*D5
 10
-307.90434505807934
 20
326.90516611372004
 30
0.0
 11
-512.90434505807934
 21
326.90516611372004
 31
0.0
 71
               5
 72
               1
 41
1.0
 42
0.0
  3
tfrom線あり
100
AcDbAlignedDimension
 13
-717.90434505807934
 23
425.09498390820227
 33
0.0
 14
-307.90434505807934
 24
425.09431158422376
 34
0.0
100
AcDbRotatedDimension
1001
ACAD
1000
DSTYLE
1002
{
1070
             279
1070
               2
1070
             340
1005
33
1070
             147
1040
5.0
1002
}
  0
DIMENSION
  5
138
100
AcDbEntity
  8
notes
370
               5
390
0
  6
Continuous
 62
               7
100
AcDbDimension
  2
*D6
 10
-47.904345058050239
 20
-384.08120383261121
 30
0.0
 11
-47.904345058050239
 21
-494.08120383261121
 31
0.0
 71
               5
 72
               1
 41
1.0
 42
0.0
  3
tfrom線あり
100
AcDbAlignedDimension
 13
-149.90336911275517
 23
-604.08120383261121
 33
0.0
 14
-159.56141638837289
 24
-384.08120383261121
 34
0.0
 50
90.0
100
AcDbRotatedDimension
1001
ACAD
1000
DSTYLE
1002
{
1070
             279
1070
               2
1070
             340
1005
33
1070
             147
1040
5.0
1002
}
  0
DIMENSION
  5
139
100
AcDbEntity
  8
notes
370
               5
390
0
  6
Continuous
 62
               7
100
AcDbDimension
  2
*D7
 10
-147.90434505796293
 20
-754.08120383264031
 30
0.0
 11
-452.90434505796293
 21
-754.08120383264031
 31
0.0
 71
               5
 72
               1
 41
1.0
 42
0.0
  3
tfrom線あり
100
AcDbAlignedDimension
 13
-757.90434505796293
 23
-602.01873120901291
 33
0.0
 14
-147.90434505796293
 24
-602.01873120901291
 34
0.0
100
AcDbRotatedDimension
1001
ACAD
1000
DSTYLE
1002
{
1070
             279
1070
               2
1070
             340
1005
33
1070
             147
1040
5.0
1002
}
  0
DIMENSION
  5
13A
100
AcDbEntity
  8
notes
370
               5
390
0
  6
Continuous
 62
               7
100
AcDbDimension
  2
*D8
 10
269.13175310293445
 20
-644.08120383261121
 30
0.0
 11
370.38175310293445
 21
-644.08120383261121
 31
0.0
 71
               5
 72
               1
 41
1.0
 42
0.0
  3
tfrom線あり
100
AcDbAlignedDimension
 13
471.63175310293445
 23
-542.08120383261121
 33
0.0
 14
269.13175310293445
 24
-541.08120383261121
 34
0.0
100
AcDbRotatedDimension
1001
ACAD
1000
DSTYLE
1002
{
1070
             279
1070
               2
1070
             340
1005
33
1070
             147
1040
5.0
1002
}
  0
DIMENSION
  5
13B
100
AcDbEntity
  8
notes
370
               5
390
0
  6
Continuous
 62
               7
100
AcDbDimension
  2
*D9
 10
169.13175310290535
 20
-384.08120383261121
 30
0.0
 11
164.13175310290535
 21
-464.08120383261121
 31
0.0
 70
             128
 71
               5
 72
               1
 41
1.0
 42
0.0
  3
tfrom線あり
100
AcDbAlignedDimension
 13
270.89756357047008
 23
-544.08120383261121
 33
0.0
 14
278.88443153625121
 24
-384.08120383261121
 34
0.0
 50
90.0
100
AcDbRotatedDimension
1001
ACAD
1000
DSTYLE
1002
{
1070
             279
1070
               2
1070
             340
1005
33
1070
             147
1040
5.0
1002
}
  0
DIMENSION
  5
13C
100
AcDbEntity
  8
notes
370
               5
390
0
  6
Continuous
 62
               7
100
AcDbDimension
  2
*D10
 10
775.60282621960505
 20
-384.08120383261121
 30
0.0
 11
775.60282621960505
 21
-419.08120383261121
 31
0.0
 71
               5
 72
               1
 41
1.0
 42
0.0
  3
tfrom線あり
100
AcDbAlignedDimension
 13
671.16235598979983
 23
-454.08120383261121
 33
0.0
 14
664.19206504453905
 24
-384.08120383261121
 34
0.0
 50
90.0
100
AcDbRotatedDimension
1001
ACAD
1000
DSTYLE
1002
{
1070
             279
1070
               2
1070
             340
1005
33
1070
             147
1040
5.0
1002
}
  0
DIMENSION
  5
13D
100
AcDbEntity
  8
notes
370
               5
390
0
  6
Continuous
 62
               7
100
AcDbDimension
  2
*D11
 10
775.60282621963415
 20
-454.04925353985163
 30
0.0
 11
775.60282621963415
 21
-486.54925353985163
 31
0.0
 71
               5
 72
               1
 41
1.0
 42
0.0
  3
tfrom線あり
100
AcDbAlignedDimension
 13
673.19370750052622
 23
-519.04925353985163
 33
0.0
 14
671.16235598979983
 24
-454.04925353985163
 34
0.0
 50
90.0
100
AcDbRotatedDimension
1001
ACAD
1000
DSTYLE
1002
{
1070
             279
1070
               2
1070
             340
1005
33
1070
             147
1040
5.0
1002
}
  0
DIMENSION
  5
13E
100
AcDbEntity
  8
notes
370
               5
390
0
  6
Continuous
 62
               7
100
AcDbDimension
  2
*D12
 10
269.13175310293445
 20
-709.3849627962627
 30
0.0
 11
419.13175310293445
 21
-709.3849627962627
 31
0.0
 71
               5
 72
               1
 41
1.0
 42
0.0
  3
tfrom線あり
100
AcDbAlignedDimension
 13
569.13175310293445
 23
-598.12995824558311
 33
0.0
 14
269.13175310293445
 24
-542.01873120901291
 34
0.0
100
AcDbRotatedDimension
1001
ACAD
1000
DSTYLE
1002
{
1070
             279
1070
               2
1070
             340
1005
33
1070
             147
1040
5.0
1002
}
  0
DIMENSION
  5
13F
100
AcDbEntity
  8
notes
370
               5
390
0
  6
Continuous
 62
               7
100
AcDbDimension
  2
*D13
 10
-757.90434505796293
 20
-704.08120383264031
 30
0.0
 11
-637.90434505796293
 21
-704.08120383264031
 31
0.0
 71
               5
 72
               1
 41
1.0
 42
0.0
  3
tfrom線あり
100
AcDbAlignedDimension
 13
-517.90434505796293
 23
-542.08120383261121
 33
0.0
 14
-757.90434505796293
 24
-602.01873120901291
 34
0.0
100
AcDbRotatedDimension
1001
ACAD
1000
DSTYLE
1002
{
1070
             279
1070
               2
1070
             340
1005
33
1070
             147
1040
5.0
1002
}
  0
DIMENSION
  5
140
100
AcDbEntity
  8
notes
370
               5
390
0
  6
Continuous
 62
               7
100
AcDbDimension
  2
*D14
 10
-47.90399732082733
 20
831.87400086494745
 30
0.0
 11
-47.90399732082733
 21
629.38958969418309
 31
0.0
 71
               5
 72
               1
 41
1.0
 42
0.0
  3
tfrom線あり
100
AcDbAlignedDimension
 13
-155.47549970645923
 23
426.90517852341873
 33
0.0
 14
-155.47549970645923
 24
831.87400086494745
 34
0.0
 50
90.0
100
AcDbRotatedDimension
1001
ACAD
1000
DSTYLE
1002
{
1070
             279
1070
               2
1070
             340
1005
33
1070
             147
1040
5.0
1002
}
  0
DIMENSION
  5
141
100
AcDbEntity
  8
notes
370
               5
390
0
  6
Continuous
 62
               7
100
AcDbDimension
  2
*D15
 10
-853.17927059010253
 20
799.37401028352906
 30
0.0
 11
-853.17927059010253
 21
629.37401028352906
 31
0.0
 71
               5
 72
               1
 41
1.0
 42
0.0
  3
tfrom線あり
100
AcDbAlignedDimension
 13
-756.55230114370352
 23
459.37401028352906
 33
0.0
 14
-756.55230114370352
 24
799.37401028352906
 34
0.0
 50
90.0
100
AcDbRotatedDimension
1001
ACAD
1000
DSTYLE
1002
{
1070
             279
1070
               2
1070
             340
1005
33
1070
             147
1040
5.0
1002
}
  0
DIMENSION
  5
142
100
AcDbEntity
  8
notes
370
               5
390
0
  6
Continuous
 62
               7
100
AcDbDimension
  2
*D16
 10
345.01542018848704
 20
668.29607263396611
 30
0.0
 11
517.0374825388717
 21
556.27401028358145
 31
0.0
 70
               3
 71
               5
 72
               1
 41
1.0
 42
0.0
  3
tfrom線あり
100
AcDbDiametricDimension
 15
422.79716611898039
 25
590.51432670347276
 35
0.0
 40
48.423119860965961
1001
ACAD
1000
DSTYLE
1002
{
1070
             289
1070
               0
1070
             342
1005
46
1070
             340
1005
33
1070
              73
1070
               1
1070
              74
1070
               1
1070
              75
1070
               1
1070
              76
1070
               1
1070
               3
1000

1070
             174
1070
               0
1070
             147
1040
5.0
1002
}
  0
DIMENSION
  5
143
100
AcDbEntity
  8
notes
370
               5
390
0
  6
Continuous
 62
               7
100
AcDbDimension
  2
*D17
 10
473.02256357044098
 20
-519.08120383261121
 30
0.0
 11
468.02256357044098
 21
-371.08120383261121
 31
0.0
 70
             128
 71
               5
 72
               1
 41
1.0
 42
0.0
  3
tfrom線あり
100
AcDbAlignedDimension
 13
478.28594103950309
 23
-384.08120383261121
 33
0.0
 14
478.28594103950309
 24
-519.08120383261121
 34
0.0
 50
90.0
100
AcDbRotatedDimension
1001
ACAD
1000
DSTYLE
1002
{
1070
             279
1070
               2
1070
             340
1005
33
1070
               3
1000
<>(深さ)
1070
             174
1070
               0
1070
             147
1040
5.0
1002
}
  0
LINE
  5
144
100
AcDbEntity
  8
PLT70-1405
370
              15
390
0
  6
Continuous
 62
               7
100
AcDbLine
 10
-752.90678492130246
 20
-604.08120383261121
 30
0.0
 11
-755.9053210032871
 21
-604.08120383261121
 31
0.0
  0
ARC
  5
145
100
AcDbEntity
  8
PLT70-1405
370
              15
390
0
  6
Continuous
 62
               7
100
AcDbCircle
 10
-755.9053210032871
 20
-602.08120383261121
 30
0.0
 40
1.9999999999679612
100
AcDbArc
 50
178.20999999984039
 51
270.0
  0
LINE
  5
146
100
AcDbEntity
  8
PLT70-1405
370
              15
390
0
  6
Continuous
 62
               7
100
AcDbLine
 10
-149.90336911275517
 20
-604.08120383261121
 30
0.0
 11
-152.90190519473981
 21
-604.08120383261121
 31
0.0
  0
ARC
  5
147
100
AcDbEntity
  8
PLT70-1405
370
              15
390
0
  6
Continuous
 62
               7
100
AcDbCircle
 10
-149.90336911275517
 20
-602.08120383261121
 30
0.0
 40
2.0
100
AcDbArc
 50
270.0
 51
1.7900000001596368
  0
LINE
  5
148
100
AcDbEntity
  8
PLT70-1405
370
              15
390
0
  6
Continuous
 62
               7
100
AcDbLine
 10
-149.90336911275517
 20
-604.08120383261121
 30
0.0
 11
-752.90678492130246
 21
-604.08120383261121
 31
0.0
  0
LINE
  5
149
100
AcDbEntity
  8
PLT70-1405
370
              15
390
0
  6
Continuous
 62
               7
100
AcDbLine
 10
-757.90434505796293
 20
-602.01873120901291
 30
0.0
 11
-751.24483386444626
 21
-388.92502227364457
 31
0.0
  0
LINE
  5
14A
100
AcDbEntity
  8
PLT70-1405
370
              15
390
0
  6
Continuous
 62
               7
100
AcDbLine
 10
-154.56385625159601
 20
-388.92502227364457
 30
0.0
 11
-147.90434505796293
 21
-602.01873120901291
 31
0.0
  0
ARC
  5
14B
100
AcDbEntity
  8
PLT70-1405
370
              15
390
0
  6
Continuous
 62
               7
100
AcDbCircle
 10
-746.24727372766938
 20
-389.08120383261121
 30
0.0
 40
5.0
100
AcDbArc
 50
90.0
 51
178.2099999995383
  0
ARC
  5
14C
100
AcDbEntity
  8
PLT70-1405
370
              15
390
0
  6
Continuous
 62
               7
100
AcDbCircle
 10
-159.56141638837289
 20
-389.08120383261121
 30
0.0
 40
5.0000000000080806
100
AcDbArc
 50
1.7900000004617029
 51
90.0
  0
LINE
  5
14D
100
AcDbEntity
  8
PLT70-1405
370
              15
390
0
  6
Continuous
 62
               7
100
AcDbLine
 10
-149.77846281498205
 20
538.90544954131474
 30
0.0
 11
-149.77846281498205
 21
826.84343391409493
 31
0.0
  0
LINE
  5
14E
100
AcDbEntity
  8
PLT70-1405
370
              15
390
0
  6
Continuous
 62
               7
100
AcDbLine
 10
-756.03022730106022
 20
826.84343391409493
 30
0.0
 11
-756.03022730106022
 21
538.90544954131474
 31
0.0
  0
ARC
  5
14F
100
AcDbEntity
  8
PLT70-1405
370
              15
390
0
  6
Continuous
 62
               7
100
AcDbCircle
 10
-764.49156231008237
 20
536.08637064680806
 30
0.0
 40
8.4214574025617015
100
AcDbArc
 50
354.47595587565246
 51
359.80244179252742
  0
ARC
  5
150
100
AcDbEntity
  8
PLT70-1405
370
              15
390
0
  6
Continuous
 62
               7
100
AcDbCircle
 10
-139.89997738919919
 20
536.12251421509427
 30
0.0
 40
9.8361341711354218
100
AcDbArc
 50
181.60640902769148
 51
184.92007294893273
  0
POLYLINE
  5
151
100
AcDbEntity
  8
PLT70-1405
370
              15
390
0
  6
Continuous
 62
               7
100
AcDb2dPolyline
 66
               1
 10
0.0
 20
0.0
 30
0.0
 75
               5
  0
VERTEX
  5
152
100
AcDbEntity
  8
PLT70-1405
370
              15
390
0
  6
Continuous
 62
               7
100
AcDbVertex
100
AcDb2dVertex
 10
-147.90336911281338
 20
531.90544954131474
 30
0.0
  0
VERTEX
  5
153
100
AcDbEntity
  8
PLT70-1405
370
              15
390
0
  6
Continuous
 62
               7
100
AcDbVertex
100
AcDb2dVertex
 10
-147.90472086769296
 20
532.41838107680087
 30
0.0
  0
VERTEX
  5
154
100
AcDbEntity
  8
PLT70-1405
370
              15
390
0
  6
Continuous
 62
               7
100
AcDbVertex
100
AcDb2dVertex
 10
-147.91481637489051
 20
533.35888651330606
 30
0.0
  0
VERTEX
  5
155
100
AcDbEntity
  8
PLT70-1405
370
              15
390
0
  6
Continuous
 62
               7
100
AcDbVertex
100
AcDb2dVertex
 10
-147.93422997649759
 20
534.1642451758089
 30
0.0
  0
VERTEX
  5
156
100
AcDbEntity
  8
PLT70-1405
370
              15
390
0
  6
Continuous
 62
               7
100
AcDbVertex
100
AcDb2dVertex
 10
-147.96354615251767
 20
534.7810754077218
 30
0.0
  0
VERTEX
  5
157
100
AcDbEntity
  8
PLT70-1405
370
              15
390
0
  6
Continuous
 62
               7
100
AcDbVertex
100
AcDb2dVertex
 10
-147.99843683285872
 20
535.12763051930233
 30
0.0
  0
VERTEX
  5
158
100
AcDbEntity
  8
PLT70-1405
370
              15
390
0
  6
Continuous
 62
               7
100
AcDbVertex
100
AcDb2dVertex
 10
-148.03880569909234
 20
535.34105424620793
 30
0.0
  0
VERTEX
  5
159
100
AcDbEntity
  8
PLT70-1405
370
              15
390
0
  6
Continuous
 62
               7
100
AcDbVertex
100
AcDb2dVertex
 10
-148.12365776539082
 20
535.61567671180819
 30
0.0
  0
VERTEX
  5
15A
100
AcDbEntity
  8
PLT70-1405
370
              15
390
0
  6
Continuous
 62
               7
100
AcDbVertex
100
AcDb2dVertex
 10
-148.34741790569387
 20
536.03923629314522
 30
0.0
  0
VERTEX
  5
15B
100
AcDbEntity
  8
PLT70-1405
370
              15
390
0
  6
Continuous
 62
               7
100
AcDbVertex
100
AcDb2dVertex
 10
-148.48900422395673
 20
536.1839571451128
 30
0.0
  0
SEQEND
  5
15C
100
AcDbEntity
  8
PLT70-1405
370
              15
390
0
  6
Continuous
 62
               7
  0
LINE
  5
15D
100
AcDbEntity
  8
PLT70-1405
370
              15
390
0
  6
Continuous
 62
               7
100
AcDbLine
 10
-749.36948025855236
 20
438.56321338922135
 30
0.0
 11
-749.36948025855236
 21
822.05901642280514
 31
0.0
  0
LINE
  5
15E
100
AcDbEntity
  8
PLT70-1405
370
              15
390
0
  6
Continuous
 62
               7
100
AcDbLine
 10
-154.56385625159601
 20
822.05901642280514
 30
0.0
 11
-154.56385625159601
 21
438.56321338922135
 31
0.0
  0
LINE
  5
15F
100
AcDbEntity
  8
PLT70-1405
370
              15
390
0
  6
Continuous
 62
               7
100
AcDbLine
 10
-194.94985333032673
 20
799.40519966874854
 30
0.0
 11
-708.96977852738928
 21
799.40519966874854
 31
0.0
  0
ARC
  5
160
100
AcDbEntity
  8
PLT70-1405
370
              15
390
0
  6
Continuous
 62
               7
100
AcDbCircle
 10
-194.92496637196746
 20
789.44379127954016
 30
0.0
 40
9.9614394771704937
100
AcDbArc
 50
359.856856108442
 51
90.143143886536066
  0
LINE
  5
161
100
AcDbEntity
  8
PLT70-1405
370
              15
390
0
  6
Continuous
 62
               7
100
AcDbLine
 10
-718.96977852738928
 20
789.40519966874854
 30
0.0
 11
-718.96977852744749
 21
469.36030563109671
 31
0.0
  0
LINE
  5
162
100
AcDbEntity
  8
PLT70-1405
370
              15
390
0
  6
Continuous
 62
               7
100
AcDbLine
 10
-184.96355798264267
 20
469.36030563272652
 30
0.0
 11
-184.96355798275908
 21
789.41890432030777
 31
0.0
  0
ARC
  5
163
100
AcDbEntity
  8
PLT70-1405
370
              15
390
0
  6
Continuous
 62
               7
100
AcDbCircle
 10
-194.92496637185104
 20
469.33541867279564
 30
0.0
 40
9.96143947722652
100
AcDbArc
 50
269.85685611346491
 51
0.1431438955755198
  0
ARC
  5
164
100
AcDbEntity
  8
PLT70-1405
370
              15
390
0
  6
Continuous
 62
               7
100
AcDbCircle
 10
-708.95154635055223
 20
469.33541867279564
 30
0.0
 40
9.9614394771681685
100
AcDbArc
 50
179.85685611379881
 51
270.14314388620045
  0
LINE
  5
165
100
AcDbEntity
  8
PLT70-1405
370
              15
390
0
  6
Continuous
 62
               7
100
AcDbLine
 10
-710.85883678589016
 20
459.37401028352906
 30
0.0
 11
-194.94985333026852
 21
459.37401028352906
 31
0.0
  0
POLYLINE
  5
166
100
AcDbEntity
  8
PLT70-1405
370
              15
390
0
  6
Continuous
 62
               7
100
AcDb2dPolyline
 66
               1
 10
0.0
 20
0.0
 30
0.0
 75
               5
  0
VERTEX
  5
167
100
AcDbEntity
  8
PLT70-1405
370
              15
390
0
  6
Continuous
 62
               7
100
AcDbVertex
100
AcDb2dVertex
 10
-744.33375436766073
 20
433.56565325250267
 30
0.0
  0
VERTEX
  5
168
100
AcDbEntity
  8
PLT70-1405
370
              15
390
0
  6
Continuous
 62
               7
100
AcDbVertex
100
AcDb2dVertex
 10
-745.30813263286836
 20
433.66251180219115
 30
0.0
  0
VERTEX
  5
169
100
AcDbEntity
  8
PLT70-1405
370
              15
390
0
  6
Continuous
 62
               7
100
AcDbVertex
100
AcDb2dVertex
 10
-746.24511244206224
 20
433.94746842348832
 30
0.0
  0
VERTEX
  5
16A
100
AcDbEntity
  8
PLT70-1405
370
              15
390
0
  6
Continuous
 62
               7
100
AcDbVertex
100
AcDb2dVertex
 10
-747.10873076168355
 20
434.40958594970289
 30
0.0
  0
VERTEX
  5
16B
100
AcDbEntity
  8
PLT70-1405
370
              15
390
0
  6
Continuous
 62
               7
100
AcDbVertex
100
AcDb2dVertex
 10
-747.86584030918311
 20
435.03112744793179
 30
0.0
  0
VERTEX
  5
16C
100
AcDbEntity
  8
PLT70-1405
370
              15
390
0
  6
Continuous
 62
               7
100
AcDbVertex
100
AcDb2dVertex
 10
-748.48738180729561
 20
435.78823699531495
 30
0.0
  0
VERTEX
  5
16D
100
AcDbEntity
  8
PLT70-1405
370
              15
390
0
  6
Continuous
 62
               7
100
AcDbVertex
100
AcDb2dVertex
 10
-748.94949933345197
 20
436.65185531493626
 30
0.0
  0
VERTEX
  5
16E
100
AcDbEntity
  8
PLT70-1405
370
              15
390
0
  6
Continuous
 62
               7
100
AcDbVertex
100
AcDb2dVertex
 10
-749.23445595486555
 20
437.58883512413013
 30
0.0
  0
VERTEX
  5
16F
100
AcDbEntity
  8
PLT70-1405
370
              15
390
0
  6
Continuous
 62
               7
100
AcDbVertex
100
AcDb2dVertex
 10
-749.33131450449582
 20
438.56321338922135
 30
0.0
  0
SEQEND
  5
170
100
AcDbEntity
  8
PLT70-1405
370
              15
390
0
  6
Continuous
 62
               7
  0
LINE
  5
171
100
AcDbEntity
  8
PLT70-1405
370
              15
390
0
  6
Continuous
 62
               7
100
AcDbLine
 10
-159.56141638837289
 20
433.56565325250267
 30
0.0
 11
-744.33375436766073
 21
433.56565325250267
 31
0.0
  0
POLYLINE
  5
172
100
AcDbEntity
  8
PLT70-1405
370
              15
390
0
  6
Continuous
 62
               7
100
AcDb2dPolyline
 66
               1
 10
0.0
 20
0.0
 30
0.0
 75
               5
  0
VERTEX
  5
173
100
AcDbEntity
  8
PLT70-1405
370
              15
390
0
  6
Continuous
 62
               7
100
AcDbVertex
100
AcDb2dVertex
 10
-154.56385625159601
 20
438.56321338922135
 30
0.0
  0
VERTEX
  5
174
100
AcDbEntity
  8
PLT70-1405
370
              15
390
0
  6
Continuous
 62
               7
100
AcDbVertex
100
AcDb2dVertex
 10
-154.66071480128448
 20
437.58883512413013
 30
0.0
  0
VERTEX
  5
175
100
AcDbEntity
  8
PLT70-1405
370
              15
390
0
  6
Continuous
 62
               7
100
AcDbVertex
100
AcDb2dVertex
 10
-154.94567142269807
 20
436.65185531493626
 30
0.0
  0
VERTEX
  5
176
100
AcDbEntity
  8
PLT70-1405
370
              15
390
0
  6
Continuous
 62
               7
100
AcDbVertex
100
AcDb2dVertex
 10
-155.40778894891264
 20
435.78823699531495
 30
0.0
  0
VERTEX
  5
177
100
AcDbEntity
  8
PLT70-1405
370
              15
390
0
  6
Continuous
 62
               7
100
AcDbVertex
100
AcDb2dVertex
 10
-156.02933044696692
 20
435.03112744793179
 30
0.0
  0
VERTEX
  5
178
100
AcDbEntity
  8
PLT70-1405
370
              15
390
0
  6
Continuous
 62
               7
100
AcDbVertex
100
AcDb2dVertex
 10
-156.78643999446649
 20
434.40958594970289
 30
0.0
  0
VERTEX
  5
179
100
AcDbEntity
  8
PLT70-1405
370
              15
390
0
  6
Continuous
 62
               7
100
AcDbVertex
100
AcDb2dVertex
 10
-157.6500583140878
 20
433.94746842348832
 30
0.0
  0
VERTEX
  5
17A
100
AcDbEntity
  8
PLT70-1405
370
              15
390
0
  6
Continuous
 62
               7
100
AcDbVertex
100
AcDb2dVertex
 10
-158.58703812316526
 20
433.66251180219115
 30
0.0
  0
VERTEX
  5
17B
100
AcDbEntity
  8
PLT70-1405
370
              15
390
0
  6
Continuous
 62
               7
100
AcDbVertex
100
AcDb2dVertex
 10
-159.56141638837289
 20
433.56565325250267
 30
0.0
  0
SEQEND
  5
17C
100
AcDbEntity
  8
PLT70-1405
370
              15
390
0
  6
Continuous
 62
               7
  0
LINE
  5
17D
100
AcDbEntity
  8
PLT70-1405
370
              15
390
0
  6
Continuous
 62
               7
100
AcDbLine
 10
-716.19298787310254
 20
783.365244035871
 30
0.0
 11
-719.33021221600939
 21
790.52431164527661
 31
0.0
  0
LINE
  5
17E
100
AcDbEntity
  8
PLT70-1405
370
              15
390
0
  6
Continuous
 62
               7
100
AcDbLine
 10
-708.23850954434602
 20
799.37842611127417
 30
0.0
 11
-705.21848057163879
 21
793.36514172333409
 31
0.0
  0
POLYLINE
  5
17F
100
AcDbEntity
  8
PLT70-1405
370
              15
390
0
  6
Continuous
 62
               7
100
AcDb2dPolyline
 66
               1
 10
0.0
 20
0.0
 30
0.0
 75
               5
  0
VERTEX
  5
180
100
AcDbEntity
  8
PLT70-1405
370
              15
390
0
  6
Continuous
 62
               7
100
AcDbVertex
100
AcDb2dVertex
 10
-197.72802573954687
 20
796.62702725935378
 30
0.0
  0
VERTEX
  5
181
100
AcDbEntity
  8
PLT70-1405
370
              15
390
0
  6
Continuous
 62
               7
100
AcDbVertex
100
AcDb2dVertex
 10
-195.78314241289627
 20
796.43048272180022
 30
0.0
  0
VERTEX
  5
182
100
AcDbEntity
  8
PLT70-1405
370
              15
390
0
  6
Continuous
 62
               7
100
AcDbVertex
100
AcDb2dVertex
 10
-193.91274026676547
 20
795.85903024606523
 30
0.0
  0
VERTEX
  5
183
100
AcDbEntity
  8
PLT70-1405
370
              15
390
0
  6
Continuous
 62
               7
100
AcDbVertex
100
AcDb2dVertex
 10
-192.18844815314515
 20
794.93455415513017
 30
0.0
  0
VERTEX
  5
184
100
AcDbEntity
  8
PLT70-1405
370
              15
390
0
  6
Continuous
 62
               7
100
AcDbVertex
100
AcDb2dVertex
 10
-190.67629949987167
 20
793.69245815151953
 30
0.0
  0
VERTEX
  5
185
100
AcDbEntity
  8
PLT70-1405
370
              15
390
0
  6
Continuous
 62
               7
100
AcDbVertex
100
AcDb2dVertex
 10
-189.43420349626103
 20
792.18030949824606
 30
0.0
  0
VERTEX
  5
186
100
AcDbEntity
  8
PLT70-1405
370
              15
390
0
  6
Continuous
 62
               7
100
AcDbVertex
100
AcDb2dVertex
 10
-188.50972740538418
 20
790.45601738474215
 30
0.0
  0
VERTEX
  5
187
100
AcDbEntity
  8
PLT70-1405
370
              15
390
0
  6
Continuous
 62
               7
100
AcDbVertex
100
AcDb2dVertex
 10
-187.93827492959099
 20
788.58561523849494
 30
0.0
  0
VERTEX
  5
188
100
AcDbEntity
  8
PLT70-1405
370
              15
390
0
  6
Continuous
 62
               7
100
AcDbVertex
100
AcDb2dVertex
 10
-187.74173039209563
 20
786.64073191184434
 30
0.0
  0
SEQEND
  5
189
100
AcDbEntity
  8
PLT70-1405
370
              15
390
0
  6
Continuous
 62
               7
  0
LINE
  5
18A
100
AcDbEntity
  8
PLT70-1405
370
              15
390
0
  6
Continuous
 62
               7
100
AcDbLine
 10
-197.72802573954687
 20
796.62702725935378
 30
0.0
 11
-194.94985333026852
 21
799.40519966874854
 31
0.0
  0
LINE
  5
18B
100
AcDbEntity
  8
PLT70-1405
370
              15
390
0
  6
Continuous
 62
               7
100
AcDbLine
 10
-184.96355798270088
 20
789.41890432112268
 30
0.0
 11
-187.74173039209563
 21
786.64073191184434
 31
0.0
  0
LINE
  5
18C
100
AcDbEntity
  8
PLT70-1405
370
              15
390
0
  6
Continuous
 62
               7
100
AcDbLine
 10
-705.21746039990103
 20
465.41508840062306
 30
0.0
 11
-710.85883678589016
 21
459.37401028352906
 31
0.0
  0
LINE
  5
18D
100
AcDbEntity
  8
PLT70-1405
370
              15
390
0
  6
Continuous
 62
               7
100
AcDbLine
 10
-718.96977852744749
 20
469.36030563109671
 30
0.0
 11
-716.18578695092583
 21
475.41450153643382
 31
0.0
  0
POLYLINE
  5
18E
100
AcDbEntity
  8
PLT70-1405
370
              15
390
0
  6
Continuous
 62
               7
100
AcDb2dPolyline
 66
               1
 10
0.0
 20
0.0
 30
0.0
 75
               5
  0
VERTEX
  5
18F
100
AcDbEntity
  8
PLT70-1405
370
              15
390
0
  6
Continuous
 62
               7
100
AcDbVertex
100
AcDb2dVertex
 10
-187.74173039209563
 20
472.13847804049146
 30
0.0
  0
VERTEX
  5
190
100
AcDbEntity
  8
PLT70-1405
370
              15
390
0
  6
Continuous
 62
               7
100
AcDbVertex
100
AcDb2dVertex
 10
-187.93827492959099
 20
470.19359471360804
 30
0.0
  0
VERTEX
  5
191
100
AcDbEntity
  8
PLT70-1405
370
              15
390
0
  6
Continuous
 62
               7
100
AcDbVertex
100
AcDb2dVertex
 10
-188.50972740538418
 20
468.32319256753544
 30
0.0
  0
VERTEX
  5
192
100
AcDbEntity
  8
PLT70-1405
370
              15
390
0
  6
Continuous
 62
               7
100
AcDbVertex
100
AcDb2dVertex
 10
-189.43420349626103
 20
466.59890045403154
 30
0.0
  0
VERTEX
  5
193
100
AcDbEntity
  8
PLT70-1405
370
              15
390
0
  6
Continuous
 62
               7
100
AcDbVertex
100
AcDb2dVertex
 10
-190.67629949987167
 20
465.08675180075807
 30
0.0
  0
VERTEX
  5
194
100
AcDbEntity
  8
PLT70-1405
370
              15
390
0
  6
Continuous
 62
               7
100
AcDbVertex
100
AcDb2dVertex
 10
-192.18844815314515
 20
463.84465579714742
 30
0.0
  0
VERTEX
  5
195
100
AcDbEntity
  8
PLT70-1405
370
              15
390
0
  6
Continuous
 62
               7
100
AcDbVertex
100
AcDb2dVertex
 10
-193.91274026676547
 20
462.92017970627057
 30
0.0
  0
VERTEX
  5
196
100
AcDbEntity
  8
PLT70-1405
370
              15
390
0
  6
Continuous
 62
               7
100
AcDbVertex
100
AcDb2dVertex
 10
-195.78314241289627
 20
462.34872723047738
 30
0.0
  0
VERTEX
  5
197
100
AcDbEntity
  8
PLT70-1405
370
              15
390
0
  6
Continuous
 62
               7
100
AcDbVertex
100
AcDb2dVertex
 10
-197.72802573954687
 20
462.15218269298202
 30
0.0
  0
SEQEND
  5
198
100
AcDbEntity
  8
PLT70-1405
370
              15
390
0
  6
Continuous
 62
               7
  0
LINE
  5
199
100
AcDbEntity
  8
PLT70-1405
370
              15
390
0
  6
Continuous
 62
               7
100
AcDbLine
 10
-187.74173039209563
 20
472.13847804049146
 30
0.0
 11
-184.96355798270088
 21
469.36030563115492
 31
0.0
  0
LINE
  5
19A
100
AcDbEntity
  8
PLT70-1405
370
              15
390
0
  6
Continuous
 62
               7
100
AcDbLine
 10
-194.94985333026852
 20
459.37401028352906
 30
0.0
 11
-197.72802573954687
 21
462.15218269298202
 31
0.0
  0
LINE
  5
19B
100
AcDbEntity
  8
PLT70-1405
370
              15
390
0
  6
Continuous
 62
               7
100
AcDbLine
 10
-303.00560214539291
 20
796.58810816824553
 30
0.0
 11
-197.72802573954687
 21
796.62702725935378
 31
0.0
  0
POLYLINE
  5
19C
100
AcDbEntity
  8
PLT70-1405
370
              15
390
0
  6
Continuous
 62
               7
100
AcDb2dPolyline
 66
               1
 10
0.0
 20
0.0
 30
0.0
 75
               5
  0
VERTEX
  5
19D
100
AcDbEntity
  8
PLT70-1405
370
              15
390
0
  6
Continuous
 62
               7
100
AcDbVertex
100
AcDb2dVertex
 10
-317.90034386346815
 20
795.82424452234409
 30
0.0
  0
VERTEX
  5
19E
100
AcDbEntity
  8
PLT70-1405
370
              15
390
0
  6
Continuous
 62
               7
100
AcDbVertex
100
AcDb2dVertex
 10
-317.65893064596457
 20
795.9441993694345
 30
0.0
  0
VERTEX
  5
19F
100
AcDbEntity
  8
PLT70-1405
370
              15
390
0
  6
Continuous
 62
               7
100
AcDbVertex
100
AcDb2dVertex
 10
-317.07019382208819
 20
796.0608065877168
 30
0.0
  0
VERTEX
  5
1A0
100
AcDbEntity
  8
PLT70-1405
370
              15
390
0
  6
Continuous
 62
               7
100
AcDbVertex
100
AcDb2dVertex
 10
-316.1479941624566
 20
796.17132086565834
 30
0.0
  0
VERTEX
  5
1A1
100
AcDbEntity
  8
PLT70-1405
370
              15
390
0
  6
Continuous
 62
               7
100
AcDbVertex
100
AcDb2dVertex
 10
-314.91404323239112
 20
796.27314033950097
 30
0.0
  0
VERTEX
  5
1A2
100
AcDbEntity
  8
PLT70-1405
370
              15
390
0
  6
Continuous
 62
               7
100
AcDbVertex
100
AcDb2dVertex
 10
-313.3973922309815
 20
796.36386784914066
 30
0.0
  0
VERTEX
  5
1A3
100
AcDbEntity
  8
PLT70-1405
370
              15
390
0
  6
Continuous
 62
               7
100
AcDbVertex
100
AcDb2dVertex
 10
-311.63374803279294
 20
796.44136737546069
 30
0.0
  0
VERTEX
  5
1A4
100
AcDbEntity
  8
PLT70-1405
370
              15
390
0
  6
Continuous
 62
               7
100
AcDbVertex
100
AcDb2dVertex
 10
-309.66463253088295
 20
796.5038143286074
 30
0.0
  0
VERTEX
  5
1A5
100
AcDbEntity
  8
PLT70-1405
370
              15
390
0
  6
Continuous
 62
               7
100
AcDbVertex
100
AcDb2dVertex
 10
-307.53640507871751
 20
796.54973850512761
 30
0.0
  0
VERTEX
  5
1A6
100
AcDbEntity
  8
PLT70-1405
370
              15
390
0
  6
Continuous
 62
               7
100
AcDbVertex
100
AcDb2dVertex
 10
-305.2991710397182
 20
796.57805870144512
 30
0.0
  0
VERTEX
  5
1A7
100
AcDbEntity
  8
PLT70-1405
370
              15
390
0
  6
Continuous
 62
               7
100
AcDbVertex
100
AcDb2dVertex
 10
-303.00560214539291
 20
796.58810816824553
 30
0.0
  0
SEQEND
  5
1A8
100
AcDbEntity
  8
PLT70-1405
370
              15
390
0
  6
Continuous
 62
               7
  0
LINE
  5
1A9
100
AcDbEntity
  8
PLT70-1405
370
              15
390
0
  6
Continuous
 62
               7
100
AcDbLine
 10
-319.22874509217218
 20
793.36396280469489
 30
0.0
 11
-317.90034386346815
 21
795.82424452234409
 31
0.0
  0
LINE
  5
1AA
100
AcDbEntity
  8
PLT70-1405
370
              15
390
0
  6
Continuous
 62
               7
100
AcDbLine
 10
-359.02606886584545
 20
793.3538961179147
 30
0.0
 11
-319.22874509217218
 21
793.36396280469489
 31
0.0
  0
LINE
  5
1AB
100
AcDbEntity
  8
PLT70-1405
370
              15
390
0
  6
Continuous
 62
               7
100
AcDbLine
 10
-672.27491022780305
 20
793.3538961179147
 30
0.0
 11
-340.40429269697051
 21
793.3538961179147
 31
0.0
  0
LINE
  5
1AC
100
AcDbEntity
  8
PLT70-1405
370
              15
390
0
  6
Continuous
 62
               7
100
AcDbLine
 10
-706.18953235406661
 20
793.36547727239667
 30
0.0
 11
-672.67461195890792
 21
793.3538961179147
 31
0.0
  0
LINE
  5
1AD
100
AcDbEntity
  8
PLT70-1405
370
              15
390
0
  6
Continuous
 62
               7
100
AcDbLine
 10
-716.18578695092583
 20
475.41450153643382
 30
0.0
 11
-716.19298787310254
 21
783.365244035871
 31
0.0
  0
LINE
  5
1AE
100
AcDbEntity
  8
PLT70-1405
370
              15
390
0
  6
Continuous
 62
               7
100
AcDbLine
 10
-187.74173039209563
 20
786.64073191184434
 30
0.0
 11
-187.74173039209563
 21
472.13847804049146
 31
0.0
  0
LINE
  5
1AF
100
AcDbEntity
  8
PLT70-1405
370
              15
390
0
  6
Continuous
 62
               7
100
AcDbLine
 10
-671.21123282064218
 20
465.42750975335366
 30
0.0
 11
-706.18213428388117
 21
465.41473603711347
 31
0.0
  0
LINE
  5
1B0
100
AcDbEntity
  8
PLT70-1405
370
              15
390
0
  6
Continuous
 62
               7
100
AcDbLine
 10
-342.02773064607754
 20
465.42750975335366
 30
0.0
 11
-670.8115310894791
 21
465.42750975335366
 31
0.0
  0
LINE
  5
1B1
100
AcDbEntity
  8
PLT70-1405
370
              15
390
0
  6
Continuous
 62
               7
100
AcDbLine
 10
-319.22930531698512
 20
465.41628471875447
 30
0.0
 11
-360.64950681501068
 21
465.42750975335366
 31
0.0
  0
LINE
  5
1B2
100
AcDbEntity
  8
PLT70-1405
370
              15
390
0
  6
Continuous
 62
               7
100
AcDbLine
 10
-317.90034386346815
 20
462.95496542999172
 30
0.0
 11
-319.22930531698512
 21
465.41628471875447
 31
0.0
  0
POLYLINE
  5
1B3
100
AcDbEntity
  8
PLT70-1405
370
              15
390
0
  6
Continuous
 62
               7
100
AcDb2dPolyline
 66
               1
 10
0.0
 20
0.0
 30
0.0
 75
               5
  0
VERTEX
  5
1B4
100
AcDbEntity
  8
PLT70-1405
370
              15
390
0
  6
Continuous
 62
               7
100
AcDbVertex
100
AcDb2dVertex
 10
-303.00560214539291
 20
462.19110178403207
 30
0.0
  0
VERTEX
  5
1B5
100
AcDbEntity
  8
PLT70-1405
370
              15
390
0
  6
Continuous
 62
               7
100
AcDbVertex
100
AcDb2dVertex
 10
-305.2991710397182
 20
462.20115125083248
 30
0.0
  0
VERTEX
  5
1B6
100
AcDbEntity
  8
PLT70-1405
370
              15
390
0
  6
Continuous
 62
               7
100
AcDbVertex
100
AcDb2dVertex
 10
-307.53640507871751
 20
462.22947144709178
 30
0.0
  0
VERTEX
  5
1B7
100
AcDbEntity
  8
PLT70-1405
370
              15
390
0
  6
Continuous
 62
               7
100
AcDbVertex
100
AcDb2dVertex
 10
-309.66463253088295
 20
462.27539562367019
 30
0.0
  0
VERTEX
  5
1B8
100
AcDbEntity
  8
PLT70-1405
370
              15
390
0
  6
Continuous
 62
               7
100
AcDbVertex
100
AcDb2dVertex
 10
-311.63374803279294
 20
462.3378425767587
 30
0.0
  0
VERTEX
  5
1B9
100
AcDbEntity
  8
PLT70-1405
370
              15
390
0
  6
Continuous
 62
               7
100
AcDbVertex
100
AcDb2dVertex
 10
-313.3973922309815
 20
462.41534210302052
 30
0.0
  0
VERTEX
  5
1BA
100
AcDbEntity
  8
PLT70-1405
370
              15
390
0
  6
Continuous
 62
               7
100
AcDbVertex
100
AcDb2dVertex
 10
-314.91404323239112
 20
462.50606961271842
 30
0.0
  0
VERTEX
  5
1BB
100
AcDbEntity
  8
PLT70-1405
370
              15
390
0
  6
Continuous
 62
               7
100
AcDbVertex
100
AcDb2dVertex
 10
-316.1479941624566
 20
462.60788908661925
 30
0.0
  0
VERTEX
  5
1BC
100
AcDbEntity
  8
PLT70-1405
370
              15
390
0
  6
Continuous
 62
               7
100
AcDbVertex
100
AcDb2dVertex
 10
-317.07019382208819
 20
462.7184033645608
 30
0.0
  0
VERTEX
  5
1BD
100
AcDbEntity
  8
PLT70-1405
370
              15
390
0
  6
Continuous
 62
               7
100
AcDbVertex
100
AcDb2dVertex
 10
-317.65893064596457
 20
462.8350105828431
 30
0.0
  0
VERTEX
  5
1BE
100
AcDbEntity
  8
PLT70-1405
370
              15
390
0
  6
Continuous
 62
               7
100
AcDbVertex
100
AcDb2dVertex
 10
-317.90034386346815
 20
462.95496542999172
 30
0.0
  0
SEQEND
  5
1BF
100
AcDbEntity
  8
PLT70-1405
370
              15
390
0
  6
Continuous
 62
               7
  0
LINE
  5
1C0
100
AcDbEntity
  8
PLT70-1405
370
              15
390
0
  6
Continuous
 62
               7
100
AcDbLine
 10
-197.72802573954687
 20
462.15218269298202
 30
0.0
 11
-307.53640507871751
 21
462.22947144709178
 31
0.0
  0
LINE
  5
1C1
100
AcDbEntity
  8
PLT70-1405
370
              15
390
0
  6
Continuous
 62
               7
100
AcDbLine
 10
-154.56385625159601
 20
438.56321338922135
 30
0.0
 11
-147.90434505807934
 21
431.90370219570468
 31
0.0
  0
ARC
  5
1C2
100
AcDbEntity
  8
PLT70-1405
370
              15
390
0
  6
Continuous
 62
               7
100
AcDbCircle
 10
-152.90365296613891
 20
431.90544996704557
 30
0.0
 40
4.9993082135722888
100
AcDbArc
 50
270.02003075541927
 51
359.97996916185997
  0
LINE
  5
1C3
100
AcDbEntity
  8
PLT70-1405
370
              15
390
0
  6
Continuous
 62
               7
100
AcDbLine
 10
-152.90190519479802
 20
426.9061420589278
 30
0.0
 11
-159.56141638837289
 21
433.56565325250267
 31
0.0
  0
LINE
  5
1C4
100
AcDbEntity
  8
PLT70-1405
370
              15
390
0
  6
Continuous
 62
               7
100
AcDbLine
 10
-744.33375436766073
 20
433.56565325250267
 30
0.0
 11
-752.90678492130246
 21
426.9061420589278
 31
0.0
  0
ARC
  5
1C5
100
AcDbEntity
  8
PLT70-1405
370
              15
390
0
  6
Continuous
 62
               7
100
AcDbCircle
 10
-752.90503714996157
 20
431.90544996704557
 30
0.0
 40
4.9993082135722888
100
AcDbArc
 50
180.0200307554193
 51
269.97996924458073
  0
LINE
  5
1C6
100
AcDbEntity
  8
PLT70-1405
370
              15
390
0
  6
Continuous
 62
               7
100
AcDbLine
 10
-757.90434505807934
 20
431.90370219570468
 30
0.0
 11
-749.23445595486555
 21
437.58883512413013
 31
0.0
  0
LINE
  5
1C7
100
AcDbEntity
  8
PLT70-1405
370
              15
390
0
  6
Continuous
 62
               7
100
AcDbLine
 10
-149.77943876030622
 20
538.90544954131474
 30
0.0
 11
-149.77943876030622
 21
826.84343391409493
 31
0.0
  0
ARC
  5
1C8
100
AcDbEntity
  8
PLT70-1405
370
              15
390
0
  6
Continuous
 62
               7
100
AcDbCircle
 10
-121.62745278159855
 20
537.78328974804026
 30
0.0
 40
28.174342177717758
100
AcDbArc
 50
177.71735464074993
 51
185.86264535915541
  0
LINE
  5
1C9
100
AcDbEntity
  8
PLT70-1405
370
              15
390
0
  6
Continuous
 62
               7
100
AcDbLine
 10
-147.99809974315576
 20
534.90544954143115
 30
0.0
 11
-149.65443251346005
 21
534.90544954143115
 31
0.0
  0
ARC
  5
1CA
100
AcDbEntity
  8
PLT70-1405
370
              15
390
0
  6
Continuous
 62
               7
100
AcDbCircle
 10
-171.97346174158156
 20
532.65471704633092
 30
0.0
 40
24.080776144429354
100
AcDbArc
 50
358.21696794734686
 51
5.3630320525414845
  0
LINE
  5
1CB
100
AcDbEntity
  8
PLT70-1405
370
              15
390
0
  6
Continuous
 62
               7
100
AcDbLine
 10
-147.90336911281338
 20
431.90370219570468
 30
0.0
 11
-147.90434505807934
 21
531.90544954131474
 31
0.0
  0
LINE
  5
1CC
100
AcDbEntity
  8
PLT70-1405
370
              15
390
0
  6
Continuous
 62
               7
100
AcDbLine
 10
-756.15425760264043
 20
534.90544954143115
 30
0.0
 11
-757.81059037300292
 21
534.90544954143115
 31
0.0
  0
ARC
  5
1CD
100
AcDbEntity
  8
PLT70-1405
370
              15
390
0
  6
Continuous
 62
               7
100
AcDbCircle
 10
-788.12140693556285
 20
537.90642620148719
 30
0.0
 40
32.10770152763839
100
AcDbArc
 50
354.63696794763666
 51
1.7830320523128764
  0
LINE
  5
1CE
100
AcDbEntity
  8
PLT70-1405
370
              15
390
0
  6
Continuous
 62
               7
100
AcDbLine
 10
-756.02925135579426
 20
826.84343391409493
 30
0.0
 11
-756.02925135579426
 21
538.90544954131474
 31
0.0
  0
LINE
  5
1CF
100
AcDbEntity
  8
PLT70-1405
370
              15
390
0
  6
Continuous
 62
               7
100
AcDbLine
 10
-757.90434505807934
 20
531.90544954131474
 30
0.0
 11
-757.90532100340351
 21
431.90370219570468
 31
0.0
  0
ARC
  5
1D0
100
AcDbEntity
  8
PLT70-1405
370
              15
390
0
  6
Continuous
 62
               7
100
AcDbCircle
 10
-733.83522837329656
 20
532.65471704633092
 30
0.0
 40
24.080776145744643
100
AcDbArc
 50
174.63696794760543
 51
181.78303205241994
  0
LINE
  5
1D1
100
AcDbEntity
  8
PLT70-1405
370
              15
390
0
  6
Continuous
 62
               7
100
AcDbLine
 10
-752.90678492130246
 20
426.9061420589278
 30
0.0
 11
-152.90190519479802
 21
426.90516611372004
 31
0.0
  0
POLYLINE
  5
1D2
100
AcDbEntity
  8
PLT70-1405
370
              15
390
0
  6
Continuous
 62
               7
100
AcDb2dPolyline
 66
               1
 10
0.0
 20
0.0
 30
0.0
 75
               5
  0
VERTEX
  5
1D3
100
AcDbEntity
  8
PLT70-1405
370
              15
390
0
  6
Continuous
 62
               7
100
AcDbVertex
100
AcDb2dVertex
 10
-307.90434505807934
 20
785.83794917483465
 30
0.0
  0
VERTEX
  5
1D4
100
AcDbEntity
  8
PLT70-1405
370
              15
390
0
  6
Continuous
 62
               7
100
AcDbVertex
100
AcDb2dVertex
 10
-308.09893887588987
 20
787.78436844513635
 30
0.0
  0
VERTEX
  5
1D5
100
AcDbEntity
  8
PLT70-1405
370
              15
390
0
  6
Continuous
 62
               7
100
AcDbVertex
100
AcDb2dVertex
 10
-308.66948784975102
 20
789.65612838222296
 30
0.0
  0
VERTEX
  5
1D6
100
AcDbEntity
  8
PLT70-1405
370
              15
390
0
  6
Continuous
 62
               7
100
AcDbVertex
100
AcDb2dVertex
 10
-309.59410727786599
 20
791.38143338126247
 30
0.0
  0
VERTEX
  5
1D7
100
AcDbEntity
  8
PLT70-1405
370
              15
390
0
  6
Continuous
 62
               7
100
AcDbVertex
100
AcDb2dVertex
 10
-310.83733128116
 20
792.89410544934799
 30
0.0
  0
VERTEX
  5
1D8
100
AcDbEntity
  8
PLT70-1405
370
              15
390
0
  6
Continuous
 62
               7
100
AcDbVertex
100
AcDb2dVertex
 10
-312.35147317848168
 20
794.13612261254457
 30
0.0
  0
VERTEX
  5
1D9
100
AcDbEntity
  8
PLT70-1405
370
              15
390
0
  6
Continuous
 62
               7
100
AcDbVertex
100
AcDb2dVertex
 10
-314.07845461746911
 20
795.05984448085655
 30
0.0
  0
VERTEX
  5
1DA
100
AcDbEntity
  8
PLT70-1405
370
              15
390
0
  6
Continuous
 62
               7
100
AcDbVertex
100
AcDb2dVertex
 10
-315.95203330146614
 20
795.6298396034108
 30
0.0
  0
VERTEX
  5
1DB
100
AcDbEntity
  8
PLT70-1405
370
              15
390
0
  6
Continuous
 62
               7
100
AcDbVertex
100
AcDb2dVertex
 10
-317.90034386346815
 20
795.82424452234409
 30
0.0
  0
SEQEND
  5
1DC
100
AcDbEntity
  8
PLT70-1405
370
              15
390
0
  6
Continuous
 62
               7
  0
POLYLINE
  5
1DD
100
AcDbEntity
  8
PLT70-1405
370
              15
390
0
  6
Continuous
 62
               7
100
AcDb2dPolyline
 66
               1
 10
0.0
 20
0.0
 30
0.0
 75
               5
  0
VERTEX
  5
1DE
100
AcDbEntity
  8
PLT70-1405
370
              15
390
0
  6
Continuous
 62
               7
100
AcDbVertex
100
AcDb2dVertex
 10
-317.90034386346815
 20
462.95496542999172
 30
0.0
  0
VERTEX
  5
1DF
100
AcDbEntity
  8
PLT70-1405
370
              15
390
0
  6
Continuous
 62
               7
100
AcDbVertex
100
AcDb2dVertex
 10
-315.95203330146614
 20
463.14937034880859
 30
0.0
  0
VERTEX
  5
1E0
100
AcDbEntity
  8
PLT70-1405
370
              15
390
0
  6
Continuous
 62
               7
100
AcDbVertex
100
AcDb2dVertex
 10
-314.07845461746911
 20
463.71936547147925
 30
0.0
  0
VERTEX
  5
1E1
100
AcDbEntity
  8
PLT70-1405
370
              15
390
0
  6
Continuous
 62
               7
100
AcDbVertex
100
AcDb2dVertex
 10
-312.35147317848168
 20
464.64308733973303
 30
0.0
  0
VERTEX
  5
1E2
100
AcDbEntity
  8
PLT70-1405
370
              15
390
0
  6
Continuous
 62
               7
100
AcDbVertex
100
AcDb2dVertex
 10
-310.83733128116
 20
465.88510450292961
 30
0.0
  0
VERTEX
  5
1E3
100
AcDbEntity
  8
PLT70-1405
370
              15
390
0
  6
Continuous
 62
               7
100
AcDbVertex
100
AcDb2dVertex
 10
-309.59410727786599
 20
467.39777657107334
 30
0.0
  0
VERTEX
  5
1E4
100
AcDbEntity
  8
PLT70-1405
370
              15
390
0
  6
Continuous
 62
               7
100
AcDbVertex
100
AcDb2dVertex
 10
-308.66948784975102
 20
469.12308157005464
 30
0.0
  0
VERTEX
  5
1E5
100
AcDbEntity
  8
PLT70-1405
370
              15
390
0
  6
Continuous
 62
               7
100
AcDbVertex
100
AcDb2dVertex
 10
-308.09893887588987
 20
470.99484150719945
 30
0.0
  0
VERTEX
  5
1E6
100
AcDbEntity
  8
PLT70-1405
370
              15
390
0
  6
Continuous
 62
               7
100
AcDbVertex
100
AcDb2dVertex
 10
-307.90434505807934
 20
472.94126077744295
 30
0.0
  0
SEQEND
  5
1E7
100
AcDbEntity
  8
PLT70-1405
370
              15
390
0
  6
Continuous
 62
               7
  0
LINE
  5
1E8
100
AcDbEntity
  8
PLT70-1405
370
              15
390
0
  6
Continuous
 62
               7
100
AcDbLine
 10
-307.90434505807934
 20
472.94126077744295
 30
0.0
 11
-307.90434505807934
 21
783.08962433462148
 31
0.0
  0
LINE
  5
1E9
100
AcDbEntity
  8
PLT70-1405
370
              15
390
0
  6
Continuous
 62
               7
100
AcDbLine
 10
-307.90434505807934
 20
785.83794917483465
 30
0.0
 11
-309.23274628666695
 21
783.37766745712725
 31
0.0
  0
POLYLINE
  5
1EA
100
AcDbEntity
  8
PLT70-1405
370
              15
390
0
  6
Continuous
 62
               7
100
AcDb2dPolyline
 66
               1
 10
0.0
 20
0.0
 30
0.0
 75
               5
  0
VERTEX
  5
1EB
100
AcDbEntity
  8
PLT70-1405
370
              15
390
0
  6
Continuous
 62
               7
100
AcDbVertex
100
AcDb2dVertex
 10
-309.23274628666695
 20
783.37766745712725
 30
0.0
  0
VERTEX
  5
1EC
100
AcDbEntity
  8
PLT70-1405
370
              15
390
0
  6
Continuous
 62
               7
100
AcDbVertex
100
AcDb2dVertex
 10
-309.42734010447748
 20
785.32408672742895
 30
0.0
  0
VERTEX
  5
1ED
100
AcDbEntity
  8
PLT70-1405
370
              15
390
0
  6
Continuous
 62
               7
100
AcDbVertex
100
AcDb2dVertex
 10
-309.99788907845505
 20
787.19584666451556
 30
0.0
  0
VERTEX
  5
1EE
100
AcDbEntity
  8
PLT70-1405
370
              15
390
0
  6
Continuous
 62
               7
100
AcDbVertex
100
AcDb2dVertex
 10
-310.9225085065118
 20
788.92115166361327
 30
0.0
  0
VERTEX
  5
1EF
100
AcDbEntity
  8
PLT70-1405
370
              15
390
0
  6
Continuous
 62
               7
100
AcDbVertex
100
AcDb2dVertex
 10
-312.16573250974761
 20
790.43382373164059
 30
0.0
  0
VERTEX
  5
1F0
100
AcDbEntity
  8
PLT70-1405
370
              15
390
0
  6
Continuous
 62
               7
100
AcDbVertex
100
AcDb2dVertex
 10
-313.67987440706929
 20
791.67584089483717
 30
0.0
  0
VERTEX
  5
1F1
100
AcDbEntity
  8
PLT70-1405
370
              15
390
0
  6
Continuous
 62
               7
100
AcDbVertex
100
AcDb2dVertex
 10
-315.40685584617313
 20
792.59956276314915
 30
0.0
  0
VERTEX
  5
1F2
100
AcDbEntity
  8
PLT70-1405
370
              15
390
0
  6
Continuous
 62
               7
100
AcDbVertex
100
AcDb2dVertex
 10
-317.28043453017017
 20
793.1695578857034
 30
0.0
  0
VERTEX
  5
1F3
100
AcDbEntity
  8
PLT70-1405
370
              15
390
0
  6
Continuous
 62
               7
100
AcDbVertex
100
AcDb2dVertex
 10
-319.22874509217218
 20
793.36396280469489
 30
0.0
  0
SEQEND
  5
1F4
100
AcDbEntity
  8
PLT70-1405
370
              15
390
0
  6
Continuous
 62
               7
  0
LINE
  5
1F5
100
AcDbEntity
  8
PLT70-1405
370
              15
390
0
  6
Continuous
 62
               7
100
AcDbLine
 10
-309.23274628666695
 20
783.37766745712725
 30
0.0
 11
-309.2333065114799
 21
475.40258006626391
 31
0.0
  0
LINE
  5
1F6
100
AcDbEntity
  8
PLT70-1405
370
              15
390
0
  6
Continuous
 62
               7
100
AcDbLine
 10
-309.2333065114799
 20
475.40258006626391
 30
0.0
 11
-307.90434505807934
 21
472.94126077744295
 31
0.0
  0
POLYLINE
  5
1F7
100
AcDbEntity
  8
PLT70-1405
370
              15
390
0
  6
Continuous
 62
               7
100
AcDb2dPolyline
 66
               1
 10
0.0
 20
0.0
 30
0.0
 75
               5
  0
VERTEX
  5
1F8
100
AcDbEntity
  8
PLT70-1405
370
              15
390
0
  6
Continuous
 62
               7
100
AcDbVertex
100
AcDb2dVertex
 10
-319.22930531698512
 20
465.41628471875447
 30
0.0
  0
VERTEX
  5
1F9
100
AcDbEntity
  8
PLT70-1405
370
              15
390
0
  6
Continuous
 62
               7
100
AcDbVertex
100
AcDb2dVertex
 10
-317.28099475498311
 20
465.61068963774596
 30
0.0
  0
VERTEX
  5
1FA
100
AcDbEntity
  8
PLT70-1405
370
              15
390
0
  6
Continuous
 62
               7
100
AcDbVertex
100
AcDb2dVertex
 10
-315.40741607098607
 20
466.180684760242
 30
0.0
  0
VERTEX
  5
1FB
100
AcDbEntity
  8
PLT70-1405
370
              15
390
0
  6
Continuous
 62
               7
100
AcDbVertex
100
AcDb2dVertex
 10
-313.68043463199865
 20
467.1044066286704
 30
0.0
  0
VERTEX
  5
1FC
100
AcDbEntity
  8
PLT70-1405
370
              15
390
0
  6
Continuous
 62
               7
100
AcDbVertex
100
AcDb2dVertex
 10
-312.16629273456056
 20
468.34642379186698
 30
0.0
  0
VERTEX
  5
1FD
100
AcDbEntity
  8
PLT70-1405
370
              15
390
0
  6
Continuous
 62
               7
100
AcDbVertex
100
AcDb2dVertex
 10
-310.92306873126654
 20
469.85909585983609
 30
0.0
  0
VERTEX
  5
1FE
100
AcDbEntity
  8
PLT70-1405
370
              15
390
0
  6
Continuous
 62
               7
100
AcDbVertex
100
AcDb2dVertex
 10
-309.99844930326799
 20
471.58440085899201
 30
0.0
  0
VERTEX
  5
1FF
100
AcDbEntity
  8
PLT70-1405
370
              15
390
0
  6
Continuous
 62
               7
100
AcDbVertex
100
AcDb2dVertex
 10
-309.42790032929042
 20
473.45616079602041
 30
0.0
  0
VERTEX
  5
200
100
AcDbEntity
  8
PLT70-1405
370
              15
390
0
  6
Continuous
 62
               7
100
AcDbVertex
100
AcDb2dVertex
 10
-309.2333065114799
 20
475.40258006626391
 30
0.0
  0
SEQEND
  5
201
100
AcDbEntity
  8
PLT70-1405
370
              15
390
0
  6
Continuous
 62
               7
  0
CIRCLE
  5
202
100
AcDbEntity
  8
PLT70-1405
370
              15
390
0
  6
Continuous
 62
               7
100
AcDbCircle
 10
-517.90434505807934
 20
629.37401028352906
 30
0.0
 40
23.500000000007866
  0
LINE
  5
203
100
AcDbEntity
  8
PLT70-1405
370
              15
390
0
  6
Continuous
 62
               7
100
AcDbLine
 10
-149.77846281498205
 20
538.90544954131474
 30
0.0
 11
-149.77943876030622
 21
538.90544954131474
 31
0.0
  0
LINE
  5
204
100
AcDbEntity
  8
PLT70-1405
370
              15
390
0
  6
Continuous
 62
               7
100
AcDbLine
 10
-756.02925135579426
 20
538.90544954131474
 30
0.0
 11
-756.03022730106022
 21
538.90544954131474
 31
0.0
  0
POLYLINE
  5
205
100
AcDbEntity
  8
PLT70-1405
370
              15
390
0
  6
Continuous
 62
               7
100
AcDb2dPolyline
 66
               1
 10
0.0
 20
0.0
 30
0.0
 75
               5
  0
VERTEX
  5
206
100
AcDbEntity
  8
PLT70-1405
370
              15
390
0
  6
Continuous
 62
               7
100
AcDbVertex
100
AcDb2dVertex
 10
-756.15425760264043
 20
534.90544954143115
 30
0.0
  0
VERTEX
  5
207
100
AcDbEntity
  8
PLT70-1405
370
              15
390
0
  6
Continuous
 62
               7
100
AcDbVertex
100
AcDb2dVertex
 10
-756.11584691598546
 20
535.29563018542831
 30
0.0
  0
VERTEX
  5
208
100
AcDbEntity
  8
PLT70-1405
370
              15
390
0
  6
Continuous
 62
               7
100
AcDbVertex
100
AcDb2dVertex
 10
-756.1138339083991
 20
535.30562206319883
 30
0.0
  0
SEQEND
  5
209
100
AcDbEntity
  8
PLT70-1405
370
              15
390
0
  6
Continuous
 62
               7
  0
LINE
  5
20A
100
AcDbEntity
  8
PLT70-1405
370
              15
390
0
  6
Continuous
 62
               7
100
AcDbLine
 10
-149.69148998806486
 20
535.28876099179615
 30
0.0
 11
-149.65443251346005
 21
534.90544954143115
 31
0.0
  0
POLYLINE
  5
20B
100
AcDbEntity
  8
PLT70-1405
370
              15
390
0
  6
Continuous
 62
               7
100
AcDb2dPolyline
 66
               1
 10
0.0
 20
0.0
 30
0.0
 75
               5
  0
VERTEX
  5
20C
100
AcDbEntity
  8
PLT70-1405
370
              15
390
0
  6
Continuous
 62
               7
100
AcDbVertex
100
AcDb2dVertex
 10
-757.81059037300292
 20
534.90544954143115
 30
0.0
  0
VERTEX
  5
20D
100
AcDbEntity
  8
PLT70-1405
370
              15
390
0
  6
Continuous
 62
               7
100
AcDbVertex
100
AcDb2dVertex
 10
-757.77217968628975
 20
535.29563018542831
 30
0.0
  0
VERTEX
  5
20E
100
AcDbEntity
  8
PLT70-1405
370
              15
390
0
  6
Continuous
 62
               7
100
AcDbVertex
100
AcDb2dVertex
 10
-757.65842372737825
 20
535.67081640611286
 30
0.0
  0
VERTEX
  5
20F
100
AcDbEntity
  8
PLT70-1405
370
              15
390
0
  6
Continuous
 62
               7
100
AcDbVertex
100
AcDb2dVertex
 10
-757.47369407396764
 20
536.0165900074353
 30
0.0
  0
VERTEX
  5
210
100
AcDbEntity
  8
PLT70-1405
370
              15
390
0
  6
Continuous
 62
               7
100
AcDbVertex
100
AcDb2dVertex
 10
-757.22508978308178
 20
536.31966310369899
 30
0.0
  0
VERTEX
  5
211
100
AcDbEntity
  8
PLT70-1405
370
              15
390
0
  6
Continuous
 62
               7
100
AcDbVertex
100
AcDb2dVertex
 10
-756.92216457810719
 20
536.56838876593974
 30
0.0
  0
VERTEX
  5
212
100
AcDbEntity
  8
PLT70-1405
370
              15
390
0
  6
Continuous
 62
               7
100
AcDbVertex
100
AcDb2dVertex
 10
-756.57655970484484
 20
536.75320860641659
 30
0.0
  0
VERTEX
  5
213
100
AcDbEntity
  8
PLT70-1405
370
              15
390
0
  6
Continuous
 62
               7
100
AcDbVertex
100
AcDb2dVertex
 10
-756.20155656477436
 20
536.86702010218869
 30
0.0
  0
VERTEX
  5
214
100
AcDbEntity
  8
PLT70-1405
370
              15
390
0
  6
Continuous
 62
               7
100
AcDbVertex
100
AcDb2dVertex
 10
-756.04624971258454
 20
536.89161920009064
 30
0.0
  0
SEQEND
  5
215
100
AcDbEntity
  8
PLT70-1405
370
              15
390
0
  6
Continuous
 62
               7
  0
POLYLINE
  5
216
100
AcDbEntity
  8
PLT70-1405
370
              15
390
0
  6
Continuous
 62
               7
100
AcDb2dPolyline
 66
               1
 10
0.0
 20
0.0
 30
0.0
 75
               5
  0
VERTEX
  5
217
100
AcDbEntity
  8
PLT70-1405
370
              15
390
0
  6
Continuous
 62
               7
100
AcDbVertex
100
AcDb2dVertex
 10
-149.762440405495
 20
536.89161920038168
 30
0.0
  0
VERTEX
  5
218
100
AcDbEntity
  8
PLT70-1405
370
              15
390
0
  6
Continuous
 62
               7
100
AcDbVertex
100
AcDb2dVertex
 10
-149.60713355126791
 20
536.86702010218869
 30
0.0
  0
VERTEX
  5
219
100
AcDbEntity
  8
PLT70-1405
370
              15
390
0
  6
Continuous
 62
               7
100
AcDbVertex
100
AcDb2dVertex
 10
-149.23213041125564
 20
536.75320860641659
 30
0.0
  0
VERTEX
  5
21A
100
AcDbEntity
  8
PLT70-1405
370
              15
390
0
  6
Continuous
 62
               7
100
AcDbVertex
100
AcDb2dVertex
 10
-148.88652553799329
 20
536.56838876593974
 30
0.0
  0
VERTEX
  5
21B
100
AcDbEntity
  8
PLT70-1405
370
              15
390
0
  6
Continuous
 62
               7
100
AcDbVertex
100
AcDb2dVertex
 10
-148.5836003330769
 20
536.31966310369899
 30
0.0
  0
VERTEX
  5
21C
100
AcDbEntity
  8
PLT70-1405
370
              15
390
0
  6
Continuous
 62
               7
100
AcDbVertex
100
AcDb2dVertex
 10
-148.33499604207464
 20
536.0165900074353
 30
0.0
  0
VERTEX
  5
21D
100
AcDbEntity
  8
PLT70-1405
370
              15
390
0
  6
Continuous
 62
               7
100
AcDbVertex
100
AcDb2dVertex
 10
-148.15026638878044
 20
535.67081640611286
 30
0.0
  0
VERTEX
  5
21E
100
AcDbEntity
  8
PLT70-1405
370
              15
390
0
  6
Continuous
 62
               7
100
AcDbVertex
100
AcDb2dVertex
 10
-148.03651042986894
 20
535.29563018542831
 30
0.0
  0
VERTEX
  5
21F
100
AcDbEntity
  8
PLT70-1405
370
              15
390
0
  6
Continuous
 62
               7
100
AcDbVertex
100
AcDb2dVertex
 10
-147.99809974315576
 20
534.90544954143115
 30
0.0
  0
SEQEND
  5
220
100
AcDbEntity
  8
PLT70-1405
370
              15
390
0
  6
Continuous
 62
               7
  0
LINE
  5
221
100
AcDbEntity
  8
PLT70-1405
370
              15
390
0
  6
Continuous
 62
               7
100
AcDbLine
 10
-147.90336911281338
 20
531.90544954131474
 30
0.0
 11
-147.90434505807934
 21
531.90544954131474
 31
0.0
  0
LINE
  5
222
100
AcDbEntity
  8
PLT70-1405
370
              15
390
0
  6
Continuous
 62
               7
100
AcDbLine
 10
-757.90434505807934
 20
531.90544954131474
 30
0.0
 11
-757.90532100340351
 21
531.90544954131474
 31
0.0
  0
LINE
  5
223
100
AcDbEntity
  8
PLT70-1405
370
              15
390
0
  6
Continuous
 62
               7
100
AcDbLine
 10
-752.90678492130246
 20
426.9061420589278
 30
0.0
 11
-752.90678492130246
 21
426.90516611372004
 31
0.0
  0
LINE
  5
224
100
AcDbEntity
  8
PLT70-1405
370
              15
390
0
  6
Continuous
 62
               7
100
AcDbLine
 10
-757.90434505807934
 20
431.90370219570468
 30
0.0
 11
-757.90532100340351
 21
431.90370219570468
 31
0.0
  0
LINE
  5
225
100
AcDbEntity
  8
PLT70-1405
370
              15
390
0
  6
Continuous
 62
               7
100
AcDbLine
 10
-152.90190519479802
 20
426.90516611372004
 30
0.0
 11
-152.90190519479802
 21
426.9061420589278
 31
0.0
  0
LINE
  5
226
100
AcDbEntity
  8
PLT70-1405
370
              15
390
0
  6
Continuous
 62
               7
100
AcDbLine
 10
-147.90336911281338
 20
431.90370219570468
 30
0.0
 11
-147.90434505807934
 21
431.90370219570468
 31
0.0
  0
LINE
  5
227
100
AcDbEntity
  8
PLT70-1405
370
              15
390
0
  6
Continuous
 62
               7
100
AcDbLine
 10
496.82431024196558
 20
-526.01936712712632
 30
0.0
 11
504.82945659442339
 21
-519.30225177519605
 31
0.0
  0
LINE
  5
228
100
AcDbEntity
  8
PLT70-1405
370
              15
390
0
  6
Continuous
 62
               7
100
AcDbLine
 10
438.23360405646963
 20
-519.29097769132932
 30
0.0
 11
446.25218633882469
 21
-526.01936712712632
 31
0.0
  0
ARC
  5
229
100
AcDbEntity
  8
PLT70-1405
370
              15
390
0
  6
Continuous
 62
               7
100
AcDbCircle
 10
524.59234725753777
 20
-546.59382086424739
 30
0.0
 40
20.000000000007777
100
AcDbArc
 50
91.618803991848452
 51
162.78080620204861
  0
LINE
  5
22A
100
AcDbEntity
  8
PLT70-1405
370
              15
390
0
  6
Continuous
 62
               7
100
AcDbLine
 10
569.03799841774162
 20
-604.08120383261121
 30
0.0
 11
672.0367126353085
 21
-604.08120383261121
 31
0.0
  0
ARC
  5
22B
100
AcDbEntity
  8
PLT70-1405
370
              15
390
0
  6
Continuous
 62
               7
100
AcDbCircle
 10
569.03799841774162
 20
-599.08120383261121
 30
0.0
 40
5.0
100
AcDbArc
 50
180.0
 51
270.0
  0
LINE
  5
22C
100
AcDbEntity
  8
PLT70-1405
370
              15
390
0
  6
Continuous
 62
               7
100
AcDbLine
 10
564.03799841774162
 20
-544.08120383261121
 30
0.0
 11
564.03799841774162
 21
-599.08120383261121
 31
0.0
  0
LINE
  5
22D
100
AcDbEntity
  8
PLT70-1405
370
              15
390
0
  6
Continuous
 62
               7
100
AcDbLine
 10
575.03799841774162
 20
-544.08120383261121
 30
0.0
 11
575.03799841774162
 21
-592.08120383261121
 31
0.0
  0
ARC
  5
22E
100
AcDbEntity
  8
PLT70-1405
370
              15
390
0
  6
Continuous
 62
               7
100
AcDbCircle
 10
559.03799841774162
 20
-544.08120383261121
 30
0.0
 40
5.0
100
AcDbArc
 50
0.0
 51
90.0
  0
LINE
  5
22F
100
AcDbEntity
  8
PLT70-1405
370
              15
390
0
  6
Continuous
 62
               7
100
AcDbLine
 10
548.03799841774162
 20
-539.08120383261121
 30
0.0
 11
559.03799841774162
 21
-539.08120383261121
 31
0.0
  0
ARC
  5
230
100
AcDbEntity
  8
PLT70-1405
370
              15
390
0
  6
Continuous
 62
               7
100
AcDbCircle
 10
548.03799841774162
 20
-541.08120383261121
 30
0.0
 40
2.0
100
AcDbArc
 50
90.0
 51
180.0
  0
LINE
  5
231
100
AcDbEntity
  8
PLT70-1405
370
              15
390
0
  6
Continuous
 62
               7
100
AcDbLine
 10
546.03799841774162
 20
-542.08120383261121
 30
0.0
 11
546.03799841774162
 21
-541.08120383261121
 31
0.0
  0
ARC
  5
232
100
AcDbEntity
  8
PLT70-1405
370
              15
390
0
  6
Continuous
 62
               7
100
AcDbCircle
 10
544.03799841774162
 20
-542.08120383261121
 30
0.0
 40
2.0
100
AcDbArc
 50
270.0
 51
0.0
  0
LINE
  5
233
100
AcDbEntity
  8
PLT70-1405
370
              15
390
0
  6
Continuous
 62
               7
100
AcDbLine
 10
544.03799841774162
 20
-544.08120383261121
 30
0.0
 11
540.93592755112331
 21
-544.08120383261121
 31
0.0
  0
ARC
  5
234
100
AcDbEntity
  8
PLT70-1405
370
              15
390
0
  6
Continuous
 62
               7
100
AcDbCircle
 10
540.93592755112331
 20
-542.08120383261121
 30
0.0
 40
1.9999999999586453
100
AcDbArc
 50
183.00000000048513
 51
270.0
  0
LINE
  5
235
100
AcDbEntity
  8
PLT70-1405
370
              15
390
0
  6
Continuous
 62
               7
100
AcDbLine
 10
538.35654372657882
 20
-531.07827372293104
 30
0.0
 11
538.93866848165635
 21
-542.18587574511184
 31
0.0
  0
ARC
  5
236
100
AcDbEntity
  8
PLT70-1405
370
              15
390
0
  6
Continuous
 62
               7
100
AcDbCircle
 10
533.36339605273679
 20
-531.33995350412442
 30
0.0
 40
5.0000000000128688
100
AcDbArc
 50
3.0000000004153256
 51
91.618803991505644
  0
LINE
  5
237
100
AcDbEntity
  8
PLT70-1405
370
              15
390
0
  6
Continuous
 62
               7
100
AcDbLine
 10
533.22214754862944
 20
-526.34194901629235
 30
0.0
 11
524.02735324105015
 21
-526.60180291291908
 31
0.0
  0
LINE
  5
238
100
AcDbEntity
  8
PLT70-1405
370
              15
390
0
  6
Continuous
 62
               7
100
AcDbLine
 10
496.03824829048244
 20
-542.08120383261121
 30
0.0
 11
503.57840380561538
 21
-542.08120383261121
 31
0.0
  0
ARC
  5
239
100
AcDbEntity
  8
PLT70-1405
370
              15
390
0
  6
Continuous
 62
               7
100
AcDbCircle
 10
496.03824829048244
 20
-541.08120383261121
 30
0.0
 40
1.0
100
AcDbArc
 50
180.0
 51
270.0
  0
LINE
  5
23A
100
AcDbEntity
  8
PLT70-1405
370
              15
390
0
  6
Continuous
 62
               7
100
AcDbLine
 10
495.03824829042424
 20
-541.08120383261121
 30
0.0
 11
495.03824829042424
 21
-529.84958934274619
 31
0.0
  0
ARC
  5
23B
100
AcDbEntity
  8
PLT70-1405
370
              15
390
0
  6
Continuous
 62
               7
100
AcDbCircle
 10
500.03824829036603
 20
-529.84958934274619
 30
0.0
 40
5.0000000000358229
100
AcDbArc
 50
130.00000000004388
 51
180.0
  0
LINE
  5
23C
100
AcDbEntity
  8
PLT70-1405
370
              15
390
0
  6
Continuous
 62
               7
100
AcDbLine
 10
623.03262564114993
 20
-513.79982428651419
 30
0.0
 11
504.82945659442339
 21
-519.30225177519605
 31
0.0
  0
LINE
  5
23D
100
AcDbEntity
  8
PLT70-1405
370
              15
390
0
  6
Continuous
 62
               7
100
AcDbLine
 10
623.3433723502676
 20
-524.79543415972148
 30
0.0
 11
549.97691951907473
 21
-526.86884200500208
 31
0.0
  0
ARC
  5
23E
100
AcDbEntity
  8
PLT70-1405
370
              15
390
0
  6
Continuous
 62
               7
100
AcDbCircle
 10
622.75012863281881
 20
-503.80381531090825
 30
0.0
 40
10.000000000003888
100
AcDbArc
 50
271.61880399184855
 51
356.99999999991775
  0
LINE
  5
23F
100
AcDbEntity
  8
PLT70-1405
370
              15
390
0
  6
Continuous
 62
               7
100
AcDbLine
 10
638.78992345026927
 20
-388.81952405141783
 30
0.0
 11
632.73642398044467
 21
-504.32717487329501
 31
0.0
  0
ARC
  5
240
100
AcDbEntity
  8
PLT70-1405
370
              15
390
0
  6
Continuous
 62
               7
100
AcDbCircle
 10
643.78307112393668
 20
-389.08120383261121
 30
0.0
 40
5.0
100
AcDbArc
 50
90.0
 51
176.9999999995847
  0
LINE
  5
241
100
AcDbEntity
  8
PLT70-1405
370
              15
390
0
  6
Continuous
 62
               7
100
AcDbLine
 10
664.19206504453905
 20
-384.08120383261121
 30
0.0
 11
643.78307112393668
 21
-384.08120383261121
 31
0.0
  0
ARC
  5
242
100
AcDbEntity
  8
PLT70-1405
370
              15
390
0
  6
Continuous
 62
               7
100
AcDbCircle
 10
664.19206504453905
 20
-389.08120383261121
 30
0.0
 40
5.0000000000062625
100
AcDbArc
 50
1.7899999997950178
 51
89.999999999999986
  0
LINE
  5
243
100
AcDbEntity
  8
PLT70-1405
370
              15
390
0
  6
Continuous
 62
               7
100
AcDbLine
 10
674.03824829042424
 20
-602.12598971647094
 30
0.0
 11
669.18962518137414
 21
-388.92502227364457
 31
0.0
  0
LINE
  5
244
100
AcDbEntity
  8
PLT70-1405
370
              15
390
0
  6
Continuous
 62
               7
100
AcDbLine
 10
664.5322266217554
 20
-592.04996752084116
 30
0.0
 11
658.40692052763188
 21
-396.04996752084116
 31
0.0
  0
ARC
  5
245
100
AcDbEntity
  8
PLT70-1405
370
              15
390
0
  6
Continuous
 62
               7
100
AcDbCircle
 10
663.53271459438838
 20
-592.08120383261121
 30
0.0
 40
1.0
100
AcDbArc
 50
270.0
 51
1.7899999984408057
  0
ARC
  5
246
100
AcDbEntity
  8
PLT70-1405
370
              15
390
0
  6
Continuous
 62
               7
100
AcDbCircle
 10
503.57840380561538
 20
-540.08120383261121
 30
0.0
 40
2.0
100
AcDbArc
 50
270.0
 51
342.78080620202621
  0
LINE
  5
247
100
AcDbEntity
  8
PLT70-1405
370
              15
390
0
  6
Continuous
 62
               7
100
AcDbLine
 10
496.03824829048244
 20
-542.08120383261121
 30
0.0
 11
447.03824829042424
 21
-542.08120383261121
 31
0.0
  0
ARC
  5
248
100
AcDbEntity
  8
PLT70-1405
370
              15
390
0
  6
Continuous
 62
               7
100
AcDbCircle
 10
447.03824829042424
 20
-541.08120383261121
 30
0.0
 40
1.0
100
AcDbArc
 50
270.0
 51
0.0
  0
LINE
  5
249
100
AcDbEntity
  8
PLT70-1405
370
              15
390
0
  6
Continuous
 62
               7
100
AcDbLine
 10
438.23360405646963
 20
-519.29097769132932
 30
0.0
 11
320.03891669894801
 21
-513.75784532152466
 31
0.0
  0
ARC
  5
24A
100
AcDbEntity
  8
PLT70-1405
370
              15
390
0
  6
Continuous
 62
               7
100
AcDbCircle
 10
443.03824829048244
 20
-529.84958934274619
 30
0.0
 40
5.0
100
AcDbArc
 50
0.0
 51
50.000000000467033
  0
LINE
  5
24B
100
AcDbEntity
  8
PLT70-1405
370
              15
390
0
  6
Continuous
 62
               7
100
AcDbLine
 10
448.03824829048244
 20
-529.84958934274619
 30
0.0
 11
448.03824829048244
 21
-541.08120383261121
 31
0.0
  0
ARC
  5
24C
100
AcDbEntity
  8
PLT70-1405
370
              15
390
0
  6
Continuous
 62
               7
100
AcDbCircle
 10
439.49922951677581
 20
-540.08120383261121
 30
0.0
 40
2.0000000000186211
100
AcDbArc
 50
197.17962937827636
 51
270.0
  0
ARC
  5
24D
100
AcDbEntity
  8
PLT70-1405
370
              15
390
0
  6
Continuous
 62
               7
100
AcDbCircle
 10
418.48079392174259
 20
-546.57930856701569
 30
0.0
 40
20.000000000023412
100
AcDbArc
 50
17.179629377896941
 51
88.365385617325444
  0
LINE
  5
24E
100
AcDbEntity
  8
PLT70-1405
370
              15
390
0
  6
Continuous
 62
               7
100
AcDbLine
 10
419.05130458169151
 20
-526.58744728323654
 30
0.0
 11
306.14758607075782
 21
-523.36549740910414
 31
0.0
  0
ARC
  5
24F
100
AcDbEntity
  8
PLT70-1405
370
              15
390
0
  6
Continuous
 62
               7
100
AcDbCircle
 10
306.00495840585791
 20
-528.36346272999072
 30
0.0
 40
4.9999999999596287
100
AcDbArc
 50
88.365385617477855
 51
169.99999999989706
  0
LINE
  5
250
100
AcDbEntity
  8
PLT70-1405
370
              15
390
0
  6
Continuous
 62
               7
100
AcDbLine
 10
299.32941466144985
 20
-537.42850018790341
 30
0.0
 11
301.08091964077903
 21
-527.495221841702
 31
0.0
  0
ARC
  5
251
100
AcDbEntity
  8
PLT70-1405
370
              15
390
0
  6
Continuous
 62
               7
100
AcDbCircle
 10
297.35979915538337
 20
-537.08120383261121
 30
0.0
 40
2.0
100
AcDbArc
 50
270.0
 51
350.00000000109503
  0
LINE
  5
252
100
AcDbEntity
  8
PLT70-1405
370
              15
390
0
  6
Continuous
 62
               7
100
AcDbLine
 10
281.60271469247527
 20
-539.08120383261121
 30
0.0
 11
297.35979915538337
 21
-539.08120383261121
 31
0.0
  0
ARC
  5
253
100
AcDbEntity
  8
PLT70-1405
370
              15
390
0
  6
Continuous
 62
               7
100
AcDbCircle
 10
288.96880284365034
 20
-527.08120383261121
 30
0.0
 40
1.0
100
AcDbArc
 50
270.0
 51
349.99999999781062
  0
ARC
  5
254
100
AcDbEntity
  8
PLT70-1405
370
              15
390
0
  6
Continuous
 62
               7
100
AcDbCircle
 10
281.60271469247527
 20
-541.08120383261121
 30
0.0
 40
2.0
100
AcDbArc
 50
90.0
 51
170.00000000138456
  0
ARC
  5
255
100
AcDbEntity
  8
PLT70-1405
370
              15
390
0
  6
Continuous
 62
               7
100
AcDbCircle
 10
278.88443153625121
 20
-389.08120383261121
 30
0.0
 40
5.0
100
AcDbArc
 50
90.0
 51
178.21000000020499
  0
LINE
  5
256
100
AcDbEntity
  8
PLT70-1405
370
              15
390
0
  6
Continuous
 62
               7
100
AcDbLine
 10
299.29342545685358
 20
-384.08120383261121
 30
0.0
 11
278.88443153625121
 21
-384.08120383261121
 31
0.0
  0
ARC
  5
257
100
AcDbEntity
  8
PLT70-1405
370
              15
390
0
  6
Continuous
 62
               7
100
AcDbCircle
 10
299.29342545685358
 20
-389.08120383261121
 30
0.0
 40
5.0000000000128688
100
AcDbArc
 50
3.0000000004153256
 51
90.0
  0
LINE
  5
258
100
AcDbEntity
  8
PLT70-1405
370
              15
390
0
  6
Continuous
 62
               7
100
AcDbLine
 10
310.33787668135483
 20
-504.28527424213826
 30
0.0
 11
304.28657313063741
 21
-388.81952405141783
 31
0.0
  0
ARC
  5
259
100
AcDbEntity
  8
PLT70-1405
370
              15
390
0
  6
Continuous
 62
               7
100
AcDbCircle
 10
292.65067348984303
 20
-396.08120383261121
 30
0.0
 40
0.9999999999793227
100
AcDbArc
 50
3.000000000485143
 51
90.0
  0
ARC
  5
25A
100
AcDbEntity
  8
PLT70-1405
370
              15
390
0
  6
Continuous
 62
               7
100
AcDbCircle
 10
320.32417202898068
 20
-503.76191467963508
 30
0.0
 40
10.000000000022691
100
AcDbArc
 50
183.00000000008228
 51
268.365385617154
  0
LINE
  5
25B
100
AcDbEntity
  8
PLT70-1405
370
              15
390
0
  6
Continuous
 62
               7
100
AcDbLine
 10
439.49922951677581
 20
-542.08120383261121
 30
0.0
 11
447.03824829042424
 21
-542.08120383261121
 31
0.0
  0
ARC
  5
25C
100
AcDbEntity
  8
PLT70-1405
370
              15
390
0
  6
Continuous
 62
               7
100
AcDbCircle
 10
277.36468126426917
 20
-542.08120383261121
 30
0.0
 40
2.0
100
AcDbArc
 50
270.0
 51
349.99999999945288
  0
LINE
  5
25D
100
AcDbEntity
  8
PLT70-1405
370
              15
390
0
  6
Continuous
 62
               7
100
AcDbLine
 10
277.36468126426917
 20
-544.08120383261121
 30
0.0
 11
271.10147796297679
 21
-544.08120383261121
 31
0.0
  0
LINE
  5
25E
100
AcDbEntity
  8
PLT70-1405
370
              15
390
0
  6
Continuous
 62
               7
100
AcDbLine
 10
279.63309918646701
 20
-540.73390747731901
 30
0.0
 11
279.33429677027743
 21
-542.42850018790341
 31
0.0
  0
ARC
  5
25F
100
AcDbEntity
  8
PLT70-1405
370
              15
390
0
  6
Continuous
 62
               7
100
AcDbCircle
 10
271.10147796297679
 20
-542.08120383261121
 30
0.0
 40
2.0000000000261404
100
AcDbArc
 50
178.20999999989246
 51
270.0
  0
LINE
  5
260
100
AcDbEntity
  8
PLT70-1405
370
              15
390
0
  6
Continuous
 62
               7
100
AcDbLine
 10
273.88687139953254
 20
-388.92502227364457
 30
0.0
 11
269.10245390824275
 21
-542.01873120901291
 31
0.0
  0
LINE
  5
261
100
AcDbEntity
  8
PLT70-1405
370
              15
390
0
  6
Continuous
 62
               7
100
AcDbLine
 10
540.93592755112331
 20
-544.08120383261121
 30
0.0
 11
533.99002473684959
 21
-544.08120383261121
 31
0.0
  0
LINE
  5
262
100
AcDbEntity
  8
PLT70-1405
370
              15
390
0
  6
Continuous
 62
               7
100
AcDbLine
 10
284.25833553523989
 20
-544.08120383261121
 30
0.0
 11
277.36468126426917
 21
-544.08120383261121
 31
0.0
  0
LINE
  5
263
100
AcDbEntity
  8
PLT70-1405
370
              15
390
0
  6
Continuous
 62
               7
100
AcDbLine
 10
533.99002473684959
 20
-544.08120383261121
 30
0.0
 11
284.25833553523989
 21
-544.08120383261121
 31
0.0
  0
POLYLINE
  5
264
100
AcDbEntity
  8
PLT70-1405
370
              15
390
0
  6
Continuous
 62
               7
100
AcDb2dPolyline
 66
               1
 10
0.0
 20
0.0
 30
0.0
 75
               5
  0
VERTEX
  5
265
100
AcDbEntity
  8
PLT70-1405
370
              15
390
0
  6
Continuous
 62
               7
100
AcDbVertex
100
AcDb2dVertex
 10
317.08995997864986
 20
-454.04925353985163
 30
0.0
  0
VERTEX
  5
266
100
AcDbEntity
  8
PLT70-1405
370
              15
390
0
  6
Continuous
 62
               7
100
AcDbVertex
100
AcDb2dVertex
 10
315.20328903675545
 20
-453.86967280713725
 30
0.0
  0
VERTEX
  5
267
100
AcDbEntity
  8
PLT70-1405
370
              15
390
0
  6
Continuous
 62
               7
100
AcDbVertex
100
AcDb2dVertex
 10
313.38438316213433
 20
-453.33737209494575
 30
0.0
  0
VERTEX
  5
268
100
AcDbEntity
  8
PLT70-1405
370
              15
390
0
  6
Continuous
 62
               7
100
AcDbVertex
100
AcDb2dVertex
 10
311.6985734499176
 20
-452.47147047289764
 30
0.0
  0
VERTEX
  5
269
100
AcDbEntity
  8
PLT70-1405
370
              15
390
0
  6
Continuous
 62
               7
100
AcDbVertex
100
AcDb2dVertex
 10
310.20641047426034
 20
-451.3030692214088
 30
0.0
  0
VERTEX
  5
26A
100
AcDbEntity
  8
PLT70-1405
370
              15
390
0
  6
Continuous
 62
               7
100
AcDbVertex
100
AcDb2dVertex
 10
308.96148944454035
 20
-449.8741347414616
 30
0.0
  0
VERTEX
  5
26B
100
AcDbEntity
  8
PLT70-1405
370
              15
390
0
  6
Continuous
 62
               7
100
AcDbVertex
100
AcDb2dVertex
 10
308.00852518383181
 20
-448.2359912142565
 30
0.0
  0
VERTEX
  5
26C
100
AcDbEntity
  8
PLT70-1405
370
              15
390
0
  6
Continuous
 62
               7
100
AcDbVertex
100
AcDb2dVertex
 10
307.38174607063411
 20
-446.44747714922414
 30
0.0
  0
VERTEX
  5
26D
100
AcDbEntity
  8
PLT70-1405
370
              15
390
0
  6
Continuous
 62
               7
100
AcDbVertex
100
AcDb2dVertex
 10
307.10366463114042
 20
-444.57283203469706
 30
0.0
  0
SEQEND
  5
26E
100
AcDbEntity
  8
PLT70-1405
370
              15
390
0
  6
Continuous
 62
               7
  0
POLYLINE
  5
26F
100
AcDbEntity
  8
PLT70-1405
370
              15
390
0
  6
Continuous
 62
               7
100
AcDb2dPolyline
 66
               1
 10
0.0
 20
0.0
 30
0.0
 75
               5
  0
VERTEX
  5
270
100
AcDbEntity
  8
PLT70-1405
370
              15
390
0
  6
Continuous
 62
               7
100
AcDbVertex
100
AcDb2dVertex
 10
625.9865366021404
 20
-454.04925353985163
 30
0.0
  0
VERTEX
  5
271
100
AcDbEntity
  8
PLT70-1405
370
              15
390
0
  6
Continuous
 62
               7
100
AcDbVertex
100
AcDb2dVertex
 10
627.87320754409302
 20
-453.86967280713725
 30
0.0
  0
VERTEX
  5
272
100
AcDbEntity
  8
PLT70-1405
370
              15
390
0
  6
Continuous
 62
               7
100
AcDbVertex
100
AcDb2dVertex
 10
629.69211341865594
 20
-453.33737209494575
 30
0.0
  0
VERTEX
  5
273
100
AcDbEntity
  8
PLT70-1405
370
              15
390
0
  6
Continuous
 62
               7
100
AcDbVertex
100
AcDb2dVertex
 10
631.37792313087266
 20
-452.47147047289764
 30
0.0
  0
VERTEX
  5
274
100
AcDbEntity
  8
PLT70-1405
370
              15
390
0
  6
Continuous
 62
               7
100
AcDbVertex
100
AcDb2dVertex
 10
632.87008610652993
 20
-451.3030692214088
 30
0.0
  0
VERTEX
  5
275
100
AcDbEntity
  8
PLT70-1405
370
              15
390
0
  6
Continuous
 62
               7
100
AcDbVertex
100
AcDb2dVertex
 10
634.11500713636633
 20
-449.8741347414616
 30
0.0
  0
VERTEX
  5
276
100
AcDbEntity
  8
PLT70-1405
370
              15
390
0
  6
Continuous
 62
               7
100
AcDbVertex
100
AcDb2dVertex
 10
635.06797139707487
 20
-448.2359912142565
 30
0.0
  0
VERTEX
  5
277
100
AcDbEntity
  8
PLT70-1405
370
              15
390
0
  6
Continuous
 62
               7
100
AcDbVertex
100
AcDb2dVertex
 10
635.69475051015615
 20
-446.44747714922414
 30
0.0
  0
VERTEX
  5
278
100
AcDbEntity
  8
PLT70-1405
370
              15
390
0
  6
Continuous
 62
               7
100
AcDbVertex
100
AcDb2dVertex
 10
635.97283194964984
 20
-444.57283203469706
 30
0.0
  0
SEQEND
  5
279
100
AcDbEntity
  8
PLT70-1405
370
              15
390
0
  6
Continuous
 62
               7
  0
LINE
  5
27A
100
AcDbEntity
  8
PLT70-1405
370
              15
390
0
  6
Continuous
 62
               7
100
AcDbLine
 10
317.08995997864986
 20
-454.04925353985163
 30
0.0
 11
625.9865366021404
 21
-454.04925353985163
 31
0.0
  0
LINE
  5
27B
100
AcDbEntity
  8
PLT70-1405
370
              15
390
0
  6
Continuous
 62
               7
100
AcDbLine
 10
284.66957605315838
 20
-396.04996752084116
 30
0.0
 11
280.57562146993587
 21
-527.04996752084116
 31
0.0
  0
LINE
  5
27C
100
AcDbEntity
  8
PLT70-1405
370
              15
390
0
  6
Continuous
 62
               7
100
AcDbLine
 10
292.65067348984303
 20
-395.08120383261121
 30
0.0
 11
285.66908808058361
 21
-395.08120383261121
 31
0.0
  0
LINE
  5
27D
100
AcDbEntity
  8
PLT70-1405
370
              15
390
0
  6
Continuous
 62
               7
100
AcDbLine
 10
299.3529517990537
 20
-504.86096976071713
 30
0.0
 11
293.64930302463472
 21
-396.0288678764191
 31
0.0
  0
ARC
  5
27E
100
AcDbEntity
  8
PLT70-1405
370
              15
390
0
  6
Continuous
 62
               7
100
AcDbCircle
 10
320.32417202898068
 20
-503.76191467963508
 30
0.0
 40
21.000000000021661
100
AcDbArc
 50
182.99999999994284
 51
203.18078363007413
  0
ARC
  5
27F
100
AcDbEntity
  8
PLT70-1405
370
              15
390
0
  6
Continuous
 62
               7
100
AcDbCircle
 10
306.00495840585791
 20
-528.36346272999072
 30
0.0
 40
15.999999999991754
100
AcDbArc
 50
110.3243062629693
 51
169.99999999993574
  0
LINE
  5
280
100
AcDbEntity
  8
PLT70-1405
370
              15
390
0
  6
Continuous
 62
               7
100
AcDbLine
 10
289.95361059665447
 20
-527.2548520101991
 30
0.0
 11
290.24803435767535
 21
-525.58509188730386
 31
0.0
  0
LINE
  5
281
100
AcDbEntity
  8
PLT70-1405
370
              15
390
0
  6
Continuous
 62
               7
100
AcDbLine
 10
281.57513349724468
 20
-528.08120383261121
 30
0.0
 11
288.96880284365034
 21
-528.08120383261121
 31
0.0
  0
LINE
  5
282
100
AcDbEntity
  8
PLT70-1405
370
              15
390
0
  6
Continuous
 62
               7
100
AcDbLine
 10
299.29342545685358
 20
-384.08120383261121
 30
0.0
 11
314.27286847814685
 21
-384.08120383261121
 31
0.0
  0
ARC
  5
283
100
AcDbEntity
  8
PLT70-1405
370
              15
390
0
  6
Continuous
 62
               7
100
AcDbCircle
 10
559.03799841774162
 20
-544.08120383261121
 30
0.0
 40
16.0
100
AcDbArc
 50
0.0
 51
90.0
  0
LINE
  5
284
100
AcDbEntity
  8
PLT70-1405
370
              15
390
0
  6
Continuous
 62
               7
100
AcDbLine
 10
628.80362810264342
 20
-384.08120383261121
 30
0.0
 11
643.78307112393668
 21
-384.08120383261121
 31
0.0
  0
LINE
  5
285
100
AcDbEntity
  8
PLT70-1405
370
              15
390
0
  6
Continuous
 62
               7
100
AcDbLine
 10
576.03799841774162
 20
-593.08120383261121
 30
0.0
 11
663.53271459438838
 21
-593.08120383261121
 31
0.0
  0
LINE
  5
286
100
AcDbEntity
  8
PLT70-1405
370
              15
390
0
  6
Continuous
 62
               7
100
AcDbLine
 10
314.27286847814685
 20
-384.08120383261121
 30
0.0
 11
628.80362810264342
 21
-384.08120383261121
 31
0.0
  0
ARC
  5
287
100
AcDbEntity
  8
PLT70-1405
370
              15
390
0
  6
Continuous
 62
               7
100
AcDbCircle
 10
622.75012863281881
 20
-503.80381531090825
 30
0.0
 40
20.999999999991207
100
AcDbArc
 50
271.61880399189744
 51
356.99999999989859
  0
LINE
  5
288
100
AcDbEntity
  8
PLT70-1405
370
              15
390
0
  6
Continuous
 62
               7
100
AcDbLine
 10
649.42719355627196
 20
-396.0288678764191
 30
0.0
 11
643.7213488627458
 21
-504.9028703920485
 31
0.0
  0
LINE
  5
289
100
AcDbEntity
  8
PLT70-1405
370
              15
390
0
  6
Continuous
 62
               7
100
AcDbLine
 10
657.40740850032307
 20
-395.08120383261121
 30
0.0
 11
650.42582309106365
 21
-395.08120383261121
 31
0.0
  0
ARC
  5
28A
100
AcDbEntity
  8
PLT70-1405
370
              15
390
0
  6
Continuous
 62
               7
100
AcDbCircle
 10
650.42582309106365
 20
-396.08120383261121
 30
0.0
 40
1.0
100
AcDbArc
 50
90.0
 51
176.99999999951484
  0
ARC
  5
28B
100
AcDbEntity
  8
PLT70-1405
370
              15
390
0
  6
Continuous
 62
               7
100
AcDbCircle
 10
657.40740850032307
 20
-396.08120383261121
 30
0.0
 40
1.0000000000121612
100
AcDbArc
 50
1.7899999984408121
 51
90.0
  0
LINE
  5
28C
100
AcDbEntity
  8
PLT70-1405
370
              15
390
0
  6
Continuous
 62
               7
100
AcDbLine
 10
551.03799841774162
 20
-544.08120383261121
 30
0.0
 11
544.03799841774162
 21
-544.08120383261121
 31
0.0
  0
ARC
  5
28D
100
AcDbEntity
  8
PLT70-1405
370
              15
390
0
  6
Continuous
 62
               7
100
AcDbCircle
 10
576.03799841774162
 20
-592.08120383261121
 30
0.0
 40
1.0
100
AcDbArc
 50
180.0
 51
270.0
  0
ARC
  5
28E
100
AcDbEntity
  8
PLT70-1405
370
              15
390
0
  6
Continuous
 62
               7
100
AcDbCircle
 10
533.36339605273679
 20
-531.33995350412442
 30
0.0
 40
16.00000000003357
100
AcDbArc
 50
11.751761715123138
 51
11.783052613481447
  0
ARC
  5
28F
100
AcDbEntity
  8
PLT70-1405
370
              15
390
0
  6
Continuous
 62
               7
100
AcDbCircle
 10
550.00516921986127
 20
-527.86844290260342
 30
0.0
 40
0.9999999999817825
100
AcDbArc
 50
91.618803989543125
 51
191.783052613499
  0
LINE
  5
290
100
AcDbEntity
  8
PLT70-1405
370
              15
390
0
  6
Continuous
 62
               7
100
AcDbLine
 10
549.02802342077484
 20
-528.08120383261121
 30
0.0
 11
559.03799841774162
 21
-528.08120383261121
 31
0.0
  0
ARC
  5
291
100
AcDbEntity
  8
PLT70-1405
370
              15
390
0
  6
Continuous
 62
               7
100
AcDbCircle
 10
300.10028898005839
 20
-512.4218543113966
 30
0.0
 40
1.0000000000012532
100
AcDbArc
 50
290.32430626204263
 51
23.180783628801407
  0
ARC
  5
292
100
AcDbEntity
  8
PLT70-1405
370
              15
390
0
  6
Continuous
 62
               7
100
AcDbCircle
 10
562.03799841774162
 20
-546.08120383261121
 30
0.0
 40
2.0
100
AcDbArc
 50
0.0
 51
90.0
  0
ARC
  5
293
100
AcDbEntity
  8
PLT70-1405
370
              15
390
0
  6
Continuous
 62
               7
100
AcDbCircle
 10
281.57513349724468
 20
-527.08120383261121
 30
0.0
 40
1.0000000000121612
100
AcDbArc
 50
178.21000000155919
 51
270.0
  0
ARC
  5
294
100
AcDbEntity
  8
PLT70-1405
370
              15
390
0
  6
Continuous
 62
               7
100
AcDbCircle
 10
285.66908808058361
 20
-396.08120383261121
 30
0.0
 40
1.0
100
AcDbArc
 50
90.0
 51
178.21000000155919
  0
LINE
  5
295
100
AcDbEntity
  8
PLT70-1405
370
              15
390
0
  6
Continuous
 62
               7
100
AcDbLine
 10
562.03799841774162
 20
-544.08120383261121
 30
0.0
 11
551.03799841774162
 21
-544.08120383261121
 31
0.0
  0
LINE
  5
296
100
AcDbEntity
  8
PLT70-1405
370
              15
390
0
  6
Continuous
 62
               7
100
AcDbLine
 10
-743.74727372766938
 20
-384.08120383261121
 30
0.0
 11
-159.56141638837289
 21
-384.08120383261121
 31
0.0
  0
ARC
  5
297
100
AcDbEntity
  8
PLT70-1405
370
              15
390
0
  6
STYLE_12
 62
               7
100
AcDbCircle
 10
-723.33827980706701
 20
-389.08120383261121
 30
0.0
 40
5.0000000000098224
100
AcDbArc
 50
2.999999999749229
 51
90.000000000000014
  0
LINE
  5
298
100
AcDbEntity
  8
PLT70-1405
370
              15
390
0
  6
STYLE_12
 62
               7
100
AcDbLine
 10
-712.29008406138746
 20
-504.35672396441805
 30
0.0
 11
-718.3451321333996
 21
-388.81952405141783
 31
0.0
  0
ARC
  5
299
100
AcDbEntity
  8
PLT70-1405
370
              15
390
0
  6
STYLE_12
 62
               7
100
AcDbCircle
 10
-702.30378871376161
 20
-505.83336440203129
 30
0.0
 40
10.000000000022691
100
AcDbArc
 50
183.00000000008228
 51
268.365385617154
  0
LINE
  5
29A
100
AcDbEntity
  8
PLT70-1405
370
              15
390
0
  6
STYLE_12
 62
               7
100
AcDbLine
 10
-557.37866823840886
 20
-518.8634527620452
 30
0.0
 11
-702.58904404379427
 21
-515.82929504392087
 31
0.0
  0
LINE
  5
29B
100
AcDbEntity
  8
PLT70-1405
370
              15
390
0
  6
STYLE_12
 62
               7
100
AcDbLine
 10
-327.70901074068388
 20
-518.90554656190216
 30
0.0
 11
-477.91704799444415
 21
-518.96647965270677
 31
0.0
  0
LINE
  5
29C
100
AcDbEntity
  8
PLT70-1405
370
              15
390
0
  6
STYLE_12
 62
               7
100
AcDbLine
 10
-307.99150774895679
 20
-454.04925353990984
 30
0.0
 11
-200.23984660074348
 21
-454.04925353990984
 31
0.0
  0
LINE
  5
29D
100
AcDbEntity
  8
PLT70-1405
370
              15
390
0
  6
STYLE_12
 62
               7
100
AcDbLine
 10
-187.43647122645052
 20
-388.81952405141783
 30
0.0
 11
-190.25355125317583
 21
-442.57261310235481
 31
0.0
  0
ARC
  5
29E
100
AcDbEntity
  8
PLT70-1405
370
              15
390
0
  6
STYLE_12
 62
               7
100
AcDbCircle
 10
-182.44332355260849
 20
-389.08120383261121
 30
0.0
 40
5.0
100
AcDbArc
 50
90.0
 51
177.00000000025079
  0
LINE
  5
29F
100
AcDbEntity
  8
PLT70-1405
370
              15
390
0
  6
STYLE_12
 62
               7
100
AcDbLine
 10
-317.99150774895679
 20
-508.90953758629621
 30
0.0
 11
-317.99150774895679
 21
-464.04925353990984
 31
0.0
  0
ARC
  5
2A0
100
AcDbEntity
  8
PLT70-1405
370
              15
390
0
  6
STYLE_12
 62
               7
100
AcDbCircle
 10
-307.99150774895679
 20
-464.04925353990984
 30
0.0
 40
10.0
100
AcDbArc
 50
90.0
 51
180.0
  0
ARC
  5
2A1
100
AcDbEntity
  8
PLT70-1405
370
              15
390
0
  6
STYLE_12
 62
               7
100
AcDbCircle
 10
-327.99150774895679
 20
-508.90953758629621
 30
0.0
 40
10.000000000003888
100
AcDbArc
 50
271.61880399184855
 51
0.0
  0
ARC
  5
2A2
100
AcDbEntity
  8
PLT70-1405
370
              15
390
0
  6
STYLE_12
 62
               7
100
AcDbCircle
 10
-200.23984660074348
 20
-444.04925353990984
 30
0.0
 40
10.0
100
AcDbArc
 50
270.0
 51
356.99999999991775
  0
LINE
  5
2A3
100
AcDbEntity
  8
PLT70-1405
370
               5
390
0
  6
STYLE_12
 62
               7
100
AcDbLine
 10
763.84477727185003
 20
831.84196999619599
 30
0.0
 11
148.96830878092442
 21
831.84196999619599
 31
0.0
  0
LINE
  5
2A4
100
AcDbEntity
  8
PLT70-1405
370
               5
390
0
  6
STYLE_12
 62
               7
100
AcDbLine
 10
768.84331335395109
 20
538.90544954131474
 30
0.0
 11
768.84331335395109
 21
826.84343391409493
 31
0.0
  0
LINE
  5
2A5
100
AcDbEntity
  8
PLT70-1405
370
               5
390
0
  6
STYLE_12
 62
               7
100
AcDbLine
 10
143.96977269893978
 20
826.84343391409493
 30
0.0
 11
143.96977269893978
 21
538.90544954131474
 31
0.0
  0
POLYLINE
  5
2A6
100
AcDbEntity
  8
PLT70-1405
370
               5
390
0
  6
STYLE_12
 62
               7
100
AcDb2dPolyline
 66
               1
 10
0.0
 20
0.0
 30
0.0
 75
               5
  0
VERTEX
  5
2A7
100
AcDbEntity
  8
PLT70-1405
370
               5
390
0
  6
STYLE_12
 62
               7
100
AcDbVertex
100
AcDb2dVertex
 10
770.71840705611976
 20
531.90544954131474
 30
0.0
  0
VERTEX
  5
2A8
100
AcDbEntity
  8
PLT70-1405
370
               5
390
0
  6
STYLE_12
 62
               7
100
AcDbVertex
100
AcDb2dVertex
 10
770.71705530124018
 20
532.41838107680087
 30
0.0
  0
VERTEX
  5
2A9
100
AcDbEntity
  8
PLT70-1405
370
               5
390
0
  6
STYLE_12
 62
               7
100
AcDbVertex
100
AcDb2dVertex
 10
770.70695979404263
 20
533.35888651330606
 30
0.0
  0
VERTEX
  5
2AA
100
AcDbEntity
  8
PLT70-1405
370
               5
390
0
  6
STYLE_12
 62
               7
100
AcDbVertex
100
AcDb2dVertex
 10
770.68754619243555
 20
534.1642451758089
 30
0.0
  0
VERTEX
  5
2AB
100
AcDbEntity
  8
PLT70-1405
370
               5
390
0
  6
STYLE_12
 62
               7
100
AcDbVertex
100
AcDb2dVertex
 10
770.65823001641547
 20
534.7810754077218
 30
0.0
  0
VERTEX
  5
2AC
100
AcDbEntity
  8
PLT70-1405
370
               5
390
0
  6
STYLE_12
 62
               7
100
AcDbVertex
100
AcDb2dVertex
 10
770.62333933601622
 20
535.12763051930233
 30
0.0
  0
VERTEX
  5
2AD
100
AcDbEntity
  8
PLT70-1405
370
               5
390
0
  6
STYLE_12
 62
               7
100
AcDbVertex
100
AcDb2dVertex
 10
770.5829704698408
 20
535.34105424620793
 30
0.0
  0
VERTEX
  5
2AE
100
AcDbEntity
  8
PLT70-1405
370
               5
390
0
  6
STYLE_12
 62
               7
100
AcDbVertex
100
AcDb2dVertex
 10
770.49811840354232
 20
535.61567671180819
 30
0.0
  0
VERTEX
  5
2AF
100
AcDbEntity
  8
PLT70-1405
370
               5
390
0
  6
STYLE_12
 62
               7
100
AcDbVertex
100
AcDb2dVertex
 10
770.27435826323926
 20
536.03923629314522
 30
0.0
  0
VERTEX
  5
2B0
100
AcDbEntity
  8
PLT70-1405
370
               5
390
0
  6
STYLE_12
 62
               7
100
AcDbVertex
100
AcDb2dVertex
 10
770.1327719449182
 20
536.1839571451128
 30
0.0
  0
SEQEND
  5
2B1
100
AcDbEntity
  8
PLT70-1405
370
               5
390
0
  6
STYLE_12
 62
               7
  0
LINE
  5
2B2
100
AcDbEntity
  8
PLT70-1405
370
               5
390
0
  6
STYLE_12
 62
               7
100
AcDbLine
 10
142.09467899659649
 20
531.90544954131474
 30
0.0
 11
142.09467899659649
 21
430.09187172100064
 31
0.0
  0
LINE
  5
2B3
100
AcDbEntity
  8
PLT70-1405
370
               5
390
0
  6
STYLE_12
 62
               7
100
AcDbLine
 10
770.71840705611976
 20
430.09187172100064
 30
0.0
 11
770.71840705611976
 21
531.90544954131474
 31
0.0
  0
LINE
  5
2B4
100
AcDbEntity
  8
PLT70-1405
370
               5
390
0
  6
STYLE_12
 62
               7
100
AcDbLine
 10
147.09321507869754
 20
425.093335639016
 30
0.0
 11
765.71987097413512
 21
425.093335639016
 31
0.0
  0
ARC
  5
2B5
100
AcDbEntity
  8
PLT70-1405
370
               5
390
0
  6
STYLE_12
 62
               7
100
AcDbCircle
 10
189.11627625580877
 20
786.69546643932699
 30
0.0
 40
9.9614394771683124
100
AcDbArc
 50
89.856856113463991
 51
180.14314388653602
  0
LINE
  5
2B6
100
AcDbEntity
  8
PLT70-1405
370
               5
390
0
  6
STYLE_12
 62
               7
100
AcDbLine
 10
723.67192283866461
 20
796.65687482853536
 30
0.0
 11
189.14116321410984
 21
796.65687482853536
 31
0.0
  0
ARC
  5
2B7
100
AcDbEntity
  8
PLT70-1405
370
               5
390
0
  6
STYLE_12
 62
               7
100
AcDbCircle
 10
723.69680979690747
 20
786.69546643932699
 30
0.0
 40
9.9614394771704937
100
AcDbArc
 50
359.856856108442
 51
90.143143886201187
  0
LINE
  5
2B8
100
AcDbEntity
  8
PLT70-1405
370
               5
390
0
  6
STYLE_12
 62
               7
100
AcDbLine
 10
179.15486786665861
 20
786.67057948090951
 30
0.0
 11
179.15486786665861
 21
472.13981985652936
 31
0.0
  0
LINE
  5
2B9
100
AcDbEntity
  8
PLT70-1405
370
               5
390
0
  6
STYLE_12
 62
               7
100
AcDbLine
 10
733.65821818623226
 20
472.13981985652936
 30
0.0
 11
733.65821818623226
 21
786.67057948090951
 31
0.0
  0
ARC
  5
2BA
100
AcDbEntity
  8
PLT70-1405
370
               5
390
0
  6
STYLE_12
 62
               7
100
AcDbCircle
 10
723.69680979702389
 20
472.11493289811187
 30
0.0
 40
9.9614394771681685
100
AcDbArc
 50
269.85685611379881
 51
0.1431438955754629
  0
ARC
  5
2BB
100
AcDbEntity
  8
PLT70-1405
370
               5
390
0
  6
STYLE_12
 62
               7
100
AcDbCircle
 10
189.11627625580877
 20
472.11493289811187
 30
0.0
 40
9.9614394771683124
100
AcDbArc
 50
179.85685611346403
 51
270.14314388653605
  0
LINE
  5
2BC
100
AcDbEntity
  8
PLT70-1405
370
               5
390
0
  6
STYLE_12
 62
               7
100
AcDbLine
 10
189.14116321410984
 20
462.1535245089035
 30
0.0
 11
723.67192283866461
 21
462.1535245089035
 31
0.0
  0
ARC
  5
2BD
100
AcDbEntity
  8
PLT70-1405
370
               5
390
0
  6
STYLE_12
 62
               7
100
AcDbCircle
 10
763.84302950050915
 20
826.84168614281225
 30
0.0
 40
4.9993082136403251
100
AcDbArc
 50
0.0200310776297504
 51
89.979969243913857
  0
ARC
  5
2BE
100
AcDbEntity
  8
PLT70-1405
370
               5
390
0
  6
STYLE_12
 62
               7
100
AcDbCircle
 10
148.9700565522071
 20
826.84168614281225
 30
0.0
 40
4.9993082135722888
100
AcDbArc
 50
90.02003075541927
 51
179.97996904044726
  0
ARC
  5
2BF
100
AcDbEntity
  8
PLT70-1405
370
               5
390
0
  6
STYLE_12
 62
               7
100
AcDbCircle
 10
765.71812320273602
 20
430.09361949234153
 30
0.0
 40
4.9993082135722888
100
AcDbArc
 50
270.02003075541927
 51
359.97996916185997
  0
ARC
  5
2C0
100
AcDbEntity
  8
PLT70-1405
370
               5
390
0
  6
STYLE_12
 62
               7
100
AcDbCircle
 10
147.09496285003843
 20
430.09361949234153
 30
0.0
 40
4.9993082135722888
100
AcDbArc
 50
180.0200307554193
 51
269.97996924458073
  0
LINE
  5
2C1
100
AcDbEntity
  8
PLT70-1405
370
               5
390
0
  6
STYLE_12
 62
               7
100
AcDbLine
 10
763.84477727185003
 20
831.84099405093002
 30
0.0
 11
148.96830878092442
 21
831.84099405093002
 31
0.0
  0
LINE
  5
2C2
100
AcDbEntity
  8
PLT70-1405
370
               5
390
0
  6
STYLE_12
 62
               7
100
AcDbLine
 10
768.84233740862692
 20
538.90544954131474
 30
0.0
 11
768.84233740862692
 21
826.84343391409493
 31
0.0
  0
ARC
  5
2C3
100
AcDbEntity
  8
PLT70-1405
370
               5
390
0
  6
STYLE_12
 62
               7
100
AcDbCircle
 10
796.99432338733459
 20
537.78328974804026
 30
0.0
 40
28.17434217777592
100
AcDbArc
 50
177.71735464075462
 51
181.8411843796718
  0
ARC
  5
2C4
100
AcDbEntity
  8
PLT70-1405
370
               5
390
0
  6
STYLE_12
 62
               7
100
AcDbCircle
 10
746.64831442735158
 20
532.65471704633092
 30
0.0
 40
24.080776144429354
100
AcDbArc
 50
358.21696794734686
 51
5.3630320525544448
  0
LINE
  5
2C5
100
AcDbEntity
  8
PLT70-1405
370
               5
390
0
  6
STYLE_12
 62
               7
100
AcDbLine
 10
770.71743111085379
 20
430.09187172100064
 30
0.0
 11
770.71743111085379
 21
531.90544954131474
 31
0.0
  0
ARC
  5
2C6
100
AcDbEntity
  8
PLT70-1405
370
               5
390
0
  6
STYLE_12
 62
               7
100
AcDbCircle
 10
111.87859306443715
 20
537.90642620148719
 30
0.0
 40
32.107701527634788
100
AcDbArc
 50
358.1349365305216
 51
1.7830320523128764
  0
LINE
  5
2C7
100
AcDbEntity
  8
PLT70-1405
370
               5
390
0
  6
STYLE_12
 62
               7
100
AcDbLine
 10
143.97074864420574
 20
826.84343391409493
 30
0.0
 11
143.97074864420574
 21
538.90544954131474
 31
0.0
  0
LINE
  5
2C8
100
AcDbEntity
  8
PLT70-1405
370
               5
390
0
  6
STYLE_12
 62
               7
100
AcDbLine
 10
142.09565494192066
 20
531.90544954131474
 30
0.0
 11
142.09565494192066
 21
430.09187172100064
 31
0.0
  0
ARC
  5
2C9
100
AcDbEntity
  8
PLT70-1405
370
               5
390
0
  6
STYLE_12
 62
               7
100
AcDbCircle
 10
166.16477162670344
 20
532.65471704633092
 30
0.0
 40
24.080776145744643
100
AcDbArc
 50
174.63696794760543
 51
181.78303205241994
  0
LINE
  5
2CA
100
AcDbEntity
  8
PLT70-1405
370
               5
390
0
  6
STYLE_12
 62
               7
100
AcDbLine
 10
147.09321507869754
 20
425.09431158422376
 30
0.0
 11
765.71987097413512
 21
425.09431158422376
 31
0.0
  0
POLYLINE
  5
2CB
100
AcDbEntity
  8
PLT70-1405
370
               5
390
0
  6
STYLE_12
 62
               7
100
AcDb2dPolyline
 66
               1
 10
0.0
 20
0.0
 30
0.0
 75
               5
  0
VERTEX
  5
2CC
100
AcDbEntity
  8
PLT70-1405
370
               5
390
0
  6
STYLE_12
 62
               7
100
AcDbVertex
100
AcDb2dVertex
 10
603.76996728405356
 20
783.08962433462148
 30
0.0
  0
VERTEX
  5
2CD
100
AcDbEntity
  8
PLT70-1405
370
               5
390
0
  6
STYLE_12
 62
               7
100
AcDbVertex
100
AcDb2dVertex
 10
603.57537346624304
 20
785.03604360492318
 30
0.0
  0
VERTEX
  5
2CE
100
AcDbEntity
  8
PLT70-1405
370
               5
390
0
  6
STYLE_12
 62
               7
100
AcDbVertex
100
AcDb2dVertex
 10
603.00482449232368
 20
786.90780354200979
 30
0.0
  0
VERTEX
  5
2CF
100
AcDbEntity
  8
PLT70-1405
370
               5
390
0
  6
STYLE_12
 62
               7
100
AcDbVertex
100
AcDb2dVertex
 10
602.08020506420871
 20
788.6331085410493
 30
0.0
  0
VERTEX
  5
2D0
100
AcDbEntity
  8
PLT70-1405
370
               5
390
0
  6
STYLE_12
 62
               7
100
AcDbVertex
100
AcDb2dVertex
 10
600.8369810609147
 20
790.14578060913482
 30
0.0
  0
VERTEX
  5
2D1
100
AcDbEntity
  8
PLT70-1405
370
               5
390
0
  6
STYLE_12
 62
               7
100
AcDbVertex
100
AcDb2dVertex
 10
599.32283916365122
 20
791.3877977723314
 30
0.0
  0
VERTEX
  5
2D2
100
AcDbEntity
  8
PLT70-1405
370
               5
390
0
  6
STYLE_12
 62
               7
100
AcDbVertex
100
AcDb2dVertex
 10
597.59585772460559
 20
792.31151964064338
 30
0.0
  0
VERTEX
  5
2D3
100
AcDbEntity
  8
PLT70-1405
370
               5
390
0
  6
STYLE_12
 62
               7
100
AcDbVertex
100
AcDb2dVertex
 10
595.72227904060856
 20
792.88151476319763
 30
0.0
  0
VERTEX
  5
2D4
100
AcDbEntity
  8
PLT70-1405
370
               5
390
0
  6
STYLE_12
 62
               7
100
AcDbVertex
100
AcDb2dVertex
 10
593.77396847860655
 20
793.07591968213092
 30
0.0
  0
SEQEND
  5
2D5
100
AcDbEntity
  8
PLT70-1405
370
               5
390
0
  6
STYLE_12
 62
               7
  0
POLYLINE
  5
2D6
100
AcDbEntity
  8
PLT70-1405
370
               5
390
0
  6
STYLE_12
 62
               7
100
AcDb2dPolyline
 66
               1
 10
0.0
 20
0.0
 30
0.0
 75
               5
  0
VERTEX
  5
2D7
100
AcDbEntity
  8
PLT70-1405
370
               5
390
0
  6
STYLE_12
 62
               7
100
AcDbVertex
100
AcDb2dVertex
 10
593.77396847860655
 20
465.73447965530795
 30
0.0
  0
VERTEX
  5
2D8
100
AcDbEntity
  8
PLT70-1405
370
               5
390
0
  6
STYLE_12
 62
               7
100
AcDbVertex
100
AcDb2dVertex
 10
595.72227904060856
 20
465.92888457418303
 30
0.0
  0
VERTEX
  5
2D9
100
AcDbEntity
  8
PLT70-1405
370
               5
390
0
  6
STYLE_12
 62
               7
100
AcDbVertex
100
AcDb2dVertex
 10
597.59585772460559
 20
466.49887969685369
 30
0.0
  0
VERTEX
  5
2DA
100
AcDbEntity
  8
PLT70-1405
370
               5
390
0
  6
STYLE_12
 62
               7
100
AcDbVertex
100
AcDb2dVertex
 10
599.32283916365122
 20
467.42260156510747
 30
0.0
  0
VERTEX
  5
2DB
100
AcDbEntity
  8
PLT70-1405
370
               5
390
0
  6
STYLE_12
 62
               7
100
AcDbVertex
100
AcDb2dVertex
 10
600.8369810609147
 20
468.66461872830405
 30
0.0
  0
VERTEX
  5
2DC
100
AcDbEntity
  8
PLT70-1405
370
               5
390
0
  6
STYLE_12
 62
               7
100
AcDbVertex
100
AcDb2dVertex
 10
602.08020506420871
 20
470.17729079644778
 30
0.0
  0
VERTEX
  5
2DD
100
AcDbEntity
  8
PLT70-1405
370
               5
390
0
  6
STYLE_12
 62
               7
100
AcDbVertex
100
AcDb2dVertex
 10
603.00482449232368
 20
471.90259579542908
 30
0.0
  0
VERTEX
  5
2DE
100
AcDbEntity
  8
PLT70-1405
370
               5
390
0
  6
STYLE_12
 62
               7
100
AcDbVertex
100
AcDb2dVertex
 10
603.57537346624304
 20
473.77435573251569
 30
0.0
  0
VERTEX
  5
2DF
100
AcDbEntity
  8
PLT70-1405
370
               5
390
0
  6
STYLE_12
 62
               7
100
AcDbVertex
100
AcDb2dVertex
 10
603.76996728405356
 20
475.72077500281739
 30
0.0
  0
SEQEND
  5
2E0
100
AcDbEntity
  8
PLT70-1405
370
               5
390
0
  6
STYLE_12
 62
               7
  0
LINE
  5
2E1
100
AcDbEntity
  8
PLT70-1405
370
               5
390
0
  6
STYLE_12
 62
               7
100
AcDbLine
 10
603.76996728405356
 20
475.72077500281739
 30
0.0
 11
603.76996728405356
 21
783.08962433462148
 31
0.0
  0
CIRCLE
  5
2E2
100
AcDbEntity
  8
PLT70-1405
370
               5
390
0
  6
STYLE_12
 62
               7
100
AcDbCircle
 10
383.90629315376282
 20
629.40519966869033
 30
0.0
 40
23.5
  0
LINE
  5
2E3
100
AcDbEntity
  8
PLT70-1405
370
               5
390
0
  6
STYLE_12
 62
               7
100
AcDbLine
 10
768.84331335395109
 20
826.84343391409493
 30
0.0
 11
768.84233740862692
 21
826.84343391409493
 31
0.0
  0
LINE
  5
2E4
100
AcDbEntity
  8
PLT70-1405
370
               5
390
0
  6
STYLE_12
 62
               7
100
AcDbLine
 10
763.84477727185003
 20
831.84196999619599
 30
0.0
 11
763.84477727185003
 21
831.84099405093002
 31
0.0
  0
LINE
  5
2E5
100
AcDbEntity
  8
PLT70-1405
370
               5
390
0
  6
STYLE_12
 62
               7
100
AcDbLine
 10
143.97074864420574
 20
826.84343391409493
 30
0.0
 11
143.96977269893978
 21
826.84343391409493
 31
0.0
  0
LINE
  5
2E6
100
AcDbEntity
  8
PLT70-1405
370
               5
390
0
  6
STYLE_12
 62
               7
100
AcDbLine
 10
148.96830878092442
 20
831.84099405093002
 30
0.0
 11
148.96830878092442
 21
831.84196999619599
 31
0.0
  0
LINE
  5
2E7
100
AcDbEntity
  8
PLT70-1405
370
               5
390
0
  6
STYLE_12
 62
               7
100
AcDbLine
 10
768.84331335395109
 20
538.90544954131474
 30
0.0
 11
768.84233740862692
 21
538.90544954131474
 31
0.0
  0
LINE
  5
2E8
100
AcDbEntity
  8
PLT70-1405
370
               5
390
0
  6
STYLE_12
 62
               7
100
AcDbLine
 10
143.97074864420574
 20
538.90544954131474
 30
0.0
 11
143.96977269893978
 21
538.90544954131474
 31
0.0
  0
POLYLINE
  5
2E9
100
AcDbEntity
  8
PLT70-1405
370
               5
390
0
  6
STYLE_12
 62
               7
100
AcDb2dPolyline
 66
               1
 10
0.0
 20
0.0
 30
0.0
 75
               5
  0
VERTEX
  5
2EA
100
AcDbEntity
  8
PLT70-1405
370
               5
390
0
  6
STYLE_12
 62
               7
100
AcDbVertex
100
AcDb2dVertex
 10
142.18940962699708
 20
534.90544954143115
 30
0.0
  0
VERTEX
  5
2EB
100
AcDbEntity
  8
PLT70-1405
370
               5
390
0
  6
STYLE_12
 62
               7
100
AcDbVertex
100
AcDb2dVertex
 10
142.22782031371025
 20
535.29563018542831
 30
0.0
  0
VERTEX
  5
2EC
100
AcDbEntity
  8
PLT70-1405
370
               5
390
0
  6
STYLE_12
 62
               7
100
AcDbVertex
100
AcDb2dVertex
 10
142.34157627262175
 20
535.67081640611286
 30
0.0
  0
VERTEX
  5
2ED
100
AcDbEntity
  8
PLT70-1405
370
               5
390
0
  6
STYLE_12
 62
               7
100
AcDbVertex
100
AcDb2dVertex
 10
142.52630592603236
 20
536.0165900074353
 30
0.0
  0
VERTEX
  5
2EE
100
AcDbEntity
  8
PLT70-1405
370
               5
390
0
  6
STYLE_12
 62
               7
100
AcDbVertex
100
AcDb2dVertex
 10
142.77491021691822
 20
536.31966310369899
 30
0.0
  0
VERTEX
  5
2EF
100
AcDbEntity
  8
PLT70-1405
370
               5
390
0
  6
STYLE_12
 62
               7
100
AcDbVertex
100
AcDb2dVertex
 10
143.07783542189281
 20
536.56838876593974
 30
0.0
  0
VERTEX
  5
2F0
100
AcDbEntity
  8
PLT70-1405
370
               5
390
0
  6
STYLE_12
 62
               7
100
AcDbVertex
100
AcDb2dVertex
 10
143.42344029515516
 20
536.75320860641659
 30
0.0
  0
VERTEX
  5
2F1
100
AcDbEntity
  8
PLT70-1405
370
               5
390
0
  6
STYLE_12
 62
               7
100
AcDbVertex
100
AcDb2dVertex
 10
143.79844343522564
 20
536.86702010218869
 30
0.0
  0
VERTEX
  5
2F2
100
AcDbEntity
  8
PLT70-1405
370
               5
390
0
  6
STYLE_12
 62
               7
100
AcDbVertex
100
AcDb2dVertex
 10
143.95375028741546
 20
536.89161920009064
 30
0.0
  0
SEQEND
  5
2F3
100
AcDbEntity
  8
PLT70-1405
370
               5
390
0
  6
STYLE_12
 62
               7
  0
POLYLINE
  5
2F4
100
AcDbEntity
  8
PLT70-1405
370
               5
390
0
  6
STYLE_12
 62
               7
100
AcDb2dPolyline
 66
               1
 10
0.0
 20
0.0
 30
0.0
 75
               5
  0
VERTEX
  5
2F5
100
AcDbEntity
  8
PLT70-1405
370
               5
390
0
  6
STYLE_12
 62
               7
100
AcDbVertex
100
AcDb2dVertex
 10
768.85933576343814
 20
536.89161920038168
 30
0.0
  0
VERTEX
  5
2F6
100
AcDbEntity
  8
PLT70-1405
370
               5
390
0
  6
STYLE_12
 62
               7
100
AcDbVertex
100
AcDb2dVertex
 10
769.01464261760702
 20
536.86702010218869
 30
0.0
  0
VERTEX
  5
2F7
100
AcDbEntity
  8
PLT70-1405
370
               5
390
0
  6
STYLE_12
 62
               7
100
AcDbVertex
100
AcDb2dVertex
 10
769.38964575761929
 20
536.75320860641659
 30
0.0
  0
VERTEX
  5
2F8
100
AcDbEntity
  8
PLT70-1405
370
               5
390
0
  6
STYLE_12
 62
               7
100
AcDbVertex
100
AcDb2dVertex
 10
769.73525063093984
 20
536.56838876593974
 30
0.0
  0
VERTEX
  5
2F9
100
AcDbEntity
  8
PLT70-1405
370
               5
390
0
  6
STYLE_12
 62
               7
100
AcDbVertex
100
AcDb2dVertex
 10
770.03817583585624
 20
536.31966310369899
 30
0.0
  0
VERTEX
  5
2FA
100
AcDbEntity
  8
PLT70-1405
370
               5
390
0
  6
STYLE_12
 62
               7
100
AcDbVertex
100
AcDb2dVertex
 10
770.28678012680029
 20
536.0165900074353
 30
0.0
  0
VERTEX
  5
2FB
100
AcDbEntity
  8
PLT70-1405
370
               5
390
0
  6
STYLE_12
 62
               7
100
AcDbVertex
100
AcDb2dVertex
 10
770.4715097801527
 20
535.67081640611286
 30
0.0
  0
VERTEX
  5
2FC
100
AcDbEntity
  8
PLT70-1405
370
               5
390
0
  6
STYLE_12
 62
               7
100
AcDbVertex
100
AcDb2dVertex
 10
770.58526573900599
 20
535.29563018542831
 30
0.0
  0
VERTEX
  5
2FD
100
AcDbEntity
  8
PLT70-1405
370
               5
390
0
  6
STYLE_12
 62
               7
100
AcDbVertex
100
AcDb2dVertex
 10
770.62367642571917
 20
534.90544954143115
 30
0.0
  0
SEQEND
  5
2FE
100
AcDbEntity
  8
PLT70-1405
370
               5
390
0
  6
STYLE_12
 62
               7
  0
LINE
  5
2FF
100
AcDbEntity
  8
PLT70-1405
370
               5
390
0
  6
STYLE_12
 62
               7
100
AcDbLine
 10
770.71840705611976
 20
531.90544954131474
 30
0.0
 11
770.71743111085379
 21
531.90544954131474
 31
0.0
  0
LINE
  5
300
100
AcDbEntity
  8
PLT70-1405
370
               5
390
0
  6
STYLE_12
 62
               7
100
AcDbLine
 10
142.09565494192066
 20
531.90544954131474
 30
0.0
 11
142.09467899659649
 21
531.90544954131474
 31
0.0
  0
LINE
  5
301
100
AcDbEntity
  8
PLT70-1405
370
               5
390
0
  6
STYLE_12
 62
               7
100
AcDbLine
 10
147.09321507869754
 20
425.09431158422376
 30
0.0
 11
147.09321507869754
 21
425.093335639016
 31
0.0
  0
LINE
  5
302
100
AcDbEntity
  8
PLT70-1405
370
               5
390
0
  6
STYLE_12
 62
               7
100
AcDbLine
 10
142.09565494192066
 20
430.09187172100064
 30
0.0
 11
142.09467899659649
 21
430.09187172100064
 31
0.0
  0
LINE
  5
303
100
AcDbEntity
  8
PLT70-1405
370
               5
390
0
  6
STYLE_12
 62
               7
100
AcDbLine
 10
765.71987097413512
 20
425.093335639016
 30
0.0
 11
765.71987097413512
 21
425.09431158422376
 31
0.0
  0
LINE
  5
304
100
AcDbEntity
  8
PLT70-1405
370
               5
390
0
  6
STYLE_12
 62
               7
100
AcDbLine
 10
770.71840705611976
 20
430.09187172100064
 30
0.0
 11
770.71743111085379
 21
430.09187172100064
 31
0.0
  0
CIRCLE
  5
305
100
AcDbEntity
  8
PLT70-1405
370
              15
390
0
  6
Continuous
 62
               7
100
AcDbCircle
 10
-517.90434505807934
 20
629.37401028352906
 30
0.0
 40
38.99999999998839
  0
ARC
  5
306
100
AcDbEntity
  8
PLT70-1405
370
              15
390
0
  6
STYLE_12
 62
               7
100
AcDbCircle
 10
-530.31976680224761
 20
160.95721484787646
 30
0.0
 40
680.58991851847759
100
AcDbArc
 50
268.53909890038841
 51
270.57999995565507
  0
POLYLINE
  5
307
100
AcDbEntity
  8
PLT70-1405
370
              15
390
0
  6
STYLE_12
 62
               7
100
AcDb2dPolyline
 66
               1
 10
0.0
 20
0.0
 30
0.0
 75
               5
  0
VERTEX
  5
308
100
AcDbEntity
  8
PLT70-1405
370
              15
390
0
  6
STYLE_12
 62
               7
100
AcDbVertex
100
AcDb2dVertex
 10
-512.16951106674969
 20
-519.5989731780428
 30
0.0
  0
VERTEX
  5
309
100
AcDbEntity
  8
PLT70-1405
370
              15
390
0
  6
STYLE_12
 62
               7
100
AcDbVertex
100
AcDb2dVertex
 10
-517.70846785523463
 20
-519.58578221985954
 30
0.0
  0
VERTEX
  5
30A
100
AcDbEntity
  8
PLT70-1405
370
              15
390
0
  6
STYLE_12
 62
               7
100
AcDbVertex
100
AcDb2dVertex
 10
-523.4303347330424
 20
-519.59783282622811
 30
0.0
  0
SEQEND
  5
30B
100
AcDbEntity
  8
PLT70-1405
370
              15
390
0
  6
STYLE_12
 62
               7
  0
ARC
  5
30C
100
AcDbEntity
  8
PLT70-1405
370
              15
390
0
  6
STYLE_12
 62
               7
100
AcDbCircle
 10
-505.26479522720911
 20
166.66537586177583
 30
0.0
 40
686.2990833913434
100
AcDbArc
 50
269.42354906164684
 51
271.42754317600173
  0
POLYLINE
  5
30D
100
AcDbEntity
  8
PLT70-1405
370
              15
390
0
  6
STYLE_12
 62
               7
100
AcDb2dPolyline
 66
               1
 10
0.0
 20
0.0
 30
0.0
 75
               5
  0
VERTEX
  5
30E
100
AcDbEntity
  8
PLT70-1405
370
              15
390
0
  6
STYLE_12
 62
               7
100
AcDbVertex
100
AcDb2dVertex
 10
-484.62742109963438
 20
-519.30204419713118
 30
0.0
  0
VERTEX
  5
30F
100
AcDbEntity
  8
PLT70-1405
370
              15
390
0
  6
STYLE_12
 62
               7
100
AcDbVertex
100
AcDb2dVertex
 10
-484.69751027971506
 20
-519.30439211873454
 30
0.0
  0
VERTEX
  5
310
100
AcDbEntity
  8
PLT70-1405
370
              15
390
0
  6
STYLE_12
 62
               7
100
AcDbVertex
100
AcDb2dVertex
 10
-485.52313270344166
 20
-519.33205431312672
 30
0.0
  0
VERTEX
  5
311
100
AcDbEntity
  8
PLT70-1405
370
              15
390
0
  6
STYLE_12
 62
               7
100
AcDbVertex
100
AcDb2dVertex
 10
-486.62434157571988
 20
-519.36896322874236
 30
0.0
  0
VERTEX
  5
312
100
AcDbEntity
  8
PLT70-1405
370
              15
390
0
  6
STYLE_12
 62
               7
100
AcDbVertex
100
AcDb2dVertex
 10
-488.16719710751204
 20
-519.42070037234225
 30
0.0
  0
SEQEND
  5
313
100
AcDbEntity
  8
PLT70-1405
370
              15
390
0
  6
STYLE_12
 62
               7
  0
LINE
  5
314
100
AcDbEntity
  8
PLT70-1405
370
              15
390
0
  6
STYLE_12
 62
               7
100
AcDbLine
 10
-492.63991249742685
 20
-526.02532277381397
 30
0.0
 11
-484.62742109963438
 21
-519.30204419713118
 31
0.0
  0
LINE
  5
315
100
AcDbEntity
  8
PLT70-1405
370
              15
390
0
  6
STYLE_12
 62
               7
100
AcDbLine
 10
-543.21203640050953
 20
-526.02532277381397
 30
0.0
 11
-492.63991249742685
 21
-526.02532277381397
 31
0.0
  0
LINE
  5
316
100
AcDbEntity
  8
PLT70-1405
370
              15
390
0
  6
STYLE_12
 62
               7
100
AcDbLine
 10
-551.23796623101225
 20
-519.29076801330666
 30
0.0
 11
-543.21203640050953
 21
-526.02532277381397
 31
0.0
  0
POLYLINE
  5
317
100
AcDbEntity
  8
PLT70-1405
370
              15
390
0
  6
STYLE_12
 62
               7
100
AcDb2dPolyline
 66
               1
 10
0.0
 20
0.0
 30
0.0
 75
               5
  0
VERTEX
  5
318
100
AcDbEntity
  8
PLT70-1405
370
              15
390
0
  6
STYLE_12
 62
               7
100
AcDbVertex
100
AcDb2dVertex
 10
-547.67125130380737
 20
-519.41148165034247
 30
0.0
  0
VERTEX
  5
319
100
AcDbEntity
  8
PLT70-1405
370
              15
390
0
  6
STYLE_12
 62
               7
100
AcDbVertex
100
AcDb2dVertex
 10
-549.61651910102228
 20
-519.34562487722724
 30
0.0
  0
VERTEX
  5
31A
100
AcDbEntity
  8
PLT70-1405
370
              15
390
0
  6
STYLE_12
 62
               7
100
AcDbVertex
100
AcDb2dVertex
 10
-550.83588517352473
 20
-519.30436811232357
 30
0.0
  0
VERTEX
  5
31B
100
AcDbEntity
  8
PLT70-1405
370
              15
390
0
  6
STYLE_12
 62
               7
100
AcDbVertex
100
AcDb2dVertex
 10
-551.23796623101225
 20
-519.29076801330666
 30
0.0
  0
SEQEND
  5
31C
100
AcDbEntity
  8
PLT70-1405
370
              15
390
0
  6
STYLE_12
 62
               7
  0
ARC
  5
31D
100
AcDbEntity
  8
PLT70-1405
370
              15
390
0
  6
STYLE_12
 62
               7
100
AcDbCircle
 10
-542.4259744490264
 20
-541.08120383261121
 30
0.0
 40
1.0
100
AcDbArc
 50
270.0
 51
0.0
  0
LINE
  5
31E
100
AcDbEntity
  8
PLT70-1405
370
              15
390
0
  6
STYLE_12
 62
               7
100
AcDbLine
 10
-541.4259744490264
 20
-541.08120383261121
 30
0.0
 11
-494.4259744490264
 21
-541.08120383261121
 31
0.0
  0
ARC
  5
31F
100
AcDbEntity
  8
PLT70-1405
370
              15
390
0
  6
STYLE_12
 62
               7
100
AcDbCircle
 10
-493.4259744490264
 20
-541.08120383261121
 30
0.0
 40
1.0
100
AcDbArc
 50
180.0
 51
270.0
  0
LINE
  5
320
100
AcDbEntity
  8
PLT70-1405
370
              15
390
0
  6
STYLE_12
 62
               7
100
AcDbLine
 10
-493.4259744490264
 20
-542.08120383261121
 30
0.0
 11
-542.4259744490264
 21
-542.08120383261121
 31
0.0
  0
ARC
  5
321
100
AcDbEntity
  8
PLT70-1405
370
              15
390
0
  6
STYLE_12
 62
               7
100
AcDbCircle
 10
-546.4259744490264
 20
-529.85554498943384
 30
0.0
 40
5.0
100
AcDbArc
 50
0.0
 51
50.000000000467033
  0
LINE
  5
322
100
AcDbEntity
  8
PLT70-1405
370
              15
390
0
  6
STYLE_12
 62
               7
100
AcDbLine
 10
-541.4259744490264
 20
-529.85554498943384
 30
0.0
 11
-541.4259744490264
 21
-541.08120383261121
 31
0.0
  0
LINE
  5
323
100
AcDbEntity
  8
PLT70-1405
370
              15
390
0
  6
STYLE_12
 62
               7
100
AcDbLine
 10
-494.4259744490264
 20
-541.08120383261121
 30
0.0
 11
-494.4259744490264
 21
-529.85554498943384
 31
0.0
  0
ARC
  5
324
100
AcDbEntity
  8
PLT70-1405
370
              15
390
0
  6
STYLE_12
 62
               7
100
AcDbCircle
 10
-489.4259744490264
 20
-529.85554498943384
 30
0.0
 40
5.0000000000358229
100
AcDbArc
 50
130.00000000004388
 51
180.0
  0
LINE
  5
325
100
AcDbEntity
  8
PLT70-1405
370
              15
390
0
  6
STYLE_12
 62
               7
100
AcDbLine
 10
-494.4259744490264
 20
-529.85554498943384
 30
0.0
 11
-541.4259744490264
 21
-529.85554498943384
 31
0.0
  0
LINE
  5
326
100
AcDbEntity
  8
PLT70-1405
370
               5
390
0
  6
STYLE_12
 62
               7
100
AcDbLine
 10
438.23360405641142
 20
-519.29097769132932
 30
0.0
 11
504.82945659442339
 21
-519.30225177531247
 31
0.0
  0
LINE
  5
327
100
AcDbEntity
  8
PLT70-1405
370
              15
390
0
  6
Continuous
 62
               7
100
AcDbLine
 10
-744.33375436766073
 20
827.08861684697331
 30
0.0
 11
-159.56141475163167
 21
827.08861684697331
 31
0.0
  0
POLYLINE
  5
328
100
AcDbEntity
  8
PLT70-1405
370
              15
390
0
  6
Continuous
 62
               7
100
AcDb2dPolyline
 66
               1
 10
0.0
 20
0.0
 30
0.0
 75
               5
  0
VERTEX
  5
329
100
AcDbEntity
  8
PLT70-1405
370
              15
390
0
  6
Continuous
 62
               7
100
AcDbVertex
100
AcDb2dVertex
 10
-749.33131450449582
 20
822.09105671013822
 30
0.0
  0
VERTEX
  5
32A
100
AcDbEntity
  8
PLT70-1405
370
              15
390
0
  6
Continuous
 62
               7
100
AcDbVertex
100
AcDb2dVertex
 10
-749.23445595486555
 20
823.06543497534585
 30
0.0
  0
VERTEX
  5
32B
100
AcDbEntity
  8
PLT70-1405
370
              15
390
0
  6
Continuous
 62
               7
100
AcDbVertex
100
AcDb2dVertex
 10
-748.94949933345197
 20
824.00241478453972
 30
0.0
  0
VERTEX
  5
32C
100
AcDbEntity
  8
PLT70-1405
370
              15
390
0
  6
Continuous
 62
               7
100
AcDbVertex
100
AcDb2dVertex
 10
-748.48738180729561
 20
824.86603310416103
 30
0.0
  0
VERTEX
  5
32D
100
AcDbEntity
  8
PLT70-1405
370
              15
390
0
  6
Continuous
 62
               7
100
AcDbVertex
100
AcDb2dVertex
 10
-747.86584030918311
 20
825.62314265154419
 30
0.0
  0
VERTEX
  5
32E
100
AcDbEntity
  8
PLT70-1405
370
              15
390
0
  6
Continuous
 62
               7
100
AcDbVertex
100
AcDb2dVertex
 10
-747.10873076168355
 20
826.24468414965668
 30
0.0
  0
VERTEX
  5
32F
100
AcDbEntity
  8
PLT70-1405
370
              15
390
0
  6
Continuous
 62
               7
100
AcDbVertex
100
AcDb2dVertex
 10
-746.24511244206224
 20
826.70680167598766
 30
0.0
  0
VERTEX
  5
330
100
AcDbEntity
  8
PLT70-1405
370
              15
390
0
  6
Continuous
 62
               7
100
AcDbVertex
100
AcDb2dVertex
 10
-745.30813263286836
 20
826.99175829722662
 30
0.0
  0
VERTEX
  5
331
100
AcDbEntity
  8
PLT70-1405
370
              15
390
0
  6
Continuous
 62
               7
100
AcDbVertex
100
AcDb2dVertex
 10
-744.33375436766073
 20
827.08861684697331
 30
0.0
  0
SEQEND
  5
332
100
AcDbEntity
  8
PLT70-1405
370
              15
390
0
  6
Continuous
 62
               7
  0
POLYLINE
  5
333
100
AcDbEntity
  8
PLT70-1405
370
              15
390
0
  6
Continuous
 62
               7
100
AcDb2dPolyline
 66
               1
 10
0.0
 20
0.0
 30
0.0
 75
               5
  0
VERTEX
  5
334
100
AcDbEntity
  8
PLT70-1405
370
              15
390
0
  6
Continuous
 62
               7
100
AcDbVertex
100
AcDb2dVertex
 10
-159.56141475163167
 20
827.08861684697331
 30
0.0
  0
VERTEX
  5
335
100
AcDbEntity
  8
PLT70-1405
370
              15
390
0
  6
Continuous
 62
               7
100
AcDbVertex
100
AcDb2dVertex
 10
-158.58703648642404
 20
826.99175829722662
 30
0.0
  0
VERTEX
  5
336
100
AcDbEntity
  8
PLT70-1405
370
              15
390
0
  6
Continuous
 62
               7
100
AcDbVertex
100
AcDb2dVertex
 10
-157.65005667728838
 20
826.70680167598766
 30
0.0
  0
VERTEX
  5
337
100
AcDbEntity
  8
PLT70-1405
370
              15
390
0
  6
Continuous
 62
               7
100
AcDbVertex
100
AcDb2dVertex
 10
-156.78643835772527
 20
826.24468414965668
 30
0.0
  0
VERTEX
  5
338
100
AcDbEntity
  8
PLT70-1405
370
              15
390
0
  6
Continuous
 62
               7
100
AcDbVertex
100
AcDb2dVertex
 10
-156.02932881022571
 20
825.62314265154419
 30
0.0
  0
VERTEX
  5
339
100
AcDbEntity
  8
PLT70-1405
370
              15
390
0
  6
Continuous
 62
               7
100
AcDbVertex
100
AcDb2dVertex
 10
-155.40778731211321
 20
824.86603310416103
 30
0.0
  0
VERTEX
  5
33A
100
AcDbEntity
  8
PLT70-1405
370
              15
390
0
  6
Continuous
 62
               7
100
AcDbVertex
100
AcDb2dVertex
 10
-154.94566978589864
 20
824.00241478453972
 30
0.0
  0
VERTEX
  5
33B
100
AcDbEntity
  8
PLT70-1405
370
              15
390
0
  6
Continuous
 62
               7
100
AcDbVertex
100
AcDb2dVertex
 10
-154.66071316454327
 20
823.06543497534585
 30
0.0
  0
VERTEX
  5
33C
100
AcDbEntity
  8
PLT70-1405
370
              15
390
0
  6
Continuous
 62
               7
100
AcDbVertex
100
AcDb2dVertex
 10
-154.56385461479658
 20
822.09105671013822
 30
0.0
  0
SEQEND
  5
33D
100
AcDbEntity
  8
PLT70-1405
370
              15
390
0
  6
Continuous
 62
               7
  0
LINE
  5
33E
100
AcDbEntity
  8
PLT70-1405
370
              15
390
0
  6
Continuous
 62
               7
100
AcDbLine
 10
-159.56141475163167
 20
827.08861684697331
 30
0.0
 11
-154.77699726028368
 21
831.8730343382631
 31
0.0
  0
ARC
  5
33F
100
AcDbEntity
  8
PLT70-1405
370
              15
390
0
  6
Continuous
 62
               7
100
AcDbCircle
 10
-154.77874503162457
 20
826.87372643014533
 30
0.0
 40
4.9993082136403251
100
AcDbArc
 50
0.0200310776297504
 51
89.979969243913857
  0
LINE
  5
340
100
AcDbEntity
  8
PLT70-1405
370
              15
390
0
  6
Continuous
 62
               7
100
AcDbLine
 10
-149.7794371235068
 20
826.87547420142801
 30
0.0
 11
-154.56385461479658
 21
822.09105671013822
 31
0.0
  0
LINE
  5
341
100
AcDbEntity
  8
PLT70-1405
370
              15
390
0
  6
Continuous
 62
               7
100
AcDbLine
 10
-749.33131450449582
 20
822.09105671013822
 30
0.0
 11
-756.02924971899483
 21
826.87547420142801
 31
0.0
  0
ARC
  5
342
100
AcDbEntity
  8
PLT70-1405
370
              15
390
0
  6
Continuous
 62
               7
100
AcDbCircle
 10
-751.02994181099348
 20
826.87372643014533
 30
0.0
 40
4.9993082136304956
100
AcDbArc
 50
90.020030755419043
 51
179.97996904044726
  0
LINE
  5
343
100
AcDbEntity
  8
PLT70-1405
370
              15
390
0
  6
Continuous
 62
               7
100
AcDbLine
 10
-751.03168958227616
 20
831.8730343382631
 30
0.0
 11
-744.33375436766073
 21
827.08861684697331
 31
0.0
  0
LINE
  5
344
100
AcDbEntity
  8
PLT70-1405
370
              15
390
0
  6
Continuous
 62
               7
100
AcDbLine
 10
-154.77699726028368
 20
831.87401028352906
 30
0.0
 11
-751.03168958227616
 21
831.8730343382631
 31
0.0
  0
LINE
  5
345
100
AcDbEntity
  8
PLT70-1405
370
              15
390
0
  6
Continuous
 62
               7
100
AcDbLine
 10
-149.77846117818262
 20
826.87547420142801
 30
0.0
 11
-149.7794371235068
 21
826.87547420142801
 31
0.0
  0
LINE
  5
346
100
AcDbEntity
  8
PLT70-1405
370
              15
390
0
  6
Continuous
 62
               7
100
AcDbLine
 10
-154.77699726028368
 20
831.87401028352906
 30
0.0
 11
-154.77699726028368
 21
831.8730343382631
 31
0.0
  0
LINE
  5
347
100
AcDbEntity
  8
PLT70-1405
370
              15
390
0
  6
Continuous
 62
               7
100
AcDbLine
 10
-756.02924971899483
 20
826.87547420142801
 30
0.0
 11
-756.030225664319
 21
826.87547420142801
 31
0.0
  0
LINE
  5
348
100
AcDbEntity
  8
PLT70-1405
370
              15
390
0
  6
Continuous
 62
               7
100
AcDbLine
 10
-751.03168958227616
 20
831.8730343382631
 30
0.0
 11
-751.03168958227616
 21
831.87401028352906
 31
0.0
  0
ARC
  5
349
100
AcDbEntity
  8
PLT70-1405
370
              15
390
0
  6
Continuous
 62
               7
100
AcDbCircle
 10
672.0367126353085
 20
-602.08120383261121
 30
0.0
 40
2.0
100
AcDbArc
 50
270.0
 51
1.3027978478573345
  0
CIRCLE
  5
34A
100
AcDbEntity
  8
PLT70-1405
370
               5
390
0
  6
Continuous
 62
               7
100
AcDbCircle
 10
383.90629315376282
 20
629.40519966869033
 30
0.0
 40
55.0
  0
LINE
  5
34B
100
AcDbEntity
  8
PLT70-1405
370
               5
390
0
  6
STYLE_12
 62
               7
100
AcDbLine
 10
-718.96977852738928
 20
559.27401028355234
 30
0.0
 11
-718.96977852744749
 21
729.27401028355234
 31
0.0
  0
LINE
  5
34C
100
AcDbEntity
  8
PLT70-1405
370
               5
390
0
  6
STYLE_12
 62
               7
100
AcDbLine
 10
-749.36948025855236
 20
559.27401028355234
 30
0.0
 11
-749.36948025855236
 21
727.27401028355234
 31
0.0
  0
ARC
  5
34D
100
AcDbEntity
  8
PLT70-1405
370
              15
390
0
  6
Continuous
 62
               7
100
AcDbCircle
 10
-708.96977852738928
 20
789.40519966874854
 30
0.0
 40
10.0
100
AcDbArc
 50
90.0
 51
180.0
  0
ARC
  5
34E
100
AcDbEntity
  8
PLT70-1405
370
              15
390
0
  6
Continuous
 62
               7
100
AcDbCircle
 10
-706.1929878758383
 20
783.36547786943265
 30
0.0
 40
9.9999999999955751
100
AcDbArc
 50
89.980201318252668
 51
180.00133976761921
  0
ARC
  5
34F
100
AcDbEntity
  8
PLT70-1405
370
              15
390
0
  6
Continuous
 62
               7
100
AcDbCircle
 10
-706.18578695366159
 20
475.41473536999547
 30
0.0
 40
9.9999999999981473
100
AcDbArc
 50
180.00133976761921
 51
270.0209282567028
  0
ENDSEC
  0
SECTION
  2
OBJECTS
  0
DICTIONARY
  5
19
100
AcDbDictionary
280
               0
281
               1
  3
ACAD_GROUP
350
1A
  3
ACAD_MLINESTYLE
350
1B
  3
ACAD_LAYOUT
350
1E
  3
ACAD_PLOTSETTINGS
350
22
  3
ACAD_PLOTSTYLENAME
350
1F
  0
DICTIONARY
  5
1A
102
{ACAD_REACTORS
330
19
102
}
100
AcDbDictionary
280
               0
281
               1
  0
DICTIONARY
  5
1B
102
{ACAD_REACTORS
330
19
102
}
100
AcDbDictionary
280
               0
281
               1
  3
Standard
350
1C
  0
MLINESTYLE
  5
1C
102
{ACAD_REACTORS
330
1B
102
}
100
AcDbMlineStyle
  2
Standard
 70
               0
  3

 62
               0
 51
90.0
 52
90.0
 71
               2
 49
0.5
 62
             256
  6
ByLayer
 49
-0.5
 62
             256
  6
ByLayer
  0
ACDBDICTIONARYWDFLT
  5
1F
102
{ACAD_REACTORS
330
19
102
}
100
AcDbDictionary
281
               1
  3
Normal
350
1D
100
AcDbDictionaryWithDefault
340
1D
  0
ACDBPLACEHOLDER
  5
1D
102
{ACAD_REACTORS
330
1F
102
}
  0
LAYOUT
  5
20
102
{ACAD_REACTORS
330
1E
102
}
100
AcDbPlotSettings
  1

  2

  4

  6

 40
0.0
 41
0.0
 42
0.0
 43
0.0
 44
0.0
 45
0.0
 46
0.0
 47
0.0
 48
0.0
 49
0.0
140
0.0
141
0.0
142
1.0
143
1.0
 70
            1024
 72
               0
 73
               0
 74
               0
  7

 75
               0
147
1.0
148
0.0
149
0.0
100
AcDbLayout
  1
Model
 70
               0
 71
               0
 10
0.0
 20
0.0
 11
0.0
 21
0.0
 12
0.0
 22
0.0
 32
0.0
 14
0.0
 24
0.0
 34
0.0
 15
0.0
 25
0.0
 35
0.0
146
0.0
 13
0.0
 23
0.0
 33
0.0
 16
0.0
 26
0.0
 36
0.0
 17
0.0
 27
0.0
 37
0.0
 76
               0
330
A
331
0
345
0
346
0
  0
LAYOUT
  5
21
102
{ACAD_REACTORS
330
1E
102
}
100
AcDbPlotSettings
  1

  2

  4

  6

 40
0.0
 41
0.0
 42
0.0
 43
0.0
 44
0.0
 45
0.0
 46
0.0
 47
0.0
 48
0.0
 49
0.0
140
0.0
141
0.0
142
1.0
143
1.0
 70
               0
 72
               0
 73
               0
 74
               0
  7

 75
               0
147
1.0
148
0.0
149
0.0
100
AcDbLayout
  1
Layout1
 70
               0
 71
               0
 10
0.0
 20
0.0
 11
0.0
 21
0.0
 12
0.0
 22
0.0
 32
0.0
 14
0.0
 24
0.0
 34
0.0
 15
0.0
 25
0.0
 35
0.0
146
0.0
 13
0.0
 23
0.0
 33
0.0
 16
0.0
 26
0.0
 36
0.0
 17
0.0
 27
0.0
 37
0.0
 76
               0
330
B
331
0
345
0
346
0
  0
DICTIONARY
  5
1E
102
{ACAD_REACTORS
330
19
102
}
100
AcDbDictionary
280
               0
281
               1
  3
Layout1
350
21
  3
Model
350
20
  0
DICTIONARY
  5
22
102
{ACAD_REACTORS
330
19
102
}
100
AcDbDictionary
280
               0
281
               1
  0
ENDSEC
  0
EOF
