  0
SECTION
  2
HEADER
  9
$ACADVER
  1
AC1015
  9
$ACADMAINTVER
 70
               6
  9
$DWGCODEPAGE
  3
ANSI_932
  9
$INSBASE
 10
0.0
 20
0.0
 30
0.0
  9
$EXTMIN
 10
-975.00000000023283
 20
-1418.7614075562033
 30
-14.834305555555556
  9
$EXTMAX
 10
975.00000000023283
 20
1418.7614075562033
 30
14.834305555555556
  9
$LIMMIN
 10
0.0
 20
0.0
  9
$LIMMAX
 10
0.0
 20
0.0
  9
$ORTHOMODE
 70
               0
  9
$REGENMODE
 70
               1
  9
$FILLMODE
 70
               1
  9
$QTEXTMODE
 70
               0
  9
$MIRRTEXT
 70
               1
  9
$LTSCALE
 40
50.799999999999997
  9
$ATTMODE
 70
               1
  9
$TEXTSIZE
 40
0.2
  9
$TRACEWID
 40
1.0
  9
$TEXTSTYLE
  7
Standard
  9
$CLAYER
  8
notes
  9
$CELTYPE
  6
Continuous
  9
$CECOLOR
 62
             256
  9
$CELTSCALE
 40
1.0
  9
$DISPSILH
 70
               0
  9
$DIMSCALE
 40
1.0
  9
$DIMASZ
 40
31.75
  9
$DIMEXO
 40
0.0
  9
$DIMDLI
 40
6.9999999999999396
  9
$DIMRND
 40
0.0
  9
$DIMDLE
 40
0.0
  9
$DIMEXE
 40
19.999999999996199
  9
$DIMTP
 40
0.0
  9
$DIMTM
 40
0.0
  9
$DIMTXT
 40
24.432617187500004
  9
$DIMCEN
 40
0.0
  9
$DIMTSZ
 40
0.0
  9
$DIMTOL
 70
               0
  9
$DIMLIM
 70
               0
  9
$DIMTIH
 70
               0
  9
$DIMTOH
 70
               0
  9
$DIMSE1
 70
               0
  9
$DIMSE2
 70
               0
  9
$DIMTAD
 70
               1
  9
$DIMZIN
 70
              11
  9
$DIMBLK
  1
VW_FILLEDARROW
  9
$DIMASO
 70
               1
  9
$DIMSHO
 70
               1
  9
$DIMPOST
  1
<>
  9
$DIMAPOST
  1
[]
  9
$DIMALT
 70
               0
  9
$DIMALTD
 70
               1
  9
$DIMALTF
 40
1.0
  9
$DIMLFAC
 40
1.0
  9
$DIMTOFL
 70
               0
  9
$DIMTVP
 40
0.0
  9
$DIMTIX
 70
               1
  9
$DIMSOXD
 70
               0
  9
$DIMSAH
 70
               0
  9
$DIMBLK1
  1

  9
$DIMBLK2
  1

  9
$DIMSTYLE
  2
JIS
  9
$DIMCLRD
 70
               0
  9
$DIMCLRE
 70
               0
  9
$DIMCLRT
 70
               0
  9
$DIMTFAC
 40
1.0
  9
$DIMGAP
 40
1.00000000000108
  9
$DIMJUST
 70
               0
  9
$DIMSD1
 70
               0
  9
$DIMSD2
 70
               0
  9
$DIMTOLJ
 70
               1
  9
$DIMTZIN
 70
              11
  9
$DIMALTZ
 70
              11
  9
$DIMALTTZ
 70
              11
  9
$DIMUPT
 70
               0
  9
$DIMDEC
 70
               1
  9
$DIMTDEC
 70
               1
  9
$DIMALTU
 70
               2
  9
$DIMALTTD
 70
               2
  9
$DIMTXSTY
  7
ＭＳ ゴシック
  9
$DIMAUNIT
 70
               0
  9
$DIMADEC
 70
               2
  9
$DIMALTRND
 40
0.0
  9
$DIMAZIN
 70
               0
  9
$DIMDSEP
 70
              46
  9
$DIMATFIT
 70
               0
  9
$DIMFRAC
 70
               2
  9
$DIMLDRBLK
  1

  9
$DIMLUNIT
 70
               2
  9
$DIMLWD
 70
              -2
  9
$DIMLWE
 70
              -2
  9
$DIMTMOVE
 70
               0
  9
$LUNITS
 70
               2
  9
$LUPREC
 70
               4
  9
$SKETCHINC
 40
0.1
  9
$FILLETRAD
 40
0.0
  9
$AUNITS
 70
               0
  9
$AUPREC
 70
               0
  9
$MENU
  1
acad
  9
$ELEVATION
 40
0.0
  9
$PELEVATION
 40
0.0
  9
$THICKNESS
 40
0.0
  9
$LIMCHECK
 70
               0
  9
$CHAMFERA
 40
0.0
  9
$CHAMFERB
 40
0.0
  9
$CHAMFERC
 40
0.0
  9
$CHAMFERD
 40
0.0
  9
$SKPOLY
 70
               0
  9
$TDCREATE
 40
2455883.727777778
  9
$TDUCREATE
 40
0.000000000
  9
$TDUPDATE
 40
2455883.727777778
  9
$TDUUPDATE
 40
0.000000000
  9
$TDINDWG
 40
0.0000000000
  9
$TDUSRTIMER
 40
0.0000000000
  9
$USRTIMER
 70
               1
  9
$ANGBASE
 50
0.0
  9
$ANGDIR
 70
               0
  9
$PDMODE
 70
               1
  9
$PDSIZE
 40
-2.0
  9
$PLINEWID
 40
0.0
  9
$SPLFRAME
 70
               0
  9
$SPLINETYPE
 70
               6
  9
$SPLINESEGS
 70
               8
  9
$HANDSEED
  5
184
  9
$SURFTAB1
 70
               6
  9
$SURFTAB2
 70
               6
  9
$SURFTYPE
 70
               6
  9
$SURFU
 70
               6
  9
$SURFV
 70
               6
  9
$UCSBASE
  2

  9
$UCSNAME
  2

  9
$UCSORG
 10
0.0
 20
0.0
 30
0.0
  9
$UCSXDIR
 10
1.0
 20
0.0
 30
0.0
  9
$UCSYDIR
 10
0.0
 20
1.0
 30
0.0
  9
$UCSORTHOREF
  2

  9
$UCSORTHOVIEW
 70
               0
  9
$UCSORGTOP
 10
0.0
 20
0.0
 30
0.0
  9
$UCSORGBOTTOM
 10
0.0
 20
0.0
 30
0.0
  9
$UCSORGLEFT
 10
0.0
 20
0.0
 30
0.0
  9
$UCSORGRIGHT
 10
0.0
 20
0.0
 30
0.0
  9
$UCSORGFRONT
 10
0.0
 20
0.0
 30
0.0
  9
$UCSORGBACK
 10
0.0
 20
0.0
 30
0.0
  9
$PUCSBASE
  2

  9
$PUCSNAME
  2

  9
$PUCSORG
 10
0.0
 20
0.0
 30
0.0
  9
$PUCSXDIR
 10
1.0
 20
0.0
 30
0.0
  9
$PUCSYDIR
 10
0.0
 20
1.0
 30
0.0
  9
$PUCSORTHOREF
  2

  9
$PUCSORTHOVIEW
 70
               0
  9
$PUCSORGTOP
 10
0.0
 20
0.0
 30
0.0
  9
$PUCSORGBOTTOM
 10
0.0
 20
0.0
 30
0.0
  9
$PUCSORGLEFT
 10
0.0
 20
0.0
 30
0.0
  9
$PUCSORGRIGHT
 10
0.0
 20
0.0
 30
0.0
  9
$PUCSORGFRONT
 10
0.0
 20
0.0
 30
0.0
  9
$PUCSORGBACK
 10
0.0
 20
0.0
 30
0.0
  9
$USERI1
 70
               0
  9
$USERI2
 70
               0
  9
$USERI3
 70
               0
  9
$USERI4
 70
               0
  9
$USERI5
 70
               0
  9
$USERR1
 40
0.0
  9
$USERR2
 40
0.0
  9
$USERR3
 40
0.0
  9
$USERR4
 40
0.0
  9
$USERR5
 40
0.0
  9
$WORLDVIEW
 70
               1
  9
$SHADEDGE
 70
               3
  9
$SHADEDIF
 70
              70
  9
$TILEMODE
 70
               1
  9
$MAXACTVP
 70
              64
  9
$PINSBASE
 10
0.0
 20
0.0
 30
0.0
  9
$PLIMCHECK
 70
               0
  9
$PEXTMIN
 10
1.0000000000000000E+20
 20
1.0000000000000000E+20
 30
1.0000000000000000E+20
  9
$PEXTMAX
 10
-1.0000000000000000E+20
 20
-1.0000000000000000E+20
 30
-1.0000000000000000E+20
  9
$PLIMMIN
 10
0.0
 20
0.0
  9
$PLIMMAX
 10
12.0
 20
9.0
  9
$UNITMODE
 70
               0
  9
$VISRETAIN
 70
               0
  9
$PLINEGEN
 70
               1
  9
$PSLTSCALE
 70
               0
  9
$TREEDEPTH
 70
            3020
  9
$CMLSTYLE
  2
Standard
  9
$CMLJUST
 70
               0
  9
$CMLSCALE
 40
1.0
  9
$PROXYGRAPHICS
 70
               0
  9
$MEASUREMENT
 70
               1
  9
$CELWEIGHT
370
               0
  9
$ENDCAPS
280
               0
  9
$JOINSTYLE
280
               0
  9
$LWDISPLAY
290
               1
  9
$INSUNITS
 70
               4
  9
$HYPERLINKBASE
  1

  9
$STYLESHEET
  1

  9
$XEDIT
290
               1
  9
$CEPSNTYPE
380
               0
  9
$PSTYLEMODE
290
               1
  9
$FINGERPRINTGUID
  2

  9
$VERSIONGUID
  2

  9
$EXTNAMES
290
               1
  9
$PSVPSCALE
 40
0.0
  0
ENDSEC
  0
SECTION
  2
CLASSES
  0
CLASS
  1
LWPOLYLINE
  2
AcDbPolyline
  3
AutoCAD 2000
 90
        0
280
               0
281
               1
  0
CLASS
  1
IMAGE
  2
AcDbRasterImage
  3
ISM
 90
      127
280
               0
281
               1
  0
CLASS
  1
OLE2FRAME
  2
AcDbOle2Frame
  3
AutoCAD 2000
 90
        0
280
               0
281
               1
  0
CLASS
  1
HATCH
  2
AcDbHatch
  3
AutoCAD 2000
 90
        0
280
               0
281
               1
  0
CLASS
  1
DICTIONARYVAR
  2
AcDbDictionaryVar
  3
AutoCAD 2000
 90
        0
280
               0
281
               0
  0
CLASS
  1
RASTERVARIABLES
  2
AcDbRasterVariables
  3
ISM
 90
        0
280
               0
281
               0
  0
CLASS
  1
IMAGEDEF
  2
AcDbRasterImageDef
  3
ISM
 90
        0
280
               0
281
               0
  0
CLASS
  1
IMAGEDEF_REACTOR
  2
AcDbRasterImageDefReactor
  3
ISM
 90
        1
280
               0
281
               0
  0
CLASS
  1
IDBUFFER
  2
AcDbIdBuffer
  3
AutoCAD 2000
 90
        0
280
               0
281
               0
  0
CLASS
  1
SPATIAL_FILTER
  2
AcDbSpatialFilter
  3
AutoCAD 2000
 90
        0
280
               0
281
               0
  0
CLASS
  1
XRECORD
  2
AcDbXrecord
  3
AutoCAD 2000
 90
        0
280
               0
281
               0
  0
CLASS
  1
SORTENTSTABLE
  2
AcDbSortentsTable
  3
AutoCAD 2000
 90
        0
280
               0
281
               0
  0
CLASS
  1
LAYER_INDEX
  2
AcDbLayerIndex
  3
AutoCAD 2000
 90
        0
280
               0
281
               0
  0
CLASS
  1
SPATIAL_INDEX
  2
AcDbSpatialIndex
  3
AutoCAD 2000
 90
        0
280
               0
281
               0
  0
CLASS
  1
OBJECT_PTR
  2
CAseDLPNTableRecord
  3
"ASE-LPNTableRecord"
 90
        1
280
               0
281
               0
  0
CLASS
  1
LAYOUT
  2
AcDbLayout
  3
AutoCAD 2000
 90
        0
280
               0
281
               0
  0
CLASS
  1
PLOTSETTINGS
  2
AcDbPlotSettings
  3
AutoCAD 2000
 90
        0
280
               0
281
               0
  0
CLASS
  1
ACDBDICTIONARYWDFLT
  2
AcDbDictionaryWithDefault
  3
AutoCAD 2000
 90
        0
280
               0
281
               0
  0
CLASS
  1
ACDBPLACEHOLDER
  2
AcDbPlaceHolder
  3
AutoCAD 2000
 90
        0
280
               0
281
               0
  0
ENDSEC
  0
SECTION
  2
TABLES
  0
TABLE
  2
VPORT
  5
7
100
AcDbSymbolTable
 70
               1
  0
VPORT
  5
15
100
AcDbSymbolTableRecord
100
AcDbViewportTableRecord
  2
*ACTIVE
 70
               0
 10
0.0
 20
0.0
 11
1.0
 21
1.0
 12
0.0
 22
0.0
 13
0.0
 23
0.0
 14
1.0
 24
1.0
 15
0.0
 25
0.0
 16
0.0
 26
0.0
 36
1.0
 17
0.0
 27
0.0
 37
0.0
 40
2837.5228151124065
 41
0.688564
 42
50.0
 43
0.0
 44
0.0
 50
0.0
 51
0.0
 71
               0
 72
            2000
 73
               1
 74
               1
 75
               0
 76
               0
 77
               0
 78
               0
281
               0
 65
               0
110
0.0
120
0.0
130
0.0
111
1.0
121
0.0
131
0.0
112
0.0
122
1.0
132
0.0
345
0
346
0
 79
               0
146
0.0
  0
ENDTAB
  0
TABLE
  2
LTYPE
  5
4
100
AcDbSymbolTable
 70
              17
  0
LTYPE
  5
11
100
AcDbSymbolTableRecord
100
AcDbLinetypeTableRecord
  2
ByBlock
 70
              64
  3

 72
              65
 73
               0
 40
0.0
  0
LTYPE
  5
12
100
AcDbSymbolTableRecord
100
AcDbLinetypeTableRecord
  2
ByLayer
 70
              64
  3

 72
              65
 73
               0
 40
0.0
  0
LTYPE
  5
13
100
AcDbSymbolTableRecord
100
AcDbLinetypeTableRecord
  2
Continuous
 70
              64
  3
Solid line
 72
              65
 73
               0
 40
0.0
  0
LTYPE
  5
36
100
AcDbSymbolTableRecord
100
AcDbLinetypeTableRecord
  2
STYLE_01
 70
               0
  3

 72
              65
 73
               4
 40
0.7100362796272444
 49
0.3000024098295175
 74
               0
 49
-0.0250119606356513
 74
               0
 49
0.0600075386969068
 74
               0
 49
-0.0250119606356514
 74
               0
  0
LTYPE
  5
37
100
AcDbSymbolTableRecord
100
AcDbLinetypeTableRecord
  2
STYLE_02
 70
               0
  3

 72
              65
 73
               4
 40
0.7100362796272444
 49
0.3000024098295175
 74
               0
 49
-0.0250119606356513
 74
               0
 49
0.0600075386969068
 74
               0
 49
-0.0250119606356514
 74
               0
  0
LTYPE
  5
38
100
AcDbSymbolTableRecord
100
AcDbLinetypeTableRecord
  2
STYLE_03
 70
               0
  3

 72
              65
 73
               4
 40
0.7100362796272444
 49
0.3000024098295175
 74
               0
 49
-0.0250119606356513
 74
               0
 49
0.0600075386969068
 74
               0
 49
-0.0250119606356514
 74
               0
  0
LTYPE
  5
39
100
AcDbSymbolTableRecord
100
AcDbLinetypeTableRecord
  2
STYLE_04
 70
               0
  3

 72
              65
 73
               4
 40
0.7100362796272444
 49
0.3000024098295175
 74
               0
 49
-0.0250119606356513
 74
               0
 49
0.0600075386969068
 74
               0
 49
-0.0250119606356514
 74
               0
  0
LTYPE
  5
3A
100
AcDbSymbolTableRecord
100
AcDbLinetypeTableRecord
  2
STYLE_05
 70
               0
  3

 72
              65
 73
               4
 40
0.7100362796272444
 49
0.3000024098295175
 74
               0
 49
-0.0250119606356513
 74
               0
 49
0.0600075386969068
 74
               0
 49
-0.0250119606356514
 74
               0
  0
LTYPE
  5
3B
100
AcDbSymbolTableRecord
100
AcDbLinetypeTableRecord
  2
STYLE_06
 70
               0
  3

 72
              65
 73
               4
 40
1.0416400000000001
 49
0.625
 74
               0
 49
-0.20828
 74
               0
 49
0.06943
 74
               0
 49
-0.13893
 74
               0
  0
LTYPE
  5
3C
100
AcDbSymbolTableRecord
100
AcDbLinetypeTableRecord
  2
STYLE_07
 70
               0
  3

 72
              65
 73
               6
 40
1.875
 49
0.625
 74
               0
 49
-0.20828
 74
               0
 49
0.6250000000000001
 74
               0
 49
-0.2083599999999999
 74
               0
 49
0.06943
 74
               0
 49
-0.1389299999999999
 74
               0
  0
LTYPE
  5
3D
100
AcDbSymbolTableRecord
100
AcDbLinetypeTableRecord
  2
STYLE_08
 70
               0
  3

 72
              65
 73
               6
 40
1.25
 49
0.625
 74
               0
 49
-0.20828
 74
               0
 49
0.06943
 74
               0
 49
-0.13893
 74
               0
 49
0.0694299999999999
 74
               0
 49
-0.13893
 74
               0
  0
LTYPE
  5
3E
100
AcDbSymbolTableRecord
100
AcDbLinetypeTableRecord
  2
STYLE_09
 70
               0
  3

 72
              65
 73
               4
 40
5.0
 49
3.75
 74
               0
 49
-0.2777849999999998
 74
               0
 49
0.6944300000000003
 74
               0
 49
-0.2777849999999998
 74
               0
  0
LTYPE
  5
3F
100
AcDbSymbolTableRecord
100
AcDbLinetypeTableRecord
  2
STYLE_10
 70
               0
  3

 72
              65
 73
               6
 40
5.9375
 49
3.75
 74
               0
 49
-0.2777849999999998
 74
               0
 49
0.6944300000000003
 74
               0
 49
-0.2777849999999998
 74
               0
 49
0.625
 74
               0
 49
-0.3125
 74
               0
  0
LTYPE
  5
40
100
AcDbSymbolTableRecord
100
AcDbLinetypeTableRecord
  2
STYLE_11
 70
               0
  3

 72
              65
 73
               2
 40
0.0694444881889764
 49
0.0347222440944882
 74
               0
 49
-0.0347222440944882
 74
               0
  0
LTYPE
  5
41
100
AcDbSymbolTableRecord
100
AcDbLinetypeTableRecord
  2
STYLE_12
 70
               0
  3

 72
              65
 73
               2
 40
0.3937007874015748
 49
0.1968503937007874
 74
               0
 49
-0.1968503937007874
 74
               0
  0
LTYPE
  5
42
100
AcDbSymbolTableRecord
100
AcDbLinetypeTableRecord
  2
STYLE_13
 70
               0
  3

 72
              65
 73
               2
 40
0.5905511811023622
 49
0.2952755905511811
 74
               0
 49
-0.2952755905511811
 74
               0
  0
LTYPE
  5
43
100
AcDbSymbolTableRecord
100
AcDbLinetypeTableRecord
  2
STYLE_14
 70
               0
  3

 72
              65
 73
               2
 40
1.9685039370078738
 49
0.9842519685039369
 74
               0
 49
-0.9842519685039369
 74
               0
  0
ENDTAB
  0
TABLE
  2
LAYER
  5
2
100
AcDbSymbolTable
 70
               5
  0
LAYER
  5
14
100
AcDbSymbolTableRecord
100
AcDbLayerTableRecord
  2
0
 70
               0
 62
               7
  6
Continuous
290
               1
370
              -3
390
1D
  0
LAYER
  5
44
100
AcDbSymbolTableRecord
100
AcDbLayerTableRecord
  2
Defpoints
 70
               0
 62
               7
  6
Continuous
290
               0
370
              -3
390
1D
  0
LAYER
  5
45
100
AcDbSymbolTableRecord
100
AcDbLayerTableRecord
  2
template
 70
               0
 62
               7
  6
Continuous
290
               1
370
              -3
390
1D
  0
LAYER
  5
46
100
AcDbSymbolTableRecord
100
AcDbLayerTableRecord
  2
notes
 70
               0
 62
               7
  6
Continuous
290
               1
370
              -3
390
1D
  0
LAYER
  5
47
100
AcDbSymbolTableRecord
100
AcDbLayerTableRecord
  2
PLT70-5907
 70
               0
 62
               7
  6
Continuous
290
               1
370
              -3
390
1D
  0
ENDTAB
  0
TABLE
  2
STYLE
  5
3
100
AcDbSymbolTable
 70
               2
  0
STYLE
  5
17
100
AcDbSymbolTableRecord
100
AcDbTextStyleTableRecord
  2
Standard
 70
               0
 40
0.0
 41
1.0
 50
0.0
 71
               0
 42
0.0
  3
txt
  4
BIGFONT.SHX
  0
STYLE
  5
35
100
AcDbSymbolTableRecord
100
AcDbTextStyleTableRecord
  2
ＭＳ ゴシック
 70
               0
 40
0.0
 41
1.0
 50
0.0
 71
               0
 42
0.0
  3

  4
ＭＳ ゴシック
1001
ACAD
1000
ＭＳ ゴシック
1071
        0
  0
ENDTAB
  0
TABLE
  2
VIEW
  5
5
100
AcDbSymbolTable
 70
               0
  0
ENDTAB
  0
TABLE
  2
UCS
  5
6
100
AcDbSymbolTable
 70
               0
  0
ENDTAB
  0
TABLE
  2
APPID
  5
8
100
AcDbSymbolTable
 70
               1
  0
APPID
  5
16
100
AcDbSymbolTableRecord
100
AcDbRegAppTableRecord
  2
ACAD
 70
               0
  0
ENDTAB
  0
TABLE
  2
DIMSTYLE
  5
9
100
AcDbSymbolTable
 70
               3
100
AcDbDimStyleTable
 71
               0
  0
DIMSTYLE
105
18
100
AcDbSymbolTableRecord
100
AcDbDimStyleTableRecord
  2
Standard
 70
               0
  3

  4

 40
1.0
 41
0.18
 42
0.0625
 43
0.38
 44
0.18
 45
0.0
 46
0.0
 47
0.0
 48
0.0
 71
               0
 72
               0
 73
               1
 74
               1
 75
               0
 76
               0
 77
               0
 78
               0
 79
               0
140
0.18
141
0.09
142
0.0
143
25.399999999999999
144
1.0
145
0.0
146
1.0
147
0.09
148
0.0
170
               0
171
               2
172
               0
173
               0
174
               0
175
               0
176
               0
177
               0
178
               0
179
               0
271
               4
272
               4
273
               2
274
               2
275
               0
276
               0
277
               2
278
              46
279
               0
280
               0
281
               0
282
               0
283
               1
284
               0
285
               0
286
               0
288
               0
289
               3
340
17
341
0
342
0
343
0
344
0
371
              -2
372
              -2
  0
DIMSTYLE
105
50
100
AcDbSymbolTableRecord
100
AcDbDimStyleTableRecord
  2
tfrom線あり
 70
               0
  3
<>
  4
[]
 40
1.0
 41
3.999755859375
 42
24.999999999999996
 43
0.9999999999999999
 44
0.0
 45
0.0
 46
0.0
 47
0.0
 48
0.0
 71
               0
 72
               0
 73
               0
 74
               0
 75
               0
 76
               0
 77
               1
 78
              11
 79
               0
140
24.432617187500004
141
0.0
142
0.0
143
1.0
144
1.0
145
0.0
146
1.0
147
0.4999999999999999
148
0.0
170
               0
171
               1
172
               0
173
               0
174
               1
175
               0
176
               0
177
               0
178
               0
179
               2
271
               1
272
               1
273
               2
274
               2
275
               0
276
               2
277
               2
278
              46
279
               0
280
               0
281
               0
282
               0
283
               1
284
              11
285
              11
286
              11
288
               0
289
               0
340
35
341
48
342
48
343
0
344
0
371
              -2
372
              -2
  0
DIMSTYLE
105
55
100
AcDbSymbolTableRecord
100
AcDbDimStyleTableRecord
  2
JIS
 70
               0
  3
<>
  4
[]
 40
1.0
 41
31.75
 42
0.0
 43
6.9999999999999396
 44
19.999999999996199
 45
0.0
 46
0.0
 47
0.0
 48
0.0
 71
               0
 72
               0
 73
               0
 74
               0
 75
               0
 76
               0
 77
               1
 78
              11
 79
               0
140
24.432617187500004
141
0.0
142
0.0
143
1.0
144
1.0
145
0.0
146
1.0
147
1.00000000000108
148
0.0
170
               0
171
               1
172
               0
173
               0
174
               1
175
               0
176
               0
177
               0
178
               0
179
               2
271
               1
272
               1
273
               2
274
               2
275
               0
276
               2
277
               2
278
              46
279
               0
280
               0
281
               0
282
               0
283
               1
284
              11
285
              11
286
              11
288
               0
289
               0
340
35
341
51
342
51
343
0
344
0
371
              -2
372
              -2
  0
ENDTAB
  0
TABLE
  2
BLOCK_RECORD
  5
1
100
AcDbSymbolTable
 70
              20
  0
BLOCK_RECORD
  5
A
100
AcDbSymbolTableRecord
100
AcDbBlockTableRecord
  2
*MODEL_SPACE
340
20
  0
BLOCK_RECORD
  5
B
100
AcDbSymbolTableRecord
100
AcDbBlockTableRecord
  2
*PAPER_SPACE
340
21
  0
BLOCK_RECORD
  5
48
100
AcDbSymbolTableRecord
100
AcDbBlockTableRecord
  2
_DOT
340
0
  0
BLOCK_RECORD
  5
51
100
AcDbSymbolTableRecord
100
AcDbBlockTableRecord
  2
VW_FILLEDARROW
340
0
  0
BLOCK_RECORD
  5
23
100
AcDbSymbolTableRecord
100
AcDbBlockTableRecord
  2
グループ
340
0
102
{BLKREFS
331
13C
102
}
  0
BLOCK_RECORD
  5
24
100
AcDbSymbolTableRecord
100
AcDbBlockTableRecord
  2
*D3
340
0
  0
BLOCK_RECORD
  5
25
100
AcDbSymbolTableRecord
100
AcDbBlockTableRecord
  2
*D4
340
0
  0
BLOCK_RECORD
  5
26
100
AcDbSymbolTableRecord
100
AcDbBlockTableRecord
  2
*D5
340
0
  0
BLOCK_RECORD
  5
27
100
AcDbSymbolTableRecord
100
AcDbBlockTableRecord
  2
*D6
340
0
  0
BLOCK_RECORD
  5
28
100
AcDbSymbolTableRecord
100
AcDbBlockTableRecord
  2
*D7
340
0
  0
BLOCK_RECORD
  5
29
100
AcDbSymbolTableRecord
100
AcDbBlockTableRecord
  2
*D8
340
0
  0
BLOCK_RECORD
  5
2A
100
AcDbSymbolTableRecord
100
AcDbBlockTableRecord
  2
*D9
340
0
  0
BLOCK_RECORD
  5
2B
100
AcDbSymbolTableRecord
100
AcDbBlockTableRecord
  2
*D10
340
0
  0
BLOCK_RECORD
  5
2C
100
AcDbSymbolTableRecord
100
AcDbBlockTableRecord
  2
*D11
340
0
  0
BLOCK_RECORD
  5
2D
100
AcDbSymbolTableRecord
100
AcDbBlockTableRecord
  2
グループ-1
340
0
102
{BLKREFS
331
E1
102
}
  0
BLOCK_RECORD
  5
2E
100
AcDbSymbolTableRecord
100
AcDbBlockTableRecord
  2
グループ-2
340
0
102
{BLKREFS
331
E8
102
}
  0
BLOCK_RECORD
  5
2F
100
AcDbSymbolTableRecord
100
AcDbBlockTableRecord
  2
グループ-3
340
0
102
{BLKREFS
331
157
102
}
  0
BLOCK_RECORD
  5
30
100
AcDbSymbolTableRecord
100
AcDbBlockTableRecord
  2
グループ-4
340
0
102
{BLKREFS
331
158
102
}
  0
BLOCK_RECORD
  5
31
100
AcDbSymbolTableRecord
100
AcDbBlockTableRecord
  2
*D16
340
0
  0
BLOCK_RECORD
  5
32
100
AcDbSymbolTableRecord
100
AcDbBlockTableRecord
  2
グループ-5
340
0
102
{BLKREFS
331
16A
102
}
  0
BLOCK_RECORD
  5
33
100
AcDbSymbolTableRecord
100
AcDbBlockTableRecord
  2
グループ-6
340
0
102
{BLKREFS
331
16E
102
}
  0
BLOCK_RECORD
  5
34
100
AcDbSymbolTableRecord
100
AcDbBlockTableRecord
  2
*D19
340
0
  0
ENDTAB
  0
ENDSEC
  0
SECTION
  2
BLOCKS
  0
BLOCK
  5
D
100
AcDbEntity
  8
0
390
0
100
AcDbBlockBegin
  2
*MODEL_SPACE
 70
               0
 10
0.0
 20
0.0
 30
0.0
  3
*MODEL_SPACE
  1

  0
ENDBLK
  5
E
100
AcDbEntity
  8
0
390
0
100
AcDbBlockEnd
  0
BLOCK
  5
F
100
AcDbEntity
 67
               1
  8
0
390
0
100
AcDbBlockBegin
  2
*PAPER_SPACE
 70
               0
 10
0.0
 20
0.0
 30
0.0
  3
*PAPER_SPACE
  1

  0
ENDBLK
  5
10
100
AcDbEntity
 67
               1
  8
0
390
0
100
AcDbBlockEnd
  0
BLOCK
  5
49
100
AcDbEntity
  8
0
390
0
100
AcDbBlockBegin
  2
_DOT
 70
               0
 10
0.0
 20
0.0
 30
0.0
  3
_DOT
  1

  0
POLYLINE
  5
4A
100
AcDbEntity
  8
0
370
              -2
390
0
  6
ByBlock
 62
               0
100
AcDb2dPolyline
 66
               1
 10
0.0
 20
0.0
 30
0.0
 70
               1
 40
0.5
 41
0.5
  0
VERTEX
  5
4B
100
AcDbEntity
  8
0
370
              -2
390
0
  6
ByBlock
 62
               0
100
AcDbVertex
100
AcDb2dVertex
 10
-0.25
 20
0.0
 30
0.0
 42
1.0
  0
VERTEX
  5
4C
100
AcDbEntity
  8
0
370
              -2
390
0
  6
ByBlock
 62
               0
100
AcDbVertex
100
AcDb2dVertex
 10
0.25
 20
0.0
 30
0.0
 42
1.0
  0
SEQEND
  5
4D
100
AcDbEntity
  8
0
390
0
  0
LINE
  5
4E
100
AcDbEntity
  8
0
370
              -2
390
0
  6
ByBlock
 62
               0
100
AcDbLine
 10
-0.5
 20
0.0
 30
0.0
 11
-1.0
 21
0.0
 31
0.0
  0
ENDBLK
  5
4F
100
AcDbEntity
  8
0
390
0
100
AcDbBlockEnd
  0
BLOCK
  5
52
100
AcDbEntity
  8
0
370
              -2
390
0
  6
ByBlock
 62
               0
100
AcDbBlockBegin
  2
VW_FILLEDARROW
 70
               0
 10
0.0
 20
0.0
 30
0.0
  3
VW_FILLEDARROW
  1

  0
SOLID
  5
53
100
AcDbEntity
  8
0
370
              -2
390
0
 62
               0
100
AcDbTrace
 10
0.0
 20
0.0
 30
0.0
 11
-0.9921874999999999
 21
-0.2658558393652545
 31
0.0
 12
-0.9921874999999999
 22
0.2658558393652548
 32
0.0
 13
-0.9921874999999999
 23
0.2658558393652548
 33
0.0
  0
ENDBLK
  5
54
100
AcDbEntity
  8
0
390
0
100
AcDbBlockEnd
  0
BLOCK
  5
56
100
AcDbEntity
  8
template
390
0
100
AcDbBlockBegin
  2
グループ
 70
               0
 10
0.0
 20
0.0
 30
0.0
  3
グループ
  1

  0
LWPOLYLINE
  5
57
100
AcDbEntity
  8
0
370
              15
390
0
  6
Continuous
 62
               7
100
AcDbPolyline
 90
        8
 70
             129
 10
-1785.91431509522
 20
-5086.3883273001738
 10
-1785.91431509522
 20
-5092.3857159937652
 10
-1795.4155120132104
 20
-5092.3857159937652
 10
-1795.4155120132104
 20
-5116.8366792572524
 10
-1803.7708892749993
 20
-5116.8366792572524
 10
-1803.7708892749993
 20
-5092.3857159937652
 10
-1813.1038462213087
 20
-5092.3857159937652
 10
-1813.1038462213087
 20
-5086.3883273001738
  0
LWPOLYLINE
  5
58
100
AcDbEntity
  8
0
370
              15
390
0
  6
Continuous
 62
               7
100
AcDbPolyline
 90
      101
 70
             128
 10
-1773.1860232646482
 20
-5087.1165757931049
 10
-1773.17067323587
 20
-5087.1122150364235
 42
-0.0222221607426623
 10
-1772.8806686591902
 20
-5087.043590571182
 10
-1772.8648748951757
 20
-5087.0405871480798
 42
-0.0146883565892534
 10
-1772.6021721899792
 20
-5086.9985839611363
 42
-0.0127458844004221
 10
-1772.3375332228372
 20
-5086.9710469930733
 10
-1772.2750781445116
 20
-5086.9661535704836
 42
-0.0198099018638079
 10
-1771.8842290350306
 20
-5086.9510684130892
 10
-1771.8324175655921
 20
-5086.9511221887551
 42
-0.0147617382620567
 10
-1771.3377941046331
 20
-5086.9662422139954
 10
-1771.2651026497517
 20
-5086.9706148208807
 42
-0.0162624549131967
 10
-1770.8749490202804
 20
-5087.0068476961496
 10
-1770.7534166290061
 20
-5087.0221342551504
 42
-0.0080020874533231
 10
-1770.6078375979318
 20
-5087.0428171024141
 10
-1770.5695181273395
 20
-5087.0488883802227
 42
-0.0053821929234654
 10
-1770.5010340220083
 20
-5087.0604959040393
 10
-1771.2274397212218
 20
-5089.2414243597632
 42
0.0108667758245053
 10
-1771.2947567913532
 20
-5089.2282372445361
 10
-1771.3322248145464
 20
-5089.2217395019434
 42
0.0170663203075134
 10
-1771.4754416014634
 20
-5089.2019099046547
 10
-1771.5433169341463
 20
-5089.1948627340644
 42
0.022016237537665
 10
-1771.8236963420029
 20
-5089.1781803732902
 10
-1771.9015519090517
 20
-5089.1769810060241
 42
0.0282606915861246
 10
-1772.2371882326311
 20
-5089.1907842830005
 10
-1772.2811015064201
 20
-5089.1950842730075
 42
0.0169677213574296
 10
-1772.5270260013544
 20
-5089.2276213225596
 42
0.0190576269782465
 10
-1772.7699339639169
 20
-5089.2777681946554
 10
-1772.7761931520413
 20
-5089.2793111687679
 42
0.0213685643153115
 10
-1773.0265776365231
 20
-5089.3525114538788
 10
-1773.0320675314338
 20
-5089.3543744499366
 42
0.023759529720527
 10
-1773.285562416336
 20
-5089.4540589718345
 10
-1773.290664490361
 20
-5089.4563507473104
 42
0.0261857469069662
 10
-1773.5428352665942
 20
-5089.5858870846787
 10
-1773.5532614556671
 20
-5089.5919525591389
 42
0.027255306200819
 10
-1773.7896912309129
 20
-5089.747324765096
 10
-1773.824454244427
 20
-5089.7729859131923
 42
0.0325996893237523
 10
-1773.9746095880741
 20
-5089.8997337861692
 10
-1773.9983190171963
 20
-5089.9225518146832
 42
0.0138050959984122
 10
-1774.0902021734123
 20
-5090.0160014762259
 42
0.0125280104406707
 10
-1774.1770447062474
 20
-5090.1141648028106
 10
-1774.2007251511582
 20
-5090.1423233010028
 42
0.0205218024739402
 10
-1774.3258252266642
 20
-5090.3041166152334
 10
-1774.3482915671534
 20
-5090.3357763450658
 42
0.0163110129388997
 10
-1774.50400194641
 20
-5090.5711067801412
 10
-1774.5067258424583
 20
-5090.5755305421226
 42
0.013189734213428
 10
-1774.6535263633602
 20
-5090.8286626344834
 10
-1774.6552264587276
 20
-5090.831780873621
 42
0.0107895575820149
 10
-1774.7930031609405
 20
-5091.0979960832628
 10
-1774.7937360504634
 20
-5091.0994903159044
 42
0.0091371507404804
 10
-1774.9222159991125
 20
-5091.3740155136575
 10
-1774.9519616305238
 20
-5091.4407220208268
 42
0.0135418326186573
 10
-1775.1236755696004
 20
-5091.8556598061059
 10
-1775.1572803780264
 20
-5091.9435259483562
 42
0.0092834542506951
 10
-1775.3285094379585
 20
-5092.417424446674
 10
-1775.3541265656709
 20
-5092.4926655164545
 42
0.0054261043526587
 10
-1775.4617647139726
 20
-5092.820429489544
 10
-1775.4792907002081
 20
-5092.8758176519559
 42
0.0008225091123842
 10
-1775.5479607519715
 20
-5093.0940864099284
 10
-1776.5326498839036
 20
-5096.1189777031868
 10
-1773.3000260438325
 20
-5096.1189777031868
 10
-1773.8042184736892
 20
-5098.0234560015415
 10
-1777.06027475566
 20
-5098.0234560015415
 10
-1782.8894237880208
 20
-5116.8366790675245
 10
-1784.7145213983217
 20
-5116.8366790675245
 10
-1778.8798433628303
 20
-5098.0234560015415
 10
-1781.2849597318759
 20
-5098.0234560015415
 10
-1780.7807673020193
 20
-5096.1189777031868
 10
-1778.3522184910739
 20
-5096.1189777031868
 10
-1777.4920635728827
 20
-5093.4825647024882
 42
-0.0005863560882207
 10
-1777.45532889471
 20
-5093.3657382822748
 10
-1777.3792410610235
 20
-5093.1247459828046
 42
-0.0087522378913155
 10
-1777.1797729175673
 20
-5092.5294698956486
 10
-1777.0875086421574
 20
-5092.2693297271389
 42
-0.0077400953897169
 10
-1776.829574983019
 20
-5091.5763250495838
 10
-1776.8138100114297
 20
-5091.5358941661734
 42
-0.0082369946275266
 10
-1776.5667255408239
 20
-5090.931815100008
 42
-0.0085725238349979
 10
-1776.2994794448405
 20
-5090.3363890607525
 10
-1776.1978498438193
 20
-5090.1199679587316
 42
-0.0168109410632888
 10
-1775.9109054150954
 20
-5089.558760432632
 10
-1775.7850620246336
 20
-5089.3317963996305
 42
-0.0007817727128474
 10
-1775.7307776745779
 20
-5089.2342521546125
 10
-1775.7306493685783
 20
-5089.2340224459076
 42
-0.0036626141422181
 10
-1775.6757615045403
 20
-5089.137424565899
 42
-0.0080221151333376
 10
-1775.6186372491256
 20
-5089.0421453311183
 10
-1775.5879372977702
 20
-5088.9927543820122
 42
-0.0202139325448574
 10
-1775.4602815579569
 20
-5088.8047727813346
 10
-1775.4062140927758
 20
-5088.7316939171033
 42
-0.0249323791742044
 10
-1775.1470512990768
 20
-5088.4156486749698
 10
-1775.1229114849316
 20
-5088.3890344020365
 42
-0.0242132121548811
 10
-1774.7832307433789
 20
-5088.0491509158119
 10
-1774.7353191706395
 20
-5088.005641779635
 42
-0.025101752796841
 10
-1774.4513374699941
 20
-5087.7726490338719
 10
-1774.4498919931882
 20
-5087.7715797762985
 42
-0.0130868068998305
 10
-1774.1516313432126
 20
-5087.5627993077542
 10
-1774.150069524067
 20
-5087.5617658674773
 42
-0.0290329526432566
 10
-1773.8389583826697
 20
-5087.3809403658561
 10
-1773.8091128206629
 20
-5087.3658379830076
 42
-0.0160250189804819
 10
-1773.543208406923
 20
-5087.2418218728017
 42
-0.0267600375007489
 10
-1773.2679323294685
 20
-5087.1410735522522
 10
-1773.2411964099351
 20
-5087.1328809934239
 42
-0.0049981585160343
 10
-1773.1860232646482
 20
-5087.1165757931049
 42
-0.0049981585160343
  0
LWPOLYLINE
  5
59
100
AcDbEntity
  8
0
370
              15
390
0
  6
Continuous
 62
               7
100
AcDbPolyline
 90
      118
 70
             128
 10
-1753.3716557001949
 20
-5096.1929610309926
 10
-1751.4965337757217
 20
-5096.1929610309926
 10
-1752.3345726813036
 20
-5098.8745275574074
 42
-0.0010587230921636
 10
-1752.3031168657358
 20
-5098.8376230240301
 10
-1752.2449227751108
 20
-5098.7696407678632
 42
-0.0071874740450116
 10
-1752.0945475570113
 20
-5098.5990000758347
 10
-1751.9528247837493
 20
-5098.4427639345267
 42
-0.0148118053516391
 10
-1751.5026954910375
 20
-5097.9751500885295
 10
-1751.4154731561405
 20
-5097.8897527676836
 42
-0.0086273358571234
 10
-1751.0799243551205
 20
-5097.5723771336525
 10
-1751.0360906388787
 20
-5097.5323274893026
 42
-0.0103138323209032
 10
-1750.7780669366671
 20
-5097.3061643519795
 10
-1750.7322925303495
 20
-5097.2676823047277
 42
-0.006020674848694
 10
-1750.5594444662324
 20
-5097.1258876539687
 10
-1750.5574133353598
 20
-5097.1242619483482
 42
-0.006706902733605
 10
-1750.3851205206788
 20
-5096.9901113145352
 10
-1750.3825717547384
 20
-5096.9881811446485
 42
-0.0076184351937443
 10
-1750.2116664888795
 20
-5096.8628062694079
 42
-0.0089652861839407
 10
-1750.0367055261413
 20
-5096.7431730090711
 10
-1750.0003538060166
 20
-5096.7192617956025
 42
-0.0156916246000873
 10
-1749.8043943088319
 20
-5096.5989993091243
 42
-0.0023299010888585
 10
-1749.6041322648391
 20
-5096.4858213695816
 10
-1749.5887481324658
 20
-5096.47722137452
 42
-0.0107669341463466
 10
-1749.3545113073735
 20
-5096.3528212411693
 10
-1749.3322465063006
 20
-5096.3416044912192
 42
-0.0078058045878587
 10
-1749.0486563883785
 20
-5096.2042430355841
 10
-1749.0387493006469
 20
-5096.199633907705
 42
-0.0181829330645214
 10
-1748.7284398960221
 20
-5096.0687701666056
 10
-1748.6743844534651
 20
-5096.0482550466677
 42
-0.0208411535845261
 10
-1748.3252994860136
 20
-5095.9321645841737
 10
-1748.310943385894
 20
-5095.9280461392218
 42
-0.0222799817363011
 10
-1747.9822235919614
 20
-5095.8494045730804
 10
-1747.9733346287044
 20
-5095.8476925624918
 42
-0.0215509523704597
 10
-1747.6568636604402
 20
-5095.8007768739662
 10
-1747.6143816993945
 20
-5095.7963393471755
 42
-0.0182545925099377
 10
-1747.3802729200884
 20
-5095.7804955217907
 10
-1747.3408719037843
 20
-5095.7792709767155
 42
-0.007296285594843
 10
-1747.184949024047
 20
-5095.7767016481848
 10
-1747.1558493534476
 20
-5095.7766468127766
 42
-0.0059227517054405
 10
-1747.0580998543351
 20
-5095.7776205245646
 10
-1747.02885763671
 20
-5095.778258291175
 42
-0.0011833110983083
 10
-1746.9896063531246
 20
-5095.7792072954799
 10
-1747.784992948747
 20
-5098.3179412405916
 42
0.0143932052432131
 10
-1747.8113943310968
 20
-5098.3077422705346
 10
-1747.8186663035062
 20
-5098.3051710516775
 42
0.0234388604678959
 10
-1747.8604971694358
 20
-5098.2925518159609
 10
-1747.8691788323536
 20
-5098.2903708539561
 42
0.0199162742297422
 10
-1747.9294676664435
 20
-5098.2777541186224
 10
-1747.9502816042418
 20
-5098.2742569191942
 42
0.0293643551162654
 10
-1748.053356462998
 20
-5098.2631068735436
 10
-1748.0780416437242
 20
-5098.2618952565281
 42
0.0214606686263111
 10
-1748.2311825596882
 20
-5098.2609566961119
 10
-1748.2405544704866
 20
-5098.2613016076539
 42
0.0167564054737828
 10
-1748.4120746615692
 20
-5098.2733786500185
 10
-1748.4205344543493
 20
-5098.2742599904486
 42
0.0137677552908108
 10
-1748.6078877676457
 20
-5098.299009299003
 10
-1748.6152395071308
 20
-5098.300187218967
 42
0.0118497261347098
 10
-1748.8157372712401
 20
-5098.337204569144
 10
-1748.8218872784832
 20
-5098.3384914318631
 42
0.0106421144336386
 10
-1749.0327681657634
 20
-5098.3873238074366
 10
-1749.0376769741611
 20
-5098.3885711501243
 42
0.0099746379367911
 10
-1749.2561354433219
 20
-5098.4487456784436
 10
-1749.3176834834935
 20
-5098.4670275570716
 42
0.0191613676043036
 10
-1749.6536679459948
 20
-5098.5810049373504
 10
-1749.7417277187342
 20
-5098.6146918476752
 42
0.0205274080038576
 10
-1750.127034490642
 20
-5098.7805202555064
 10
-1750.1846837726366
 20
-5098.8081882200831
 42
0.0181256912403684
 10
-1750.4429607132965
 20
-5098.9438720390644
 10
-1750.4959160966159
 20
-5098.9741896522864
 42
0.0140709242008806
 10
-1750.6408710312294
 20
-5099.0626843257087
 10
-1750.6671198998188
 20
-5099.0797411444019
 42
0.0086667884555641
 10
-1750.7560460613945
 20
-5099.1397438122985
 42
0.0036408192258195
 10
-1750.8434792994456
 20
-5099.2019246701057
 10
-1750.8787061739035
 20
-5099.2273656160141
 42
0.0052260781247968
 10
-1751.0349348712934
 20
-5099.3426980026616
 10
-1751.0511417275461
 20
-5099.3549261132757
 42
0.0050024435588005
 10
-1751.2371450705716
 20
-5099.4982086815098
 10
-1751.2524632271138
 20
-5099.5102547039751
 42
0.013613871045197
 10
-1751.4629044954461
 20
-5099.6852212088825
 10
-1751.4965723712426
 20
-5099.7148001815985
 42
0.0172815186911091
 10
-1751.7609759129198
 20
-5099.9637968542329
 10
-1751.7635382587519
 20
-5099.9663826713695
 42
0.0189403858055446
 10
-1752.0141200573157
 20
-5100.2391879361612
 10
-1752.0467515508749
 20
-5100.2775318676868
 42
0.0185044199446243
 10
-1752.2387079898376
 20
-5100.5207804487909
 42
0.0088565243855658
 10
-1752.417168096455
 20
-5100.7742968689172
 10
-1752.426346076119
 20
-5100.7878382486997
 42
0.0157195347350806
 10
-1752.6095666824674
 20
-5101.077360458039
 10
-1752.6556496243909
 20
-5101.1555126550511
 42
0.0095451879661097
 10
-1752.8207351745273
 20
-5101.4481072974049
 10
-1752.8318830934597
 20
-5101.4687779695405
 42
0.0100351706312118
 10
-1752.9639268426158
 20
-5101.7258335300176
 42
0.0086935915491951
 10
-1753.086257994401
 20
-5101.9876666754126
 10
-1753.0895787358218
 20
-5101.9951089983988
 42
0.0072580174734279
 10
-1753.2099251877801
 20
-5102.2757009900142
 10
-1753.2131868210759
 20
-5102.2836210160058
 42
0.0060005122821587
 10
-1753.3323874894138
 20
-5102.5832306866123
 10
-1753.3355984677523
 20
-5102.5915922145105
 42
0.0049017786689086
 10
-1753.4544986265985
 20
-5102.9105211950828
 10
-1753.4576644329986
 20
-5102.9192741323386
 42
0.0039415167744643
 10
-1753.5771007110659
 20
-5103.2578161947495
 10
-1753.5802318137189
 20
-5103.2669193956281
 42
0.0031035838755529
 10
-1753.7010365994236
 20
-5103.6253592574303
 10
-1753.7041466439455
 20
-5103.6347798787792
 42
0.0025070747226248
 10
-1753.8270479952416
 20
-5104.0134270956714
 10
-1753.8643418916813
 20
-5104.1303187609774
 42
0.002908191020891
 10
-1754.056360189493
 20
-5104.7444824192844
 10
-1754.0971633580098
 20
-5104.8777056615545
 42
0.0009266453778917
 10
-1754.3655807323614
 20
-5105.7599301215987
 10
-1754.3864682049875
 20
-5105.8290420007879
 42
-0.0005809993723873
 10
-1754.663804885558
 20
-5106.7428501073482
 10
-1754.7300866838436
 20
-5106.9603350395373
 42
-0.0012018708109547
 10
-1754.8770709932628
 20
-5107.4384977040208
 10
-1754.9293908448258
 20
-5107.6072568448835
 42
-0.000269105963192
 10
-1754.9729603259962
 20
-5107.7475244652342
 10
-1757.8059162242766
 20
-5116.8366790675245
 10
-1759.6239051162461
 20
-5116.8366790675245
 10
-1753.3716557001949
 20
-5096.1929610309926
  0
SPLINE
  5
5A
100
AcDbEntity
  8
0
370
              15
390
0
  6
Continuous
 62
               7
100
AcDbSpline
210
0.0
220
0.0
230
1.0
 70
              13
 71
               2
 72
             782
 73
             779
 74
               0
 42
0.000001
 43
0.000001
 40
0.0
 40
0.0
 40
0.0
 40
1.0
 40
1.0
 40
2.0
 40
2.0
 40
3.0
 40
3.0
 40
4.0
 40
4.0
 40
5.0
 40
5.0
 40
6.0
 40
6.0
 40
7.0
 40
7.0
 40
8.0
 40
8.0
 40
9.0
 40
9.0
 40
10.0
 40
10.0
 40
11.0
 40
11.0
 40
12.0
 40
12.0
 40
13.0
 40
13.0
 40
14.0
 40
14.0
 40
15.0
 40
15.0
 40
16.0
 40
16.0
 40
17.0
 40
17.0
 40
18.0
 40
18.0
 40
19.0
 40
19.0
 40
20.0
 40
20.0
 40
21.0
 40
21.0
 40
22.0
 40
22.0
 40
23.0
 40
23.0
 40
24.0
 40
24.0
 40
25.0
 40
25.0
 40
26.0
 40
26.0
 40
27.0
 40
27.0
 40
28.0
 40
28.0
 40
29.0
 40
29.0
 40
30.0
 40
30.0
 40
31.0
 40
31.0
 40
32.0
 40
32.0
 40
33.0
 40
33.0
 40
34.0
 40
34.0
 40
35.0
 40
35.0
 40
36.0
 40
36.0
 40
37.0
 40
37.0
 40
38.0
 40
38.0
 40
39.0
 40
39.0
 40
40.0
 40
40.0
 40
41.0
 40
41.0
 40
42.0
 40
42.0
 40
43.0
 40
43.0
 40
44.0
 40
44.0
 40
45.0
 40
45.0
 40
46.0
 40
46.0
 40
47.0
 40
47.0
 40
48.0
 40
48.0
 40
49.0
 40
49.0
 40
50.0
 40
50.0
 40
51.0
 40
51.0
 40
52.0
 40
52.0
 40
53.0
 40
53.0
 40
54.0
 40
54.0
 40
55.0
 40
55.0
 40
56.0
 40
56.0
 40
57.0
 40
57.0
 40
58.0
 40
58.0
 40
59.0
 40
59.0
 40
60.0
 40
60.0
 40
61.0
 40
61.0
 40
62.0
 40
62.0
 40
63.0
 40
63.0
 40
64.0
 40
64.0
 40
65.0
 40
65.0
 40
66.0
 40
66.0
 40
67.0
 40
67.0
 40
68.0
 40
68.0
 40
69.0
 40
69.0
 40
70.0
 40
70.0
 40
71.0
 40
71.0
 40
72.0
 40
72.0
 40
73.0
 40
73.0
 40
74.0
 40
74.0
 40
75.0
 40
75.0
 40
76.0
 40
76.0
 40
77.0
 40
77.0
 40
78.0
 40
78.0
 40
79.0
 40
79.0
 40
80.0
 40
80.0
 40
81.0
 40
81.0
 40
82.0
 40
82.0
 40
83.0
 40
83.0
 40
84.0
 40
84.0
 40
85.0
 40
85.0
 40
86.0
 40
86.0
 40
87.0
 40
87.0
 40
88.0
 40
88.0
 40
89.0
 40
89.0
 40
90.0
 40
90.0
 40
91.0
 40
91.0
 40
92.0
 40
92.0
 40
93.0
 40
93.0
 40
94.0
 40
94.0
 40
95.0
 40
95.0
 40
96.0
 40
96.0
 40
97.0
 40
97.0
 40
98.0
 40
98.0
 40
99.0
 40
99.0
 40
100.0
 40
100.0
 40
101.0
 40
101.0
 40
102.0
 40
102.0
 40
103.0
 40
103.0
 40
104.0
 40
104.0
 40
105.0
 40
105.0
 40
106.0
 40
106.0
 40
107.0
 40
107.0
 40
108.0
 40
108.0
 40
109.0
 40
109.0
 40
110.0
 40
110.0
 40
111.0
 40
111.0
 40
112.0
 40
112.0
 40
113.0
 40
113.0
 40
114.0
 40
114.0
 40
115.0
 40
115.0
 40
116.0
 40
116.0
 40
117.0
 40
117.0
 40
118.0
 40
118.0
 40
119.0
 40
119.0
 40
120.0
 40
120.0
 40
121.0
 40
121.0
 40
122.0
 40
122.0
 40
123.0
 40
123.0
 40
124.0
 40
124.0
 40
125.0
 40
125.0
 40
126.0
 40
126.0
 40
127.0
 40
127.0
 40
128.0
 40
128.0
 40
129.0
 40
129.0
 40
130.0
 40
130.0
 40
131.0
 40
131.0
 40
132.0
 40
132.0
 40
133.0
 40
133.0
 40
134.0
 40
134.0
 40
135.0
 40
135.0
 40
136.0
 40
136.0
 40
137.0
 40
137.0
 40
138.0
 40
138.0
 40
139.0
 40
139.0
 40
140.0
 40
140.0
 40
141.0
 40
141.0
 40
142.0
 40
142.0
 40
143.0
 40
143.0
 40
144.0
 40
144.0
 40
145.0
 40
145.0
 40
146.0
 40
146.0
 40
147.0
 40
147.0
 40
148.0
 40
148.0
 40
149.0
 40
149.0
 40
150.0
 40
150.0
 40
151.0
 40
151.0
 40
152.0
 40
152.0
 40
153.0
 40
153.0
 40
154.0
 40
154.0
 40
155.0
 40
155.0
 40
156.0
 40
156.0
 40
157.0
 40
157.0
 40
158.0
 40
158.0
 40
159.0
 40
159.0
 40
160.0
 40
160.0
 40
161.0
 40
161.0
 40
162.0
 40
162.0
 40
163.0
 40
163.0
 40
164.0
 40
164.0
 40
165.0
 40
165.0
 40
166.0
 40
166.0
 40
167.0
 40
167.0
 40
168.0
 40
168.0
 40
169.0
 40
169.0
 40
170.0
 40
170.0
 40
171.0
 40
171.0
 40
172.0
 40
172.0
 40
173.0
 40
173.0
 40
174.0
 40
174.0
 40
175.0
 40
175.0
 40
176.0
 40
176.0
 40
177.0
 40
177.0
 40
178.0
 40
178.0
 40
179.0
 40
179.0
 40
180.0
 40
180.0
 40
181.0
 40
181.0
 40
182.0
 40
182.0
 40
183.0
 40
183.0
 40
184.0
 40
184.0
 40
185.0
 40
185.0
 40
186.0
 40
186.0
 40
187.0
 40
187.0
 40
188.0
 40
188.0
 40
189.0
 40
189.0
 40
190.0
 40
190.0
 40
191.0
 40
191.0
 40
192.0
 40
192.0
 40
193.0
 40
193.0
 40
194.0
 40
194.0
 40
195.0
 40
195.0
 40
196.0
 40
196.0
 40
197.0
 40
197.0
 40
198.0
 40
198.0
 40
199.0
 40
199.0
 40
200.0
 40
200.0
 40
201.0
 40
201.0
 40
202.0
 40
202.0
 40
203.0
 40
203.0
 40
204.0
 40
204.0
 40
205.0
 40
205.0
 40
206.0
 40
206.0
 40
207.0
 40
207.0
 40
208.0
 40
208.0
 40
209.0
 40
209.0
 40
210.0
 40
210.0
 40
211.0
 40
211.0
 40
212.0
 40
212.0
 40
213.0
 40
213.0
 40
214.0
 40
214.0
 40
215.0
 40
215.0
 40
216.0
 40
216.0
 40
217.0
 40
217.0
 40
218.0
 40
218.0
 40
219.0
 40
219.0
 40
220.0
 40
220.0
 40
221.0
 40
221.0
 40
222.0
 40
222.0
 40
223.0
 40
223.0
 40
224.0
 40
224.0
 40
225.0
 40
225.0
 40
226.0
 40
226.0
 40
227.0
 40
227.0
 40
228.0
 40
228.0
 40
229.0
 40
229.0
 40
230.0
 40
230.0
 40
231.0
 40
231.0
 40
232.0
 40
232.0
 40
233.0
 40
233.0
 40
234.0
 40
234.0
 40
235.0
 40
235.0
 40
236.0
 40
236.0
 40
237.0
 40
237.0
 40
238.0
 40
238.0
 40
239.0
 40
239.0
 40
240.0
 40
240.0
 40
241.0
 40
241.0
 40
242.0
 40
242.0
 40
243.0
 40
243.0
 40
244.0
 40
244.0
 40
245.0
 40
245.0
 40
246.0
 40
246.0
 40
247.0
 40
247.0
 40
248.0
 40
248.0
 40
249.0
 40
249.0
 40
250.0
 40
250.0
 40
251.0
 40
251.0
 40
252.0
 40
252.0
 40
253.0
 40
253.0
 40
254.0
 40
254.0
 40
255.0
 40
255.0
 40
256.0
 40
256.0
 40
257.0
 40
257.0
 40
258.0
 40
258.0
 40
259.0
 40
259.0
 40
260.0
 40
260.0
 40
261.0
 40
261.0
 40
262.0
 40
262.0
 40
263.0
 40
263.0
 40
264.0
 40
264.0
 40
265.0
 40
265.0
 40
266.0
 40
266.0
 40
267.0
 40
267.0
 40
268.0
 40
268.0
 40
269.0
 40
269.0
 40
270.0
 40
270.0
 40
271.0
 40
271.0
 40
272.0
 40
272.0
 40
273.0
 40
273.0
 40
274.0
 40
274.0
 40
275.0
 40
275.0
 40
276.0
 40
276.0
 40
277.0
 40
277.0
 40
278.0
 40
278.0
 40
279.0
 40
279.0
 40
280.0
 40
280.0
 40
281.0
 40
281.0
 40
282.0
 40
282.0
 40
283.0
 40
283.0
 40
284.0
 40
284.0
 40
285.0
 40
285.0
 40
286.0
 40
286.0
 40
287.0
 40
287.0
 40
288.0
 40
288.0
 40
289.0
 40
289.0
 40
290.0
 40
290.0
 40
291.0
 40
291.0
 40
292.0
 40
292.0
 40
293.0
 40
293.0
 40
294.0
 40
294.0
 40
295.0
 40
295.0
 40
296.0
 40
296.0
 40
297.0
 40
297.0
 40
298.0
 40
298.0
 40
299.0
 40
299.0
 40
300.0
 40
300.0
 40
301.0
 40
301.0
 40
302.0
 40
302.0
 40
303.0
 40
303.0
 40
304.0
 40
304.0
 40
305.0
 40
305.0
 40
306.0
 40
306.0
 40
307.0
 40
307.0
 40
308.0
 40
308.0
 40
309.0
 40
309.0
 40
310.0
 40
310.0
 40
311.0
 40
311.0
 40
312.0
 40
312.0
 40
313.0
 40
313.0
 40
314.0
 40
314.0
 40
315.0
 40
315.0
 40
316.0
 40
316.0
 40
317.0
 40
317.0
 40
318.0
 40
318.0
 40
319.0
 40
319.0
 40
320.0
 40
320.0
 40
321.0
 40
321.0
 40
322.0
 40
322.0
 40
323.0
 40
323.0
 40
324.0
 40
324.0
 40
325.0
 40
325.0
 40
326.0
 40
326.0
 40
327.0
 40
327.0
 40
328.0
 40
328.0
 40
329.0
 40
329.0
 40
330.0
 40
330.0
 40
331.0
 40
331.0
 40
332.0
 40
332.0
 40
333.0
 40
333.0
 40
334.0
 40
334.0
 40
335.0
 40
335.0
 40
336.0
 40
336.0
 40
337.0
 40
337.0
 40
338.0
 40
338.0
 40
339.0
 40
339.0
 40
340.0
 40
340.0
 40
341.0
 40
341.0
 40
342.0
 40
342.0
 40
343.0
 40
343.0
 40
344.0
 40
344.0
 40
345.0
 40
345.0
 40
346.0
 40
346.0
 40
347.0
 40
347.0
 40
348.0
 40
348.0
 40
349.0
 40
349.0
 40
350.0
 40
350.0
 40
351.0
 40
351.0
 40
352.0
 40
352.0
 40
353.0
 40
353.0
 40
354.0
 40
354.0
 40
355.0
 40
355.0
 40
356.0
 40
356.0
 40
357.0
 40
357.0
 40
358.0
 40
358.0
 40
359.0
 40
359.0
 40
360.0
 40
360.0
 40
361.0
 40
361.0
 40
362.0
 40
362.0
 40
363.0
 40
363.0
 40
364.0
 40
364.0
 40
365.0
 40
365.0
 40
366.0
 40
366.0
 40
367.0
 40
367.0
 40
368.0
 40
368.0
 40
369.0
 40
369.0
 40
370.0
 40
370.0
 40
371.0
 40
371.0
 40
372.0
 40
372.0
 40
373.0
 40
373.0
 40
374.0
 40
374.0
 40
375.0
 40
375.0
 40
376.0
 40
376.0
 40
377.0
 40
377.0
 40
378.0
 40
378.0
 40
379.0
 40
379.0
 40
380.0
 40
380.0
 40
381.0
 40
381.0
 40
382.0
 40
382.0
 40
383.0
 40
383.0
 40
384.0
 40
384.0
 40
385.0
 40
385.0
 40
386.0
 40
386.0
 40
387.0
 40
387.0
 40
388.0
 40
388.0
 40
389.0
 40
389.0
 40
389.0
 10
-1743.0429512494788
 20
-5096.1820346676432
 30
0.0
 41
1.0
 10
-1742.2245271407496
 20
-5096.1820346676432
 30
0.0
 41
1.0
 10
-1741.4061030320204
 20
-5096.1820346676432
 30
0.0
 41
1.0
 10
-1741.8198567675477
 20
-5097.5246609318892
 30
0.0
 41
1.0
 10
-1742.2336105030749
 20
-5098.8672871961353
 30
0.0
 41
1.0
 10
-1742.2152710079158
 20
-5098.8385864232532
 30
0.0
 41
0.9999957264463403
 10
-1742.1967640110663
 20
-5098.8099933730728
 30
0.0
 41
1.0
 10
-1742.1663346869341
 20
-5098.7629804947028
 30
0.0
 41
1.0
 10
-1742.1359053628016
 20
-5098.7159676163319
 30
0.0
 41
1.0
 10
-1742.0565397177018
 20
-5098.5933488094324
 30
0.0
 41
0.9995394069073963
 10
-1741.9698813261498
 20
-5098.4757707476974
 30
0.0
 41
1.0
 10
-1741.9341244638867
 20
-5098.4272558551029
 30
0.0
 41
1.0
 10
-1741.8983676016239
 20
-5098.3787409625083
 30
0.0
 41
1.0
 10
-1741.764640933799
 20
-5098.1973006873823
 30
0.0
 41
0.9994460617150289
 10
-1741.6191404525066
 20
-5098.0251582897217
 30
0.0
 41
1.0
 10
-1741.6147522715301
 20
-5098.0199666093376
 30
0.0
 41
1.0
 10
-1741.6103640905533
 20
-5098.0147749289526
 30
0.0
 41
1.0
 10
-1741.4736399712167
 20
-5097.8530158920648
 30
0.0
 41
0.9994359394937108
 10
-1741.3263657408729
 20
-5097.7007996908978
 30
0.0
 41
1.0
 10
-1741.3239823869176
 20
-5097.6983363605223
 30
0.0
 41
1.0
 10
-1741.3215990329622
 20
-5097.6958730301467
 30
0.0
 41
1.0
 10
-1741.179091510528
 20
-5097.5485834897299
 30
0.0
 41
0.9995293688559647
 10
-1741.0278198295468
 20
-5097.4103102775734
 30
0.0
 41
1.0
 10
-1741.0085260702895
 20
-5097.3926743919292
 30
0.0
 41
1.0
 10
-1740.9892323110321
 20
-5097.375038506284
 30
0.0
 41
1.0
 10
-1740.8765481485648
 20
-5097.272037065416
 30
0.0
 41
0.9997087614807901
 10
-1740.7590252596033
 20
-5097.1745927846096
 30
0.0
 41
1.0
 10
-1740.7398591864171
 20
-5097.1587012060918
 30
0.0
 41
1.0
 10
-1740.7206931132309
 20
-5097.1428096275749
 30
0.0
 41
1.0
 10
-1740.641502370637
 20
-5097.0771485037994
 30
0.0
 41
0.9999595338689796
 10
-1740.5611430997865
 20
-5097.0129227731559
 30
0.0
 41
1.0
 10
-1740.4807838289325
 20
-5096.9486970425096
 30
0.0
 41
0.9999749417514027
 10
-1740.3995232945949
 20
-5096.8856154885616
 30
0.0
 41
1.0
 10
-1740.3785371484287
 20
-5096.8693242012559
 30
0.0
 41
1.0
 10
-1740.3575510022627
 20
-5096.8530329139494
 30
0.0
 41
1.0
 10
-1740.2729831169725
 20
-5096.7873839041104
 30
0.0
 41
0.9999792037123908
 10
-1740.1875755171836
 20
-5096.7228311224644
 30
0.0
 41
1.0
 10
-1740.1667506912229
 20
-5096.7070913001717
 30
0.0
 41
1.0
 10
-1740.1459258652621
 20
-5096.6913514778798
 30
0.0
 41
1.0
 10
-1740.1021679174632
 20
-5096.6582783408703
 30
0.0
 41
0.9999993374055896
 10
-1740.058486231273
 20
-5096.625104545401
 30
0.0
 41
1.0
 10
-1740.0148045451372
 20
-5096.5919307499735
 30
0.0
 41
0.9999160953811636
 10
-1739.9702781342141
 20
-5096.5598996847684
 30
0.0
 41
1.0
 10
-1739.9374562467997
 20
-5096.5362885291852
 30
0.0
 41
1.0
 10
-1739.904634359385
 20
-5096.512677373601
 30
0.0
 41
1.0
 10
-1739.7944641736306
 20
-5096.4334239972277
 30
0.0
 41
0.9980964527203264
 10
-1739.6753751801255
 20
-5096.3683365243751
 30
0.0
 41
1.0
 10
-1739.6383425731988
 20
-5096.3480965447852
 30
0.0
 41
1.0
 10
-1739.6013099662719
 20
-5096.3278565651945
 30
0.0
 41
1.0
 10
-1739.4219829529945
 20
-5096.2298463145016
 30
0.0
 41
0.9984572810582592
 10
-1739.2328943866355
 20
-5096.1523240531569
 30
0.0
 41
1.0
 10
-1739.2292481172474
 20
-5096.1508291608225
 30
0.0
 41
1.0
 10
-1739.2256018478593
 20
-5096.1493342684871
 30
0.0
 41
1.0
 10
-1739.0438058202767
 20
-5096.0748017918122
 30
0.0
 41
0.9987838528043688
 10
-1738.8555531617071
 20
-5096.0185361516378
 30
0.0
 41
1.0
 10
-1738.8513152124983
 20
-5096.0172694979447
 30
0.0
 41
1.0
 10
-1738.8470772632897
 20
-5096.0160028442515
 30
0.0
 41
1.0
 10
-1738.667300503141
 20
-5095.9622705114643
 30
0.0
 41
0.9990652816200589
 10
-1738.4835545714354
 20
-5095.9242668319239
 30
0.0
 41
1.0
 10
-1738.4783661704078
 20
-5095.9231937288187
 30
0.0
 41
1.0
 10
-1738.4731777693803
 20
-5095.9221206257125
 30
0.0
 41
1.0
 10
-1738.2998086397267
 20
-5095.8862631523834
 30
0.0
 41
0.9992909934276567
 10
-1738.1242328732674
 20
-5095.8635527199112
 30
0.0
 41
1.0
 10
-1737.9486571068032
 20
-5095.8408422874381
 30
0.0
 41
0.9994553539440065
 10
-1737.7719656737017
 20
-5095.829762983235
 30
0.0
 41
1.0
 10
-1737.7365312659206
 20
-5095.8275410951883
 30
0.0
 41
1.0
 10
-1737.7010968581394
 20
-5095.8253192071425
 30
0.0
 41
1.0
 10
-1737.5348710915657
 20
-5095.8148961447332
 30
0.0
 41
0.9990928098284116
 10
-1737.3683612996588
 20
-5095.8186557859772
 30
0.0
 41
1.0
 10
-1737.3297994643808
 20
-5095.8195264775122
 30
0.0
 41
1.0
 10
-1737.2912376291031
 20
-5095.8203971690473
 30
0.0
 41
1.0
 10
-1737.2018515077484
 20
-5095.8224154272211
 30
0.0
 41
0.9998382089213264
 10
-1737.1125958249663
 20
-5095.8276475537459
 30
0.0
 41
1.0
 10
-1737.1121659187593
 20
-5095.8276727546472
 30
0.0
 41
1.0
 10
-1737.111736012552
 20
-5095.8276979555485
 30
0.0
 41
1.0
 10
-1737.0233401421906
 20
-5095.8328796802689
 30
0.0
 41
0.999755801676098
 10
-1736.9352595649739
 20
-5095.8419621956309
 30
0.0
 41
1.0
 10
-1736.9347834265322
 20
-5095.8420112931144
 30
0.0
 41
1.0
 10
-1736.9343072880906
 20
-5095.8420603905988
 30
0.0
 41
1.0
 10
-1736.8471789877567
 20
-5095.8510447109929
 30
0.0
 41
0.9996565144176474
 10
-1736.7606411344218
 20
-5095.8645820176789
 30
0.0
 41
1.0
 10
-1736.7601752090477
 20
-5095.8646549034092
 30
0.0
 41
1.0
 10
-1736.7597092836736
 20
-5095.8647277891405
 30
0.0
 41
1.0
 10
-1736.6741032810849
 20
-5095.878119324364
 30
0.0
 41
0.9995321806855262
 10
-1736.589476200757
 20
-5095.8967198127975
 30
0.0
 41
1.0
 10
-1736.5890870061871
 20
-5095.8968053552635
 30
0.0
 41
1.0
 10
-1736.5886978116173
 20
-5095.8968908977286
 30
0.0
 41
1.0
 10
-1736.5048491204382
 20
-5095.9153203012293
 30
0.0
 41
0.9993819199235192
 10
-1736.4225025862447
 20
-5095.9395956844855
 30
0.0
 41
1.0
 10
-1736.4222641527463
 20
-5095.9396659735949
 30
0.0
 41
1.0
 10
-1736.4220257192478
 20
-5095.9397362627042
 30
0.0
 41
1.0
 10
-1736.3401560520431
 20
-5095.9638710677445
 30
0.0
 41
0.9992088568475522
 10
-1736.2604635330549
 20
-5095.9944363035502
 30
0.0
 41
1.0
 10
-1736.1807825421788
 20
-5096.0249959042922
 30
0.0
 41
0.9990226101808408
 10
-1736.1041118722692
 20
-5096.0624733359036
 30
0.0
 41
1.0
 10
-1736.0274527304812
 20
-5096.0999451324469
 30
0.0
 41
0.9988424273970817
 10
-1735.9547491032761
 20
-5096.1446099076911
 30
0.0
 41
1.0
 10
-1735.954481394886
 20
-5096.1447743717699
 30
0.0
 41
1.0
 10
-1735.9542136864961
 20
-5096.1449388358487
 30
0.0
 41
1.0
 10
-1735.8809746425193
 20
-5096.1899325392451
 30
0.0
 41
0.998692884447059
 10
-1735.8127117758056
 20
-5096.2421682735312
 30
0.0
 41
1.0
 10
-1735.8121304835868
 20
-5096.2426130867561
 30
0.0
 41
1.0
 10
-1735.8115491913682
 20
-5096.2430578999811
 30
0.0
 41
1.0
 10
-1735.7421237402211
 20
-5096.2961832607143
 30
0.0
 41
0.9986007262277022
 10
-1735.6786975704631
 20
-5096.3563440304042
 30
0.0
 41
1.0
 10
-1735.6778031550025
 20
-5096.3571923982427
 30
0.0
 41
1.0
 10
-1735.6769087395419
 20
-5096.3580407660811
 30
0.0
 41
1.0
 10
-1735.6116937388624
 20
-5096.4198982714488
 30
0.0
 41
0.9985581491414362
 10
-1735.553486127154
 20
-5096.4883907617168
 30
0.0
 41
1.0
 10
-1735.5442276735557
 20
-5096.4992851194193
 30
0.0
 41
1.0
 10
-1735.5349692199575
 20
-5096.5101794771217
 30
0.0
 41
1.0
 10
-1735.4582447010516
 20
-5096.6004606827955
 30
0.0
 41
0.997046023345165
 10
-1735.3962527998956
 20
-5096.7014277669923
 30
0.0
 41
1.0
 10
-1735.3817834348247
 20
-5096.7249942260642
 30
0.0
 41
1.0
 10
-1735.367314069754
 20
-5096.7485606851351
 30
0.0
 41
1.0
 10
-1735.3275773697455
 20
-5096.8132804091729
 30
0.0
 41
0.9988468816698918
 10
-1735.2942309989789
 20
-5096.8815128616006
 30
0.0
 41
1.0
 10
-1735.2871949764783
 20
-5096.8959097827501
 30
0.0
 41
1.0
 10
-1735.2801589539777
 20
-5096.9103067039005
 30
0.0
 41
1.0
 10
-1735.2608846282042
 20
-5096.9497453140475
 30
0.0
 41
0.9998431189979719
 10
-1735.2430193007217
 20
-5096.9898418684643
 30
0.0
 41
1.0
 10
-1735.2251539732088
 20
-5097.0299384229493
 30
0.0
 41
0.9999989989885114
 10
-1735.2071752497627
 20
-5097.0699842605854
 30
0.0
 41
1.0
 10
-1735.2010029381904
 20
-5097.0837324773493
 30
0.0
 41
1.0
 10
-1735.1948306266181
 20
-5097.0974806941122
 30
0.0
 41
1.0
 10
-1735.1645072800104
 20
-5097.1650229653133
 30
0.0
 41
0.9998790356312324
 10
-1735.136299399878
 20
-5097.2334757172594
 30
0.0
 41
1.0
 10
-1735.1294642185965
 20
-5097.2500628186863
 30
0.0
 41
1.0
 10
-1735.1226290373149
 20
-5097.2666499201123
 30
0.0
 41
1.0
 10
-1735.0990713749377
 20
-5097.3238178750116
 30
0.0
 41
0.9998227574587271
 10
-1735.0776826265405
 20
-5097.3818321832841
 30
0.0
 41
1.0
 10
-1735.0562938781459
 20
-5097.4398464915485
 30
0.0
 41
0.9996797971008586
 10
-1735.0378675931931
 20
-5097.498868610669
 30
0.0
 41
1.0
 10
-1735.0339637904676
 20
-5097.5113730688427
 30
0.0
 41
1.0
 10
-1735.0300599877423
 20
-5097.5238775270154
 30
0.0
 41
1.0
 10
-1735.0038260973424
 20
-5097.6079085624724
 30
0.0
 41
0.9979274938769752
 10
-1734.9886015738643
 20
-5097.6946129211292
 30
0.0
 41
1.0
 10
-1734.9863778866008
 20
-5097.7072769219631
 30
0.0
 41
1.0
 10
-1734.9841541993374
 20
-5097.7199409227978
 30
0.0
 41
1.0
 10
-1734.9732242596403
 20
-5097.7821874300862
 30
0.0
 41
0.9994985982149767
 10
-1734.9662560944612
 20
-5097.845000931211
 30
0.0
 41
1.0
 10
-1734.9592879292813
 20
-5097.9078144323439
 30
0.0
 41
0.9996372611189849
 10
-1734.9557120635152
 20
-5097.9709120110274
 30
0.0
 41
1.0
 10
-1734.9555434860258
 20
-5097.9738866281095
 30
0.0
 41
1.0
 10
-1734.9553749085367
 20
-5097.9768612451917
 30
0.0
 41
1.0
 10
-1734.9514618877929
 20
-5098.0459080580276
 30
0.0
 41
0.9997730630749245
 10
-1734.9504935742987
 20
-5098.1150588820619
 30
0.0
 41
1.0
 10
-1734.9504364678801
 20
-5098.1191370612096
 30
0.0
 41
1.0
 10
-1734.9503793614617
 20
-5098.1232152403572
 30
0.0
 41
1.0
 10
-1734.949296835131
 20
-5098.2005224226668
 30
0.0
 41
0.9998772614059514
 10
-1734.9506369218677
 20
-5098.2778255692374
 30
0.0
 41
1.0
 10
-1734.9507261850667
 20
-5098.282974733077
 30
0.0
 41
1.0
 10
-1734.950815448266
 20
-5098.2881238969167
 30
0.0
 41
1.0
 10
-1734.9523340614012
 20
-5098.3757253711701
 30
0.0
 41
0.9999415567334361
 10
-1734.9557463716394
 20
-5098.4632735328423
 30
0.0
 41
1.0
 10
-1734.955987692314
 20
-5098.4694649925714
 30
0.0
 41
1.0
 10
-1734.9562290129884
 20
-5098.4756564523013
 30
0.0
 41
1.0
 10
-1734.9601239645781
 20
-5098.5755875334808
 30
0.0
 41
0.9999716810422451
 10
-1734.9655225477009
 20
-5098.6754486716773
 30
0.0
 41
1.0
 10
-1734.9687353464924
 20
-5098.7348779213153
 30
0.0
 41
1.0
 10
-1734.9719481452839
 20
-5098.7943071709542
 30
0.0
 41
1.0
 10
-1734.9800220544494
 20
-5098.9436555722878
 30
0.0
 41
0.9999819129896207
 10
-1734.9898918460581
 20
-5099.0928960499768
 30
0.0
 41
1.0
 10
-1734.9997616376691
 20
-5099.2421365277005
 30
0.0
 41
1.0
 10
-1735.0022009582221
 20
-5099.2793295735355
 30
0.0
 41
1.0
 10
-1734.9795027244002
 20
-5099.2405885761891
 30
0.0
 41
0.9999982128242623
 10
-1734.9566581656304
 20
-5099.2019336822086
 30
0.0
 41
1.0
 10
-1734.9297486057599
 20
-5099.1564004681786
 30
0.0
 41
1.0
 10
-1734.9028390458893
 20
-5099.1108672541486
 30
0.0
 41
1.0
 10
-1734.8261753673612
 20
-5098.9811459320781
 30
0.0
 41
0.9998609190052955
 10
-1734.7452280544917
 20
-5098.8540535501515
 30
0.0
 41
1.0
 10
-1734.7155797330099
 20
-5098.8075038171992
 30
0.0
 41
1.0
 10
-1734.6859314115281
 20
-5098.7609540842468
 30
0.0
 41
1.0
 10
-1734.6036591912889
 20
-5098.631781514262
 30
0.0
 41
0.9999067609738936
 10
-1734.5178901818194
 20
-5098.5049038247998
 30
0.0
 41
1.0
 10
-1734.515485478616
 20
-5098.5013465587408
 30
0.0
 41
1.0
 10
-1734.5130807754124
 20
-5098.4977892926818
 30
0.0
 41
1.0
 10
-1734.4321211723552
 20
-5098.3780261353459
 30
0.0
 41
0.9998784952147339
 10
-1734.3474675626835
 20
-5098.2608449186409
 30
0.0
 41
1.0
 10
-1734.262813953015
 20
-5098.1436637019387
 30
0.0
 41
0.9998532968279069
 10
-1734.1741963321874
 20
-5098.0294507934614
 30
0.0
 41
1.0
 10
-1734.154234543189
 20
-5098.0037234724314
 30
0.0
 41
1.0
 10
-1734.1342727541905
 20
-5097.9779961514023
 30
0.0
 41
1.0
 10
-1734.0157887044395
 20
-5097.8252905404415
 30
0.0
 41
0.9991551975790443
 10
-1733.8851642548157
 20
-5097.6828309783632
 30
0.0
 41
1.0
 10
-1733.8816546388357
 20
-5097.6790033767393
 30
0.0
 41
1.0
 10
-1733.8781450228557
 20
-5097.6751757751144
 30
0.0
 41
1.0
 10
-1733.754539805193
 20
-5097.5403714162858
 30
0.0
 41
0.9997418144180867
 10
-1733.6249376654937
 20
-5097.4113220056788
 30
0.0
 41
1.0
 10
-1733.4953355257958
 20
-5097.2822725950728
 30
0.0
 41
0.9989238204630822
 10
-1733.3543329775412
 20
-5097.1657876330364
 30
0.0
 41
1.0
 10
-1733.309085299398
 20
-5097.1284076414267
 30
0.0
 41
1.0
 10
-1733.2638376212549
 20
-5097.0910276498171
 30
0.0
 41
1.0
 10
-1733.1235975640254
 20
-5096.9751725965252
 30
0.0
 41
0.9990825084113318
 10
-1732.9739576314219
 20
-5096.87174359868
 30
0.0
 41
1.0
 10
-1732.9639122673561
 20
-5096.8648003855942
 30
0.0
 41
1.0
 10
-1732.9538669032904
 20
-5096.8578571725075
 30
0.0
 41
1.0
 10
-1732.8243176988187
 20
-5096.7683146008358
 30
0.0
 41
0.9998164899816816
 10
-1732.691433495454
 20
-5096.683800359333
 30
0.0
 41
1.0
 10
-1732.6795879349338
 20
-5096.6762665928109
 30
0.0
 41
1.0
 10
-1732.6677423744136
 20
-5096.6687328262897
 30
0.0
 41
1.0
 10
-1732.5585492920845
 20
-5096.5992861178274
 30
0.0
 41
0.9997473449135538
 10
-1732.4463453348339
 20
-5096.534817160009
 30
0.0
 41
1.0
 10
-1732.3341413775729
 20
-5096.4703482021851
 30
0.0
 41
0.9999327861144584
 10
-1732.2204727667972
 20
-5096.4084982104951
 30
0.0
 41
1.0
 10
-1732.2199207642493
 20
-5096.4081978518225
 30
0.0
 41
1.0
 10
-1732.2193687617014
 20
-5096.4078974931508
 30
0.0
 41
1.0
 10
-1732.1045961458306
 20
-5096.3454467841157
 30
0.0
 41
0.9996956420485242
 10
-1731.9868828199978
 20
-5096.2887333171402
 30
0.0
 41
1.0
 10
-1731.9564424150858
 20
-5096.2740673403996
 30
0.0
 41
1.0
 10
-1731.9260020101735
 20
-5096.259401363659
 30
0.0
 41
1.0
 10
-1731.8230249034382
 20
-5096.2097877052156
 30
0.0
 41
0.9998070570169171
 10
-1731.718178514498
 20
-5096.164257118322
 30
0.0
 41
1.0
 10
-1731.6133321255636
 20
-5096.1187265314302
 30
0.0
 41
0.9997827436154384
 10
-1731.5066791889674
 20
-5096.0776053601221
 30
0.0
 41
1.0
 10
-1731.4874563393255
 20
-5096.0701937864851
 30
0.0
 41
1.0
 10
-1731.4682334896838
 20
-5096.0627822128481
 30
0.0
 41
1.0
 10
-1731.3231348538104
 20
-5096.0068378942697
 30
0.0
 41
0.9988031841966596
 10
-1731.173264491202
 20
-5095.9653378301055
 30
0.0
 41
1.0
 10
-1731.1483472428336
 20
-5095.9584380842989
 30
0.0
 41
1.0
 10
-1731.1234299944651
 20
-5095.9515383384914
 30
0.0
 41
1.0
 10
-1730.9561599688232
 20
-5095.9052201960912
 30
0.0
 41
0.9984748040556067
 10
-1730.7848030601795
 20
-5095.8776259638289
 30
0.0
 41
1.0
 10
-1730.7800639239292
 20
-5095.8768628033158
 30
0.0
 41
1.0
 10
-1730.775324787679
 20
-5095.8760996428018
 30
0.0
 41
1.0
 10
-1730.6134461515346
 20
-5095.8500317315666
 30
0.0
 41
0.9984436495503307
 10
-1730.4496714078173
 20
-5095.8421537777358
 30
0.0
 41
1.0
 10
-1730.4279741996938
 20
-5095.841110090535
 30
0.0
 41
1.0
 10
-1730.4062769915702
 20
-5095.8400664033343
 30
0.0
 41
1.0
 10
-1730.2858966641015
 20
-5095.834275823905
 30
0.0
 41
0.9987954789308409
 10
-1730.1655284191852
 20
-5095.8403123516509
 30
0.0
 41
1.0
 10
-1730.1455636267017
 20
-5095.841313595989
 30
0.0
 41
1.0
 10
-1730.1255988342182
 20
-5095.8423148403281
 30
0.0
 41
1.0
 10
-1730.0451601742793
 20
-5095.8463488793959
 30
0.0
 41
0.9997941595889572
 10
-1729.9649513961681
 20
-5095.8536429453125
 30
0.0
 41
1.0
 10
-1729.8847426180525
 20
-5095.860937011229
 30
0.0
 41
0.999858946622967
 10
-1729.8048240711773
 20
-5095.8709208656837
 30
0.0
 41
1.0
 10
-1729.7724178693911
 20
-5095.8749692226011
 30
0.0
 41
1.0
 10
-1729.7400116676049
 20
-5095.8790175795184
 30
0.0
 41
1.0
 10
-1729.5952807171504
 20
-5095.8970981478078
 30
0.0
 41
0.999349506325335
 10
-1729.4522294734027
 20
-5095.925563857546
 30
0.0
 41
1.0
 10
-1729.4192957762393
 20
-5095.9321173207627
 30
0.0
 41
1.0
 10
-1729.3863620790762
 20
-5095.9386707839803
 30
0.0
 41
1.0
 10
-1729.2770682558632
 20
-5095.9604191181179
 30
0.0
 41
0.9996788715567021
 10
-1729.1690166839012
 20
-5095.9876769174771
 30
0.0
 41
1.0
 10
-1729.1669536813547
 20
-5095.9881973440515
 30
0.0
 41
1.0
 10
-1729.164890678808
 20
-5095.9887177706269
 30
0.0
 41
1.0
 10
-1729.0609651119325
 20
-5096.0149347168381
 30
0.0
 41
0.9995480654477018
 10
-1728.958802876708
 20
-5096.0473496734667
 30
0.0
 41
1.0
 10
-1728.9571132345823
 20
-5096.0478857783801
 30
0.0
 41
1.0
 10
-1728.9554235924563
 20
-5096.0484218832926
 30
0.0
 41
1.0
 10
-1728.856640641485
 20
-5096.0797646300944
 30
0.0
 41
0.9993867959456444
 10
-1728.7602934830406
 20
-5096.1179439993903
 30
0.0
 41
1.0
 10
-1728.7590505339567
 20
-5096.1184365412864
 30
0.0
 41
1.0
 10
-1728.7578075848728
 20
-5096.1189290831826
 30
0.0
 41
1.0
 10
-1728.6639463246004
 20
-5096.1561233686843
 30
0.0
 41
0.9992050256539893
 10
-1728.5733466495635
 20
-5096.2006772679197
 30
0.0
 41
1.0
 10
-1728.5726119668457
 20
-5096.2010385603826
 30
0.0
 41
1.0
 10
-1728.571877284128
 20
-5096.2013998528464
 30
0.0
 41
1.0
 10
-1728.4827469745235
 20
-5096.2452311671568
 30
0.0
 41
0.9990222350714657
 10
-1728.3978369131414
 20
-5096.2967644348573
 30
0.0
 41
1.0
 10
-1728.3976530278637
 20
-5096.2968760377589
 30
0.0
 41
1.0
 10
-1728.397469142586
 20
-5096.2969876406605
 30
0.0
 41
1.0
 10
-1728.3129268517573
 20
-5096.3482977025587
 30
0.0
 41
0.9988642743839905
 10
-1728.2336523171302
 20
-5096.4074218900823
 30
0.0
 41
1.0
 10
-1728.154377782502
 20
-5096.4665460776068
 30
0.0
 41
0.9987681233285647
 10
-1728.0813539982282
 20
-5096.5332367690116
 30
0.0
 41
1.0
 10
-1728.0810250702632
 20
-5096.5335371702249
 30
0.0
 41
1.0
 10
-1728.0806961422982
 20
-5096.5338375714382
 30
0.0
 41
1.0
 10
-1728.0070145020875
 20
-5096.6011290652768
 30
0.0
 41
0.9987496570926464
 10
-1727.9404206967522
 20
-5096.6754418793626
 30
0.0
 41
1.0
 10
-1727.9396485269963
 20
-5096.6763035527156
 30
0.0
 41
1.0
 10
-1727.9388763572401
 20
-5096.6771652260686
 30
0.0
 41
1.0
 10
-1727.8707382123901
 20
-5096.7532013868631
 30
0.0
 41
0.9988147669795526
 10
-1727.8103159581729
 20
-5096.8355023937056
 30
0.0
 41
1.0
 10
-1727.8091966320922
 20
-5096.8370270250625
 30
0.0
 41
1.0
 10
-1727.8080773060115
 20
-5096.8385516564194
 30
0.0
 41
1.0
 10
-1727.7454163996349
 20
-5096.923901925973
 30
0.0
 41
0.9989452636229544
 10
-1727.6908494866709
 20
-5097.0146406151371
 30
0.0
 41
1.0
 10
-1727.6895007605904
 20
-5097.0168833961543
 30
0.0
 41
1.0
 10
-1727.68815203451
 20
-5097.0191261771724
 30
0.0
 41
1.0
 10
-1727.6308876693884
 20
-5097.1143504283655
 30
0.0
 41
0.9991046436070554
 10
-1727.5818784560765
 20
-5097.214074861372
 30
0.0
 41
1.0
 10
-1727.5804145944776
 20
-5097.2170535414625
 30
0.0
 41
1.0
 10
-1727.5789507328786
 20
-5097.220032221554
 30
0.0
 41
1.0
 10
-1727.5270137963703
 20
-5097.3257140147407
 30
0.0
 41
0.9992763831101807
 10
-1727.4832606678112
 20
-5097.4350380767073
 30
0.0
 41
1.0
 10
-1727.4817813981531
 20
-5097.4387342642276
 30
0.0
 41
1.0
 10
-1727.4803021284947
 20
-5097.4424304517488
 30
0.0
 41
1.0
 10
-1727.4335904606162
 20
-5097.5591468887651
 30
0.0
 41
0.9994163472893224
 10
-1727.3949574294224
 20
-5097.6787804772193
 30
0.0
 41
1.0
 10
-1727.3937192771664
 20
-5097.6826146210296
 30
0.0
 41
1.0
 10
-1727.3924811249105
 20
-5097.6864487648409
 30
0.0
 41
1.0
 10
-1727.3525975638929
 20
-5097.8099548262999
 30
0.0
 41
0.9997268055878537
 10
-1727.3185295079943
 20
-5097.9351898582281
 30
0.0
 41
1.0
 10
-1727.3175993277291
 20
-5097.9386092243221
 30
0.0
 41
1.0
 10
-1727.3166691474637
 20
-5097.9420285904162
 30
0.0
 41
1.0
 10
-1727.2844614520955
 20
-5098.0604248901545
 30
0.0
 41
0.9996701319009976
 10
-1727.2583758353189
 20
-5098.1803188434315
 30
0.0
 41
1.0
 10
-1727.2322902185458
 20
-5098.3002127966893
 30
0.0
 41
0.9995785451106272
 10
-1727.2132066412032
 20
-5098.4214185577321
 30
0.0
 41
1.0
 10
-1727.2089868590297
 20
-5098.4482197124944
 30
0.0
 41
1.0
 10
-1727.2047670768563
 20
-5098.4750208672558
 30
0.0
 41
1.0
 10
-1727.1781921009147
 20
-5098.6438068409634
 30
0.0
 41
0.9979925101208187
 10
-1727.1731665149905
 20
-5098.814598169065
 30
0.0
 41
1.0
 10
-1727.172341702566
 20
-5098.842628892553
 30
0.0
 41
1.0
 10
-1727.1715168901414
 20
-5098.87065961604
 30
0.0
 41
1.0
 10
-1727.1681409290661
 20
-5098.9853894971602
 30
0.0
 41
0.9995314902260014
 10
-1727.1717911212086
 20
-5099.100110980904
 30
0.0
 41
1.0
 10
-1727.1754413133503
 20
-5099.2148324646369
 30
0.0
 41
0.999624548695833
 10
-1727.1853704084722
 20
-5099.3291817357504
 30
0.0
 41
1.0
 10
-1727.1855334564671
 20
-5099.3310594918948
 30
0.0
 41
1.0
 10
-1727.1856965044622
 20
-5099.3329372480403
 30
0.0
 41
1.0
 10
-1727.1959516955753
 20
-5099.4510420314464
 30
0.0
 41
0.9997286094994481
 10
-1727.2116970191446
 20
-5099.5685409403313
 30
0.0
 41
1.0
 10
-1727.2120905117956
 20
-5099.5714773650379
 30
0.0
 41
1.0
 10
-1727.2124840044467
 20
-5099.5744137897454
 30
0.0
 41
1.0
 10
-1727.2290163133189
 20
-5099.6977855480472
 30
0.0
 41
0.9998265533973967
 10
-1727.2501317720487
 20
-5099.8204560228542
 30
0.0
 41
1.0
 10
-1727.2508083141843
 20
-5099.8243864013548
 30
0.0
 41
1.0
 10
-1727.2514848563201
 20
-5099.8283167798545
 30
0.0
 41
1.0
 10
-1727.2739533993192
 20
-5099.9588480116481
 30
0.0
 41
0.9999022530846711
 10
-1727.3000628639372
 20
-5100.0886999802888
 30
0.0
 41
1.0
 10
-1727.3010415051031
 20
-5100.093567122678
 30
0.0
 41
1.0
 10
-1727.3020201462691
 20
-5100.0984342650663
 30
0.0
 41
1.0
 10
-1727.3300868932238
 20
-5100.2380205185027
 30
0.0
 41
0.9999524761944953
 10
-1727.3608698620474
 20
-5100.3770330116486
 30
0.0
 41
1.0
 10
-1727.3621459692224
 20
-5100.3827957709509
 30
0.0
 41
1.0
 10
-1727.3634220763975
 20
-5100.3885585302523
 30
0.0
 41
1.0
 10
-1727.3967572595725
 20
-5100.5390965420065
 30
0.0
 41
0.9999813588711153
 10
-1727.431928260379
 20
-5100.689216254681
 30
0.0
 41
1.0
 10
-1727.4334821858361
 20
-5100.6958488451046
 30
0.0
 41
1.0
 10
-1727.4350361112934
 20
-5100.7024814355282
 30
0.0
 41
1.0
 10
-1727.4733149630104
 20
-5100.8658663290325
 30
0.0
 41
0.999995523767233
 10
-1727.512570840991
 20
-5101.0290192326438
 30
0.0
 41
1.0
 10
-1727.5248524766239
 20
-5101.0800634231618
 30
0.0
 41
1.0
 10
-1727.5371341122568
 20
-5101.1311076136808
 30
0.0
 41
1.0
 10
-1727.6009532614753
 20
-5101.3963488982117
 30
0.0
 41
0.9999993604853584
 10
-1727.6653722086664
 20
-5101.6614451490123
 30
0.0
 41
1.0
 10
-1727.6700910442128
 20
-5101.6808640570525
 30
0.0
 41
1.0
 10
-1727.6748098797593
 20
-5101.7002829650919
 30
0.0
 41
1.0
 10
-1727.7486664980131
 20
-5102.0042170318457
 30
0.0
 41
0.9999659914730379
 10
-1727.8275260939067
 20
-5102.306891578397
 30
0.0
 41
1.0
 10
-1727.8324787828387
 20
-5102.3259007155821
 30
0.0
 41
1.0
 10
-1727.8374314717707
 20
-5102.3449098527672
 30
0.0
 41
1.0
 10
-1727.9261964455293
 20
-5102.6856026736914
 30
0.0
 41
0.9999441976030076
 10
-1728.0221394784908
 20
-5103.0243440990043
 30
0.0
 41
1.0
 10
-1728.038839996912
 20
-5103.0833078115211
 30
0.0
 41
1.0
 10
-1728.0555405153332
 20
-5103.1422715240369
 30
0.0
 41
1.0
 10
-1728.1848845851428
 20
-5103.5989403744024
 30
0.0
 41
0.9999625120727983
 10
-1728.3221173524637
 20
-5104.0533009083829
 30
0.0
 41
1.0
 10
-1728.3579072955495
 20
-5104.1717969350175
 30
0.0
 41
1.0
 10
-1728.3936972386355
 20
-5104.290292961653
 30
0.0
 41
1.0
 10
-1728.4682174426662
 20
-5104.5370200397174
 30
0.0
 41
0.9999793386313631
 10
-1728.5459034658174
 20
-5104.782768678986
 30
0.0
 41
1.0
 10
-1728.6235894889592
 20
-5105.0285173182237
 30
0.0
 41
1.0
 10
-1728.6343690478147
 20
-5105.0625352225943
 30
0.0
 41
1.0
 10
-1730.4847421010832
 20
-5110.9496071450594
 30
0.0
 41
1.0
 10
-1732.3351151543516
 20
-5116.8366790675245
 30
0.0
 41
1.0
 10
-1733.2963718443839
 20
-5116.8366790675245
 30
0.0
 41
1.0
 10
-1734.2576285344162
 20
-5116.8366790675245
 30
0.0
 41
1.0
 10
-1732.638683755727
 20
-5111.6886505657349
 30
0.0
 41
1.0
 10
-1731.0197389770378
 20
-5106.5406220639452
 30
0.0
 41
1.0
 10
-1730.9745731538633
 20
-5106.3965908416685
 30
0.0
 41
1.0
 10
-1730.9294073306887
 20
-5106.2525596193918
 30
0.0
 41
1.0
 10
-1730.7591029133355
 20
-5105.7094685902375
 30
0.0
 41
0.9999911657879322
 10
-1730.5933701016525
 20
-5105.1649650588843
 30
0.0
 41
1.0
 10
-1730.5636741581479
 20
-5105.0674011188239
 30
0.0
 41
1.0
 10
-1730.5339782146436
 20
-5104.9698371787645
 30
0.0
 41
1.0
 10
-1730.4276372899549
 20
-5104.6204615274819
 30
0.0
 41
0.9999952428150671
 10
-1730.3234537006551
 20
-5104.2704365031714
 30
0.0
 41
1.0
 10
-1730.3183942303235
 20
-5104.2534382288959
 30
0.0
 41
1.0
 10
-1730.3133347599917
 20
-5104.2364399546213
 30
0.0
 41
1.0
 10
-1730.2192701113502
 20
-5103.9204114788436
 30
0.0
 41
0.9999931687488348
 10
-1730.1275442734673
 20
-5103.6036962655526
 30
0.0
 41
1.0
 10
-1730.122609009014
 20
-5103.5866555563043
 30
0.0
 41
1.0
 10
-1730.117673744561
 20
-5103.5696148470561
 30
0.0
 41
1.0
 10
-1730.0358184355914
 20
-5103.2869810522861
 30
0.0
 41
0.9999893840775017
 10
-1729.956571209133
 20
-5103.0036049230439
 30
0.0
 41
1.0
 10
-1729.8773239826653
 20
-5102.720228793768
 30
0.0
 41
0.999983398006471
 10
-1729.8013477419274
 20
-5102.4359582107536
 30
0.0
 41
1.0
 10
-1729.7923438052087
 20
-5102.4022693322886
 30
0.0
 41
1.0
 10
-1729.78333986849
 20
-5102.3685804538236
 30
0.0
 41
1.0
 10
-1729.7143753196221
 20
-5102.1105446215233
 30
0.0
 41
0.9999233658067164
 10
-1729.6518203483915
 20
-5101.8508804627818
 30
0.0
 41
1.0
 10
-1729.5892653771639
 20
-5101.5912163040521
 30
0.0
 41
1.0
 10
-1729.5497819583156
 20
-5101.4274096396293
 30
0.0
 41
1.0
 10
-1729.5448033543435
 20
-5101.4067546777751
 30
0.0
 41
1.0
 10
-1729.5398247503713
 20
-5101.3860997159218
 30
0.0
 41
1.0
 10
-1729.5102985394697
 20
-5101.2636029752157
 30
0.0
 41
0.9999868670864373
 10
-1729.4820294554715
 20
-5101.1408100295557
 30
0.0
 41
1.0
 10
-1729.4781319683118
 20
-5101.1238804421282
 30
0.0
 41
1.0
 10
-1729.4742344811521
 20
-5101.1069508547016
 30
0.0
 41
1.0
 10
-1729.4537603714837
 20
-5101.0180170839376
 30
0.0
 41
0.9999778173355658
 10
-1729.4344727733601
 20
-5100.9288184666839
 30
0.0
 41
1.0
 10
-1729.4151851752454
 20
-5100.8396198494665
 30
0.0
 41
0.9999602692861153
 10
-1729.3974908166135
 20
-5100.7500915610235
 30
0.0
 41
1.0
 10
-1729.3942869845368
 20
-5100.7338811061409
 30
0.0
 41
1.0
 10
-1729.3910831524604
 20
-5100.7176706512582
 30
0.0
 41
1.0
 10
-1729.366981129677
 20
-5100.5957214530572
 30
0.0
 41
0.9995617985334857
 10
-1729.3501377824491
 20
-5100.4725597053502
 30
0.0
 41
1.0
 10
-1729.3476732925421
 20
-5100.4545388879887
 30
0.0
 41
1.0
 10
-1729.3452088026352
 20
-5100.4365180706272
 30
0.0
 41
1.0
 10
-1729.3249255415758
 20
-5100.2882030209266
 30
0.0
 41
0.9991121410618832
 10
-1729.3172001879916
 20
-5100.1387069221273
 30
0.0
 41
1.0
 10
-1729.3162813979675
 20
-5100.1209270855561
 30
0.0
 41
1.0
 10
-1729.3153626079436
 20
-5100.1031472489849
 30
0.0
 41
1.0
 10
-1729.309474834406
 20
-5099.9892108233189
 30
0.0
 41
0.9989792494909333
 10
-1729.3138939265241
 20
-5099.8752079874139
 30
0.0
 41
1.0
 10
-1729.3145418983931
 20
-5099.8584917414737
 30
0.0
 41
1.0
 10
-1729.3151898702624
 20
-5099.8417754955335
 30
0.0
 41
1.0
 10
-1729.3183130186426
 20
-5099.7612051514971
 30
0.0
 41
0.9997820295389255
 10
-1729.3247970160205
 20
-5099.6808354297718
 30
0.0
 41
1.0
 10
-1729.3312810133978
 20
-5099.6004657080512
 30
0.0
 41
0.9998335105977563
 10
-1729.3406932089092
 20
-5099.5203860915999
 30
0.0
 41
1.0
 10
-1729.3422881335871
 20
-5099.5068163611049
 30
0.0
 41
1.0
 10
-1729.343883058265
 20
-5099.4932466306091
 30
0.0
 41
1.0
 10
-1729.3564851031306
 20
-5099.3860275531842
 30
0.0
 41
0.9996876457881229
 10
-1729.374429015932
 20
-5099.2795721254415
 30
0.0
 41
1.0
 10
-1729.3766606790723
 20
-5099.2663323902289
 30
0.0
 41
1.0
 10
-1729.3788923422123
 20
-5099.2530926550171
 30
0.0
 41
1.0
 10
-1729.3926881636344
 20
-5099.1712465110486
 30
0.0
 41
0.9995547496491519
 10
-1729.4113414855287
 20
-5099.0903690138548
 30
0.0
 41
1.0
 10
-1729.4117154423989
 20
-5099.0887476031539
 30
0.0
 41
1.0
 10
-1729.4120893992692
 20
-5099.0871261924531
 30
0.0
 41
1.0
 10
-1729.4299948074231
 20
-5099.0094915166619
 30
0.0
 41
0.999489942717942
 10
-1729.452819716103
 20
-5098.9331582338236
 30
0.0
 41
1.0
 10
-1729.453278242846
 20
-5098.9316247840279
 30
0.0
 41
1.0
 10
-1729.4537367695887
 20
-5098.9300913342322
 30
0.0
 41
1.0
 10
-1729.4756446247832
 20
-5098.8568249509844
 30
0.0
 41
0.9993784877597491
 10
-1729.5026602598859
 20
-5098.7852842458269
 30
0.0
 41
1.0
 10
-1729.5031919508622
 20
-5098.7838762631072
 30
0.0
 41
1.0
 10
-1729.5037236418384
 20
-5098.7824682803885
 30
0.0
 41
1.0
 10
-1729.5296758949864
 20
-5098.7137435406748
 30
0.0
 41
0.9992430832229144
 10
-1729.5608924301537
 20
-5098.647244388605
 30
0.0
 41
1.0
 10
-1729.5614745462099
 20
-5098.6460043334891
 30
0.0
 41
1.0
 10
-1729.5620566622661
 20
-5098.6447642783733
 30
0.0
 41
1.0
 10
-1729.5921089653193
 20
-5098.5807452365416
 30
0.0
 41
0.9990789632856461
 10
-1729.627539592087
 20
-5098.5195386247833
 30
0.0
 41
1.0
 10
-1729.6281352982701
 20
-5098.5185095389215
 30
0.0
 41
1.0
 10
-1729.6287310044534
 20
-5098.5174804530598
 30
0.0
 41
1.0
 10
-1729.6629702188563
 20
-5098.4583320130223
 30
0.0
 41
0.9988874801049451
 10
-1729.7026294948932
 20
-5098.4026723006136
 30
0.0
 41
1.0
 10
-1729.7031850209564
 20
-5098.4018926489407
 30
0.0
 41
1.0
 10
-1729.7037405470198
 20
-5098.4011129972678
 30
0.0
 41
1.0
 10
-1729.7422887709317
 20
-5098.3470125882031
 30
0.0
 41
0.9986762060764967
 10
-1729.786191242199
 20
-5098.2971588737601
 30
0.0
 41
1.0
 10
-1729.786635202531
 20
-5098.2966547319438
 30
0.0
 41
1.0
 10
-1729.7870791628629
 20
-5098.2961505901276
 30
0.0
 41
1.0
 10
-1729.8300937134668
 20
-5098.247305159317
 30
0.0
 41
0.9984621642429986
 10
-1729.8782512702505
 20
-5098.2035218588462
 30
0.0
 41
1.0
 10
-1729.8784979047705
 20
-5098.2032976266801
 30
0.0
 41
1.0
 10
-1729.8787445392907
 20
-5098.203073394513
 30
0.0
 41
1.0
 10
-1729.9264088270347
 20
-5098.1597385583764
 30
0.0
 41
0.9982724693872321
 10
-1729.9788274588695
 20
-5098.1222942078639
 30
0.0
 41
1.0
 10
-1730.0312460907021
 20
-5098.0848498573532
 30
0.0
 41
0.998139918018663
 10
-1730.0878321540858
 20
-5098.0540633379087
 30
0.0
 41
1.0
 10
-1730.0878778161766
 20
-5098.0540384947453
 30
0.0
 41
1.0
 10
-1730.0879234782674
 20
-5098.054013651581
 30
0.0
 41
1.0
 10
-1730.1446008658324
 20
-5098.0231774458098
 30
0.0
 41
0.9980927086780029
 10
-1730.2046462169176
 20
-5097.9995606369575
 30
0.0
 41
1.0
 10
-1730.2050863866166
 20
-5097.9993875110877
 30
0.0
 41
1.0
 10
-1730.2055265563154
 20
-5097.9992143852178
 30
0.0
 41
1.0
 10
-1730.2664522468031
 20
-5097.9752513246231
 30
0.0
 41
0.9981411356635598
 10
-1730.3298407681932
 20
-5097.9588786831109
 30
0.0
 41
1.0
 10
-1730.3307228848992
 20
-5097.9586508409047
 30
0.0
 41
1.0
 10
-1730.3316050016051
 20
-5097.9584229986976
 30
0.0
 41
1.0
 10
-1730.3967577564051
 20
-5097.9415946727722
 30
0.0
 41
0.998303181285699
 10
-1730.4634251854006
 20
-5097.9324553116048
 30
0.0
 41
1.0
 10
-1730.4722962107926
 20
-5097.9312391929361
 30
0.0
 41
1.0
 10
-1730.4811672361845
 20
-5097.9300230742683
 30
0.0
 41
1.0
 10
-1730.5355168786966
 20
-5097.9225723442833
 30
0.0
 41
0.9983887708315999
 10
-1730.5903607279956
 20
-5097.9213276706469
 30
0.0
 41
1.0
 10
-1730.5984241332444
 20
-5097.9211446727713
 30
0.0
 41
1.0
 10
-1730.606487538493
 20
-5097.9209616748949
 30
0.0
 41
1.0
 10
-1730.6452045773208
 20
-5097.9200829970096
 30
0.0
 41
0.9998869563070357
 10
-1730.6839305304943
 20
-5097.9203688663729
 30
0.0
 41
1.0
 10
-1730.7226564836485
 20
-5097.9206547357353
 30
0.0
 41
0.9999972320106032
 10
-1730.7613806628135
 20
-5097.9211228352651
 30
0.0
 41
1.0
 10
-1730.7807336794417
 20
-5097.9213567753559
 30
0.0
 41
1.0
 10
-1730.8000866960697
 20
-5097.9215907154467
 30
0.0
 41
1.0
 10
-1730.8775169084474
 20
-5097.922526695158
 30
0.0
 41
0.9997304945100385
 10
-1730.9548202146921
 20
-5097.9270557889395
 30
0.0
 41
1.0
 10
-1730.9638698563936
 20
-5097.9275859949284
 30
0.0
 41
1.0
 10
-1730.9729194980951
 20
-5097.9281162009174
 30
0.0
 41
1.0
 10
-1731.0683220877347
 20
-5097.9337057066759
 30
0.0
 41
0.9997888306406895
 10
-1731.16341442357
 20
-5097.9432106711665
 30
0.0
 41
1.0
 10
-1731.1721354851484
 20
-5097.9440823857994
 30
0.0
 41
1.0
 10
-1731.1808565467268
 20
-5097.9449541004324
 30
0.0
 41
1.0
 10
-1731.2933910057111
 20
-5097.9562024941879
 30
0.0
 41
0.998417023820221
 10
-1731.4039501530592
 20
-5097.9800185761214
 30
0.0
 41
1.0
 10
-1731.4403312840479
 20
-5097.9878556119274
 30
0.0
 41
1.0
 10
-1731.4767124150367
 20
-5097.9956926477334
 30
0.0
 41
1.0
 10
-1731.5919034834569
 20
-5098.02050651424
 30
0.0
 41
0.9976592854174717
 10
-1731.7026316498573
 20
-5098.0608051913914
 30
0.0
 41
1.0
 10
-1731.8133598162633
 20
-5098.1011038685447
 30
0.0
 41
0.999325507437632
 10
-1731.9208316150571
 20
-5098.1494207670276
 30
0.0
 41
1.0
 10
-1731.925456793979
 20
-5098.1515001432263
 30
0.0
 41
1.0
 10
-1731.930081972901
 20
-5098.153579519425
 30
0.0
 41
1.0
 10
-1732.0468041295401
 20
-5098.2060551703053
 30
0.0
 41
0.9976475078230765
 10
-1732.1552514738455
 20
-5098.2740031599669
 30
0.0
 41
1.0
 10
-1732.1735938679888
 20
-5098.2854956387873
 30
0.0
 41
1.0
 10
-1732.191936262132
 20
-5098.2969881176086
 30
0.0
 41
1.0
 10
-1732.2761384536786
 20
-5098.349745238379
 30
0.0
 41
0.9995131336410341
 10
-1732.3568861686267
 20
-5098.4076514503286
 30
0.0
 41
1.0
 10
-1732.4376338835796
 20
-5098.4655576622808
 30
0.0
 41
0.9995810107609949
 10
-1732.5148955313023
 20
-5098.528039344741
 30
0.0
 41
1.0
 10
-1732.5178655625141
 20
-5098.5304412162068
 30
0.0
 41
1.0
 10
-1732.5208355937261
 20
-5098.5328430876725
 30
0.0
 41
1.0
 10
-1732.6040373038795
 20
-5098.6001285130696
 30
0.0
 41
0.9996617837957821
 10
-1732.6836279910217
 20
-5098.6716489686296
 30
0.0
 41
1.0
 10
-1732.6957587418995
 20
-5098.6825497016198
 30
0.0
 41
1.0
 10
-1732.7078894927772
 20
-5098.69345043461
 30
0.0
 41
1.0
 10
-1732.7761650201808
 20
-5098.7548030500839
 30
0.0
 41
0.999726775003785
 10
-1732.8414985284521
 20
-5098.8192795866089
 30
0.0
 41
1.0
 10
-1732.9068320367114
 20
-5098.8837561231221
 30
0.0
 41
0.9999667288966021
 10
-1732.9711049798698
 20
-5098.9492899300258
 30
0.0
 41
1.0
 10
-1733.0399324276493
 20
-5099.019467588786
 30
0.0
 41
1.0
 10
-1733.1087598754289
 20
-5099.0896452475463
 30
0.0
 41
1.0
 10
-1733.3106877141329
 20
-5099.2955343719577
 30
0.0
 41
0.9988205335169534
 10
-1733.4916933311106
 20
-5099.5200386040187
 30
0.0
 41
1.0
 10
-1733.5223332960147
 20
-5099.5580418544487
 30
0.0
 41
1.0
 10
-1733.5529732609189
 20
-5099.5960451048777
 30
0.0
 41
1.0
 10
-1733.7952588077021
 20
-5099.896555837794
 30
0.0
 41
0.9997077826757252
 10
-1734.022736758815
 20
-5100.2084256320131
 30
0.0
 41
1.0
 10
-1734.0244601739453
 20
-5100.210788415392
 30
0.0
 41
1.0
 10
-1734.0261835890756
 20
-5100.2131511987718
 30
0.0
 41
1.0
 10
-1734.2571083704449
 20
-5100.529746559745
 30
0.0
 41
0.9989147567077761
 10
-1734.4575718733283
 20
-5100.8664560209254
 30
0.0
 41
1.0
 10
-1734.4823130186378
 20
-5100.9080126014815
 30
0.0
 41
1.0
 10
-1734.5070541639473
 20
-5100.9495691820375
 30
0.0
 41
1.0
 10
-1734.6622654625899
 20
-5101.2102705664956
 30
0.0
 41
0.9997476598177728
 10
-1734.8056104500915
 20
-5101.477680315078
 30
0.0
 41
1.0
 10
-1734.9489554375937
 20
-5101.7450900636613
 30
0.0
 41
0.9996258967111822
 10
-1735.0774636895242
 20
-5102.0199380002923
 30
0.0
 41
1.0
 10
-1735.0906635989741
 20
-5102.0481694003884
 30
0.0
 41
1.0
 10
-1735.1038635084237
 20
-5102.0764008004853
 30
0.0
 41
1.0
 10
-1735.2440722294184
 20
-5102.376273198437
 30
0.0
 41
0.9998735413947069
 10
-1735.3746735761429
 20
-5102.6804527979002
 30
0.0
 41
1.0
 10
-1735.3781164042016
 20
-5102.6884713833606
 30
0.0
 41
1.0
 10
-1735.3815592322605
 20
-5102.696489968821
 30
0.0
 41
1.0
 10
-1735.5052749228626
 20
-5102.9846323973507
 30
0.0
 41
0.9999377418860921
 10
-1735.6225297250398
 20
-5103.2754638650404
 30
0.0
 41
1.0
 10
-1735.7397845272112
 20
-5103.5662953327155
 30
0.0
 41
0.9999508299507047
 10
-1735.8512484705911
 20
-5103.8593950095292
 30
0.0
 41
1.0
 10
-1735.8543292392546
 20
-5103.8674960354956
 30
0.0
 41
1.0
 10
-1735.8574100079181
 20
-5103.875597061462
 30
0.0
 41
1.0
 10
-1735.9750354886303
 20
-5104.1848987902222
 30
0.0
 41
0.999960922843055
 10
-1736.0871740914997
 20
-5104.4962318062317
 30
0.0
 41
1.0
 10
-1736.0901301018466
 20
-5104.5044386466343
 30
0.0
 41
1.0
 10
-1736.0930861121938
 20
-5104.5126454870369
 30
0.0
 41
1.0
 10
-1736.2111367357579
 20
-5104.8403921838526
 30
0.0
 41
0.999967460740526
 10
-1736.3238842618277
 20
-5105.170000803857
 30
0.0
 41
1.0
 10
-1736.3752826523942
 20
-5105.3202599995629
 30
0.0
 41
1.0
 10
-1736.4266810429608
 20
-5105.4705191952689
 30
0.0
 41
1.0
 10
-1736.5426916497099
 20
-5105.809667177753
 30
0.0
 41
0.9999287532311731
 10
-1736.6505730536933
 20
-5106.1514879167407
 30
0.0
 41
1.0
 10
-1736.6970503098296
 20
-5106.298750461091
 30
0.0
 41
1.0
 10
-1736.7435275659657
 20
-5106.4460130054413
 30
0.0
 41
1.0
 10
-1736.7584544577171
 20
-5106.4933086558594
 30
0.0
 41
0.9999998222809006
 10
-1736.773324966392
 20
-5106.5406220639452
 30
0.0
 41
1.0
 10
-1738.3939811031937
 20
-5111.6886505657349
 30
0.0
 41
1.0
 10
-1740.0146372399954
 20
-5116.8366790675245
 30
0.0
 41
1.0
 10
-1740.9199456838737
 20
-5116.8366790675245
 30
0.0
 41
1.0
 10
-1741.825254127752
 20
-5116.8366790675245
 30
0.0
 41
1.0
 10
-1739.9731697163711
 20
-5110.9496071450594
 30
0.0
 41
1.0
 10
-1738.1210853049902
 20
-5105.0625352225943
 30
0.0
 41
1.0
 10
-1738.1109635466905
 20
-5105.030492009133
 30
0.0
 41
1.0
 10
-1738.0383558778462
 20
-5104.800192467319
 30
0.0
 41
1.0
 10
-1737.9657482089942
 20
-5104.5698929254804
 30
0.0
 41
0.9999825681977796
 10
-1737.8958651697842
 20
-5104.3387520304395
 30
0.0
 41
1.0
 10
-1737.8475741076181
 20
-5104.1790274469404
 30
0.0
 41
1.0
 10
-1737.7992830454523
 20
-5104.0193028634412
 30
0.0
 41
1.0
 10
-1737.7021306921363
 20
-5103.697967641695
 30
0.0
 41
0.9999672528958578
 10
-1737.6101918865074
 20
-5103.3751020960808
 30
0.0
 41
1.0
 10
-1737.6074030028419
 20
-5103.3653082507053
 30
0.0
 41
1.0
 10
-1737.6046141191764
 20
-5103.3555144053298
 30
0.0
 41
1.0
 10
-1737.5182530809038
 20
-5103.0522365505503
 30
0.0
 41
0.9999899749172253
 10
-1737.4346114713603
 20
-5102.748197462035
 30
0.0
 41
1.0
 10
-1737.4245055523415
 20
-5102.711462224348
 30
0.0
 41
1.0
 10
-1737.414399633323
 20
-5102.674726986661
 30
0.0
 41
1.0
 10
-1737.3509698618307
 20
-5102.4441583735652
 30
0.0
 41
0.9999214200508234
 10
-1737.2933404334522
 20
-5102.2120720313724
 30
0.0
 41
1.0
 10
-1737.280574581272
 20
-5102.1606611459829
 30
0.0
 41
1.0
 10
-1737.2678087290919
 20
-5102.1092502605925
 30
0.0
 41
1.0
 10
-1737.2357110050716
 20
-5101.9799856891714
 30
0.0
 41
0.9999828681675165
 10
-1737.205128753068
 20
-5101.8503542146973
 30
0.0
 41
1.0
 10
-1737.1745465010642
 20
-5101.7207227402214
 30
0.0
 41
0.9999389844473703
 10
-1737.1468355122818
 20
-5101.5904472843304
 30
0.0
 41
1.0
 10
-1737.1396977685627
 20
-5101.5568911804921
 30
0.0
 41
1.0
 10
-1737.1325600248433
 20
-5101.5233350766539
 30
0.0
 41
1.0
 10
-1737.0905735486197
 20
-5101.3259474130737
 30
0.0
 41
0.9998933699441099
 10
-1737.0543692842216
 20
-5101.12741780531
 30
0.0
 41
1.0
 10
-1737.0529964590064
 20
-5101.1198897846189
 30
0.0
 41
1.0
 10
-1737.0516236337912
 20
-5101.1123617639278
 30
0.0
 41
1.0
 10
-1737.0126737189632
 20
-5100.8987761147846
 30
0.0
 41
0.9996850305196726
 10
-1736.984490042704
 20
-5100.6835051093485
 30
0.0
 41
1.0
 10
-1736.9824950093343
 20
-5100.668266755225
 30
0.0
 41
1.0
 10
-1736.9804999759649
 20
-5100.6530284011005
 30
0.0
 41
1.0
 10
-1736.953092113506
 20
-5100.4436831739476
 30
0.0
 41
0.9994697936706977
 10
-1736.9393675542865
 20
-5100.2329979786191
 30
0.0
 41
1.0
 10
-1736.9388904850368
 20
-5100.2256745064087
 30
0.0
 41
1.0
 10
-1736.9384134157872
 20
-5100.2183510341983
 30
0.0
 41
1.0
 10
-1736.9256429950663
 20
-5100.0223127832851
 30
0.0
 41
0.9991804893140479
 10
-1736.9287713113349
 20
-5099.8258839333175
 30
0.0
 41
1.0
 10
-1736.9288551901568
 20
-5099.8206171319034
 30
0.0
 41
1.0
 10
-1736.9289390689789
 20
-5099.8153503304893
 30
0.0
 41
1.0
 10
-1736.9318996276031
 20
-5099.6294550833409
 30
0.0
 41
0.998844832931216
 10
-1736.9526911732296
 20
-5099.4447024935107
 30
0.0
 41
1.0
 10
-1736.9542852469324
 20
-5099.4305376377433
 30
0.0
 41
1.0
 10
-1736.9558793206352
 20
-5099.4163727819769
 30
0.0
 41
1.0
 10
-1736.9734827188561
 20
-5099.2599499036833
 30
0.0
 41
0.9985503209466472
 10
-1737.0077989911565
 20
-5099.1063257195819
 30
0.0
 41
1.0
 10
-1737.0153849832295
 20
-5099.0723653921723
 30
0.0
 41
1.0
 10
-1737.0229709753028
 20
-5099.0384050647635
 30
0.0
 41
1.0
 10
-1737.0421152634581
 20
-5098.9527015354815
 30
0.0
 41
0.9991036781358593
 10
-1737.0684401251106
 20
-5098.8689244481684
 30
0.0
 41
1.0
 10
-1737.0724223505663
 20
-5098.8562512856606
 30
0.0
 41
1.0
 10
-1737.0764045760222
 20
-5098.8435781231528
 30
0.0
 41
1.0
 10
-1737.0947649867664
 20
-5098.7851473608443
 30
0.0
 41
0.9998874504376795
 10
-1737.114870194438
 20
-5098.7272937586276
 30
0.0
 41
1.0
 10
-1737.1349754021135
 20
-5098.6694401564
 30
0.0
 41
0.9994041637545403
 10
-1737.1590240150449
 20
-5098.6131114525051
 30
0.0
 41
1.0
 10
-1737.1632207992634
 20
-5098.6032813880338
 30
0.0
 41
1.0
 10
-1737.1674175834817
 20
-5098.5934513235634
 30
0.0
 41
1.0
 10
-1737.1952964144741
 20
-5098.5281511575859
 30
0.0
 41
0.9991846840683445
 10
-1737.2283527711747
 20
-5098.465313126293
 30
0.0
 41
1.0
 10
-1737.229489377572
 20
-5098.4631525098339
 30
0.0
 41
1.0
 10
-1737.2306259839693
 20
-5098.4609918933756
 30
0.0
 41
1.0
 10
-1737.2614091278708
 20
-5098.4024750950093
 30
0.0
 41
0.9989253167927167
 10
-1737.2974785519232
 20
-5098.3470601666231
 30
0.0
 41
1.0
 10
-1737.2985326765947
 20
-5098.3454406718647
 30
0.0
 41
1.0
 10
-1737.2995868012665
 20
-5098.3438211771063
 30
0.0
 41
1.0
 10
-1737.3335479759764
 20
-5098.291645238236
 30
0.0
 41
0.9986467172833731
 10
-1737.3727451286154
 20
-5098.2432792046056
 30
0.0
 41
1.0
 10
-1737.3736192573185
 20
-5098.2422006023244
 30
0.0
 41
1.0
 10
-1737.3744933860216
 20
-5098.2411220000431
 30
0.0
 41
1.0
 10
-1737.4119422812598
 20
-5098.1949131709689
 30
0.0
 41
0.998400110425706
 10
-1737.4543690117766
 20
-5098.1532280636056
 30
0.0
 41
1.0
 10
-1737.4549561498866
 20
-5098.1526511887241
 30
0.0
 41
1.0
 10
-1737.4555432879965
 20
-5098.1520743138417
 30
0.0
 41
1.0
 10
-1737.4967957422975
 20
-5098.1115429562378
 30
0.0
 41
0.9982442159129183
 10
-1737.5425518436291
 20
-5098.0761743949733
 30
0.0
 41
1.0
 10
-1737.5427666390899
 20
-5098.0760083623309
 30
0.0
 41
1.0
 10
-1737.5429814345507
 20
-5098.0758423296884
 30
0.0
 41
1.0
 10
-1737.5883079449607
 20
-5098.0408058337089
 30
0.0
 41
0.9982450060768321
 10
-1737.6374589240345
 20
-5098.0113740506822
 30
0.0
 41
1.0
 10
-1737.686609903111
 20
-5097.9819422676537
 30
0.0
 41
0.9983922639696337
 10
-1737.7387762092753
 20
-5097.9582626329939
 30
0.0
 41
1.0
 10
-1737.739003086599
 20
-5097.9581596475127
 30
0.0
 41
1.0
 10
-1737.7392299639228
 20
-5097.9580566620316
 30
0.0
 41
1.0
 10
-1737.7918500247345
 20
-5097.9341710564095
 30
0.0
 41
0.9986517147110232
 10
-1737.8466629976053
 20
-5097.9158699372892
 30
0.0
 41
1.0
 10
-1737.8473409190301
 20
-5097.915643590859
 30
0.0
 41
1.0
 10
-1737.8480188404551
 20
-5097.9154172444287
 30
0.0
 41
1.0
 10
-1737.9041876561769
 20
-5097.8966634324488
 30
0.0
 41
0.9989435598971376
 10
-1737.9618410433222
 20
-5097.8831457302149
 30
0.0
 41
1.0
 10
-1737.9629211629046
 20
-5097.8828924799618
 30
0.0
 41
1.0
 10
-1737.9640012824871
 20
-5097.8826392297087
 30
0.0
 41
1.0
 10
-1738.023814908802
 20
-5097.8686150269677
 30
0.0
 41
0.9992249241259551
 10
-1738.0845464176964
 20
-5097.8593396842462
 30
0.0
 41
1.0
 10
-1738.0859601059881
 20
-5097.8591237758383
 30
0.0
 41
1.0
 10
-1738.0873737942798
 20
-5097.8589078674304
 30
0.0
 41
1.0
 10
-1738.1509326797477
 20
-5097.8492007078949
 30
0.0
 41
0.9994396597808991
 10
-1738.2149986162747
 20
-5097.8437677855527
 30
0.0
 41
1.0
 10
-1738.2341392837675
 20
-5097.8421446178336
 30
0.0
 41
1.0
 10
-1738.2532799512605
 20
-5097.8405214501145
 30
0.0
 41
1.0
 10
-1738.3556272227697
 20
-5097.831842192335
 30
0.0
 41
0.9987693403132101
 10
-1738.458330846373
 20
-5097.833345255789
 30
0.0
 41
1.0
 10
-1738.4685851805914
 20
-5097.8334953275626
 30
0.0
 41
1.0
 10
-1738.4788395148098
 20
-5097.833645399337
 30
0.0
 41
1.0
 10
-1738.5883952809859
 20
-5097.8352487436241
 30
0.0
 41
0.9989753644958692
 10
-1738.6973572809998
 20
-5097.8467517505524
 30
0.0
 41
1.0
 10
-1738.8063192810125
 20
-5097.8582547574806
 30
0.0
 41
0.9983190067321045
 10
-1738.913218091976
 20
-5097.8822897492646
 30
0.0
 41
1.0
 10
-1738.922119043584
 20
-5097.8842910278272
 30
0.0
 41
1.0
 10
-1738.9310199951919
 20
-5097.8862923063898
 30
0.0
 41
1.0
 10
-1739.0557207093673
 20
-5097.9143298552981
 30
0.0
 41
0.9985539388289842
 10
-1739.1766904630431
 20
-5097.9555935313465
 30
0.0
 41
1.0
 10
-1739.1790358940045
 20
-5097.956393575163
 30
0.0
 41
1.0
 10
-1739.181381324966
 20
-5097.9571936189786
 30
0.0
 41
1.0
 10
-1739.3070419405653
 20
-5098.0000573826601
 30
0.0
 41
0.9988468746511129
 10
-1739.4280122828677
 20
-5098.0547754677164
 30
0.0
 41
1.0
 10
-1739.4311951048555
 20
-5098.0562151422764
 30
0.0
 41
1.0
 10
-1739.4343779268434
 20
-5098.0576548168356
 30
0.0
 41
1.0
 10
-1739.5617139131168
 20
-5098.1152522510092
 30
0.0
 41
0.9991322885903728
 10
-1739.6838144971673
 20
-5098.1832475831916
 30
0.0
 41
1.0
 10
-1739.7014165082105
 20
-5098.1930497851818
 30
0.0
 41
1.0
 10
-1739.7190185192537
 20
-5098.2028519871719
 30
0.0
 41
1.0
 10
-1739.8211952003107
 20
-5098.2597521029575
 30
0.0
 41
0.9993860037843516
 10
-1739.9191362043834
 20
-5098.3236681185554
 30
0.0
 41
1.0
 10
-1739.9247545172489
 20
-5098.3273346132592
 30
0.0
 41
1.0
 10
-1739.9303728301145
 20
-5098.3310011079639
 30
0.0
 41
1.0
 10
-1740.0170772084655
 20
-5098.3875841341587
 30
0.0
 41
0.9998821494960341
 10
-1740.1020035842716
 20
-5098.4468023642294
 30
0.0
 41
1.0
 10
-1740.1869299600771
 20
-5098.5060205942991
 30
0.0
 41
0.9997976482743551
 10
-1740.2694055904735
 20
-5098.5686070023348
 30
0.0
 41
1.0
 10
-1740.2840418552837
 20
-5098.5797136921183
 30
0.0
 41
1.0
 10
-1740.2986781200939
 20
-5098.5908203819017
 30
0.0
 41
1.0
 10
-1740.4104262801011
 20
-5098.675620169498
 30
0.0
 41
0.999809163079842
 10
-1740.5187765581322
 20
-5098.7647205202029
 30
0.0
 41
1.0
 10
-1740.5317823106095
 20
-5098.7754156206493
 30
0.0
 41
1.0
 10
-1740.5447880630868
 20
-5098.7861107210956
 30
0.0
 41
1.0
 10
-1740.6791498460718
 20
-5098.8966012726933
 30
0.0
 41
0.999503511232435
 10
-1740.8062857238458
 20
-5099.015335089709
 30
0.0
 41
1.0
 10
-1740.8159330342216
 20
-5099.0243448358551
 30
0.0
 41
1.0
 10
-1740.8255803445975
 20
-5099.0333545820013
 30
0.0
 41
1.0
 10
-1740.9490034073729
 20
-5099.1486209537579
 30
0.0
 41
0.9994630424294787
 10
-1741.0646118131604
 20
-5099.2717236969947
 30
0.0
 41
1.0
 10
-1741.0682946519325
 20
-5099.2756452765079
 30
0.0
 41
1.0
 10
-1741.0719774907047
 20
-5099.279566856022
 30
0.0
 41
1.0
 10
-1741.1802202189451
 20
-5099.3948264402288
 30
0.0
 41
0.9995160693747975
 10
-1741.2810862484816
 20
-5099.5165938581085
 30
0.0
 41
1.0
 10
-1741.2830199685632
 20
-5099.5189282823176
 30
0.0
 41
1.0
 10
-1741.2849536886445
 20
-5099.5212627065266
 30
0.0
 41
1.0
 10
-1741.3819522780161
 20
-5099.6383612759864
 30
0.0
 41
0.9996561470519163
 10
-1741.472678496682
 20
-5099.760384038429
 30
0.0
 41
1.0
 10
-1741.4788361625849
 20
-5099.7686658274724
 30
0.0
 41
1.0
 10
-1741.4849938284879
 20
-5099.7769476165158
 30
0.0
 41
1.0
 10
-1741.5634047153455
 20
-5099.882406800868
 30
0.0
 41
0.9998349055170325
 10
-1741.6379319972816
 20
-5099.990645384536
 30
0.0
 41
1.0
 10
-1741.7124592792024
 20
-5100.0988839681813
 30
0.0
 41
0.9999728109562275
 10
-1741.7853821751144
 20
-5100.2082098937381
 30
0.0
 41
1.0
 10
-1741.7866973905329
 20
-5100.2101816632512
 30
0.0
 41
1.0
 10
-1741.7880126059513
 20
-5100.2121534327634
 30
0.0
 41
1.0
 10
-1741.863565932671
 20
-5100.3254228973019
 30
0.0
 41
0.999997214730689
 10
-1741.9385837430739
 20
-5100.4390477401794
 30
0.0
 41
1.0
 10
-1741.9435552856908
 20
-5100.4465778286431
 30
0.0
 41
1.0
 10
-1741.9485268283074
 20
-5100.4541079171067
 30
0.0
 41
1.0
 10
-1742.0334877239211
 20
-5100.582792936877
 30
0.0
 41
0.9999371979007888
 10
-1742.1155430733254
 20
-5100.7133498506591
 30
0.0
 41
1.0
 10
-1742.1190519576903
 20
-5100.7189327787291
 30
0.0
 41
1.0
 10
-1742.122560842055
 20
-5100.7245157067991
 30
0.0
 41
1.0
 10
-1742.2116339601787
 20
-5100.8662384767058
 30
0.0
 41
0.9998272025609557
 10
-1742.2953773510601
 20
-5101.0111743534571
 30
0.0
 41
1.0
 10
-1742.3105925230839
 20
-5101.0375074679159
 30
0.0
 41
1.0
 10
-1742.3258076951074
 20
-5101.0638405823738
 30
0.0
 41
1.0
 10
-1742.4399814300305
 20
-5101.2614426880327
 30
0.0
 41
0.9995217214847891
 10
-1742.5417211195938
 20
-5101.4657250158971
 30
0.0
 41
1.0
 10
-1742.5493646822315
 20
-5101.4810724656045
 30
0.0
 41
1.0
 10
-1742.5570082448694
 20
-5101.4964199153119
 30
0.0
 41
1.0
 10
-1742.6439135374633
 20
-5101.6709163733894
 30
0.0
 41
0.9998269762601691
 10
-1742.7242680037211
 20
-5101.848524660094
 30
0.0
 41
1.0
 10
-1742.8046224699833
 20
-5102.0261329468067
 30
0.0
 41
0.9998944747389448
 10
-1742.8797832645464
 20
-5102.2060006724223
 30
0.0
 41
1.0
 10
-1742.8847369341381
 20
-5102.2178553273407
 30
0.0
 41
1.0
 10
-1742.8896906037298
 20
-5102.2297099822581
 30
0.0
 41
1.0
 10
-1742.9703376642826
 20
-5102.422706922267
 30
0.0
 41
0.9999506734410776
 10
-1743.0471351931969
 20
-5102.617267727157
 30
0.0
 41
1.0
 10
-1743.0617351584738
 20
-5102.6542556489794
 30
0.0
 41
1.0
 10
-1743.0763351237504
 20
-5102.6912435708018
 30
0.0
 41
1.0
 10
-1743.1239327221172
 20
-5102.8118285320652
 30
0.0
 41
0.9999912393949169
 10
-1743.1705191661217
 20
-5102.93280773472
 30
0.0
 41
1.0
 10
-1743.2171056101499
 20
-5103.0537869374366
 30
0.0
 41
0.9999927113972426
 10
-1743.262766904533
 20
-5103.1751183449032
 30
0.0
 41
1.0
 10
-1743.2767353359332
 20
-5103.2122353269069
 30
0.0
 41
1.0
 10
-1743.2907037673335
 20
-5103.2493523089106
 30
0.0
 41
1.0
 10
-1743.3643019245187
 20
-5103.4449176803892
 30
0.0
 41
0.9999487550948287
 10
-1743.4339255495006
 20
-5103.6419330455874
 30
0.0
 41
1.0
 10
-1743.4575191594354
 20
-5103.7086963558704
 30
0.0
 41
1.0
 10
-1743.4811127693704
 20
-5103.7754596661534
 30
0.0
 41
1.0
 10
-1743.575798403755
 20
-5104.0433935010024
 30
0.0
 41
0.9999808436940078
 10
-1743.6671599923916
 20
-5104.3124789322646
 30
0.0
 41
1.0
 10
-1743.7585215810359
 20
-5104.5815643635506
 30
0.0
 41
0.9999873932889396
 10
-1743.8471762897575
 20
-5104.8515537185804
 30
0.0
 41
1.0
 10
-1743.8672686466207
 20
-5104.9127430513163
 30
0.0
 41
1.0
 10
-1743.8873610034839
 20
-5104.9739323840513
 30
0.0
 41
1.0
 10
-1744.0162004259432
 20
-5105.3663004045866
 30
0.0
 41
0.9999794883041641
 10
-1744.1400032109011
 20
-5105.7602866108527
 30
0.0
 41
1.0
 10
-1744.1511554703286
 20
-5105.7957772210575
 30
0.0
 41
1.0
 10
-1744.1623077297561
 20
-5105.8312678312623
 30
0.0
 41
1.0
 10
-1744.3048658936486
 20
-5106.2849405833194
 30
0.0
 41
0.9999982761810173
 10
-1744.4457383336753
 20
-5106.7391396055209
 30
0.0
 41
1.0
 10
-1746.0338786662519
 20
-5111.7879093365227
 30
0.0
 41
1.0
 10
-1747.6220189988285
 20
-5116.8366790675245
 30
0.0
 41
1.0
 10
-1748.5707696103104
 20
-5116.8366790675245
 30
0.0
 41
1.0
 10
-1749.5195202217924
 20
-5116.8366790675245
 30
0.0
 41
1.0
 10
-1746.2812357356356
 20
-5106.5093568675838
 30
0.0
 41
1.0
 10
-1743.0429512494788
 20
-5096.1820346676432
 30
0.0
 41
1.0
  0
LWPOLYLINE
  5
5B
100
AcDbEntity
  8
0
370
              15
390
0
  6
Continuous
 62
               7
100
AcDbPolyline
 90
      232
 70
             128
 10
-1768.7464970232882
 20
-5097.2663774991561
 42
0.0004370800924377
 10
-1768.7993741974124
 20
-5097.3350441384755
 10
-1768.838658428494
 20
-5097.386151251314
 42
0.0030481992050533
 10
-1768.9689971456096
 20
-5097.5578729436502
 10
-1769.0075088173667
 20
-5097.6092597274437
 42
0.0042058245798401
 10
-1769.2114938680513
 20
-5097.8862654725226
 10
-1769.263898990544
 20
-5097.9586983192894
 42
0.0120948898871766
 10
-1769.5599429072943
 20
-5098.3894479238288
 10
-1769.6561354064233
 20
-5098.5369286590749
 42
0.0141601263790068
 10
-1769.9597794533379
 20
-5099.0325979958034
 10
-1769.9993167207545
 20
-5099.1014419632147
 42
0.0071131081357833
 10
-1770.2045890440108
 20
-5099.4709447620735
 42
0.0068458791005607
 10
-1770.3994685708685
 20
-5099.8460363255772
 10
-1770.406280433313
 20
-5099.8595980392747
 42
0.0064120880316325
 10
-1770.6044226833465
 20
-5100.2670225141783
 10
-1770.6119573688679
 20
-5100.2830343709102
 42
0.0058857236402322
 10
-1770.8147127607365
 20
-5100.7274104819444
 10
-1770.8228876870321
 20
-5100.7459006355821
 42
0.0053189741919785
 10
-1771.0315919996954
 20
-5101.2318641094917
 10
-1771.04033980538
 20
-5101.2528459876958
 42
0.004750365033407
 10
-1771.2563135315356
 20
-5101.7850454209001
 10
-1771.2655817798855
 20
-5101.8085217970111
 42
0.0042071762335952
 10
-1771.490129163609
 20
-5102.3916153910786
 10
-1771.4998785659604
 20
-5102.4175815659582
 42
0.003668008634816
 10
-1771.7343332092803
 20
-5103.0562169505311
 10
-1771.7445409891129
 20
-5103.0846654848319
 42
0.0032573142661488
 10
-1771.990173275072
 20
-5103.7835181445389
 10
-1772.0588237959248
 20
-5103.9829812286234
 42
0.0026133366684294
 10
-1772.407268994682
 20
-5105.0128445123009
 10
-1772.4705257821943
 20
-5105.2030753477356
 42
0.0020592950651719
 10
-1772.6843888511553
 20
-5105.8551790003148
 10
-1772.6874406423171
 20
-5105.8646154887201
 42
0.0025609928602993
 10
-1772.8892611438109
 20
-5106.499760711089
 10
-1772.8918525109364
 20
-5106.508063052026
 42
0.0031362356225937
 10
-1773.0813432966147
 20
-5107.1288259082103
 10
-1773.0834743395401
 20
-5107.1359672144144
 42
0.0037229918076757
 10
-1773.2602747264659
 20
-5107.7449525164011
 10
-1773.2619533156724
 20
-5107.7508994065756
 42
0.004307762362184
 10
-1773.425694117735
 20
-5108.3507181383357
 42
0.0047654161883031
 10
-1773.5785228402522
 20
-5108.9534042272307
 10
-1773.6129874490921
 20
-5109.094966004388
 42
0.0112969368411992
 10
-1773.8088518072386
 20
-5109.9866581650258
 10
-1773.8368581963346
 20
-5110.1294862111135
 42
0.0130056762636249
 10
-1774.037695439974
 20
-5111.3164272827598
 10
-1774.0582351901214
 20
-5111.4605053962596
 42
0.0138721532056071
 10
-1774.1619381946562
 20
-5112.367334882063
 10
-1774.1812336825672
 20
-5112.590832603978
 42
0.0071254696988275
 10
-1774.2145803284998
 20
-5113.0540196128313
 10
-1774.219541302665
 20
-5113.1400236073914
 42
0.0028881799396438
 10
-1774.2346795959506
 20
-5113.4317653172366
 42
0.0060297297040884
 10
-1774.2446117957159
 20
-5113.7237142533559
 10
-1774.2456740773825
 20
-5113.7721066253025
 42
0.022952316406624
 10
-1774.237943049598
 20
-5114.0948614715635
 10
-1774.2337172760792
 20
-5114.1552650055737
 42
0.0123673300544686
 10
-1774.2146386295694
 20
-5114.356385730749
 42
0.0128577674697828
 10
-1774.1854432391672
 20
-5114.5562835806832
 10
-1774.17831736578
 20
-5114.5976123952751
 42
0.0285717853737366
 10
-1774.1138233640811
 20
-5114.8757285465845
 10
-1774.100154840407
 20
-5114.9223833160877
 42
0.0316283099165482
 10
-1773.9843442604956
 20
-5115.2413978178993
 10
-1773.981295568746
 20
-5115.2483841902113
 42
0.0338984824316535
 10
-1773.8318638577671
 20
-5115.5359501544044
 10
-1773.829555128395
 20
-5115.5397411836839
 42
0.0350228718199637
 10
-1773.6471948377198
 20
-5115.7967931683561
 10
-1773.6463095859483
 20
-5115.7978722461157
 42
0.0347476747491131
 10
-1773.4318848987073
 20
-5116.0250572933473
 42
0.0331337701983887
 10
-1773.188641572955
 20
-5116.2211859554372
 10
-1773.1875414744477
 20
-5116.2219586586034
 42
0.0305233319124532
 10
-1772.9189967788775
 20
-5116.3870868286913
 10
-1772.9157667343729
 20
-5116.3888108405554
 42
0.0273744481163258
 10
-1772.623213022797
 20
-5116.5249489844418
 10
-1772.6181084876639
 20
-5116.5269925689099
 42
0.0240964406131949
 10
-1772.302631412027
 20
-5116.635976295187
 10
-1772.2960480828092
 20
-5116.6379010348646
 42
0.0209636179758141
 10
-1771.958647930152
 20
-5116.7213691828065
 10
-1771.9510154697105
 20
-5116.7229210958067
 42
0.0181388704907322
 10
-1771.59269307772
 20
-5116.7823371890154
 10
-1771.5844122293397
 20
-5116.7834033728323
 42
0.0156086547376074
 10
-1771.2062248651503
 20
-5116.8201395594051
 10
-1771.1630296127844
 20
-5116.8229780618885
 42
0.0137148329031845
 10
-1770.8353564675103
 20
-5116.8354983171484
 10
-1770.7894202775778
 20
-5116.8359927502652
 42
0.0051057823987434
 10
-1770.5532746909935
 20
-5116.8361230046758
 42
0.0052256693388138
 10
-1770.317177407225
 20
-5116.8313741802049
 10
-1770.2469506234679
 20
-5116.829227214188
 42
0.01615071788269
 10
-1769.8712135453877
 20
-5116.8055768438635
 10
-1769.8512005849966
 20
-5116.803666648575
 42
0.0101216737965866
 10
-1769.4371733634948
 20
-5116.7556737182158
 10
-1769.4031200740769
 20
-5116.7510260214076
 42
0.0245291776428757
 10
-1768.9263304185235
 20
-5116.6619509433249
 10
-1768.8415071030045
 20
-5116.6417550229789
 42
0.0143509212521083
 10
-1768.4848759990614
 20
-5116.5459503891943
 42
0.0156557856881002
 10
-1768.1346599343365
 20
-5116.4289391733864
 10
-1768.127158719833
 20
-5116.4261690116291
 42
0.017013733383801
 10
-1767.7705627241342
 20
-5116.2805113967561
 10
-1767.763458801744
 20
-5116.2773235612003
 42
0.0183105364474079
 10
-1767.404109133601
 20
-5116.0999885193705
 10
-1767.3971623689481
 20
-5116.0962380844903
 42
0.0194899957898303
 10
-1767.0386816279581
 20
-5115.884259102595
 10
-1767.0316677486312
 20
-5115.8797337603064
 42
0.0204869853105968
 10
-1766.6776534465434
 20
-5115.630213745234
 10
-1766.6703878379535
 20
-5115.6246336798831
 42
0.0212516938477825
 10
-1766.3243979068493
 20
-5115.3347296829934
 10
-1766.2778812127556
 20
-5115.2922623728846
 42
0.0215248918379646
 10
-1766.0178550438773
 20
-5115.0334980938969
 10
-1765.9728253095032
 20
-5114.9846539725513
 42
0.0114578554650386
 10
-1765.8180331558156
 20
-5114.8088310390922
 10
-1765.8068386198279
 20
-5114.7955122755484
 42
0.0061531305416507
 10
-1765.6803639738259
 20
-5114.6412227422443
 42
0.0006325587286818
 10
-1765.5559854895662
 20
-5114.4852193664146
 10
-1765.5329453546342
 20
-5114.4562458459004
 42
0.004189776130098
 10
-1765.3644899506644
 20
-5114.2407264698249
 10
-1765.3060278307726
 20
-5114.1646251228412
 42
0.0092993880036394
 10
-1765.0294159035413
 20
-5113.7903463589546
 10
-1764.9470214103346
 20
-5113.674409355378
 42
0.0159321727138926
 10
-1764.6004149277046
 20
-5113.1522351346393
 10
-1764.5560587923235
 20
-5113.0805555704001
 42
0.0085547317023939
 10
-1764.3215470269984
 20
-5112.6866806211656
 42
0.0084601156814932
 10
-1764.1005708495525
 20
-5112.2850537721288
 10
-1764.0924553757263
 20
-5112.2696940898641
 42
0.0081429654291538
 10
-1763.8692061052857
 20
-5111.829972577334
 10
-1763.8603459411001
 20
-5111.8117937353127
 42
0.0076574581343506
 10
-1763.6339384305234
 20
-5111.3286108600541
 10
-1763.6244587898013
 20
-5111.3075463817549
 42
0.0070682724218127
 10
-1763.3940138819848
 20
-5110.7755090769606
 10
-1763.3840235980074
 20
-5110.7515198879591
 42
0.0064559514492704
 10
-1763.1486903898356
 20
-5110.1652076214541
 10
-1763.1382810316622
 20
-5110.1382726959891
 42
0.005831141388644
 10
-1762.897234294895
 20
-5109.4922406015685
 10
-1762.8864792175204
 20
-5109.4623562604429
 42
0.0052312425749889
 10
-1762.6388979394833
 20
-5108.7511538466333
 10
-1762.6278541030965
 20
-5108.7183271345457
 42
0.0046680544849616
 10
-1762.3729256753531
 20
-5107.9365008187915
 10
-1762.3309335252991
 20
-5107.8035175814666
 42
0.0041666856501216
 10
-1762.1276475129175
 20
-5107.1405488064811
 10
-1762.0899850722626
 20
-5107.0139676988474
 42
0.0015170975005103
 10
-1761.9687984938405
 20
-5106.6020993473394
 42
-0.0004887992978335
 10
-1761.8484587206965
 20
-5106.1899809352481
 10
-1761.7719814632196
 20
-5105.9290235493572
 42
0.0002583378926239
 10
-1761.4987668930853
 20
-5104.9949668458976
 10
-1761.4169940435968
 20
-5104.7148675866056
 42
0.000663616957606
 10
-1761.2231262835753
 20
-5104.0475146630088
 10
-1761.2180296292181
 20
-5104.0298830800957
 42
0.0010589131384531
 10
-1761.0365809283007
 20
-5103.3971517370846
 10
-1761.0315988578247
 20
-5103.3796388300807
 42
0.0015655524490293
 10
-1760.8633286506424
 20
-5102.7810221508735
 10
-1760.8584984502406
 20
-5102.763629991985
 42
0.0021640440515187
 10
-1760.7042084782493
 20
-5102.1986029739091
 10
-1760.6995742588156
 20
-5102.1813382438995
 42
0.002876387178028
 10
-1760.5600585407715
 20
-5101.6493702930638
 10
-1760.5556726766074
 20
-5101.6322463149218
 42
0.0037310511916347
 10
-1760.431715984761
 20
-5101.1327987208824
 10
-1760.4276407644691
 20
-5101.1158384496257
 42
0.0047652197872734
 10
-1760.3200168639646
 20
-5100.6483606813308
 10
-1760.3163262646422
 20
-5100.6316011261824
 42
0.0060276699171092
 10
-1760.2257961654882
 20
-5100.195525331048
 10
-1760.2225774752026
 20
-5100.17902411676
 42
0.0075824337911334
 10
-1760.1498881657803
 20
-5099.7737569523051
 10
-1760.1472427883962
 20
-5099.7576020048282
 42
0.0095130624543494
 10
-1760.0931275527741
 20
-5099.3825126517804
 10
-1760.0861413288944
 20
-5099.3265790936866
 42
0.0121054653092539
 10
-1760.0595499983078
 20
-5099.0616832651904
 10
-1760.0586835085458
 20
-5099.0502798222369
 42
0.006905082765733
 10
-1760.0435946905104
 20
-5098.8073385954085
 10
-1760.0424593908431
 20
-5098.7838123383599
 42
0.0169063976475915
 10
-1760.0396321118656
 20
-5098.5876196110657
 10
-1760.040802763395
 20
-5098.5272838497067
 42
0.005200773242385
 10
-1760.0430562119777
 20
-5098.4516904595694
 42
0.0054038122854001
 10
-1760.0630197238197
 20
-5098.3316721635892
 10
-1760.0681055796936
 20
-5098.3030136769848
 42
0.0112050460616827
 10
-1760.1034899417523
 20
-5098.1266872386514
 10
-1760.121314903799
 20
-5098.047145651919
 42
0.0240764467884253
 10
-1760.2122122699564
 20
-5097.7169086163967
 10
-1760.2307710327607
 20
-5097.6602884514286
 42
0.0256812331745873
 10
-1760.374133952942
 20
-5097.288564245162
 10
-1760.3795433787639
 20
-5097.2764329101701
 42
0.0268360501443088
 10
-1760.5489706196145
 20
-5096.9454397761474
 10
-1760.5545070272556
 20
-5096.9359201058251
 42
0.0274670231580835
 10
-1760.7467080036636
 20
-5096.6436327309239
 10
-1760.7520893036165
 20
-5096.6363535833952
 42
0.0275035967150879
 10
-1760.9636621831792
 20
-5096.3808376930865
 10
-1760.9687316841489
 20
-5096.3753586054527
 42
0.0269557673554361
 10
-1761.196135227588
 20
-5096.1547163194955
 10
-1761.2008782853725
 20
-5096.1505863650336
 42
0.0259124802166852
 10
-1761.4404331168093
 20
-5095.962895837878
 10
-1761.4449639619925
 20
-5095.9597103355463
 42
0.0245162152931648
 10
-1761.6928803150854
 20
-5095.8029773264316
 10
-1761.6974068614049
 20
-5095.8004171292332
 42
0.0229282588893898
 10
-1761.949826418238
 20
-5095.6725489367273
 10
-1761.9546069120886
 20
-5095.6703966369587
 42
0.0212984135910556
 10
-1762.2076448645435
 20
-5095.5691977197312
 10
-1762.2129491494898
 20
-5095.56733415698
 42
0.0197555462063695
 10
-1762.4627274872378
 20
-5095.4905187390141
 42
0.0183511896894938
 10
-1762.7176562127229
 20
-5095.4329358320419
 10
-1762.8040214093942
 20
-5095.4167330416676
 42
0.033805787706685
 10
-1763.0895287586659
 20
-5095.382924636524
 10
-1763.1805341637209
 20
-5095.3783449812599
 42
0.0091990524496188
 10
-1763.2863812723422
 20
-5095.3749691253361
 42
0.0028333980554178
 10
-1763.3922951882694
 20
-5095.3741410178127
 10
-1763.3932106413899
 20
-5095.3741390479881
 42
-0.0023619827213688
 10
-1763.5009566564875
 20
-5095.3733982069107
 10
-1763.5373618266799
 20
-5095.3729759004527
 42
0.0008824597964836
 10
-1763.7179178167185
 20
-5095.3712001222184
 10
-1763.7617792489377
 20
-5095.3708461606911
 42
0.0038132666105606
 10
-1764.0300621447368
 20
-5095.3707272246229
 10
-1764.0465957996107
 20
-5095.3708459907684
 42
0.006066556909338
 10
-1764.3478762912098
 20
-5095.3766662901953
 10
-1764.3621266232271
 20
-5095.3771145981627
 42
0.008035695335626
 10
-1764.6915853396038
 20
-5095.3927823202239
 10
-1764.7036553546545
 20
-5095.3935509031617
 42
0.0098996399170392
 10
-1765.0564184393027
 20
-5095.4230361323562
 10
-1765.0664641486705
 20
-5095.4240764285532
 42
0.0117740981326557
 10
-1765.4376210069706
 20
-5095.4713686760742
 10
-1765.4458437034968
 20
-5095.4726137926518
 42
0.013743521514606
 10
-1765.8304325230024
 20
-5095.5417107662142
 10
-1765.8370895621097
 20
-5095.5430966624444
 42
0.0158359869453614
 10
-1766.2300866559174
 20
-5095.6379887509293
 10
-1766.2354998427813
 20
-5095.639478691799
 42
0.0180554123937307
 10
-1766.6318148873875
 20
-5095.7641167080365
 10
-1766.6363716754763
 20
-5095.7657327443048
 42
0.0203657431331728
 10
-1767.0308491932958
 20
-5095.9239930858221
 10
-1767.0349927322873
 20
-5095.9258547072568
 42
0.0226819684720643
 10
-1767.422428788474
 20
-5096.121497285927
 10
-1767.426628579507
 20
-5096.1238628778556
 42
0.0248634984489733
 10
-1767.8018105206945
 20
-5096.3604895238104
 10
-1767.8500054494866
 20
-5096.3943465656412
 42
0.02670441908187
 10
-1768.124298146407
 20
-5096.6097869414989
 42
0.0139303002506582
 10
-1768.3804653123429
 20
-5096.8470257824165
 10
-1768.3853186980609
 20
-5096.8517784452742
 42
0.0283460963134496
 10
-1768.6293912922822
 20
-5097.1195091057216
 10
-1768.6690597974425
 20
-5097.1683106831952
 42
0.0070695366429831
 10
-1768.7464970232882
 20
-5097.2663774991561
 42
0.0070695366429831
  0
LWPOLYLINE
  5
5C
100
AcDbEntity
  8
0
370
              15
390
0
  6
Continuous
 62
               7
100
AcDbPolyline
 90
      226
 70
             128
 10
-1772.2753174605509
 20
-5112.9879663053471
 42
-0.0026277637605446
 10
-1772.2753953443564
 20
-5112.9211943796727
 10
-1772.2751779861187
 20
-5112.8680391621638
 42
-0.0088680296313235
 10
-1772.2714013698203
 20
-5112.6950233797352
 10
-1772.2690550107122
 20
-5112.6357433543053
 42
-0.0077381705904511
 10
-1772.2530088999483
 20
-5112.3444828584943
 10
-1772.2521409887754
 20
-5112.3321946248216
 42
-0.0068872530334367
 10
-1772.2255089090224
 20
-5112.0169728727597
 10
-1772.2243046848357
 20
-5112.0047318937322
 42
-0.0062130021586711
 10
-1772.1867109680074
 20
-5111.6658622024861
 10
-1772.1852070644723
 20
-5111.6536883305707
 42
-0.0056726929632723
 10
-1772.1362852049647
 20
-5111.2914931084488
 10
-1772.1345117593205
 20
-5111.279399308205
 42
-0.0052341884430306
 10
-1772.0739011730645
 20
-5110.8942060526879
 10
-1772.0718831842873
 20
-5110.8822011226912
 42
-0.0049768450249409
 10
-1771.9991445028622
 20
-5110.4743565552508
 10
-1771.9748954881411
 20
-5110.3458085722559
 42
-0.008902980557045
 10
-1771.8378146363482
 20
-5109.6840331248395
 10
-1771.8050692610318
 20
-5109.5390016943165
 42
-0.0080318257151329
 10
-1771.5755206466974
 20
-5108.5932920624737
 10
-1771.5635357202459
 20
-5108.5471614272719
 42
-0.0074265721316497
 10
-1771.2795241813876
 20
-5107.5170968488819
 10
-1771.2596446382784
 20
-5107.4489627883195
 42
-0.0069711922666236
 10
-1770.9323400597691
 20
-5106.3826950479743
 10
-1770.872388112663
 20
-5106.1966736895956
 42
-0.0052070422928955
 10
-1770.642962887408
 20
-5105.5094016125695
 10
-1770.6256816952189
 20
-5105.4593743319037
 42
-0.0009167004393817
 10
-1770.4225898079508
 20
-5104.874918483798
 42
-0.0025162727040367
 10
-1770.2154921776821
 20
-5104.2918772196208
 10
-1770.1782675658812
 20
-5104.1887276737343
 42
-0.0028212681393732
 10
-1769.9300916469124
 20
-5103.5129970415619
 10
-1769.9202608841542
 20
-5103.4866895968644
 42
-0.0031964916806718
 10
-1769.6839686265062
 20
-5102.866484834758
 10
-1769.6743341725128
 20
-5102.841674844628
 42
-0.0036281836585139
 10
-1769.4492282113983
 20
-5102.274234163724
 10
-1769.4397898012389
 20
-5102.2509367322191
 42
-0.0041269166657655
 10
-1769.2251721045809
 20
-5101.7334958362517
 10
-1769.1925391481598
 20
-5101.6566173898836
 42
-0.0047472213149433
 10
-1769.0354943426114
 20
-5101.2961959220011
 10
-1769.0286002614091
 20
-5101.2807753246825
 42
-0.0025651659942998
 10
-1768.8802422275526
 20
-5100.9534472689156
 42
-0.0057144635014673
 10
-1768.7264925337884
 20
-5100.6286375955569
 10
-1768.6984618283802
 20
-5100.5711292131464
 42
-0.0065388068434305
 10
-1768.5149948006488
 20
-5100.2068967164996
 10
-1768.5065363448796
 20
-5100.1906371371488
 42
-0.0074510842929973
 10
-1768.3303540989923
 20
-5099.8639488560038
 10
-1768.322174428454
 20
-5099.8493080787212
 42
-0.0084648980043846
 10
-1768.1525405753541
 20
-5099.5573990677694
 10
-1768.1446844488687
 20
-5099.5443920761245
 42
-0.0095638542558612
 10
-1767.9808490012706
 20
-5099.2845032041405
 10
-1767.9733740575941
 20
-5099.2731338426765
 42
-0.0107191627140167
 10
-1767.8145724772089
 20
-5099.0425226081461
 10
-1767.8075557434888
 20
-5099.0327865157988
 42
-0.0118458573479888
 10
-1767.6530076449612
 20
-5098.8287143204689
 42
-0.0129184518482373
 10
-1767.4885550213585
 20
-5098.6325538042856
 10
-1767.4584102490085
 20
-5098.598427725402
 42
-0.0217742579560366
 10
-1767.2817979266742
 20
-5098.4152209551576
 10
-1767.271052382222
 20
-5098.4050041219625
 42
-0.0097266568705686
 10
-1767.1049947633487
 20
-5098.253156547511
 42
-0.018772090555822
 10
-1766.9306471874506
 20
-5098.1110876941111
 10
-1766.8999411967757
 20
-5098.0879286117115
 42
-0.0179428207800146
 10
-1766.6675204767866
 20
-5097.9253764346104
 10
-1766.6638681498739
 20
-5097.9230124997248
 42
-0.017004787751843
 10
-1766.4281045123403
 20
-5097.7815519855831
 10
-1766.4243215236024
 20
-5097.7794536805513
 42
-0.0160190788362041
 10
-1766.1874129759576
 20
-5097.6578023785587
 42
-0.0151102861363364
 10
-1765.9433811934985
 20
-5097.5511196024918
 10
-1765.890994691295
 20
-5097.5300794695977
 42
-0.027194544212772
 10
-1765.5323321322267
 20
-5097.4082146588889
 10
-1765.4632673317467
 20
-5097.3888651176285
 42
-0.0237596593802296
 10
-1765.0474704847343
 20
-5097.2934144056526
 10
-1764.9794076310184
 20
-5097.281159717526
 42
-0.0213715440609925
 10
-1764.693532699564
 20
-5097.2422126860074
 10
-1764.6333855333307
 20
-5097.2366229713043
 42
-0.0101465656005394
 10
-1764.4658930013443
 20
-5097.224479428045
 10
-1764.4565526151348
 20
-5097.223992513048
 42
-0.0100375910372928
 10
-1764.3073985145797
 20
-5097.2192166951172
 10
-1764.2971392449078
 20
-5097.219094256101
 42
-0.010362563419823
 10
-1764.1684312502525
 20
-5097.2202256896308
 10
-1764.1461655989865
 20
-5097.2208830480995
 42
-0.0115689249795273
 10
-1764.0621148614641
 20
-5097.2253125543539
 42
-0.0072438037155805
 10
-1763.9782765820471
 20
-5097.2329017540978
 10
-1763.9614760725431
 20
-5097.2346682968237
 42
-0.0217917313387159
 10
-1763.8449063092103
 20
-5097.2520881895425
 10
-1763.7793062186545
 20
-5097.2648347979548
 42
-0.0332943556714099
 10
-1763.5749140536259
 20
-5097.3188750892623
 10
-1763.5447414850598
 20
-5097.3290431663854
 42
-0.0184824084560171
 10
-1763.4062364286124
 20
-5097.3814941817582
 42
-0.0198002051319225
 10
-1763.2721620881327
 20
-5097.444378241953
 10
-1763.2702754507386
 20
-5097.4453560288421
 42
-0.0212242342634263
 10
-1763.1381365083337
 20
-5097.5211187676514
 10
-1763.1363212127958
 20
-5097.5222645698559
 42
-0.0226090605717958
 10
-1763.007817311578
 20
-5097.6117442134155
 10
-1763.0059728698448
 20
-5097.6131564663992
 42
-0.0238457051944223
 10
-1762.8827907885507
 20
-5097.7171523622446
 10
-1762.8808380599853
 20
-5097.7189672400164
 42
-0.0248160564658296
 10
-1762.7646365526753
 20
-5097.8382418412239
 10
-1762.762532919272
 20
-5097.84062717493
 42
-0.0254109591545677
 10
-1762.6549277014112
 20
-5097.9759155609072
 10
-1762.6526796794983
 20
-5097.9790571093072
 42
-0.0255528487952525
 10
-1762.5552330006999
 20
-5098.1310841635513
 10
-1762.5529019007859
 20
-5098.1351657751547
 42
-0.0252146793595674
 10
-1762.4671208747807
 20
-5098.3046680211573
 10
-1762.4648186356258
 20
-5098.3098501030654
 42
-0.0244265635399878
 10
-1762.3921639418643
 20
-5098.4975966751072
 10
-1762.3829175403921
 20
-5098.5254620934447
 42
-0.0231319613529328
 10
-1762.3369947614024
 20
-5098.6887631402387
 42
-0.0112130423936139
 10
-1762.302358738872
 20
-5098.8549667404268
 10
-1762.3011562137594
 20
-5098.8614633273137
 42
-0.021052788138809
 10
-1762.2754697383857
 20
-5099.0425189727639
 10
-1762.2719591435648
 20
-5099.0779245213089
 42
-0.0190029892201111
 10
-1762.2565176700139
 20
-5099.3314603675926
 10
-1762.2557076935677
 20
-5099.3669359819505
 42
-0.0137974553959816
 10
-1762.257256546399
 20
-5099.691967388655
 10
-1762.2581020013561
 20
-5099.7180861332608
 42
-0.0081336634095785
 10
-1762.2729613365859
 20
-5100.0234336008762
 42
-0.0073526923564163
 10
-1762.2972698699614
 20
-5100.3281818451742
 10
-1762.2985312937431
 20
-5100.3415185198282
 42
-0.0066886138646693
 10
-1762.3342668797864
 20
-5100.6721045633158
 10
-1762.3359239692559
 20
-5100.6857261823061
 42
-0.0061359187413595
 10
-1762.383774571304
 20
-5101.0424901623965
 10
-1762.3858120723794
 20
-5101.0563849652426
 42
-0.0056698610105713
 10
-1762.4464624031546
 20
-5101.4396635340954
 10
-1762.4488678364773
 20
-5101.4538226533223
 42
-0.0052721077229505
 10
-1762.5230000372787
 20
-5101.8639499929814
 10
-1762.5257631861218
 20
-5101.8783666283744
 42
-0.0049289272076653
 10
-1762.6140573042092
 20
-5102.3156751394727
 10
-1762.6171697988952
 20
-5102.3303439923075
 42
-0.0047415956839529
 10
-1762.7204077904235
 20
-5102.7951407497294
 10
-1762.7551760007823
 20
-5102.9449478451024
 42
-0.0084404470852205
 10
-1762.9451924443533
 20
-5103.7051718696321
 10
-1762.9513191323399
 20
-5103.7280359937904
 42
-0.0039635940280857
 10
-1763.1727728166202
 20
-5104.529024858045
 10
-1763.1861496117976
 20
-5104.5759564746295
 42
-0.0072475040853991
 10
-1763.4535964996574
 20
-5105.4651761910027
 10
-1763.5238088264884
 20
-5105.6869165409826
 42
-0.0051345458821085
 10
-1763.8105681985521
 20
-5106.5612417287957
 10
-1763.8320944653194
 20
-5106.624667995924
 42
-0.0019150016600475
 10
-1764.0876278721894
 20
-5107.3682171161527
 10
-1764.0940954766011
 20
-5107.3868045811187
 42
-0.0021524362783926
 10
-1764.3425735276592
 20
-5108.0911304027868
 10
-1764.3517839483404
 20
-5108.1168839810443
 42
-0.0024331286734343
 10
-1764.5880392073936
 20
-5108.7674832892117
 10
-1764.5970871599534
 20
-5108.7920265955927
 42
-0.002744972177351
 10
-1764.8217017307666
 20
-5109.3911564744958
 10
-1764.8305917381592
 20
-5109.4144790643504
 42
-0.0031083229937463
 10
-1765.04413422477
 20
-5109.9644031019161
 10
-1765.0528703564398
 20
-5109.9864928177567
 42
-0.003531134316644
 10
-1765.2559115420495
 20
-5110.489475943501
 10
-1765.2644968811869
 20
-5110.5103186669867
 42
-0.0040245640900081
 10
-1765.4576086849897
 20
-5110.9686279896159
 10
-1765.4660447986007
 20
-5110.9882073577073
 42
-0.0046015135847043
 10
-1765.6498010917471
 20
-5111.4041123873358
 10
-1765.658087269572
 20
-5111.4224095267818
 42
-0.0052768638475078
 10
-1765.8330647885355
 20
-5111.7981824110502
 10
-1765.8411969991641
 20
-5111.8151757495943
 42
-0.0060672675410371
 10
-1766.0079766119356
 20
-5112.1530913727074
 10
-1766.0159460924187
 20
-5112.1687566317087
 42
-0.0069904648965295
 10
-1766.1751144864152
 20
-5112.4710924383726
 10
-1766.1829058860321
 20
-5112.4854029876105
 42
-0.0080637022708763
 10
-1766.3350577463621
 20
-5112.7544382907399
 10
-1766.3426467789777
 20
-5112.7673661563149
 42
-0.00930064558509
 10
-1766.4883874555285
 20
-5113.0053805548414
 10
-1766.4957381222814
 20
-5113.016898524028
 42
-0.0107060777837926
 10
-1766.6356866657202
 20
-5113.2261688414037
 10
-1766.6427484340038
 20
-5113.2362543839763
 42
-0.0122723111374437
 10
-1766.7775421521851
 20
-5113.419047713458
 10
-1766.7778683757278
 20
-5113.4194681012532
 42
-0.014183631984765
 10
-1766.9214499787099
 20
-5113.5940378590931
 10
-1766.928397734363
 20
-5113.6020128593582
 42
-0.0175957477181248
 10
-1767.0683039024057
 20
-5113.7516337477609
 42
-0.0080466359472651
 10
-1767.2157676674258
 20
-5113.893956275906
 10
-1767.2618022119473
 20
-5113.9369767140051
 42
-0.0269600260615968
 10
-1767.515082457925
 20
-5114.1492999725133
 10
-1767.5816495942402
 20
-5114.1992513871464
 42
-0.0178362839545136
 10
-1767.8215940838904
 20
-5114.3662693133992
 10
-1767.8288390548946
 20
-5114.3709378256071
 42
-0.0174650732991354
 10
-1768.0651752523313
 20
-5114.5117987905578
 42
-0.016924012979061
 10
-1768.3106414981919
 20
-5114.6360910503336
 10
-1768.3566276537508
 20
-5114.6574530059042
 42
-0.0318883037127961
 10
-1768.7069785093622
 20
-5114.7937913154137
 10
-1768.7753440445365
 20
-5114.8154919358894
 42
-0.0284435909682275
 10
-1769.1513941708304
 20
-5114.9117093713612
 10
-1769.1865523313372
 20
-5114.9186029671928
 42
-0.0243909341065863
 10
-1769.499995792246
 20
-5114.9643239982288
 10
-1769.5502765190081
 20
-5114.9691695451302
 42
-0.0196639293004554
 10
-1769.7658720965314
 20
-5114.9814178306442
 10
-1769.8176961676932
 20
-5114.9823210913801
 42
-0.0100501510955013
 10
-1769.9301194493505
 20
-5114.9820206930199
 10
-1769.9617793107855
 20
-5114.9812996211285
 42
-0.0019752030644085
 10
-1770.0108716473819
 20
-5114.9799874609198
 10
-1770.0136319505968
 20
-5114.9799027690942
 42
0.0065378751667852
 10
-1770.0572085253712
 20
-5114.9791358778784
 42
-0.0167974693706055
 10
-1770.1007393483128
 20
-5114.9774759793572
 10
-1770.104818687561
 20
-5114.9771829684651
 42
-0.008128327768242
 10
-1770.1563784852667
 20
-5114.9726359748329
 10
-1770.1681180591745
 20
-5114.9714080572485
 42
-0.0126703439779914
 10
-1770.2428363549816
 20
-5114.9616732661634
 10
-1770.2656242226417
 20
-5114.9581150102495
 42
-0.0117852088102753
 10
-1770.3851632084456
 20
-5114.9365520150977
 10
-1770.4405436602297
 20
-5114.9252084748623
 42
-0.0251774592334217
 10
-1770.667387699239
 20
-5114.8667104654432
 10
-1770.7121068891013
 20
-5114.8527436461072
 42
-0.0146525200294858
 10
-1770.8984998766441
 20
-5114.7884771189019
 42
-0.0166929435432234
 10
-1771.0804775327963
 20
-5114.71266998583
 10
-1771.0851341640423
 20
-5114.7105450852287
 42
-0.0191684358584012
 10
-1771.2703177952751
 20
-5114.6173090014536
 10
-1771.2736503810497
 20
-5114.6154677538907
 42
-0.0221181782027495
 10
-1771.4569606849516
 20
-5114.5033342555098
 10
-1771.459310488955
 20
-5114.5017499575224
 42
-0.0254984685125135
 10
-1771.6356006393294
 20
-5114.3693388075535
 10
-1771.6580827870494
 20
-5114.3505864986037
 42
-0.0292492648725612
 10
-1771.7828517258945
 20
-5114.2334936989682
 42
-0.0159048957608351
 10
-1771.8966917233543
 20
-5114.1054737073673
 10
-1771.8980105139249
 20
-5114.1038920943574
 42
-0.0343813379692877
 10
-1772.0006477755362
 20
-5113.9620207686057
 10
-1772.0321393069107
 20
-5113.9115173764858
 42
-0.0369117275438093
 10
-1772.1180318088059
 20
-5113.748040135546
 42
-0.0191751380060873
 10
-1772.1852251943669
 20
-5113.5756355295498
 10
-1772.1869885181272
 20
-5113.5705421848725
 42
-0.0378178042501689
 10
-1772.2367832369005
 20
-5113.3816014087979
 10
-1772.2427785326279
 20
-5113.3490407905992
 42
-0.0184846046293175
 10
-1772.2634957319146
 20
-5113.2072879700463
 42
-0.0179866350777789
 10
-1772.2738287370007
 20
-5113.0643971569607
 10
-1772.273885179447
 20
-5113.0628394703417
 42
-0.0085497186032007
 10
-1772.2753174605509
 20
-5112.9879663053471
 42
-0.0085497186032007
  0
ENDBLK
  5
5D
100
AcDbEntity
  8
template
390
0
100
AcDbBlockEnd
  0
BLOCK
  5
5E
100
AcDbEntity
  8
notes
390
0
100
AcDbBlockBegin
  2
*D3
 70
               1
 10
0.0
 20
0.0
 30
0.0
  3
*D3
  1

  0
LINE
  5
5F
100
AcDbEntity
  8
0
370
              -2
390
0
  6
Continuous
 62
               0
100
AcDbLine
 10
-743.32416218994103
 20
690.23992556978646
 30
0.0
 11
-804.10878816861214
 21
690.23992556978646
 31
0.0
  0
LINE
  5
60
100
AcDbEntity
  8
0
370
              -2
390
0
  6
Continuous
 62
               0
100
AcDbLine
 10
-752.04934439225826
 20
670.23992556978646
 30
0.0
 11
-804.10878816861214
 21
670.23992556978646
 31
0.0
  0
LINE
  5
61
100
AcDbEntity
  8
0
370
              -2
390
0
  6
Continuous
 62
               0
100
AcDbLine
 10
-804.10878816861214
 20
690.23992556978646
 30
0.0
 11
-804.10878816861214
 21
670.23992556978646
 31
0.0
  0
CIRCLE
  5
62
102
{ACAD_REACTORS
330
63
102
}
100
AcDbEntity
  8
0
370
              -2
390
0
  6
Continuous
 62
               0
100
AcDbCircle
 10
-804.10878816861214
 20
690.23992556978646
 30
0.0
 40
1.9998779296875
  0
HATCH
  5
63
100
AcDbEntity
  8
0
370
              -2
390
0
  6
Continuous
 62
               0
100
AcDbHatch
 10
0.0
 20
0.0
 30
0.0
210
0.0
220
0.0
230
1.0
  2
SOLID
 70
               1
 71
               1
 91
        1
 92
        1
 93
        1
 72
               2
 10
-804.10878816861214
 20
690.23992556978646
 40
1.9998779296875
 50
0.0
 51
360.0
 73
               0
 97
        1
330
62
 75
               0
 76
               1
 98
        1
 10
0.0
 20
0.0
  0
CIRCLE
  5
64
102
{ACAD_REACTORS
330
65
102
}
100
AcDbEntity
  8
0
370
              -2
390
0
  6
Continuous
 62
               0
100
AcDbCircle
 10
-804.10878816861214
 20
670.23992556978646
 30
0.0
 40
1.9998779296875
  0
HATCH
  5
65
100
AcDbEntity
  8
0
370
              -2
390
0
  6
Continuous
 62
               0
100
AcDbHatch
 10
0.0
 20
0.0
 30
0.0
210
0.0
220
0.0
230
1.0
  2
SOLID
 70
               1
 71
               1
 91
        1
 92
        1
 93
        1
 72
               2
 10
-804.10878816861214
 20
670.23992556978646
 40
1.9998779296875
 50
0.0
 51
360.0
 73
               0
 97
        1
330
64
 75
               0
 76
               1
 98
        1
 10
0.0
 20
0.0
  0
MTEXT
  5
66
100
AcDbEntity
  8
0
390
0
 62
               0
100
AcDbMText
 10
-837.9864053561123
 20
664.36492556978646
 30
0.0
 40
24.432617187500004
 41
0.0
 71
               1
 72
               1
  1
20
  7
ＭＳ ゴシック
 11
0.0
 21
1.0
 31
0.0
 73
               1
 44
0.7828267384257843
  0
POINT
  5
67
100
AcDbEntity
  8
Defpoints
370
               0
390
0
 62
               0
100
AcDbPoint
 10
-727.04934439225826
 20
670.23992556978646
 30
0.0
  0
POINT
  5
68
100
AcDbEntity
  8
Defpoints
370
               0
390
0
 62
               0
100
AcDbPoint
 10
-718.32416218994103
 20
690.23992556978646
 30
0.0
  0
POINT
  5
69
100
AcDbEntity
  8
Defpoints
370
               0
390
0
 62
               0
100
AcDbPoint
 10
-804.10878816861214
 20
690.23992556978646
 30
0.0
  0
ENDBLK
  5
6A
100
AcDbEntity
  8
notes
390
0
100
AcDbBlockEnd
  0
BLOCK
  5
6B
100
AcDbEntity
  8
notes
390
0
100
AcDbBlockBegin
  2
*D4
 70
               1
 10
0.0
 20
0.0
 30
0.0
  3
*D4
  1

  0
LINE
  5
6C
100
AcDbEntity
  8
0
370
              -2
390
0
  6
Continuous
 62
               0
100
AcDbLine
 10
-752.04934439225826
 20
670.23992556978646
 30
0.0
 11
-804.10878816861214
 21
670.23992556978646
 31
0.0
  0
LINE
  5
6D
100
AcDbEntity
  8
0
370
              -2
390
0
  6
Continuous
 62
               0
100
AcDbLine
 10
-752.04934439225826
 20
305.23992556978646
 30
0.0
 11
-804.10878816861214
 21
305.23992556978646
 31
0.0
  0
LINE
  5
6E
100
AcDbEntity
  8
0
370
              -2
390
0
  6
Continuous
 62
               0
100
AcDbLine
 10
-804.10878816861214
 20
670.23992556978646
 30
0.0
 11
-804.10878816861214
 21
305.23992556978646
 31
0.0
  0
CIRCLE
  5
6F
102
{ACAD_REACTORS
330
70
102
}
100
AcDbEntity
  8
0
370
              -2
390
0
  6
Continuous
 62
               0
100
AcDbCircle
 10
-804.10878816861214
 20
670.23992556978646
 30
0.0
 40
1.9998779296875
  0
HATCH
  5
70
100
AcDbEntity
  8
0
370
              -2
390
0
  6
Continuous
 62
               0
100
AcDbHatch
 10
0.0
 20
0.0
 30
0.0
210
0.0
220
0.0
230
1.0
  2
SOLID
 70
               1
 71
               1
 91
        1
 92
        1
 93
        1
 72
               2
 10
-804.10878816861214
 20
670.23992556978646
 40
1.9998779296875
 50
0.0
 51
360.0
 73
               0
 97
        1
330
6F
 75
               0
 76
               1
 98
        1
 10
0.0
 20
0.0
  0
CIRCLE
  5
71
102
{ACAD_REACTORS
330
72
102
}
100
AcDbEntity
  8
0
370
              -2
390
0
  6
Continuous
 62
               0
100
AcDbCircle
 10
-804.10878816861214
 20
305.23992556978646
 30
0.0
 40
1.9998779296875
  0
HATCH
  5
72
100
AcDbEntity
  8
0
370
              -2
390
0
  6
Continuous
 62
               0
100
AcDbHatch
 10
0.0
 20
0.0
 30
0.0
210
0.0
220
0.0
230
1.0
  2
SOLID
 70
               1
 71
               1
 91
        1
 92
        1
 93
        1
 72
               2
 10
-804.10878816861214
 20
305.23992556978646
 40
1.9998779296875
 50
0.0
 51
360.0
 73
               0
 97
        1
330
71
 75
               0
 76
               1
 98
        1
 10
0.0
 20
0.0
  0
MTEXT
  5
73
100
AcDbEntity
  8
0
390
0
 62
               0
100
AcDbMText
 10
-837.9864053561123
 20
463.92742388761098
 30
0.0
 40
24.432617187500004
 41
0.0
 71
               1
 72
               1
  1
365
  7
ＭＳ ゴシック
 11
0.0
 21
1.0
 31
0.0
 73
               1
 44
0.7828267384257843
  0
POINT
  5
74
100
AcDbEntity
  8
Defpoints
370
               0
390
0
 62
               0
100
AcDbPoint
 10
-727.04934439225826
 20
305.23992556978646
 30
0.0
  0
POINT
  5
75
100
AcDbEntity
  8
Defpoints
370
               0
390
0
 62
               0
100
AcDbPoint
 10
-727.04934439225826
 20
670.23992556978646
 30
0.0
  0
POINT
  5
76
100
AcDbEntity
  8
Defpoints
370
               0
390
0
 62
               0
100
AcDbPoint
 10
-804.10878816861214
 20
670.23992556978646
 30
0.0
  0
ENDBLK
  5
77
100
AcDbEntity
  8
notes
390
0
100
AcDbBlockEnd
  0
BLOCK
  5
78
100
AcDbEntity
  8
notes
390
0
100
AcDbBlockBegin
  2
*D5
 70
               1
 10
0.0
 20
0.0
 30
0.0
  3
*D5
  1

  0
LINE
  5
79
100
AcDbEntity
  8
0
370
              -2
390
0
  6
Continuous
 62
               0
100
AcDbLine
 10
-752.05334239736248
 20
-176.7676456470108
 30
0.0
 11
-811.10878816861214
 21
-176.7676456470108
 31
0.0
  0
LINE
  5
7A
100
AcDbEntity
  8
0
370
              -2
390
0
  6
Continuous
 62
               0
100
AcDbLine
 10
-752.05334239736248
 20
-376.76764564700534
 30
0.0
 11
-811.10878816861214
 21
-376.76764564700534
 31
0.0
  0
LINE
  5
7B
100
AcDbEntity
  8
0
370
              -2
390
0
  6
Continuous
 62
               0
100
AcDbLine
 10
-811.10878816861214
 20
-176.7676456470108
 30
0.0
 11
-811.10878816861214
 21
-376.76764564700534
 31
0.0
  0
CIRCLE
  5
7C
102
{ACAD_REACTORS
330
7D
102
}
100
AcDbEntity
  8
0
370
              -2
390
0
  6
Continuous
 62
               0
100
AcDbCircle
 10
-811.10878816861214
 20
-176.7676456470108
 30
0.0
 40
1.9998779296875
  0
HATCH
  5
7D
100
AcDbEntity
  8
0
370
              -2
390
0
  6
Continuous
 62
               0
100
AcDbHatch
 10
0.0
 20
0.0
 30
0.0
210
0.0
220
0.0
230
1.0
  2
SOLID
 70
               1
 71
               1
 91
        1
 92
        1
 93
        1
 72
               2
 10
-811.10878816861214
 20
-176.7676456470108
 40
1.9998779296875
 50
0.0
 51
360.0
 73
               0
 97
        1
330
7C
 75
               0
 76
               1
 98
        1
 10
0.0
 20
0.0
  0
CIRCLE
  5
7E
102
{ACAD_REACTORS
330
7F
102
}
100
AcDbEntity
  8
0
370
              -2
390
0
  6
Continuous
 62
               0
100
AcDbCircle
 10
-811.10878816861214
 20
-376.76764564700534
 30
0.0
 40
1.9998779296875
  0
HATCH
  5
7F
100
AcDbEntity
  8
0
370
              -2
390
0
  6
Continuous
 62
               0
100
AcDbHatch
 10
0.0
 20
0.0
 30
0.0
210
0.0
220
0.0
230
1.0
  2
SOLID
 70
               1
 71
               1
 91
        1
 92
        1
 93
        1
 72
               2
 10
-811.10878816861214
 20
-376.76764564700534
 40
1.9998779296875
 50
0.0
 51
360.0
 73
               0
 97
        1
330
7E
 75
               0
 76
               1
 98
        1
 10
0.0
 20
0.0
  0
MTEXT
  5
80
100
AcDbEntity
  8
0
390
0
 62
               0
100
AcDbMText
 10
-844.9864053561123
 20
-300.58014732918355
 30
0.0
 40
24.432617187500004
 41
0.0
 71
               1
 72
               1
  1
200
  7
ＭＳ ゴシック
 11
0.0
 21
1.0
 31
0.0
 73
               1
 44
0.7828267384257843
  0
POINT
  5
81
100
AcDbEntity
  8
Defpoints
370
               0
390
0
 62
               0
100
AcDbPoint
 10
-727.05334239736248
 20
-376.76764564700534
 30
0.0
  0
POINT
  5
82
100
AcDbEntity
  8
Defpoints
370
               0
390
0
 62
               0
100
AcDbPoint
 10
-727.05334239736248
 20
-176.7676456470108
 30
0.0
  0
POINT
  5
83
100
AcDbEntity
  8
Defpoints
370
               0
390
0
 62
               0
100
AcDbPoint
 10
-811.10878816861214
 20
-176.7676456470108
 30
0.0
  0
ENDBLK
  5
84
100
AcDbEntity
  8
notes
390
0
100
AcDbBlockEnd
  0
BLOCK
  5
85
100
AcDbEntity
  8
notes
390
0
100
AcDbBlockBegin
  2
*D6
 70
               1
 10
0.0
 20
0.0
 30
0.0
  3
*D6
  1

  0
LINE
  5
86
100
AcDbEntity
  8
0
370
              -2
390
0
  6
Continuous
 62
               0
100
AcDbLine
 10
-727.04934439225826
 20
706.51360757181646
 30
0.0
 11
-727.04934439225826
 21
789.11587874154611
 31
0.0
  0
LINE
  5
87
100
AcDbEntity
  8
0
370
              -2
390
0
  6
Continuous
 62
               0
100
AcDbLine
 10
-127.05734040246625
 20
705.24387213553928
 30
0.0
 11
-127.05734040246625
 21
789.11587874154611
 31
0.0
  0
LINE
  5
88
100
AcDbEntity
  8
0
370
              -2
390
0
  6
Continuous
 62
               0
100
AcDbLine
 10
-727.04934439225826
 20
789.11587874154611
 30
0.0
 11
-127.05734040246625
 21
789.11587874154611
 31
0.0
  0
CIRCLE
  5
89
102
{ACAD_REACTORS
330
8A
102
}
100
AcDbEntity
  8
0
370
              -2
390
0
  6
Continuous
 62
               0
100
AcDbCircle
 10
-727.04934439225826
 20
789.11587874154611
 30
0.0
 40
1.9998779296875
  0
HATCH
  5
8A
100
AcDbEntity
  8
0
370
              -2
390
0
  6
Continuous
 62
               0
100
AcDbHatch
 10
0.0
 20
0.0
 30
0.0
210
0.0
220
0.0
230
1.0
  2
SOLID
 70
               1
 71
               1
 91
        1
 92
        1
 93
        1
 72
               2
 10
-727.04934439225826
 20
789.11587874154611
 40
1.9998779296875
 50
0.0
 51
360.0
 73
               0
 97
        1
330
89
 75
               0
 76
               1
 98
        1
 10
0.0
 20
0.0
  0
CIRCLE
  5
8B
102
{ACAD_REACTORS
330
8C
102
}
100
AcDbEntity
  8
0
370
              -2
390
0
  6
Continuous
 62
               0
100
AcDbCircle
 10
-127.05734040246625
 20
789.11587874154611
 30
0.0
 40
1.9998779296875
  0
HATCH
  5
8C
100
AcDbEntity
  8
0
370
              -2
390
0
  6
Continuous
 62
               0
100
AcDbHatch
 10
0.0
 20
0.0
 30
0.0
210
0.0
220
0.0
230
1.0
  2
SOLID
 70
               1
 71
               1
 91
        1
 92
        1
 93
        1
 72
               2
 10
-127.05734040246625
 20
789.11587874154611
 40
1.9998779296875
 50
0.0
 51
360.0
 73
               0
 97
        1
330
8B
 75
               0
 76
               1
 98
        1
 10
0.0
 20
0.0
  0
MTEXT
  5
8D
100
AcDbEntity
  8
0
390
0
 62
               0
100
AcDbMText
 10
-450.86584407953796
 20
822.99349592904628
 30
0.0
 40
24.432617187500004
 41
0.0
 71
               1
 72
               1
  1
600
  7
ＭＳ ゴシック
 73
               1
 44
0.7828267384257843
  0
POINT
  5
8E
100
AcDbEntity
  8
Defpoints
370
               0
390
0
 62
               0
100
AcDbPoint
 10
-127.05734040246625
 20
680.24387213553928
 30
0.0
  0
POINT
  5
8F
100
AcDbEntity
  8
Defpoints
370
               0
390
0
 62
               0
100
AcDbPoint
 10
-727.04934439225826
 20
681.51360757181646
 30
0.0
  0
POINT
  5
90
100
AcDbEntity
  8
Defpoints
370
               0
390
0
 62
               0
100
AcDbPoint
 10
-727.04934439225826
 20
789.11587874154611
 30
0.0
  0
ENDBLK
  5
91
100
AcDbEntity
  8
notes
390
0
100
AcDbBlockEnd
  0
BLOCK
  5
92
100
AcDbEntity
  8
notes
390
0
100
AcDbBlockBegin
  2
*D7
 70
               1
 10
0.0
 20
0.0
 30
0.0
  3
*D7
  1

  0
LINE
  5
93
100
AcDbEntity
  8
0
370
              -2
390
0
  6
Continuous
 62
               0
100
AcDbLine
 10
-111.37391518629101
 20
690.23992556978646
 30
0.0
 11
-19.108788168611682
 21
690.23992556978646
 31
0.0
  0
LINE
  5
94
100
AcDbEntity
  8
0
370
              -2
390
0
  6
Continuous
 62
               0
100
AcDbLine
 10
-136.25693469993075
 20
285.26662426690564
 30
0.0
 11
-19.108788168611682
 21
285.26662426690564
 31
0.0
  0
LINE
  5
95
100
AcDbEntity
  8
0
370
              -2
390
0
  6
Continuous
 62
               0
100
AcDbLine
 10
-19.108788168611682
 20
690.23992556978646
 30
0.0
 11
-19.108788168611682
 21
285.26662426690564
 31
0.0
  0
CIRCLE
  5
96
102
{ACAD_REACTORS
330
97
102
}
100
AcDbEntity
  8
0
370
              -2
390
0
  6
Continuous
 62
               0
100
AcDbCircle
 10
-19.108788168611682
 20
690.23992556978646
 30
0.0
 40
1.9998779296875
  0
HATCH
  5
97
100
AcDbEntity
  8
0
370
              -2
390
0
  6
Continuous
 62
               0
100
AcDbHatch
 10
0.0
 20
0.0
 30
0.0
210
0.0
220
0.0
230
1.0
  2
SOLID
 70
               1
 71
               1
 91
        1
 92
        1
 93
        1
 72
               2
 10
-19.108788168611682
 20
690.23992556978646
 40
1.9998779296875
 50
0.0
 51
360.0
 73
               0
 97
        1
330
96
 75
               0
 76
               1
 98
        1
 10
0.0
 20
0.0
  0
CIRCLE
  5
98
102
{ACAD_REACTORS
330
99
102
}
100
AcDbEntity
  8
0
370
              -2
390
0
  6
Continuous
 62
               0
100
AcDbCircle
 10
-19.108788168611682
 20
285.26662426690564
 30
0.0
 40
1.9998779296875
  0
HATCH
  5
99
100
AcDbEntity
  8
0
370
              -2
390
0
  6
Continuous
 62
               0
100
AcDbHatch
 10
0.0
 20
0.0
 30
0.0
210
0.0
220
0.0
230
1.0
  2
SOLID
 70
               1
 71
               1
 91
        1
 92
        1
 93
        1
 72
               2
 10
-19.108788168611682
 20
285.26662426690564
 40
1.9998779296875
 50
0.0
 51
360.0
 73
               0
 97
        1
330
98
 75
               0
 76
               1
 98
        1
 10
0.0
 20
0.0
  0
MTEXT
  5
9A
100
AcDbEntity
  8
0
390
0
 62
               0
100
AcDbMText
 10
-52.986405356111845
 20
463.94077323617057
 30
0.0
 40
24.432617187500004
 41
0.0
 71
               1
 72
               1
  1
405
  7
ＭＳ ゴシック
 11
0.0
 21
1.0
 31
0.0
 73
               1
 44
0.7828267384257843
  0
POINT
  5
9B
100
AcDbEntity
  8
Defpoints
370
               0
390
0
 62
               0
100
AcDbPoint
 10
-161.25693469993075
 20
285.26662426690564
 30
0.0
  0
POINT
  5
9C
100
AcDbEntity
  8
Defpoints
370
               0
390
0
 62
               0
100
AcDbPoint
 10
-136.37391518629101
 20
690.23992556978646
 30
0.0
  0
POINT
  5
9D
100
AcDbEntity
  8
Defpoints
370
               0
390
0
 62
               0
100
AcDbPoint
 10
-19.108788168611682
 20
690.23992556978646
 30
0.0
  0
ENDBLK
  5
9E
100
AcDbEntity
  8
notes
390
0
100
AcDbBlockEnd
  0
BLOCK
  5
9F
100
AcDbEntity
  8
notes
390
0
100
AcDbBlockBegin
  2
*D8
 70
               1
 10
0.0
 20
0.0
 30
0.0
  3
*D8
  1

  0
LINE
  5
A0
100
AcDbEntity
  8
0
370
              -2
390
0
  6
Continuous
 62
               0
100
AcDbLine
 10
-707.04934439225826
 20
263.33694904727599
 30
0.0
 11
-707.04934439225826
 21
171.87648106146025
 31
0.0
  0
LINE
  5
A1
100
AcDbEntity
  8
0
370
              -2
390
0
  6
Continuous
 62
               0
100
AcDbLine
 10
-147.05734040246625
 20
263.33694904727599
 30
0.0
 11
-147.05734040246625
 21
171.87648106146025
 31
0.0
  0
LINE
  5
A2
100
AcDbEntity
  8
0
370
              -2
390
0
  6
Continuous
 62
               0
100
AcDbLine
 10
-707.04934439225826
 20
171.87648106146025
 30
0.0
 11
-147.05734040246625
 21
171.87648106146025
 31
0.0
  0
CIRCLE
  5
A3
102
{ACAD_REACTORS
330
A4
102
}
100
AcDbEntity
  8
0
370
              -2
390
0
  6
Continuous
 62
               0
100
AcDbCircle
 10
-707.04934439225826
 20
171.87648106146025
 30
0.0
 40
1.9998779296875
  0
HATCH
  5
A4
100
AcDbEntity
  8
0
370
              -2
390
0
  6
Continuous
 62
               0
100
AcDbHatch
 10
0.0
 20
0.0
 30
0.0
210
0.0
220
0.0
230
1.0
  2
SOLID
 70
               1
 71
               1
 91
        1
 92
        1
 93
        1
 72
               2
 10
-707.04934439225826
 20
171.87648106146025
 40
1.9998779296875
 50
0.0
 51
360.0
 73
               0
 97
        1
330
A3
 75
               0
 76
               1
 98
        1
 10
0.0
 20
0.0
  0
CIRCLE
  5
A5
102
{ACAD_REACTORS
330
A6
102
}
100
AcDbEntity
  8
0
370
              -2
390
0
  6
Continuous
 62
               0
100
AcDbCircle
 10
-147.05734040246625
 20
171.87648106146025
 30
0.0
 40
1.9998779296875
  0
HATCH
  5
A6
100
AcDbEntity
  8
0
370
              -2
390
0
  6
Continuous
 62
               0
100
AcDbHatch
 10
0.0
 20
0.0
 30
0.0
210
0.0
220
0.0
230
1.0
  2
SOLID
 70
               1
 71
               1
 91
        1
 92
        1
 93
        1
 72
               2
 10
-147.05734040246625
 20
171.87648106146025
 40
1.9998779296875
 50
0.0
 51
360.0
 73
               0
 97
        1
330
A5
 75
               0
 76
               1
 98
        1
 10
0.0
 20
0.0
  0
MTEXT
  5
A7
100
AcDbEntity
  8
0
390
0
 62
               0
100
AcDbMText
 10
-450.86584407953796
 20
205.75409824896042
 30
0.0
 40
24.432617187500004
 41
0.0
 71
               1
 72
               1
  1
560
  7
ＭＳ ゴシック
 73
               1
 44
0.7828267384257843
  0
POINT
  5
A8
100
AcDbEntity
  8
Defpoints
370
               0
390
0
 62
               0
100
AcDbPoint
 10
-147.05734040246625
 20
288.33694904727599
 30
0.0
  0
POINT
  5
A9
100
AcDbEntity
  8
Defpoints
370
               0
390
0
 62
               0
100
AcDbPoint
 10
-707.04934439225826
 20
288.33694904727599
 30
0.0
  0
POINT
  5
AA
100
AcDbEntity
  8
Defpoints
370
               0
390
0
 62
               0
100
AcDbPoint
 10
-707.04934439225826
 20
171.87648106146025
 30
0.0
  0
ENDBLK
  5
AB
100
AcDbEntity
  8
notes
390
0
100
AcDbBlockEnd
  0
BLOCK
  5
AC
100
AcDbEntity
  8
notes
390
0
100
AcDbBlockBegin
  2
*D9
 70
               1
 10
0.0
 20
0.0
 30
0.0
  3
*D9
  1

  0
LINE
  5
AD
100
AcDbEntity
  8
0
370
              -2
390
0
  6
Continuous
 62
               0
100
AcDbLine
 10
-457.05220660171062
 20
521.67790215566629
 30
0.0
 11
-457.05220660171062
 21
461.42885532742594
 31
0.0
  0
LINE
  5
AE
100
AcDbEntity
  8
0
370
              -2
390
0
  6
Continuous
 62
               0
100
AcDbLine
 10
-397.05220660171017
 20
521.67790215566629
 30
0.0
 11
-397.05220660171017
 21
461.42885532742594
 31
0.0
  0
LINE
  5
AF
100
AcDbEntity
  8
0
370
              -2
390
0
  6
Continuous
 62
               0
100
AcDbLine
 10
-397.05220660171017
 20
461.42885532742594
 30
0.0
 11
-329.60878816861168
 21
461.42885532742594
 31
0.0
  0
LINE
  5
B0
100
AcDbEntity
  8
0
370
              -2
390
0
  6
Continuous
 62
               0
100
AcDbLine
 10
-457.05220660171062
 20
461.42885532742594
 30
0.0
 11
-397.05220660171017
 21
461.42885532742594
 31
0.0
  0
CIRCLE
  5
B1
102
{ACAD_REACTORS
330
B2
102
}
100
AcDbEntity
  8
0
370
              -2
390
0
  6
Continuous
 62
               0
100
AcDbCircle
 10
-457.05220660171062
 20
461.42885532742594
 30
0.0
 40
1.9998779296875
  0
HATCH
  5
B2
100
AcDbEntity
  8
0
370
              -2
390
0
  6
Continuous
 62
               0
100
AcDbHatch
 10
0.0
 20
0.0
 30
0.0
210
0.0
220
0.0
230
1.0
  2
SOLID
 70
               1
 71
               1
 91
        1
 92
        1
 93
        1
 72
               2
 10
-457.05220660171062
 20
461.42885532742594
 40
1.9998779296875
 50
0.0
 51
360.0
 73
               0
 97
        1
330
B1
 75
               0
 76
               1
 98
        1
 10
0.0
 20
0.0
  0
CIRCLE
  5
B3
102
{ACAD_REACTORS
330
B4
102
}
100
AcDbEntity
  8
0
370
              -2
390
0
  6
Continuous
 62
               0
100
AcDbCircle
 10
-397.05220660171017
 20
461.42885532742594
 30
0.0
 40
1.9998779296875
  0
HATCH
  5
B4
100
AcDbEntity
  8
0
370
              -2
390
0
  6
Continuous
 62
               0
100
AcDbHatch
 10
0.0
 20
0.0
 30
0.0
210
0.0
220
0.0
230
1.0
  2
SOLID
 70
               1
 71
               1
 91
        1
 92
        1
 93
        1
 72
               2
 10
-397.05220660171017
 20
461.42885532742594
 40
1.9998779296875
 50
0.0
 51
360.0
 73
               0
 97
        1
330
B3
 75
               0
 76
               1
 98
        1
 10
0.0
 20
0.0
  0
MTEXT
  5
B5
100
AcDbEntity
  8
0
390
0
 62
               0
100
AcDbMText
 10
-393.10878816861168
 20
495.3064725149261
 30
0.0
 40
24.432617187500004
 41
0.0
 71
               1
 72
               1
  1
φ60
  7
ＭＳ ゴシック
 73
               1
 44
0.7828267384257843
  0
POINT
  5
B6
100
AcDbEntity
  8
Defpoints
370
               0
390
0
 62
               0
100
AcDbPoint
 10
-397.05220660171017
 20
546.67790215566629
 30
0.0
  0
POINT
  5
B7
100
AcDbEntity
  8
Defpoints
370
               0
390
0
 62
               0
100
AcDbPoint
 10
-457.05220660171062
 20
546.67790215566629
 30
0.0
  0
POINT
  5
B8
100
AcDbEntity
  8
Defpoints
370
               0
390
0
 62
               0
100
AcDbPoint
 10
-457.05220660171062
 20
461.42885532742548
 30
0.0
  0
ENDBLK
  5
B9
100
AcDbEntity
  8
notes
390
0
100
AcDbBlockEnd
  0
BLOCK
  5
BA
100
AcDbEntity
  8
notes
390
0
100
AcDbBlockBegin
  2
*D10
 70
               1
 10
0.0
 20
0.0
 30
0.0
  3
*D10
  1

  0
LINE
  5
BB
100
AcDbEntity
  8
0
370
              -2
390
0
  6
Continuous
 62
               0
100
AcDbLine
 10
497.59792861029382
 20
-354.81658871444961
 30
0.0
 11
521.0
 21
-354.81658871444961
 31
0.0
  0
LINE
  5
BC
100
AcDbEntity
  8
0
370
              -2
390
0
  6
Continuous
 62
               0
100
AcDbLine
 10
497.59792861029382
 20
-176.7676456470108
 30
0.0
 11
521.0
 21
-176.7676456470108
 31
0.0
  0
LINE
  5
BD
100
AcDbEntity
  8
0
370
              -2
390
0
  6
Continuous
 62
               0
100
AcDbLine
 10
521.0
 20
-354.81658871444961
 30
0.0
 11
521.0
 21
-176.7676456470108
 31
0.0
  0
CIRCLE
  5
BE
102
{ACAD_REACTORS
330
BF
102
}
100
AcDbEntity
  8
0
370
              -2
390
0
  6
Continuous
 62
               0
100
AcDbCircle
 10
521.0
 20
-354.81658871444961
 30
0.0
 40
1.9998779296875
  0
HATCH
  5
BF
100
AcDbEntity
  8
0
370
              -2
390
0
  6
Continuous
 62
               0
100
AcDbHatch
 10
0.0
 20
0.0
 30
0.0
210
0.0
220
0.0
230
1.0
  2
SOLID
 70
               1
 71
               1
 91
        1
 92
        1
 93
        1
 72
               2
 10
521.0
 20
-354.81658871444961
 40
1.9998779296875
 50
0.0
 51
360.0
 73
               0
 97
        1
330
BE
 75
               0
 76
               1
 98
        1
 10
0.0
 20
0.0
  0
CIRCLE
  5
C0
102
{ACAD_REACTORS
330
C1
102
}
100
AcDbEntity
  8
0
370
              -2
390
0
  6
Continuous
 62
               0
100
AcDbCircle
 10
521.0
 20
-176.7676456470108
 30
0.0
 40
1.9998779296875
  0
HATCH
  5
C1
100
AcDbEntity
  8
0
370
              -2
390
0
  6
Continuous
 62
               0
100
AcDbHatch
 10
0.0
 20
0.0
 30
0.0
210
0.0
220
0.0
230
1.0
  2
SOLID
 70
               1
 71
               1
 91
        1
 92
        1
 93
        1
 72
               2
 10
521.0
 20
-176.7676456470108
 40
1.9998779296875
 50
0.0
 51
360.0
 73
               0
 97
        1
330
C0
 75
               0
 76
               1
 98
        1
 10
0.0
 20
0.0
  0
MTEXT
  5
C2
100
AcDbEntity
  8
0
390
0
 62
               0
100
AcDbMText
 10
487.12238281249984
 20
-335.5702272276867
 30
0.0
 40
24.432617187500004
 41
0.0
 71
               1
 72
               1
  1
178(深さ)
  7
ＭＳ ゴシック
 11
0.0
 21
1.0
 31
0.0
 73
               1
 44
0.7828267384257843
  0
POINT
  5
C3
100
AcDbEntity
  8
Defpoints
370
               0
390
0
 62
               0
100
AcDbPoint
 10
522.59792861029382
 20
-176.7676456470108
 30
0.0
  0
POINT
  5
C4
100
AcDbEntity
  8
Defpoints
370
               0
390
0
 62
               0
100
AcDbPoint
 10
522.59792861029382
 20
-354.81658871444961
 30
0.0
  0
POINT
  5
C5
100
AcDbEntity
  8
Defpoints
370
               0
390
0
 62
               0
100
AcDbPoint
 10
521.0
 20
-354.81658871444961
 30
0.0
  0
ENDBLK
  5
C6
100
AcDbEntity
  8
notes
390
0
100
AcDbBlockEnd
  0
BLOCK
  5
C7
100
AcDbEntity
  8
notes
390
0
100
AcDbBlockBegin
  2
*D11
 70
               1
 10
0.0
 20
0.0
 30
0.0
  3
*D11
  1

  0
LINE
  5
C8
100
AcDbEntity
  8
0
370
              -2
390
0
  6
Continuous
 62
               0
100
AcDbLine
 10
682.16618701047901
 20
-401.78365397953348
 30
0.0
 11
682.16618701047901
 21
-460.1327272276867
 31
0.0
  0
LINE
  5
C9
100
AcDbEntity
  8
0
370
              -2
390
0
  6
Continuous
 62
               0
100
AcDbLine
 10
562.16618701047901
 20
-395.68365397953312
 30
0.0
 11
562.16618701047901
 21
-460.1327272276867
 31
0.0
  0
LINE
  5
CA
100
AcDbEntity
  8
0
370
              -2
390
0
  6
Continuous
 62
               0
100
AcDbLine
 10
682.16618701047901
 20
-460.1327272276867
 30
0.0
 11
562.16618701047901
 21
-460.1327272276867
 31
0.0
  0
CIRCLE
  5
CB
102
{ACAD_REACTORS
330
CC
102
}
100
AcDbEntity
  8
0
370
              -2
390
0
  6
Continuous
 62
               0
100
AcDbCircle
 10
682.16618701047901
 20
-460.1327272276867
 30
0.0
 40
1.9998779296875
  0
HATCH
  5
CC
100
AcDbEntity
  8
0
370
              -2
390
0
  6
Continuous
 62
               0
100
AcDbHatch
 10
0.0
 20
0.0
 30
0.0
210
0.0
220
0.0
230
1.0
  2
SOLID
 70
               1
 71
               1
 91
        1
 92
        1
 93
        1
 72
               2
 10
682.16618701047901
 20
-460.1327272276867
 40
1.9998779296875
 50
0.0
 51
360.0
 73
               0
 97
        1
330
CB
 75
               0
 76
               1
 98
        1
 10
0.0
 20
0.0
  0
CIRCLE
  5
CD
102
{ACAD_REACTORS
330
CE
102
}
100
AcDbEntity
  8
0
370
              -2
390
0
  6
Continuous
 62
               0
100
AcDbCircle
 10
562.16618701047901
 20
-460.1327272276867
 30
0.0
 40
1.9998779296875
  0
HATCH
  5
CE
100
AcDbEntity
  8
0
370
              -2
390
0
  6
Continuous
 62
               0
100
AcDbHatch
 10
0.0
 20
0.0
 30
0.0
210
0.0
220
0.0
230
1.0
  2
SOLID
 70
               1
 71
               1
 91
        1
 92
        1
 93
        1
 72
               2
 10
562.16618701047901
 20
-460.1327272276867
 40
1.9998779296875
 50
0.0
 51
360.0
 73
               0
 97
        1
330
CD
 75
               0
 76
               1
 98
        1
 10
0.0
 20
0.0
  0
MTEXT
  5
CF
100
AcDbEntity
  8
0
390
0
 62
               0
100
AcDbMText
 10
599.18749831782452
 20
-426.25511004018699
 30
0.0
 40
24.432617187500004
 41
0.0
 71
               1
 72
               1
  1
120
  7
ＭＳ ゴシック
 73
               1
 44
0.7828267384257843
  0
POINT
  5
D0
100
AcDbEntity
  8
Defpoints
370
               0
390
0
 62
               0
100
AcDbPoint
 10
562.16618701047901
 20
-370.68365397953312
 30
0.0
  0
POINT
  5
D1
100
AcDbEntity
  8
Defpoints
370
               0
390
0
 62
               0
100
AcDbPoint
 10
682.16618701047901
 20
-376.78365397953348
 30
0.0
  0
POINT
  5
D2
100
AcDbEntity
  8
Defpoints
370
               0
390
0
 62
               0
100
AcDbPoint
 10
682.16618701047901
 20
-460.1327272276867
 30
0.0
  0
ENDBLK
  5
D3
100
AcDbEntity
  8
notes
390
0
100
AcDbBlockEnd
  0
BLOCK
  5
D4
100
AcDbEntity
  8
notes
390
0
100
AcDbBlockBegin
  2
グループ-1
 70
               0
 10
0.0
 20
0.0
 30
0.0
  3
グループ-1
  1

  0
LINE
  5
D5
100
AcDbEntity
  8
0
370
               5
390
0
  6
STYLE_12
 62
               7
100
AcDbLine
 10
-3065.4677004244118
 20
-4134.2007496576853
 30
0.0
 11
-3074.6096286996676
 21
-4134.8844036372184
 31
0.0
  0
LWPOLYLINE
  5
D6
100
AcDbEntity
  8
0
370
               5
390
0
  6
STYLE_12
 62
               7
100
AcDbPolyline
 90
       27
 70
             128
 10
-3065.4677004244118
 20
-4134.2007496576853
 10
-3065.4156618111415
 20
-4134.1968880013519
 42
-0.0021417015925037
 10
-3064.9775881989676
 20
-4134.1662658340165
 10
-3064.9452353020033
 20
-4134.1641435224219
 42
-0.001501721792746
 10
-3064.5716660981229
 20
-4134.1407644293477
 42
-0.0014632715295931
 10
-3064.1979647404146
 20
-4134.1196009882879
 10
-3064.1958156463211
 20
-4134.1194855894282
 42
-0.0014300312873153
 10
-3063.8176991964997
 20
-4134.1002664450234
 10
-3063.8157122420157
 20
-4134.100171147511
 42
-0.001401489250391
 10
-3063.4335185440054
 20
-4134.0829141298227
 10
-3063.4316940943704
 20
-4134.0828368749617
 42
-0.0013773195446332
 10
-3063.0457610428898
 20
-4134.0675597386607
 10
-3063.044099413331
 20
-4134.0674985470268
 42
-0.0013572476764334
 10
-3062.6547649723439
 20
-4134.0542189842245
 10
-3062.6532663776266
 20
-4134.0541719418943
 42
-0.0013410436637414
 10
-3062.2608684876768
 20
-4134.0429075902066
 10
-3062.2595332627311
 20
-4134.0428728445058
 42
-0.0013285169109467
 10
-3061.8644101822265
 20
-4134.0336413059567
 10
-3061.8632382150859
 20
-4134.0336170399323
 42
-0.0013195150303731
 10
-3061.465727720501
 20
-4134.026435870549
 10
-3061.4647194961958
 20
-4134.0264203180959
 42
-0.0013139163218403
 10
-3061.0651601648829
 20
-4134.021307064645
 10
-3061.0523885063039
 20
-4134.0211771889744
 42
-0.00131165493435
 10
-3060.6749706558599
 20
-4134.0183293685632
 10
-3060.662636839902
 20
-4134.0182686599755
 42
-0.0011483367028922
 10
-3060.3098770234978
 20
-4134.0173425175717
 10
-3060.2846572617023
 20
-4134.0173383721349
  0
ENDBLK
  5
D7
100
AcDbEntity
  8
notes
390
0
100
AcDbBlockEnd
  0
BLOCK
  5
D8
100
AcDbEntity
  8
notes
390
0
100
AcDbBlockBegin
  2
グループ-2
 70
               0
 10
0.0
 20
0.0
 30
0.0
  3
グループ-2
  1

  0
LINE
  5
D9
100
AcDbEntity
  8
0
370
               5
390
0
  6
STYLE_12
 62
               7
100
AcDbLine
 10
-3135.3246301668833
 20
-4134.2042968112091
 30
0.0
 11
-3126.1827018916274
 21
-4134.8879507907423
 31
0.0
  0
LWPOLYLINE
  5
DA
100
AcDbEntity
  8
0
370
               5
390
0
  6
STYLE_12
 62
               7
100
AcDbPolyline
 90
       27
 70
             128
 10
-3135.3246301668833
 20
-4134.2042968112091
 10
-3135.3766687801717
 20
-4134.2004351548749
 42
0.002141701593304
 10
-3135.8147423923292
 20
-4134.1698129875404
 10
-3135.847095289178
 20
-4134.1676906759531
 42
0.0015017217914061
 10
-3136.220664493173
 20
-4134.1443115828715
 42
0.0014632715290667
 10
-3136.5943658508008
 20
-4134.1231481418154
 10
-3136.5965149449739
 20
-4134.1230327429521
 42
0.0014300312875239
 10
-3136.9746313949845
 20
-4134.1038135985382
 10
-3136.9766183492793
 20
-4134.1037183010349
 42
0.001401489251297
 10
-3137.3588120472759
 20
-4134.0864612833475
 10
-3137.3606364969255
 20
-4134.0863840284856
 42
0.0013773195436407
 10
-3137.7465695483324
 20
-4134.0711068921873
 10
-3137.7482311779659
 20
-4134.0710457005507
 42
0.0013572476772514
 10
-3138.1375656190739
 20
-4134.0577661377447
 10
-3138.1390642136703
 20
-4134.0577190954182
 42
0.0013410436642381
 10
-3138.5314621033954
 20
-4134.0464547437368
 10
-3138.5327973285648
 20
-4134.0464199980297
 42
0.0013285169120958
 10
-3138.9279204093045
 20
-4134.0371884594761
 10
-3138.9290923762092
 20
-4134.0371641934562
 42
0.0013195150296842
 10
-3139.3266028707922
 20
-4134.0299830240729
 10
-3139.3276110951001
 20
-4134.0299674716198
 42
0.0013139163226536
 10
-3139.7271704265113
 20
-4134.024854218168
 10
-3139.7399420846191
 20
-4134.0247243425019
 42
0.001311654933165
 10
-3140.1173599354361
 20
-4134.021876522087
 10
-3140.1296937513548
 20
-4134.0218158134994
 42
0.0011483367028499
 10
-3140.482453567799
 20
-4134.0208896710956
 10
-3140.5076733295928
 20
-4134.0208855256587
  0
ENDBLK
  5
DB
100
AcDbEntity
  8
notes
390
0
100
AcDbBlockEnd
  0
BLOCK
  5
DC
100
AcDbEntity
  8
notes
390
0
100
AcDbBlockBegin
  2
グループ-3
 70
               0
 10
0.0
 20
0.0
 30
0.0
  3
グループ-3
  1

  0
LINE
  5
DD
100
AcDbEntity
  8
0
370
               5
390
0
  6
STYLE_12
 62
               7
100
AcDbLine
 10
-3074.6096286996694
 20
-4128.9351060095514
 30
0.0
 11
-3074.6096286996694
 21
-4134.8844036372184
 31
0.0
  0
LINE
  5
DE
100
AcDbEntity
  8
0
370
               5
390
0
  6
STYLE_12
 62
               7
100
AcDbLine
 10
-3070.9818973856623
 20
-4125.9138895739661
 30
0.0
 11
-3074.6096286996676
 21
-4128.9351060095514
 31
0.0
  0
LINE
  5
DF
100
AcDbEntity
  8
0
370
               5
390
0
  6
STYLE_12
 62
               7
100
AcDbLine
 10
-3074.6096286996676
 20
-4128.9351060095514
 30
0.0
 11
-3074.6096286996676
 21
-4134.8844036372184
 31
0.0
  0
LWPOLYLINE
  5
E0
100
AcDbEntity
  8
0
370
               5
390
0
  6
STYLE_12
 62
               7
100
AcDbPolyline
 90
       31
 70
             128
 10
-3070.9818973856623
 20
-4125.9138895739661
 42
-0.0012699680453607
 10
-3070.8654581176916
 20
-4125.8173405034022
 10
-3070.603468463944
 20
-4125.6012246085638
 42
-0.0126801643762168
 10
-3069.9498204745896
 20
-4125.0893188907039
 10
-3069.6766354937154
 20
-4124.8863348200002
 42
-0.0101156611025727
 10
-3068.6977312318336
 20
-4124.1892678552995
 10
-3068.6965737893042
 20
-4124.1884784459771
 42
-0.0100912885157051
 10
-3067.692651015886
 20
-4123.5330606664484
 10
-3067.6916864373038
 20
-4123.5324583416941
 42
-0.0100699650994632
 10
-3066.6641113504215
 20
-4122.9192064132458
 10
-3066.6633427387028
 20
-4122.9187684553126
 42
-0.0100518833569108
 10
-3065.6134810000462
 20
-4122.3481981403202
 10
-3065.6129119265197
 20
-4122.3479035257824
 42
-0.0100375227463717
 10
-3064.5421284277613
 20
-4121.82052894157
 42
-0.010030593974033
 10
-3063.4514225916578
 20
-4121.3366922405548
 42
-0.0100226895361381
 10
-3062.3427301510469
 20
-4120.8971808651904
 42
-0.0100192190289903
 10
-3061.2174201858084
 20
-4120.5024886792489
 42
-0.0100202374049472
 10
-3060.076862628483
 20
-4120.1531099729482
 42
-0.0100256593301506
 10
-3058.9224242233672
 20
-4119.8495381179691
 42
-0.0100416779411055
 10
-3057.7562230606113
 20
-4119.5924167831163
 10
-3057.7554732036438
 20
-4119.592267180049
 42
-0.0100572473743957
 10
-3056.5783770815392
 20
-4119.381949322832
 10
-3056.5773774321656
 20
-4119.3817913874509
 42
-0.010076231428069
 10
-3055.3907651738782
 20
-4119.2187523359553
 10
-3055.3895061947455
 20
-4119.2186051355193
 42
-0.0100985712003373
 10
-3054.1947613416633
 20
-4119.103320163802
 10
-3054.1195590740044
 20
-4119.097593829606
 42
-0.0101224764363912
 10
-3053.0655463131866
 20
-4119.0387665425214
 10
-3052.9908741517265
 20
-4119.0361137753907
 42
-0.0076086004722303
 10
-3052.0847347539552
 20
-4119.017722351492
 42
-0.0012692147899768
 10
-3051.9334684979935
 20
-4119.0173383721349
 42
-0.0012692147899768
  0
INSERT
  5
E1
100
AcDbEntity
  8
0
390
0
 62
               7
100
AcDbBlockReference
  2
グループ-1
 10
0.0
 20
0.0
 30
0.0
  0
LINE
  5
E2
100
AcDbEntity
  8
0
370
               5
390
0
  6
STYLE_12
 62
               7
100
AcDbLine
 10
-3126.1827018916274
 20
-4128.9386531630753
 30
0.0
 11
-3074.6096286996694
 21
-4128.9386531630753
 31
0.0
  0
LINE
  5
E3
100
AcDbEntity
  8
0
370
               5
390
0
  6
STYLE_12
 62
               7
100
AcDbLine
 10
-3129.8104332056346
 20
-4125.91743672749
 30
0.0
 11
-3126.1827018916274
 21
-4128.9386531630753
 31
0.0
  0
LINE
  5
E4
100
AcDbEntity
  8
0
370
               5
390
0
  6
STYLE_12
 62
               7
100
AcDbLine
 10
-3126.1827018916274
 20
-4134.8879507907423
 30
0.0
 11
-3074.6096286996694
 21
-4134.8879507907423
 31
0.0
  0
LINE
  5
E5
100
AcDbEntity
  8
0
370
               5
390
0
  6
STYLE_12
 62
               7
100
AcDbLine
 10
-3074.6096286996694
 20
-4128.9386531630753
 30
0.0
 11
-3074.6096286996694
 21
-4134.8879507907423
 31
0.0
  0
LINE
  5
E6
100
AcDbEntity
  8
0
370
               5
390
0
  6
STYLE_12
 62
               7
100
AcDbLine
 10
-3126.1827018916274
 20
-4128.9386531630753
 30
0.0
 11
-3126.1827018916274
 21
-4134.8879507907423
 31
0.0
  0
LWPOLYLINE
  5
E7
100
AcDbEntity
  8
0
370
               5
390
0
  6
STYLE_12
 62
               7
100
AcDbPolyline
 90
       31
 70
             128
 10
-3129.8104332056346
 20
-4125.91743672749
 42
0.0012699680447214
 10
-3129.9268724734702
 20
-4125.820887657037
 10
-3130.1888621273529
 20
-4125.6047717620877
 42
0.0126801643761357
 10
-3130.8425101167245
 20
-4125.0928660442141
 10
-3131.115695097601
 20
-4124.8898819735086
 42
0.0101156611028952
 10
-3132.0945993594623
 20
-4124.1928150088233
 10
-3132.0957568019562
 20
-4124.1920255995246
 42
0.0100912885145398
 10
-3133.0996795754099
 20
-4123.5366078199722
 10
-3133.1006441539857
 20
-4123.5360054952216
 42
0.0100699650999899
 10
-3134.1282192408744
 20
-4122.9227535667696
 10
-3134.128987852605
 20
-4122.9223156088301
 42
0.0100518833567631
 10
-3135.1788495912506
 20
-4122.351745293844
 10
-3135.1794186647676
 20
-4122.3514506793108
 42
0.0100375227462555
 10
-3136.2502021635355
 20
-4121.8240760950939
 42
0.0100237955577468
 10
-3137.3409079996381
 20
-4121.3402393940787
 42
0.0100198446235227
 10
-3138.449600440249
 20
-4120.9007280187143
 42
0.0100201969655006
 10
-3139.5749104054885
 20
-4120.5060358327728
 42
0.0100251283174487
 10
-3140.7154679628129
 20
-4120.1566571264721
 42
0.010034486062616
 10
-3141.8699063679287
 20
-4119.853085271493
 42
0.0100416779411746
 10
-3143.0361075307178
 20
-4119.5959639366338
 10
-3143.0368573876531
 20
-4119.5958143335729
 42
0.0100572473742846
 10
-3144.2139535097162
 20
-4119.3854964763623
 10
-3144.2149531591313
 20
-4119.3853385409748
 42
0.0100762314276605
 10
-3145.4015654174441
 20
-4119.2222994894755
 10
-3145.4028243965513
 20
-4119.2221522890432
 42
0.0100985712009292
 10
-3146.5975692496481
 20
-4119.1068673173249
 10
-3146.6727715172915
 20
-4119.101140983129
 42
0.0101224764354873
 10
-3147.7267842781093
 20
-4119.0423136960453
 10
-3147.8014564395785
 20
-4119.0396609289137
 42
0.0076086004719803
 10
-3148.7075958373398
 20
-4119.0212695050159
 42
0.0012691707765561
 10
-3148.8588620933015
 20
-4119.0208855256587
 42
0.0012691707765561
  0
INSERT
  5
E8
100
AcDbEntity
  8
0
390
0
 62
               7
100
AcDbBlockReference
  2
グループ-2
 10
0.0
 20
0.0
 30
0.0
  0
LINE
  5
E9
100
AcDbEntity
  8
0
370
               5
390
0
  6
STYLE_12
 62
               7
100
AcDbLine
 10
-3074.6096286996676
 20
-4128.9386531630753
 30
0.0
 11
-3074.6096286996676
 21
-4134.8879507907423
 31
0.0
  0
ENDBLK
  5
EA
100
AcDbEntity
  8
notes
390
0
100
AcDbBlockEnd
  0
BLOCK
  5
EB
100
AcDbEntity
  8
notes
390
0
100
AcDbBlockBegin
  2
グループ-4
 70
               0
 10
0.0
 20
0.0
 30
0.0
  3
グループ-4
  1

  0
LINE
  5
EC
100
AcDbEntity
  8
0
370
              18
390
0
  6
Continuous
 62
               7
100
AcDbLine
 10
-3136.6515277114486
 20
-4149.2080386890657
 30
0.0
 11
-3136.6515277114486
 21
-4147.1313323280665
 31
0.0
  0
LINE
  5
ED
100
AcDbEntity
  8
0
370
              18
390
0
  6
Continuous
 62
               7
100
AcDbLine
 10
-3136.6515277114486
 20
-4149.2080386890657
 30
0.0
 11
-3099.7719090269384
 21
-4149.2080386890657
 31
0.0
  0
LINE
  5
EE
100
AcDbEntity
  8
0
370
              18
390
0
  6
Continuous
 62
               7
100
AcDbLine
 10
-3140.29867868375
 20
-4147.1313323280665
 30
0.0
 11
-3140.29867868375
 21
-4141.4978788786393
 31
0.0
  0
LINE
  5
EF
100
AcDbEntity
  8
0
370
              18
390
0
  6
Continuous
 62
               7
100
AcDbLine
 10
-3140.29867868375
 20
-4147.1313323280665
 30
0.0
 11
-3099.7719090269384
 21
-4147.1313323280665
 31
0.0
  0
LINE
  5
F0
100
AcDbEntity
  8
0
370
              18
390
0
  6
Continuous
 62
               7
100
AcDbLine
 10
-3140.29867868375
 20
-4141.4978788786393
 30
0.0
 11
-3099.7719090269384
 21
-4141.4978788786393
 31
0.0
  0
LINE
  5
F1
100
AcDbEntity
  8
0
370
              18
390
0
  6
Continuous
 62
               7
100
AcDbLine
 10
-3099.7770749631591
 20
-4133.4130186780621
 30
0.0
 11
-3123.6230365611009
 21
-4133.4130186780621
 31
0.0
  0
LINE
  5
F2
100
AcDbEntity
  8
0
370
              18
390
0
  6
Continuous
 62
               7
100
AcDbLine
 10
-3127.5310673125828
 20
-4121.1620009290336
 30
0.0
 11
-3123.6230365611009
 21
-4133.4130186780621
 31
0.0
  0
LWPOLYLINE
  5
F3
100
AcDbEntity
  8
0
370
              18
390
0
  6
Continuous
 62
               7
100
AcDbPolyline
 90
        4
 70
             128
 10
-3099.7719090269384
 20
-4121.1620009290336
 10
-3138.6455790929062
 20
-4121.1620009290336
 10
-3140.4226611530648
 20
-4119.0827115999236
 10
-3099.7770749631591
 20
-4119.0827115999236
  0
LINE
  5
F4
100
AcDbEntity
  8
0
370
              18
390
0
  6
Continuous
 62
               7
100
AcDbLine
 10
-3123.7237723174176
 20
-4161.7302680897174
 30
0.0
 11
-3099.7770749631591
 21
-4161.7302680897174
 31
0.0
  0
LINE
  5
F5
100
AcDbEntity
  8
0
370
              18
390
0
  6
Continuous
 62
               7
100
AcDbLine
 10
-3123.7237723174176
 20
-4175.8651231312406
 30
0.0
 11
-3075.8277946407907
 21
-4175.8651231312406
 31
0.0
  0
LINE
  5
F6
100
AcDbEntity
  8
0
370
              18
390
0
  6
Continuous
 62
               7
100
AcDbLine
 10
-3123.7237723174176
 20
-4161.748348866493
 30
0.0
 11
-3123.7237723174176
 21
-4175.8651231312406
 31
0.0
  0
LWPOLYLINE
  5
F7
100
AcDbEntity
  8
0
370
               9
390
0
  6
Continuous
 62
               7
100
AcDbPolyline
 90
       50
 70
             128
 10
-3123.7237723174176
 20
-4161.748348866493
 10
-3123.7048082537963
 20
-4161.7482351783829
 42
0.0105342899992735
 10
-3123.4506990951681
 20
-4161.7413566312298
 42
0.0137413957547738
 10
-3123.1972626243542
 20
-4161.7221573136267
 10
-3123.1792753343702
 20
-4161.7202963600885
 42
0.0136811820389003
 10
-3122.8953158061026
 20
-4161.6830413453108
 10
-3122.8945885148823
 20
-4161.6829256062183
 42
0.0135872357594664
 10
-3122.6145275327672
 20
-4161.6305188966053
 10
-3122.614031424574
 20
-4161.6304120343639
 42
0.013463667406846
 10
-3122.3381977992867
 20
-4161.5631783237859
 10
-3122.3379128434844
 20
-4161.5631006823887
 42
0.013314976833403
 10
-3122.0666368036414
 20
-4161.4813680942534
 42
0.0131410031932937
 10
-3121.8001544204844
 20
-4161.3854366701307
 42
0.0129638126500748
 10
-3121.5390602271236
 20
-4161.2757324461436
 42
0.012763105055574
 10
-3121.2838781937207
 20
-4161.1527140174767
 10
-3121.2836635405465
 20
-4161.1526036993055
 42
0.0125585345102635
 10
-3121.0346096293401
 20
-4161.0165932518103
 10
-3121.0342734612354
 20
-4161.016398551621
 42
0.0123503731693625
 10
-3120.7916362767373
 20
-4160.8677479788648
 10
-3120.7911989198328
 20
-4160.8674649457098
 42
0.012142099715021
 10
-3120.5552682639322
 20
-4160.7065238408695
 10
-3120.5547487233594
 20
-4160.7061506322352
 42
0.0119367577150789
 10
-3120.3258158246899
 20
-4160.5332666662662
 10
-3120.3252315985005
 20
-4160.5328031674017
 42
0.0117369408065377
 10
-3120.1035892583673
 20
-4160.3483224688916
 10
-3120.1029562303056
 20
-4160.3477699184532
 42
0.0115447970500381
 10
-3119.8888988946619
 20
-4160.1520374403681
 10
-3119.8882312953997
 20
-4160.1513980750933
 42
0.0113620475771527
 10
-3119.6820550635671
 20
-4159.9447579374064
 10
-3119.6813654894272
 20
-4159.9440346649008
 42
0.0111900147036505
 10
-3119.4833680708552
 20
-4159.7268304659956
 10
-3119.4826675488957
 20
-4159.7260265711939
 42
0.0110296566148058
 10
-3119.2931481791693
 20
-4159.4986016639077
 10
-3119.2924462679193
 20
-4159.4977205515952
 42
0.0108816010211577
 10
-3119.1117055921723
 20
-4159.2604182822261
 10
-3119.1110105103826
 20
-4159.2594632582668
 42
0.0107461932088833
 10
-3118.9393504491936
 20
-4159.0126271688368
 10
-3118.9386692186813
 20
-4159.011601251058
 42
0.0106234869146277
 10
-3118.7763927976594
 20
-4158.7555752435574
 10
-3118.7757314178516
 20
-4158.7544810367599
 42
0.010513448888339
 10
-3118.6231426710465
 20
-4158.4896095209651
 10
-3118.6225062234626
 20
-4158.4884489945962
 42
0.0104153235124474
 10
-3118.4799097587616
 20
-4158.215076904512
 10
-3118.4793028215263
 20
-4158.213851768649
 42
0.010330211641627
 10
-3118.347004698961
 20
-4157.9323250810239
 10
-3118.3389035762534
 20
-4157.9141181808754
 42
0.0102506692690807
 10
-3118.2315608753925
 20
-4157.6589093124931
 10
-3118.2244679002324
 20
-4157.6410285897291
 42
0.007641958799947
 10
-3118.1399514206842
 20
-4157.4180884482157
 10
-3118.1264804215407
 20
-4157.3805497913063
  0
SPLINE
  5
F8
100
AcDbEntity
  8
0
370
              18
390
0
  6
Continuous
 62
               7
100
AcDbSpline
210
0.0
220
0.0
230
1.0
 70
              12
 71
               2
 72
             104
 73
             101
 74
               0
 42
0.000001
 43
0.000001
 40
0.0
 40
0.0
 40
0.0
 40
1.0
 40
1.0
 40
2.0
 40
2.0
 40
3.0
 40
3.0
 40
4.0
 40
4.0
 40
5.0
 40
5.0
 40
6.0
 40
6.0
 40
7.0
 40
7.0
 40
8.0
 40
8.0
 40
9.0
 40
9.0
 40
10.0
 40
10.0
 40
11.0
 40
11.0
 40
12.0
 40
12.0
 40
13.0
 40
13.0
 40
14.0
 40
14.0
 40
15.0
 40
15.0
 40
16.0
 40
16.0
 40
17.0
 40
17.0
 40
18.0
 40
18.0
 40
19.0
 40
19.0
 40
20.0
 40
20.0
 40
21.0
 40
21.0
 40
22.0
 40
22.0
 40
23.0
 40
23.0
 40
24.0
 40
24.0
 40
25.0
 40
25.0
 40
26.0
 40
26.0
 40
27.0
 40
27.0
 40
28.0
 40
28.0
 40
29.0
 40
29.0
 40
30.0
 40
30.0
 40
31.0
 40
31.0
 40
32.0
 40
32.0
 40
33.0
 40
33.0
 40
34.0
 40
34.0
 40
35.0
 40
35.0
 40
36.0
 40
36.0
 40
37.0
 40
37.0
 40
38.0
 40
38.0
 40
39.0
 40
39.0
 40
40.0
 40
40.0
 40
41.0
 40
41.0
 40
42.0
 40
42.0
 40
43.0
 40
43.0
 40
44.0
 40
44.0
 40
45.0
 40
45.0
 40
46.0
 40
46.0
 40
47.0
 40
47.0
 40
48.0
 40
48.0
 40
49.0
 40
49.0
 40
50.0
 40
50.0
 40
50.0
 10
-3129.7601687921133
 20
-4154.7820838719463
 30
0.0
 41
1.0
 10
-3129.7601687921133
 20
-4154.8127096422741
 30
0.0
 41
1.0
 10
-3129.7591561115078
 20
-4154.9496099548087
 30
0.0
 41
1.0
 10
-3129.7581434309022
 20
-4155.0865102673415
 30
0.0
 41
0.9995536014188968
 10
-3129.748956039105
 20
-4155.223105702571
 30
0.0
 41
1.0
 10
-3129.7453338138848
 20
-4155.2769598802679
 30
0.0
 41
1.0
 10
-3129.7417115886647
 20
-4155.3308140579657
 30
0.0
 41
1.0
 10
-3129.7257471954426
 20
-4155.5681679543095
 30
0.0
 41
0.9995540151489375
 10
-3129.6956416211433
 20
-4155.8041454709419
 30
0.0
 41
1.0
 10
-3129.6954363936602
 20
-4155.8057541122962
 30
0.0
 41
1.0
 10
-3129.6952311661771
 20
-4155.8073627536514
 30
0.0
 41
1.0
 10
-3129.6655360468421
 20
-4156.0401229875861
 30
0.0
 41
0.9995543316396104
 10
-3129.622003358375
 20
-4156.2706962550055
 30
0.0
 41
1.0
 10
-3129.6217222537466
 20
-4156.272185141057
 30
0.0
 41
1.0
 10
-3129.6214411491183
 20
-4156.2736740271084
 30
0.0
 41
1.0
 10
-3129.5784706699055
 20
-4156.5012695224341
 30
0.0
 41
0.9995540067251716
 10
-3129.5219896105605
 20
-4156.7258937898332
 30
0.0
 41
1.0
 10
-3129.5216406510644
 20
-4156.7272815961551
 30
0.0
 41
1.0
 10
-3129.521291691568
 20
-4156.728669402476
 30
0.0
 41
1.0
 10
-3129.4655085512127
 20
-4156.9505180572451
 30
0.0
 41
0.9995525102302558
 10
-3129.3965589210175
 20
-4157.168633927522
 30
0.0
 41
1.0
 10
-3129.3877036931258
 20
-4157.1966466337926
 30
0.0
 41
1.0
 10
-3129.3788484652341
 20
-4157.2246593400632
 30
0.0
 41
1.0
 10
-3129.32760929082
 20
-4157.3867497978072
 30
0.0
 41
0.9995490017621604
 10
-3129.2667318105309
 20
-4157.5454718878746
 30
0.0
 41
1.0
 10
-3129.2663850658882
 20
-4157.5463759337399
 30
0.0
 41
1.0
 10
-3129.266038321246
 20
-4157.5472799796062
 30
0.0
 41
1.0
 10
-3129.2058543302383
 20
-4157.7041939779519
 30
0.0
 41
0.999886814534478
 10
-3129.1409765141407
 20
-4157.8592261830845
 30
0.0
 41
1.0
 10
-3129.0760986980422
 20
-4158.0142583882198
 30
0.0
 41
0.9995421875026292
 10
-3129.0019627002321
 20
-4158.1650826882496
 30
0.0
 41
1.0
 10
-3128.9774563074652
 20
-4158.2149391634366
 30
0.0
 41
1.0
 10
-3128.9529499146979
 20
-4158.2647956386236
 30
0.0
 41
1.0
 10
-3128.88004369894
 20
-4158.4131180364357
 30
0.0
 41
0.9995333477217139
 10
-3128.7982163162137
 20
-4158.5567116624261
 30
0.0
 41
1.0
 10
-3128.7977907690702
 20
-4158.5574584278165
 30
0.0
 41
1.0
 10
-3128.7973652219262
 20
-4158.558205193207
 30
0.0
 41
1.0
 10
-3128.7163889334865
 20
-4158.7003052884211
 30
0.0
 41
0.9998820003232257
 10
-3128.631085547273
 20
-4158.8398507242109
 30
0.0
 41
1.0
 10
-3128.5457821610612
 20
-4158.979396159998
 30
0.0
 41
0.9995180849231311
 10
-3128.4519838427168
 20
-4159.1133792627534
 30
0.0
 41
1.0
 10
-3128.4209547710179
 20
-4159.1577017130403
 30
0.0
 41
1.0
 10
-3128.3899256993195
 20
-4159.2020241633263
 30
0.0
 41
1.0
 10
-3128.2975433099127
 20
-4159.3339847292627
 30
0.0
 41
0.9995023639455135
 10
-3128.1970237784672
 20
-4159.4598573658004
 30
0.0
 41
1.0
 10
-3128.1965592643255
 20
-4159.4604390400173
 30
0.0
 41
1.0
 10
-3128.1960947501839
 20
-4159.4610207142341
 30
0.0
 41
1.0
 10
-3128.0965042470252
 20
-4159.5857300023326
 30
0.0
 41
0.9998731110241432
 10
-3127.9929915785169
 20
-4159.707203465754
 30
0.0
 41
1.0
 10
-3127.88947891001
 20
-4159.8286769291726
 30
0.0
 41
0.9994767898650929
 10
-3127.778329010519
 20
-4159.9432036714625
 30
0.0
 41
1.0
 10
-3127.7415268916839
 20
-4159.9811238747088
 30
0.0
 41
1.0
 10
-3127.7047247728492
 20
-4160.0190440779552
 30
0.0
 41
1.0
 10
-3127.5950146082823
 20
-4160.1320873447639
 30
0.0
 41
0.9994533393923445
 10
-3127.4780737393548
 20
-4160.2376332283948
 30
0.0
 41
1.0
 10
-3127.4776445404195
 20
-4160.2380206052057
 30
0.0
 41
1.0
 10
-3127.4772153414842
 20
-4160.2384079820167
 30
0.0
 41
1.0
 10
-3127.3611328704178
 20
-4160.3431791120347
 30
0.0
 41
0.9998595896753212
 10
-3127.2416047605657
 20
-4160.4440015337932
 30
0.0
 41
1.0
 10
-3127.2413963166427
 20
-4160.4441773570461
 30
0.0
 41
1.0
 10
-3127.2411878727203
 20
-4160.444353180299
 30
0.0
 41
1.0
 10
-3127.1220766507186
 20
-4160.544823955549
 30
0.0
 41
0.9994159698367321
 10
-3126.996381059932
 20
-4160.6369243265599
 30
0.0
 41
1.0
 10
-3126.9960295243009
 20
-4160.6371819056985
 30
0.0
 41
1.0
 10
-3126.9956779886702
 20
-4160.6374394848372
 30
0.0
 41
1.0
 10
-3126.8706854691545
 20
-4160.7290246975635
 30
0.0
 41
0.9998492776041196
 10
-3126.7425886645397
 20
-4160.8162152347613
 30
0.0
 41
1.0
 10
-3126.7424307541773
 20
-4160.816322718234
 30
0.0
 41
1.0
 10
-3126.742272843815
 20
-4160.8164302017058
 30
0.0
 41
1.0
 10
-3126.6144918599311
 20
-4160.9034057719537
 30
0.0
 41
0.999372853639325
 10
-3126.4808755012805
 20
-4160.9811193381138
 30
0.0
 41
1.0
 10
-3126.4806626496179
 20
-4160.9812431362916
 30
0.0
 41
1.0
 10
-3126.4804497979553
 20
-4160.9813669344703
 30
0.0
 41
1.0
 10
-3126.347259142638
 20
-4161.0588329042685
 30
0.0
 41
0.9998379310671595
 10
-3126.2113660214764
 20
-4161.1314537467697
 30
0.0
 41
1.0
 10
-3126.211291705511
 20
-4161.13149346098
 30
0.0
 41
1.0
 10
-3126.2112173895462
 20
-4161.1315331751903
 30
0.0
 41
1.0
 10
-3126.0754729003311
 20
-4161.2040745892609
 30
0.0
 41
0.9993269514067538
 10
-3125.9347752439417
 20
-4161.266468439886
 30
0.0
 41
1.0
 10
-3125.7940825113619
 20
-4161.3288601069944
 30
0.0
 41
0.9998262262966595
 10
-3125.6511617816545
 20
-4161.3859637859323
 30
0.0
 41
1.0
 10
-3125.5082459757523
 20
-4161.4430652813571
 30
0.0
 41
0.9992825594635304
 10
-3125.3614180469604
 20
-4161.4891854253465
 30
0.0
 41
1.0
 10
-3125.3367705233081
 20
-4161.4969274629075
 30
0.0
 41
1.0
 10
-3125.3121229996559
 20
-4161.5046695004694
 30
0.0
 41
1.0
 10
-3125.1160000235627
 20
-4161.5662737195798
 30
0.0
 41
0.9992549389431333
 10
-3124.9157096485692
 20
-4161.6125669939047
 30
0.0
 41
1.0
 10
-3124.915255984843
 20
-4161.6126718495634
 30
0.0
 41
1.0
 10
-3124.9148023211169
 20
-4161.612776705223
 30
0.0
 41
1.0
 10
-3124.7136046186665
 20
-4161.6592796908672
 30
0.0
 41
0.9992320204514672
 10
-3124.5093832142038
 20
-4161.6898846104614
 30
0.0
 41
1.0
 10
-3124.4965649888309
 20
-4161.691805568541
 30
0.0
 41
1.0
 10
-3124.4837467634575
 20
-4161.6937265266206
 30
0.0
 41
1.0
 10
-3124.3020038547174
 20
-4161.7209627858338
 30
0.0
 41
0.9992163686892327
 10
-3124.1186760181445
 20
-4161.7337378800175
 30
0.0
 41
1.0
 10
-3124.1060571888784
 20
-4161.7346172158313
 30
0.0
 41
1.0
 10
-3124.0934383596118
 20
-4161.7354965516452
 30
0.0
 41
1.0
 10
-3123.935348181561
 20
-4161.7465129742022
 30
0.0
 41
0.9995552716295804
 10
-3123.7768824326722
 20
-4161.7480853580246
 30
0.0
 41
1.0
 10
-3123.7503258971883
 20
-4161.748348866493
 30
0.0
 41
1.0
 10
-3123.7237723174176
 20
-4161.748348866493
 30
0.0
 41
1.0
  0
LINE
  5
F9
100
AcDbEntity
  8
0
370
              18
390
0
  6
Continuous
 62
               7
100
AcDbLine
 10
-3129.7601687921133
 20
-4154.7820838719463
 30
0.0
 11
-3129.7601687921133
 21
-4149.2080386890657
 31
0.0
  0
LINE
  5
FA
100
AcDbEntity
  8
0
370
               9
390
0
  6
Continuous
 62
               7
100
AcDbLine
 10
-3109.0137689270068
 20
-4149.2080386890657
 30
0.0
 11
-3109.0137689270068
 21
-4157.3805497913063
 31
0.0
  0
LINE
  5
FB
100
AcDbEntity
  8
0
370
               9
390
0
  6
Continuous
 62
               7
100
AcDbLine
 10
-3118.1264804215407
 20
-4157.3805497913063
 30
0.0
 11
-3118.1264804215407
 21
-4149.2080386890657
 31
0.0
  0
LINE
  5
FC
100
AcDbEntity
  8
0
370
               9
390
0
  6
Continuous
 62
               7
100
AcDbLine
 10
-3118.1264804215407
 20
-4157.3805497913063
 30
0.0
 11
-3109.0137689270068
 21
-4157.3805497913063
 31
0.0
  0
SPLINE
  5
FD
100
AcDbEntity
  8
0
370
               9
390
0
  6
Continuous
 62
               7
100
AcDbSpline
210
0.0
220
0.0
230
1.0
 70
              12
 71
               2
 72
              96
 73
              93
 74
               0
 42
0.000001
 43
0.000001
 40
0.0
 40
0.0
 40
0.0
 40
1.0
 40
1.0
 40
2.0
 40
2.0
 40
3.0
 40
3.0
 40
4.0
 40
4.0
 40
5.0
 40
5.0
 40
6.0
 40
6.0
 40
7.0
 40
7.0
 40
8.0
 40
8.0
 40
9.0
 40
9.0
 40
10.0
 40
10.0
 40
11.0
 40
11.0
 40
12.0
 40
12.0
 40
13.0
 40
13.0
 40
14.0
 40
14.0
 40
15.0
 40
15.0
 40
16.0
 40
16.0
 40
17.0
 40
17.0
 40
18.0
 40
18.0
 40
19.0
 40
19.0
 40
20.0
 40
20.0
 40
21.0
 40
21.0
 40
22.0
 40
22.0
 40
23.0
 40
23.0
 40
24.0
 40
24.0
 40
25.0
 40
25.0
 40
26.0
 40
26.0
 40
27.0
 40
27.0
 40
28.0
 40
28.0
 40
29.0
 40
29.0
 40
30.0
 40
30.0
 40
31.0
 40
31.0
 40
32.0
 40
32.0
 40
33.0
 40
33.0
 40
34.0
 40
34.0
 40
35.0
 40
35.0
 40
36.0
 40
36.0
 40
37.0
 40
37.0
 40
38.0
 40
38.0
 40
39.0
 40
39.0
 40
40.0
 40
40.0
 40
41.0
 40
41.0
 40
42.0
 40
42.0
 40
43.0
 40
43.0
 40
44.0
 40
44.0
 40
45.0
 40
45.0
 40
46.0
 40
46.0
 40
46.0
 10
-3109.0137689270068
 20
-4157.3805497913063
 30
0.0
 41
1.0
 10
-3109.000861191591
 20
-4157.4030637786564
 30
0.0
 41
1.0
 10
-3108.9549299946457
 20
-4157.4816078128351
 30
0.0
 41
1.0
 10
-3108.9089987977018
 20
-4157.5601518470112
 30
0.0
 41
0.9996862159216382
 10
-3108.8591915231059
 20
-4157.6362969424008
 30
0.0
 41
1.0
 10
-3108.834111460199
 20
-4157.6746392086234
 30
0.0
 41
1.0
 10
-3108.8090313972925
 20
-4157.7129814748459
 30
0.0
 41
1.0
 10
-3108.7090639968833
 20
-4157.865811102678
 30
0.0
 41
0.9994774826379069
 10
-3108.599430888089
 20
-4158.0118623188455
 30
0.0
 41
1.0
 10
-3108.5911915420525
 20
-4158.0228386244735
 30
0.0
 41
1.0
 10
-3108.5829521960159
 20
-4158.0338149301015
 30
0.0
 41
1.0
 10
-3108.4568403951548
 20
-4158.2018187575159
 30
0.0
 41
0.9995169194200023
 10
-3108.3205343596205
 20
-4158.3616628597647
 30
0.0
 41
1.0
 10
-3108.3199097963861
 20
-4158.3623952759717
 30
0.0
 41
1.0
 10
-3108.3192852331513
 20
-4158.3631276921788
 30
0.0
 41
1.0
 10
-3108.1817300711537
 20
-4158.5244366268325
 30
0.0
 41
0.9995551279544224
 10
-3108.034801751051
 20
-4158.6772569911127
 30
0.0
 41
1.0
 10
-3108.0340129995761
 20
-4158.678077372695
 30
0.0
 41
1.0
 10
-3108.0332242481013
 20
-4158.6788977542774
 30
0.0
 41
1.0
 10
-3107.884718425049
 20
-4158.8333588817213
 30
0.0
 41
0.9995913067023161
 10
-3107.7276277582782
 20
-4158.9790803344504
 30
0.0
 41
1.0
 10
-3107.7266899805772
 20
-4158.9799502418209
 30
0.0
 41
1.0
 10
-3107.7257522028763
 20
-4158.9808201491924
 30
0.0
 41
1.0
 10
-3107.5667859807049
 20
-4159.1282814166625
 30
0.0
 41
0.9996248879275349
 10
-3107.3999840287652
 20
-4159.2668173109996
 30
0.0
 41
1.0
 10
-3107.3989164240566
 20
-4159.267704000702
 30
0.0
 41
1.0
 10
-3107.3978488193484
 20
-4159.2685906904035
 30
0.0
 41
1.0
 10
-3107.2289116579882
 20
-4159.4088999641481
 30
0.0
 41
0.9996555238377246
 10
-3107.0528447593083
 20
-4159.540151265006
 30
0.0
 41
1.0
 10
-3107.0516685598227
 20
-4159.5410280778178
 30
0.0
 41
1.0
 10
-3107.0504923603371
 20
-4159.5419048906306
 30
0.0
 41
1.0
 10
-3106.8720730626942
 20
-4159.6749098171067
 30
0.0
 41
0.9996830801854748
 10
-3106.6871854507931
 20
-4159.7987658916618
 30
0.0
 41
1.0
 10
-3106.6859226854162
 20
-4159.7996118172541
 30
0.0
 41
1.0
 10
-3106.6846599200394
 20
-4159.8004577428474
 30
0.0
 41
1.0
 10
-3106.497246777391
 20
-4159.9260056685825
 30
0.0
 41
0.9997075757853942
 10
-3106.3039826271806
 20
-4160.0423454121856
 30
0.0
 41
1.0
 10
-3106.3026551643725
 20
-4160.0431445085651
 30
0.0
 41
1.0
 10
-3106.3013277015648
 20
-4160.0439436049446
 30
0.0
 41
1.0
 10
-3106.1054086257313
 20
-4160.1618815413121
 30
0.0
 41
0.9997291307591342
 10
-3105.9042135776485
 20
-4160.270574658558
 30
0.0
 41
1.0
 10
-3105.9028424192452
 20
-4160.2713154097964
 30
0.0
 41
1.0
 10
-3105.9014712608418
 20
-4160.2720561610349
 30
0.0
 41
1.0
 10
-3105.6975338959555
 20
-4160.3822307807559
 30
0.0
 41
0.9997479255839891
 10
-3105.4888561350799
 20
-4160.4831390943255
 30
0.0
 41
1.0
 10
-3105.4874609216577
 20
-4160.4838137643665
 30
0.0
 41
1.0
 10
-3105.4860657082354
 20
-4160.4844884344075
 30
0.0
 41
1.0
 10
-3105.2745975205185
 20
-4160.5867460880563
 30
0.0
 41
0.9997641706876314
 10
-3105.0588884974322
 20
-4160.6797247926361
 30
0.0
 41
1.0
 10
-3105.057487182331
 20
-4160.6803288121664
 30
0.0
 41
1.0
 10
-3105.0560858672297
 20
-4160.6809328316967
 30
0.0
 41
1.0
 10
-3104.837574213941
 20
-4160.7751195753372
 30
0.0
 41
0.9997780851411841
 10
-3104.6152890893941
 20
-4160.8600183898725
 30
0.0
 41
1.0
 10
-3104.6138977417104
 20
-4160.8605497964127
 30
0.0
 41
1.0
 10
-3104.6125063940272
 20
-4160.8610812029528
 30
0.0
 41
1.0
 10
-3104.3874385741069
 20
-4160.9470428305713
 30
0.0
 41
0.9997898826125946
 10
-3104.1590364597023
 20
-4161.0237070277035
 30
0.0
 41
1.0
 10
-3104.1576691619366
 20
-4161.0241659673493
 30
0.0
 41
1.0
 10
-3104.1563018641709
 20
-4161.0246249069951
 30
0.0
 41
1.0
 10
-3103.9251651542172
 20
-4161.1022069834253
 30
0.0
 41
0.9997997627588103
 10
-3103.6911092085406
 20
-4161.1704782919032
 30
0.0
 41
1.0
 10
-3103.6897780203344
 20
-4161.1708665835158
 30
0.0
 41
1.0
 10
-3103.6884468321286
 20
-4161.1712548751293
 30
0.0
 41
1.0
 10
-3103.4517285100324
 20
-4161.2403027668361
 30
0.0
 41
0.9998079065916044
 10
-3103.2124859366718
 20
-4161.3000201550931
 30
0.0
 41
1.0
 10
-3103.2112009044549
 20
-4161.3003409122502
 30
0.0
 41
1.0
 10
-3103.2099158722376
 20
-4161.3006616694083
 30
0.0
 41
1.0
 10
-3102.9681032344542
 20
-4161.3610205719779
 30
0.0
 41
0.9998144743134144
 10
-3102.7241452189805
 20
-4161.4120209209477
 30
0.0
 41
1.0
 10
-3102.7229144078728
 20
-4161.4122782266804
 30
0.0
 41
1.0
 10
-3102.7216835967656
 20
-4161.412535532414
 30
0.0
 41
1.0
 10
-3102.4752639590847
 20
-4161.4640504928475
 30
0.0
 41
0.9998196057235332
 10
-3102.2270655622992
 20
-4161.5061691919582
 30
0.0
 41
1.0
 10
-3102.2258951288004
 20
-4161.5063678118404
 30
0.0
 41
1.0
 10
-3102.2247246953011
 20
-4161.5065664317226
 30
0.0
 41
1.0
 10
-3101.9741854315353
 20
-4161.549082370595
 30
0.0
 41
0.9998234189056124
 10
-3101.7222254959261
 20
-4161.5821537871725
 30
0.0
 41
1.0
 10
-3101.7211196647754
 20
-4161.5822989348626
 30
0.0
 41
1.0
 10
-3101.7200138336248
 20
-4161.5824440825527
 30
0.0
 41
1.0
 10
-3101.4658422357388
 20
-4161.6158057945049
 30
0.0
 41
0.9998260196707487
 10
-3101.210603137592
 20
-4161.6396638701899
 30
0.0
 41
1.0
 10
-3101.2095646200414
 20
-4161.6397609439946
 30
0.0
 41
1.0
 10
-3101.2085261024913
 20
-4161.6398580177993
 30
0.0
 41
1.0
 10
-3100.9512099692415
 20
-4161.6639102410936
 30
0.0
 41
0.9998271628800366
 10
-3100.6931775358507
 20
-4161.67837969839
 30
0.0
 41
1.0
 10
-3100.6429624821471
 20
-4161.6811955636895
 30
0.0
 41
1.0
 10
-3100.5927474284435
 20
-4161.6840114289889
 30
0.0
 41
1.0
 10
-3100.2342848876447
 20
-4161.7041126168851
 30
0.0
 41
0.9994726173428102
 10
-3099.8752735371863
 20
-4161.7009030758582
 30
0.0
 41
1.0
 10
-3099.825529730073
 20
-4161.7004583690559
 30
0.0
 41
1.0
 10
-3099.7757859229596
 20
-4161.7000136622528
 30
0.0
 41
1.0
 10
-3099.7428478018646
 20
-4161.699719197326
 30
0.0
 41
1.0
 10
-3099.7099177922819
 20
-4161.6992724723896
 30
0.0
 41
1.0
  0
LINE
  5
FE
100
AcDbEntity
  8
0
370
              18
390
0
  6
Continuous
 62
               7
100
AcDbLine
 10
-3125.6532494961075
 20
-4161.5365454814146
 30
0.0
 11
-3125.6532494961075
 21
-4174.3403184061326
 31
0.0
  0
LINE
  5
FF
100
AcDbEntity
  8
0
370
              18
390
0
  6
Continuous
 62
               7
100
AcDbLine
 10
-3062.8974562786489
 20
-4149.2080386890657
 30
0.0
 11
-3062.8974562786489
 21
-4147.1313323280665
 31
0.0
  0
LINE
  5
100
100
AcDbEntity
  8
0
370
              18
390
0
  6
Continuous
 62
               7
100
AcDbLine
 10
-3062.8974562786489
 20
-4149.2080386890657
 30
0.0
 11
-3099.7770749631591
 21
-4149.2080386890657
 31
0.0
  0
LINE
  5
101
100
AcDbEntity
  8
0
370
              18
390
0
  6
Continuous
 62
               7
100
AcDbLine
 10
-3059.2503053063469
 20
-4147.1313323280665
 30
0.0
 11
-3059.2503053063469
 21
-4141.4978788786393
 31
0.0
  0
LINE
  5
102
100
AcDbEntity
  8
0
370
              18
390
0
  6
Continuous
 62
               7
100
AcDbLine
 10
-3059.2503053063469
 20
-4147.1313323280665
 30
0.0
 11
-3099.7770749631591
 21
-4147.1313323280665
 31
0.0
  0
LINE
  5
103
100
AcDbEntity
  8
0
370
              18
390
0
  6
Continuous
 62
               7
100
AcDbLine
 10
-3059.2503053063469
 20
-4141.4978788786393
 30
0.0
 11
-3099.7770749631591
 21
-4141.4978788786393
 31
0.0
  0
LINE
  5
104
100
AcDbEntity
  8
0
370
              18
390
0
  6
Continuous
 62
               7
100
AcDbLine
 10
-3099.7770749631591
 20
-4133.4130186780621
 30
0.0
 11
-3075.9336963333303
 21
-4133.4130186780621
 31
0.0
  0
LINE
  5
105
100
AcDbEntity
  8
0
370
              18
390
0
  6
Continuous
 62
               7
100
AcDbLine
 10
-3072.0256655818466
 20
-4121.1620009290336
 30
0.0
 11
-3075.9336963333303
 21
-4133.4130186780621
 31
0.0
  0
LWPOLYLINE
  5
106
100
AcDbEntity
  8
0
370
              18
390
0
  6
Continuous
 62
               7
100
AcDbPolyline
 90
        4
 70
             128
 10
-3099.7770749631591
 20
-4121.1620009290336
 10
-3060.9085708334133
 20
-4121.1620009290336
 10
-3059.1289058051457
 20
-4119.0827115999236
 10
-3099.7770749631591
 20
-4119.0827115999236
  0
LINE
  5
107
100
AcDbEntity
  8
0
370
              18
390
0
  6
Continuous
 62
               7
100
AcDbLine
 10
-3075.8277946407907
 20
-4161.7302680897174
 30
0.0
 11
-3099.7770749631591
 21
-4161.7302680897174
 31
0.0
  0
LINE
  5
108
100
AcDbEntity
  8
0
370
              18
390
0
  6
Continuous
 62
               7
100
AcDbLine
 10
-3075.8277946407907
 20
-4161.748348866493
 30
0.0
 11
-3075.8277946407907
 21
-4175.8651231312406
 31
0.0
  0
SPLINE
  5
109
100
AcDbEntity
  8
0
370
              18
390
0
  6
Continuous
 62
               7
100
AcDbSpline
210
0.0
220
0.0
230
1.0
 70
              12
 71
               2
 72
              98
 73
              95
 74
               0
 42
0.000001
 43
0.000001
 40
0.0
 40
0.0
 40
0.0
 40
1.0
 40
1.0
 40
2.0
 40
2.0
 40
3.0
 40
3.0
 40
4.0
 40
4.0
 40
5.0
 40
5.0
 40
6.0
 40
6.0
 40
7.0
 40
7.0
 40
8.0
 40
8.0
 40
9.0
 40
9.0
 40
10.0
 40
10.0
 40
11.0
 40
11.0
 40
12.0
 40
12.0
 40
13.0
 40
13.0
 40
14.0
 40
14.0
 40
15.0
 40
15.0
 40
16.0
 40
16.0
 40
17.0
 40
17.0
 40
18.0
 40
18.0
 40
19.0
 40
19.0
 40
20.0
 40
20.0
 40
21.0
 40
21.0
 40
22.0
 40
22.0
 40
23.0
 40
23.0
 40
24.0
 40
24.0
 40
25.0
 40
25.0
 40
26.0
 40
26.0
 40
27.0
 40
27.0
 40
28.0
 40
28.0
 40
29.0
 40
29.0
 40
30.0
 40
30.0
 40
31.0
 40
31.0
 40
32.0
 40
32.0
 40
33.0
 40
33.0
 40
34.0
 40
34.0
 40
35.0
 40
35.0
 40
36.0
 40
36.0
 40
37.0
 40
37.0
 40
38.0
 40
38.0
 40
39.0
 40
39.0
 40
40.0
 40
40.0
 40
41.0
 40
41.0
 40
42.0
 40
42.0
 40
43.0
 40
43.0
 40
44.0
 40
44.0
 40
45.0
 40
45.0
 40
46.0
 40
46.0
 40
47.0
 40
47.0
 40
47.0
 10
-3075.8277946407907
 20
-4161.748348866493
 30
0.0
 41
1.0
 10
-3075.8012616686692
 20
-4161.748348866493
 30
0.0
 41
1.0
 10
-3075.7088117766698
 20
-4161.7474321404716
 30
0.0
 41
1.0
 10
-3075.6163618846731
 20
-4161.7465154144493
 30
0.0
 41
0.9995542866102194
 10
-3075.5241314910249
 20
-4161.7400828873933
 30
0.0
 41
1.0
 10
-3075.4786481061601
 20
-4161.736910689031
 30
0.0
 41
1.0
 10
-3075.4331647212957
 20
-4161.7337384906677
 30
0.0
 41
1.0
 10
-3075.2499675579188
 20
-4161.7209615668862
 30
0.0
 41
0.9992147457571416
 10
-3075.0683572899443
 20
-4161.6937189345435
 30
0.0
 41
1.0
 10
-3075.0555647208776
 20
-4161.6917999722536
 30
0.0
 41
1.0
 10
-3075.0427721518108
 20
-4161.6898810099628
 30
0.0
 41
1.0
 10
-3074.8387107659096
 20
-4161.6592705749181
 30
0.0
 41
0.9992310869792828
 10
-3074.6376752374426
 20
-4161.6127650457465
 30
0.0
 41
1.0
 10
-3074.6372233049992
 20
-4161.6126605002592
 30
0.0
 41
1.0
 10
-3074.6367713725558
 20
-4161.6125559547709
 30
0.0
 41
1.0
 10
-3074.4366397089775
 20
-4161.5662595165759
 30
0.0
 41
0.9992538194573732
 10
-3074.240678787768
 20
-4161.5046530208565
 30
0.0
 41
1.0
 10
-3074.2405135559184
 20
-4161.5046010750139
 30
0.0
 41
1.0
 10
-3074.2403483240687
 20
-4161.5045491291703
 30
0.0
 41
1.0
 10
-3074.0447178665581
 20
-4161.4430465251362
 30
0.0
 41
0.9992810996734215
 10
-3073.8543097247721
 20
-4161.3668980796456
 30
0.0
 41
1.0
 10
-3073.6638275584096
 20
-4161.2907200300824
 30
0.0
 41
0.9993105600923703
 10
-3073.4795231202825
 20
-4161.2006177269805
 30
0.0
 41
1.0
 10
-3073.2951446575817
 20
-4161.1104858198069
 30
0.0
 41
0.9993421796539695
 10
-3073.1177842972138
 20
-4161.0072265307872
 30
0.0
 41
1.0
 10
-3073.1175280507632
 20
-4161.0070773439775
 30
0.0
 41
1.0
 10
-3073.1172718043126
 20
-4161.0069281571677
 30
0.0
 41
1.0
 10
-3072.9393989510436
 20
-4160.9033704945286
 30
0.0
 41
0.9993729900754023
 10
-3072.7693007197545
 20
-4160.7874846320128
 30
0.0
 41
1.0
 10
-3072.7689038551221
 20
-4160.7872142529504
 30
0.0
 41
1.0
 10
-3072.7685069904896
 20
-4160.786943873889
 30
0.0
 41
1.0
 10
-3072.5976150299362
 20
-4160.6705172532502
 30
0.0
 41
0.9994024640613565
 10
-3072.4351750845458
 20
-4160.5425622442935
 30
0.0
 41
1.0
 10
-3072.434676991179
 20
-4160.5421698928858
 30
0.0
 41
1.0
 10
-3072.4341788978127
 20
-4160.541777541479
 30
0.0
 41
1.0
 10
-3072.2707427656892
 20
-4160.4130378297068
 30
0.0
 41
0.9994298355637922
 10
-3072.1163678327921
 20
-4160.2735614418707
 30
0.0
 41
1.0
 10
-3072.1158025676486
 20
-4160.2730507298083
 30
0.0
 41
1.0
 10
-3072.1152373025052
 20
-4160.272540017746
 30
0.0
 41
1.0
 10
-3071.9597318393235
 20
-4160.132042205787
 30
0.0
 41
0.999454602421099
 10
-3071.8138397018324
 20
-4159.9815860046283
 30
0.0
 41
1.0
 10
-3071.8132358440917
 20
-4159.98096325591
 30
0.0
 41
1.0
 10
-3071.8126319863509
 20
-4159.9803405071907
 30
0.0
 41
1.0
 10
-3071.6655321333815
 20
-4159.828638808598
 30
0.0
 41
0.999476482037729
 10
-3071.5285513207286
 20
-4159.6677412353893
 30
0.0
 41
1.0
 10
-3071.5279321975959
 20
-4159.6670140137612
 30
0.0
 41
1.0
 10
-3071.5273130744631
 20
-4159.6662867921332
 30
0.0
 41
1.0
 10
-3071.3890940155502
 20
-4159.5039347756756
 30
0.0
 41
0.9994953612543797
 10
-3071.2614629465052
 20
-4159.3331337343598
 30
0.0
 41
1.0
 10
-3071.2608471083586
 20
-4159.3323095949272
 30
0.0
 41
1.0
 10
-3071.2602312702115
 20
-4159.3314854554956
 30
0.0
 41
1.0
 10
-3071.1313685248724
 20
-4159.1590361353146
 30
0.0
 41
0.9995112640156236
 10
-3071.0135341505093
 20
-4158.9788711126803
 30
0.0
 41
1.0
 10
-3071.0129360814053
 20
-4158.9779566839816
 30
0.0
 41
1.0
 10
-3071.0123380123018
 20
-4158.9770422552829
 30
0.0
 41
1.0
 10
-3070.8933074997235
 20
-4158.7950483752384
 30
0.0
 41
0.9995242774316565
 10
-3070.7857241454603
 20
-4158.606061981076
 30
0.0
 41
1.0
 10
-3070.7851548444801
 20
-4158.6050619180069
 30
0.0
 41
1.0
 10
-3070.7845855434998
 20
-4158.6040618549378
 30
0.0
 41
1.0
 10
-3070.6758635872684
 20
-4158.4130753346244
 30
0.0
 41
0.9995346667554504
 10
-3070.5789899596789
 20
-4158.2158145555031
 30
0.0
 41
1.0
 10
-3070.5784584970552
 20
-4158.2147323545596
 30
0.0
 41
1.0
 10
-3070.5779270344315
 20
-4158.2136501536152
 30
0.0
 41
1.0
 10
-3070.4799904815882
 20
-4158.014224972595
 30
0.0
 41
0.9995423478314792
 10
-3070.3942930864478
 20
-4157.8092422229101
 30
0.0
 41
1.0
 10
-3070.3938046697585
 20
-4157.8080739610778
 30
0.0
 41
1.0
 10
-3070.3933162530698
 20
-4157.8069056992445
 30
0.0
 41
1.0
 10
-3070.3066420245486
 20
-4157.5995864258866
 30
0.0
 41
0.999548187647097
 10
-3070.232581544085
 20
-4157.3874337727593
 30
0.0
 41
1.0
 10
-3070.2230290180942
 20
-4157.360069735686
 30
0.0
 41
1.0
 10
-3070.2134764921034
 20
-4157.3327056986127
 30
0.0
 41
1.0
 10
-3070.1567741427671
 20
-4157.1702769137191
 30
0.0
 41
0.9995525715197592
 10
-3070.1098856583603
 20
-4157.0047482557238
 30
0.0
 41
1.0
 10
-3070.0629971739581
 20
-4156.8392195977449
 30
0.0
 41
0.999888158142195
 10
-3070.0210802854808
 20
-4156.6723626499052
 30
0.0
 41
1.0
 10
-3070.0208122530762
 20
-4156.6712957036088
 30
0.0
 41
1.0
 10
-3070.0205442206716
 20
-4156.6702287573116
 30
0.0
 41
1.0
 10
-3069.9780912673868
 20
-4156.5012379168838
 30
0.0
 41
0.9995545917081824
 10
-3069.9457959042611
 20
-4156.3300153514556
 30
0.0
 41
1.0
 10
-3069.9349259554856
 20
-4156.2723853905172
 30
0.0
 41
1.0
 10
-3069.9240560067101
 20
-4156.2147554295789
 30
0.0
 41
1.0
 10
-3069.8911099082316
 20
-4156.0400828154225
 30
0.0
 41
0.9995557238530957
 10
-3069.8686300529571
 20
-4155.8637574807462
 30
0.0
 41
1.0
 10
-3069.8461501976831
 20
-4155.6874321460818
 30
0.0
 41
0.9998884701227679
 10
-3069.8289465393245
 20
-4155.5105140812138
 30
0.0
 41
1.0
 10
-3069.8288214847275
 20
-4155.5092280514145
 30
0.0
 41
1.0
 10
-3069.8286964301305
 20
-4155.5079420216152
 30
0.0
 41
1.0
 10
-3069.8112426625803
 20
-4155.328451897175
 30
0.0
 41
0.9995551451616191
 10
-3069.8045216553846
 20
-4155.1482404468279
 30
0.0
 41
1.0
 10
-3069.8033852212875
 20
-4155.1177690560144
 30
0.0
 41
1.0
 10
-3069.8022487871899
 20
-4155.0872976651999
 30
0.0
 41
1.0
 10
-3069.7977010017289
 20
-4154.9653571598465
 30
0.0
 41
0.9998887726705189
 10
-3069.7967921980812
 20
-4154.8433352631464
 30
0.0
 41
1.0
 10
-3069.7965641023161
 20
-4154.8127096404723
 30
0.0
 41
1.0
 10
-3069.7965641023161
 20
-4154.7820838719463
 30
0.0
 41
1.0
  0
LWPOLYLINE
  5
10A
100
AcDbEntity
  8
0
370
               9
390
0
  6
Continuous
 62
               7
100
AcDbPolyline
 90
       50
 70
             128
 10
-3081.4276695047788
 20
-4157.3805497913063
 10
-3081.3995331804208
 20
-4157.4600366316599
 42
0.016233590643812
 10
-3081.2507978442886
 20
-4157.8404879139252
 10
-3081.233536043263
 20
-4157.8807378594174
 42
0.0108931504736456
 10
-3081.1006016236161
 20
-4158.1729624676555
 10
-3081.0996613927641
 20
-4158.1749153173478
 42
0.0109723968045261
 10
-3080.9560450743911
 20
-4158.4571857232277
 10
-3080.9550801085006
 20
-4158.458983581585
 42
0.011066179989998
 10
-3080.8011753037035
 20
-4158.7310995670541
 10
-3080.8001940414119
 20
-4158.7327482721703
 42
0.0111593411846737
 10
-3080.63638569053
 20
-4158.9945037117659
 10
-3080.6353987967491
 20
-4158.9960051242133
 42
0.0112504680853793
 10
-3080.4620686179069
 20
-4159.2472007120477
 10
-3080.4610813713025
 20
-4159.2485647584126
 42
0.011344560905938
 10
-3080.2786170677091
 20
-4159.4889911808878
 10
-3080.2776383905898
 20
-4159.4902217447006
 42
0.0114395706000457
 10
-3080.0864253813734
 20
-4159.7196711898468
 10
-3080.0854655639573
 20
-4159.7207707846419
 42
0.0115332309664279
 10
-3079.8858864937265
 20
-4159.9390414827149
 10
-3079.8849526010072
 20
-4159.940016690326
 42
0.0116302555964005
 10
-3079.6773929538808
 20
-4160.146904181086
 10
-3079.6764935221377
 20
-4160.1477599326163
 42
0.0117291966439863
 10
-3079.4613377361384
 20
-4160.3430594201782
 10
-3079.4604813978253
 20
-4160.3438008479134
 42
0.0118303633442707
 10
-3079.2381137383513
 20
-4160.5273074596007
 10
-3079.2373094266518
 20
-4160.5279398270613
 42
0.0119337180837461
 10
-3079.0081138277537
 20
-4160.699448496458
 10
-3079.0073708262239
 20
-4160.6999773076286
 42
0.0120390613547269
 10
-3078.7717308449169
 20
-4160.8592826733593
 10
-3078.7710588353666
 20
-4160.8597137863462
 42
0.0121459907949473
 10
-3078.5293576147005
 20
-4161.006610067353
 10
-3078.5287667018256
 20
-4161.0069498270241
 42
0.0122538888870753
 10
-3078.2813869590645
 20
-4161.1412306825077
 10
-3078.280887669162
 20
-4161.1414860671375
 42
0.0123619119174399
 10
-3078.0282117121178
 20
-4161.2629444444356
 10
-3078.027814961667
 20
-4161.263123222051
 42
0.0124689844233439
 10
-3077.7702247370626
 20
-4161.3715511975779
 10
-3077.7699417670783
 20
-4161.3716620867081
 42
0.0125738001228062
 10
-3077.5078189446117
 20
-4161.4668507058159
 10
-3077.5076612186272
 20
-4161.4669035336656
 42
0.0126748305603692
 10
-3077.2413873122618
 20
-4161.5486426569423
 42
0.0127693459888611
 10
-3076.9713229036224
 20
-4161.6167266714529
 42
0.0128644486171196
 10
-3076.6980188868101
 20
-4161.6709023159174
 42
0.0129370326564797
 10
-3076.4221573954005
 20
-4161.7109348081922
 10
-3076.4218685513097
 20
-4161.7109691210135
 42
0.013004009445864
 10
-3076.1437241720359
 20
-4161.7366961781045
 10
-3076.1432662215593
 20
-4161.7367265509092
 42
0.0130539949868624
 10
-3075.8632432011909
 20
-4161.7479670616021
 10
-3075.8629815077502
 20
-4161.7479707290395
 10
-3075.8277946407907
 20
-4161.748348866493
  0
LINE
  5
10B
100
AcDbEntity
  8
0
370
              18
390
0
  6
Continuous
 62
               7
100
AcDbLine
 10
-3069.7965641023161
 20
-4154.7820838719463
 30
0.0
 11
-3069.7965641023161
 21
-4149.2080386890657
 31
0.0
  0
LINE
  5
10C
100
AcDbEntity
  8
0
370
               9
390
0
  6
Continuous
 62
               7
100
AcDbLine
 10
-3090.5377980312014
 20
-4149.2080386890657
 30
0.0
 11
-3090.5377980312014
 21
-4157.3805497913063
 31
0.0
  0
LINE
  5
10D
100
AcDbEntity
  8
0
370
               9
390
0
  6
Continuous
 62
               7
100
AcDbLine
 10
-3081.4276695047788
 20
-4157.3805497913063
 30
0.0
 11
-3081.4276695047788
 21
-4149.2080386890657
 31
0.0
  0
LINE
  5
10E
100
AcDbEntity
  8
0
370
               9
390
0
  6
Continuous
 62
               7
100
AcDbLine
 10
-3081.4276695047788
 20
-4157.3805497913063
 30
0.0
 11
-3090.5377980312014
 21
-4157.3805497913063
 31
0.0
  0
SPLINE
  5
10F
100
AcDbEntity
  8
0
370
               9
390
0
  6
Continuous
 62
               7
100
AcDbSpline
210
0.0
220
0.0
230
1.0
 70
              12
 71
               2
 72
             100
 73
              97
 74
               0
 42
0.000001
 43
0.000001
 40
0.0
 40
0.0
 40
0.0
 40
1.0
 40
1.0
 40
2.0
 40
2.0
 40
3.0
 40
3.0
 40
4.0
 40
4.0
 40
5.0
 40
5.0
 40
6.0
 40
6.0
 40
7.0
 40
7.0
 40
8.0
 40
8.0
 40
9.0
 40
9.0
 40
10.0
 40
10.0
 40
11.0
 40
11.0
 40
12.0
 40
12.0
 40
13.0
 40
13.0
 40
14.0
 40
14.0
 40
15.0
 40
15.0
 40
16.0
 40
16.0
 40
17.0
 40
17.0
 40
18.0
 40
18.0
 40
19.0
 40
19.0
 40
20.0
 40
20.0
 40
21.0
 40
21.0
 40
22.0
 40
22.0
 40
23.0
 40
23.0
 40
24.0
 40
24.0
 40
25.0
 40
25.0
 40
26.0
 40
26.0
 40
27.0
 40
27.0
 40
28.0
 40
28.0
 40
29.0
 40
29.0
 40
30.0
 40
30.0
 40
31.0
 40
31.0
 40
32.0
 40
32.0
 40
33.0
 40
33.0
 40
34.0
 40
34.0
 40
35.0
 40
35.0
 40
36.0
 40
36.0
 40
37.0
 40
37.0
 40
38.0
 40
38.0
 40
39.0
 40
39.0
 40
40.0
 40
40.0
 40
41.0
 40
41.0
 40
42.0
 40
42.0
 40
43.0
 40
43.0
 40
44.0
 40
44.0
 40
45.0
 40
45.0
 40
46.0
 40
46.0
 40
47.0
 40
47.0
 40
48.0
 40
48.0
 40
48.0
 10
-3099.8442321340381
 20
-4161.6992724723896
 30
0.0
 41
1.0
 10
-3099.8099666859471
 20
-4161.6998889103506
 30
0.0
 41
1.0
 10
-3099.6904985109213
 20
-4161.7014603942916
 30
0.0
 41
1.0
 10
-3099.5710303359151
 20
-4161.7030318782317
 30
0.0
 41
0.9998938430230745
 10
-3099.451567097638
 20
-4161.7011216160508
 30
0.0
 41
1.0
 10
-3099.3926390016204
 20
-4161.7001793335985
 30
0.0
 41
1.0
 10
-3099.3337109056029
 20
-4161.6992370511452
 30
0.0
 41
1.0
 10
-3099.0963914753124
 20
-4161.6954422240578
 30
0.0
 41
0.9998107697816648
 10
-3098.8593992747169
 20
-4161.6824188004139
 30
0.0
 41
1.0
 10
-3098.8422617995848
 20
-4161.6814770453766
 30
0.0
 41
1.0
 10
-3098.8251243244522
 20
-4161.6805352903384
 30
0.0
 41
1.0
 10
-3098.5605395103944
 20
-4161.6659955708246
 30
0.0
 41
0.9998098631925677
 10
-3098.2967228383527
 20
-4161.641150232721
 30
0.0
 41
1.0
 10
-3098.2950523353229
 20
-4161.6409929105466
 30
0.0
 41
1.0
 10
-3098.2933818322927
 20
-4161.6408355883714
 30
0.0
 41
1.0
 10
-3098.0329061663083
 20
-4161.6163048946182
 30
0.0
 41
0.9998083415794512
 10
-3097.7735904878409
 20
-4161.5815960138152
 30
0.0
 41
1.0
 10
-3097.7719176759838
 20
-4161.5813721113209
 30
0.0
 41
1.0
 10
-3097.7702448641262
 20
-4161.5811482088257
 30
0.0
 41
1.0
 10
-3097.5142748093781
 20
-4161.5468871330131
 30
0.0
 41
0.9998060702575494
 10
-3097.2598524545133
 20
-4161.5025728510245
 30
0.0
 41
1.0
 10
-3097.2581765017221
 20
-4161.5022809401798
 30
0.0
 41
1.0
 10
-3097.2565005489309
 20
-4161.5019890293343
 30
0.0
 41
1.0
 10
-3097.0054300996535
 20
-4161.4582585690368
 30
0.0
 41
0.9998029664041387
 10
-3096.756293278263
 20
-4161.4045969636918
 30
0.0
 41
1.0
 10
-3096.7546145963502
 20
-4161.4042353922232
 30
0.0
 41
1.0
 10
-3096.7529359144373
 20
-4161.4038738207555
 30
0.0
 41
1.0
 10
-3096.5071564568648
 20
-4161.3509353583459
 30
0.0
 41
0.9997989259812202
 10
-3096.2636973418103
 20
-4161.288184407249
 30
0.0
 41
1.0
 10
-3096.2620177163367
 20
-4161.2877514881693
 30
0.0
 41
1.0
 10
-3096.2603380908631
 20
-4161.2873185690905
 30
0.0
 41
1.0
 10
-3096.020238226748
 20
-4161.2254334561503
 30
0.0
 41
0.9997938365688466
 10
-3095.7828489513854
 20
-4161.1538510288992
 30
0.0
 41
1.0
 10
-3095.7811716165734
 20
-4161.1533452448994
 30
0.0
 41
1.0
 10
-3095.7794942817609
 20
-4161.1528394608995
 30
0.0
 41
1.0
 10
-3095.5454596760137
 20
-4161.0822686016445
 30
0.0
 41
0.9997875739370314
 10
-3095.3145323417066
 20
-4161.0021124469622
 30
0.0
 41
1.0
 10
-3095.312862047917
 20
-4161.0015326787516
 30
0.0
 41
1.0
 10
-3095.3111917541273
 20
-4161.0009529105409
 30
0.0
 41
1.0
 10
-3095.0836050073935
 20
-4160.9219562922781
 30
0.0
 41
0.9997800006549077
 10
-3094.8595316921824
 20
-4160.8334840231782
 30
0.0
 41
1.0
 10
-3094.8578747572919
 20
-4160.8328298052074
 30
0.0
 41
1.0
 10
-3094.856217822401
 20
-4160.8321755872375
 30
0.0
 41
1.0
 10
-3094.6354583769767
 20
-4160.7450117540811
 30
0.0
 41
0.9997709649116142
 10
-3094.4186311476806
 20
-4160.6484808305868
 30
0.0
 41
1.0
 10
-3094.4169954873923
 20
-4160.6477526388435
 30
0.0
 41
1.0
 10
-3094.4153598271046
 20
-4160.6470244471002
 30
0.0
 41
1.0
 10
-3094.2018039183808
 20
-4160.5519499070906
 30
0.0
 41
0.9997603001001243
 10
-3093.9926148472623
 20
-4160.4476176166454
 30
0.0
 41
1.0
 10
-3093.9910099761073
 20
-4160.4468171929784
 30
0.0
 41
1.0
 10
-3093.9894051049519
 20
-4160.4460167693105
 30
0.0
 41
1.0
 10
-3093.7834257761401
 20
-4160.3432853261993
 30
0.0
 41
0.999747825584935
 10
-3093.5822669639019
 20
-4160.2314087622362
 30
0.0
 41
1.0
 10
-3093.5807039554838
 20
-4160.2305394788609
 30
0.0
 41
1.0
 10
-3093.5791409470658
 20
-4160.2296701954856
 30
0.0
 41
1.0
 10
-3093.3811081516642
 20
-4160.1195321982723
 30
0.0
 41
0.9997333492944874
 10
-3093.188371758929
 20
-4160.0003682381157
 30
0.0
 41
1.0
 10
-3093.1868631505681
 20
-4159.9994355043227
 30
0.0
 41
1.0
 10
-3093.1853545422073
 20
-4159.9985027705297
 30
0.0
 41
1.0
 10
-3092.9956353661873
 20
-4159.8812042779555
 30
0.0
 41
0.999716672980842
 10
-3092.8117136553387
 20
-4159.7550095618062
 30
0.0
 41
1.0
 10
-3092.8102732776915
 20
-4159.7540212714757
 30
0.0
 41
1.0
 10
-3092.8088329000448
 20
-4159.7530329811461
 30
0.0
 41
1.0
 10
-3092.6277919444851
 20
-4159.6288148456542
 30
0.0
 41
0.9996976012404736
 10
-3092.4530773343672
 20
-4159.4958457598441
 30
0.0
 41
1.0
 10
-3092.4517200427322
 20
-4159.4948127733769
 30
0.0
 41
1.0
 10
-3092.4503627510971
 20
-4159.4937797869097
 30
0.0
 41
1.0
 10
-3092.2783627242407
 20
-4159.3628766740267
 30
0.0
 41
0.9996759556175047
 10
-3092.1132478592372
 20
-4159.2233893428775
 30
0.0
 41
1.0
 10
-3092.1119891391545
 20
-4159.2223259891634
 30
0.0
 41
1.0
 10
-3092.1107304190714
 20
-4159.2212626354485
 30
0.0
 41
1.0
 10
-3091.948132994225
 20
-4159.083902011721
 30
0.0
 41
0.9996515952507971
 10
-3091.7930108285609
 20
-4158.9381523042357
 30
0.0
 41
1.0
 10
-3091.7918662463189
 20
-4158.9370768774825
 30
0.0
 41
1.0
 10
-3091.7907216640774
 20
-4158.9360014507301
 30
0.0
 41
1.0
 10
-3091.637888662895
 20
-4158.7924025967477
 30
0.0
 41
0.9996244454539698
 10
-3091.4931525588677
 20
-4158.6406461560064
 30
0.0
 41
1.0
 10
-3091.4744721319785
 20
-4158.6210596463698
 30
0.0
 41
1.0
 10
-3091.4557917050897
 20
-4158.6014731367341
 30
0.0
 41
1.0
 10
-3091.3484164548395
 20
-4158.4888897152632
 30
0.0
 41
0.9995929070714141
 10
-3091.2476376443201
 20
-4158.3703650237148
 30
0.0
 41
1.0
 10
-3091.2304960000647
 20
-4158.3502049514982
 30
0.0
 41
1.0
 10
-3091.2133543558098
 20
-4158.3300448792816
 30
0.0
 41
1.0
 10
-3091.1468588338103
 20
-4158.2518403321765
 30
0.0
 41
0.9998920661635439
 10
-3091.0826897392662
 20
-4158.171715848126
 30
0.0
 41
1.0
 10
-3091.0185206447309
 20
-4158.0915913640847
 30
0.0
 41
0.9998895586607949
 10
-3090.9567612073029
 20
-4158.0095951597832
 30
0.0
 41
1.0
 10
-3090.9417484283176
 20
-4157.9896631308657
 30
0.0
 41
1.0
 10
-3090.9267356493328
 20
-4157.9697311019472
 30
0.0
 41
1.0
 10
-3090.8349506539325
 20
-4157.847870839807
 30
0.0
 41
0.9995269465713205
 10
-3090.7508314248612
 20
-4157.7205980454892
 30
0.0
 41
1.0
 10
-3090.7369801974892
 20
-4157.6996410724896
 30
0.0
 41
1.0
 10
-3090.7231289701176
 20
-4157.678684099491
 30
0.0
 41
1.0
 10
-3090.6401041626104
 20
-4157.5530671702127
 30
0.0
 41
0.9997151444685354
 10
-3090.5631684125556
 20
-4157.4236313871143
 30
0.0
 41
1.0
 10
-3090.5503950326215
 20
-4157.4021416059204
 30
0.0
 41
1.0
 10
-3090.5377980312014
 20
-4157.3805497913063
 30
0.0
 41
1.0
  0
LINE
  5
110
100
AcDbEntity
  8
0
370
              18
390
0
  6
Continuous
 62
               7
100
AcDbLine
 10
-3073.900900430212
 20
-4161.5365454814146
 30
0.0
 11
-3073.900900430212
 21
-4174.3403184061326
 31
0.0
  0
LWPOLYLINE
  5
111
100
AcDbEntity
  8
0
370
              18
390
0
  6
Continuous
 62
               7
100
AcDbPolyline
 90
        5
 70
             128
 10
-3096.1247580546365
 20
-4141.4978788786393
 10
-3103.429391871683
 20
-4141.4978788786393
 10
-3103.429391871683
 20
-4133.4130186780621
 10
-3096.1247580546365
 20
-4133.4130186780621
 10
-3096.1247580546365
 20
-4141.4978788786393
  0
LINE
  5
112
100
AcDbEntity
  8
0
370
               5
390
0
  6
STYLE_12
 62
               7
100
AcDbLine
 10
-3073.900900430212
 20
-4174.3403184061326
 30
0.0
 11
-3075.8277946407907
 21
-4175.8651231312406
 31
0.0
  0
LINE
  5
113
100
AcDbEntity
  8
0
370
               5
390
0
  6
STYLE_12
 62
               7
100
AcDbLine
 10
-3125.6532494961075
 20
-4174.3403184061326
 30
0.0
 11
-3123.7237723174176
 21
-4175.8651231312406
 31
0.0
  0
LINE
  5
114
100
AcDbEntity
  8
0
370
               5
390
0
  6
Continuous
 62
               7
100
AcDbLine
 10
-3125.6532494961075
 20
-4174.3403184061326
 30
0.0
 11
-3073.900900430212
 21
-4174.3403184061326
 31
0.0
  0
ENDBLK
  5
115
100
AcDbEntity
  8
notes
390
0
100
AcDbBlockEnd
  0
BLOCK
  5
116
100
AcDbEntity
  8
notes
390
0
100
AcDbBlockBegin
  2
*D16
 70
               1
 10
0.0
 20
0.0
 30
0.0
  3
*D16
  1

  0
LINE
  5
117
100
AcDbEntity
  8
0
370
              -2
390
0
  6
Continuous
 62
               0
100
AcDbLine
 10
-452.31042659782133
 20
-428.27571075236665
 30
0.0
 11
-452.31042659782133
 21
-449.27571075236665
 31
0.0
  0
LINE
  5
118
100
AcDbEntity
  8
0
370
              -2
390
0
  6
Continuous
 62
               0
100
AcDbLine
 10
-400.55807753192585
 20
-428.27571075236665
 30
0.0
 11
-400.55807753192585
 21
-449.27571075236665
 31
0.0
  0
LINE
  5
119
100
AcDbEntity
  8
0
370
              -2
390
0
  6
Continuous
 62
               0
100
AcDbLine
 10
-400.55807753192585
 20
-449.27571075236665
 30
0.0
 11
-264.87499327129808
 21
-449.27571075236665
 31
0.0
  0
LINE
  5
11A
100
AcDbEntity
  8
0
370
              -2
390
0
  6
Continuous
 62
               0
100
AcDbLine
 10
-452.31042659782133
 20
-449.27571075236665
 30
0.0
 11
-400.55807753192585
 21
-449.27571075236665
 31
0.0
  0
CIRCLE
  5
11B
102
{ACAD_REACTORS
330
11C
102
}
100
AcDbEntity
  8
0
370
              -2
390
0
  6
Continuous
 62
               0
100
AcDbCircle
 10
-452.31042659782133
 20
-449.27571075236665
 30
0.0
 40
1.9998779296875
  0
HATCH
  5
11C
100
AcDbEntity
  8
0
370
              -2
390
0
  6
Continuous
 62
               0
100
AcDbHatch
 10
0.0
 20
0.0
 30
0.0
210
0.0
220
0.0
230
1.0
  2
SOLID
 70
               1
 71
               1
 91
        1
 92
        1
 93
        1
 72
               2
 10
-452.31042659782133
 20
-449.27571075236665
 40
1.9998779296875
 50
0.0
 51
360.0
 73
               0
 97
        1
330
11B
 75
               0
 76
               1
 98
        1
 10
0.0
 20
0.0
  0
CIRCLE
  5
11D
102
{ACAD_REACTORS
330
11E
102
}
100
AcDbEntity
  8
0
370
              -2
390
0
  6
Continuous
 62
               0
100
AcDbCircle
 10
-400.55807753192585
 20
-449.27571075236665
 30
0.0
 40
1.9998779296875
  0
HATCH
  5
11E
100
AcDbEntity
  8
0
370
              -2
390
0
  6
Continuous
 62
               0
100
AcDbHatch
 10
0.0
 20
0.0
 30
0.0
210
0.0
220
0.0
230
1.0
  2
SOLID
 70
               1
 71
               1
 91
        1
 92
        1
 93
        1
 72
               2
 10
-400.55807753192585
 20
-449.27571075236665
 40
1.9998779296875
 50
0.0
 51
360.0
 73
               0
 97
        1
330
11D
 75
               0
 76
               1
 98
        1
 10
0.0
 20
0.0
  0
MTEXT
  5
11F
100
AcDbEntity
  8
0
390
0
 62
               0
100
AcDbMText
 10
-376.0
 20
-415.39809356486694
 30
0.0
 40
24.432617187500004
 41
0.0
 71
               1
 72
               1
  1
G1.1/2"
  7
ＭＳ ゴシック
 73
               1
 44
0.7828267384257843
  0
POINT
  5
120
100
AcDbEntity
  8
Defpoints
370
               0
390
0
 62
               0
100
AcDbPoint
 10
-400.55807753192585
 20
-403.27571075236665
 30
0.0
  0
POINT
  5
121
100
AcDbEntity
  8
Defpoints
370
               0
390
0
 62
               0
100
AcDbPoint
 10
-452.31042659782133
 20
-403.27571075236665
 30
0.0
  0
POINT
  5
122
100
AcDbEntity
  8
Defpoints
370
               0
390
0
 62
               0
100
AcDbPoint
 10
-452.31042659782133
 20
-449.27571075236665
 30
0.0
  0
ENDBLK
  5
123
100
AcDbEntity
  8
notes
390
0
100
AcDbBlockEnd
  0
BLOCK
  5
124
100
AcDbEntity
  8
PLT70-5907
390
0
100
AcDbBlockBegin
  2
グループ-5
 70
               0
 10
0.0
 20
0.0
 30
0.0
  3
グループ-5
  1

  0
LINE
  5
125
100
AcDbEntity
  8
0
370
               5
390
0
  6
Continuous
 62
               7
100
AcDbLine
 10
-2076.2481710165725
 20
-4134.6627211914074
 30
0.0
 11
-2085.3900992918284
 21
-4135.3463751709405
 31
0.0
  0
LWPOLYLINE
  5
126
100
AcDbEntity
  8
0
370
               5
390
0
  6
Continuous
 62
               7
100
AcDbPolyline
 90
       27
 70
             128
 10
-2076.2481710165725
 20
-4134.6627211914074
 10
-2076.1961324033518
 20
-4134.6588595350777
 42
-0.0021417015925199
 10
-2075.7580587911266
 20
-4134.6282373677386
 10
-2075.725705894205
 20
-4134.6261150561468
 42
-0.0015017217927322
 10
-2075.3521366902828
 20
-4134.6027359630698
 42
-0.0014632715286873
 10
-2074.9784353325717
 20
-4134.5815725220091
 10
-2074.9762862384819
 20
-4134.5814571231504
 42
-0.001430031286995
 10
-2074.5981697886459
 20
-4134.5622379787446
 10
-2074.5961828341765
 20
-4134.5621426812331
 42
-0.0014014892510297
 10
-2074.2139891362917
 20
-4134.5448856635503
 10
-2074.2121646865303
 20
-4134.5448084086838
 42
-0.0013773195445879
 10
-2073.8262316349424
 20
-4134.5295312723792
 10
-2073.8245700054899
 20
-4134.529470080749
 42
-0.0013572476763209
 10
-2073.4352355645692
 20
-4134.5161905179484
 10
-2073.4337369697855
 20
-4134.5161434756164
 42
-0.0013410436636172
 10
-2073.0413390799158
 20
-4134.5048791239306
 10
-2073.040003854891
 20
-4134.504844378228
 42
-0.0013285169112497
 10
-2072.6448807743241
 20
-4134.495612839678
 10
-2072.6437088072466
 20
-4134.4955885736545
 42
-0.0013195150294265
 10
-2072.2461983125072
 20
-4134.4884074042684
 10
-2072.2451900883557
 20
-4134.4883918518181
 42
-0.0013139163223631
 10
-2071.8456307571064
 20
-4134.4832785983681
 10
-2071.8328590984647
 20
-4134.4831487226966
 42
-0.0013116549343553
 10
-2071.4554412480197
 20
-4134.4803009022853
 10
-2071.443107432282
 20
-4134.4802401936986
 42
-0.0011483367033696
 10
-2071.0903476156568
 20
-4134.4793140512938
 10
-2071.065127853863
 20
-4134.479309905857
  0
ENDBLK
  5
127
100
AcDbEntity
  8
PLT70-5907
390
0
100
AcDbBlockEnd
  0
BLOCK
  5
128
100
AcDbEntity
  8
PLT70-5907
390
0
100
AcDbBlockBegin
  2
グループ-6
 70
               0
 10
0.0
 20
0.0
 30
0.0
  3
グループ-6
  1

  0
LINE
  5
129
100
AcDbEntity
  8
0
370
               5
390
0
  6
Continuous
 62
               7
100
AcDbLine
 10
-2146.1051007590436
 20
-4134.6627211914074
 30
0.0
 11
-2136.9631724837877
 21
-4135.3463751709405
 31
0.0
  0
LWPOLYLINE
  5
12A
100
AcDbEntity
  8
0
370
               5
390
0
  6
Continuous
 62
               7
100
AcDbPolyline
 90
       27
 70
             128
 10
-2146.1051007590436
 20
-4134.6627211914074
 10
-2146.1571393721615
 20
-4134.6588595350859
 42
0.0021417015926819
 10
-2146.5952129844877
 20
-4134.6282373677386
 10
-2146.6275658814711
 20
-4134.6261150561431
 42
0.0015017217930464
 10
-2147.0011350853324
 20
-4134.6027359630698
 42
0.0014632715305036
 10
-2147.3748364431744
 20
-4134.5815725220027
 10
-2147.3769855371343
 20
-4134.5814571231504
 42
0.0014300312857334
 10
-2147.7551019868138
 20
-4134.5622379787519
 10
-2147.7570889414396
 20
-4134.5621426812331
 42
0.0014014892511881
 10
-2148.1392826393135
 20
-4134.5448856635512
 10
-2148.1411070890849
 20
-4134.5448084086838
 42
0.0013773195444115
 10
-2148.5270401408038
 20
-4134.5295312723738
 10
-2148.5287017701244
 20
-4134.529470080749
 42
0.0013572476760499
 10
-2148.9180362109651
 20
-4134.5161905179511
 10
-2148.9195348058288
 20
-4134.5161434756164
 42
0.0013410436641605
 10
-2149.3119326958058
 20
-4134.5048791239278
 10
-2149.3132679207242
 20
-4134.504844378228
 42
0.0013285169113646
 10
-2149.7083910014017
 20
-4134.4956128396752
 10
-2149.7095629683695
 20
-4134.4955885736545
 42
0.0013195150294213
 10
-2150.1070734629407
 20
-4134.4884074042711
 10
-2150.1080816872595
 20
-4134.4883918518181
 42
0.0013139163217294
 10
-2150.5076410185397
 20
-4134.4832785983672
 10
-2150.5204126771569
 20
-4134.4831487226966
 42
0.0013116549347679
 10
-2150.8978305275955
 20
-4134.4803009022853
 10
-2150.9101643433651
 20
-4134.4802401936986
 42
0.0011483367026203
 10
-2151.2629241599575
 20
-4134.4793140512938
 10
-2151.2881439217531
 20
-4134.479309905857
  0
ENDBLK
  5
12B
100
AcDbEntity
  8
PLT70-5907
390
0
100
AcDbBlockEnd
  0
BLOCK
  5
12C
100
AcDbEntity
  8
PLT70-5907
390
0
100
AcDbBlockBegin
  2
*D19
 70
               1
 10
0.0
 20
0.0
 30
0.0
  3
*D19
  1

  0
LINE
  5
12D
100
AcDbEntity
  8
0
370
              -2
390
0
  6
Continuous
 62
               0
100
AcDbLine
 10
506.00000000000773
 20
623.00105395555192
 30
0.0
 11
642.0
 21
778.98077164773076
 31
0.0
  0
CIRCLE
  5
12E
102
{ACAD_REACTORS
330
12F
102
}
100
AcDbEntity
  8
0
370
              -2
390
0
  6
Continuous
 62
               0
100
AcDbCircle
 10
506.00000000000773
 20
623.00105395555192
 30
0.0
 40
1.9998779296875
  0
HATCH
  5
12F
100
AcDbEntity
  8
0
370
              -2
390
0
  6
Continuous
 62
               0
100
AcDbHatch
 10
0.0
 20
0.0
 30
0.0
210
0.0
220
0.0
230
1.0
  2
SOLID
 70
               1
 71
               1
 91
        1
 92
        1
 93
        1
 72
               2
 10
506.00000000000773
 20
623.00105395555192
 40
1.9998779296875
 50
0.0
 51
360.0
 73
               0
 97
        1
330
12E
 75
               0
 76
               1
 98
        1
 10
0.0
 20
0.0
  0
LINE
  5
130
100
AcDbEntity
  8
0
370
              -2
390
0
  6
Continuous
 62
               0
100
AcDbLine
 10
642.0
 20
778.98077164773076
 30
0.0
 11
781.375
 21
778.98077164773076
 31
0.0
  0
MTEXT
  5
131
100
AcDbEntity
  8
0
390
0
 62
               0
100
AcDbMText
 10
702.0
 20
812.85838883523093
 30
0.0
 40
24.432617187500004
 41
0.0
 71
               1
 72
               1
  1
φ140
  7
ＭＳ ゴシック
 73
               1
 44
0.7828267384257843
  0
POINT
  5
132
100
AcDbEntity
  8
Defpoints
370
               0
390
0
 62
               0
100
AcDbPoint
 10
413.99427558108846
 20
517.478797184021
 30
0.0
  0
POINT
  5
133
100
AcDbEntity
  8
Defpoints
370
               0
390
0
 62
               0
100
AcDbPoint
 10
506.00000000000773
 20
623.00105395555192
 30
0.0
  0
ENDBLK
  5
134
100
AcDbEntity
  8
PLT70-5907
390
0
100
AcDbBlockEnd
  0
ENDSEC
  0
SECTION
  2
ENTITIES
  0
MTEXT
  5
135
100
AcDbEntity
  8
template
390
0
 62
               7
100
AcDbMText
 10
-967.99999999976717
 20
-1134.6535143187966
 30
0.0
 40
16.288411458333332
 41
0.0
 71
               1
 72
               1
  1
品名
  7
ＭＳ ゴシック
 73
               1
 44
0.7828267384257843
  0
MTEXT
  5
136
100
AcDbEntity
  8
template
390
0
 62
               7
100
AcDbMText
 10
-967.99999999976717
 20
-1219.6535143187966
 30
0.0
 40
16.288411458333332
 41
0.0
 71
               1
 72
               1
  1
仕様
  7
ＭＳ ゴシック
 73
               1
 44
0.7828267384257843
  0
LINE
  5
137
100
AcDbEntity
  8
template
370
               5
390
0
  6
Continuous
 62
               7
100
AcDbLine
 10
974.99999999976717
 20
-1211.2385924437967
 30
0.0
 11
-975.00000000023283
 21
-1211.2385924437967
 31
0.0
  0
LWPOLYLINE
  5
138
100
AcDbEntity
  8
template
370
               5
390
0
  6
Continuous
 62
               7
100
AcDbPolyline
 90
        5
 70
             128
 10
975.00000000023283
 20
1418.7614075562033
 10
-974.99999999976717
 20
1418.7614075562033
 10
-974.99999999976717
 20
-1381.2385924437967
 10
975.00000000023283
 20
-1381.2385924437967
 10
975.00000000023283
 20
1418.7614075562033
  0
LINE
  5
139
100
AcDbEntity
  8
template
370
               5
390
0
  6
Continuous
 62
               7
100
AcDbLine
 10
974.99999999976717
 20
-1126.2385924437967
 30
0.0
 11
-975.00000000023283
 21
-1126.2385924437967
 31
0.0
  0
LINE
  5
13A
100
AcDbEntity
  8
template
370
               5
390
0
  6
Continuous
 62
               7
100
AcDbLine
 10
975.00000000023283
 20
-1296.2385924437967
 30
0.0
 11
222.00000000023283
 21
-1296.2385924437967
 31
0.0
  0
MTEXT
  5
13B
100
AcDbEntity
  8
template
390
0
 62
               7
100
AcDbMText
 10
251.87140625249594
 20
-1326.1489869170964
 30
0.0
 40
24.432617187500004
 41
0.0
 71
               1
 72
               1
  1
大洋金物株式会社 ティーフォルム事業部
  7
ＭＳ ゴシック
 73
               1
 44
0.7828267384257843
  0
INSERT
  5
13C
100
AcDbEntity
  8
template
390
0
 62
               7
100
AcDbBlockReference
  2
グループ
 10
2673.3428228982862
 20
3764.6627211914074
 30
0.0
  0
MTEXT
  5
13D
100
AcDbEntity
  8
template
390
0
 62
               7
100
AcDbMText
 10
784.00000000049477
 20
-1248.235975256297
 30
0.0
 40
24.432617187500004
 41
0.0
 71
               1
 72
               1
  1
1:10
  7
ＭＳ ゴシック
 73
               1
 44
0.7828267384257843
  0
MTEXT
  5
13E
100
AcDbEntity
  8
template
390
0
 62
               7
100
AcDbMText
 10
731.00000000049477
 20
-1219.6535143187966
 30
0.0
 40
16.288411458333332
 41
0.0
 71
               1
 72
               1
  1
縮尺
  7
ＭＳ ゴシック
 73
               1
 44
0.7828267384257843
  0
LINE
  5
13F
100
AcDbEntity
  8
template
370
               5
390
0
  6
Continuous
 62
               7
100
AcDbLine
 10
724.00000000049477
 20
-1296.2385924437967
 30
0.0
 11
724.00000000049477
 21
-1211.2385924437967
 31
0.0
  0
MTEXT
  5
140
100
AcDbEntity
  8
template
390
0
 62
               7
100
AcDbMText
 10
480.00000000049477
 20
-1219.6535143187966
 30
0.0
 40
16.288411458333332
 41
0.0
 71
               1
 72
               1
  1
容量
  7
ＭＳ ゴシック
 73
               1
 44
0.7828267384257843
  0
MTEXT
  5
141
100
AcDbEntity
  8
template
390
0
 62
               7
100
AcDbMText
 10
533.00000000049477
 20
-1248.235975256297
 30
0.0
 40
24.432617187500004
 41
0.0
 71
               1
 72
               1
  1
37L
  7
ＭＳ ゴシック
 73
               1
 44
0.7828267384257843
  0
LINE
  5
142
100
AcDbEntity
  8
template
370
               5
390
0
  6
Continuous
 62
               7
100
AcDbLine
 10
473.00000000049477
 20
-1296.2385924437967
 30
0.0
 11
473.00000000049477
 21
-1211.2385924437967
 31
0.0
  0
MTEXT
  5
143
100
AcDbEntity
  8
template
390
0
 62
               7
100
AcDbMText
 10
229.00000000049477
 20
-1134.6535143187966
 30
0.0
 40
16.288411458333332
 41
0.0
 71
               1
 72
               1
  1
品番
  7
ＭＳ ゴシック
 73
               1
 44
0.7828267384257843
  0
MTEXT
  5
144
100
AcDbEntity
  8
template
390
0
 62
               7
100
AcDbMText
 10
229.00000000049477
 20
-1219.6535143187966
 30
0.0
 40
16.288411458333332
 41
0.0
 71
               1
 72
               1
  1
重量
  7
ＭＳ ゴシック
 73
               1
 44
0.7828267384257843
  0
MTEXT
  5
145
100
AcDbEntity
  8
template
390
0
 62
               7
100
AcDbMText
 10
282.00000000049477
 20
-1163.235975256297
 30
0.0
 40
24.432617187500004
 41
0.0
 71
               1
 72
               1
  1
PLT70-5907
  7
ＭＳ ゴシック
 73
               1
 44
0.7828267384257843
  0
MTEXT
  5
146
100
AcDbEntity
  8
template
390
0
 62
               7
100
AcDbMText
 10
282.00000000049477
 20
-1248.235975256297
 30
0.0
 40
24.432617187500004
 41
0.0
 71
               1
 72
               1
  1
20kg
  7
ＭＳ ゴシック
 73
               1
 44
0.7828267384257843
  0
LINE
  5
147
100
AcDbEntity
  8
template
370
               5
390
0
  6
Continuous
 62
               7
100
AcDbLine
 10
222.00000000049477
 20
-1381.2385924437967
 30
0.0
 11
222.00000000049477
 21
-1126.2385924437967
 31
0.0
  0
MTEXT
  5
148
100
AcDbEntity
  8
template
390
0
 62
               7
100
AcDbMText
 10
-914.99999999973807
 20
-1163.235975256297
 30
0.0
 40
24.432617187500004
 41
0.0
 71
               1
 72
               1
  1
洗面器 -SANINDUSA,Europian-
  7
ＭＳ ゴシック
 73
               1
 44
0.7828267384257843
  0
MTEXT
  5
149
100
AcDbEntity
  8
template
390
0
 62
               7
100
AcDbMText
 10
-914.99999999973807
 20
-1248.235975256297
 30
0.0
 40
24.432617187500004
 41
0.0
 71
               1
 72
               1
  1
カウンタートップ/オーバーフロー無/専用排水金具(ゴム栓付)付属/\P陶器/ホワイト
  7
ＭＳ ゴシック
 73
               1
 44
1.1307497332816883
  0
MTEXT
  5
14A
100
AcDbEntity
  8
template
390
0
 62
               7
100
AcDbMText
 10
-974.99999999953434
 20
-1393.0924145006475
 30
0.0
 40
21.717881944444446
 41
0.0
 71
               1
 72
               1
  1
111117SH
  7
ＭＳ ゴシック
 73
               1
 44
0.7828267384257843
  0
LWPOLYLINE
  5
14B
100
AcDbEntity
  8
template
370
               5
390
0
  6
Continuous
 62
               7
100
AcDbPolyline
 90
        5
 70
             128
 10
975.00000000023283
 20
1418.7614075562033
 10
-974.99999999976717
 20
1418.7614075562033
 10
-974.99999999976717
 20
-1381.2385924437967
 10
975.00000000023283
 20
-1381.2385924437967
 10
975.00000000023283
 20
1418.7614075562033
  0
MTEXT
  5
14C
100
AcDbEntity
  8
notes
390
0
 62
               7
100
AcDbMText
 10
329.75770537188509
 20
879.66842250915079
 30
0.0
 40
24.432617187500004
 41
0.0
 71
               1
 72
               1
  1
カウンター切込寸法
  7
ＭＳ ゴシック
 73
               1
 44
0.7828267384257843
  0
MTEXT
  5
14D
100
AcDbEntity
  8
notes
390
0
 62
               7
100
AcDbMText
 10
93.474380515166558
 20
144.62989268468527
 30
0.0
 40
24.432617187500004
 41
764.7717154610109
 71
               1
 72
               1
  1
※陶器製品には寸法公差があります。\P  洗面器の収め方をご確認の上、必ず現物を合わせて\P  カウンターに切込を行ってください。
  7
ＭＳ ゴシック
 73
               1
 44
1.1742401076386764
  0
DIMENSION
  5
14E
100
AcDbEntity
  8
notes
370
               5
390
0
  6
Continuous
 62
               7
100
AcDbDimension
  2
*D3
 10
-804.10878816861214
 20
690.23992556978646
 30
0.0
 11
-804.10878816861214
 21
680.23992556978646
 31
0.0
 71
               5
 72
               1
 41
1.0
 42
0.0
  3
tfrom線あり
100
AcDbAlignedDimension
 13
-727.04934439225826
 23
670.23992556978646
 33
0.0
 14
-718.32416218994103
 24
690.23992556978646
 34
0.0
 50
90.0
100
AcDbRotatedDimension
1001
ACAD
1000
DSTYLE
1002
{
1070
             279
1070
               2
1070
             340
1005
35
1070
             147
1040
5.0
1002
}
  0
DIMENSION
  5
14F
100
AcDbEntity
  8
notes
370
               5
390
0
  6
Continuous
 62
               7
100
AcDbDimension
  2
*D4
 10
-804.10878816861214
 20
670.23992556978646
 30
0.0
 11
-804.10878816861214
 21
487.73992556978646
 31
0.0
 71
               5
 72
               1
 41
1.0
 42
0.0
  3
tfrom線あり
100
AcDbAlignedDimension
 13
-727.04934439225826
 23
305.23992556978646
 33
0.0
 14
-727.04934439225826
 24
670.23992556978646
 34
0.0
 50
90.0
100
AcDbRotatedDimension
1001
ACAD
1000
DSTYLE
1002
{
1070
             279
1070
               2
1070
             340
1005
35
1070
             147
1040
5.0
1002
}
  0
DIMENSION
  5
150
100
AcDbEntity
  8
notes
370
               5
390
0
  6
Continuous
 62
               7
100
AcDbDimension
  2
*D5
 10
-811.10878816861214
 20
-176.7676456470108
 30
0.0
 11
-811.10878816861214
 21
-276.76764564700807
 31
0.0
 71
               5
 72
               1
 41
1.0
 42
0.0
  3
tfrom線あり
100
AcDbAlignedDimension
 13
-727.05334239736248
 23
-376.76764564700534
 33
0.0
 14
-727.05334239736248
 24
-176.7676456470108
 34
0.0
 50
90.0
100
AcDbRotatedDimension
1001
ACAD
1000
DSTYLE
1002
{
1070
             279
1070
               2
1070
             340
1005
35
1070
             147
1040
5.0
1002
}
  0
DIMENSION
  5
151
100
AcDbEntity
  8
notes
370
               5
390
0
  6
Continuous
 62
               7
100
AcDbDimension
  2
*D6
 10
-727.04934439225826
 20
789.11587874154611
 30
0.0
 11
-427.05334239736248
 21
789.11587874154611
 31
0.0
 71
               5
 72
               1
 41
1.0
 42
0.0
  3
tfrom線あり
100
AcDbAlignedDimension
 13
-127.05734040246625
 23
680.24387213553928
 33
0.0
 14
-727.04934439225826
 24
681.51360757181646
 34
0.0
100
AcDbRotatedDimension
1001
ACAD
1000
DSTYLE
1002
{
1070
             279
1070
               2
1070
             340
1005
35
1070
             147
1040
5.0
1002
}
  0
DIMENSION
  5
152
100
AcDbEntity
  8
notes
370
               5
390
0
  6
Continuous
 62
               7
100
AcDbDimension
  2
*D7
 10
-19.108788168611682
 20
690.23992556978646
 30
0.0
 11
-19.108788168611682
 21
487.75327491834605
 31
0.0
 71
               5
 72
               1
 41
1.0
 42
0.0
  3
tfrom線あり
100
AcDbAlignedDimension
 13
-161.25693469993075
 23
285.26662426690564
 33
0.0
 14
-136.37391518629101
 24
690.23992556978646
 34
0.0
 50
90.0
100
AcDbRotatedDimension
1001
ACAD
1000
DSTYLE
1002
{
1070
             279
1070
               2
1070
             340
1005
35
1070
             147
1040
5.0
1002
}
  0
DIMENSION
  5
153
100
AcDbEntity
  8
notes
370
               5
390
0
  6
Continuous
 62
               7
100
AcDbDimension
  2
*D8
 10
-707.04934439225826
 20
171.87648106146025
 30
0.0
 11
-427.05334239736248
 21
171.87648106146025
 31
0.0
 71
               5
 72
               1
 41
1.0
 42
0.0
  3
tfrom線あり
100
AcDbAlignedDimension
 13
-147.05734040246625
 23
288.33694904727599
 33
0.0
 14
-707.04934439225826
 24
288.33694904727599
 34
0.0
100
AcDbRotatedDimension
1001
ACAD
1000
DSTYLE
1002
{
1070
             279
1070
               2
1070
             340
1005
35
1070
             147
1040
5.0
1002
}
  0
DIMENSION
  5
154
100
AcDbEntity
  8
notes
370
               5
390
0
  6
Continuous
 62
               7
100
AcDbDimension
  2
*D9
 10
-457.05220660171062
 20
461.42885532742548
 30
0.0
 11
-393.10878816861168
 21
466.42885532742548
 31
0.0
 70
             128
 71
               5
 72
               1
 41
1.0
 42
0.0
  3
tfrom線あり
100
AcDbAlignedDimension
 13
-397.05220660171017
 23
546.67790215566629
 33
0.0
 14
-457.05220660171062
 24
546.67790215566629
 34
0.0
100
AcDbRotatedDimension
1001
ACAD
1000
DSTYLE
1002
{
1070
             279
1070
               2
1070
             340
1005
35
1070
               3
1000
φ<>
1070
             174
1070
               0
1070
             147
1040
5.0
1002
}
  0
DIMENSION
  5
155
100
AcDbEntity
  8
notes
370
               5
390
0
  6
Continuous
 62
               7
100
AcDbDimension
  2
*D10
 10
521.0
 20
-354.81658871444961
 30
0.0
 11
516.0
 21
-264.13272722768625
 31
0.0
 70
             128
 71
               5
 72
               1
 41
1.0
 42
0.0
  3
tfrom線あり
100
AcDbAlignedDimension
 13
522.59792861029382
 23
-176.7676456470108
 33
0.0
 14
522.59792861029382
 24
-354.81658871444961
 34
0.0
 50
90.0
100
AcDbRotatedDimension
1001
ACAD
1000
DSTYLE
1002
{
1070
             279
1070
               2
1070
             340
1005
35
1070
               3
1000
<>(深さ)
1070
             147
1040
5.0
1002
}
  0
DIMENSION
  5
156
100
AcDbEntity
  8
notes
370
               5
390
0
  6
Continuous
 62
               7
100
AcDbDimension
  2
*D11
 10
682.16618701047901
 20
-460.1327272276867
 30
0.0
 11
623.0
 21
-455.1327272276867
 31
0.0
 70
             128
 71
               5
 72
               1
 41
1.0
 42
0.0
  3
tfrom線あり
100
AcDbAlignedDimension
 13
562.16618701047901
 23
-370.68365397953312
 33
0.0
 14
682.16618701047901
 24
-376.78365397953348
 34
0.0
100
AcDbRotatedDimension
1001
ACAD
1000
DSTYLE
1002
{
1070
             279
1070
               2
1070
             340
1005
35
1070
             147
1040
5.0
1002
}
  0
INSERT
  5
157
100
AcDbEntity
  8
notes
390
0
 62
               7
100
AcDbBlockReference
  2
グループ-3
 10
2673.3428228982862
 20
3764.6627211914074
 30
0.0
  0
INSERT
  5
158
100
AcDbEntity
  8
notes
390
0
 62
               7
100
AcDbBlockReference
  2
グループ-4
 10
2673.3428228982862
 20
3764.6627211914074
 30
0.0
  0
DIMENSION
  5
159
100
AcDbEntity
  8
notes
370
               5
390
0
  6
Continuous
 62
               7
100
AcDbDimension
  2
*D16
 10
-452.31042659782133
 20
-449.27571075236665
 30
0.0
 11
-376.0
 21
-444.27571075236665
 31
0.0
 70
             128
 71
               5
 72
               1
 41
1.0
 42
0.0
  1
G1.1/2"
  3
tfrom線あり
100
AcDbAlignedDimension
 13
-400.55807753192585
 23
-403.27571075236665
 33
0.0
 14
-452.31042659782133
 24
-403.27571075236665
 34
0.0
100
AcDbRotatedDimension
1001
ACAD
1000
DSTYLE
1002
{
1070
             279
1070
               2
1070
             340
1005
35
1070
             174
1070
               0
1070
             147
1040
5.0
1002
}
  0
LINE
  5
15A
100
AcDbEntity
  8
PLT70-5907
370
               5
390
0
  6
Continuous
 62
               7
100
AcDbLine
 10
587.95272360645777
 20
-364.73435635186615
 30
0.0
 11
536.37965041450025
 21
-364.73435635186615
 31
0.0
  0
LINE
  5
15B
100
AcDbEntity
  8
PLT70-5907
370
               5
390
0
  6
Continuous
 62
               7
100
AcDbLine
 10
591.58045492046494
 20
-361.71313991628085
 30
0.0
 11
587.95272360645777
 21
-364.73435635186615
 31
0.0
  0
LINE
  5
15C
100
AcDbEntity
  8
PLT70-5907
370
               5
390
0
  6
Continuous
 62
               7
100
AcDbLine
 10
587.95272360645777
 20
-370.68365397953312
 30
0.0
 11
536.37965041450025
 21
-370.68365397953312
 31
0.0
  0
LINE
  5
15D
100
AcDbEntity
  8
PLT70-5907
370
               5
390
0
  6
Continuous
 62
               7
100
AcDbLine
 10
536.37965041450025
 20
-364.73435635186615
 30
0.0
 11
536.37965041450025
 21
-370.68365397953312
 31
0.0
  0
LINE
  5
15E
100
AcDbEntity
  8
PLT70-5907
370
               5
390
0
  6
Continuous
 62
               7
100
AcDbLine
 10
587.95272360645777
 20
-364.73435635186615
 30
0.0
 11
587.95272360645777
 21
-370.68365397953312
 31
0.0
  0
LWPOLYLINE
  5
15F
100
AcDbEntity
  8
PLT70-5907
370
               5
390
0
  6
Continuous
 62
               7
100
AcDbPolyline
 90
       31
 70
             128
 10
591.58045492046494
 20
-361.71313991628085
 42
-0.0012699680480762
 10
591.69689418845837
 20
-361.61659084569783
 10
591.95888384218324
 20
-361.40047495087856
 42
-0.0126801643760744
 10
592.61253183153804
 20
-360.88856923301773
 10
592.88571681241001
 20
-360.68558516231587
 42
-0.0101156611031025
 10
593.8646210742927
 20
-359.98851819761421
 10
593.86577851683569
 20
-359.98772878828277
 42
-0.0100912885150323
 10
594.8697012902403
 20
-359.3323110087631
 10
594.870665868797
 20
-359.33170868402431
 42
-0.0100699650999451
 10
595.89824095570475
 20
-358.71845675556051
 10
595.89900956743531
 20
-358.71801879762097
 42
-0.0100518833567555
 10
596.94887130608095
 20
-358.1474484826349
 10
596.94944037960613
 20
-358.14715386809803
 42
-0.0100375227465287
 10
598.02022387836587
 20
-357.61977928388478
 42
-0.0100305939739002
 10
599.11092971446851
 20
-357.13594258286957
 42
-0.0100226895364214
 10
600.21962215507938
 20
-356.69643120750516
 42
-0.0100192190288718
 10
601.34493212031884
 20
-356.30173902156366
 42
-0.0100202374048468
 10
602.48548967764327
 20
-355.95236031526292
 42
-0.0100256593303244
 10
603.63992808275907
 20
-355.64878846028387
 42
-0.0100416779411691
 10
604.80612924553316
 20
-355.39166712542828
 10
604.80687910248344
 20
-355.39151752236376
 42
-0.0100572473744136
 10
605.98397522455571
 20
-355.18119966515133
 10
605.98497487396162
 20
-355.18104172976564
 42
-0.0100762314277039
 10
607.17158713227172
 20
-355.01800267826729
 10
607.17284611138166
 20
-355.01785547783402
 42
-0.0100985712003717
 10
608.36759096444757
 20
-354.90257050611763
 10
608.44279323214914
 20
-354.89684417191802
 42
-0.0101224764357747
 10
609.4968059929397
 20
-354.83801688483618
 10
609.57147815439703
 20
-354.83536411770547
 42
-0.0076086004721965
 10
610.47761755217016
 20
-354.81697269380675
 42
-0.0012692147899877
 10
610.62888380813183
 20
-354.81658871444961
 42
-0.0012692147899877
  0
LWPOLYLINE
  5
160
100
AcDbEntity
  8
PLT70-5907
370
               5
390
0
  6
Continuous
 62
               7
100
AcDbPolyline
 90
        3
 70
             128
 10
662.16618701047901
 20
-176.7676456470108
 10
662.16618701047901
 20
-354.81658871444961
 10
610.40839686780873
 20
-354.81658871444961
  0
LWPOLYLINE
  5
161
100
AcDbEntity
  8
PLT70-5907
370
               5
390
0
  6
Continuous
 62
               7
100
AcDbPolyline
 90
        5
 70
             128
 10
682.16618701047901
 20
-176.7676456470108
 10
682.16618701047901
 20
-376.78365397953348
 10
662.16618701047901
 20
-376.78365397953348
 10
662.16618701047901
 20
-369.81658871444961
 10
601.04214018223774
 20
-369.81658871444961
  0
LINE
  5
162
100
AcDbEntity
  8
PLT70-5907
370
               5
390
0
  6
Continuous
 62
               7
100
AcDbLine
 10
280.47388178205301
 20
-176.7676456470108
 30
0.0
 11
682.16618701047901
 21
-176.7676456470108
 31
0.0
  0
LWPOLYLINE
  5
163
100
AcDbEntity
  8
PLT70-5907
370
               5
390
0
  6
Continuous
 62
               7
100
AcDbPolyline
 90
        5
 70
             128
 10
-127.05334239736203
 20
-176.7676456470108
 10
-727.05334239736248
 20
-176.7676456470108
 10
-727.05334239736248
 20
-376.76764564700534
 10
-127.05334239736203
 20
-376.76764564700534
 10
-127.05334239736203
 20
-176.7676456470108
  0
LWPOLYLINE
  5
164
100
AcDbEntity
  8
PLT70-5907
370
               5
390
0
  6
Continuous
 62
               7
100
AcDbPolyline
 90
       79
 70
             128
 10
-135.78025101347794
 20
690.23992556978646
 10
-718.32416218994103
 20
690.23992556978646
 42
-0.0095816825433348
 10
-718.33070225443498
 20
689.89867735842927
 10
-718.34674268151821
 20
689.48035147411792
 42
-0.0576056521144823
 10
-718.52565770636238
 20
688.32325849891458
 10
-718.67615456481371
 20
687.7762701633028
 42
-0.0748435788039227
 10
-719.60452221543983
 20
685.68562969963114
 10
-719.85868888355344
 20
685.28673747696939
 42
-0.0727494380348772
 10
-721.10412624697665
 20
683.84522452309329
 42
-0.0366820390617605
 10
-722.64461906863517
 20
682.69905457051118
 10
-722.65384499241873
 20
682.69318861171632
 42
-0.0746924941061793
 10
-724.4142075773957
 20
681.91290294046667
 10
-725.13634158067589
 20
681.71450677000075
 42
-0.0575043983776218
 10
-726.29107605432228
 20
681.53615889393313
 10
-726.70824730224695
 20
681.52014995948866
 42
-0.0095893313908233
 10
-727.04934439225826
 20
681.51360757181646
 10
-727.04934439225826
 20
320.83235393141376
 42
0.0047213775540176
 10
-727.04298914939818
 20
320.15934048141116
 10
-727.03349253030729
 20
319.65654439603532
 42
0.0188587491055295
 10
-726.93859084500309
 20
317.98157951525354
 10
-726.82881227084681
 20
316.82103189214968
 42
0.0374356286822316
 10
-726.15559845616417
 20
312.87902759471763
 10
-725.99561873465336
 20
312.23639289218863
 42
0.0372178319850431
 10
-724.33936735687212
 20
307.21133423640094
 42
0.0372136734100275
 10
-721.95647083724043
 20
302.48732937212799
 10
-721.95277901493728
 20
302.48119238809886
 42
0.0374519526313832
 10
-718.8857298871867
 20
298.15256881620189
 10
-718.8734109252232
 20
298.13768260465258
 42
0.037676719063871
 10
-715.16661842837993
 20
294.28905988226552
 10
-715.15072651849232
 20
294.2748708079389
 42
0.0375241037271511
 10
-710.932750292332
 20
291.04273352821201
 10
-710.92362593690223
 20
291.03677086126118
 42
0.0372471547731951
 10
-706.2902011266774
 20
288.47920013235625
 42
0.037196767071294
 10
-701.32874090728319
 20
286.63688466909434
 10
-701.01707775354498
 20
286.54686430365018
 42
0.0373590641086096
 10
-696.45614464152686
 20
285.59140036000508
 10
-695.30323893315699
 20
285.43853901949569
 42
0.0282353421907567
 10
-692.96665608627836
 20
285.26211214960404
 10
-692.12978225877487
 20
285.24628692673559
 42
0.0047269535494275
 10
-691.45691603063051
 20
285.23992556978646
 10
-162.64863296844032
 20
285.23992556978646
 42
0.0095912460539915
 10
-161.25693469991938
 20
285.26662426690564
 10
-160.9140219597648
 20
285.27978616316068
 42
0.0192600938960484
 10
-158.84315746002085
 20
285.43930704112472
 10
-157.84060538438644
 20
285.55551244923845
 42
0.0382529331571713
 10
-153.83046766513871
 20
286.33449248782381
 10
-153.1734700410575
 20
286.51514253418645
 42
0.037643933759262
 10
-148.20455985897024
 20
288.29289268026241
 10
-148.18207343697122
 20
288.30290313457135
 42
0.0369894828953801
 10
-143.57541572931586
 20
290.77652459424189
 10
-143.56632799883801
 20
290.78230766716251
 42
0.0365339471600241
 10
-139.38856313866563
 20
293.89129414298623
 42
0.0363483187347083
 10
-135.70642939107529
 20
297.57390150851279
 42
0.0365280787317747
 10
-132.59808858132374
 20
301.751848135817
 10
-132.59218834584135
 20
301.76112220298728
 42
0.0369950839972959
 10
-130.11902850338311
 20
306.36824410419285
 10
-130.10905337039003
 20
306.39065908445173
 42
0.0376452822551172
 10
-128.33195555203611
 20
311.35983982987773
 10
-128.15106184297383
 20
312.01807468573679
 42
0.0382141611534559
 10
-127.37280566897698
 20
316.02574736806855
 10
-127.25672529260146
 20
317.02705865308099
 42
0.0192655081691997
 10
-127.09719590468285
 20
319.09782567902676
 10
-127.08403557501333
 20
319.44072564952285
 42
0.0095904623213755
 10
-127.05734040246625
 20
320.83235393141376
 10
-127.05734040246625
 20
681.51587916312155
 42
-0.0095763032288374
 10
-127.39857737766033
 20
681.52241534001996
 10
-127.81684252377545
 20
681.53844442581976
 42
-0.0576047590133063
 10
-128.97380871017458
 20
681.71731224950554
 10
-129.52062057609601
 20
681.86774580490192
 42
-0.0748724648969659
 10
-131.61075423725742
 20
682.79596941636783
 10
-132.00940896146494
 20
683.05003510525967
 42
-0.072779014977857
 10
-133.4502304942207
 20
684.29524923946701
 42
-0.0366920654294678
 10
-134.59565562048874
 20
685.8354726364073
 10
-134.6015689983733
 20
685.84477822763938
 42
-0.0746788134010714
 10
-135.38127995801551
 20
687.60489103825194
 10
-135.4691212979742
 20
687.92486300186374
 42
-0.0574655333018641
 10
-135.77369855515735
 20
689.89839778807755
 10
-135.7737152175082
 20
689.89883241969073
 42
-0.0095797821846583
 10
-135.78025101347794
 20
690.23992556978646
 42
-0.0095797821846583
  0
LWPOLYLINE
  5
165
100
AcDbEntity
  8
PLT70-5907
370
               5
390
0
  6
Continuous
 62
               7
100
AcDbPolyline
 90
       47
 70
             128
 10
-147.05734040246625
 20
670.23992556978646
 10
-707.04934439225826
 20
670.23992556978646
 10
-707.04934439225826
 20
325.57634672736185
 42
0.0047298320492534
 10
-707.04570829831937
 20
325.19197656824781
 10
-707.03665730120656
 20
324.71363058328643
 42
0.0282470522450886
 10
-706.93578491832523
 20
323.37830609678895
 10
-706.84838886366424
 20
322.71944537159197
 42
0.0373556512733894
 10
-706.30222048141468
 20
320.11296465210125
 10
-706.25098381775069
 20
319.93560585082423
 42
0.0371865558016497
 10
-705.19839067012117
 20
317.10112368112186
 42
0.0372474927012507
 10
-703.7372275555208
 20
314.45403509367225
 10
-703.73379632069054
 20
314.44878451573595
 42
0.0375206977275237
 10
-701.88721049093783
 20
312.0389610542793
 10
-701.88010126145446
 20
312.03099850980652
 42
0.0377033547628099
 10
-699.67912029989157
 20
309.91131876610689
 10
-699.6705445164298
 20
309.90422440591192
 42
0.0374317228149468
 10
-697.19623319574794
 20
308.1515318319166
 10
-697.19249976156698
 20
308.14928636637569
 42
0.0372136118289968
 10
-694.49278575186736
 20
306.78779096420294
 42
0.037286324270875
 10
-691.6209678501682
 20
305.84196364838999
 10
-690.5961267752291
 20
305.58723089739215
 42
0.0561926932772487
 10
-688.14688818444529
 20
305.26365049873175
 10
-687.09623442240945
 20
305.2435945866041
 42
0.0047717025177967
 10
-686.71178743903101
 20
305.23992556978646
 10
-167.39716894699905
 20
305.23992556978646
 42
0.0047655740240367
 10
-167.0127145629458
 20
305.24358994465911
 10
-166.15140447233989
 20
305.26001035726586
 42
0.0469143860323073
 10
-164.06657774946507
 20
305.49622815782595
 10
-163.2242888322512
 20
305.67274830032284
 42
0.0372664038226798
 10
-160.31890779656987
 20
306.51160319471364
 42
0.0372186005499247
 10
-157.5701015858117
 20
307.77220271866008
 10
-157.56820188297297
 20
307.77325137238131
 42
0.0374940878035246
 10
-155.03405927251652
 20
309.43114372675791
 10
-154.87235004852573
 20
309.5551742108064
 42
0.0468914455870113
 10
-152.35851935992287
 20
311.88769961752041
 10
-152.22242144127586
 20
312.04006106875431
 42
0.0375156806232565
 10
-150.37486572901253
 20
314.44992530344143
 10
-150.37137668487003
 20
314.45526136662829
 42
0.0372481478245782
 10
-148.90934090524934
 20
317.10234104664141
 42
0.0372091476669937
 10
-147.85601845625069
 20
319.93698343860069
 10
-147.80456254498495
 20
320.11499267420186
 42
0.0373823304410828
 10
-147.25830668532308
 20
322.72047296006804
 10
-147.17090060044302
 20
323.37912659249832
 42
0.0282592383240083
 10
-147.07002719122647
 20
324.71390316771067
 10
-147.06097789069827
 20
325.19197637464822
 42
0.0047316432831829
 10
-147.05734040246625
 20
325.57634672736185
 10
-147.05734040246625
 20
670.23992556978646
  0
LWPOLYLINE
  5
166
100
AcDbEntity
  8
PLT70-5907
370
               5
390
0
  6
Continuous
 62
               7
100
AcDbPolyline
 90
        5
 70
             128
 10
522.05467897653307
 20
-369.81658871444961
 10
300.4738817820521
 20
-369.81658871444961
 10
300.4738817820521
 20
-376.78365397953348
 10
280.47388178205301
 20
-376.78365397953348
 10
280.47388178205301
 20
-176.7676456470108
  0
LWPOLYLINE
  5
167
100
AcDbEntity
  8
PLT70-5907
370
               5
390
0
  6
Continuous
 62
               7
100
AcDbPolyline
 90
        3
 70
             128
 10
300.4738817820521
 20
-176.7676456470108
 10
300.4738817820521
 20
-354.81658871444961
 10
513.5227218545615
 20
-354.81658871444961
  0
CIRCLE
  5
168
100
AcDbEntity
  8
PLT70-5907
370
               5
390
0
  6
Continuous
 62
               7
100
AcDbCircle
 10
-427.05220660171017
 20
570.23992556978646
 30
0.0
 40
30.0
  0
CIRCLE
  5
169
100
AcDbEntity
  8
PLT70-5907
370
               5
390
0
  6
Continuous
 62
               7
100
AcDbCircle
 10
-427.05220660171017
 20
570.23992556978646
 30
0.0
 40
40.0
  0
INSERT
  5
16A
100
AcDbEntity
  8
PLT70-5907
390
0
 62
               7
100
AcDbBlockReference
  2
グループ-5
 10
2673.3428228982862
 20
3764.6627211914074
 30
0.0
  0
LINE
  5
16B
100
AcDbEntity
  8
PLT70-5907
370
               5
390
0
  6
Continuous
 62
               7
100
AcDbLine
 10
532.75191910049307
 20
-361.71313991628085
 30
0.0
 11
536.37965041449843
 21
-364.73435635186615
 31
0.0
  0
LINE
  5
16C
100
AcDbEntity
  8
PLT70-5907
370
               5
390
0
  6
Continuous
 62
               7
100
AcDbLine
 10
536.37965041449843
 20
-364.73435635186615
 30
0.0
 11
536.37965041449843
 21
-370.68365397953312
 31
0.0
  0
LWPOLYLINE
  5
16D
100
AcDbEntity
  8
PLT70-5907
370
               5
390
0
  6
Continuous
 62
               7
100
AcDbPolyline
 90
       31
 70
             128
 10
532.75191910049307
 20
-361.71313991628085
 42
0.0012699680487756
 10
532.6354798326779
 20
-361.61659084584608
 10
532.37349017877477
 20
-361.40047495087856
 42
0.0126801643768114
 10
531.71984218940224
 20
-360.888569233005
 10
531.44665720854164
 20
-360.68558516231133
 42
0.0101156611026015
 10
530.4677529466644
 20
-359.98851819761421
 10
530.46659550415461
 20
-359.9877287883055
 42
0.0100912885155276
 10
529.4626727307168
 20
-359.3323110087631
 10
529.46170815212508
 20
-359.33170868400248
 42
0.0100699651000188
 10
528.43413306525235
 20
-358.71845675556051
 10
528.43336445351451
 20
-358.71801879761642
 42
0.0100518833568936
 10
527.38350271487707
 20
-358.1474484826349
 10
527.38293364137598
 20
-358.14715386810985
 42
0.0100375227459886
 10
526.31215014259215
 20
-357.61977928388478
 42
0.0100237955579027
 10
525.22144430648859
 20
-357.13594258286957
 42
0.0100198446232269
 10
524.11275186587773
 20
-356.69643120750516
 42
0.0100201969656502
 10
522.98744190063917
 20
-356.30173902156366
 42
0.0100251283175539
 10
521.84688434331383
 20
-355.95236031526292
 42
0.010034486062405
 10
520.69244593819803
 20
-355.64878846028387
 42
0.0100416779412707
 10
519.52624477543441
 20
-355.3916671254301
 10
519.52549491847458
 20
-355.39151752236376
 42
0.010057247374377
 10
518.34839879637912
 20
-355.18119966514769
 10
518.34739914699639
 20
-355.18104172976564
 42
0.0100762314274249
 10
517.16078688872722
 20
-355.01800267827184
 10
517.15952790957635
 20
-355.01785547783402
 42
0.0100985712005518
 10
515.96478305650726
 20
-354.90257050611763
 10
515.88958078878886
 20
-354.89684417191711
 42
0.0101224764364117
 10
514.83556802801741
 20
-354.83801688483618
 10
514.76089586658009
 20
-354.83536411770547
 42
0.0076086004716063
 10
513.85475646878604
 20
-354.81697269380675
 42
0.0012691707765561
 10
513.70349021282436
 20
-354.81658871444961
 42
0.0012691707765561
  0
INSERT
  5
16E
100
AcDbEntity
  8
PLT70-5907
390
0
 62
               7
100
AcDbBlockReference
  2
グループ-6
 10
2673.3428228982862
 20
3764.6627211914074
 30
0.0
  0
LWPOLYLINE
  5
16F
100
AcDbEntity
  8
PLT70-5907
370
               5
390
0
  6
STYLE_12
 62
               7
100
AcDbPolyline
 90
        3
 70
             128
 10
-147.05334239736203
 20
-176.7676456470108
 10
-147.05334239736203
 20
-354.35461718072747
 10
-378.40987724144452
 20
-354.35461718072747
  0
POLYLINE
  5
170
100
AcDbEntity
  8
PLT70-5907
370
               5
390
0
  6
STYLE_12
 62
               7
100
AcDb2dPolyline
 66
               1
 10
0.0
 20
0.0
 30
0.0
 75
               5
  0
VERTEX
  5
171
100
AcDbEntity
  8
PLT70-5907
370
               5
390
0
  6
STYLE_12
 62
               7
100
AcDbVertex
100
AcDb2dVertex
 10
-147.05334239736203
 20
-376.78365397953348
 30
0.0
  0
VERTEX
  5
172
100
AcDbEntity
  8
PLT70-5907
370
               5
390
0
  6
STYLE_12
 62
               7
100
AcDbVertex
100
AcDb2dVertex
 10
-147.05334239736203
 20
-369.81658871444961
 30
0.0
  0
VERTEX
  5
173
100
AcDbEntity
  8
PLT70-5907
370
               5
390
0
  6
STYLE_12
 62
               7
100
AcDbVertex
100
AcDb2dVertex
 10
-386.9417519465851
 20
-369.85601978667
 30
0.0
  0
SEQEND
  5
174
100
AcDbEntity
  8
PLT70-5907
370
               5
390
0
  6
STYLE_12
 62
               7
  0
LWPOLYLINE
  5
175
100
AcDbEntity
  8
PLT70-5907
370
               5
390
0
  6
STYLE_12
 62
               7
100
AcDbPolyline
 90
        3
 70
             128
 10
-707.05334239736248
 20
-176.7676456470108
 10
-707.05334239736248
 20
-354.35461718072747
 10
-475.69680755328
 20
-354.35461718072747
  0
POLYLINE
  5
176
100
AcDbEntity
  8
PLT70-5907
370
               5
390
0
  6
STYLE_12
 62
               7
100
AcDb2dPolyline
 66
               1
 10
0.0
 20
0.0
 30
0.0
 75
               5
  0
VERTEX
  5
177
100
AcDbEntity
  8
PLT70-5907
370
               5
390
0
  6
STYLE_12
 62
               7
100
AcDbVertex
100
AcDb2dVertex
 10
-707.05334239736248
 20
-376.78365397953348
 30
0.0
  0
VERTEX
  5
178
100
AcDbEntity
  8
PLT70-5907
370
               5
390
0
  6
STYLE_12
 62
               7
100
AcDbVertex
100
AcDb2dVertex
 10
-707.05334239736248
 20
-369.81658871444961
 30
0.0
  0
VERTEX
  5
179
100
AcDbEntity
  8
PLT70-5907
370
               5
390
0
  6
STYLE_12
 62
               7
100
AcDbVertex
100
AcDb2dVertex
 10
-467.16493284813942
 20
-369.85601978667
 30
0.0
  0
SEQEND
  5
17A
100
AcDbEntity
  8
PLT70-5907
370
               5
390
0
  6
STYLE_12
 62
               7
  0
LWPOLYLINE
  5
17B
100
AcDbEntity
  8
PLT70-5907
370
               5
390
0
  6
STYLE_12
 62
               7
100
AcDbPolyline
 90
       79
 70
             128
 10
751.26909337878033
 20
690.23992556978646
 10
168.72518220231723
 20
690.23992556978646
 42
-0.0095816825433356
 10
168.71864213782328
 20
689.89867735842927
 10
168.70260171074005
 20
689.48035147411792
 42
-0.0576056521141302
 10
168.52368668589452
 20
688.32325849890913
 10
168.37318982744455
 20
687.7762701633028
 42
-0.0748435788038604
 10
167.44482217681798
 20
685.68562969963023
 10
167.19065550870482
 20
685.28673747696939
 42
-0.0727494380348384
 10
165.94521814528161
 20
683.84522452309329
 42
-0.0366820390618349
 10
164.40472532362173
 20
682.69905457051073
 10
164.39549939983954
 20
682.69318861171632
 42
-0.0746924941062221
 10
162.63513681486029
 20
681.91290294046621
 10
161.91300281158465
 20
681.71450677000121
 42
-0.0575043983776542
 10
160.75826833793599
 20
681.53615889393313
 10
160.34109709001132
 20
681.52014995948866
 42
-0.0095893313908233
 10
160.0
 20
681.51360757181646
 10
160.0
 20
320.83235393141376
 42
0.0047213775540146
 10
160.00635524286008
 20
320.15934048141116
 10
160.01585186195098
 20
319.65654439603532
 42
0.0188587491056707
 10
160.11075354725608
 20
317.98157951524627
 10
160.22053212141145
 20
316.82103189214968
 42
0.0374356286822731
 10
160.893745936095
 20
312.87902759471399
 10
161.05372565760354
 20
312.23639289219409
 42
0.0372178319850018
 10
162.70997703538615
 20
307.21133423640094
 42
0.0372136734100037
 10
165.09287355501692
 20
302.48732937212935
 10
165.09656537732099
 20
302.48119238809886
 42
0.0374519526313071
 10
168.16361450506383
 20
298.15256881621144
 10
168.17593346703507
 20
298.13768260465258
 42
0.0376767190639159
 10
171.88272596388151
 20
294.28905988226279
 10
171.89861787376913
 20
294.27487080793662
 42
0.0375241037272228
 10
176.11659409992626
 20
291.04273352821201
 10
176.12571845536468
 20
291.03677086125526
 42
0.0372471547732424
 10
180.75914326558086
 20
288.47920013235625
 42
0.0371967670712645
 10
185.72060348496825
 20
286.63688466909662
 10
186.03226663871419
 20
286.54686430364973
 42
0.0373590641085905
 10
190.5931997507314
 20
285.59140036000508
 10
191.74610545909582
 20
285.43853901949615
 42
0.0282353421906342
 10
194.0826883059799
 20
285.26211214960404
 10
194.91956213348067
 20
285.24628692673559
 42
0.0047269535493599
 10
195.59242836162775
 20
285.23992556978646
 10
724.40071142381794
 20
285.23992556978646
 42
0.0095912460539147
 10
725.79240969232706
 20
285.26662426690518
 10
726.13532243249347
 20
285.27978616316068
 42
0.0192600938960365
 10
728.20618693223787
 20
285.43930704112472
 10
729.20873900787183
 20
285.55551244923845
 42
0.0382529331571481
 10
733.21887672712296
 20
286.33449248782426
 10
733.8758743512019
 20
286.51514253418691
 42
0.0376439337593009
 10
738.84478453328802
 20
288.29289268026241
 10
738.86727095528022
 20
288.30290313456862
 42
0.0369894828953526
 10
743.4739286629424
 20
290.77652459424189
 10
743.48301639342117
 20
290.78230766716297
 42
0.0365339471600213
 10
747.66078125359263
 20
293.89129414298623
 42
0.0363483187347089
 10
751.34291500118297
 20
297.57390150851279
 42
0.0365280787317861
 10
754.45125581093589
 20
301.75184813581882
 10
754.45715604641691
 20
301.76112220298728
 42
0.0369950839973217
 10
756.93031588887652
 20
306.36824410419604
 10
756.94029102186823
 20
306.39065908445173
 42
0.0376452822550902
 10
758.71738884022238
 20
311.35983982987773
 10
758.89828254928511
 20
312.01807468573861
 42
0.0382141611534336
 10
759.67653872328128
 20
316.02574736806855
 10
759.7926190996568
 20
317.02705865308462
 42
0.019265508169331
 10
759.95214848757541
 20
319.09782567902676
 10
759.96530881724561
 20
319.4407256495374
 42
0.0095904623216744
 10
759.99200398979201
 20
320.83235393141376
 10
759.99200398979201
 20
681.51587916312155
 42
-0.0095763032281176
 10
759.65076701458179
 20
681.52241534002042
 10
759.23250186848281
 20
681.53844442581976
 42
-0.0576047590136847
 10
758.07553568208823
 20
681.71731224950463
 10
757.52872381616226
 20
681.86774580490192
 42
-0.0748724648967838
 10
755.43859015499788
 20
682.79596941636964
 10
755.03993543079559
 20
683.0500351052583
 42
-0.0727790149779727
 10
753.59911389803756
 20
684.29524923946701
 42
-0.0366920654294879
 10
752.45368877176861
 20
685.83547263640912
 10
752.44777539388497
 20
685.84477822763938
 42
-0.0746788134012038
 10
751.66806443424389
 20
687.60489103824875
 10
751.58022309428384
 20
687.92486300186556
 42
-0.0574655333019386
 10
751.27564583710091
 20
689.89839778807755
 10
751.27562917474938
 20
689.89883241970529
 42
-0.009579782183725
 10
751.26909337878033
 20
690.23992556978646
 42
-0.009579782183725
  0
LWPOLYLINE
  5
17C
100
AcDbEntity
  8
PLT70-5907
370
               5
390
0
  6
STYLE_12
 62
               7
100
AcDbPolyline
 90
       47
 70
             128
 10
739.99200398979201
 20
670.23992556978646
 10
180.0
 20
670.23992556978646
 10
180.0
 20
325.57634672736185
 42
0.004729832049249
 10
180.00363609393889
 20
325.19197656824781
 10
180.0126870910517
 20
324.71363058328643
 42
0.0282470522450748
 10
180.11355947393304
 20
323.37830609678895
 10
180.20095552859402
 20
322.71944537159197
 42
0.0373556512733759
 10
180.74712391084358
 20
320.11296465210125
 10
180.79836057450484
 20
319.93560585083333
 42
0.0371865558015259
 10
181.85095372213709
 20
317.10112368112186
 42
0.0372474927012908
 10
183.31211683673791
 20
314.45403509367179
 10
183.31554807156772
 20
314.44878451573595
 42
0.03752069772734
 10
185.16213390131452
 20
312.03896105428521
 10
185.16924313080381
 20
312.03099850980652
 42
0.0377033547628069
 10
187.3702240923667
 20
309.91131876610689
 10
187.37879987582028
 20
309.90422440591828
 42
0.0374317228147593
 10
189.85311119651033
 20
308.1515318319166
 10
189.85684463069538
 20
308.14928636637342
 42
0.0372136118290856
 10
192.5565586403909
 20
306.78779096420294
 42
0.0372863242708362
 10
195.42837654208915
 20
305.84196364838999
 10
196.45321761702917
 20
305.58723089739215
 42
0.0561926932772487
 10
198.90245620781297
 20
305.26365049873175
 10
199.95310996985245
 20
305.24359458660365
 42
0.0047717025173546
 10
200.33755695322725
 20
305.23992556978646
 10
719.65217544525922
 20
305.23992556978646
 42
0.004765574023728
 10
720.03662982928859
 20
305.24358994465865
 10
720.89793991991837
 20
305.26001035726586
 42
0.046914386032225
 10
722.9827666427916
 20
305.4962281578255
 10
723.82505556000524
 20
305.67274830032284
 42
0.0372664038227278
 10
726.73043659568839
 20
306.51160319471364
 42
0.0372186005500095
 10
729.47924280644929
 20
307.7722027186619
 10
729.48114250928529
 20
307.77325137238131
 42
0.0374940878034397
 10
732.01528511974016
 20
309.43114372675655
 10
732.17699434373253
 20
309.5551742108064
 42
0.0468914455870227
 10
734.6908250323354
 20
311.88769961752041
 10
734.82692295098127
 20
312.04006106875295
 42
0.0375156806232444
 10
736.67447866324574
 20
314.44992530344143
 10
736.67796770738869
 20
314.4552613666292
 42
0.0372481478246131
 10
738.14000348700893
 20
317.10234104664141
 42
0.0372091476668615
 10
739.19332593600598
 20
319.93698343859478
 10
739.244781847274
 20
320.11499267420368
 42
0.0373823304409751
 10
739.79103770693519
 20
322.72047296006804
 10
739.87844379181524
 20
323.37912659249832
 42
0.0282592383240196
 10
739.97931720103179
 20
324.71390316771067
 10
739.98836650155931
 20
325.19197637459001
 42
0.0047316432828119
 10
739.99200398979201
 20
325.57634672736185
 10
739.99200398979201
 20
670.23992556978646
  0
CIRCLE
  5
17D
100
AcDbEntity
  8
PLT70-5907
370
               5
390
0
  6
STYLE_12
 62
               7
100
AcDbCircle
 10
459.99713779054809
 20
570.23992556978646
 30
0.0
 40
30.0
  0
LINE
  5
17E
100
AcDbEntity
  8
PLT70-5907
370
              15
390
0
  6
Continuous
 62
               7
100
AcDbLine
 10
110.0
 20
689.67569307165422
 30
0.0
 11
816.0
 21
689.67569307165422
 31
0.0
  0
LINE
  5
17F
100
AcDbEntity
  8
PLT70-5907
370
              15
390
0
  6
Continuous
 62
               7
100
AcDbLine
 10
769.66195279416343
 20
689.67569307165422
 30
0.0
 11
812.66195279416343
 21
732.67569307165422
 31
0.0
  0
LINE
  5
180
100
AcDbEntity
  8
PLT70-5907
370
              15
390
0
  6
Continuous
 62
               7
100
AcDbLine
 10
786.16195279416343
 20
689.67569307165422
 30
0.0
 11
829.16195279416343
 21
732.67569307165422
 31
0.0
  0
LINE
  5
181
100
AcDbEntity
  8
PLT70-5907
370
              15
390
0
  6
Continuous
 62
               7
100
AcDbLine
 10
805.16195279416343
 20
689.67569307165422
 30
0.0
 11
848.16195279416343
 21
732.67569307165422
 31
0.0
  0
CIRCLE
  5
182
100
AcDbEntity
  8
PLT70-5907
370
               5
390
0
  6
Continuous
 62
               7
100
AcDbCircle
 10
459.99713779054809
 20
570.23992556978646
 30
0.0
 40
69.999999999999929
  0
DIMENSION
  5
183
100
AcDbEntity
  8
PLT70-5907
370
               5
390
0
  6
Continuous
 62
               7
100
AcDbDimension
  2
*D19
 10
413.99427558108846
 20
517.478797184021
 30
0.0
 11
702.00000000000023
 21
778.98077164773076
 31
0.0
 70
               3
 71
               5
 72
               1
 41
1.0
 42
0.0
  3
tfrom線あり
100
AcDbDiametricDimension
 15
506.00000000000773
 25
623.00105395555192
 35
0.0
 40
206.94364530308658
1001
ACAD
1000
DSTYLE
1002
{
1070
             289
1070
               0
1070
             342
1005
48
1070
             340
1005
35
1070
              75
1070
               1
1070
              76
1070
               1
1070
               3
1000

1070
             174
1070
               0
1070
             147
1040
5.0
1002
}
  0
ENDSEC
  0
SECTION
  2
OBJECTS
  0
DICTIONARY
  5
19
100
AcDbDictionary
280
               0
281
               1
  3
ACAD_GROUP
350
1A
  3
ACAD_MLINESTYLE
350
1B
  3
ACAD_LAYOUT
350
1E
  3
ACAD_PLOTSETTINGS
350
22
  3
ACAD_PLOTSTYLENAME
350
1F
  0
DICTIONARY
  5
1A
102
{ACAD_REACTORS
330
19
102
}
100
AcDbDictionary
280
               0
281
               1
  0
DICTIONARY
  5
1B
102
{ACAD_REACTORS
330
19
102
}
100
AcDbDictionary
280
               0
281
               1
  3
Standard
350
1C
  0
MLINESTYLE
  5
1C
102
{ACAD_REACTORS
330
1B
102
}
100
AcDbMlineStyle
  2
Standard
 70
               0
  3

 62
               0
 51
90.0
 52
90.0
 71
               2
 49
0.5
 62
             256
  6
ByLayer
 49
-0.5
 62
             256
  6
ByLayer
  0
ACDBDICTIONARYWDFLT
  5
1F
102
{ACAD_REACTORS
330
19
102
}
100
AcDbDictionary
281
               1
  3
Normal
350
1D
100
AcDbDictionaryWithDefault
340
1D
  0
ACDBPLACEHOLDER
  5
1D
102
{ACAD_REACTORS
330
1F
102
}
  0
LAYOUT
  5
20
102
{ACAD_REACTORS
330
1E
102
}
100
AcDbPlotSettings
  1

  2

  4

  6

 40
0.0
 41
0.0
 42
0.0
 43
0.0
 44
0.0
 45
0.0
 46
0.0
 47
0.0
 48
0.0
 49
0.0
140
0.0
141
0.0
142
1.0
143
1.0
 70
            1024
 72
               0
 73
               0
 74
               0
  7

 75
               0
147
1.0
148
0.0
149
0.0
100
AcDbLayout
  1
Model
 70
               0
 71
               0
 10
0.0
 20
0.0
 11
0.0
 21
0.0
 12
0.0
 22
0.0
 32
0.0
 14
0.0
 24
0.0
 34
0.0
 15
0.0
 25
0.0
 35
0.0
146
0.0
 13
0.0
 23
0.0
 33
0.0
 16
0.0
 26
0.0
 36
0.0
 17
0.0
 27
0.0
 37
0.0
 76
               0
330
A
331
0
345
0
346
0
  0
LAYOUT
  5
21
102
{ACAD_REACTORS
330
1E
102
}
100
AcDbPlotSettings
  1

  2

  4

  6

 40
0.0
 41
0.0
 42
0.0
 43
0.0
 44
0.0
 45
0.0
 46
0.0
 47
0.0
 48
0.0
 49
0.0
140
0.0
141
0.0
142
1.0
143
1.0
 70
               0
 72
               0
 73
               0
 74
               0
  7

 75
               0
147
1.0
148
0.0
149
0.0
100
AcDbLayout
  1
Layout1
 70
               0
 71
               0
 10
0.0
 20
0.0
 11
0.0
 21
0.0
 12
0.0
 22
0.0
 32
0.0
 14
0.0
 24
0.0
 34
0.0
 15
0.0
 25
0.0
 35
0.0
146
0.0
 13
0.0
 23
0.0
 33
0.0
 16
0.0
 26
0.0
 36
0.0
 17
0.0
 27
0.0
 37
0.0
 76
               0
330
B
331
0
345
0
346
0
  0
DICTIONARY
  5
1E
102
{ACAD_REACTORS
330
19
102
}
100
AcDbDictionary
280
               0
281
               1
  3
Layout1
350
21
  3
Model
350
20
  0
DICTIONARY
  5
22
102
{ACAD_REACTORS
330
19
102
}
100
AcDbDictionary
280
               0
281
               1
  0
ENDSEC
  0
EOF
