  0
SECTION
  2
HEADER
  9
$ACADVER
  1
AC1015
  9
$ACADMAINTVER
 70
               6
  9
$DWGCODEPAGE
  3
ANSI_932
  9
$INSBASE
 10
0.0
 20
0.0
 30
0.0
  9
$EXTMIN
 10
-975.00000000024124
 20
-1418.7614075562062
 30
-14.834305555555552
  9
$EXTMAX
 10
975.00000000024124
 20
1418.7614075562064
 30
14.834305555555552
  9
$LIMMIN
 10
0.0
 20
0.0
  9
$LIMMAX
 10
0.0
 20
0.0
  9
$ORTHOMODE
 70
               0
  9
$REGENMODE
 70
               1
  9
$FILLMODE
 70
               1
  9
$QTEXTMODE
 70
               0
  9
$MIRRTEXT
 70
               1
  9
$LTSCALE
 40
50.799999999999997
  9
$ATTMODE
 70
               1
  9
$TEXTSIZE
 40
0.2
  9
$TRACEWID
 40
1.0
  9
$TEXTSTYLE
  7
Standard
  9
$CLAYER
  8
info
  9
$CELTYPE
  6
Continuous
  9
$CECOLOR
 62
             256
  9
$CELTSCALE
 40
1.0
  9
$DISPSILH
 70
               0
  9
$DIMSCALE
 40
1.0
  9
$DIMASZ
 40
31.75
  9
$DIMEXO
 40
0.0
  9
$DIMDLI
 40
6.9999999999999396
  9
$DIMRND
 40
0.0
  9
$DIMDLE
 40
0.0
  9
$DIMEXE
 40
19.999999999996199
  9
$DIMTP
 40
0.0
  9
$DIMTM
 40
0.0
  9
$DIMTXT
 40
24.432617187500004
  9
$DIMCEN
 40
0.0
  9
$DIMTSZ
 40
0.0
  9
$DIMTOL
 70
               0
  9
$DIMLIM
 70
               0
  9
$DIMTIH
 70
               0
  9
$DIMTOH
 70
               0
  9
$DIMSE1
 70
               0
  9
$DIMSE2
 70
               0
  9
$DIMTAD
 70
               1
  9
$DIMZIN
 70
              11
  9
$DIMBLK
  1
VW_FILLEDARROW
  9
$DIMASO
 70
               1
  9
$DIMSHO
 70
               1
  9
$DIMPOST
  1
<>
  9
$DIMAPOST
  1
[]
  9
$DIMALT
 70
               0
  9
$DIMALTD
 70
               1
  9
$DIMALTF
 40
1.0
  9
$DIMLFAC
 40
1.0
  9
$DIMTOFL
 70
               0
  9
$DIMTVP
 40
0.0
  9
$DIMTIX
 70
               1
  9
$DIMSOXD
 70
               0
  9
$DIMSAH
 70
               0
  9
$DIMBLK1
  1

  9
$DIMBLK2
  1

  9
$DIMSTYLE
  2
JIS
  9
$DIMCLRD
 70
               0
  9
$DIMCLRE
 70
               0
  9
$DIMCLRT
 70
               0
  9
$DIMTFAC
 40
1.0
  9
$DIMGAP
 40
1.00000000000108
  9
$DIMJUST
 70
               0
  9
$DIMSD1
 70
               0
  9
$DIMSD2
 70
               0
  9
$DIMTOLJ
 70
               1
  9
$DIMTZIN
 70
              11
  9
$DIMALTZ
 70
              11
  9
$DIMALTTZ
 70
              11
  9
$DIMUPT
 70
               0
  9
$DIMDEC
 70
               1
  9
$DIMTDEC
 70
               1
  9
$DIMALTU
 70
               2
  9
$DIMALTTD
 70
               2
  9
$DIMTXSTY
  7
ＭＳ ゴシック
  9
$DIMAUNIT
 70
               0
  9
$DIMADEC
 70
               2
  9
$DIMALTRND
 40
0.0
  9
$DIMAZIN
 70
               0
  9
$DIMDSEP
 70
              46
  9
$DIMATFIT
 70
               0
  9
$DIMFRAC
 70
               2
  9
$DIMLDRBLK
  1

  9
$DIMLUNIT
 70
               2
  9
$DIMLWD
 70
              -2
  9
$DIMLWE
 70
              -2
  9
$DIMTMOVE
 70
               0
  9
$LUNITS
 70
               2
  9
$LUPREC
 70
               4
  9
$SKETCHINC
 40
0.1
  9
$FILLETRAD
 40
0.0
  9
$AUNITS
 70
               0
  9
$AUPREC
 70
               0
  9
$MENU
  1
acad
  9
$ELEVATION
 40
0.0
  9
$PELEVATION
 40
0.0
  9
$THICKNESS
 40
0.0
  9
$LIMCHECK
 70
               0
  9
$CHAMFERA
 40
0.0
  9
$CHAMFERB
 40
0.0
  9
$CHAMFERC
 40
0.0
  9
$CHAMFERD
 40
0.0
  9
$SKPOLY
 70
               0
  9
$TDCREATE
 40
2455887.445000000
  9
$TDUCREATE
 40
0.000000000
  9
$TDUPDATE
 40
2455887.445000000
  9
$TDUUPDATE
 40
0.000000000
  9
$TDINDWG
 40
0.0000000000
  9
$TDUSRTIMER
 40
0.0000000000
  9
$USRTIMER
 70
               1
  9
$ANGBASE
 50
0.0
  9
$ANGDIR
 70
               0
  9
$PDMODE
 70
               1
  9
$PDSIZE
 40
-2.0
  9
$PLINEWID
 40
0.0
  9
$SPLFRAME
 70
               0
  9
$SPLINETYPE
 70
               6
  9
$SPLINESEGS
 70
               8
  9
$HANDSEED
  5
2D4
  9
$SURFTAB1
 70
               6
  9
$SURFTAB2
 70
               6
  9
$SURFTYPE
 70
               6
  9
$SURFU
 70
               6
  9
$SURFV
 70
               6
  9
$UCSBASE
  2

  9
$UCSNAME
  2

  9
$UCSORG
 10
0.0
 20
0.0
 30
0.0
  9
$UCSXDIR
 10
1.0
 20
0.0
 30
0.0
  9
$UCSYDIR
 10
0.0
 20
1.0
 30
0.0
  9
$UCSORTHOREF
  2

  9
$UCSORTHOVIEW
 70
               0
  9
$UCSORGTOP
 10
0.0
 20
0.0
 30
0.0
  9
$UCSORGBOTTOM
 10
0.0
 20
0.0
 30
0.0
  9
$UCSORGLEFT
 10
0.0
 20
0.0
 30
0.0
  9
$UCSORGRIGHT
 10
0.0
 20
0.0
 30
0.0
  9
$UCSORGFRONT
 10
0.0
 20
0.0
 30
0.0
  9
$UCSORGBACK
 10
0.0
 20
0.0
 30
0.0
  9
$PUCSBASE
  2

  9
$PUCSNAME
  2

  9
$PUCSORG
 10
0.0
 20
0.0
 30
0.0
  9
$PUCSXDIR
 10
1.0
 20
0.0
 30
0.0
  9
$PUCSYDIR
 10
0.0
 20
1.0
 30
0.0
  9
$PUCSORTHOREF
  2

  9
$PUCSORTHOVIEW
 70
               0
  9
$PUCSORGTOP
 10
0.0
 20
0.0
 30
0.0
  9
$PUCSORGBOTTOM
 10
0.0
 20
0.0
 30
0.0
  9
$PUCSORGLEFT
 10
0.0
 20
0.0
 30
0.0
  9
$PUCSORGRIGHT
 10
0.0
 20
0.0
 30
0.0
  9
$PUCSORGFRONT
 10
0.0
 20
0.0
 30
0.0
  9
$PUCSORGBACK
 10
0.0
 20
0.0
 30
0.0
  9
$USERI1
 70
               0
  9
$USERI2
 70
               0
  9
$USERI3
 70
               0
  9
$USERI4
 70
               0
  9
$USERI5
 70
               0
  9
$USERR1
 40
0.0
  9
$USERR2
 40
0.0
  9
$USERR3
 40
0.0
  9
$USERR4
 40
0.0
  9
$USERR5
 40
0.0
  9
$WORLDVIEW
 70
               1
  9
$SHADEDGE
 70
               3
  9
$SHADEDIF
 70
              70
  9
$TILEMODE
 70
               1
  9
$MAXACTVP
 70
              64
  9
$PINSBASE
 10
0.0
 20
0.0
 30
0.0
  9
$PLIMCHECK
 70
               0
  9
$PEXTMIN
 10
1.0000000000000000E+20
 20
1.0000000000000000E+20
 30
1.0000000000000000E+20
  9
$PEXTMAX
 10
-1.0000000000000000E+20
 20
-1.0000000000000000E+20
 30
-1.0000000000000000E+20
  9
$PLIMMIN
 10
0.0
 20
0.0
  9
$PLIMMAX
 10
12.0
 20
9.0
  9
$UNITMODE
 70
               0
  9
$VISRETAIN
 70
               0
  9
$PLINEGEN
 70
               1
  9
$PSLTSCALE
 70
               0
  9
$TREEDEPTH
 70
            3020
  9
$CMLSTYLE
  2
Standard
  9
$CMLJUST
 70
               0
  9
$CMLSCALE
 40
1.0
  9
$PROXYGRAPHICS
 70
               0
  9
$MEASUREMENT
 70
               1
  9
$CELWEIGHT
370
               0
  9
$ENDCAPS
280
               0
  9
$JOINSTYLE
280
               0
  9
$LWDISPLAY
290
               1
  9
$INSUNITS
 70
               4
  9
$HYPERLINKBASE
  1

  9
$STYLESHEET
  1

  9
$XEDIT
290
               1
  9
$CEPSNTYPE
380
               0
  9
$PSTYLEMODE
290
               1
  9
$FINGERPRINTGUID
  2

  9
$VERSIONGUID
  2

  9
$EXTNAMES
290
               1
  9
$PSVPSCALE
 40
0.0
  0
ENDSEC
  0
SECTION
  2
CLASSES
  0
CLASS
  1
LWPOLYLINE
  2
AcDbPolyline
  3
AutoCAD 2000
 90
        0
280
               0
281
               1
  0
CLASS
  1
IMAGE
  2
AcDbRasterImage
  3
ISM
 90
      127
280
               0
281
               1
  0
CLASS
  1
OLE2FRAME
  2
AcDbOle2Frame
  3
AutoCAD 2000
 90
        0
280
               0
281
               1
  0
CLASS
  1
HATCH
  2
AcDbHatch
  3
AutoCAD 2000
 90
        0
280
               0
281
               1
  0
CLASS
  1
DICTIONARYVAR
  2
AcDbDictionaryVar
  3
AutoCAD 2000
 90
        0
280
               0
281
               0
  0
CLASS
  1
RASTERVARIABLES
  2
AcDbRasterVariables
  3
ISM
 90
        0
280
               0
281
               0
  0
CLASS
  1
IMAGEDEF
  2
AcDbRasterImageDef
  3
ISM
 90
        0
280
               0
281
               0
  0
CLASS
  1
IMAGEDEF_REACTOR
  2
AcDbRasterImageDefReactor
  3
ISM
 90
        1
280
               0
281
               0
  0
CLASS
  1
IDBUFFER
  2
AcDbIdBuffer
  3
AutoCAD 2000
 90
        0
280
               0
281
               0
  0
CLASS
  1
SPATIAL_FILTER
  2
AcDbSpatialFilter
  3
AutoCAD 2000
 90
        0
280
               0
281
               0
  0
CLASS
  1
XRECORD
  2
AcDbXrecord
  3
AutoCAD 2000
 90
        0
280
               0
281
               0
  0
CLASS
  1
SORTENTSTABLE
  2
AcDbSortentsTable
  3
AutoCAD 2000
 90
        0
280
               0
281
               0
  0
CLASS
  1
LAYER_INDEX
  2
AcDbLayerIndex
  3
AutoCAD 2000
 90
        0
280
               0
281
               0
  0
CLASS
  1
SPATIAL_INDEX
  2
AcDbSpatialIndex
  3
AutoCAD 2000
 90
        0
280
               0
281
               0
  0
CLASS
  1
OBJECT_PTR
  2
CAseDLPNTableRecord
  3
"ASE-LPNTableRecord"
 90
        1
280
               0
281
               0
  0
CLASS
  1
LAYOUT
  2
AcDbLayout
  3
AutoCAD 2000
 90
        0
280
               0
281
               0
  0
CLASS
  1
PLOTSETTINGS
  2
AcDbPlotSettings
  3
AutoCAD 2000
 90
        0
280
               0
281
               0
  0
CLASS
  1
ACDBDICTIONARYWDFLT
  2
AcDbDictionaryWithDefault
  3
AutoCAD 2000
 90
        0
280
               0
281
               0
  0
CLASS
  1
ACDBPLACEHOLDER
  2
AcDbPlaceHolder
  3
AutoCAD 2000
 90
        0
280
               0
281
               0
  0
ENDSEC
  0
SECTION
  2
TABLES
  0
TABLE
  2
VPORT
  5
7
100
AcDbSymbolTable
 70
               1
  0
VPORT
  5
15
100
AcDbSymbolTableRecord
100
AcDbViewportTableRecord
  2
*ACTIVE
 70
               0
 10
0.0
 20
0.0
 11
1.0
 21
1.0
 12
0.0
 22
0.0000000000002274
 13
0.0
 23
0.0
 14
1.0
 24
1.0
 15
0.0
 25
0.0
 16
0.0
 26
0.0
 36
1.0
 17
0.0
 27
0.0
 37
0.0
 40
2837.5228151124129
 41
0.688564
 42
50.0
 43
0.0
 44
0.0
 50
0.0
 51
0.0
 71
               0
 72
            2000
 73
               1
 74
               1
 75
               0
 76
               0
 77
               0
 78
               0
281
               0
 65
               0
110
0.0
120
0.0
130
0.0
111
1.0
121
0.0
131
0.0
112
0.0
122
1.0
132
0.0
345
0
346
0
 79
               0
146
0.0
  0
ENDTAB
  0
TABLE
  2
LTYPE
  5
4
100
AcDbSymbolTable
 70
              17
  0
LTYPE
  5
11
100
AcDbSymbolTableRecord
100
AcDbLinetypeTableRecord
  2
ByBlock
 70
              64
  3

 72
              65
 73
               0
 40
0.0
  0
LTYPE
  5
12
100
AcDbSymbolTableRecord
100
AcDbLinetypeTableRecord
  2
ByLayer
 70
              64
  3

 72
              65
 73
               0
 40
0.0
  0
LTYPE
  5
13
100
AcDbSymbolTableRecord
100
AcDbLinetypeTableRecord
  2
Continuous
 70
              64
  3
Solid line
 72
              65
 73
               0
 40
0.0
  0
LTYPE
  5
33
100
AcDbSymbolTableRecord
100
AcDbLinetypeTableRecord
  2
STYLE_01
 70
               0
  3

 72
              65
 73
               2
 40
0.516732283464567
 49
0.344488188976378
 74
               0
 49
-0.172244094488189
 74
               0
  0
LTYPE
  5
34
100
AcDbSymbolTableRecord
100
AcDbLinetypeTableRecord
  2
STYLE_02
 70
               0
  3

 72
              65
 73
               2
 40
0.6944250000000001
 49
0.48607
 74
               0
 49
-0.2083550000000001
 74
               0
  0
LTYPE
  5
35
100
AcDbSymbolTableRecord
100
AcDbLinetypeTableRecord
  2
STYLE_03
 70
               0
  3

 72
              65
 73
               2
 40
1.25
 49
1.0416400000000001
 74
               0
 49
-0.2083599999999999
 74
               0
  0
LTYPE
  5
36
100
AcDbSymbolTableRecord
100
AcDbLinetypeTableRecord
  2
STYLE_04
 70
               0
  3

 72
              65
 73
               2
 40
1.5277099999999999
 49
1.3194249999999998
 74
               0
 49
-0.208285
 74
               0
  0
LTYPE
  5
37
100
AcDbSymbolTableRecord
100
AcDbLinetypeTableRecord
  2
STYLE_05
 70
               0
  3

 72
              65
 73
               2
 40
0.20828
 49
0.069425
 74
               0
 49
-0.138855
 74
               0
  0
LTYPE
  5
38
100
AcDbSymbolTableRecord
100
AcDbLinetypeTableRecord
  2
STYLE_06
 70
               0
  3

 72
              65
 73
               4
 40
1.0416400000000001
 49
0.625
 74
               0
 49
-0.20828
 74
               0
 49
0.06943
 74
               0
 49
-0.13893
 74
               0
  0
LTYPE
  5
39
100
AcDbSymbolTableRecord
100
AcDbLinetypeTableRecord
  2
STYLE_07
 70
               0
  3

 72
              65
 73
               6
 40
1.875
 49
0.625
 74
               0
 49
-0.20828
 74
               0
 49
0.6250000000000001
 74
               0
 49
-0.2083599999999999
 74
               0
 49
0.06943
 74
               0
 49
-0.1389299999999999
 74
               0
  0
LTYPE
  5
3A
100
AcDbSymbolTableRecord
100
AcDbLinetypeTableRecord
  2
STYLE_08
 70
               0
  3

 72
              65
 73
               6
 40
1.25
 49
0.625
 74
               0
 49
-0.20828
 74
               0
 49
0.06943
 74
               0
 49
-0.13893
 74
               0
 49
0.0694299999999999
 74
               0
 49
-0.13893
 74
               0
  0
LTYPE
  5
3B
100
AcDbSymbolTableRecord
100
AcDbLinetypeTableRecord
  2
STYLE_09
 70
               0
  3

 72
              65
 73
               4
 40
5.0
 49
3.75
 74
               0
 49
-0.2777849999999998
 74
               0
 49
0.6944300000000003
 74
               0
 49
-0.2777849999999998
 74
               0
  0
LTYPE
  5
3C
100
AcDbSymbolTableRecord
100
AcDbLinetypeTableRecord
  2
STYLE_10
 70
               0
  3

 72
              65
 73
               6
 40
5.9375
 49
3.75
 74
               0
 49
-0.2777849999999998
 74
               0
 49
0.6944300000000003
 74
               0
 49
-0.2777849999999998
 74
               0
 49
0.625
 74
               0
 49
-0.3125
 74
               0
  0
LTYPE
  5
3D
100
AcDbSymbolTableRecord
100
AcDbLinetypeTableRecord
  2
STYLE_11
 70
               0
  3

 72
              65
 73
               2
 40
0.0694444881889764
 49
0.0347222440944882
 74
               0
 49
-0.0347222440944882
 74
               0
  0
LTYPE
  5
3E
100
AcDbSymbolTableRecord
100
AcDbLinetypeTableRecord
  2
STYLE_12
 70
               0
  3

 72
              65
 73
               2
 40
0.3937007874015748
 49
0.1968503937007874
 74
               0
 49
-0.1968503937007874
 74
               0
  0
LTYPE
  5
3F
100
AcDbSymbolTableRecord
100
AcDbLinetypeTableRecord
  2
STYLE_13
 70
               0
  3

 72
              65
 73
               2
 40
0.5905511811023622
 49
0.2952755905511811
 74
               0
 49
-0.2952755905511811
 74
               0
  0
LTYPE
  5
40
100
AcDbSymbolTableRecord
100
AcDbLinetypeTableRecord
  2
STYLE_14
 70
               0
  3

 72
              65
 73
               2
 40
1.9685039370078738
 49
0.9842519685039369
 74
               0
 49
-0.9842519685039369
 74
               0
  0
ENDTAB
  0
TABLE
  2
LAYER
  5
2
100
AcDbSymbolTable
 70
               5
  0
LAYER
  5
14
100
AcDbSymbolTableRecord
100
AcDbLayerTableRecord
  2
0
 70
               0
 62
               7
  6
Continuous
290
               1
370
              -3
390
1D
  0
LAYER
  5
41
100
AcDbSymbolTableRecord
100
AcDbLayerTableRecord
  2
Defpoints
 70
               0
 62
               7
  6
Continuous
290
               0
370
              -3
390
1D
  0
LAYER
  5
42
100
AcDbSymbolTableRecord
100
AcDbLayerTableRecord
  2
template
 70
               0
 62
               7
  6
Continuous
290
               1
370
              -3
390
1D
  0
LAYER
  5
43
100
AcDbSymbolTableRecord
100
AcDbLayerTableRecord
  2
info
 70
               0
 62
               7
  6
Continuous
290
               1
370
              -3
390
1D
  0
LAYER
  5
44
100
AcDbSymbolTableRecord
100
AcDbLayerTableRecord
  2
RKY70-0001
 70
               0
 62
               7
  6
Continuous
290
               1
370
              -3
390
1D
  0
ENDTAB
  0
TABLE
  2
STYLE
  5
3
100
AcDbSymbolTable
 70
               3
  0
STYLE
  5
17
100
AcDbSymbolTableRecord
100
AcDbTextStyleTableRecord
  2
Standard
 70
               0
 40
0.0
 41
1.0
 50
0.0
 71
               0
 42
0.0
  3
txt
  4
BIGFONT.SHX
  0
STYLE
  5
31
100
AcDbSymbolTableRecord
100
AcDbTextStyleTableRecord
  2
@ＭＳ ゴシック
 70
               0
 40
0.0
 41
1.0
 50
0.0
 71
               0
 42
0.0
  3

  4
@ＭＳ ゴシック
1001
ACAD
1000
@ＭＳ ゴシック
1071
        0
  0
STYLE
  5
32
100
AcDbSymbolTableRecord
100
AcDbTextStyleTableRecord
  2
ＭＳ ゴシック
 70
               0
 40
0.0
 41
1.0
 50
0.0
 71
               0
 42
0.0
  3

  4
ＭＳ ゴシック
1001
ACAD
1000
ＭＳ ゴシック
1071
        0
  0
ENDTAB
  0
TABLE
  2
VIEW
  5
5
100
AcDbSymbolTable
 70
               0
  0
ENDTAB
  0
TABLE
  2
UCS
  5
6
100
AcDbSymbolTable
 70
               0
  0
ENDTAB
  0
TABLE
  2
APPID
  5
8
100
AcDbSymbolTable
 70
               1
  0
APPID
  5
16
100
AcDbSymbolTableRecord
100
AcDbRegAppTableRecord
  2
ACAD
 70
               0
  0
ENDTAB
  0
TABLE
  2
DIMSTYLE
  5
9
100
AcDbSymbolTable
 70
               3
100
AcDbDimStyleTable
 71
               0
  0
DIMSTYLE
105
18
100
AcDbSymbolTableRecord
100
AcDbDimStyleTableRecord
  2
Standard
 70
               0
  3

  4

 40
1.0
 41
0.18
 42
0.0625
 43
0.38
 44
0.18
 45
0.0
 46
0.0
 47
0.0
 48
0.0
 71
               0
 72
               0
 73
               1
 74
               1
 75
               0
 76
               0
 77
               0
 78
               0
 79
               0
140
0.18
141
0.09
142
0.0
143
25.399999999999999
144
1.0
145
0.0
146
1.0
147
0.09
148
0.0
170
               0
171
               2
172
               0
173
               0
174
               0
175
               0
176
               0
177
               0
178
               0
179
               0
271
               4
272
               4
273
               2
274
               2
275
               0
276
               0
277
               2
278
              46
279
               0
280
               0
281
               0
282
               0
283
               1
284
               0
285
               0
286
               0
288
               0
289
               3
340
17
341
0
342
0
343
0
344
0
371
              -2
372
              -2
  0
DIMSTYLE
105
4D
100
AcDbSymbolTableRecord
100
AcDbDimStyleTableRecord
  2
tfrom線あり
 70
               0
  3
<>
  4
[]
 40
1.0
 41
3.999755859375
 42
24.999999999999996
 43
0.9999999999999999
 44
0.0
 45
0.0
 46
0.0
 47
0.0
 48
0.0
 71
               0
 72
               0
 73
               0
 74
               0
 75
               0
 76
               0
 77
               1
 78
              11
 79
               0
140
24.432617187500004
141
0.0
142
0.0
143
1.0
144
1.0
145
0.0
146
1.0
147
0.4999999999999999
148
0.0
170
               0
171
               1
172
               0
173
               0
174
               1
175
               0
176
               0
177
               0
178
               0
179
               2
271
               1
272
               1
273
               2
274
               2
275
               0
276
               2
277
               2
278
              46
279
               0
280
               0
281
               0
282
               0
283
               1
284
              11
285
              11
286
              11
288
               0
289
               0
340
32
341
45
342
45
343
0
344
0
371
              -2
372
              -2
  0
DIMSTYLE
105
52
100
AcDbSymbolTableRecord
100
AcDbDimStyleTableRecord
  2
JIS
 70
               0
  3
<>
  4
[]
 40
1.0
 41
31.75
 42
0.0
 43
6.9999999999999396
 44
19.999999999996199
 45
0.0
 46
0.0
 47
0.0
 48
0.0
 71
               0
 72
               0
 73
               0
 74
               0
 75
               0
 76
               0
 77
               1
 78
              11
 79
               0
140
24.432617187500004
141
0.0
142
0.0
143
1.0
144
1.0
145
0.0
146
1.0
147
1.00000000000108
148
0.0
170
               0
171
               1
172
               0
173
               0
174
               1
175
               0
176
               0
177
               0
178
               0
179
               2
271
               1
272
               1
273
               2
274
               2
275
               0
276
               2
277
               2
278
              46
279
               0
280
               0
281
               0
282
               0
283
               1
284
              11
285
              11
286
              11
288
               0
289
               0
340
32
341
4E
342
4E
343
0
344
0
371
              -2
372
              -2
  0
ENDTAB
  0
TABLE
  2
BLOCK_RECORD
  5
1
100
AcDbSymbolTable
 70
              16
  0
BLOCK_RECORD
  5
A
100
AcDbSymbolTableRecord
100
AcDbBlockTableRecord
  2
*MODEL_SPACE
340
20
  0
BLOCK_RECORD
  5
B
100
AcDbSymbolTableRecord
100
AcDbBlockTableRecord
  2
*PAPER_SPACE
340
21
  0
BLOCK_RECORD
  5
45
100
AcDbSymbolTableRecord
100
AcDbBlockTableRecord
  2
_DOT
340
0
  0
BLOCK_RECORD
  5
4E
100
AcDbSymbolTableRecord
100
AcDbBlockTableRecord
  2
VW_FILLEDARROW
340
0
  0
BLOCK_RECORD
  5
23
100
AcDbSymbolTableRecord
100
AcDbBlockTableRecord
  2
グループ
340
0
102
{BLKREFS
331
10D
102
}
  0
BLOCK_RECORD
  5
24
100
AcDbSymbolTableRecord
100
AcDbBlockTableRecord
  2
*D3
340
0
  0
BLOCK_RECORD
  5
25
100
AcDbSymbolTableRecord
100
AcDbBlockTableRecord
  2
*D4
340
0
  0
BLOCK_RECORD
  5
26
100
AcDbSymbolTableRecord
100
AcDbBlockTableRecord
  2
*D5
340
0
  0
BLOCK_RECORD
  5
27
100
AcDbSymbolTableRecord
100
AcDbBlockTableRecord
  2
*D6
340
0
  0
BLOCK_RECORD
  5
28
100
AcDbSymbolTableRecord
100
AcDbBlockTableRecord
  2
*D7
340
0
  0
BLOCK_RECORD
  5
29
100
AcDbSymbolTableRecord
100
AcDbBlockTableRecord
  2
*D8
340
0
  0
BLOCK_RECORD
  5
2A
100
AcDbSymbolTableRecord
100
AcDbBlockTableRecord
  2
*D9
340
0
  0
BLOCK_RECORD
  5
2B
100
AcDbSymbolTableRecord
100
AcDbBlockTableRecord
  2
*D10
340
0
  0
BLOCK_RECORD
  5
2C
100
AcDbSymbolTableRecord
100
AcDbBlockTableRecord
  2
*D11
340
0
  0
BLOCK_RECORD
  5
2D
100
AcDbSymbolTableRecord
100
AcDbBlockTableRecord
  2
*D12
340
0
  0
BLOCK_RECORD
  5
2E
100
AcDbSymbolTableRecord
100
AcDbBlockTableRecord
  2
*D13
340
0
  0
BLOCK_RECORD
  5
2F
100
AcDbSymbolTableRecord
100
AcDbBlockTableRecord
  2
*D14
340
0
  0
BLOCK_RECORD
  5
30
100
AcDbSymbolTableRecord
100
AcDbBlockTableRecord
  2
*D15
340
0
  0
ENDTAB
  0
ENDSEC
  0
SECTION
  2
BLOCKS
  0
BLOCK
  5
D
100
AcDbEntity
  8
0
390
0
100
AcDbBlockBegin
  2
*MODEL_SPACE
 70
               0
 10
0.0
 20
0.0
 30
0.0
  3
*MODEL_SPACE
  1

  0
ENDBLK
  5
E
100
AcDbEntity
  8
0
390
0
100
AcDbBlockEnd
  0
BLOCK
  5
F
100
AcDbEntity
 67
               1
  8
0
390
0
100
AcDbBlockBegin
  2
*PAPER_SPACE
 70
               0
 10
0.0
 20
0.0
 30
0.0
  3
*PAPER_SPACE
  1

  0
ENDBLK
  5
10
100
AcDbEntity
 67
               1
  8
0
390
0
100
AcDbBlockEnd
  0
BLOCK
  5
46
100
AcDbEntity
  8
0
390
0
100
AcDbBlockBegin
  2
_DOT
 70
               0
 10
0.0
 20
0.0
 30
0.0
  3
_DOT
  1

  0
POLYLINE
  5
47
100
AcDbEntity
  8
0
370
              -2
390
0
  6
ByBlock
 62
               0
100
AcDb2dPolyline
 66
               1
 10
0.0
 20
0.0
 30
0.0
 70
               1
 40
0.5
 41
0.5
  0
VERTEX
  5
48
100
AcDbEntity
  8
0
370
              -2
390
0
  6
ByBlock
 62
               0
100
AcDbVertex
100
AcDb2dVertex
 10
-0.25
 20
0.0
 30
0.0
 42
1.0
  0
VERTEX
  5
49
100
AcDbEntity
  8
0
370
              -2
390
0
  6
ByBlock
 62
               0
100
AcDbVertex
100
AcDb2dVertex
 10
0.25
 20
0.0
 30
0.0
 42
1.0
  0
SEQEND
  5
4A
100
AcDbEntity
  8
0
390
0
  0
LINE
  5
4B
100
AcDbEntity
  8
0
370
              -2
390
0
  6
ByBlock
 62
               0
100
AcDbLine
 10
-0.5
 20
0.0
 30
0.0
 11
-1.0
 21
0.0
 31
0.0
  0
ENDBLK
  5
4C
100
AcDbEntity
  8
0
390
0
100
AcDbBlockEnd
  0
BLOCK
  5
4F
100
AcDbEntity
  8
0
370
              -2
390
0
  6
ByBlock
 62
               0
100
AcDbBlockBegin
  2
VW_FILLEDARROW
 70
               0
 10
0.0
 20
0.0
 30
0.0
  3
VW_FILLEDARROW
  1

  0
SOLID
  5
50
100
AcDbEntity
  8
0
370
              -2
390
0
 62
               0
100
AcDbTrace
 10
0.0
 20
0.0
 30
0.0
 11
-0.9921874999999999
 21
-0.2658558393652545
 31
0.0
 12
-0.9921874999999999
 22
0.2658558393652548
 32
0.0
 13
-0.9921874999999999
 23
0.2658558393652548
 33
0.0
  0
ENDBLK
  5
51
100
AcDbEntity
  8
0
390
0
100
AcDbBlockEnd
  0
BLOCK
  5
53
100
AcDbEntity
  8
template
390
0
100
AcDbBlockBegin
  2
グループ
 70
               0
 10
0.0
 20
0.0
 30
0.0
  3
グループ
  1

  0
LWPOLYLINE
  5
54
100
AcDbEntity
  8
0
370
              15
390
0
  6
Continuous
 62
               7
100
AcDbPolyline
 90
        8
 70
             129
 10
112.29609885475497
 20
569.49889042747282
 10
112.29609885475497
 20
563.50150173389693
 10
102.79490193675156
 20
563.50150173389693
 10
102.79490193675156
 20
539.05053847038812
 10
94.439524674968879
 20
539.05053847038812
 10
94.439524674968879
 20
563.50150173389693
 10
85.106567728659456
 20
563.50150173389693
 10
85.106567728659456
 20
569.49889042747282
  0
LWPOLYLINE
  5
55
100
AcDbEntity
  8
0
370
              15
390
0
  6
Continuous
 62
               7
100
AcDbPolyline
 90
      101
 70
             128
 10
125.02439068531203
 20
568.77064193453634
 10
125.03974071409877
 20
568.77500269122186
 42
-0.0222221607814186
 10
125.32974529076807
 20
568.84362715646603
 10
125.34553905475987
 20
568.84663057956266
 42
-0.0146883565587743
 10
125.60824175998584
 20
568.88863376651238
 42
-0.0127458844186104
 10
125.8728807271366
 20
568.91617073458474
 10
125.93533580545159
 20
568.92106415717308
 42
-0.0198099018567571
 10
126.32618491492448
 20
568.93614931456966
 10
126.3779963843723
 20
568.93609553890462
 42
-0.0147617382761675
 10
126.87261984534868
 20
568.92097551365964
 10
126.94531130022096
 20
568.91660290677203
 42
-0.0162624549003947
 10
127.33546492968594
 20
568.88037003149975
 10
127.45699732094594
 20
568.8650834725031
 42
-0.0080020874665955
 10
127.60257635203675
 20
568.84440062523481
 10
127.64089582263769
 20
568.83832934742281
 42
-0.0053821929671393
 10
127.70937992794643
 20
568.82672182360216
 10
126.98297422874793
 20
566.64579336788825
 42
0.0108667757403057
 10
126.91565715861435
 20
566.65898048310862
 10
126.87818913542765
 20
566.6654782257026
 42
0.0170663203308379
 10
126.73497234851172
 20
566.68530782299445
 10
126.66709701582909
 20
566.69235499358183
 42
0.0220162375274832
 10
126.38671760797438
 20
566.70903735435195
 10
126.30886204092339
 20
566.71023672161846
 42
0.0282606915783809
 10
125.97322571734378
 20
566.69643344464941
 10
125.92931244356906
 20
566.6921334546455
 42
0.016967721368904
 10
125.68338794861245
 20
566.65959640509379
 42
0.0190576269867037
 10
125.44047998603122
 20
566.60944953298713
 10
125.43422079792163
 20
566.60790655887808
 42
0.0213685642844743
 10
125.18383631344425
 20
566.53470627377339
 10
125.17834641852778
 20
566.53284327771428
 42
0.0237595297596394
 10
124.92485153362811
 20
566.43315875581823
 10
124.91974945959942
 20
566.43086698034051
 42
0.0261857468813085
 10
124.66757868337032
 20
566.3013306429666
 10
124.6571524942829
 20
566.29526516849785
 42
0.0272553062020799
 10
124.42072271904385
 20
566.13989296255329
 10
124.38595970553393
 20
566.11423181446071
 42
0.0325996893178183
 10
124.23580436188286
 20
565.9874839414897
 10
124.21209493275819
 20
565.96466591297531
 42
0.0138050960639914
 10
124.1202117765497
 20
565.87121625142515
 42
0.0125280103802798
 10
124.03336924371764
 20
565.77305292482686
 10
124.00968879880782
 20
565.74489442663776
 42
0.0205218024736865
 10
123.88458872329365
 20
565.58310111240803
 10
123.862122382807
 20
565.55144138258174
 42
0.0163110129582544
 10
123.70641200355601
 20
565.31611094751236
 10
123.70368810750472
 20
565.31168718552635
 42
0.0131897341897493
 10
123.55688758659936
 20
565.05855509316291
 10
123.55518749123235
 20
565.0554368540262
 42
0.0107895576063564
 10
123.41741078902166
 20
564.7892216443912
 10
123.41667789949656
 20
564.78772741174453
 42
0.0091371507214902
 10
123.28819795084775
 20
564.51320221398646
 10
123.25845231943788
 20
564.44649570682611
 42
0.0135418326352355
 10
123.08673838036562
 20
564.0315579215561
 10
123.05313357193205
 20
563.94369177927661
 42
0.0092834542409294
 10
122.88190451201092
 20
563.46979328097075
 10
122.85628738429413
 20
563.39455221117998
 42
0.0054261043582835
 10
122.74864923600035
 20
563.06678823811228
 10
122.73112324980227
 20
563.01140007581694
 42
0.0008225090816508
 10
122.66245319799282
 20
562.79313131773301
 10
121.67776406605935
 20
559.76824002447643
 10
124.91038790613334
 20
559.76824002447643
 10
124.40619547627989
 20
557.86376172612404
 10
121.15013919429657
 20
557.86376172612404
 10
115.32099016194275
 20
539.05053866011917
 10
113.49589255163255
 20
539.05053866011917
 10
119.33057058713348
 20
557.86376172612404
 10
116.92545421809291
 20
557.86376172612404
 10
117.42964664794636
 20
559.76824002447643
 10
119.85819545889649
 20
559.76824002447643
 10
120.71835037708524
 20
562.40465302517532
 42
-0.0005863560647304
 10
120.7550850552705
 20
562.52147944540945
 10
120.83117288894903
 20
562.76247174485252
 42
-0.0087522378927533
 10
121.03064103240553
 20
563.35774783199793
 10
121.12290530781981
 20
563.6178880005134
 42
-0.0077400953830105
 10
121.38083896695048
 20
564.31089267806021
 10
121.39660393852908
 20
564.3513235614455
 42
-0.0082369946330922
 10
121.6436884091413
 20
564.955402627642
 42
-0.0085725238364756
 10
121.91093450514401
 20
565.55082866692874
 10
122.01256410615254
 20
565.76724976891614
 42
-0.0168109410596036
 10
122.29950853488162
 20
566.32845729501855
 10
122.42535192531099
 20
566.55542132796256
 42
-0.0007817726867435
 10
122.4796362753973
 20
566.65296557304703
 10
122.47976458141159
 20
566.65319528177815
 42
-0.0036626142158431
 10
122.53465244543577
 20
566.749793161752
 42
-0.0080221150673865
 10
122.59177670084264
 20
566.84507239650509
 10
122.62247665220366
 20
566.89446334562706
 42
-0.0202139325572471
 10
122.75013239201063
 20
567.08244494630878
 10
122.804199857198
 20
567.15552381054931
 42
-0.0249323791800461
 10
123.0633626509162
 20
567.47156905270265
 10
123.08750246504417
 20
567.4981833256162
 42
-0.0242132121538243
 10
123.42718320658661
 20
567.83806681182057
 10
123.47509477933626
 20
567.88157594800577
 42
-0.025101752786007
 10
123.75907647997758
 20
568.11456869377105
 10
123.76052195678967
 20
568.11563795134873
 42
-0.0130868069038618
 10
124.05878260674865
 20
568.32441841989248
 10
124.06034442589088
 20
568.32545186016716
 42
-0.0290329526391279
 10
124.37145556728467
 20
568.50627736179683
 10
124.40130112927277
 20
568.52137974463744
 42
-0.0160250190047108
 10
124.66720554303538
 20
568.64539585484965
 42
-0.0267600374781875
 10
124.94248162050496
 20
568.74614417539851
 10
124.96921754002506
 20
568.7543367342239
 42
-0.0049981587669887
 10
125.02439068531203
 20
568.77064193453634
 42
-0.0049981587669887
  0
LWPOLYLINE
  5
56
100
AcDbEntity
  8
0
370
              15
390
0
  6
Continuous
 62
               7
100
AcDbPolyline
 90
      118
 70
             128
 10
144.83875824975894
 20
559.69425669664906
 10
146.71388017425829
 20
559.69425669664906
 10
145.87584126865841
 20
557.01269017024902
 42
-0.0010587229241571
 10
145.90729708422603
 20
557.04959470359961
 10
145.96549117486222
 20
557.11757695978008
 42
-0.0071874740409212
 10
146.11586639295729
 20
557.28821765180567
 10
146.2575891662226
 20
557.44445379312231
 42
-0.0148118053512663
 10
146.70771845893546
 20
557.91206763913544
 10
146.79494079383647
 20
557.99746495998818
 42
-0.008627335869238
 10
147.13048959484547
 20
558.31484059400532
 10
147.17432331106966
 20
558.35489023833679
 42
-0.0103138323115638
 10
147.43234701330493
 20
558.58105337567667
 10
147.47812141963553
 20
558.61953542293986
 42
-0.006020674856281
 10
147.65096948374435
 20
558.76133007369128
 10
147.65300061462892
 20
558.76295577932149
 42
-0.0067069027292734
 10
147.82529342929274
 20
558.89710641311751
 10
147.82784219521918
 20
558.89903658299318
 42
-0.0076184352048796
 10
147.99874746109003
 20
559.02441145823661
 42
-0.0089652861672245
 10
148.17370842382516
 20
559.1440447185696
 10
148.21006014396869
 20
559.16795593205165
 42
-0.0156916245937124
 10
148.40601964112955
 20
559.28821841852653
 42
-0.0023299011064422
 10
148.60628168509695
 20
559.40139635806054
 10
148.6216658174892
 20
559.4099963531321
 42
-0.0107669341486993
 10
148.85590264259167
 20
559.53439648648214
 10
148.87816744366546
 20
559.54561323643156
 42
-0.0078058045896468
 10
149.16175756161647
 20
559.68297469206925
 10
149.17166464932734
 20
559.68758381993848
 42
-0.0181829330471043
 10
149.48197405394384
 20
559.81844756103453
 10
149.5360294965086
 20
559.83896268097726
 42
-0.0208411536030869
 10
149.88511446396001
 20
559.95505314347076
 10
149.89947056408712
 20
559.95917158842417
 42
-0.0222799817137682
 10
150.22819035800478
 20
560.03781315456456
 10
150.23707932124199
 20
560.03952516514971
 42
-0.0215509523882678
 10
150.55355028952147
 20
560.08644085368394
 10
150.59603225057043
 20
560.09087838047481
 42
-0.0182545924871805
 10
150.83014102987568
 20
560.10672220586571
 10
150.86954204622413
 20
560.10794675094496
 42
-0.0072962856531813
 10
151.02546492591273
 20
560.11051607946706
 10
151.05456459648451
 20
560.11057091487078
 42
-0.0059227516315277
 10
151.15231409562966
 20
560.1095972030804
 10
151.18155631309133
 20
560.10895943647733
 42
-0.0011833111908949
 10
151.22080759683399
 20
560.10801043216702
 10
150.42542100122682
 20
557.56927648706801
 42
0.0143932051572596
 10
150.3990196188733
 20
557.57947545711431
 10
150.39174764645895
 20
557.58204667597067
 42
0.0234388603506459
 10
150.34991678052688
 20
557.59466591168598
 10
150.34123511761413
 20
557.59684687369099
 42
0.0199162742982416
 10
150.28094628353341
 20
557.60946360902619
 10
150.26013234572792
 20
557.61296080845455
 42
0.0293643550670695
 10
150.15705748696857
 20
557.6241108541077
 10
150.1323723062485
 20
557.62532247112631
 42
0.021460668686591
 10
149.97923139029859
 20
557.62626103154378
 10
149.96985947947803
 20
557.62591611999949
 42
0.0167564054186053
 10
149.79833928836467
 20
557.61383907763093
 10
149.78987949561053
 20
557.61295773720428
 42
0.0137677553243731
 10
149.60252618234608
 20
557.58820842866089
 10
149.59517444283802
 20
557.58703050869281
 42
0.0118497261484234
 10
149.39467667873654
 20
557.5500131585037
 10
149.38852667148944
 20
557.54872629578358
 42
0.0106421143891172
 10
149.17764578420088
 20
557.49989392020791
 10
149.17273697581527
 20
557.49864657752369
 42
0.0099746379704331
 10
148.95427850665038
 20
557.43847204920826
 10
148.89273046648259
 20
557.42019017057828
 42
0.0191613675859794
 10
148.55674600396733
 20
557.3062127902914
 10
148.46868623122154
 20
557.27252587996725
 42
0.0205274080143539
 10
148.08337945932101
 20
557.1066974721407
 10
148.02573017734036
 20
557.07902950756898
 42
0.0181256912194898
 10
147.76745323667194
 20
556.94334568859051
 10
147.71449785335707
 20
556.91302807537522
 42
0.0140709242412339
 10
147.56954291872967
 20
556.82453340194138
 10
147.54329405011362
 20
556.80747658322753
 42
0.0086667884394714
 10
147.45436788856864
 20
556.74747391534311
 42
0.0036408192024543
 10
147.36693465053068
 20
556.68529305754748
 10
147.33170777606665
 20
556.65985211163797
 42
0.0052260781274937
 10
147.17547907867745
 20
556.5445197250051
 10
147.15927222241601
 20
556.5322916143856
 42
0.0050024435895292
 10
146.97326887936251
 20
556.38900904612763
 10
146.95795072284193
 20
556.3769630236776
 42
0.0136138710280336
 10
146.74750945451669
 20
556.2019965187643
 10
146.71384157872308
 20
556.17241754605004
 42
0.017281518691477
 10
146.44943803706164
 20
555.92342087342763
 10
146.446875691218
 20
555.92083505627954
 42
0.0189403857993011
 10
146.19629389263889
 20
555.64802979147532
 10
146.16366239910312
 20
555.60968585997853
 42
0.018504419950451
 10
145.97170596012279
 20
555.36643727885519
 42
0.0088565243900095
 10
145.79324585349323
 20
555.11292085870343
 10
145.78406787384586
 20
555.09937947894514
 42
0.0157195347231152
 10
145.60084726751037
 20
554.80985726962706
 10
145.55476432558214
 20
554.73170507261079
 42
0.0095451879781233
 10
145.38967877544326
 20
554.43911043025207
 10
145.37853085651258
 20
554.41843975811821
 42
0.0100351706255811
 10
145.24648710735426
 20
554.16138419762933
 42
0.0086935915423233
 10
145.12415595555925
 20
553.89955105222282
 10
145.1208352141457
 20
553.8921087292531
 42
0.0072580174867367
 10
145.00048876219998
 20
553.61151673766813
 10
144.99722712889445
 20
553.60359671165213
 42
0.0060005122613188
 10
144.87802646055104
 20
553.30398704104482
 10
144.87481548221024
 20
553.29562551314223
 42
0.0049017786980668
 10
144.75591532335235
 20
552.97669653253672
 10
144.75274951696235
 20
552.96794359530747
 42
0.003941516760253
 10
144.63331323890489
 20
552.62940153289219
 10
144.63018213625344
 20
552.62029833201814
 42
0.003103583876445
 10
144.50937735056223
 20
552.26185847025033
 10
144.50626730602994
 20
552.25243784886982
 42
0.0025070747152403
 10
144.38336595471745
 20
551.87379063193487
 10
144.34607205828922
 20
551.75689896667291
 42
0.0029081910284
 10
144.15405376047599
 20
551.1427353083734
 10
144.11325059196145
 20
551.00951206610534
 42
0.0009266453733838
 10
143.8448332176456
 20
550.12728760617802
 10
143.82394574500725
 20
550.05817572694957
 42
-0.0005809993665591
 10
143.54660906441495
 20
549.14436762030698
 10
143.48032726614133
 20
548.92688268814538
 42
-0.0012018708168263
 10
143.33334295671273
 20
548.44872002362661
 10
143.28102310514493
 20
548.27996088275347
 42
-0.0002691059614128
 10
143.23745362397858
 20
548.13969326241886
 10
140.40449772568945
 20
539.05053866011917
 10
138.58650883371092
 20
539.05053866011917
 10
144.83875824975894
 20
559.69425669664906
  0
SPLINE
  5
57
100
AcDbEntity
  8
0
370
              15
390
0
  6
Continuous
 62
               7
100
AcDbSpline
210
0.0
220
0.0
230
1.0
 70
              13
 71
               2
 72
             782
 73
             779
 74
               0
 42
0.000001
 43
0.000001
 40
0.0
 40
0.0
 40
0.0
 40
1.0
 40
1.0
 40
2.0
 40
2.0
 40
3.0
 40
3.0
 40
4.0
 40
4.0
 40
5.0
 40
5.0
 40
6.0
 40
6.0
 40
7.0
 40
7.0
 40
8.0
 40
8.0
 40
9.0
 40
9.0
 40
10.0
 40
10.0
 40
11.0
 40
11.0
 40
12.0
 40
12.0
 40
13.0
 40
13.0
 40
14.0
 40
14.0
 40
15.0
 40
15.0
 40
16.0
 40
16.0
 40
17.0
 40
17.0
 40
18.0
 40
18.0
 40
19.0
 40
19.0
 40
20.0
 40
20.0
 40
21.0
 40
21.0
 40
22.0
 40
22.0
 40
23.0
 40
23.0
 40
24.0
 40
24.0
 40
25.0
 40
25.0
 40
26.0
 40
26.0
 40
27.0
 40
27.0
 40
28.0
 40
28.0
 40
29.0
 40
29.0
 40
30.0
 40
30.0
 40
31.0
 40
31.0
 40
32.0
 40
32.0
 40
33.0
 40
33.0
 40
34.0
 40
34.0
 40
35.0
 40
35.0
 40
36.0
 40
36.0
 40
37.0
 40
37.0
 40
38.0
 40
38.0
 40
39.0
 40
39.0
 40
40.0
 40
40.0
 40
41.0
 40
41.0
 40
42.0
 40
42.0
 40
43.0
 40
43.0
 40
44.0
 40
44.0
 40
45.0
 40
45.0
 40
46.0
 40
46.0
 40
47.0
 40
47.0
 40
48.0
 40
48.0
 40
49.0
 40
49.0
 40
50.0
 40
50.0
 40
51.0
 40
51.0
 40
52.0
 40
52.0
 40
53.0
 40
53.0
 40
54.0
 40
54.0
 40
55.0
 40
55.0
 40
56.0
 40
56.0
 40
57.0
 40
57.0
 40
58.0
 40
58.0
 40
59.0
 40
59.0
 40
60.0
 40
60.0
 40
61.0
 40
61.0
 40
62.0
 40
62.0
 40
63.0
 40
63.0
 40
64.0
 40
64.0
 40
65.0
 40
65.0
 40
66.0
 40
66.0
 40
67.0
 40
67.0
 40
68.0
 40
68.0
 40
69.0
 40
69.0
 40
70.0
 40
70.0
 40
71.0
 40
71.0
 40
72.0
 40
72.0
 40
73.0
 40
73.0
 40
74.0
 40
74.0
 40
75.0
 40
75.0
 40
76.0
 40
76.0
 40
77.0
 40
77.0
 40
78.0
 40
78.0
 40
79.0
 40
79.0
 40
80.0
 40
80.0
 40
81.0
 40
81.0
 40
82.0
 40
82.0
 40
83.0
 40
83.0
 40
84.0
 40
84.0
 40
85.0
 40
85.0
 40
86.0
 40
86.0
 40
87.0
 40
87.0
 40
88.0
 40
88.0
 40
89.0
 40
89.0
 40
90.0
 40
90.0
 40
91.0
 40
91.0
 40
92.0
 40
92.0
 40
93.0
 40
93.0
 40
94.0
 40
94.0
 40
95.0
 40
95.0
 40
96.0
 40
96.0
 40
97.0
 40
97.0
 40
98.0
 40
98.0
 40
99.0
 40
99.0
 40
100.0
 40
100.0
 40
101.0
 40
101.0
 40
102.0
 40
102.0
 40
103.0
 40
103.0
 40
104.0
 40
104.0
 40
105.0
 40
105.0
 40
106.0
 40
106.0
 40
107.0
 40
107.0
 40
108.0
 40
108.0
 40
109.0
 40
109.0
 40
110.0
 40
110.0
 40
111.0
 40
111.0
 40
112.0
 40
112.0
 40
113.0
 40
113.0
 40
114.0
 40
114.0
 40
115.0
 40
115.0
 40
116.0
 40
116.0
 40
117.0
 40
117.0
 40
118.0
 40
118.0
 40
119.0
 40
119.0
 40
120.0
 40
120.0
 40
121.0
 40
121.0
 40
122.0
 40
122.0
 40
123.0
 40
123.0
 40
124.0
 40
124.0
 40
125.0
 40
125.0
 40
126.0
 40
126.0
 40
127.0
 40
127.0
 40
128.0
 40
128.0
 40
129.0
 40
129.0
 40
130.0
 40
130.0
 40
131.0
 40
131.0
 40
132.0
 40
132.0
 40
133.0
 40
133.0
 40
134.0
 40
134.0
 40
135.0
 40
135.0
 40
136.0
 40
136.0
 40
137.0
 40
137.0
 40
138.0
 40
138.0
 40
139.0
 40
139.0
 40
140.0
 40
140.0
 40
141.0
 40
141.0
 40
142.0
 40
142.0
 40
143.0
 40
143.0
 40
144.0
 40
144.0
 40
145.0
 40
145.0
 40
146.0
 40
146.0
 40
147.0
 40
147.0
 40
148.0
 40
148.0
 40
149.0
 40
149.0
 40
150.0
 40
150.0
 40
151.0
 40
151.0
 40
152.0
 40
152.0
 40
153.0
 40
153.0
 40
154.0
 40
154.0
 40
155.0
 40
155.0
 40
156.0
 40
156.0
 40
157.0
 40
157.0
 40
158.0
 40
158.0
 40
159.0
 40
159.0
 40
160.0
 40
160.0
 40
161.0
 40
161.0
 40
162.0
 40
162.0
 40
163.0
 40
163.0
 40
164.0
 40
164.0
 40
165.0
 40
165.0
 40
166.0
 40
166.0
 40
167.0
 40
167.0
 40
168.0
 40
168.0
 40
169.0
 40
169.0
 40
170.0
 40
170.0
 40
171.0
 40
171.0
 40
172.0
 40
172.0
 40
173.0
 40
173.0
 40
174.0
 40
174.0
 40
175.0
 40
175.0
 40
176.0
 40
176.0
 40
177.0
 40
177.0
 40
178.0
 40
178.0
 40
179.0
 40
179.0
 40
180.0
 40
180.0
 40
181.0
 40
181.0
 40
182.0
 40
182.0
 40
183.0
 40
183.0
 40
184.0
 40
184.0
 40
185.0
 40
185.0
 40
186.0
 40
186.0
 40
187.0
 40
187.0
 40
188.0
 40
188.0
 40
189.0
 40
189.0
 40
190.0
 40
190.0
 40
191.0
 40
191.0
 40
192.0
 40
192.0
 40
193.0
 40
193.0
 40
194.0
 40
194.0
 40
195.0
 40
195.0
 40
196.0
 40
196.0
 40
197.0
 40
197.0
 40
198.0
 40
198.0
 40
199.0
 40
199.0
 40
200.0
 40
200.0
 40
201.0
 40
201.0
 40
202.0
 40
202.0
 40
203.0
 40
203.0
 40
204.0
 40
204.0
 40
205.0
 40
205.0
 40
206.0
 40
206.0
 40
207.0
 40
207.0
 40
208.0
 40
208.0
 40
209.0
 40
209.0
 40
210.0
 40
210.0
 40
211.0
 40
211.0
 40
212.0
 40
212.0
 40
213.0
 40
213.0
 40
214.0
 40
214.0
 40
215.0
 40
215.0
 40
216.0
 40
216.0
 40
217.0
 40
217.0
 40
218.0
 40
218.0
 40
219.0
 40
219.0
 40
220.0
 40
220.0
 40
221.0
 40
221.0
 40
222.0
 40
222.0
 40
223.0
 40
223.0
 40
224.0
 40
224.0
 40
225.0
 40
225.0
 40
226.0
 40
226.0
 40
227.0
 40
227.0
 40
228.0
 40
228.0
 40
229.0
 40
229.0
 40
230.0
 40
230.0
 40
231.0
 40
231.0
 40
232.0
 40
232.0
 40
233.0
 40
233.0
 40
234.0
 40
234.0
 40
235.0
 40
235.0
 40
236.0
 40
236.0
 40
237.0
 40
237.0
 40
238.0
 40
238.0
 40
239.0
 40
239.0
 40
240.0
 40
240.0
 40
241.0
 40
241.0
 40
242.0
 40
242.0
 40
243.0
 40
243.0
 40
244.0
 40
244.0
 40
245.0
 40
245.0
 40
246.0
 40
246.0
 40
247.0
 40
247.0
 40
248.0
 40
248.0
 40
249.0
 40
249.0
 40
250.0
 40
250.0
 40
251.0
 40
251.0
 40
252.0
 40
252.0
 40
253.0
 40
253.0
 40
254.0
 40
254.0
 40
255.0
 40
255.0
 40
256.0
 40
256.0
 40
257.0
 40
257.0
 40
258.0
 40
258.0
 40
259.0
 40
259.0
 40
260.0
 40
260.0
 40
261.0
 40
261.0
 40
262.0
 40
262.0
 40
263.0
 40
263.0
 40
264.0
 40
264.0
 40
265.0
 40
265.0
 40
266.0
 40
266.0
 40
267.0
 40
267.0
 40
268.0
 40
268.0
 40
269.0
 40
269.0
 40
270.0
 40
270.0
 40
271.0
 40
271.0
 40
272.0
 40
272.0
 40
273.0
 40
273.0
 40
274.0
 40
274.0
 40
275.0
 40
275.0
 40
276.0
 40
276.0
 40
277.0
 40
277.0
 40
278.0
 40
278.0
 40
279.0
 40
279.0
 40
280.0
 40
280.0
 40
281.0
 40
281.0
 40
282.0
 40
282.0
 40
283.0
 40
283.0
 40
284.0
 40
284.0
 40
285.0
 40
285.0
 40
286.0
 40
286.0
 40
287.0
 40
287.0
 40
288.0
 40
288.0
 40
289.0
 40
289.0
 40
290.0
 40
290.0
 40
291.0
 40
291.0
 40
292.0
 40
292.0
 40
293.0
 40
293.0
 40
294.0
 40
294.0
 40
295.0
 40
295.0
 40
296.0
 40
296.0
 40
297.0
 40
297.0
 40
298.0
 40
298.0
 40
299.0
 40
299.0
 40
300.0
 40
300.0
 40
301.0
 40
301.0
 40
302.0
 40
302.0
 40
303.0
 40
303.0
 40
304.0
 40
304.0
 40
305.0
 40
305.0
 40
306.0
 40
306.0
 40
307.0
 40
307.0
 40
308.0
 40
308.0
 40
309.0
 40
309.0
 40
310.0
 40
310.0
 40
311.0
 40
311.0
 40
312.0
 40
312.0
 40
313.0
 40
313.0
 40
314.0
 40
314.0
 40
315.0
 40
315.0
 40
316.0
 40
316.0
 40
317.0
 40
317.0
 40
318.0
 40
318.0
 40
319.0
 40
319.0
 40
320.0
 40
320.0
 40
321.0
 40
321.0
 40
322.0
 40
322.0
 40
323.0
 40
323.0
 40
324.0
 40
324.0
 40
325.0
 40
325.0
 40
326.0
 40
326.0
 40
327.0
 40
327.0
 40
328.0
 40
328.0
 40
329.0
 40
329.0
 40
330.0
 40
330.0
 40
331.0
 40
331.0
 40
332.0
 40
332.0
 40
333.0
 40
333.0
 40
334.0
 40
334.0
 40
335.0
 40
335.0
 40
336.0
 40
336.0
 40
337.0
 40
337.0
 40
338.0
 40
338.0
 40
339.0
 40
339.0
 40
340.0
 40
340.0
 40
341.0
 40
341.0
 40
342.0
 40
342.0
 40
343.0
 40
343.0
 40
344.0
 40
344.0
 40
345.0
 40
345.0
 40
346.0
 40
346.0
 40
347.0
 40
347.0
 40
348.0
 40
348.0
 40
349.0
 40
349.0
 40
350.0
 40
350.0
 40
351.0
 40
351.0
 40
352.0
 40
352.0
 40
353.0
 40
353.0
 40
354.0
 40
354.0
 40
355.0
 40
355.0
 40
356.0
 40
356.0
 40
357.0
 40
357.0
 40
358.0
 40
358.0
 40
359.0
 40
359.0
 40
360.0
 40
360.0
 40
361.0
 40
361.0
 40
362.0
 40
362.0
 40
363.0
 40
363.0
 40
364.0
 40
364.0
 40
365.0
 40
365.0
 40
366.0
 40
366.0
 40
367.0
 40
367.0
 40
368.0
 40
368.0
 40
369.0
 40
369.0
 40
370.0
 40
370.0
 40
371.0
 40
371.0
 40
372.0
 40
372.0
 40
373.0
 40
373.0
 40
374.0
 40
374.0
 40
375.0
 40
375.0
 40
376.0
 40
376.0
 40
377.0
 40
377.0
 40
378.0
 40
378.0
 40
379.0
 40
379.0
 40
380.0
 40
380.0
 40
381.0
 40
381.0
 40
382.0
 40
382.0
 40
383.0
 40
383.0
 40
384.0
 40
384.0
 40
385.0
 40
385.0
 40
386.0
 40
386.0
 40
387.0
 40
387.0
 40
388.0
 40
388.0
 40
389.0
 40
389.0
 40
389.0
 10
155.16746270049134
 20
559.70518306001145
 30
0.0
 41
1.0
 10
155.98588680921193
 20
559.70518306001145
 30
0.0
 41
1.0
 10
156.80431091793253
 20
559.70518306001145
 30
0.0
 41
1.0
 10
156.39055718241571
 20
558.36255679576175
 30
0.0
 41
1.0
 10
155.97680344689888
 20
557.01993053151205
 30
0.0
 41
1.0
 10
155.9951429420683
 20
557.04863130442595
 30
0.0
 41
0.9999957264382947
 10
156.01364993889692
 20
557.07722435457322
 30
0.0
 41
1.0
 10
156.04407926303452
 20
557.12423723294955
 30
0.0
 41
1.0
 10
156.07450858717209
 20
557.17125011132589
 30
0.0
 41
1.0
 10
156.15387423227747
 20
557.29386891822833
 30
0.0
 41
0.9995394069080834
 10
156.24053262382964
 20
557.41144697997026
 30
0.0
 41
1.0
 10
156.27628948609004
 20
557.45996187256458
 30
0.0
 41
1.0
 10
156.31204634835041
 20
557.50847676515889
 30
0.0
 41
1.0
 10
156.44577301616857
 20
557.68991704028554
 30
0.0
 41
0.9994460617143294
 10
156.59127349745586
 20
557.86205943793436
 30
0.0
 41
1.0
 10
156.59566167843093
 20
557.86725111831697
 30
0.0
 41
1.0
 10
156.600049859406
 20
557.87244279869969
 30
0.0
 41
1.0
 10
156.73677397874394
 20
558.0342018355841
 30
0.0
 41
0.9994359394934144
 10
156.88404820909523
 20
558.18641803674859
 30
0.0
 41
1.0
 10
156.88643156304914
 20
558.18888136712235
 30
0.0
 41
1.0
 10
156.88881491700303
 20
558.19134469749611
 30
0.0
 41
1.0
 10
157.03132243944646
 20
558.33863423791308
 30
0.0
 41
0.9995293688567744
 10
157.1825941204288
 20
558.47690745007742
 30
0.0
 41
1.0
 10
157.20188787969164
 20
558.49454333572817
 30
0.0
 41
1.0
 10
157.2211816389545
 20
558.51217922137891
 30
0.0
 41
1.0
 10
157.33386580141146
 20
558.61518066224198
 30
0.0
 41
0.9997087614803309
 10
157.45138869036589
 20
558.71262494303937
 30
0.0
 41
1.0
 10
157.47055476353955
 20
558.72851652154577
 30
0.0
 41
1.0
 10
157.48972083671325
 20
558.74440810005217
 30
0.0
 41
1.0
 10
157.56891157932003
 20
558.81006922383654
 30
0.0
 41
0.9999595338696417
 10
157.64927085017609
 20
558.87429495449226
 30
0.0
 41
1.0
 10
157.72963012103341
 20
558.93852068514889
 30
0.0
 41
0.9999749417499614
 10
157.81089065537887
 20
559.00160223909688
 30
0.0
 41
1.0
 10
157.83187680154299
 20
559.0178935263998
 30
0.0
 41
1.0
 10
157.85286294770711
 20
559.03418481370272
 30
0.0
 41
1.0
 10
157.93743083300711
 20
559.09983382354221
 30
0.0
 41
0.999979203712181
 10
158.02283843277712
 20
559.16438660518622
 30
0.0
 41
1.0
 10
158.04366325868037
 20
559.1801264274377
 30
0.0
 41
1.0
 10
158.06448808458362
 20
559.19586624968917
 30
0.0
 41
1.0
 10
158.10824603254582
 20
559.2289393868291
 30
0.0
 41
0.9999993374179492
 10
158.15192771868988
 20
559.26211318225387
 30
0.0
 41
1.0
 10
158.19560940483348
 20
559.29528697767819
 30
0.0
 41
0.9999160953814326
 10
158.24013581575366
 20
559.32731804287687
 30
0.0
 41
1.0
 10
158.27295770317266
 20
559.35092919846147
 30
0.0
 41
1.0
 10
158.30577959059167
 20
559.37454035404596
 30
0.0
 41
1.0
 10
158.41594977634983
 20
559.45379373041374
 30
0.0
 41
0.9980964527231763
 10
158.53503876985008
 20
559.51888120326953
 30
0.0
 41
1.0
 10
158.57207137677855
 20
559.5391211828628
 30
0.0
 41
1.0
 10
158.60910398370703
 20
559.55936116245618
 30
0.0
 41
1.0
 10
158.78843099697986
 20
559.65737141315731
 30
0.0
 41
0.9984572810572731
 10
158.977519563339
 20
559.73489367450372
 30
0.0
 41
1.0
 10
158.98116583273514
 20
559.73638856684181
 30
0.0
 41
1.0
 10
158.98481210213126
 20
559.7378834591799
 30
0.0
 41
1.0
 10
159.16660812969818
 20
559.81241593585014
 30
0.0
 41
0.998783852803421
 10
159.35486078825716
 20
559.86868157601589
 30
0.0
 41
1.0
 10
159.3590987374557
 20
559.8699482297061
 30
0.0
 41
1.0
 10
159.36333668665424
 20
559.87121488339619
 30
0.0
 41
1.0
 10
159.54311344681614
 20
559.92494721618164
 30
0.0
 41
0.9990652816207208
 10
159.72685937853225
 20
559.96295089572368
 30
0.0
 41
1.0
 10
159.73204777956255
 20
559.96402399883004
 30
0.0
 41
1.0
 10
159.73723618059282
 20
559.96509710193629
 30
0.0
 41
1.0
 10
159.91060531024698
 20
560.00095457526561
 30
0.0
 41
0.9992909934269975
 10
160.08618107670645
 20
560.02366500773223
 30
0.0
 41
1.0
 10
160.26175684316522
 20
560.04637544019874
 30
0.0
 41
0.9994553539448412
 10
160.4384482762589
 20
560.05745474440505
 30
0.0
 41
1.0
 10
160.47388268405456
 20
560.05967663245292
 30
0.0
 41
1.0
 10
160.50931709185022
 20
560.06189852050068
 30
0.0
 41
1.0
 10
160.67554285841911
 20
560.07232158291231
 30
0.0
 41
0.9990928098292925
 10
160.84205265032108
 20
560.06856194167779
 30
0.0
 41
1.0
 10
160.88061448559057
 20
560.06769125014489
 30
0.0
 41
1.0
 10
160.91917632086009
 20
560.06682055861199
 30
0.0
 41
1.0
 10
161.00856244222146
 20
560.06480230044338
 30
0.0
 41
0.9998382089204176
 10
161.09781812501001
 20
560.05957017391518
 30
0.0
 41
1.0
 10
161.09824803123252
 20
560.05954497301275
 30
0.0
 41
1.0
 10
161.09867793745499
 20
560.05951977211032
 30
0.0
 41
1.0
 10
161.18707380779887
 20
560.05433804738686
 30
0.0
 41
0.9997558016759193
 10
161.27515438499699
 20
560.04525553202063
 30
0.0
 41
1.0
 10
161.27563052342538
 20
560.04520643453816
 30
0.0
 41
1.0
 10
161.27610666185379
 20
560.0451573370558
 30
0.0
 41
1.0
 10
161.36323496219646
 20
560.0361730166544
 30
0.0
 41
0.9996565144181201
 10
161.44977281553986
 20
560.02263570996513
 30
0.0
 41
1.0
 10
161.45023874091794
 20
560.02256282423377
 30
0.0
 41
1.0
 10
161.45070466629605
 20
560.0224899385023
 30
0.0
 41
1.0
 10
161.53631066888244
 20
560.00909840327597
 30
0.0
 41
0.9995321806867203
 10
161.62093774920993
 20
559.99049791484686
 30
0.0
 41
1.0
 10
161.6213269437813
 20
559.99041237238112
 30
0.0
 41
1.0
 10
161.62171613835267
 20
559.99032682991538
 30
0.0
 41
1.0
 10
161.70556482953739
 20
559.97189742641774
 30
0.0
 41
0.9993819199219184
 10
161.78791136373411
 20
559.94762204315691
 30
0.0
 41
1.0
 10
161.78814979723253
 20
559.94755175404748
 30
0.0
 41
1.0
 10
161.78838823073096
 20
559.94748146493794
 30
0.0
 41
1.0
 10
161.87025789793046
 20
559.9233466598962
 30
0.0
 41
0.999208856850531
 10
161.94995041691857
 20
559.89278142410183
 30
0.0
 41
1.0
 10
162.02963140779758
 20
559.86222182336871
 30
0.0
 41
0.9990226101772814
 10
162.10630207770475
 20
559.82474439175405
 30
0.0
 41
1.0
 10
162.1829612195036
 20
559.78727259520019
 30
0.0
 41
0.9988424273972708
 10
162.25566484671629
 20
559.74260781994701
 30
0.0
 41
1.0
 10
162.25593255509506
 20
559.74244335587514
 30
0.0
 41
1.0
 10
162.25620026347383
 20
559.74227889180327
 30
0.0
 41
1.0
 10
162.32943930744432
 20
559.69728518840623
 30
0.0
 41
0.9986928844491021
 10
162.39770217415409
 20
559.64504945412659
 30
0.0
 41
1.0
 10
162.39828346637705
 20
559.64460464089848
 30
0.0
 41
1.0
 10
162.39886475859998
 20
559.64415982767048
 30
0.0
 41
1.0
 10
162.46829020975545
 20
559.59103446693484
 30
0.0
 41
0.9986007262278833
 10
162.53171637952244
 20
559.53087369724119
 30
0.0
 41
1.0
 10
162.53261079497946
 20
559.53002532940627
 30
0.0
 41
1.0
 10
162.53350521043649
 20
559.52917696157135
 30
0.0
 41
1.0
 10
162.59872021111747
 20
559.46731945620797
 30
0.0
 41
0.9985581491381089
 10
162.65692782281926
 20
559.39882696593622
 30
0.0
 41
1.0
 10
162.66618627641515
 20
559.38793260823445
 30
0.0
 41
1.0
 10
162.67544473001101
 20
559.37703825053256
 30
0.0
 41
1.0
 10
162.75216924890438
 20
559.28675704485715
 30
0.0
 41
0.9970460233520958
 10
162.81416115006374
 20
559.18578996067561
 30
0.0
 41
1.0
 10
162.82863051514329
 20
559.16222350159433
 30
0.0
 41
1.0
 10
162.84309988022284
 20
559.13865704251305
 30
0.0
 41
1.0
 10
162.88283658023479
 20
559.07393731848197
 30
0.0
 41
0.998846881663628
 10
162.91618295098647
 20
559.00570486605397
 30
0.0
 41
1.0
 10
162.92321897347853
 20
558.99130794491532
 30
0.0
 41
1.0
 10
162.93025499597061
 20
558.97691102377667
 30
0.0
 41
1.0
 10
162.94952932173805
 20
558.9374724136261
 30
0.0
 41
0.999843118999863
 10
162.96739464923303
 20
558.89737585918556
 30
0.0
 41
1.0
 10
162.98525997672419
 20
558.85727930475355
 30
0.0
 41
0.9999989989917829
 10
163.00323870015544
 20
558.81723346714887
 30
0.0
 41
1.0
 10
163.00941101174692
 20
558.80348525034231
 30
0.0
 41
1.0
 10
163.01558332333843
 20
558.78973703353574
 30
0.0
 41
1.0
 10
163.04590666994758
 20
558.72219476232976
 30
0.0
 41
0.9998790356321488
 10
163.07411455008577
 20
558.65374201039197
 30
0.0
 41
1.0
 10
163.08094973137059
 20
558.63715490896334
 30
0.0
 41
1.0
 10
163.08778491265545
 20
558.62056780753471
 30
0.0
 41
1.0
 10
163.11134257503602
 20
558.56339985264879
 30
0.0
 41
0.9998227574560608
 10
163.13273132342511
 20
558.50538554437173
 30
0.0
 41
1.0
 10
163.15412007181476
 20
558.44737123609309
 30
0.0
 41
0.9996797971041692
 10
163.17254635677358
 20
558.38834911697597
 30
0.0
 41
1.0
 10
163.17645015949913
 20
558.37584465880718
 30
0.0
 41
1.0
 10
163.18035396222467
 20
558.36334020063828
 30
0.0
 41
1.0
 10
163.20658785263512
 20
558.27930916518187
 30
0.0
 41
0.9979274938734289
 10
163.22181237611429
 20
558.19260480652156
 30
0.0
 41
1.0
 10
163.22403606337542
 20
558.17994080570065
 30
0.0
 41
1.0
 10
163.22625975063656
 20
558.16727680487975
 30
0.0
 41
1.0
 10
163.2371896903349
 20
558.105030297589
 30
0.0
 41
0.9994985982137353
 10
163.24415785551184
 20
558.04221679644741
 30
0.0
 41
1.0
 10
163.25112602068882
 20
557.97940329530593
 30
0.0
 41
0.999637261120064
 10
163.25470188645647
 20
557.91630571662347
 30
0.0
 41
1.0
 10
163.25487046394579
 20
557.91333109954121
 30
0.0
 41
1.0
 10
163.25503904143511
 20
557.91035648245884
 30
0.0
 41
1.0
 10
163.25895206218141
 20
557.84130966961197
 30
0.0
 41
0.9997730630737296
 10
163.25992037566951
 20
557.77215884557882
 30
0.0
 41
1.0
 10
163.25997748208761
 20
557.76808066643684
 30
0.0
 41
1.0
 10
163.26003458850573
 20
557.76400248729487
 30
0.0
 41
1.0
 10
163.26111711483006
 20
557.68669530497664
 30
0.0
 41
0.9998772614072592
 10
163.25977702809823
 20
557.60939215841029
 30
0.0
 41
1.0
 10
163.25968776489952
 20
557.60424299457645
 30
0.0
 41
1.0
 10
163.25959850170079
 20
557.59909383074273
 30
0.0
 41
1.0
 10
163.25807988857161
 20
557.51149235651246
 30
0.0
 41
0.9999415567327676
 10
163.25466757832572
 20
557.42394419483617
 30
0.0
 41
1.0
 10
163.25442625765035
 20
557.41775273509745
 30
0.0
 41
1.0
 10
163.25418493697498
 20
557.41156127535874
 30
0.0
 41
1.0
 10
163.25028998537826
 20
557.31163019420535
 30
0.0
 41
0.999971681043067
 10
163.24489140225981
 20
557.21176905597849
 30
0.0
 41
1.0
 10
163.24167860347109
 20
557.15233980632229
 30
0.0
 41
1.0
 10
163.23846580468236
 20
557.09291055666608
 30
0.0
 41
1.0
 10
163.23039189552955
 20
556.94356215538232
 30
0.0
 41
0.9999819129893974
 10
163.22052210391314
 20
556.79432167767322
 30
0.0
 41
1.0
 10
163.21065231229659
 20
556.64508119996185
 30
0.0
 41
1.0
 10
163.20821299173258
 20
556.60788815411252
 30
0.0
 41
1.0
 10
163.23091122556826
 20
556.64662915145027
 30
0.0
 41
0.9999982128023151
 10
163.25375578432906
 20
556.68528404541735
 30
0.0
 41
1.0
 10
163.28066534420884
 20
556.73081725946395
 30
0.0
 41
1.0
 10
163.3075749040886
 20
556.77635047351055
 30
0.0
 41
1.0
 10
163.38423858261427
 20
556.90607179557992
 30
0.0
 41
0.9998609190056224
 10
163.46518589547773
 20
557.03316417751194
 30
0.0
 41
1.0
 10
163.49483421695837
 20
557.07971391046738
 30
0.0
 41
1.0
 10
163.524482538439
 20
557.12626364342282
 30
0.0
 41
1.0
 10
163.60675475867748
 20
557.25543621342001
 30
0.0
 41
0.9999067609734871
 10
163.69252376814086
 20
557.38231390286035
 30
0.0
 41
1.0
 10
163.69492847134225
 20
557.38587116891586
 30
0.0
 41
1.0
 10
163.69733317454364
 20
557.38942843497148
 30
0.0
 41
1.0
 10
163.77829277760387
 20
557.50919159230023
 30
0.0
 41
0.9998784952148233
 10
163.86294638728623
 20
557.62637280901038
 30
0.0
 41
1.0
 10
163.94759999696674
 20
557.74355402571814
 30
0.0
 41
0.999853296828344
 10
164.0362176177901
 20
557.85776693418927
 30
0.0
 41
1.0
 10
164.05617940678133
 20
557.8834942552096
 30
0.0
 41
1.0
 10
164.07614119577252
 20
557.90922157622981
 30
0.0
 41
1.0
 10
164.19462524553151
 20
558.06192718719842
 30
0.0
 41
0.9991551975795311
 10
164.32524969515498
 20
558.20438674928187
 30
0.0
 41
1.0
 10
164.328759311135
 20
558.20821435090647
 30
0.0
 41
1.0
 10
164.33226892711502
 20
558.21204195253108
 30
0.0
 41
1.0
 10
164.45587414477856
 20
558.34684631136543
 30
0.0
 41
0.9997418144181187
 10
164.58547628447911
 20
558.47589572197785
 30
0.0
 41
1.0
 10
164.71507842417967
 20
558.60494513259027
 30
0.0
 41
0.9989238204633145
 10
164.85608097243039
 20
558.721430094629
 30
0.0
 41
1.0
 10
164.90132865057012
 20
558.75881008623787
 30
0.0
 41
1.0
 10
164.94657632870985
 20
558.79619007784675
 30
0.0
 41
1.0
 10
165.08681638593114
 20
558.91204513113757
 30
0.0
 41
0.9990825084096617
 10
165.23645631853515
 20
559.0154741289706
 30
0.0
 41
1.0
 10
165.24650168259257
 20
559.0224173420504
 30
0.0
 41
1.0
 10
165.25654704665001
 20
559.02936055513032
 30
0.0
 41
1.0
 10
165.38609625114006
 20
559.11890312680418
 30
0.0
 41
0.9998164899826663
 10
165.51898045451537
 20
559.20341736831995
 30
0.0
 41
1.0
 10
165.53082601504062
 20
559.21095113484512
 30
0.0
 41
1.0
 10
165.54267157556586
 20
559.2184849013704
 30
0.0
 41
1.0
 10
165.65186465789057
 20
559.28793160983571
 30
0.0
 41
0.9997473449130397
 10
165.76406861514101
 20
559.35240056765201
 30
0.0
 41
1.0
 10
165.87627257239166
 20
559.41686952546843
 30
0.0
 41
0.9999327861145037
 10
165.98994118315656
 20
559.47871951715058
 30
0.0
 41
1.0
 10
165.99049318571599
 20
559.47901987582895
 30
0.0
 41
1.0
 10
165.99104518827539
 20
559.47932023450744
 30
0.0
 41
1.0
 10
166.10581780415959
 20
559.54177094354679
 30
0.0
 41
0.9996956420484007
 10
166.22353112999895
 20
559.59848441052122
 30
0.0
 41
1.0
 10
166.25397153489314
 20
559.61315038725184
 30
0.0
 41
1.0
 10
166.2844119397873
 20
559.62781636398256
 30
0.0
 41
1.0
 10
166.38738904653013
 20
559.6774300224256
 30
0.0
 41
0.999807057017608
 10
166.49223543547055
 20
559.72296060932638
 30
0.0
 41
1.0
 10
166.59708182441148
 20
559.76849119622739
 30
0.0
 41
0.9997827436147055
 10
166.70373476102063
 20
559.80961236753888
 30
0.0
 41
1.0
 10
166.72295761065243
 20
559.81702394117144
 30
0.0
 41
1.0
 10
166.7421804602842
 20
559.82443551480401
 30
0.0
 41
1.0
 10
166.88727909615682
 20
559.88037983338063
 30
0.0
 41
0.9988031841976964
 10
167.03714945876143
 20
559.92187989754837
 30
0.0
 41
1.0
 10
167.06206670712561
 20
559.92877964335548
 30
0.0
 41
1.0
 10
167.08698395548981
 20
559.9356793891626
 30
0.0
 41
1.0
 10
167.25425398113612
 20
559.98199753156916
 30
0.0
 41
0.9984748040550152
 10
167.42561088978425
 20
560.0095917638339
 30
0.0
 41
1.0
 10
167.43035002603258
 20
560.01035492434721
 30
0.0
 41
1.0
 10
167.43508916228092
 20
560.01111808486064
 30
0.0
 41
1.0
 10
167.59696779843259
 20
560.03718599609874
 30
0.0
 41
0.9984436495479879
 10
167.76074254215791
 20
560.04506394991745
 30
0.0
 41
1.0
 10
167.78243975028931
 20
560.04610763711707
 30
0.0
 41
1.0
 10
167.80413695842068
 20
560.04715132431681
 30
0.0
 41
1.0
 10
167.92451728588264
 20
560.05294190373615
 30
0.0
 41
0.998795478933537
 10
168.0448855307925
 20
560.0469053759939
 30
0.0
 41
1.0
 10
168.06485032328695
 20
560.04590413165533
 30
0.0
 41
1.0
 10
168.0848151157814
 20
560.04490288731677
 30
0.0
 41
1.0
 10
168.1652537757023
 20
560.04086884825165
 30
0.0
 41
0.9997941595878246
 10
168.24546255379687
 20
560.03357478233056
 30
0.0
 41
1.0
 10
168.32567133189229
 20
560.02628071640936
 30
0.0
 41
0.9998589466235507
 10
168.40558987874826
 20
560.01629686195918
 30
0.0
 41
1.0
 10
168.43799608055554
 20
560.01224850504013
 30
0.0
 41
1.0
 10
168.47040228236278
 20
560.00820014812098
 30
0.0
 41
1.0
 10
168.61513323283353
 20
559.99011957983259
 30
0.0
 41
0.9993495063248931
 10
168.75818447659827
 20
559.96165387009114
 30
0.0
 41
1.0
 10
168.79111817375247
 20
559.95510040687589
 30
0.0
 41
1.0
 10
168.82405187090669
 20
559.94854694366063
 30
0.0
 41
1.0
 10
168.93334569411007
 20
559.92679860952546
 30
0.0
 41
0.9996788715561875
 10
169.04139726606491
 20
559.89954081016276
 30
0.0
 41
1.0
 10
169.04346026860404
 20
559.8990203835898
 30
0.0
 41
1.0
 10
169.04552327114317
 20
559.89849995701684
 30
0.0
 41
1.0
 10
169.14944883802133
 20
559.87228301079972
 30
0.0
 41
0.9995480654492085
 10
169.25161107325061
 20
559.83986805417533
 30
0.0
 41
1.0
 10
169.25330071537911
 20
559.83933194926158
 30
0.0
 41
1.0
 10
169.25499035750761
 20
559.83879584434783
 30
0.0
 41
1.0
 10
169.35377330847939
 20
559.80745309755116
 30
0.0
 41
0.9993867959456283
 10
169.4501204669225
 20
559.76927372826117
 30
0.0
 41
1.0
 10
169.45136341600735
 20
559.76878118636489
 30
0.0
 41
1.0
 10
169.45260636509221
 20
559.76828864446861
 30
0.0
 41
1.0
 10
169.54646762536501
 20
559.7310943589714
 30
0.0
 41
0.9992050256522179
 10
169.63706730039848
 20
559.68654045973267
 30
0.0
 41
1.0
 10
169.63780198311099
 20
559.6861791672718
 30
0.0
 41
1.0
 10
169.63853666582352
 20
559.68581787481094
 30
0.0
 41
1.0
 10
169.72766697543153
 20
559.64198656049416
 30
0.0
 41
0.9990222350741443
 10
169.81257703682559
 20
559.59045329279559
 30
0.0
 41
1.0
 10
169.81276092210817
 20
559.59034168989092
 30
0.0
 41
1.0
 10
169.81294480739078
 20
559.59023008698614
 30
0.0
 41
1.0
 10
169.89748709821907
 20
559.53892002509735
 30
0.0
 41
0.9988642743805186
 10
169.97676163283813
 20
559.47979583757206
 30
0.0
 41
1.0
 10
170.05603616745691
 20
559.42067165004698
 30
0.0
 41
0.9987681233310997
 10
170.1290599517333
 20
559.35398095864593
 30
0.0
 41
1.0
 10
170.12938887969909
 20
559.35368055743174
 30
0.0
 41
1.0
 10
170.12971780766486
 20
559.35338015621767
 30
0.0
 41
1.0
 10
170.20339944787284
 20
559.28608866238824
 30
0.0
 41
0.9987496570898898
 10
170.26999325320068
 20
559.21177584830104
 30
0.0
 41
1.0
 10
170.27076542296078
 20
559.21091417494358
 30
0.0
 41
1.0
 10
170.27153759272085
 20
559.21005250158601
 30
0.0
 41
1.0
 10
170.33967573756888
 20
559.13401634078366
 30
0.0
 41
0.9988147669826977
 10
170.40009799179401
 20
559.05171533394105
 30
0.0
 41
1.0
 10
170.40121731787173
 20
559.05019070258857
 30
0.0
 41
1.0
 10
170.40233664394941
 20
559.04866607123608
 30
0.0
 41
1.0
 10
170.46499755032985
 20
558.96331580168862
 30
0.0
 41
0.9989452636215878
 10
170.51956446329132
 20
558.87257711253039
 30
0.0
 41
1.0
 10
170.52091318937687
 20
558.87033433150441
 30
0.0
 41
1.0
 10
170.52226191546242
 20
558.86809155047843
 30
0.0
 41
1.0
 10
170.57952628059502
 20
558.77286729926823
 30
0.0
 41
0.9991046436070977
 10
170.62853549391662
 20
558.6731428662431
 30
0.0
 41
1.0
 10
170.6299993555067
 20
558.6701641861705
 30
0.0
 41
1.0
 10
170.63146321709678
 20
558.66718550609778
 30
0.0
 41
1.0
 10
170.68340015359837
 20
558.56150371292779
 30
0.0
 41
0.9992763831100843
 10
170.72715328215327
 20
558.45217965097231
 30
0.0
 41
1.0
 10
170.72863255181676
 20
558.44848346343827
 30
0.0
 41
1.0
 10
170.73011182148025
 20
558.44478727590422
 30
0.0
 41
1.0
 10
170.77682348936176
 20
558.32807083888167
 30
0.0
 41
0.9994163472883223
 10
170.81545652055158
 20
558.20843725041743
 30
0.0
 41
1.0
 10
170.81669467279852
 20
558.20460310663418
 30
0.0
 41
1.0
 10
170.81793282504543
 20
558.20076896285093
 30
0.0
 41
1.0
 10
170.85781638606261
 20
558.07726290137271
 30
0.0
 41
0.9997268055890626
 10
170.89188444197453
 20
557.95202786942241
 30
0.0
 41
1.0
 10
170.89281462224449
 20
557.94860850331224
 30
0.0
 41
1.0
 10
170.89374480251442
 20
557.94518913720196
 30
0.0
 41
1.0
 10
170.92595249788687
 20
557.82679283747029
 30
0.0
 41
0.9996701319000055
 10
170.95203811465694
 20
557.70689888420827
 30
0.0
 41
1.0
 10
170.97812373142744
 20
557.58700493094443
 30
0.0
 41
0.9995785451109366
 10
170.99720730876703
 20
557.46579916991413
 30
0.0
 41
1.0
 10
171.00142709094075
 20
557.43899801514908
 30
0.0
 41
1.0
 10
171.0056468731145
 20
557.41219686038403
 30
0.0
 41
1.0
 10
171.03222184905326
 20
557.24341088668018
 30
0.0
 41
0.9979925101216525
 10
171.03724743497958
 20
557.07261955858849
 30
0.0
 41
1.0
 10
171.03807224740422
 20
557.04458883510688
 30
0.0
 41
1.0
 10
171.03889705982888
 20
557.01655811162527
 30
0.0
 41
1.0
 10
171.04227302090592
 20
556.90182823049736
 30
0.0
 41
0.9995314902263177
 10
171.03862282876742
 20
556.78710674674483
 30
0.0
 41
1.0
 10
171.03497263662891
 20
556.67238526299241
 30
0.0
 41
0.9996245486944003
 10
171.02504354149804
 20
556.55803599186822
 30
0.0
 41
1.0
 10
171.02488049350382
 20
556.55615823573339
 30
0.0
 41
1.0
 10
171.02471744550962
 20
556.55428047959845
 30
0.0
 41
1.0
 10
171.01446225439034
 20
556.43617569620437
 30
0.0
 41
0.999728609500068
 10
170.99871693081886
 20
556.31867678730987
 30
0.0
 41
1.0
 10
170.99832343816848
 20
556.3157403626077
 30
0.0
 41
1.0
 10
170.99792994551808
 20
556.31280393790553
 30
0.0
 41
1.0
 10
170.98139763664614
 20
556.18943217960839
 30
0.0
 41
0.9998265533970238
 10
170.96028217791326
 20
556.06676170481853
 30
0.0
 41
1.0
 10
170.95960563577611
 20
556.06283132631108
 30
0.0
 41
1.0
 10
170.95892909363897
 20
556.05890094780364
 30
0.0
 41
1.0
 10
170.93646055063201
 20
555.92836971599968
 30
0.0
 41
0.9999022530850553
 10
170.91035108602264
 20
555.79851774736426
 30
0.0
 41
1.0
 10
170.90937244485701
 20
555.79365060497571
 30
0.0
 41
1.0
 10
170.90839380369141
 20
555.78878346258716
 30
0.0
 41
1.0
 10
170.88032705675116
 20
555.6491972091759
 30
0.0
 41
0.9999524761937101
 10
170.84954408791583
 20
555.51018471600901
 30
0.0
 41
1.0
 10
170.84826798074042
 20
555.50442195670689
 30
0.0
 41
1.0
 10
170.846991873565
 20
555.49865919740466
 30
0.0
 41
1.0
 10
170.81365669037984
 20
555.34812118563764
 30
0.0
 41
0.9999813588715171
 10
170.77848568958299
 20
555.19800147297735
 30
0.0
 41
1.0
 10
170.77693176412674
 20
555.19136888255616
 30
0.0
 41
1.0
 10
170.77537783867047
 20
555.18473629213486
 30
0.0
 41
1.0
 10
170.73709898696382
 20
555.02135139864367
 30
0.0
 41
0.9999955237649766
 10
170.69784310898191
 20
554.85819849503139
 30
0.0
 41
1.0
 10
170.68556147334709
 20
554.80715430450641
 30
0.0
 41
1.0
 10
170.67327983771224
 20
554.75611011398155
 30
0.0
 41
1.0
 10
170.60946068846101
 20
554.4908688293209
 30
0.0
 41
0.999999360441043
 10
170.54504174128502
 20
554.22577257860371
 30
0.0
 41
1.0
 10
170.54032290574298
 20
554.20635367058389
 30
0.0
 41
1.0
 10
170.53560407020098
 20
554.18693476256419
 30
0.0
 41
1.0
 10
170.46174745193872
 20
553.88300069579827
 30
0.0
 41
0.9999659914727264
 10
170.38288785605258
 20
553.58032614923559
 30
0.0
 41
1.0
 10
170.37793516712327
 20
553.56131701205834
 30
0.0
 41
1.0
 10
170.37298247819399
 20
553.54230787488109
 30
0.0
 41
1.0
 10
170.28421750444932
 20
553.20161505396391
 30
0.0
 41
0.9999441976023561
 10
170.18827447148473
 20
552.86287362866142
 30
0.0
 41
1.0
 10
170.17157395305941
 20
552.80390991613444
 30
0.0
 41
1.0
 10
170.15487343463406
 20
552.74494620360758
 30
0.0
 41
1.0
 10
170.02552936481931
 20
552.28827735325308
 30
0.0
 41
0.9999625120729683
 10
169.8882965974957
 20
551.83391681925639
 30
0.0
 41
1.0
 10
169.85250665441225
 20
551.7154207926277
 30
0.0
 41
1.0
 10
169.81671671132878
 20
551.59692476599901
 30
0.0
 41
1.0
 10
169.74219650728827
 20
551.3501976878988
 30
0.0
 41
0.9999793386309936
 10
169.66451048415138
 20
551.10444904866495
 30
0.0
 41
1.0
 10
169.58682446101375
 20
550.85870040942882
 30
0.0
 41
1.0
 10
169.57604490214317
 20
550.82468250505417
 30
0.0
 41
1.0
 10
167.72567184887407
 20
544.93761058258667
 30
0.0
 41
1.0
 10
165.87529879560498
 20
539.05053866011917
 30
0.0
 41
1.0
 10
164.9140421055813
 20
539.05053866011917
 30
0.0
 41
1.0
 10
163.95278541555763
 20
539.05053866011917
 30
0.0
 41
1.0
 10
165.57173019423612
 20
544.19856716190861
 30
0.0
 41
1.0
 10
167.19067497291462
 20
549.34659566369805
 30
0.0
 41
1.0
 10
167.23584079608958
 20
549.49062688596996
 30
0.0
 41
1.0
 10
167.28100661926456
 20
549.63465810824187
 30
0.0
 41
1.0
 10
167.45131103662641
 20
550.17774913740141
 30
0.0
 41
0.9999911657919735
 10
167.61704384830625
 20
550.72225266876399
 30
0.0
 41
1.0
 10
167.64673979180537
 20
550.81981660881024
 30
0.0
 41
1.0
 10
167.67643573530449
 20
550.91738054885639
 30
0.0
 41
1.0
 10
167.78277665998442
 20
551.26675620012111
 30
0.0
 41
0.9999952428132712
 10
167.8869602493113
 20
551.61678122447722
 30
0.0
 41
1.0
 10
167.89201971964323
 20
551.63377949875053
 30
0.0
 41
1.0
 10
167.89707918997516
 20
551.65077777302395
 30
0.0
 41
1.0
 10
167.99114383863466
 20
551.96680624882129
 30
0.0
 41
0.9999931687504626
 10
168.08286967650997
 20
552.28352146209727
 30
0.0
 41
1.0
 10
168.08780494096834
 20
552.30056217136428
 30
0.0
 41
1.0
 10
168.09274020542671
 20
552.31760288063128
 30
0.0
 41
1.0
 10
168.17459551438247
 20
552.60023667536348
 30
0.0
 41
0.999989384080703
 10
168.25384274084058
 20
552.88361280461436
 30
0.0
 41
1.0
 10
168.33308996729812
 20
553.16698893386331
 30
0.0
 41
0.9999833980061094
 10
168.40906620803833
 20
553.45125951688647
 30
0.0
 41
1.0
 10
168.41807014476132
 20
553.48494839536761
 30
0.0
 41
1.0
 10
168.42707408148431
 20
553.51863727384864
 30
0.0
 41
1.0
 10
168.4960386303506
 20
553.77667310614515
 30
0.0
 41
0.9999233658068342
 10
168.55859360157081
 20
554.03633726486737
 30
0.0
 41
1.0
 10
168.62114857279107
 20
554.29600142358981
 30
0.0
 41
1.0
 10
168.66063199164864
 20
554.45980808801596
 30
0.0
 41
1.0
 10
168.66561059562559
 20
554.48046304988509
 30
0.0
 41
1.0
 10
168.67058919960257
 20
554.50111801175422
 30
0.0
 41
1.0
 10
168.70011541050599
 20
554.62361475244097
 30
0.0
 41
0.9999868670855869
 10
168.72838449450239
 20
554.74640769808752
 30
0.0
 41
1.0
 10
168.73228198166066
 20
554.76333728550685
 30
0.0
 41
1.0
 10
168.73617946881893
 20
554.78026687292629
 30
0.0
 41
1.0
 10
168.75665357849851
 20
554.86920064373271
 30
0.0
 41
0.999977817335003
 10
168.77594117661397
 20
554.95839926096346
 30
0.0
 41
1.0
 10
168.7952287747292
 20
555.0475978781933
 30
0.0
 41
0.9999602692865753
 10
168.81292313336098
 20
555.13712616662428
 30
0.0
 41
1.0
 10
168.81612696543823
 20
555.15333662150795
 30
0.0
 41
1.0
 10
168.81933079751548
 20
555.16954707639161
 30
0.0
 41
1.0
 10
168.84343282030173
 20
555.29149627458992
 30
0.0
 41
0.9995617985319956
 10
168.86027616752031
 20
555.41465802229527
 30
0.0
 41
1.0
 10
168.8627406574266
 20
555.43267883966155
 30
0.0
 41
1.0
 10
168.86520514733289
 20
555.45069965702771
 30
0.0
 41
1.0
 10
168.88548840838098
 20
555.59901470672753
 30
0.0
 41
0.9991121410639986
 10
168.89321376196926
 20
555.74851080553401
 30
0.0
 41
1.0
 10
168.89413255199383
 20
555.76629064211056
 30
0.0
 41
1.0
 10
168.89505134201841
 20
555.784070478687
 30
0.0
 41
1.0
 10
168.90093911555755
 20
555.89800690434049
 30
0.0
 41
0.9989792494905387
 10
168.89652002344019
 20
556.01200974023857
 30
0.0
 41
1.0
 10
168.89587205157153
 20
556.02872598616568
 30
0.0
 41
1.0
 10
168.8952240797029
 20
556.0454422320928
 30
0.0
 41
1.0
 10
168.89210093132289
 20
556.12601257613608
 30
0.0
 41
0.9997820295394448
 10
168.88561693394718
 20
556.20638229788096
 30
0.0
 41
1.0
 10
168.87913293657158
 20
556.28675201962426
 30
0.0
 41
0.9998335105972589
 10
168.86972074105995
 20
556.36683163607404
 30
0.0
 41
1.0
 10
168.86812581638355
 20
556.38040136655763
 30
0.0
 41
1.0
 10
168.86653089170716
 20
556.39397109704112
 30
0.0
 41
1.0
 10
168.85392884684276
 20
556.50119017445752
 30
0.0
 41
0.9996876457878544
 10
168.83598493404443
 20
556.60764560217274
 30
0.0
 41
1.0
 10
168.83375327089908
 20
556.62088533741485
 30
0.0
 41
1.0
 10
168.8315216077537
 20
556.63412507265684
 30
0.0
 41
1.0
 10
168.8177257863324
 20
556.71597121661614
 30
0.0
 41
0.9995547496495298
 10
168.79907246444009
 20
556.79684871380641
 30
0.0
 41
1.0
 10
168.79869850756887
 20
556.79847012451148
 30
0.0
 41
1.0
 10
168.79832455069766
 20
556.80009153521655
 30
0.0
 41
1.0
 10
168.78041914254766
 20
556.87772621099725
 30
0.0
 41
0.9994899427175131
 10
168.75759423386819
 20
556.95405949383201
 30
0.0
 41
1.0
 10
168.7571357071273
 20
556.95559294362101
 30
0.0
 41
1.0
 10
168.75667718038642
 20
556.95712639341014
 30
0.0
 41
1.0
 10
168.73476932518875
 20
557.03039277666653
 30
0.0
 41
0.9993784877590497
 10
168.7077536900822
 20
557.10193348182543
 30
0.0
 41
1.0
 10
168.70722199910534
 20
557.10334146454579
 30
0.0
 41
1.0
 10
168.70669030812851
 20
557.10474944726616
 30
0.0
 41
1.0
 10
168.68073805497559
 20
557.17347418698455
 30
0.0
 41
0.9992430832254288
 10
168.64952151981618
 20
557.23997333905277
 30
0.0
 41
1.0
 10
168.64893940375975
 20
557.24121339416968
 30
0.0
 41
1.0
 10
168.64835728770333
 20
557.24245344928659
 30
0.0
 41
1.0
 10
168.61830498465702
 20
557.30647249112053
 30
0.0
 41
0.9990789632798808
 10
168.5828743578802
 20
557.36767910287062
 30
0.0
 41
1.0
 10
168.5822786516984
 20
557.36870818872944
 30
0.0
 41
1.0
 10
168.5816829455166
 20
557.36973727458837
 30
0.0
 41
1.0
 10
168.54744373110361
 20
557.42888571462026
 30
0.0
 41
0.9988874801120511
 10
168.50778445507149
 20
557.48454542703814
 30
0.0
 41
1.0
 10
168.50722892900731
 20
557.48532507871278
 30
0.0
 41
1.0
 10
168.50667340294314
 20
557.48610473038741
 30
0.0
 41
1.0
 10
168.46812517903905
 20
557.54020513945636
 30
0.0
 41
0.9986762060693322
 10
168.42422270776319
 20
557.59005885389513
 30
0.0
 41
1.0
 10
168.42377874743093
 20
557.59056299571182
 30
0.0
 41
1.0
 10
168.42333478709867
 20
557.59106713752851
 30
0.0
 41
1.0
 10
168.38032023648717
 20
557.63991256833401
 30
0.0
 41
0.9984621642488958
 10
168.3321626797092
 20
557.68369586880544
 30
0.0
 41
1.0
 10
168.33191604519263
 20
557.68392010096898
 30
0.0
 41
1.0
 10
168.33166941067606
 20
557.68414433313251
 30
0.0
 41
1.0
 10
168.28400512293126
 20
557.72747916927665
 30
0.0
 41
0.9982724693851577
 10
168.23158649108996
 20
557.76492351979425
 30
0.0
 41
1.0
 10
168.17916785924839
 20
557.80236787031197
 30
0.0
 41
0.9981399180159331
 10
168.12258179585464
 20
557.83315438975569
 30
0.0
 41
1.0
 10
168.12253613377646
 20
557.8331792329127
 30
0.0
 41
1.0
 10
168.12249047169826
 20
557.83320407606971
 30
0.0
 41
1.0
 10
168.06581308414835
 20
557.86404028182733
 30
0.0
 41
0.9980927086837075
 10
168.00576773308254
 20
557.88765709067968
 30
0.0
 41
1.0
 10
168.00532756337037
 20
557.8878302165549
 30
0.0
 41
1.0
 10
168.00488739365824
 20
557.88800334243001
 30
0.0
 41
1.0
 10
167.94396170316841
 20
557.91196640303247
 30
0.0
 41
0.9981411356561831
 10
167.88057318176865
 20
557.92833904453812
 30
0.0
 41
1.0
 10
167.87969106506745
 20
557.92856688674351
 30
0.0
 41
1.0
 10
167.87880894836621
 20
557.92879472894901
 30
0.0
 41
1.0
 10
167.81365619356404
 20
557.94562305486556
 30
0.0
 41
0.9983031812935117
 10
167.74698876456961
 20
557.95476241604172
 30
0.0
 41
1.0
 10
167.7381177391654
 20
557.95597853471304
 30
0.0
 41
1.0
 10
167.7292467137612
 20
557.95719465338436
 30
0.0
 41
1.0
 10
167.67489707125728
 20
557.96464538337545
 30
0.0
 41
0.9983887708262935
 10
167.62005322196444
 20
557.96589005700878
 30
0.0
 41
1.0
 10
167.61198981674698
 20
557.96607305488362
 30
0.0
 41
1.0
 10
167.60392641152953
 20
557.96625605275847
 30
0.0
 41
1.0
 10
167.5652093726716
 20
557.9671347306421
 30
0.0
 41
0.9998869563077523
 10
167.52648341946895
 20
557.96684886128241
 30
0.0
 41
1.0
 10
167.48775746625836
 20
557.96656299192261
 30
0.0
 41
0.9999972320153193
 10
167.44903328704055
 20
557.96609489239347
 30
0.0
 41
1.0
 10
167.42968027046803
 20
557.96586095230418
 30
0.0
 41
1.0
 10
167.4103272538955
 20
557.9656270122149
 30
0.0
 41
1.0
 10
167.33289704152429
 20
557.96469103250706
 30
0.0
 41
0.9997304945088074
 10
167.25559373528625
 20
557.96016193872094
 30
0.0
 41
1.0
 10
167.24654409358246
 20
557.95963173273105
 30
0.0
 41
1.0
 10
167.23749445187866
 20
557.95910152674116
 30
0.0
 41
1.0
 10
167.14209186223434
 20
557.95351202097538
 30
0.0
 41
0.9997888306416241
 10
167.04699952639393
 20
557.9440070564865
 30
0.0
 41
1.0
 10
167.0382784648192
 20
557.94313534185426
 30
0.0
 41
1.0
 10
167.02955740324444
 20
557.94226362722191
 30
0.0
 41
1.0
 10
166.91702294425568
 20
557.93101523346854
 30
0.0
 41
0.9984170238190769
 10
166.80646379690384
 20
557.90719915153261
 30
0.0
 41
1.0
 10
166.77008266591815
 20
557.89936211572672
 30
0.0
 41
1.0
 10
166.73370153493249
 20
557.89152507992071
 30
0.0
 41
1.0
 10
166.61851046651088
 20
557.86671121341101
 30
0.0
 41
0.9976592854199333
 10
166.50778230010565
 20
557.82641253626377
 30
0.0
 41
1.0
 10
166.39705413370032
 20
557.78611385911654
 30
0.0
 41
0.9993255074352129
 10
166.28958233490957
 20
557.73779696062411
 30
0.0
 41
1.0
 10
166.28495715598643
 20
557.73571758442449
 30
0.0
 41
1.0
 10
166.28033197706327
 20
557.73363820822476
 30
0.0
 41
1.0
 10
166.16360982042602
 20
557.68116255733287
 30
0.0
 41
0.9976475078275271
 10
166.05516247611578
 20
557.61321456767462
 30
0.0
 41
1.0
 10
166.03682008198095
 20
557.60172208886001
 30
0.0
 41
1.0
 10
166.01847768784612
 20
557.59022961004553
 30
0.0
 41
1.0
 10
165.9342754962947
 20
557.53747248927766
 30
0.0
 41
0.9995131336406445
 10
165.85352778133631
 20
557.47956627732378
 30
0.0
 41
1.0
 10
165.77278006637795
 20
557.42166006536991
 30
0.0
 41
0.9995810107606125
 10
165.69551841864845
 20
557.35917838290334
 30
0.0
 41
1.0
 10
165.69254838743922
 20
557.35677651143942
 30
0.0
 41
1.0
 10
165.68957835622996
 20
557.35437463997562
 30
0.0
 41
1.0
 10
165.60637664608117
 20
557.28708921458076
 30
0.0
 41
0.9996617837954667
 10
165.52678595894608
 20
557.21556875902104
 30
0.0
 41
1.0
 10
165.51465520806892
 20
557.20466802603028
 30
0.0
 41
1.0
 10
165.50252445719178
 20
557.19376729303951
 30
0.0
 41
1.0
 10
165.43424892979331
 20
557.13241467756541
 30
0.0
 41
0.9997267750052621
 10
165.36891542151045
 20
557.06793814104083
 30
0.0
 41
1.0
 10
165.3035819132291
 20
557.00346160451784
 30
0.0
 41
0.9999667288961885
 10
165.23930897008069
 20
556.93792779762168
 30
0.0
 41
1.0
 10
165.17048152230527
 20
556.86775013886313
 30
0.0
 41
1.0
 10
165.10165407452985
 20
556.79757248010458
 30
0.0
 41
1.0
 10
164.89972623583267
 20
556.59168335569336
 30
0.0
 41
0.9988205335175115
 10
164.7187206188533
 20
556.36717912363281
 30
0.0
 41
1.0
 10
164.68808065394873
 20
556.32917587320298
 30
0.0
 41
1.0
 10
164.65744068904417
 20
556.29117262277327
 30
0.0
 41
1.0
 10
164.41515514225571
 20
555.9906618898533
 30
0.0
 41
0.9997077826754814
 10
164.18767719115047
 20
555.67879209563705
 30
0.0
 41
1.0
 10
164.1859537760198
 20
555.67642931225714
 30
0.0
 41
1.0
 10
164.18423036088916
 20
555.67406652887735
 30
0.0
 41
1.0
 10
163.95330557952323
 20
555.35747116790219
 30
0.0
 41
0.9989147567078965
 10
163.75284207663927
 20
555.02076170671671
 30
0.0
 41
1.0
 10
163.7281009313329
 20
554.9792051261652
 30
0.0
 41
1.0
 10
163.70335978602651
 20
554.93764854561368
 30
0.0
 41
1.0
 10
163.54814848738781
 20
554.67694716115875
 30
0.0
 41
0.9997476598181335
 10
163.40480349987865
 20
554.40953741257704
 30
0.0
 41
1.0
 10
163.26145851236868
 20
554.14212766399396
 30
0.0
 41
0.9996258967109917
 10
163.13295026043681
 20
553.86727972736946
 30
0.0
 41
1.0
 10
163.11975035098681
 20
553.83904832727319
 30
0.0
 41
1.0
 10
163.10655044153683
 20
553.81081692717692
 30
0.0
 41
1.0
 10
162.96634172053743
 20
553.51094452922462
 30
0.0
 41
0.9998735413946358
 10
162.83574037381754
 20
553.20676492975815
 30
0.0
 41
1.0
 10
162.83229754575694
 20
553.19874634429334
 30
0.0
 41
1.0
 10
162.82885471769637
 20
553.19072775882842
 30
0.0
 41
1.0
 10
162.70513902709709
 20
552.90258533029009
 30
0.0
 41
0.9999377418861511
 10
162.5878842249225
 20
552.6117538626155
 30
0.0
 41
1.0
 10
162.47062942274687
 20
552.32092239493818
 30
0.0
 41
0.9999508299509931
 10
162.35916547937151
 20
552.02782271812214
 30
0.0
 41
1.0
 10
162.35608471070827
 20
552.01972169215628
 30
0.0
 41
1.0
 10
162.35300394204501
 20
552.01162066619042
 30
0.0
 41
1.0
 10
162.2353784613432
 20
551.70231893744301
 30
0.0
 41
0.999960922843252
 10
162.12323985846689
 20
551.39098592142091
 30
0.0
 41
1.0
 10
162.12028384811813
 20
551.38277908101395
 30
0.0
 41
1.0
 10
162.11732783776938
 20
551.37457224060688
 30
0.0
 41
1.0
 10
161.99927721419635
 20
551.04682554377291
 30
0.0
 41
0.9999674607402058
 10
161.88652968812733
 20
550.7172169237756
 30
0.0
 41
1.0
 10
161.83513129756574
 20
550.56695772808621
 30
0.0
 41
1.0
 10
161.78373290700412
 20
550.41669853239682
 30
0.0
 41
1.0
 10
161.66772230024594
 20
550.07755054989298
 30
0.0
 41
0.999928753230668
 10
161.5598408962743
 20
549.73572981091468
 30
0.0
 41
1.0
 10
161.51336364013838
 20
549.58846726655406
 30
0.0
 41
1.0
 10
161.46688638400246
 20
549.44120472219333
 30
0.0
 41
1.0
 10
161.45195949230128
 20
549.39390907193194
 30
0.0
 41
0.9999998223213892
 10
161.43708898357318
 20
549.34659566369805
 30
0.0
 41
1.0
 10
159.81643284677773
 20
544.19856716190861
 30
0.0
 41
1.0
 10
158.19577670998228
 20
539.05053866011917
 30
0.0
 41
1.0
 10
157.29046826609135
 20
539.05053866011917
 30
0.0
 41
1.0
 10
156.38515982220042
 20
539.05053866011917
 30
0.0
 41
1.0
 10
158.23724423358647
 20
544.93761058258667
 30
0.0
 41
1.0
 10
160.08932864497251
 20
550.82468250505417
 30
0.0
 41
1.0
 10
160.09945040327511
 20
550.85672571850387
 30
0.0
 41
1.0
 10
160.17205807212486
 20
551.08702526032971
 30
0.0
 41
1.0
 10
160.24466574097463
 20
551.31732480215567
 30
0.0
 41
0.9999825681977961
 10
160.31454878018644
 20
551.54846569722167
 30
0.0
 41
1.0
 10
160.36283984234717
 20
551.70819028071742
 30
0.0
 41
1.0
 10
160.41113090450793
 20
551.86791486421316
 30
0.0
 41
1.0
 10
160.50828325782339
 20
552.1892500859833
 30
0.0
 41
0.999967252896881
 10
160.60022206344706
 20
552.51211563157051
 30
0.0
 41
1.0
 10
160.60301094711576
 20
552.52190947695681
 30
0.0
 41
1.0
 10
160.60579983078446
 20
552.53170332234299
 30
0.0
 41
1.0
 10
160.69216086907011
 20
552.83498117715544
 30
0.0
 41
0.9999899749183179
 10
160.7758024786051
 20
553.13902026560925
 30
0.0
 41
1.0
 10
160.78590839762325
 20
553.17575550329002
 30
0.0
 41
1.0
 10
160.79601431664139
 20
553.21249074097068
 30
0.0
 41
1.0
 10
160.85944408813975
 20
553.44305935406192
 30
0.0
 41
0.9999214200505568
 10
160.91707351651746
 20
553.67514569627099
 30
0.0
 41
1.0
 10
160.92983936869825
 20
553.72655658166786
 30
0.0
 41
1.0
 10
160.94260522087902
 20
553.77796746706485
 30
0.0
 41
1.0
 10
160.97470294489557
 20
553.90723203848165
 30
0.0
 41
0.9999828681673952
 10
161.00528519689067
 20
554.03686351294778
 30
0.0
 41
1.0
 10
161.03586744888639
 20
554.16649498741651
 30
0.0
 41
0.9999389844478073
 10
161.06357843767537
 20
554.29677044331561
 30
0.0
 41
1.0
 10
161.07071618139554
 20
554.33032654715294
 30
0.0
 41
1.0
 10
161.07785392511573
 20
554.36388265099015
 30
0.0
 41
1.0
 10
161.11984040134496
 20
554.56127031456322
 30
0.0
 41
0.9998933699441326
 10
161.15604466574763
 20
554.75979992232374
 30
0.0
 41
1.0
 10
161.15741749096398
 20
554.76732794302029
 30
0.0
 41
1.0
 10
161.15879031618033
 20
554.77485596371685
 30
0.0
 41
1.0
 10
161.19774023101513
 20
554.98844161286775
 30
0.0
 41
0.9996850305194205
 10
161.22592390727408
 20
555.20371261830576
 30
0.0
 41
1.0
 10
161.22791894064329
 20
555.21895097242691
 30
0.0
 41
1.0
 10
161.22991397401248
 20
555.23418932654818
 30
0.0
 41
1.0
 10
161.25732183647159
 20
555.4435345537031
 30
0.0
 41
0.9994697936706861
 10
161.27104639569131
 20
555.6542197490345
 30
0.0
 41
1.0
 10
161.27152346494097
 20
555.66154322124521
 30
0.0
 41
1.0
 10
161.27200053419062
 20
555.66886669345593
 30
0.0
 41
1.0
 10
161.28477095491095
 20
555.86490494436475
 30
0.0
 41
0.9991804893136967
 10
161.28164263863812
 20
556.06133379433868
 30
0.0
 41
1.0
 10
161.28155875981599
 20
556.06660059575097
 30
0.0
 41
1.0
 10
161.2814748809939
 20
556.07186739716337
 30
0.0
 41
1.0
 10
161.27851432236528
 20
556.25776264431147
 30
0.0
 41
0.998844832932191
 10
161.2577227767415
 20
556.4425152341455
 30
0.0
 41
1.0
 10
161.25612870303848
 20
556.45668008991674
 30
0.0
 41
1.0
 10
161.25453462933544
 20
556.47084494568787
 30
0.0
 41
1.0
 10
161.23693123111769
 20
556.6272678239792
 30
0.0
 41
0.9985503209458508
 10
161.20261495881812
 20
556.78089200806812
 30
0.0
 41
1.0
 10
161.19502896674689
 20
556.81485233546834
 30
0.0
 41
1.0
 10
161.18744297467566
 20
556.84881266286857
 30
0.0
 41
1.0
 10
161.16829868651868
 20
556.93451619215682
 30
0.0
 41
0.9991036781370449
 10
161.14197382486736
 20
557.01829327948235
 30
0.0
 41
1.0
 10
161.13799159941161
 20
557.03096644199218
 30
0.0
 41
1.0
 10
161.13400937395585
 20
557.04363960450212
 30
0.0
 41
1.0
 10
161.11564896321588
 20
557.10207036680868
 30
0.0
 41
0.9998874504368462
 10
161.09554375553785
 20
557.15992396903061
 30
0.0
 41
1.0
 10
161.07543854785936
 20
557.21777757125415
 30
0.0
 41
0.9994041637543748
 10
161.0513899349252
 20
557.27410627514382
 30
0.0
 41
1.0
 10
161.04719315070133
 20
557.28393633962537
 30
0.0
 41
1.0
 10
161.0429963664775
 20
557.2937664041068
 30
0.0
 41
1.0
 10
161.0151175354828
 20
557.35906657007433
 30
0.0
 41
0.9991846840702214
 10
160.98206117878954
 20
557.42190460135498
 30
0.0
 41
1.0
 10
160.98092457239429
 20
557.42406521781004
 30
0.0
 41
1.0
 10
160.97978796599904
 20
557.42622583426521
 30
0.0
 41
1.0
 10
160.94900482209596
 20
557.4847426326362
 30
0.0
 41
0.9989253167922251
 10
160.91293539804144
 20
557.54015756102547
 30
0.0
 41
1.0
 10
160.91188127336733
 20
557.54177705578763
 30
0.0
 41
1.0
 10
160.91082714869324
 20
557.54339655054969
 30
0.0
 41
1.0
 10
160.87686597398678
 20
557.59557248941519
 30
0.0
 41
0.9986467172836512
 10
160.83766882134898
 20
557.64393852304522
 30
0.0
 41
1.0
 10
160.83679469264808
 20
557.64501712532365
 30
0.0
 41
1.0
 10
160.83592056394721
 20
557.64609572760207
 30
0.0
 41
1.0
 10
160.7984716687115
 20
557.6923045566748
 30
0.0
 41
0.9984001104268029
 10
160.75604493819446
 20
557.73398966404363
 30
0.0
 41
1.0
 10
160.75545780008534
 20
557.73456653892458
 30
0.0
 41
1.0
 10
160.75487066197621
 20
557.73514341380564
 30
0.0
 41
1.0
 10
160.71361820767794
 20
557.77567477141201
 30
0.0
 41
0.9982442159081708
 10
160.66786210634177
 20
557.81104333267263
 30
0.0
 41
1.0
 10
160.66764731088014
 20
557.81120936531579
 30
0.0
 41
1.0
 10
160.66743251541851
 20
557.81137539795884
 30
0.0
 41
1.0
 10
160.62210600500651
 20
557.84641189393255
 30
0.0
 41
0.9982450060836454
 10
160.57295502593433
 20
557.87584367696638
 30
0.0
 41
1.0
 10
160.52380404686213
 20
557.90527546000021
 30
0.0
 41
0.9983922639634716
 10
160.47163774069654
 20
557.92895509465461
 30
0.0
 41
1.0
 10
160.47141086337268
 20
557.92905808013575
 30
0.0
 41
1.0
 10
160.4711839860488
 20
557.92916106561688
 30
0.0
 41
1.0
 10
160.41856392523499
 20
557.95304667123378
 30
0.0
 41
0.9986517147150299
 10
160.36375095236741
 20
557.97134779035548
 30
0.0
 41
1.0
 10
160.36307303093943
 20
557.97157413678701
 30
0.0
 41
1.0
 10
160.36239510951145
 20
557.97180048321843
 30
0.0
 41
1.0
 10
160.30622629378794
 20
557.99055429520308
 30
0.0
 41
0.9989435598956455
 10
160.24857290663647
 20
558.00407199743756
 30
0.0
 41
1.0
 10
160.24749278705474
 20
558.00432524769053
 30
0.0
 41
1.0
 10
160.24641266747301
 20
558.00457849794361
 30
0.0
 41
1.0
 10
160.18659904115842
 20
558.01860270068403
 30
0.0
 41
0.9992249241240208
 10
160.12586753226114
 20
558.02787804339926
 30
0.0
 41
1.0
 10
160.12445384396995
 20
558.02809395180714
 30
0.0
 41
1.0
 10
160.12304015567872
 20
558.02830986021502
 30
0.0
 41
1.0
 10
160.05948127019863
 20
558.03801701974601
 30
0.0
 41
0.999439659783356
 10
159.99541533366116
 20
558.04344994209168
 30
0.0
 41
1.0
 10
159.97627466618394
 20
558.04507310981035
 30
0.0
 41
1.0
 10
159.95713399870669
 20
558.04669627752889
 30
0.0
 41
1.0
 10
159.85478672721416
 20
558.0553755353119
 30
0.0
 41
0.9987693403121392
 10
159.75208310362723
 20
558.05387247185922
 30
0.0
 41
1.0
 10
159.74182876939938
 20
558.05372240008501
 30
0.0
 41
1.0
 10
159.73157443517152
 20
558.05357232831079
 30
0.0
 41
1.0
 10
159.62201866899329
 20
558.05196898402346
 30
0.0
 41
0.998975364496612
 10
159.51305666897724
 20
558.04046597709828
 30
0.0
 41
1.0
 10
159.40409466896136
 20
558.0289629701731
 30
0.0
 41
0.9983190067306101
 10
159.29719585799711
 20
558.0049279783866
 30
0.0
 41
1.0
 10
159.28829490638972
 20
558.00292669982377
 30
0.0
 41
1.0
 10
159.27939395478234
 20
558.00092542126094
 30
0.0
 41
1.0
 10
159.15469324060354
 20
557.97288787234879
 30
0.0
 41
0.9985539388303072
 10
159.03372348692591
 20
557.93162419630323
 30
0.0
 41
1.0
 10
159.03137805596558
 20
557.93082415248739
 30
0.0
 41
1.0
 10
159.02903262500524
 20
557.93002410867155
 30
0.0
 41
1.0
 10
158.90337200940698
 20
557.8871603449943
 30
0.0
 41
0.9988468746493951
 10
158.7824016671066
 20
557.8324422599319
 30
0.0
 41
1.0
 10
158.77921884511784
 20
557.83100258537195
 30
0.0
 41
1.0
 10
158.77603602312911
 20
557.829562910812
 30
0.0
 41
1.0
 10
158.64870003685132
 20
557.7719654766297
 30
0.0
 41
0.9991322885919229
 10
158.52659945279339
 20
557.70397014444723
 30
0.0
 41
1.0
 10
158.50899744174995
 20
557.69416794245763
 30
0.0
 41
1.0
 10
158.49139543070655
 20
557.68436574046814
 30
0.0
 41
1.0
 10
158.38921874964979
 20
557.62746562468772
 30
0.0
 41
0.9993860037849359
 10
158.29127774557617
 20
557.56354960909903
 30
0.0
 41
1.0
 10
158.28565943272372
 20
557.5598831144041
 30
0.0
 41
1.0
 10
158.28004111987127
 20
557.55621661970906
 30
0.0
 41
1.0
 10
158.19333674150263
 20
557.49963359351045
 30
0.0
 41
0.9998821494953148
 10
158.10841036568991
 20
557.44041536343377
 30
0.0
 41
1.0
 10
158.02348398987797
 20
557.38119713335766
 30
0.0
 41
0.9997976482744422
 10
157.94100835947353
 20
557.31861072531535
 30
0.0
 41
1.0
 10
157.92637209466855
 20
557.30750403553543
 30
0.0
 41
1.0
 10
157.91173582986357
 20
557.29639734575562
 30
0.0
 41
1.0
 10
157.79998766985111
 20
557.21159755815495
 30
0.0
 41
0.9998091630799546
 10
157.69163739182412
 20
557.1224972074541
 30
0.0
 41
1.0
 10
157.67863163934601
 20
557.11180210700741
 30
0.0
 41
1.0
 10
157.66562588686793
 20
557.10110700656071
 30
0.0
 41
1.0
 10
157.53126410388501
 20
556.99061645496658
 30
0.0
 41
0.9995035112317625
 10
157.40412822612129
 20
556.87188263795133
 30
0.0
 41
1.0
 10
157.3944809157345
 20
556.86287289179393
 30
0.0
 41
1.0
 10
157.38483360534772
 20
556.85386314563652
 30
0.0
 41
1.0
 10
157.2614105425825
 20
556.73859677388066
 30
0.0
 41
0.9994630424299617
 10
157.14580213679847
 20
556.61549403064555
 30
0.0
 41
1.0
 10
157.14211929802684
 20
556.61157245113236
 30
0.0
 41
1.0
 10
157.13843645925519
 20
556.60765087161906
 30
0.0
 41
1.0
 10
157.03019373101475
 20
556.49239128741078
 30
0.0
 41
0.9995160693750048
 10
156.92932770148252
 20
556.37062386953778
 30
0.0
 41
1.0
 10
156.92739398140242
 20
556.36828944533045
 30
0.0
 41
1.0
 10
156.92546026132229
 20
556.365955021123
 30
0.0
 41
1.0
 10
156.82846167195083
 20
556.24885645166546
 30
0.0
 41
0.9996561470514916
 10
156.7377354532847
 20
556.12683368921603
 30
0.0
 41
1.0
 10
156.73157778738329
 20
556.11855190017445
 30
0.0
 41
1.0
 10
156.72542012148185
 20
556.11027011113288
 30
0.0
 41
1.0
 10
156.64700923461925
 20
556.0048109267675
 30
0.0
 41
0.9998349055173645
 10
156.57248195268653
 20
555.89657234310346
 30
0.0
 41
1.0
 10
156.49795467075285
 20
555.78833375943805
 30
0.0
 41
0.9999728109570936
 10
156.425031774845
 20
555.67900783388609
 30
0.0
 41
1.0
 10
156.42371655943288
 20
555.67703606438295
 30
0.0
 41
1.0
 10
156.42240134402073
 20
555.6750642948798
 30
0.0
 41
1.0
 10
156.3468480172898
 20
555.56179483032338
 30
0.0
 41
0.999997214744174
 10
156.27183020691928
 20
555.44816998749297
 30
0.0
 41
1.0
 10
156.26685866429386
 20
555.44063989901611
 30
0.0
 41
1.0
 10
156.26188712166845
 20
555.43310981053912
 30
0.0
 41
1.0
 10
156.17692622604847
 20
555.30442479075691
 30
0.0
 41
0.999937197900413
 10
156.09487087664533
 20
555.17386787698126
 30
0.0
 41
1.0
 10
156.09136199228334
 20
555.16828494891593
 30
0.0
 41
1.0
 10
156.08785310792132
 20
555.16270202085047
 30
0.0
 41
1.0
 10
155.99877998979355
 20
555.02097925094313
 30
0.0
 41
0.9998272025610722
 10
155.91503659891126
 20
554.87604337420055
 30
0.0
 41
1.0
 10
155.89982142688689
 20
554.84971025974335
 30
0.0
 41
1.0
 10
155.88460625486255
 20
554.82337714528614
 30
0.0
 41
1.0
 10
155.77043251993211
 20
554.62577503963007
 30
0.0
 41
0.999521721483798
 10
155.66869283037616
 20
554.42149271176697
 30
0.0
 41
1.0
 10
155.66104926774142
 20
554.40614526206457
 30
0.0
 41
1.0
 10
155.65340570510665
 20
554.39079781236217
 30
0.0
 41
1.0
 10
155.56650041251794
 20
554.21630135428234
 30
0.0
 41
0.9998269762608956
 10
155.48614594624496
 20
554.03869306755746
 30
0.0
 41
1.0
 10
155.40579147997221
 20
553.86108478083293
 30
0.0
 41
0.9998944747386888
 10
155.33063068540773
 20
553.68121705520366
 30
0.0
 41
1.0
 10
155.32567701581718
 20
553.6693624002877
 30
0.0
 41
1.0
 10
155.32072334622663
 20
553.65750774537173
 30
0.0
 41
1.0
 10
155.2400762856729
 20
553.46451080535098
 30
0.0
 41
0.9999506734411072
 10
155.16327875676916
 20
553.26995000049453
 30
0.0
 41
1.0
 10
155.14867879149972
 20
553.23296207869225
 30
0.0
 41
1.0
 10
155.13407882623028
 20
553.19597415688997
 30
0.0
 41
1.0
 10
155.08648122786454
 20
553.07538919563581
 30
0.0
 41
0.9999912393914436
 10
155.03989478384301
 20
552.9544099929426
 30
0.0
 41
1.0
 10
154.99330833982037
 20
552.83343079024644
 30
0.0
 41
0.9999927113937555
 10
154.94764704542919
 20
552.71209938275263
 30
0.0
 41
1.0
 10
154.93367861403004
 20
552.67498240074974
 30
0.0
 41
1.0
 10
154.91971018263087
 20
552.63786541874697
 30
0.0
 41
1.0
 10
154.84611202544119
 20
552.44230004724704
 30
0.0
 41
0.9999487550951854
 10
154.77648840046905
 20
552.24528468206313
 30
0.0
 41
1.0
 10
154.7528947905318
 20
552.17852137176931
 30
0.0
 41
1.0
 10
154.72930118059455
 20
552.11175806147548
 30
0.0
 41
1.0
 10
154.63461554622594
 20
551.84382422665635
 30
0.0
 41
0.9999808436940183
 10
154.54325395758383
 20
551.57473879538975
 30
0.0
 41
1.0
 10
154.45189236894419
 20
551.30565336413042
 30
0.0
 41
0.9999873932896584
 10
154.36323766022434
 20
551.03566400911177
 30
0.0
 41
1.0
 10
154.34314530335499
 20
550.97447467635891
 30
0.0
 41
1.0
 10
154.32305294648563
 20
550.91328534360605
 30
0.0
 41
1.0
 10
154.19421352402989
 20
550.52091732309009
 30
0.0
 41
0.9999794883033852
 10
154.07041073906868
 20
550.12693111680244
 30
0.0
 41
1.0
 10
154.05925847963618
 20
550.09144050658142
 30
0.0
 41
1.0
 10
154.04810622020372
 20
550.0559498963604
 30
0.0
 41
1.0
 10
153.90554805630879
 20
549.6022771442822
 30
0.0
 41
0.9999982761711886
 10
153.76467561628306
 20
549.14807812212575
 30
0.0
 41
1.0
 10
152.17653528371045
 20
544.09930839112246
 30
0.0
 41
1.0
 10
150.58839495113784
 20
539.05053866011917
 30
0.0
 41
1.0
 10
149.63964433966146
 20
539.05053866011917
 30
0.0
 41
1.0
 10
148.69089372818507
 20
539.05053866011917
 30
0.0
 41
1.0
 10
151.92917821433821
 20
549.37786086006531
 30
0.0
 41
1.0
 10
155.16746270049134
 20
559.70518306001145
 30
0.0
 41
1.0
  0
LWPOLYLINE
  5
58
100
AcDbEntity
  8
0
370
              15
390
0
  6
Continuous
 62
               7
100
AcDbPolyline
 90
      232
 70
             128
 10
129.4639169266643
 20
558.62084022849626
 42
0.0004370800688625
 10
129.41103975263164
 20
558.55217358929133
 10
129.37175552146482
 20
558.50106647634345
 42
0.0030481992178334
 10
129.24141680434099
 20
558.32934478399284
 10
129.20290513259533
 20
558.27795800021113
 42
0.0042058245757252
 10
128.99892008192222
 20
558.0009522551328
 10
128.9465149594248
 20
557.92851940835669
 42
0.012094889874333
 10
128.65047104266378
 20
557.49776980380818
 10
128.55427854353997
 20
557.35028906858042
 42
0.0141601263948627
 10
128.25063449661957
 20
556.85461973184738
 10
128.21109722919246
 20
556.78577576441364
 42
0.0071131081301613
 10
128.00582490595514
 20
556.41627296557749
 42
0.0068458791004015
 10
127.81094537911193
 20
556.0411814021013
 10
127.80413351665425
 20
556.02761968837774
 42
0.0064120880290165
 10
127.60599126661165
 20
555.62019521346247
 10
127.59845658109293
 20
555.60418335673762
 42
0.0058857236448307
 10
127.39570118922215
 20
555.15980724570466
 10
127.38752626292728
 20
555.14131709206868
 42
0.0053189741895387
 10
127.17882195026058
 20
554.65535361815273
 10
127.17007414457839
 20
554.63437173995464
 42
0.0047503650418551
 10
126.95410041842719
 20
554.10217230674391
 10
126.94483217007951
 20
554.07869593063708
 42
0.0042071762174128
 10
126.72028478634999
 20
553.49560233656257
 10
126.71053538400315
 20
553.46963616169762
 42
0.0036680086483521
 10
126.47608074068977
 20
552.83100077716233
 10
126.4658729608434
 20
552.80255224282189
 42
0.0032573142627445
 10
126.22024067487753
 20
552.10369958307115
 10
126.15159015403468
 20
551.90423649901186
 42
0.0026133366649457
 10
125.80314495527796
 20
550.87437321534367
 10
125.73988816777745
 20
550.68414237995103
 42
0.0020592950741249
 10
125.52602509881012
 20
550.03203872733752
 10
125.52297330764728
 20
550.02260223892858
 42
0.0025609928535337
 10
125.32115280616108
 20
549.38745701656194
 10
125.31856143903212
 20
549.37915467561425
 42
0.0031362356242398
 10
125.12907065335753
 20
548.75839181944184
 10
125.12693961042976
 20
548.75125051322959
 42
0.003722991802852
 10
124.95013922350381
 20
548.14226521125659
 10
124.94846063429875
 20
548.13631832108706
 42
0.0043077623707057
 10
124.78471983223233
 20
547.53649958931317
 42
0.0047654161825292
 10
124.63189110971777
 20
546.93381350041648
 10
124.5974265008773
 20
546.79225172326107
 42
0.0112969368445448
 10
124.40156214273347
 20
545.90055956263575
 10
124.37355575363699
 20
545.75773151653902
 42
0.013005676257199
 10
124.17271850999032
 20
544.5707904448941
 10
124.15217875984308
 20
544.42671233141607
 42
0.0138721532144715
 10
124.04847575530539
 20
543.51988284559138
 10
124.02918026739731
 20
543.29638512366398
 42
0.0071254697009674
 10
123.99583362147496
 20
542.83319811481908
 10
123.99087264731163
 20
542.74719412025718
 42
0.0028881799200098
 10
123.97573435402182
 20
542.45545241041634
 42
0.0060297297135319
 10
123.96580215424625
 20
542.16350347430102
 10
123.96473987257914
 20
542.1151111023687
 42
0.0229523164154119
 10
123.9724709003649
 20
541.79235625608487
 10
123.97669667388533
 20
541.73195272206783
 42
0.0123673300674035
 10
123.9957753204036
 20
541.53083199689388
 42
0.012857767447374
 10
124.02497071081001
 20
541.33093414696646
 10
124.03209658419689
 20
541.28960533237012
 42
0.0285717853767752
 10
124.09659058589247
 20
541.0114891810573
 10
124.11025910955917
 20
540.9648344115792
 42
0.0316283099160197
 10
124.22606968947332
 20
540.64581990975375
 10
124.22911838122849
 20
540.63883353742904
 42
0.0338984824236268
 10
124.37855009219606
 20
540.35126757323906
 10
124.38085882156601
 20
540.34747654396301
 42
0.0350228718354617
 10
124.56321911223949
 20
540.09042455928625
 10
124.56410436401497
 20
540.0893454815216
 42
0.0347476747527723
 10
124.77852905125451
 20
539.86216043430215
 42
0.0331337701914244
 10
125.02177237700099
 20
539.66603177222464
 10
125.02287247551703
 20
539.66525906905224
 42
0.0305233319081064
 10
125.29141717109043
 20
539.50013089896095
 10
125.29464721559168
 20
539.49840688709821
 42
0.0273744481154734
 10
125.58720092716518
 20
539.36226874320812
 10
125.59230546230344
 20
539.3602251587381
 42
0.0240964406197056
 10
125.90778253794917
 20
539.25124143245682
 10
125.91436586715918
 20
539.24931669278169
 42
0.0209636179812563
 10
126.25176601981202
 20
539.16584854484961
 10
126.25939848026042
 20
539.16429663184817
 42
0.0181388704693988
 10
126.61772087226129
 20
539.10488053863389
 10
126.62600172063696
 20
539.10381435481713
 42
0.0156086547585574
 10
127.00418908482445
 20
539.06707816824053
 10
127.04738433715549
 20
539.06423966576131
 42
0.0137148329022904
 10
127.37505748245178
 20
539.05171941051015
 10
127.42099367238951
 20
539.05122497739501
 42
0.0051057823885292
 10
127.65713925897001
 20
539.05109472298579
 42
0.0052256693314009
 10
127.89323654276053
 20
539.05584354745031
 10
127.96346332649807
 20
539.05799051346412
 42
0.0161507179049317
 10
128.33920040459989
 20
539.08164088379078
 10
128.35921336497233
 20
539.08355107907823
 42
0.0101216737832116
 10
128.7732405864611
 20
539.13154400944347
 10
128.80729387588985
 20
539.13619170625338
 42
0.0245291776398872
 10
129.28408353144243
 20
539.22526678432996
 10
129.36890684696527
 20
539.24546270467556
 42
0.0143509212558393
 10
129.7255379509046
 20
539.34126733845426
 42
0.0156557857039945
 10
130.07575401563284
 20
539.45827855427342
 10
130.0832552301265
 20
539.46104871602722
 42
0.0170137333629721
 10
130.43985122580852
 20
539.60670633089865
 10
130.44695514821535
 20
539.60989416646203
 42
0.0183105364410071
 10
130.80630481638011
 20
539.78722920828557
 10
130.81325158102038
 20
539.79097964315849
 42
0.0194899958150658
 10
131.17173232200489
 20
540.00295862504959
 10
131.17874620134103
 20
540.00748396734423
 42
0.0204869852950387
 10
131.53276050343518
 20
540.25700398243032
 10
131.54002611202191
 20
540.26258404777843
 42
0.0212516938556708
 10
131.88601604313007
 20
540.55248804467317
 10
131.93253273720595
 20
540.59495535476708
 42
0.0215248918251965
 10
132.19255890609327
 20
540.85371963376122
 10
132.237588640475
 20
540.90256375511217
 42
0.0114578554956412
 10
132.39238079415134
 20
541.07838668856937
 10
132.40357533013596
 20
541.09170545211236
 42
0.0061531305133986
 10
132.53004997613243
 20
541.24599498542045
 42
0.0006325587124139
 10
132.65442846030334
 20
541.40199836112038
 10
132.67746859533565
 20
541.43097188175557
 42
0.0041897761554985
 10
132.84592399931668
 20
541.64649125782819
 10
132.90438611920047
 20
541.72259260480257
 42
0.0092993880037603
 10
133.18099804642478
 20
542.0968713686874
 10
133.26339253962288
 20
542.21280837225481
 42
0.0159321727085864
 10
133.60999902226536
 20
542.73498259301118
 10
133.65435515765438
 20
542.80666215726114
 42
0.0085547317019557
 10
133.88886692298024
 20
543.20053710648585
 42
0.0084601156889771
 10
134.10984310042252
 20
543.60216395551811
 10
134.11795857425273
 20
543.61752363779101
 42
0.008142965428518
 10
134.34120784469062
 20
544.05724515033262
 10
134.35006800887425
 20
544.07542399235115
 42
0.0076574581329711
 10
134.57647551944285
 20
544.55860686760832
 10
134.58595516016464
 20
544.57967134590729
 42
0.0070682724202358
 10
134.81640006797443
 20
545.11170865069562
 10
134.82639035195314
 20
545.13569783970013
 42
0.0064559514446157
 10
135.06172356013397
 20
545.72201010621677
 10
135.07213291829987
 20
545.74894503166126
 42
0.005831141390666
 10
135.3131796550629
 20
546.39497712604555
 10
135.3239347324502
 20
546.42486146720546
 42
0.0052312425819229
 10
135.57151601049159
 20
547.13606388104165
 10
135.58255984687082
 20
547.16889059310972
 42
0.0046680544795623
 10
135.83748827460371
 20
547.95071690885982
 10
135.87948042464987
 20
548.08370014616014
 42
0.004166685644574
 10
136.08276643704369
 20
548.74666892116215
 10
136.12042887770531
 20
548.87325002880846
 42
0.0015170975153844
 10
136.2416154561206
 20
549.28511838030954
 42
-0.0004887993113195
 10
136.36195522924262
 20
549.69723679234721
 10
136.43843248673886
 20
549.95819417829262
 42
0.0002583378927582
 10
136.71164705683051
 20
550.89225088156581
 10
136.79341990637775
 20
551.17235014104813
 42
0.0006636169672675
 10
136.98728766639101
 20
551.83970306464175
 10
136.99238432074281
 20
551.85733464753821
 42
0.0010589131323524
 10
137.17383302165467
 20
552.49006599057066
 10
137.17881509213728
 20
552.50757889759814
 42
0.0015655524461616
 10
137.347085299318
 20
553.10619557679161
 10
137.35191549972853
 20
553.12358773571145
 42
0.002164044047812
 10
137.506205471719
 20
553.68861475374558
 10
137.5108396911495
 20
553.70587948374157
 42
0.0028763871852485
 10
137.65035540920178
 20
554.23784743458646
 10
137.65474127336861
 20
554.25497141273934
 42
0.0037310511945082
 10
137.77869796520588
 20
554.75441900676481
 10
137.78277318549524
 20
554.77137927801175
 42
0.004765219777174
 10
137.89039708600342
 20
555.23885704631539
 10
137.8940876853261
 20
555.25561660146229
 42
0.0060276699301505
 10
137.98461778448041
 20
555.6916923966096
 10
137.98783647476932
 20
555.70819361091776
 42
0.007582433775537
 10
138.06052578418507
 20
556.11346077534495
 10
138.06317116156578
 20
556.12961572279801
 42
0.0095130624608048
 10
138.11728639719661
 20
556.50470507586726
 10
138.12427262107903
 20
556.56063863398253
 42
0.0121054653225314
 10
138.15086395165702
 20
556.82553446245765
 10
138.15173044141653
 20
556.83693790538655
 42
0.006905082738654
 10
138.16681925945431
 20
557.07987913223099
 10
138.16795455912293
 20
557.10340538927733
 42
0.0169063976703422
 10
138.17078183810315
 20
557.29959811657648
 10
138.16961118657181
 20
557.35993387792814
 42
0.0052007732896796
 10
138.16735773797882
 20
557.43552726807775
 42
0.0054038123294721
 10
138.14739422613928
 20
557.55554556409186
 10
138.14230837026957
 20
557.58420405066886
 42
0.0112050460465954
 10
138.10692400821094
 20
557.7605304890086
 10
138.08909904617042
 20
557.8400720757287
 42
0.0240764468008413
 10
137.9982016800239
 20
558.17030911123061
 10
137.97964291721061
 20
558.22692927622415
 42
0.0256812331835259
 10
137.83627999702117
 20
558.59865348248104
 10
137.83087057119982
 20
558.61078481747063
 42
0.0268360501214916
 10
137.66144333034981
 20
558.94177795149176
 10
137.65590692271482
 20
558.95129762180397
 42
0.0274670231728296
 10
137.4637059463015
 20
559.24358499672132
 10
137.45832464633904
 20
559.25086414426255
 42
0.0275035967101751
 10
137.24675176677704
 20
559.50638003456675
 10
137.2416822658106
 20
559.51185912219705
 42
0.0269557673525072
 10
137.01427872237093
 20
559.73250140815946
 10
137.0095356645877
 20
559.73663136262076
 42
0.0259124802211584
 10
136.76998083315755
 20
559.92432188977261
 10
136.76544998797556
 20
559.92750739210294
 42
0.0245162153002321
 10
136.51753363488092
 20
560.08424040121338
 10
136.51300708855658
 20
560.08680059841436
 42
0.0229282588838903
 10
136.26058753172947
 20
560.21466879091315
 10
136.25580703789345
 20
560.21682109067478
 42
0.0212984135696365
 10
136.00276908543094
 20
560.31802000791743
 10
135.99746480046153
 20
560.31988357067735
 42
0.0197555462342792
 10
135.74768646273844
 20
560.39669898864224
 42
0.0183511896789047
 10
135.49275773727518
 20
560.45428189560766
 10
135.40639254055253
 20
560.47048468599269
 42
0.0338057877147071
 10
135.1208851912919
 20
560.50429309113304
 10
135.0298797862491
 20
560.50887274639456
 42
0.0091990524493977
 10
134.92403267761597
 20
560.5122486023165
 42
0.0028333980780323
 10
134.81811876161569
 20
560.51307670983329
 10
134.81720330857377
 20
560.51307867965727
 42
-0.0023619827799898
 10
134.70945729344862
 20
560.51381952073598
 10
134.673052123292
 20
560.51424182719882
 42
0.000882459847712
 10
134.49249613342781
 20
560.51601760543724
 10
134.4486347010361
 20
560.51637156696268
 42
0.0038132665768147
 10
134.18035180516884
 20
560.51649050302933
 10
134.1638181503638
 20
560.51637173688573
 42
0.0060665569336129
 10
133.86253765876191
 20
560.51055143746464
 10
133.84828732674714
 20
560.51010312949734
 42
0.0080356953334951
 10
133.51882861041096
 20
560.49443540743073
 10
133.50675859532066
 20
560.49366682448999
 42
0.0098996399105707
 10
133.15399551067
 20
560.46418159529185
 10
133.14394980129509
 20
560.46314129909365
 42
0.0117740981367975
 10
132.77279294294843
 20
560.41584905156401
 10
132.76457024646379
 20
560.41460393499301
 42
0.0137435215136025
 10
132.37998142697677
 20
560.34550696143094
 10
132.3733243878554
 20
560.34412106519778
 42
0.0158359869384844
 10
131.98032729405341
 20
560.24922897671718
 10
131.97491410718578
 20
560.24773903584651
 42
0.0180554124028408
 10
131.57859906257315
 20
560.1231010196077
 10
131.5740422744899
 20
560.12148498334147
 42
0.0203657431284788
 10
131.17956475667722
 20
559.96322464182515
 10
131.17542121767121
 20
559.96136302038383
 42
0.0226819684655158
 10
130.78798516146739
 20
559.76572044171269
 10
130.78378537044944
 20
559.76335484979302
 42
0.0248634984605471
 10
130.40860342926814
 20
559.52672820384578
 10
130.36040850048482
 20
559.49287116202049
 42
0.0267044190885185
 10
130.08611580356774
 20
559.27743078615197
 42
0.0139303002199674
 10
129.82994863762812
 20
559.04019194523914
 10
129.82509525190801
 20
559.03543928237991
 42
0.0283460963442489
 10
129.58102265768099
 20
558.76770862193507
 10
129.54135415252426
 20
558.71890704446173
 42
0.0070695364819099
 10
129.4639169266643
 20
558.62084022849626
 42
0.0070695364819099
  0
LWPOLYLINE
  5
59
100
AcDbEntity
  8
0
370
              15
390
0
  6
Continuous
 62
               7
100
AcDbPolyline
 90
      226
 70
             128
 10
125.9350964894179
 20
542.89925142231232
 42
-0.0026277636629159
 10
125.93501860561783
 20
542.96602334804743
 10
125.93523596384989
 20
543.01917856549846
 42
-0.0088680296729299
 10
125.93901258014299
 20
543.19219434790159
 10
125.94135893925545
 20
543.25147437335511
 42
-0.0077381705616114
 10
125.95740505001852
 20
543.54273486915167
 10
125.95827296119171
 20
543.55502310283839
 42
-0.0068872530532177
 10
125.98490504093978
 20
543.87024485490667
 10
125.98610926512595
 20
543.88248583392613
 42
-0.0062130021485946
 10
126.02370298195397
 20
544.22135552516693
 10
126.02520688548884
 20
544.23352939708116
 42
-0.0056726929671124
 10
126.07412874499084
 20
544.59572461919242
 10
126.07590219063559
 20
544.60781841943992
 42
-0.0052341884492011
 10
126.13651277689651
 20
544.99301167496299
 10
126.13853076567227
 20
545.00501660495024
 42
-0.0049768450170292
 10
126.21126944709837
 20
545.41286117238167
 10
126.23551846182033
 20
545.54140915538881
 42
-0.0089029805625508
 10
126.37259931361491
 20
546.20318460281044
 10
126.40534468893361
 20
546.34821603333467
 42
-0.0080318257099549
 10
126.63489330327413
 20
547.29392566518754
 10
126.64687822972257
 20
547.34005630037848
 42
-0.0074265721318319
 10
126.9308897685731
 20
548.37012087876121
 10
126.95076931168934
 20
548.43825493934912
 42
-0.0069711922703649
 10
127.27807389019586
 20
549.50452267967637
 10
127.33802583729988
 20
549.69054403804228
 42
-0.0052070422893105
 10
127.56745106256074
 20
550.3778161150783
 10
127.58473225473566
 20
550.42784339570323
 42
-0.000916700444809
 10
127.78782414202226
 20
551.0122992438495
 42
-0.0025162726944482
 10
127.99492177228616
 20
551.59534050801585
 10
128.03214638409048
 20
551.69849005391825
 42
-0.0028212681458148
 10
128.28032230305337
 20
552.37422068608851
 10
128.29015306580598
 20
552.40052813077045
 42
-0.0031964916821002
 10
128.52644532346642
 20
553.02073289289228
 10
128.53607977746481
 20
553.04554288303405
 42
-0.0036281836451965
 10
128.76118573856661
 20
553.61298356392865
 10
128.77062414872395
 20
553.63628099543121
 42
-0.0041269166832866
 10
128.98524184538326
 20
554.15372189140976
 10
129.01787480180357
 20
554.23060033776983
 42
-0.0047472213056827
 10
129.17491960735765
 20
554.59102180565424
 10
129.18181368856489
 20
554.60644240298404
 42
-0.00256516599971
 10
129.33017172241603
 20
554.93377045873467
 42
-0.0057144634994198
 10
129.48392141618891
 20
555.25858013210029
 10
129.51195212158834
 20
555.31608851449073
 42
-0.0065388068374041
 10
129.69541914932847
 20
555.68032101115637
 10
129.70387760510548
 20
555.69658059052301
 42
-0.0074510843024014
 10
129.88005985098471
 20
556.02326887164861
 10
129.88823952151643
 20
556.03790964891868
 42
-0.0084648979861453
 10
130.05787337461572
 20
556.32981865987858
 10
130.06572950110399
 20
556.34282565152978
 42
-0.0095638542803932
 10
130.22956494869811
 20
556.60271452350798
 10
130.23703989236856
 20
556.61408388496147
 42
-0.0107191626806287
 10
130.39584147275741
 20
556.84469511950749
 10
130.40285820648893
 20
556.85443121187279
 42
-0.0118458573901536
 10
130.557406305001
 20
557.0585034071828
 42
-0.0129184518191425
 10
130.72185892860298
 20
557.25466392335363
 10
130.75200370096726
 20
557.28879000225459
 42
-0.0217742579632795
 10
130.92861602330106
 20
557.47199677250285
 10
130.9393615677597
 20
557.48221360570415
 42
-0.0097266568651076
 10
131.10541918661704
 20
557.63406118014314
 42
-0.0187720905719181
 10
131.27976676250574
 20
557.77613003353167
 10
131.31047275317994
 20
557.79928911592788
 42
-0.0179428207519469
 10
131.54289347317695
 20
557.96184129304015
 10
131.54654580009407
 20
557.9642052279288
 42
-0.0170047877696037
 10
131.7823094376231
 20
558.1056657420794
 10
131.78609242636767
 20
558.10776404711453
 42
-0.0160190788366819
 10
132.02300097400496
 20
558.22941534910376
 42
-0.0151102861492135
 10
132.26703275645343
 20
558.33609812515908
 10
132.3194192586634
 20
558.35713825805306
 42
-0.0271945441885866
 10
132.67808181772253
 20
558.47900306875931
 10
132.74714661820954
 20
558.49835261002534
 42
-0.0237596594021614
 10
133.16294346523216
 20
558.59380332200692
 10
133.23100631896284
 20
558.60605801013378
 42
-0.021371544055296
 10
133.51688125040789
 20
558.64500504164357
 10
133.57702841662112
 20
558.65059475634405
 42
-0.010146565582114
 10
133.74452094862011
 20
558.66273829960858
 10
133.75386133481885
 20
558.66322521460586
 42
-0.0100375910879537
 10
133.90301543538089
 20
558.66800103253104
 10
133.91327470506133
 20
558.66812347154553
 42
-0.0103625633378501
 10
134.04198269971607
 20
558.66699203801886
 10
134.06424835098659
 20
558.66633467955387
 42
-0.0115689250228083
 10
134.14829908851084
 20
558.66190517330881
 42
-0.0072438037432631
 10
134.23213736795091
 20
558.65431597355939
 10
134.2489378774228
 20
558.65254943083528
 42
-0.0217917313131053
 10
134.36550764073814
 20
558.63512953811392
 10
134.43110773130439
 20
558.6223829296996
 42
-0.0332943556753526
 10
134.63549989633168
 20
558.56834263839266
 10
134.66567246488296
 20
558.55817456127386
 42
-0.0184824084799175
 10
134.80417752134713
 20
558.50572354588769
 42
-0.0198002050693291
 10
134.93825186184452
 20
558.44283948568943
 10
134.94013849922339
 20
558.44186169880845
 42
-0.0212242342974919
 10
135.07227744162611
 20
558.36609896001494
 10
135.07409273716883
 20
558.36495315780701
 42
-0.022609060579534
 10
135.20259663838902
 20
558.27547351424357
 10
135.20444108012782
 20
558.27406126125504
 42
-0.0238457052229075
 10
135.32762316142083
 20
558.1700653653927
 10
135.32957588997988
 20
558.16825048762655
 42
-0.0248160564154615
 10
135.44577739728123
 20
558.04897588641711
 10
135.44788103068265
 20
558.04659055271338
 42
-0.0254109591451636
 10
135.55548624854796
 20
557.91130216674992
 10
135.55773427046267
 20
557.90816061834846
 42
-0.0255528488290711
 10
135.65518094925972
 20
557.75613356411429
 10
135.65751204917592
 20
557.75205195250658
 42
-0.0252146793218351
 10
135.74329307518539
 20
557.58254970650876
 10
135.74559531434261
 20
557.57736762459672
 42
-0.0244265635950665
 10
135.818250008104
 20
557.38962105255052
 10
135.82749640957255
 20
557.36175563421216
 42
-0.0231319612902319
 10
135.87341918856453
 20
557.19845458741065
 42
-0.0112130424359682
 10
135.90805521110255
 20
557.03225098722328
 10
135.90925773621518
 20
557.02575440033468
 42
-0.0210527881233879
 10
135.93494421158601
 20
556.84469875489378
 10
135.93845480640789
 20
556.80929320634618
 42
-0.019002989242237
 10
135.95389627995255
 20
556.5557573600737
 10
135.95470625639655
 20
556.52028174570489
 42
-0.0137974553662711
 10
135.95315740356105
 20
556.19525033897366
 10
135.95231194860548
 20
556.16913159438002
 42
-0.0081336634215823
 10
135.9374526133829
 20
555.86378412677936
 42
-0.0073526923571885
 10
135.91314408000855
 20
555.55903588249691
 10
135.91188265622554
 20
555.54569920782819
 42
-0.0066886138693447
 10
135.87614707017897
 20
555.21511316433066
 10
135.87448998070909
 20
555.20149154533954
 42
-0.0061359187352995
 10
135.82663937865823
 20
554.84472756523985
 10
135.82460187758534
 20
554.8308327624103
 42
-0.005669861006575
 10
135.76395154681842
 20
554.44755419357239
 10
135.76154611349534
 20
554.43339507434155
 42
-0.0052721077274364
 10
135.6874139126964
 20
554.02326773466689
 10
135.68465076385405
 20
554.00885109927765
 42
-0.0049289272178699
 10
135.59635664575435
 20
553.57154258815694
 10
135.59324415107142
 20
553.55687373533942
 42
-0.0047415956711249
 10
135.49000615953972
 20
553.09207697793192
 10
135.45523794917926
 20
552.94226988254559
 42
-0.0084404470903938
 10
135.26522150560749
 20
552.1820458580147
 10
135.25909481762176
 20
552.15918173386103
 42
-0.003963594025829
 10
135.03764113333736
 20
551.35819286961237
 10
135.02426433815822
 20
551.31126125302183
 42
-0.0072475040836476
 10
134.7568174502955
 20
550.42204153663261
 10
134.68660512346898
 20
550.2003011866633
 42
-0.0051345458827843
 10
134.39984575140886
 20
549.32597599884843
 10
134.37831948464063
 20
549.26254973171638
 42
-0.0019150016601707
 10
134.12278607777466
 20
548.5190006114924
 10
134.11631847338188
 20
548.50041314658108
 42
-0.0021524362752816
 10
133.86784042231466
 20
547.79608732486292
 10
133.85863000161876
 20
547.77033374656298
 42
-0.0024331286821954
 10
133.62237474258222
 20
547.11973443844329
 10
133.61332679003294
 20
547.0951911320924
 42
-0.0027449721788222
 10
133.38871221919624
 20
546.4960612531645
 10
133.37982221180576
 20
546.47273866331693
 42
-0.0031083229769159
 10
133.16627972519404
 20
545.9228146257326
 10
133.15754359351899
 20
545.90072490987609
 42
-0.0035311343281166
 10
132.95450240792673
 20
545.39774178414473
 10
132.94591706878106
 20
545.37689906063929
 42
-0.0040245640950584
 10
132.75280526498454
 20
544.91858973804199
 10
132.74436915138054
 20
544.89901036996775
 42
-0.0046015135850889
 10
132.56061285821761
 20
544.48310534032771
 10
132.55232668039125
 20
544.46480820087982
 42
-0.0052768638269526
 10
132.37734916143381
 20
544.0890353166053
 10
132.36921695080699
 20
544.07204197806232
 42
-0.0060672675643872
 10
132.20243733804091
 20
543.73412635494788
 10
132.19446785756131
 20
543.71846109595435
 42
-0.0069904648868645
 10
132.03529946355786
 20
543.41612528928692
 10
132.02750806394636
 20
543.40181474005828
 42
-0.0080637022767818
 10
131.8753562036012
 20
543.1327794369065
 10
131.86776717097098
 20
543.11985157130755
 42
-0.0093006455666379
 10
131.72202649443852
 20
542.88183717280265
 10
131.71467582769444
 20
542.87031920362881
 42
-0.0107060778053851
 10
131.57472728425648
 20
542.66104888625046
 10
131.56766551597792
 20
542.65096334368604
 42
-0.0122723111414277
 10
131.4328717977786
 20
542.46817001419561
 10
131.43254557422529
 20
542.46774962638688
 42
-0.0141836319624201
 10
131.2889639712505
 20
542.29317986855642
 10
131.28201621560052
 20
542.28520486829393
 42
-0.0175957477210218
 10
131.14211004756385
 20
542.13558397988686
 42
-0.0080466359672161
 10
130.99464628253307
 20
541.99326145173518
 10
130.9486117380161
 20
541.95024101364447
 42
-0.026960026039273
 10
130.69533149203443
 20
541.7379177551361
 10
130.62876435573747
 20
541.68796634051228
 42
-0.0178362839753899
 10
130.38881986608044
 20
541.52094841425901
 10
130.3815748950795
 20
541.51627990205384
 42
-0.0174650732651302
 10
130.14523869763866
 20
541.37541893709499
 42
-0.016924013016341
 10
129.89977245178002
 20
541.25112667731707
 10
129.85378629622312
 20
541.22976472175037
 42
-0.0318883036840524
 10
129.50343544060331
 20
541.09342641224021
 10
129.43506990543756
 20
541.07172579176449
 42
-0.0284435909900205
 10
129.05901977914743
 20
540.97550835629011
 10
129.02386161865039
 20
540.96861476046195
 42
-0.0243909341014933
 10
128.71041815772992
 20
540.92289372943151
 10
128.66013743095775
 20
540.91804818252979
 42
-0.0196639292930417
 10
128.44454185343147
 20
540.90579989701632
 10
128.39271778226973
 20
540.90489663627966
 42
-0.0100501510687199
 10
128.28029450060376
 20
540.90519703463269
 10
128.24863463925081
 20
540.90591810651824
 42
-0.0019752031123688
 10
128.19954230257838
 20
540.90723026672765
 10
128.1967819993512
 20
540.90731495855414
 42
0.006537875199825
 10
128.15320542460142
 20
540.90808184976891
 42
-0.0167974694653839
 10
128.10967460167083
 20
540.90974174829489
 10
128.10559526240752
 20
540.9100347591899
 42
-0.0081283276276774
 10
128.05403546466633
 20
540.9145817528281
 10
128.04229589079057
 20
540.91580967040613
 42
-0.0126703440177362
 10
127.96757759499719
 20
540.92554446147756
 10
127.94478972732031
 20
540.92910271739288
 42
-0.0117852088439745
 10
127.82525074149116
 20
540.95066571254938
 10
127.76987028972485
 20
540.96200925278458
 42
-0.0251774592292924
 10
127.543026250716
 20
541.02050726221785
 10
127.4983070608656
 20
541.03447408155296
 42
-0.0146525199888045
 10
127.31191407332744
 20
541.09874060875097
 42
-0.0166929435859478
 10
127.12993641720101
 20
541.17454774180544
 10
127.12527978592766
 20
541.17667264241959
 42
-0.0191684358432486
 10
126.94009615467837
 20
541.26990872620956
 10
126.93676356892149
 20
541.27174997376289
 42
-0.0221181781815175
 10
126.75345326501981
 20
541.38388347213333
 10
126.75110346101076
 20
541.38546777012471
 42
-0.0254984685380686
 10
126.57481331062459
 20
541.51787892009497
 10
126.55233116292412
 20
541.53663122903004
 42
-0.0292492648806719
 10
126.42756222408048
 20
541.65372402867365
 42
-0.0159048957502416
 10
126.3137222266317
 20
541.78174402027116
 10
126.312403436051
 20
541.78332563329275
 42
-0.0343813379563945
 10
126.20976617442442
 20
541.92519695906265
 10
126.17827464306386
 20
541.97570035115632
 42
-0.0369117275703409
 10
126.09238214116658
 20
542.13917759210472
 42
-0.0191751379909422
 10
126.02518875560999
 20
542.31158219810948
 10
126.02342543185011
 20
542.31667554278556
 42
-0.0378178042228913
 10
125.97363071306593
 20
542.50561631886751
 10
125.96763541733554
 20
542.53817693706515
 42
-0.0184846046467811
 10
125.94691821804133
 20
542.67992975760876
 42
-0.0179866351316673
 10
125.93658521296759
 20
542.82282057069017
 10
125.93652877052182
 20
542.82437825730244
 42
-0.0085497186108725
 10
125.9350964894179
 20
542.89925142231232
 42
-0.0085497186108725
  0
ENDBLK
  5
5A
100
AcDbEntity
  8
template
390
0
100
AcDbBlockEnd
  0
BLOCK
  5
5B
100
AcDbEntity
  8
info
390
0
100
AcDbBlockBegin
  2
*D3
 70
               1
 10
0.0
 20
0.0
 30
0.0
  3
*D3
  1

  0
LINE
  5
5C
100
AcDbEntity
  8
0
370
              -2
390
0
  6
Continuous
 62
               0
100
AcDbLine
 10
-637.5064875000005
 20
1033.2427398173941
 30
0.0
 11
-854.0064875000005
 21
1033.2427398173941
 31
0.0
  0
LINE
  5
5D
100
AcDbEntity
  8
0
370
              -2
390
0
  6
Continuous
 62
               0
100
AcDbLine
 10
-744.63974673806365
 20
863.24273981739407
 30
0.0
 11
-854.0064875000005
 21
863.24273981739407
 31
0.0
  0
LINE
  5
5E
100
AcDbEntity
  8
0
370
              -2
390
0
  6
Continuous
 62
               0
100
AcDbLine
 10
-854.0064875000005
 20
1033.2427398173941
 30
0.0
 11
-854.0064875000005
 21
863.24273981739407
 31
0.0
  0
CIRCLE
  5
5F
102
{ACAD_REACTORS
330
60
102
}
100
AcDbEntity
  8
0
370
              -2
390
0
  6
Continuous
 62
               0
100
AcDbCircle
 10
-854.0064875000005
 20
1033.2427398173941
 30
0.0
 40
1.9998779296875
  0
HATCH
  5
60
100
AcDbEntity
  8
0
370
              -2
390
0
  6
Continuous
 62
               0
100
AcDbHatch
 10
0.0
 20
0.0
 30
0.0
210
0.0
220
0.0
230
1.0
  2
SOLID
 70
               1
 71
               1
 91
        1
 92
        1
 93
        1
 72
               2
 10
-854.0064875000005
 20
1033.2427398173941
 40
1.9998779296875
 50
0.0
 51
360.0
 73
               0
 97
        1
330
5F
 75
               0
 76
               1
 98
        1
 10
0.0
 20
0.0
  0
CIRCLE
  5
61
102
{ACAD_REACTORS
330
62
102
}
100
AcDbEntity
  8
0
370
              -2
390
0
  6
Continuous
 62
               0
100
AcDbCircle
 10
-854.0064875000005
 20
863.24273981739407
 30
0.0
 40
1.9998779296875
  0
HATCH
  5
62
100
AcDbEntity
  8
0
370
              -2
390
0
  6
Continuous
 62
               0
100
AcDbHatch
 10
0.0
 20
0.0
 30
0.0
210
0.0
220
0.0
230
1.0
  2
SOLID
 70
               1
 71
               1
 91
        1
 92
        1
 93
        1
 72
               2
 10
-854.0064875000005
 20
863.24273981739407
 40
1.9998779296875
 50
0.0
 51
360.0
 73
               0
 97
        1
330
61
 75
               0
 76
               1
 98
        1
 10
0.0
 20
0.0
  0
MTEXT
  5
63
100
AcDbEntity
  8
0
390
0
 62
               0
100
AcDbMText
 10
-887.88410468750044
 20
924.43023813521859
 30
0.0
 40
24.432617187500004
 41
0.0
 71
               1
 72
               1
  1
170
  7
ＭＳ ゴシック
 11
0.0
 21
1.0
 31
0.0
 73
               1
 44
0.7828267384257843
  0
POINT
  5
64
100
AcDbEntity
  8
Defpoints
370
               0
390
0
 62
               0
100
AcDbPoint
 10
-719.63974673806365
 20
863.24273981739407
 30
0.0
  0
POINT
  5
65
100
AcDbEntity
  8
Defpoints
370
               0
390
0
 62
               0
100
AcDbPoint
 10
-612.5064875000005
 20
1033.2427398173941
 30
0.0
  0
POINT
  5
66
100
AcDbEntity
  8
Defpoints
370
               0
390
0
 62
               0
100
AcDbPoint
 10
-854.0064875000005
 20
1033.2427398173941
 30
0.0
  0
ENDBLK
  5
67
100
AcDbEntity
  8
info
390
0
100
AcDbBlockEnd
  0
BLOCK
  5
68
100
AcDbEntity
  8
RKY70-0001
390
0
100
AcDbBlockBegin
  2
*D4
 70
               1
 10
0.0
 20
0.0
 30
0.0
  3
*D4
  1

  0
LINE
  5
69
100
AcDbEntity
  8
0
370
              -2
390
0
  6
Continuous
 62
               0
100
AcDbLine
 10
-612.5064875000005
 20
1058.2427398173941
 30
0.0
 11
-612.5064875000005
 21
1133.2427398173941
 31
0.0
  0
LINE
  5
6A
100
AcDbEntity
  8
0
370
              -2
390
0
  6
Continuous
 62
               0
100
AcDbLine
 10
-292.5064875000005
 20
1058.2427398173941
 30
0.0
 11
-292.5064875000005
 21
1133.2427398173941
 31
0.0
  0
LINE
  5
6B
100
AcDbEntity
  8
0
370
              -2
390
0
  6
Continuous
 62
               0
100
AcDbLine
 10
-612.5064875000005
 20
1133.2427398173941
 30
0.0
 11
-292.5064875000005
 21
1133.2427398173941
 31
0.0
  0
CIRCLE
  5
6C
102
{ACAD_REACTORS
330
6D
102
}
100
AcDbEntity
  8
0
370
              -2
390
0
  6
Continuous
 62
               0
100
AcDbCircle
 10
-612.5064875000005
 20
1133.2427398173941
 30
0.0
 40
1.9998779296875
  0
HATCH
  5
6D
100
AcDbEntity
  8
0
370
              -2
390
0
  6
Continuous
 62
               0
100
AcDbHatch
 10
0.0
 20
0.0
 30
0.0
210
0.0
220
0.0
230
1.0
  2
SOLID
 70
               1
 71
               1
 91
        1
 92
        1
 93
        1
 72
               2
 10
-612.5064875000005
 20
1133.2427398173941
 40
1.9998779296875
 50
0.0
 51
360.0
 73
               0
 97
        1
330
6C
 75
               0
 76
               1
 98
        1
 10
0.0
 20
0.0
  0
CIRCLE
  5
6E
102
{ACAD_REACTORS
330
6F
102
}
100
AcDbEntity
  8
0
370
              -2
390
0
  6
Continuous
 62
               0
100
AcDbCircle
 10
-292.5064875000005
 20
1133.2427398173941
 30
0.0
 40
1.9998779296875
  0
HATCH
  5
6F
100
AcDbEntity
  8
0
370
              -2
390
0
  6
Continuous
 62
               0
100
AcDbHatch
 10
0.0
 20
0.0
 30
0.0
210
0.0
220
0.0
230
1.0
  2
SOLID
 70
               1
 71
               1
 91
        1
 92
        1
 93
        1
 72
               2
 10
-292.5064875000005
 20
1133.2427398173941
 40
1.9998779296875
 50
0.0
 51
360.0
 73
               0
 97
        1
330
6E
 75
               0
 76
               1
 98
        1
 10
0.0
 20
0.0
  0
MTEXT
  5
70
100
AcDbEntity
  8
0
390
0
 62
               0
100
AcDbMText
 10
-476.31898918217598
 20
1167.1203570048942
 30
0.0
 40
24.432617187500004
 41
0.0
 71
               1
 72
               1
  1
320
  7
ＭＳ ゴシック
 73
               1
 44
0.7828267384257843
  0
POINT
  5
71
100
AcDbEntity
  8
Defpoints
370
               0
390
0
 62
               0
100
AcDbPoint
 10
-292.5064875000005
 20
1033.2427398173941
 30
0.0
  0
POINT
  5
72
100
AcDbEntity
  8
Defpoints
370
               0
390
0
 62
               0
100
AcDbPoint
 10
-612.5064875000005
 20
1033.2427398173941
 30
0.0
  0
POINT
  5
73
100
AcDbEntity
  8
Defpoints
370
               0
390
0
 62
               0
100
AcDbPoint
 10
-612.5064875000005
 20
1133.2427398173941
 30
0.0
  0
ENDBLK
  5
74
100
AcDbEntity
  8
RKY70-0001
390
0
100
AcDbBlockEnd
  0
BLOCK
  5
75
100
AcDbEntity
  8
RKY70-0001
390
0
100
AcDbBlockBegin
  2
*D5
 70
               1
 10
0.0
 20
0.0
 30
0.0
  3
*D5
  1

  0
LINE
  5
76
100
AcDbEntity
  8
0
370
              -2
390
0
  6
Continuous
 62
               0
100
AcDbLine
 10
-267.5064875000005
 20
1033.2427398173941
 30
0.0
 11
-51.040139594528341
 21
1033.2427398173941
 31
0.0
  0
LINE
  5
77
100
AcDbEntity
  8
0
370
              -2
390
0
  6
Continuous
 62
               0
100
AcDbLine
 10
-402.50648750000073
 20
413.24273981739452
 30
0.0
 11
-51.040139594528341
 21
413.24273981739452
 31
0.0
  0
LINE
  5
78
100
AcDbEntity
  8
0
370
              -2
390
0
  6
Continuous
 62
               0
100
AcDbLine
 10
-51.040139594528341
 20
1033.2427398173941
 30
0.0
 11
-51.040139594528341
 21
413.24273981739452
 31
0.0
  0
CIRCLE
  5
79
102
{ACAD_REACTORS
330
7A
102
}
100
AcDbEntity
  8
0
370
              -2
390
0
  6
Continuous
 62
               0
100
AcDbCircle
 10
-51.040139594528341
 20
1033.2427398173941
 30
0.0
 40
1.9998779296875
  0
HATCH
  5
7A
100
AcDbEntity
  8
0
370
              -2
390
0
  6
Continuous
 62
               0
100
AcDbHatch
 10
0.0
 20
0.0
 30
0.0
210
0.0
220
0.0
230
1.0
  2
SOLID
 70
               1
 71
               1
 91
        1
 92
        1
 93
        1
 72
               2
 10
-51.040139594528341
 20
1033.2427398173941
 40
1.9998779296875
 50
0.0
 51
360.0
 73
               0
 97
        1
330
79
 75
               0
 76
               1
 98
        1
 10
0.0
 20
0.0
  0
CIRCLE
  5
7B
102
{ACAD_REACTORS
330
7C
102
}
100
AcDbEntity
  8
0
370
              -2
390
0
  6
Continuous
 62
               0
100
AcDbCircle
 10
-51.040139594528341
 20
413.24273981739452
 30
0.0
 40
1.9998779296875
  0
HATCH
  5
7C
100
AcDbEntity
  8
0
370
              -2
390
0
  6
Continuous
 62
               0
100
AcDbHatch
 10
0.0
 20
0.0
 30
0.0
210
0.0
220
0.0
230
1.0
  2
SOLID
 70
               1
 71
               1
 91
        1
 92
        1
 93
        1
 72
               2
 10
-51.040139594528341
 20
413.24273981739452
 40
1.9998779296875
 50
0.0
 51
360.0
 73
               0
 97
        1
330
7B
 75
               0
 76
               1
 98
        1
 10
0.0
 20
0.0
  0
MTEXT
  5
7D
100
AcDbEntity
  8
0
390
0
 62
               0
100
AcDbMText
 10
-84.917756782028391
 20
699.43023813521904
 30
0.0
 40
24.432617187500004
 41
0.0
 71
               1
 72
               1
  1
615
  7
@ＭＳ ゴシック
 11
0.0
 21
1.0
 31
0.0
 73
               1
 44
0.7828267384257843
  0
POINT
  5
7E
100
AcDbEntity
  8
Defpoints
370
               0
390
0
 62
               0
100
AcDbPoint
 10
-427.50648750000073
 20
413.24273981739452
 30
0.0
  0
POINT
  5
7F
100
AcDbEntity
  8
Defpoints
370
               0
390
0
 62
               0
100
AcDbPoint
 10
-292.5064875000005
 20
1033.2427398173941
 30
0.0
  0
POINT
  5
80
100
AcDbEntity
  8
Defpoints
370
               0
390
0
 62
               0
100
AcDbPoint
 10
-51.040139594528341
 20
1033.2427398173941
 30
0.0
  0
ENDBLK
  5
81
100
AcDbEntity
  8
RKY70-0001
390
0
100
AcDbBlockEnd
  0
BLOCK
  5
82
100
AcDbEntity
  8
RKY70-0001
390
0
100
AcDbBlockBegin
  2
*D6
 70
               1
 10
0.0
 20
0.0
 30
0.0
  3
*D6
  1

  0
LINE
  5
83
100
AcDbEntity
  8
0
370
              -2
390
0
  6
Continuous
 62
               0
100
AcDbLine
 10
-755.00648750000005
 20
650.29827023956386
 30
0.0
 11
-755.00648750000005
 21
225.24273981739452
 31
0.0
  0
LINE
  5
84
100
AcDbEntity
  8
0
370
              -2
390
0
  6
Continuous
 62
               0
100
AcDbLine
 10
-150.00648750000096
 20
648.00930215881908
 30
0.0
 11
-150.00648750000096
 21
225.24273981739452
 31
0.0
  0
LINE
  5
85
100
AcDbEntity
  8
0
370
              -2
390
0
  6
Continuous
 62
               0
100
AcDbLine
 10
-755.00648750000005
 20
225.24273981739452
 30
0.0
 11
-150.00648750000096
 21
225.24273981739452
 31
0.0
  0
CIRCLE
  5
86
102
{ACAD_REACTORS
330
87
102
}
100
AcDbEntity
  8
0
370
              -2
390
0
  6
Continuous
 62
               0
100
AcDbCircle
 10
-755.00648750000005
 20
225.24273981739452
 30
0.0
 40
1.9998779296875
  0
HATCH
  5
87
100
AcDbEntity
  8
0
370
              -2
390
0
  6
Continuous
 62
               0
100
AcDbHatch
 10
0.0
 20
0.0
 30
0.0
210
0.0
220
0.0
230
1.0
  2
SOLID
 70
               1
 71
               1
 91
        1
 92
        1
 93
        1
 72
               2
 10
-755.00648750000005
 20
225.24273981739452
 40
1.9998779296875
 50
0.0
 51
360.0
 73
               0
 97
        1
330
86
 75
               0
 76
               1
 98
        1
 10
0.0
 20
0.0
  0
CIRCLE
  5
88
102
{ACAD_REACTORS
330
89
102
}
100
AcDbEntity
  8
0
370
              -2
390
0
  6
Continuous
 62
               0
100
AcDbCircle
 10
-150.00648750000096
 20
225.24273981739452
 30
0.0
 40
1.9998779296875
  0
HATCH
  5
89
100
AcDbEntity
  8
0
370
              -2
390
0
  6
Continuous
 62
               0
100
AcDbHatch
 10
0.0
 20
0.0
 30
0.0
210
0.0
220
0.0
230
1.0
  2
SOLID
 70
               1
 71
               1
 91
        1
 92
        1
 93
        1
 72
               2
 10
-150.00648750000096
 20
225.24273981739452
 40
1.9998779296875
 50
0.0
 51
360.0
 73
               0
 97
        1
330
88
 75
               0
 76
               1
 98
        1
 10
0.0
 20
0.0
  0
MTEXT
  5
8A
100
AcDbEntity
  8
0
390
0
 62
               0
100
AcDbMText
 10
-476.31898918217598
 20
259.12035700489469
 30
0.0
 40
24.432617187500004
 41
0.0
 71
               1
 72
               1
  1
605
  7
ＭＳ ゴシック
 73
               1
 44
0.7828267384257843
  0
POINT
  5
8B
100
AcDbEntity
  8
Defpoints
370
               0
390
0
 62
               0
100
AcDbPoint
 10
-150.00648750000096
 20
673.00930215881908
 30
0.0
  0
POINT
  5
8C
100
AcDbEntity
  8
Defpoints
370
               0
390
0
 62
               0
100
AcDbPoint
 10
-755.00648750000005
 20
675.29827023956386
 30
0.0
  0
POINT
  5
8D
100
AcDbEntity
  8
Defpoints
370
               0
390
0
 62
               0
100
AcDbPoint
 10
-755.00648750000005
 20
225.24273981739452
 30
0.0
  0
ENDBLK
  5
8E
100
AcDbEntity
  8
RKY70-0001
390
0
100
AcDbBlockEnd
  0
BLOCK
  5
8F
100
AcDbEntity
  8
RKY70-0001
390
0
100
AcDbBlockBegin
  2
*D7
 70
               1
 10
0.0
 20
0.0
 30
0.0
  3
*D7
  1

  0
LINE
  5
90
100
AcDbEntity
  8
0
370
              -2
390
0
  6
Continuous
 62
               0
100
AcDbLine
 10
-702.52944567112513
 20
509.74273981739452
 30
0.0
 11
-702.52944567112513
 21
313.24273981739452
 31
0.0
  0
LINE
  5
91
100
AcDbEntity
  8
0
370
              -2
390
0
  6
Continuous
 62
               0
100
AcDbLine
 10
-202.52944567112525
 20
509.74273981739452
 30
0.0
 11
-202.52944567112525
 21
313.24273981739452
 31
0.0
  0
LINE
  5
92
100
AcDbEntity
  8
0
370
              -2
390
0
  6
Continuous
 62
               0
100
AcDbLine
 10
-702.52944567112513
 20
313.24273981739452
 30
0.0
 11
-202.52944567112525
 21
313.24273981739452
 31
0.0
  0
CIRCLE
  5
93
102
{ACAD_REACTORS
330
94
102
}
100
AcDbEntity
  8
0
370
              -2
390
0
  6
Continuous
 62
               0
100
AcDbCircle
 10
-702.52944567112513
 20
313.24273981739452
 30
0.0
 40
1.9998779296875
  0
HATCH
  5
94
100
AcDbEntity
  8
0
370
              -2
390
0
  6
Continuous
 62
               0
100
AcDbHatch
 10
0.0
 20
0.0
 30
0.0
210
0.0
220
0.0
230
1.0
  2
SOLID
 70
               1
 71
               1
 91
        1
 92
        1
 93
        1
 72
               2
 10
-702.52944567112513
 20
313.24273981739452
 40
1.9998779296875
 50
0.0
 51
360.0
 73
               0
 97
        1
330
93
 75
               0
 76
               1
 98
        1
 10
0.0
 20
0.0
  0
CIRCLE
  5
95
102
{ACAD_REACTORS
330
96
102
}
100
AcDbEntity
  8
0
370
              -2
390
0
  6
Continuous
 62
               0
100
AcDbCircle
 10
-202.52944567112525
 20
313.24273981739452
 30
0.0
 40
1.9998779296875
  0
HATCH
  5
96
100
AcDbEntity
  8
0
370
              -2
390
0
  6
Continuous
 62
               0
100
AcDbHatch
 10
0.0
 20
0.0
 30
0.0
210
0.0
220
0.0
230
1.0
  2
SOLID
 70
               1
 71
               1
 91
        1
 92
        1
 93
        1
 72
               2
 10
-202.52944567112525
 20
313.24273981739452
 40
1.9998779296875
 50
0.0
 51
360.0
 73
               0
 97
        1
330
95
 75
               0
 76
               1
 98
        1
 10
0.0
 20
0.0
  0
MTEXT
  5
97
100
AcDbEntity
  8
0
390
0
 62
               0
100
AcDbMText
 10
-476.34194735330061
 20
347.12035700489469
 30
0.0
 40
24.432617187500004
 41
0.0
 71
               1
 72
               1
  1
500
  7
ＭＳ ゴシック
 73
               1
 44
0.7828267384257843
  0
POINT
  5
98
100
AcDbEntity
  8
Defpoints
370
               0
390
0
 62
               0
100
AcDbPoint
 10
-202.52944567112525
 20
534.74273981739452
 30
0.0
  0
POINT
  5
99
100
AcDbEntity
  8
Defpoints
370
               0
390
0
 62
               0
100
AcDbPoint
 10
-702.52944567112513
 20
534.74273981739452
 30
0.0
  0
POINT
  5
9A
100
AcDbEntity
  8
Defpoints
370
               0
390
0
 62
               0
100
AcDbPoint
 10
-702.52944567112513
 20
313.24273981739452
 30
0.0
  0
ENDBLK
  5
9B
100
AcDbEntity
  8
RKY70-0001
390
0
100
AcDbBlockEnd
  0
BLOCK
  5
9C
100
AcDbEntity
  8
RKY70-0001
390
0
100
AcDbBlockBegin
  2
*D8
 70
               1
 10
0.0
 20
0.0
 30
0.0
  3
*D8
  1

  0
LINE
  5
9D
100
AcDbEntity
  8
0
370
              -2
390
0
  6
Continuous
 62
               0
100
AcDbLine
 10
-742.33706361448913
 20
863.24273981739407
 30
0.0
 11
-854.0064875000005
 21
863.24273981739407
 31
0.0
  0
LINE
  5
9E
100
AcDbEntity
  8
0
370
              -2
390
0
  6
Continuous
 62
               0
100
AcDbLine
 10
-607.98885681199272
 20
453.24273981739407
 30
0.0
 11
-854.0064875000005
 21
453.24273981739407
 31
0.0
  0
LINE
  5
9F
100
AcDbEntity
  8
0
370
              -2
390
0
  6
Continuous
 62
               0
100
AcDbLine
 10
-854.0064875000005
 20
863.24273981739407
 30
0.0
 11
-854.0064875000005
 21
453.24273981739407
 31
0.0
  0
CIRCLE
  5
A0
102
{ACAD_REACTORS
330
A1
102
}
100
AcDbEntity
  8
0
370
              -2
390
0
  6
Continuous
 62
               0
100
AcDbCircle
 10
-854.0064875000005
 20
863.24273981739407
 30
0.0
 40
1.9998779296875
  0
HATCH
  5
A1
100
AcDbEntity
  8
0
370
              -2
390
0
  6
Continuous
 62
               0
100
AcDbHatch
 10
0.0
 20
0.0
 30
0.0
210
0.0
220
0.0
230
1.0
  2
SOLID
 70
               1
 71
               1
 91
        1
 92
        1
 93
        1
 72
               2
 10
-854.0064875000005
 20
863.24273981739407
 40
1.9998779296875
 50
0.0
 51
360.0
 73
               0
 97
        1
330
A0
 75
               0
 76
               1
 98
        1
 10
0.0
 20
0.0
  0
CIRCLE
  5
A2
102
{ACAD_REACTORS
330
A3
102
}
100
AcDbEntity
  8
0
370
              -2
390
0
  6
Continuous
 62
               0
100
AcDbCircle
 10
-854.0064875000005
 20
453.24273981739407
 30
0.0
 40
1.9998779296875
  0
HATCH
  5
A3
100
AcDbEntity
  8
0
370
              -2
390
0
  6
Continuous
 62
               0
100
AcDbHatch
 10
0.0
 20
0.0
 30
0.0
210
0.0
220
0.0
230
1.0
  2
SOLID
 70
               1
 71
               1
 91
        1
 92
        1
 93
        1
 72
               2
 10
-854.0064875000005
 20
453.24273981739407
 40
1.9998779296875
 50
0.0
 51
360.0
 73
               0
 97
        1
330
A2
 75
               0
 76
               1
 98
        1
 10
0.0
 20
0.0
  0
MTEXT
  5
A4
100
AcDbEntity
  8
0
390
0
 62
               0
100
AcDbMText
 10
-887.88410468750044
 20
634.43023813521859
 30
0.0
 40
24.432617187500004
 41
0.0
 71
               1
 72
               1
  1
410
  7
ＭＳ ゴシック
 11
0.0
 21
1.0
 31
0.0
 73
               1
 44
0.7828267384257843
  0
POINT
  5
A5
100
AcDbEntity
  8
Defpoints
370
               0
390
0
 62
               0
100
AcDbPoint
 10
-582.98885681199272
 20
453.24273981739407
 30
0.0
  0
POINT
  5
A6
100
AcDbEntity
  8
Defpoints
370
               0
390
0
 62
               0
100
AcDbPoint
 10
-717.33706361448913
 20
863.24273981739407
 30
0.0
  0
POINT
  5
A7
100
AcDbEntity
  8
Defpoints
370
               0
390
0
 62
               0
100
AcDbPoint
 10
-854.0064875000005
 20
863.24273981739407
 30
0.0
  0
ENDBLK
  5
A8
100
AcDbEntity
  8
RKY70-0001
390
0
100
AcDbBlockEnd
  0
BLOCK
  5
A9
100
AcDbEntity
  8
RKY70-0001
390
0
100
AcDbBlockBegin
  2
*D9
 70
               1
 10
0.0
 20
0.0
 30
0.0
  3
*D9
  1

  0
LINE
  5
AA
100
AcDbEntity
  8
0
370
              -2
390
0
  6
Continuous
 62
               0
100
AcDbLine
 10
897.68963748463091
 20
-200.63326470513925
 30
0.0
 11
897.68963748463091
 21
-372.03313402203935
 31
0.0
  0
LINE
  5
AB
100
AcDbEntity
  8
0
370
              -2
390
0
  6
Continuous
 62
               0
100
AcDbLine
 10
617.68963748463091
 20
-293.5199652926633
 30
0.0
 11
617.68963748463091
 21
-372.03313402203935
 31
0.0
  0
LINE
  5
AC
100
AcDbEntity
  8
0
370
              -2
390
0
  6
Continuous
 62
               0
100
AcDbLine
 10
897.68963748463091
 20
-372.03313402203935
 30
0.0
 11
617.68963748463091
 21
-372.03313402203935
 31
0.0
  0
CIRCLE
  5
AD
102
{ACAD_REACTORS
330
AE
102
}
100
AcDbEntity
  8
0
370
              -2
390
0
  6
Continuous
 62
               0
100
AcDbCircle
 10
897.68963748463091
 20
-372.03313402203935
 30
0.0
 40
1.9998779296875
  0
HATCH
  5
AE
100
AcDbEntity
  8
0
370
              -2
390
0
  6
Continuous
 62
               0
100
AcDbHatch
 10
0.0
 20
0.0
 30
0.0
210
0.0
220
0.0
230
1.0
  2
SOLID
 70
               1
 71
               1
 91
        1
 92
        1
 93
        1
 72
               2
 10
897.68963748463091
 20
-372.03313402203935
 40
1.9998779296875
 50
0.0
 51
360.0
 73
               0
 97
        1
330
AD
 75
               0
 76
               1
 98
        1
 10
0.0
 20
0.0
  0
CIRCLE
  5
AF
102
{ACAD_REACTORS
330
B0
102
}
100
AcDbEntity
  8
0
370
              -2
390
0
  6
Continuous
 62
               0
100
AcDbCircle
 10
617.68963748463091
 20
-372.03313402203935
 30
0.0
 40
1.9998779296875
  0
HATCH
  5
B0
100
AcDbEntity
  8
0
370
              -2
390
0
  6
Continuous
 62
               0
100
AcDbHatch
 10
0.0
 20
0.0
 30
0.0
210
0.0
220
0.0
230
1.0
  2
SOLID
 70
               1
 71
               1
 91
        1
 92
        1
 93
        1
 72
               2
 10
617.68963748463091
 20
-372.03313402203935
 40
1.9998779296875
 50
0.0
 51
360.0
 73
               0
 97
        1
330
AF
 75
               0
 76
               1
 98
        1
 10
0.0
 20
0.0
  0
MTEXT
  5
B1
100
AcDbEntity
  8
0
390
0
 62
               0
100
AcDbMText
 10
733.87713580245543
 20
-338.15551683453941
 30
0.0
 40
24.432617187500004
 41
0.0
 71
               1
 72
               1
  1
280
  7
ＭＳ ゴシック
 73
               1
 44
0.7828267384257843
  0
POINT
  5
B2
100
AcDbEntity
  8
Defpoints
370
               0
390
0
 62
               0
100
AcDbPoint
 10
617.68963748463091
 20
-268.5199652926633
 30
0.0
  0
POINT
  5
B3
100
AcDbEntity
  8
Defpoints
370
               0
390
0
 62
               0
100
AcDbPoint
 10
897.68963748463091
 20
-175.63326470513925
 30
0.0
  0
POINT
  5
B4
100
AcDbEntity
  8
Defpoints
370
               0
390
0
 62
               0
100
AcDbPoint
 10
897.68963748463091
 20
-372.03313402203935
 30
0.0
  0
ENDBLK
  5
B5
100
AcDbEntity
  8
RKY70-0001
390
0
100
AcDbBlockEnd
  0
BLOCK
  5
B6
100
AcDbEntity
  8
RKY70-0001
390
0
100
AcDbBlockBegin
  2
*D10
 70
               1
 10
0.0
 20
0.0
 30
0.0
  3
*D10
  1

  0
LINE
  5
B7
100
AcDbEntity
  8
0
370
              -2
390
0
  6
Continuous
 62
               0
100
AcDbLine
 10
-352.80588450000027
 20
-98.167468705146575
 30
0.0
 11
-51.040139594528341
 21
-98.167468705146575
 31
0.0
  0
LINE
  5
B8
100
AcDbEntity
  8
0
370
              -2
390
0
  6
Continuous
 62
               0
100
AcDbLine
 10
-379.41387799999984
 20
-998.1674687051468
 30
0.0
 11
-51.040139594528341
 21
-998.1674687051468
 31
0.0
  0
LINE
  5
B9
100
AcDbEntity
  8
0
370
              -2
390
0
  6
Continuous
 62
               0
100
AcDbLine
 10
-51.040139594528341
 20
-98.167468705146575
 30
0.0
 11
-51.040139594528341
 21
-998.1674687051468
 31
0.0
  0
CIRCLE
  5
BA
102
{ACAD_REACTORS
330
BB
102
}
100
AcDbEntity
  8
0
370
              -2
390
0
  6
Continuous
 62
               0
100
AcDbCircle
 10
-51.040139594528341
 20
-98.167468705146575
 30
0.0
 40
1.9998779296875
  0
HATCH
  5
BB
100
AcDbEntity
  8
0
370
              -2
390
0
  6
Continuous
 62
               0
100
AcDbHatch
 10
0.0
 20
0.0
 30
0.0
210
0.0
220
0.0
230
1.0
  2
SOLID
 70
               1
 71
               1
 91
        1
 92
        1
 93
        1
 72
               2
 10
-51.040139594528341
 20
-98.167468705146575
 40
1.9998779296875
 50
0.0
 51
360.0
 73
               0
 97
        1
330
BA
 75
               0
 76
               1
 98
        1
 10
0.0
 20
0.0
  0
CIRCLE
  5
BC
102
{ACAD_REACTORS
330
BD
102
}
100
AcDbEntity
  8
0
370
              -2
390
0
  6
Continuous
 62
               0
100
AcDbCircle
 10
-51.040139594528341
 20
-998.1674687051468
 30
0.0
 40
1.9998779296875
  0
HATCH
  5
BD
100
AcDbEntity
  8
0
370
              -2
390
0
  6
Continuous
 62
               0
100
AcDbHatch
 10
0.0
 20
0.0
 30
0.0
210
0.0
220
0.0
230
1.0
  2
SOLID
 70
               1
 71
               1
 91
        1
 92
        1
 93
        1
 72
               2
 10
-51.040139594528341
 20
-998.1674687051468
 40
1.9998779296875
 50
0.0
 51
360.0
 73
               0
 97
        1
330
BC
 75
               0
 76
               1
 98
        1
 10
0.0
 20
0.0
  0
MTEXT
  5
BE
100
AcDbEntity
  8
0
390
0
 62
               0
100
AcDbMText
 10
-84.917756782028391
 20
-571.97997038732228
 30
0.0
 40
24.432617187500004
 41
0.0
 71
               1
 72
               1
  1
900
  7
ＭＳ ゴシック
 11
0.0
 21
1.0
 31
0.0
 73
               1
 44
0.7828267384257843
  0
POINT
  5
BF
100
AcDbEntity
  8
Defpoints
370
               0
390
0
 62
               0
100
AcDbPoint
 10
-404.41387799999984
 20
-998.1674687051468
 30
0.0
  0
POINT
  5
C0
100
AcDbEntity
  8
Defpoints
370
               0
390
0
 62
               0
100
AcDbPoint
 10
-377.80588450000027
 20
-98.167468705146575
 30
0.0
  0
POINT
  5
C1
100
AcDbEntity
  8
Defpoints
370
               0
390
0
 62
               0
100
AcDbPoint
 10
-51.040139594528341
 20
-98.167468705146575
 30
0.0
  0
ENDBLK
  5
C2
100
AcDbEntity
  8
RKY70-0001
390
0
100
AcDbBlockEnd
  0
BLOCK
  5
C3
100
AcDbEntity
  8
RKY70-0001
390
0
100
AcDbBlockBegin
  2
*D11
 70
               1
 10
0.0
 20
0.0
 30
0.0
  3
*D11
  1

  0
LINE
  5
C4
100
AcDbEntity
  8
0
370
              -2
390
0
  6
Continuous
 62
               0
100
AcDbLine
 10
539.37822173508937
 20
-148.89250502205959
 30
0.0
 11
622.41016745182117
 21
-148.89250502205959
 31
0.0
  0
LINE
  5
C5
100
AcDbEntity
  8
0
370
              -2
390
0
  6
Continuous
 62
               0
100
AcDbLine
 10
600.0
 20
-253.89250502205959
 30
0.0
 11
622.41016745182117
 21
-253.89250502205959
 31
0.0
  0
LINE
  5
C6
100
AcDbEntity
  8
0
370
              -2
390
0
  6
Continuous
 62
               0
100
AcDbLine
 10
622.41016745182117
 20
-148.89250502205959
 30
0.0
 11
622.41016745182117
 21
23.652821001750908
 31
0.0
  0
LINE
  5
C7
100
AcDbEntity
  8
0
370
              -2
390
0
  6
Continuous
 62
               0
100
AcDbLine
 10
622.41016745182117
 20
-148.89250502205959
 30
0.0
 11
622.41016745182117
 21
-253.89250502205959
 31
0.0
  0
CIRCLE
  5
C8
102
{ACAD_REACTORS
330
C9
102
}
100
AcDbEntity
  8
0
370
              -2
390
0
  6
Continuous
 62
               0
100
AcDbCircle
 10
622.41016745182117
 20
-148.89250502205959
 30
0.0
 40
1.9998779296875
  0
HATCH
  5
C9
100
AcDbEntity
  8
0
370
              -2
390
0
  6
Continuous
 62
               0
100
AcDbHatch
 10
0.0
 20
0.0
 30
0.0
210
0.0
220
0.0
230
1.0
  2
SOLID
 70
               1
 71
               1
 91
        1
 92
        1
 93
        1
 72
               2
 10
622.41016745182117
 20
-148.89250502205959
 40
1.9998779296875
 50
0.0
 51
360.0
 73
               0
 97
        1
330
C8
 75
               0
 76
               1
 98
        1
 10
0.0
 20
0.0
  0
CIRCLE
  5
CA
102
{ACAD_REACTORS
330
CB
102
}
100
AcDbEntity
  8
0
370
              -2
390
0
  6
Continuous
 62
               0
100
AcDbCircle
 10
622.41016745182117
 20
-253.89250502205959
 30
0.0
 40
1.9998779296875
  0
HATCH
  5
CB
100
AcDbEntity
  8
0
370
              -2
390
0
  6
Continuous
 62
               0
100
AcDbHatch
 10
0.0
 20
0.0
 30
0.0
210
0.0
220
0.0
230
1.0
  2
SOLID
 70
               1
 71
               1
 91
        1
 92
        1
 93
        1
 72
               2
 10
622.41016745182117
 20
-253.89250502205959
 40
1.9998779296875
 50
0.0
 51
360.0
 73
               0
 97
        1
330
CA
 75
               0
 76
               1
 98
        1
 10
0.0
 20
0.0
  0
MTEXT
  5
CC
100
AcDbEntity
  8
0
390
0
 62
               0
100
AcDbMText
 10
588.53255026432112
 20
-119.22217899824909
 30
0.0
 40
24.432617187500004
 41
0.0
 71
               1
 72
               1
  1
105(深さ)
  7
ＭＳ ゴシック
 11
0.0
 21
1.0
 31
0.0
 73
               1
 44
0.7828267384257843
  0
POINT
  5
CD
100
AcDbEntity
  8
Defpoints
370
               0
390
0
 62
               0
100
AcDbPoint
 10
575.0
 20
-253.89250502205959
 30
0.0
  0
POINT
  5
CE
100
AcDbEntity
  8
Defpoints
370
               0
390
0
 62
               0
100
AcDbPoint
 10
514.37822173508937
 20
-148.89250502205959
 30
0.0
  0
POINT
  5
CF
100
AcDbEntity
  8
Defpoints
370
               0
390
0
 62
               0
100
AcDbPoint
 10
622.41016745182117
 20
-148.89250502205959
 30
0.0
  0
ENDBLK
  5
D0
100
AcDbEntity
  8
RKY70-0001
390
0
100
AcDbBlockEnd
  0
BLOCK
  5
D1
100
AcDbEntity
  8
RKY70-0001
390
0
100
AcDbBlockBegin
  2
*D12
 70
               1
 10
0.0
 20
0.0
 30
0.0
  3
*D12
  1

  0
LINE
  5
D2
100
AcDbEntity
  8
0
370
              -2
390
0
  6
Continuous
 62
               0
100
AcDbLine
 10
271.39920013229141
 20
-148.14741541214426
 30
0.0
 11
178.79920013229139
 21
-148.14741541214426
 31
0.0
  0
LINE
  5
D3
100
AcDbEntity
  8
0
370
              -2
390
0
  6
Continuous
 62
               0
100
AcDbLine
 10
552.72258792366404
 20
-293.14741541214426
 30
0.0
 11
178.79920013229139
 21
-293.14741541214426
 31
0.0
  0
LINE
  5
D4
100
AcDbEntity
  8
0
370
              -2
390
0
  6
Continuous
 62
               0
100
AcDbLine
 10
178.79920013229139
 20
-148.14741541214426
 30
0.0
 11
178.79920013229139
 21
-293.14741541214426
 31
0.0
  0
CIRCLE
  5
D5
102
{ACAD_REACTORS
330
D6
102
}
100
AcDbEntity
  8
0
370
              -2
390
0
  6
Continuous
 62
               0
100
AcDbCircle
 10
178.79920013229139
 20
-148.14741541214426
 30
0.0
 40
1.9998779296875
  0
HATCH
  5
D6
100
AcDbEntity
  8
0
370
              -2
390
0
  6
Continuous
 62
               0
100
AcDbHatch
 10
0.0
 20
0.0
 30
0.0
210
0.0
220
0.0
230
1.0
  2
SOLID
 70
               1
 71
               1
 91
        1
 92
        1
 93
        1
 72
               2
 10
178.79920013229139
 20
-148.14741541214426
 40
1.9998779296875
 50
0.0
 51
360.0
 73
               0
 97
        1
330
D5
 75
               0
 76
               1
 98
        1
 10
0.0
 20
0.0
  0
CIRCLE
  5
D7
102
{ACAD_REACTORS
330
D8
102
}
100
AcDbEntity
  8
0
370
              -2
390
0
  6
Continuous
 62
               0
100
AcDbCircle
 10
178.79920013229139
 20
-293.14741541214426
 30
0.0
 40
1.9998779296875
  0
HATCH
  5
D8
100
AcDbEntity
  8
0
370
              -2
390
0
  6
Continuous
 62
               0
100
AcDbHatch
 10
0.0
 20
0.0
 30
0.0
210
0.0
220
0.0
230
1.0
  2
SOLID
 70
               1
 71
               1
 91
        1
 92
        1
 93
        1
 72
               2
 10
178.79920013229139
 20
-293.14741541214426
 40
1.9998779296875
 50
0.0
 51
360.0
 73
               0
 97
        1
330
D7
 75
               0
 76
               1
 98
        1
 10
0.0
 20
0.0
  0
MTEXT
  5
D9
100
AcDbEntity
  8
0
390
0
 62
               0
100
AcDbMText
 10
144.92158294479134
 20
-255.63246697483874
 30
0.0
 40
24.432617187500004
 41
0.0
 71
               1
 72
               1
  1
145
  7
ＭＳ ゴシック
 11
0.0
 21
1.0
 31
0.0
 73
               1
 44
0.7828267384257843
  0
POINT
  5
DA
100
AcDbEntity
  8
Defpoints
370
               0
390
0
 62
               0
100
AcDbPoint
 10
577.72258792366404
 20
-293.14741541214426
 30
0.0
  0
POINT
  5
DB
100
AcDbEntity
  8
Defpoints
370
               0
390
0
 62
               0
100
AcDbPoint
 10
296.39920013229141
 20
-148.14741541214426
 30
0.0
  0
POINT
  5
DC
100
AcDbEntity
  8
Defpoints
370
               0
390
0
 62
               0
100
AcDbPoint
 10
178.79920013229139
 20
-148.14741541214426
 30
0.0
  0
ENDBLK
  5
DD
100
AcDbEntity
  8
RKY70-0001
390
0
100
AcDbBlockEnd
  0
BLOCK
  5
DE
100
AcDbEntity
  8
RKY70-0001
390
0
100
AcDbBlockBegin
  2
*D13
 70
               1
 10
0.0
 20
0.0
 30
0.0
  3
*D13
  1

  0
LINE
  5
DF
100
AcDbEntity
  8
0
370
              -2
390
0
  6
Continuous
 62
               0
100
AcDbLine
 10
-527.80588449999937
 20
-98.167468705146575
 30
0.0
 11
-854.0064875000005
 21
-98.167468705146575
 31
0.0
  0
LINE
  5
E0
100
AcDbEntity
  8
0
370
              -2
390
0
  6
Continuous
 62
               0
100
AcDbLine
 10
-585.02944567112513
 20
-203.11996529266321
 30
0.0
 11
-854.0064875000005
 21
-203.11996529266321
 31
0.0
  0
LINE
  5
E1
100
AcDbEntity
  8
0
370
              -2
390
0
  6
Continuous
 62
               0
100
AcDbLine
 10
-854.0064875000005
 20
-98.167468705146575
 30
0.0
 11
-854.0064875000005
 21
-203.11996529266321
 31
0.0
  0
CIRCLE
  5
E2
102
{ACAD_REACTORS
330
E3
102
}
100
AcDbEntity
  8
0
370
              -2
390
0
  6
Continuous
 62
               0
100
AcDbCircle
 10
-854.0064875000005
 20
-98.167468705146575
 30
0.0
 40
1.9998779296875
  0
HATCH
  5
E3
100
AcDbEntity
  8
0
370
              -2
390
0
  6
Continuous
 62
               0
100
AcDbHatch
 10
0.0
 20
0.0
 30
0.0
210
0.0
220
0.0
230
1.0
  2
SOLID
 70
               1
 71
               1
 91
        1
 92
        1
 93
        1
 72
               2
 10
-854.0064875000005
 20
-98.167468705146575
 40
1.9998779296875
 50
0.0
 51
360.0
 73
               0
 97
        1
330
E2
 75
               0
 76
               1
 98
        1
 10
0.0
 20
0.0
  0
CIRCLE
  5
E4
102
{ACAD_REACTORS
330
E5
102
}
100
AcDbEntity
  8
0
370
              -2
390
0
  6
Continuous
 62
               0
100
AcDbCircle
 10
-854.0064875000005
 20
-203.11996529266321
 30
0.0
 40
1.9998779296875
  0
HATCH
  5
E5
100
AcDbEntity
  8
0
370
              -2
390
0
  6
Continuous
 62
               0
100
AcDbHatch
 10
0.0
 20
0.0
 30
0.0
210
0.0
220
0.0
230
1.0
  2
SOLID
 70
               1
 71
               1
 91
        1
 92
        1
 93
        1
 72
               2
 10
-854.0064875000005
 20
-203.11996529266321
 40
1.9998779296875
 50
0.0
 51
360.0
 73
               0
 97
        1
330
E4
 75
               0
 76
               1
 98
        1
 10
0.0
 20
0.0
  0
MTEXT
  5
E6
100
AcDbEntity
  8
0
390
0
 62
               0
100
AcDbMText
 10
-887.88410468750044
 20
-174.45621868108037
 30
0.0
 40
24.432617187500004
 41
0.0
 71
               1
 72
               1
  1
105
  7
ＭＳ ゴシック
 11
0.0
 21
1.0
 31
0.0
 73
               1
 44
0.7828267384257843
  0
POINT
  5
E7
100
AcDbEntity
  8
Defpoints
370
               0
390
0
 62
               0
100
AcDbPoint
 10
-560.02944567112513
 20
-203.11996529266321
 30
0.0
  0
POINT
  5
E8
100
AcDbEntity
  8
Defpoints
370
               0
390
0
 62
               0
100
AcDbPoint
 10
-502.80588449999937
 20
-98.167468705146575
 30
0.0
  0
POINT
  5
E9
100
AcDbEntity
  8
Defpoints
370
               0
390
0
 62
               0
100
AcDbPoint
 10
-854.0064875000005
 20
-98.167468705146575
 30
0.0
  0
ENDBLK
  5
EA
100
AcDbEntity
  8
RKY70-0001
390
0
100
AcDbBlockEnd
  0
BLOCK
  5
EB
100
AcDbEntity
  8
RKY70-0001
390
0
100
AcDbBlockBegin
  2
*D14
 70
               1
 10
0.0
 20
0.0
 30
0.0
  3
*D14
  1

  0
LINE
  5
EC
100
AcDbEntity
  8
0
370
              -2
390
0
  6
Continuous
 62
               0
100
AcDbLine
 10
-540.02944567112513
 20
-158.11996529266321
 30
0.0
 11
-540.02944567112513
 21
1.8325312948534247
 31
0.0
  0
LINE
  5
ED
100
AcDbEntity
  8
0
370
              -2
390
0
  6
Continuous
 62
               0
100
AcDbLine
 10
-365.02944567112513
 20
-158.11996529266321
 30
0.0
 11
-365.02944567112513
 21
1.8325312948534247
 31
0.0
  0
LINE
  5
EE
100
AcDbEntity
  8
0
370
              -2
390
0
  6
Continuous
 62
               0
100
AcDbLine
 10
-540.02944567112513
 20
1.8325312948534247
 30
0.0
 11
-365.02944567112513
 21
1.8325312948534247
 31
0.0
  0
CIRCLE
  5
EF
102
{ACAD_REACTORS
330
F0
102
}
100
AcDbEntity
  8
0
370
              -2
390
0
  6
Continuous
 62
               0
100
AcDbCircle
 10
-540.02944567112513
 20
1.8325312948534247
 30
0.0
 40
1.9998779296875
  0
HATCH
  5
F0
100
AcDbEntity
  8
0
370
              -2
390
0
  6
Continuous
 62
               0
100
AcDbHatch
 10
0.0
 20
0.0
 30
0.0
210
0.0
220
0.0
230
1.0
  2
SOLID
 70
               1
 71
               1
 91
        1
 92
        1
 93
        1
 72
               2
 10
-540.02944567112513
 20
1.8325312948534247
 40
1.9998779296875
 50
0.0
 51
360.0
 73
               0
 97
        1
330
EF
 75
               0
 76
               1
 98
        1
 10
0.0
 20
0.0
  0
CIRCLE
  5
F1
102
{ACAD_REACTORS
330
F2
102
}
100
AcDbEntity
  8
0
370
              -2
390
0
  6
Continuous
 62
               0
100
AcDbCircle
 10
-365.02944567112513
 20
1.8325312948534247
 30
0.0
 40
1.9998779296875
  0
HATCH
  5
F2
100
AcDbEntity
  8
0
370
              -2
390
0
  6
Continuous
 62
               0
100
AcDbHatch
 10
0.0
 20
0.0
 30
0.0
210
0.0
220
0.0
230
1.0
  2
SOLID
 70
               1
 71
               1
 91
        1
 92
        1
 93
        1
 72
               2
 10
-365.02944567112513
 20
1.8325312948534247
 40
1.9998779296875
 50
0.0
 51
360.0
 73
               0
 97
        1
330
F1
 75
               0
 76
               1
 98
        1
 10
0.0
 20
0.0
  0
MTEXT
  5
F3
100
AcDbEntity
  8
0
390
0
 62
               0
100
AcDbMText
 10
-476.34194735330061
 20
35.710148482353361
 30
0.0
 40
24.432617187500004
 41
0.0
 71
               1
 72
               1
  1
175
  7
ＭＳ ゴシック
 73
               1
 44
0.7828267384257843
  0
POINT
  5
F4
100
AcDbEntity
  8
Defpoints
370
               0
390
0
 62
               0
100
AcDbPoint
 10
-365.02944567112513
 20
-183.11996529266321
 30
0.0
  0
POINT
  5
F5
100
AcDbEntity
  8
Defpoints
370
               0
390
0
 62
               0
100
AcDbPoint
 10
-540.02944567112513
 20
-183.11996529266321
 30
0.0
  0
POINT
  5
F6
100
AcDbEntity
  8
Defpoints
370
               0
390
0
 62
               0
100
AcDbPoint
 10
-540.02944567112513
 20
1.8325312948534247
 30
0.0
  0
ENDBLK
  5
F7
100
AcDbEntity
  8
RKY70-0001
390
0
100
AcDbBlockEnd
  0
BLOCK
  5
F8
100
AcDbEntity
  8
RKY70-0001
390
0
100
AcDbBlockBegin
  2
*D15
 70
               1
 10
0.0
 20
0.0
 30
0.0
  3
*D15
  1

  0
LINE
  5
F9
100
AcDbEntity
  8
0
370
              -2
390
0
  6
Continuous
 62
               0
100
AcDbLine
 10
271.39920013229141
 20
-148.14741541214426
 30
0.0
 11
128.41311458587927
 21
-148.14741541214426
 31
0.0
  0
LINE
  5
FA
100
AcDbEntity
  8
0
370
              -2
390
0
  6
Continuous
 62
               0
100
AcDbLine
 10
558.24140929883322
 20
-998.14741541214426
 30
0.0
 11
128.41311458587927
 21
-998.14741541214426
 31
0.0
  0
LINE
  5
FB
100
AcDbEntity
  8
0
370
              -2
390
0
  6
Continuous
 62
               0
100
AcDbLine
 10
128.41311458587927
 20
-148.14741541214426
 30
0.0
 11
128.41311458587927
 21
-998.14741541214426
 31
0.0
  0
CIRCLE
  5
FC
102
{ACAD_REACTORS
330
FD
102
}
100
AcDbEntity
  8
0
370
              -2
390
0
  6
Continuous
 62
               0
100
AcDbCircle
 10
128.41311458587927
 20
-148.14741541214426
 30
0.0
 40
1.9998779296875
  0
HATCH
  5
FD
100
AcDbEntity
  8
0
370
              -2
390
0
  6
Continuous
 62
               0
100
AcDbHatch
 10
0.0
 20
0.0
 30
0.0
210
0.0
220
0.0
230
1.0
  2
SOLID
 70
               1
 71
               1
 91
        1
 92
        1
 93
        1
 72
               2
 10
128.41311458587927
 20
-148.14741541214426
 40
1.9998779296875
 50
0.0
 51
360.0
 73
               0
 97
        1
330
FC
 75
               0
 76
               1
 98
        1
 10
0.0
 20
0.0
  0
CIRCLE
  5
FE
102
{ACAD_REACTORS
330
FF
102
}
100
AcDbEntity
  8
0
370
              -2
390
0
  6
Continuous
 62
               0
100
AcDbCircle
 10
128.41311458587927
 20
-998.14741541214426
 30
0.0
 40
1.9998779296875
  0
HATCH
  5
FF
100
AcDbEntity
  8
0
370
              -2
390
0
  6
Continuous
 62
               0
100
AcDbHatch
 10
0.0
 20
0.0
 30
0.0
210
0.0
220
0.0
230
1.0
  2
SOLID
 70
               1
 71
               1
 91
        1
 92
        1
 93
        1
 72
               2
 10
128.41311458587927
 20
-998.14741541214426
 40
1.9998779296875
 50
0.0
 51
360.0
 73
               0
 97
        1
330
FE
 75
               0
 76
               1
 98
        1
 10
0.0
 20
0.0
  0
MTEXT
  5
100
100
AcDbEntity
  8
0
390
0
 62
               0
100
AcDbMText
 10
94.535497398379221
 20
-596.95991709431974
 30
0.0
 40
24.432617187500004
 41
0.0
 71
               1
 72
               1
  1
850
  7
ＭＳ ゴシック
 11
0.0
 21
1.0
 31
0.0
 73
               1
 44
0.7828267384257843
  0
POINT
  5
101
100
AcDbEntity
  8
Defpoints
370
               0
390
0
 62
               0
100
AcDbPoint
 10
583.24140929883322
 20
-998.14741541214426
 30
0.0
  0
POINT
  5
102
100
AcDbEntity
  8
Defpoints
370
               0
390
0
 62
               0
100
AcDbPoint
 10
296.39920013229141
 20
-148.14741541214426
 30
0.0
  0
POINT
  5
103
100
AcDbEntity
  8
Defpoints
370
               0
390
0
 62
               0
100
AcDbPoint
 10
128.41311458587927
 20
-148.14741541214426
 30
0.0
  0
ENDBLK
  5
104
100
AcDbEntity
  8
RKY70-0001
390
0
100
AcDbBlockEnd
  0
ENDSEC
  0
SECTION
  2
ENTITIES
  0
MTEXT
  5
105
100
AcDbEntity
  8
template
390
0
 62
               7
100
AcDbMText
 10
-967.99999999975921
 20
-1134.6535143187939
 30
0.0
 40
16.288411458333332
 41
0.0
 71
               1
 72
               1
  1
品名
  7
ＭＳ ゴシック
 73
               1
 44
0.7828267384257843
  0
MTEXT
  5
106
100
AcDbEntity
  8
template
390
0
 62
               7
100
AcDbMText
 10
-967.99999999975921
 20
-1219.6535143187939
 30
0.0
 40
16.288411458333332
 41
0.0
 71
               1
 72
               1
  1
仕様
  7
ＭＳ ゴシック
 73
               1
 44
0.7828267384257843
  0
LINE
  5
107
100
AcDbEntity
  8
template
370
               5
390
0
  6
Continuous
 62
               7
100
AcDbLine
 10
974.99999999975876
 20
-1211.2385924437938
 30
0.0
 11
-975.00000000024124
 21
-1211.2385924437938
 31
0.0
  0
LWPOLYLINE
  5
108
100
AcDbEntity
  8
template
370
               5
390
0
  6
Continuous
 62
               7
100
AcDbPolyline
 90
        5
 70
             128
 10
975.00000000024124
 20
1418.7614075562064
 10
-974.99999999975921
 20
1418.7614075562064
 10
-974.99999999975921
 20
-1381.2385924437938
 10
975.00000000024124
 20
-1381.2385924437938
 10
975.00000000024124
 20
1418.7614075562064
  0
LINE
  5
109
100
AcDbEntity
  8
template
370
               5
390
0
  6
Continuous
 62
               7
100
AcDbLine
 10
974.99999999975876
 20
-1126.2385924437938
 30
0.0
 11
-975.00000000024124
 21
-1126.2385924437938
 31
0.0
  0
LINE
  5
10A
100
AcDbEntity
  8
template
370
               5
390
0
  6
Continuous
 62
               7
100
AcDbLine
 10
975.00000000024124
 20
-1296.2385924437938
 30
0.0
 11
222.00000000024124
 21
-1296.2385924437938
 31
0.0
  0
MTEXT
  5
10B
100
AcDbEntity
  8
template
390
0
 62
               7
100
AcDbMText
 10
-974.99999999955594
 20
-1393.0924145006506
 30
0.0
 40
21.717881944444446
 41
0.0
 71
               1
 72
               1
  1
111121SO
  7
ＭＳ ゴシック
 73
               1
 44
0.7828267384257843
  0
MTEXT
  5
10C
100
AcDbEntity
  8
template
390
0
 62
               7
100
AcDbMText
 10
251.87140625250095
 20
-1326.1489869171014
 30
0.0
 40
24.432617187500004
 41
0.0
 71
               1
 72
               1
  1
大洋金物株式会社 ティーフォルム事業部
  7
ＭＳ ゴシック
 73
               1
 44
0.7828267384257843
  0
INSERT
  5
10D
100
AcDbEntity
  8
template
390
0
 62
               7
100
AcDbBlockReference
  2
グループ
 10
775.13240894831983
 20
-1891.224496536252
 30
0.0
  0
MTEXT
  5
10E
100
AcDbEntity
  8
template
390
0
 62
               7
100
AcDbMText
 10
784.00000000049999
 20
-1248.2359752562938
 30
0.0
 40
24.432617187500004
 41
0.0
 71
               1
 72
               1
  1
1:10
  7
ＭＳ ゴシック
 73
               1
 44
0.7828267384257843
  0
MTEXT
  5
10F
100
AcDbEntity
  8
template
390
0
 62
               7
100
AcDbMText
 10
731.00000000049999
 20
-1219.6535143187939
 30
0.0
 40
16.288411458333332
 41
0.0
 71
               1
 72
               1
  1
縮尺
  7
ＭＳ ゴシック
 73
               1
 44
0.7828267384257843
  0
LINE
  5
110
100
AcDbEntity
  8
template
370
               5
390
0
  6
Continuous
 62
               7
100
AcDbLine
 10
724.00000000049999
 20
-1296.2385924437938
 30
0.0
 11
724.00000000049999
 21
-1211.2385924437938
 31
0.0
  0
MTEXT
  5
111
100
AcDbEntity
  8
template
390
0
 62
               7
100
AcDbMText
 10
480.00000000049999
 20
-1219.6535143187939
 30
0.0
 40
16.288411458333332
 41
0.0
 71
               1
 72
               1
  1
容量
  7
ＭＳ ゴシック
 73
               1
 44
0.7828267384257843
  0
MTEXT
  5
112
100
AcDbEntity
  8
template
390
0
 62
               7
100
AcDbMText
 10
533.00000000049999
 20
-1248.2359752562938
 30
0.0
 40
24.432617187500004
 41
0.0
 71
               1
 72
               1
  1
14L
  7
ＭＳ ゴシック
 73
               1
 44
0.7828267384257843
  0
LINE
  5
113
100
AcDbEntity
  8
template
370
               5
390
0
  6
Continuous
 62
               7
100
AcDbLine
 10
473.00000000049999
 20
-1296.2385924437938
 30
0.0
 11
473.00000000049999
 21
-1211.2385924437938
 31
0.0
  0
MTEXT
  5
114
100
AcDbEntity
  8
template
390
0
 62
               7
100
AcDbMText
 10
229.00000000049999
 20
-1134.6535143187939
 30
0.0
 40
16.288411458333332
 41
0.0
 71
               1
 72
               1
  1
品番
  7
ＭＳ ゴシック
 73
               1
 44
0.7828267384257843
  0
MTEXT
  5
115
100
AcDbEntity
  8
template
390
0
 62
               7
100
AcDbMText
 10
229.00000000049999
 20
-1219.6535143187939
 30
0.0
 40
16.288411458333332
 41
0.0
 71
               1
 72
               1
  1
重量
  7
ＭＳ ゴシック
 73
               1
 44
0.7828267384257843
  0
MTEXT
  5
116
100
AcDbEntity
  8
template
390
0
 62
               7
100
AcDbMText
 10
282.00000000049999
 20
-1163.2359752562938
 30
0.0
 40
24.432617187500004
 41
0.0
 71
               1
 72
               1
  1
RKY70-0001
  7
ＭＳ ゴシック
 73
               1
 44
0.7828267384257843
  0
MTEXT
  5
117
100
AcDbEntity
  8
template
390
0
 62
               7
100
AcDbMText
 10
282.00000000049999
 20
-1248.2359752562938
 30
0.0
 40
24.432617187500004
 41
0.0
 71
               1
 72
               1
  1
22.5kg
  7
ＭＳ ゴシック
 73
               1
 44
0.7828267384257843
  0
LINE
  5
118
100
AcDbEntity
  8
template
370
               5
390
0
  6
Continuous
 62
               7
100
AcDbLine
 10
222.00000000049999
 20
-1381.2385924437938
 30
0.0
 11
222.00000000049999
 21
-1126.2385924437938
 31
0.0
  0
MTEXT
  5
119
100
AcDbEntity
  8
template
390
0
 62
               7
100
AcDbMText
 10
-914.99999999975921
 20
-1163.2359752562938
 30
0.0
 40
24.432617187500004
 41
0.0
 71
               1
 72
               1
  1
洗面器 -VITRA,Istanbul-
  7
ＭＳ ゴシック
 73
               1
 44
0.7828267384257843
  0
MTEXT
  5
11A
100
AcDbEntity
  8
template
390
0
 62
               7
100
AcDbMText
 10
-914.99999999975921
 20
-1239.0306470287053
 30
0.0
 40
24.432617187500004
 41
0.0
 71
               1
 72
               1
  1
壁掛け,フロアースタ ンド/オーバーフローなし/\P壁取付ボルト,専用排水目皿,排水トラップ(壁用)付属/\P陶器/ホワイト
  7
ＭＳ ゴシック
 73
               1
 44
1.3047112307096407
  0
DIMENSION
  5
11B
100
AcDbEntity
  8
info
370
               5
390
0
  6
Continuous
 62
               7
100
AcDbDimension
  2
*D3
 10
-854.0064875000005
 20
1033.2427398173941
 30
0.0
 11
-854.0064875000005
 21
948.24273981739407
 31
0.0
 71
               5
 72
               1
 41
1.0
 42
0.0
  3
tfrom線あり
100
AcDbAlignedDimension
 13
-719.63974673806365
 23
863.24273981739407
 33
0.0
 14
-612.5064875000005
 24
1033.2427398173941
 34
0.0
 50
90.0
100
AcDbRotatedDimension
1001
ACAD
1000
DSTYLE
1002
{
1070
             279
1070
               2
1070
             340
1005
32
1070
             147
1040
5.0
1002
}
  0
SPLINE
  5
11C
100
AcDbEntity
  8
info
370
               5
390
0
  6
Continuous
 62
               7
100
AcDbSpline
210
0.0
220
0.0
230
1.0
 70
               8
 71
               2
 72
               6
 73
               3
 74
               0
 42
0.000001
 43
0.000001
 40
0.0
 40
0.0
 40
0.0
 40
1.0
 40
1.0
 40
1.0
 10
499.41033410931993
 20
-140.42039890235128
 30
0.0
 10
633.0
 20
-132.0
 30
0.0
 10
735.41000079432229
 20
-98.023959094146903
 30
0.0
  0
LINE
  5
11D
100
AcDbEntity
  8
RKY70-0001
370
              15
390
0
  6
Continuous
 62
               7
100
AcDbLine
 10
-612.5064875000005
 20
1033.2427398173941
 30
0.0
 11
-292.5064875000005
 21
1033.2427398173941
 31
0.0
  0
LWPOLYLINE
  5
11E
100
AcDbEntity
  8
RKY70-0001
370
              15
390
0
  6
Continuous
 62
               7
100
AcDbPolyline
 90
       36
 70
             129
 10
-452.5064875000005
 20
1009.9776878173939
 10
-452.7769752607262
 20
1009.9776838375665
 42
0.051617963251281
 10
-534.19981454079857
 20
1001.5482544665888
 10
-534.45891631258132
 20
1001.4940293832137
 10
-534.80004237212347
 20
1001.4226381731387
 42
0.117878229772772
 10
-650.7439503266562
 20
946.70005835402071
 10
-650.95604214176251
 20
946.53006830032837
 10
-651.04367863522953
 20
946.45982828553861
 42
0.1320581422497517
 10
-732.05174746787793
 20
835.94798061836173
 42
0.0927323059822949
 10
-755.00648750000005
 20
713.29827023956386
 10
-755.00648750000005
 20
711.00930215881908
 42
0.0563067621696255
 10
-746.32764091843569
 20
634.18610733868263
 42
0.0460554154987385
 10
-728.81501401530181
 20
580.80725665936006
 10
-728.81163808700308
 20
580.79946865204829
 42
0.1578512651389411
 10
-622.26317311700927
 20
459.84208808356607
 10
-622.11550889834984
 20
459.75446880843992
 10
-621.70168827815405
 20
459.50892074606554
 42
0.1346862113531917
 10
-453.06649258759808
 20
413.24274365494239
 10
-452.5064875000005
 20
413.24273981739452
 10
-451.94648241240156
 20
413.24274365494284
 42
0.1346862113531919
 10
-283.31128672184445
 20
459.50892074606645
 10
-282.89746610165071
 20
459.75446880843992
 10
-282.74980188299082
 20
459.84208808356698
 42
0.1578512651389426
 10
-176.20133691299884
 20
580.79946865204829
 10
-176.19796098469965
 20
580.80725665936006
 42
0.0460388580058946
 10
-158.6853340815652
 20
634.18610733868263
 42
0.0562974549684688
 10
-150.00648750000096
 20
711.00930215881908
 10
-150.00648750000096
 20
713.29827023956386
 42
0.0927730374094078
 10
-172.96122753212308
 20
835.94798061836173
 42
0.1320581422497475
 10
-253.96929636477125
 20
946.45982828553861
 10
-254.0569328582385
 20
946.53006830032837
 10
-254.26902467334503
 20
946.70005835402071
 42
0.1178782297727687
 10
-370.21293262787822
 20
1001.4226381731387
 10
-370.55405868741946
 20
1001.4940293832137
 10
-370.81316045920403
 20
1001.5482544665897
 42
0.0516179632512761
 10
-452.23599973927207
 20
1009.9776838375665
  0
LINE
  5
11F
100
AcDbEntity
  8
RKY70-0001
370
              15
390
0
  6
Continuous
 62
               7
100
AcDbLine
 10
-292.5064875000005
 20
1033.2427398173941
 30
0.0
 11
-292.5064875000005
 21
972.07847795223643
 31
0.0
  0
LINE
  5
120
100
AcDbEntity
  8
RKY70-0001
370
              15
390
0
  6
Continuous
 62
               7
100
AcDbLine
 10
-612.5064875000005
 20
1033.2427398173941
 30
0.0
 11
-612.5064875000005
 21
972.07847795223552
 31
0.0
  0
CIRCLE
  5
121
100
AcDbEntity
  8
RKY70-0001
370
              15
390
0
  6
Continuous
 62
               7
100
AcDbCircle
 10
-452.5064875000005
 20
747.88787531739445
 30
0.0
 40
36.000127499999962
  0
CIRCLE
  5
122
100
AcDbEntity
  8
RKY70-0001
370
              15
390
0
  6
Continuous
 62
               7
100
AcDbCircle
 10
-452.5064875000005
 20
747.88787531739445
 30
0.0
 40
23.000727499999357
  0
LWPOLYLINE
  5
123
100
AcDbEntity
  8
RKY70-0001
370
              15
390
0
  6
Continuous
 62
               7
100
AcDbPolyline
 90
       24
 70
             129
 10
-452.5064875000005
 20
863.20000000000027
 10
-454.12989612418437
 20
863.20000000000027
 42
0.064108982112688
 10
-539.86778165097553
 20
852.16149502935377
 10
-541.3283371947889
 20
851.77907143510538
 10
-543.00202969804513
 20
851.34084126613106
 42
0.1683636794557362
 10
-665.76242384998181
 20
769.20205893730963
 10
-665.96159493972004
 20
768.93870548059976
 42
0.3149756885161903
 10
-673.66910637200613
 20
562.04328408664196
 42
0.1386766321090709
 10
-584.26082861415489
 20
483.28393325663137
 10
-583.14761198145357
 20
482.75089840628925
 10
-581.51929797735693
 20
481.97122256783359
 42
0.1121069834600949
 10
-454.81187516937689
 20
453.20000090661188
 10
-452.5064875000005
 20
453.20000000000027
 10
-450.20109983062389
 20
453.20000090661279
 42
0.112106983460096
 10
-323.49367702264203
 20
481.97122256783496
 10
-321.86536301854744
 20
482.75089840628925
 10
-320.75214638584725
 20
483.28393325663092
 42
0.1386766321090722
 10
-231.34386862799488
 20
562.04328408664196
 42
0.314975688516192
 10
-239.05138006028051
 20
768.93870548059886
 10
-239.25055115001919
 20
769.20205893730963
 42
0.1683636794557365
 10
-362.01094530195542
 20
851.34084126613106
 10
-363.68463780521211
 20
851.77907143510538
 10
-365.14519334902525
 20
852.16149502935377
 42
0.0641089821126874
 10
-450.88307887581686
 20
863.20000000000027
  0
ARC
  5
124
100
AcDbEntity
  8
RKY70-0001
370
              15
390
0
  6
Continuous
 62
               7
100
AcDbCircle
 10
-452.80588449999823
 20
-1267.4211222116978
 30
0.0
 40
1169.2536535065512
100
AcDbArc
 50
78.566902454452773
 51
90.000000000000057
  0
ARC
  5
125
100
AcDbEntity
  8
RKY70-0001
370
              15
390
0
  6
Continuous
 62
               7
100
AcDbCircle
 10
-240.85460599465864
 20
-219.3848484706316
 30
0.0
 40
100.00000000000036
100
AcDbArc
 50
66.407705017246045
 51
78.566902454453043
  0
LINE
  5
126
100
AcDbEntity
  8
RKY70-0001
370
              15
390
0
  6
Continuous
 62
               7
100
AcDbLine
 10
-194.9809274999991
 20
-130.29853770513978
 30
0.0
 11
-200.83202615630512
 21
-127.7431925325011
 31
0.0
  0
LINE
  5
127
100
AcDbEntity
  8
RKY70-0001
370
              15
390
0
  6
Continuous
 62
               7
100
AcDbLine
 10
-190.72401749999949
 20
-132.29667170514017
 30
0.0
 11
-194.9809274999991
 21
-130.29853770513978
 31
0.0
  0
LINE
  5
128
100
AcDbEntity
  8
RKY70-0001
370
              15
390
0
  6
Continuous
 62
               7
100
AcDbLine
 10
-186.525048499999
 20
-134.42251070513953
 30
0.0
 11
-190.72401749999949
 21
-132.29667170514017
 31
0.0
  0
LINE
  5
129
100
AcDbEntity
  8
RKY70-0001
370
              15
390
0
  6
Continuous
 62
               7
100
AcDbLine
 10
-183.04212149999898
 20
-136.32316970513943
 30
0.0
 11
-186.525048499999
 21
-134.42251070513953
 31
0.0
  0
LINE
  5
12A
100
AcDbEntity
  8
RKY70-0001
370
              15
390
0
  6
Continuous
 62
               7
100
AcDbLine
 10
-179.61868749999917
 20
-138.33545070513969
 30
0.0
 11
-183.04212149999898
 21
-136.32316970513943
 31
0.0
  0
LINE
  5
12B
100
AcDbEntity
  8
RKY70-0001
370
              15
390
0
  6
Continuous
 62
               7
100
AcDbLine
 10
-176.79327849999913
 20
-140.12313170513949
 30
0.0
 11
-179.61868749999917
 21
-138.33545070513969
 31
0.0
  0
LINE
  5
12C
100
AcDbEntity
  8
RKY70-0001
370
              15
390
0
  6
Continuous
 62
               7
100
AcDbLine
 10
-174.02794349999908
 20
-142.00615670513957
 30
0.0
 11
-176.79327849999913
 21
-140.12313170513949
 31
0.0
  0
LINE
  5
12D
100
AcDbEntity
  8
RKY70-0001
370
              15
390
0
  6
Continuous
 62
               7
100
AcDbLine
 10
-171.75889649999931
 20
-143.66671370513973
 30
0.0
 11
-174.02794349999908
 21
-142.00615670513957
 31
0.0
  0
LINE
  5
12E
100
AcDbEntity
  8
RKY70-0001
370
              15
390
0
  6
Continuous
 62
               7
100
AcDbLine
 10
-169.54701549999913
 20
-145.40381770513955
 30
0.0
 11
-171.75889649999931
 21
-143.66671370513973
 31
0.0
  0
LINE
  5
12F
100
AcDbEntity
  8
RKY70-0001
370
              15
390
0
  6
Continuous
 62
               7
100
AcDbLine
 10
-167.74538149999921
 20
-146.92077870513981
 30
0.0
 11
-169.54701549999913
 21
-145.40381770513955
 31
0.0
  0
LINE
  5
130
100
AcDbEntity
  8
RKY70-0001
370
              15
390
0
  6
Continuous
 62
               7
100
AcDbLine
 10
-165.99626349999949
 20
-148.49820170513954
 30
0.0
 11
-167.74538149999921
 21
-146.92077870513981
 31
0.0
  0
LINE
  5
131
100
AcDbEntity
  8
RKY70-0001
370
              15
390
0
  6
Continuous
 62
               7
100
AcDbLine
 10
-163.9861144999993
 20
-150.46009770513933
 30
0.0
 11
-165.99626349999949
 21
-148.49820170513954
 31
0.0
  0
LINE
  5
132
100
AcDbEntity
  8
RKY70-0001
370
              15
390
0
  6
Continuous
 62
               7
100
AcDbLine
 10
-162.07034049999925
 20
-152.51675470513942
 30
0.0
 11
-163.9861144999993
 21
-150.46009770513933
 31
0.0
  0
LINE
  5
133
100
AcDbEntity
  8
RKY70-0001
370
              15
390
0
  6
Continuous
 62
               7
100
AcDbLine
 10
-160.24622649999924
 20
-154.68968470514005
 30
0.0
 11
-162.07034049999925
 21
-152.51675470513942
 31
0.0
  0
LINE
  5
134
100
AcDbEntity
  8
RKY70-0001
370
              15
390
0
  6
Continuous
 62
               7
100
AcDbLine
 10
-158.54749349999906
 20
-156.96415770513954
 30
0.0
 11
-160.24622649999924
 21
-154.68968470514005
 31
0.0
  0
LINE
  5
135
100
AcDbEntity
  8
RKY70-0001
370
              15
390
0
  6
Continuous
 62
               7
100
AcDbLine
 10
-156.71776049999949
 20
-159.79479870514001
 30
0.0
 11
-158.54749349999906
 21
-156.96415770513954
 31
0.0
  0
LINE
  5
136
100
AcDbEntity
  8
RKY70-0001
370
              15
390
0
  6
Continuous
 62
               7
100
AcDbLine
 10
-155.12231449999922
 20
-162.76360970513974
 30
0.0
 11
-156.71776049999949
 21
-159.79479870514001
 31
0.0
  0
LINE
  5
137
100
AcDbEntity
  8
RKY70-0001
370
              15
390
0
  6
Continuous
 62
               7
100
AcDbLine
 10
-154.07141049999905
 20
-165.14020970513934
 30
0.0
 11
-155.12231449999922
 21
-162.76360970513974
 31
0.0
  0
LINE
  5
138
100
AcDbEntity
  8
RKY70-0001
370
              15
390
0
  6
Continuous
 62
               7
100
AcDbLine
 10
-153.19123149999928
 20
-167.58308370513964
 30
0.0
 11
-154.07141049999905
 21
-165.14020970513934
 31
0.0
  0
LINE
  5
139
100
AcDbEntity
  8
RKY70-0001
370
              15
390
0
  6
Continuous
 62
               7
100
AcDbLine
 10
-152.4945684999991
 20
-170.07847370513969
 30
0.0
 11
-153.19123149999928
 21
-167.58308370513964
 31
0.0
  0
LINE
  5
13A
100
AcDbEntity
  8
RKY70-0001
370
              15
390
0
  6
Continuous
 62
               7
100
AcDbLine
 10
-152.05757949999884
 20
-172.21807170513944
 30
0.0
 11
-152.4945684999991
 21
-170.07847370513969
 31
0.0
  0
LINE
  5
13B
100
AcDbEntity
  8
RKY70-0001
370
              15
390
0
  6
Continuous
 62
               7
100
AcDbLine
 10
-151.76224849999903
 20
-174.37840470513925
 30
0.0
 11
-152.05757949999884
 21
-172.21807170513944
 31
0.0
  0
LINE
  5
13C
100
AcDbEntity
  8
RKY70-0001
370
              15
390
0
  6
Continuous
 62
               7
100
AcDbLine
 10
-151.60528149999914
 20
-176.67031970513995
 30
0.0
 11
-151.76224849999903
 21
-174.37840470513925
 31
0.0
  0
LINE
  5
13D
100
AcDbEntity
  8
RKY70-0001
370
              15
390
0
  6
Continuous
 62
               7
100
AcDbLine
 10
-151.60838249999892
 20
-178.96417170513973
 30
0.0
 11
-151.60528149999914
 21
-176.67031970513995
 31
0.0
  0
LINE
  5
13E
100
AcDbEntity
  8
RKY70-0001
370
              15
390
0
  6
Continuous
 62
               7
100
AcDbLine
 10
-151.83840649999934
 20
-181.86535070513924
 30
0.0
 11
-151.60838249999892
 21
-178.96417170513973
 31
0.0
  0
LINE
  5
13F
100
AcDbEntity
  8
RKY70-0001
370
              15
390
0
  6
Continuous
 62
               7
100
AcDbLine
 10
-152.30892049999898
 20
-184.7347497051403
 30
0.0
 11
-151.83840649999934
 21
-181.86535070513924
 31
0.0
  0
LINE
  5
140
100
AcDbEntity
  8
RKY70-0001
370
              15
390
0
  6
Continuous
 62
               7
100
AcDbLine
 10
-153.00461449999898
 20
-187.55221270513971
 30
0.0
 11
-152.30892049999898
 21
-184.7347497051403
 31
0.0
  0
LINE
  5
141
100
AcDbEntity
  8
RKY70-0001
370
              15
390
0
  6
Continuous
 62
               7
100
AcDbLine
 10
-153.87471649999929
 20
-190.2099967051397
 30
0.0
 11
-153.00461449999898
 21
-187.55221270513971
 31
0.0
  0
LINE
  5
142
100
AcDbEntity
  8
RKY70-0001
370
              15
390
0
  6
Continuous
 62
               7
100
AcDbLine
 10
-154.92232749999926
 20
-192.79782270513965
 30
0.0
 11
-153.87471649999929
 21
-190.2099967051397
 31
0.0
  0
LINE
  5
143
100
AcDbEntity
  8
RKY70-0001
370
              15
390
0
  6
Continuous
 62
               7
100
AcDbLine
 10
-156.1276794999992
 20
-195.31220470513995
 30
0.0
 11
-154.92232749999926
 21
-192.79782270513965
 31
0.0
  0
LINE
  5
144
100
AcDbEntity
  8
RKY70-0001
370
              15
390
0
  6
Continuous
 62
               7
100
AcDbLine
 10
-157.47372149999933
 20
-197.74965270513962
 30
0.0
 11
-156.1276794999992
 21
-195.31220470513995
 31
0.0
  0
LINE
  5
145
100
AcDbEntity
  8
RKY70-0001
370
              15
390
0
  6
Continuous
 62
               7
100
AcDbLine
 10
-158.94611249999912
 20
-200.11055470513998
 30
0.0
 11
-157.47372149999933
 21
-197.74965270513962
 31
0.0
  0
LINE
  5
146
100
AcDbEntity
  8
RKY70-0001
370
              15
390
0
  6
Continuous
 62
               7
100
AcDbLine
 10
-160.53031849999911
 20
-202.39665570513966
 30
0.0
 11
-158.94611249999912
 21
-200.11055470513998
 31
0.0
  0
LINE
  5
147
100
AcDbEntity
  8
RKY70-0001
370
              15
390
0
  6
Continuous
 62
               7
100
AcDbLine
 10
-163.18035049999912
 20
-205.80245570514012
 30
0.0
 11
-160.53031849999911
 21
-202.39665570513966
 31
0.0
  0
LINE
  5
148
100
AcDbEntity
  8
RKY70-0001
370
              15
390
0
  6
Continuous
 62
               7
100
AcDbLine
 10
-166.02920749999907
 20
-209.04217970513923
 30
0.0
 11
-163.18035049999912
 21
-205.80245570514012
 31
0.0
  0
LINE
  5
149
100
AcDbEntity
  8
RKY70-0001
370
              15
390
0
  6
Continuous
 62
               7
100
AcDbLine
 10
-169.45050949999927
 20
-212.52530070513944
 30
0.0
 11
-166.02920749999907
 21
-209.04217970513923
 31
0.0
  0
LINE
  5
14A
100
AcDbEntity
  8
RKY70-0001
370
              15
390
0
  6
Continuous
 62
               7
100
AcDbLine
 10
-173.04408849999959
 20
-215.83285070513989
 30
0.0
 11
-169.45050949999927
 21
-212.52530070513944
 31
0.0
  0
LINE
  5
14B
100
AcDbEntity
  8
RKY70-0001
370
              15
390
0
  6
Continuous
 62
               7
100
AcDbLine
 10
-177.28917849999903
 20
-219.39096670514004
 30
0.0
 11
-173.04408849999959
 21
-215.83285070513989
 31
0.0
  0
LINE
  5
14C
100
AcDbEntity
  8
RKY70-0001
370
              15
390
0
  6
Continuous
 62
               7
100
AcDbLine
 10
-181.68387149999921
 20
-222.76886170513967
 30
0.0
 11
-177.28917849999903
 21
-219.39096670514004
 31
0.0
  0
LINE
  5
14D
100
AcDbEntity
  8
RKY70-0001
370
              15
390
0
  6
Continuous
 62
               7
100
AcDbLine
 10
-186.73995849999915
 20
-226.35933970513975
 30
0.0
 11
-181.68387149999921
 21
-222.76886170513967
 31
0.0
  0
LINE
  5
14E
100
AcDbEntity
  8
RKY70-0001
370
              15
390
0
  6
Continuous
 62
               7
100
AcDbLine
 10
-191.92026249999913
 20
-229.77715470513954
 30
0.0
 11
-186.73995849999915
 21
-226.35933970513975
 31
0.0
  0
LINE
  5
14F
100
AcDbEntity
  8
RKY70-0001
370
              15
390
0
  6
Continuous
 62
               7
100
AcDbLine
 10
-196.95619449999936
 20
-232.89886270514012
 30
0.0
 11
-191.92026249999913
 21
-229.77715470513954
 31
0.0
  0
LINE
  5
150
100
AcDbEntity
  8
RKY70-0001
370
              15
390
0
  6
Continuous
 62
               7
100
AcDbLine
 10
-202.06731649999915
 20
-235.90158670513915
 30
0.0
 11
-196.95619449999936
 21
-232.89886270514012
 31
0.0
  0
LINE
  5
151
100
AcDbEntity
  8
RKY70-0001
370
              15
390
0
  6
Continuous
 62
               7
100
AcDbLine
 10
-206.49475949999919
 20
-238.3894197051402
 30
0.0
 11
-202.06731649999915
 21
-235.90158670513915
 31
0.0
  0
LINE
  5
152
100
AcDbEntity
  8
RKY70-0001
370
              15
390
0
  6
Continuous
 62
               7
100
AcDbLine
 10
-210.96173549999935
 20
-240.81000770513924
 30
0.0
 11
-206.49475949999919
 21
-238.3894197051402
 31
0.0
  0
LINE
  5
153
100
AcDbEntity
  8
RKY70-0001
370
              15
390
0
  6
Continuous
 62
               7
100
AcDbLine
 10
-214.50686749999909
 20
-242.67462270513965
 30
0.0
 11
-210.96173549999935
 21
-240.81000770513924
 31
0.0
  0
LINE
  5
154
100
AcDbEntity
  8
RKY70-0001
370
              15
390
0
  6
Continuous
 62
               7
100
AcDbLine
 10
-218.07118449999894
 20
-244.50648770513976
 30
0.0
 11
-214.50686749999909
 21
-242.67462270513965
 31
0.0
  0
LINE
  5
155
100
AcDbEntity
  8
RKY70-0001
370
              15
390
0
  6
Continuous
 62
               7
100
AcDbLine
 10
-221.13010649999956
 20
-246.04806070514019
 30
0.0
 11
-218.07118449999894
 21
-244.50648770513976
 31
0.0
  0
LINE
  5
156
100
AcDbEntity
  8
RKY70-0001
370
              15
390
0
  6
Continuous
 62
               7
100
AcDbLine
 10
-224.20104349999906
 20
-247.56889770513931
 30
0.0
 11
-221.13010649999956
 21
-246.04806070514019
 31
0.0
  0
LINE
  5
157
100
AcDbEntity
  8
RKY70-0001
370
              15
390
0
  6
Continuous
 62
               7
100
AcDbLine
 10
-226.65942049999899
 20
-248.77056870514002
 30
0.0
 11
-224.20104349999906
 21
-247.56889770513931
 31
0.0
  0
LINE
  5
158
100
AcDbEntity
  8
RKY70-0001
370
              15
390
0
  6
Continuous
 62
               7
100
AcDbLine
 10
-229.12438549999911
 20
-249.96099970514001
 30
0.0
 11
-226.65942049999899
 21
-248.77056870514002
 31
0.0
  0
LINE
  5
159
100
AcDbEntity
  8
RKY70-0001
370
              15
390
0
  6
Continuous
 62
               7
100
AcDbLine
 10
-231.58431349999933
 20
-251.13689670514009
 30
0.0
 11
-229.12438549999911
 21
-249.96099970514001
 31
0.0
  0
LINE
  5
15A
100
AcDbEntity
  8
RKY70-0001
370
              15
390
0
  6
Continuous
 62
               7
100
AcDbLine
 10
-234.04811649999897
 20
-252.30407370513944
 30
0.0
 11
-231.58431349999933
 21
-251.13689670514009
 31
0.0
  0
LINE
  5
15B
100
AcDbEntity
  8
RKY70-0001
370
              15
390
0
  6
Continuous
 62
               7
100
AcDbLine
 10
-236.90433749999943
 20
-253.64391470513942
 30
0.0
 11
-234.04811649999897
 21
-252.30407370513944
 31
0.0
  0
LINE
  5
15C
100
AcDbEntity
  8
RKY70-0001
370
              15
390
0
  6
Continuous
 62
               7
100
AcDbLine
 10
-239.76734049999936
 20
-254.97464670513978
 30
0.0
 11
-236.90433749999943
 21
-253.64391470513942
 31
0.0
  0
LINE
  5
15D
100
AcDbEntity
  8
RKY70-0001
370
              15
390
0
  6
Continuous
 62
               7
100
AcDbLine
 10
-243.60567249999917
 20
-256.74294970513961
 30
0.0
 11
-239.76734049999936
 21
-254.97464670513978
 31
0.0
  0
LINE
  5
15E
100
AcDbEntity
  8
RKY70-0001
370
              15
390
0
  6
Continuous
 62
               7
100
AcDbLine
 10
-247.45059249999917
 20
-258.49865670513987
 30
0.0
 11
-243.60567249999917
 21
-256.74294970513961
 31
0.0
  0
LINE
  5
15F
100
AcDbEntity
  8
RKY70-0001
370
              15
390
0
  6
Continuous
 62
               7
100
AcDbLine
 10
-252.3235504999991
 20
-260.70821170513932
 30
0.0
 11
-247.45059249999917
 21
-258.49865670513987
 31
0.0
  0
LINE
  5
160
100
AcDbEntity
  8
RKY70-0001
370
              15
390
0
  6
Continuous
 62
               7
100
AcDbLine
 10
-257.20309749999956
 20
-262.90768970513977
 30
0.0
 11
-252.3235504999991
 21
-260.70821170513932
 31
0.0
  0
LINE
  5
161
100
AcDbEntity
  8
RKY70-0001
370
              15
390
0
  6
Continuous
 62
               7
100
AcDbLine
 10
-261.33676049999917
 20
-264.76784770513927
 30
0.0
 11
-257.20309749999956
 21
-262.90768970513977
 31
0.0
  0
LINE
  5
162
100
AcDbEntity
  8
RKY70-0001
370
              15
390
0
  6
Continuous
 62
               7
100
AcDbLine
 10
-265.471779499999
 20
-266.62819870513954
 30
0.0
 11
-261.33676049999917
 21
-264.76784770513927
 31
0.0
  0
LINE
  5
163
100
AcDbEntity
  8
RKY70-0001
370
              15
390
0
  6
Continuous
 62
               7
100
AcDbLine
 10
-270.15172649999909
 20
-268.74047270513961
 30
0.0
 11
-265.471779499999
 21
-266.62819870513954
 31
0.0
  0
LINE
  5
164
100
AcDbEntity
  8
RKY70-0001
370
              15
390
0
  6
Continuous
 62
               7
100
AcDbLine
 10
-274.82799049999926
 20
-270.86301770513978
 30
0.0
 11
-270.15172649999909
 21
-268.74047270513961
 31
0.0
  0
LINE
  5
165
100
AcDbEntity
  8
RKY70-0001
370
              15
390
0
  6
Continuous
 62
               7
100
AcDbLine
 10
-280.03949449999914
 20
-273.2527947051401
 30
0.0
 11
-274.82799049999926
 21
-270.86301770513978
 31
0.0
  0
LINE
  5
166
100
AcDbEntity
  8
RKY70-0001
370
              15
390
0
  6
Continuous
 62
               7
100
AcDbLine
 10
-285.23898349999922
 20
-275.6718327051401
 30
0.0
 11
-280.03949449999914
 21
-273.2527947051401
 31
0.0
  0
LINE
  5
167
100
AcDbEntity
  8
RKY70-0001
370
              15
390
0
  6
Continuous
 62
               7
100
AcDbLine
 10
-290.95084349999911
 20
-278.38116370513922
 30
0.0
 11
-285.23898349999922
 21
-275.6718327051401
 31
0.0
  0
ARC
  5
168
100
AcDbEntity
  8
RKY70-0001
370
              15
390
0
  6
Continuous
 62
               7
100
AcDbCircle
 10
-452.80588450000141
 20
-1267.4211222116978
 30
0.0
 40
1169.2536535065512
100
AcDbArc
 50
89.999999999999943
 51
101.43309754554721
  0
ARC
  5
169
100
AcDbEntity
  8
RKY70-0001
370
              15
390
0
  6
Continuous
 62
               7
100
AcDbCircle
 10
-664.757163005341
 20
-219.3848484706316
 30
0.0
 40
100.00000000000037
100
AcDbArc
 50
101.43309754554697
 51
113.59229498275398
  0
LINE
  5
16A
100
AcDbEntity
  8
RKY70-0001
370
              15
390
0
  6
Continuous
 62
               7
100
AcDbLine
 10
-710.63084150000054
 20
-130.29853770513978
 30
0.0
 11
-704.77974284369452
 21
-127.7431925325011
 31
0.0
  0
LINE
  5
16B
100
AcDbEntity
  8
RKY70-0001
370
              15
390
0
  6
Continuous
 62
               7
100
AcDbLine
 10
-714.88775150000015
 20
-132.29667170514017
 30
0.0
 11
-710.63084150000054
 21
-130.29853770513978
 31
0.0
  0
LINE
  5
16C
100
AcDbEntity
  8
RKY70-0001
370
              15
390
0
  6
Continuous
 62
               7
100
AcDbLine
 10
-719.08672050000064
 20
-134.42251070513953
 30
0.0
 11
-714.88775150000015
 21
-132.29667170514017
 31
0.0
  0
LINE
  5
16D
100
AcDbEntity
  8
RKY70-0001
370
              15
390
0
  6
Continuous
 62
               7
100
AcDbLine
 10
-722.56964750000066
 20
-136.32316970513943
 30
0.0
 11
-719.08672050000064
 21
-134.42251070513953
 31
0.0
  0
LINE
  5
16E
100
AcDbEntity
  8
RKY70-0001
370
              15
390
0
  6
Continuous
 62
               7
100
AcDbLine
 10
-725.99308150000047
 20
-138.33545070513969
 30
0.0
 11
-722.56964750000066
 21
-136.32316970513943
 31
0.0
  0
LINE
  5
16F
100
AcDbEntity
  8
RKY70-0001
370
              15
390
0
  6
Continuous
 62
               7
100
AcDbLine
 10
-728.81849050000051
 20
-140.12313170513949
 30
0.0
 11
-725.99308150000047
 21
-138.33545070513969
 31
0.0
  0
LINE
  5
170
100
AcDbEntity
  8
RKY70-0001
370
              15
390
0
  6
Continuous
 62
               7
100
AcDbLine
 10
-731.58382550000056
 20
-142.00615670513957
 30
0.0
 11
-728.81849050000051
 21
-140.12313170513949
 31
0.0
  0
LINE
  5
171
100
AcDbEntity
  8
RKY70-0001
370
              15
390
0
  6
Continuous
 62
               7
100
AcDbLine
 10
-733.85287250000033
 20
-143.66671370513973
 30
0.0
 11
-731.58382550000056
 21
-142.00615670513957
 31
0.0
  0
LINE
  5
172
100
AcDbEntity
  8
RKY70-0001
370
              15
390
0
  6
Continuous
 62
               7
100
AcDbLine
 10
-736.06475350000051
 20
-145.40381770513955
 30
0.0
 11
-733.85287250000033
 21
-143.66671370513973
 31
0.0
  0
LINE
  5
173
100
AcDbEntity
  8
RKY70-0001
370
              15
390
0
  6
Continuous
 62
               7
100
AcDbLine
 10
-737.86638750000043
 20
-146.92077870513981
 30
0.0
 11
-736.06475350000051
 21
-145.40381770513955
 31
0.0
  0
LINE
  5
174
100
AcDbEntity
  8
RKY70-0001
370
              15
390
0
  6
Continuous
 62
               7
100
AcDbLine
 10
-739.61550550000015
 20
-148.49820170513954
 30
0.0
 11
-737.86638750000043
 21
-146.92077870513981
 31
0.0
  0
LINE
  5
175
100
AcDbEntity
  8
RKY70-0001
370
              15
390
0
  6
Continuous
 62
               7
100
AcDbLine
 10
-741.62565450000034
 20
-150.46009770513933
 30
0.0
 11
-739.61550550000015
 21
-148.49820170513954
 31
0.0
  0
LINE
  5
176
100
AcDbEntity
  8
RKY70-0001
370
              15
390
0
  6
Continuous
 62
               7
100
AcDbLine
 10
-743.54142850000039
 20
-152.51675470513942
 30
0.0
 11
-741.62565450000034
 21
-150.46009770513933
 31
0.0
  0
LINE
  5
177
100
AcDbEntity
  8
RKY70-0001
370
              15
390
0
  6
Continuous
 62
               7
100
AcDbLine
 10
-745.3655425000004
 20
-154.68968470514005
 30
0.0
 11
-743.54142850000039
 21
-152.51675470513942
 31
0.0
  0
LINE
  5
178
100
AcDbEntity
  8
RKY70-0001
370
              15
390
0
  6
Continuous
 62
               7
100
AcDbLine
 10
-747.06427550000058
 20
-156.96415770513954
 30
0.0
 11
-745.3655425000004
 21
-154.68968470514005
 31
0.0
  0
LINE
  5
179
100
AcDbEntity
  8
RKY70-0001
370
              15
390
0
  6
Continuous
 62
               7
100
AcDbLine
 10
-748.89400850000015
 20
-159.79479870514001
 30
0.0
 11
-747.06427550000058
 21
-156.96415770513954
 31
0.0
  0
LINE
  5
17A
100
AcDbEntity
  8
RKY70-0001
370
              15
390
0
  6
Continuous
 62
               7
100
AcDbLine
 10
-750.48945450000042
 20
-162.76360970513974
 30
0.0
 11
-748.89400850000015
 21
-159.79479870514001
 31
0.0
  0
LINE
  5
17B
100
AcDbEntity
  8
RKY70-0001
370
              15
390
0
  6
Continuous
 62
               7
100
AcDbLine
 10
-751.54035850000059
 20
-165.14020970513934
 30
0.0
 11
-750.48945450000042
 21
-162.76360970513974
 31
0.0
  0
LINE
  5
17C
100
AcDbEntity
  8
RKY70-0001
370
              15
390
0
  6
Continuous
 62
               7
100
AcDbLine
 10
-752.42053750000036
 20
-167.58308370513964
 30
0.0
 11
-751.54035850000059
 21
-165.14020970513934
 31
0.0
  0
LINE
  5
17D
100
AcDbEntity
  8
RKY70-0001
370
              15
390
0
  6
Continuous
 62
               7
100
AcDbLine
 10
-753.11720050000054
 20
-170.07847370513969
 30
0.0
 11
-752.42053750000036
 21
-167.58308370513964
 31
0.0
  0
LINE
  5
17E
100
AcDbEntity
  8
RKY70-0001
370
              15
390
0
  6
Continuous
 62
               7
100
AcDbLine
 10
-753.5541895000008
 20
-172.21807170513944
 30
0.0
 11
-753.11720050000054
 21
-170.07847370513969
 31
0.0
  0
LINE
  5
17F
100
AcDbEntity
  8
RKY70-0001
370
              15
390
0
  6
Continuous
 62
               7
100
AcDbLine
 10
-753.84952050000061
 20
-174.37840470513925
 30
0.0
 11
-753.5541895000008
 21
-172.21807170513944
 31
0.0
  0
LINE
  5
180
100
AcDbEntity
  8
RKY70-0001
370
              15
390
0
  6
Continuous
 62
               7
100
AcDbLine
 10
-754.0064875000005
 20
-176.67031970513995
 30
0.0
 11
-753.84952050000061
 21
-174.37840470513925
 31
0.0
  0
LINE
  5
181
100
AcDbEntity
  8
RKY70-0001
370
              15
390
0
  6
Continuous
 62
               7
100
AcDbLine
 10
-754.00338650000072
 20
-178.96417170513973
 30
0.0
 11
-754.0064875000005
 21
-176.67031970513995
 31
0.0
  0
LINE
  5
182
100
AcDbEntity
  8
RKY70-0001
370
              15
390
0
  6
Continuous
 62
               7
100
AcDbLine
 10
-753.7733625000003
 20
-181.86535070513924
 30
0.0
 11
-754.00338650000072
 21
-178.96417170513973
 31
0.0
  0
LINE
  5
183
100
AcDbEntity
  8
RKY70-0001
370
              15
390
0
  6
Continuous
 62
               7
100
AcDbLine
 10
-753.30284850000066
 20
-184.7347497051403
 30
0.0
 11
-753.7733625000003
 21
-181.86535070513924
 31
0.0
  0
LINE
  5
184
100
AcDbEntity
  8
RKY70-0001
370
              15
390
0
  6
Continuous
 62
               7
100
AcDbLine
 10
-752.60715450000066
 20
-187.55221270513971
 30
0.0
 11
-753.30284850000066
 21
-184.7347497051403
 31
0.0
  0
LINE
  5
185
100
AcDbEntity
  8
RKY70-0001
370
              15
390
0
  6
Continuous
 62
               7
100
AcDbLine
 10
-751.73705250000035
 20
-190.2099967051397
 30
0.0
 11
-752.60715450000066
 21
-187.55221270513971
 31
0.0
  0
LINE
  5
186
100
AcDbEntity
  8
RKY70-0001
370
              15
390
0
  6
Continuous
 62
               7
100
AcDbLine
 10
-750.68944150000038
 20
-192.79782270513965
 30
0.0
 11
-751.73705250000035
 21
-190.2099967051397
 31
0.0
  0
LINE
  5
187
100
AcDbEntity
  8
RKY70-0001
370
              15
390
0
  6
Continuous
 62
               7
100
AcDbLine
 10
-749.48408950000044
 20
-195.31220470513995
 30
0.0
 11
-750.68944150000038
 21
-192.79782270513965
 31
0.0
  0
LINE
  5
188
100
AcDbEntity
  8
RKY70-0001
370
              15
390
0
  6
Continuous
 62
               7
100
AcDbLine
 10
-748.13804750000031
 20
-197.74965270513962
 30
0.0
 11
-749.48408950000044
 21
-195.31220470513995
 31
0.0
  0
LINE
  5
189
100
AcDbEntity
  8
RKY70-0001
370
              15
390
0
  6
Continuous
 62
               7
100
AcDbLine
 10
-746.66565650000052
 20
-200.11055470513998
 30
0.0
 11
-748.13804750000031
 21
-197.74965270513962
 31
0.0
  0
LINE
  5
18A
100
AcDbEntity
  8
RKY70-0001
370
              15
390
0
  6
Continuous
 62
               7
100
AcDbLine
 10
-745.08145050000053
 20
-202.39665570513966
 30
0.0
 11
-746.66565650000052
 21
-200.11055470513998
 31
0.0
  0
LINE
  5
18B
100
AcDbEntity
  8
RKY70-0001
370
              15
390
0
  6
Continuous
 62
               7
100
AcDbLine
 10
-742.43141850000052
 20
-205.80245570514012
 30
0.0
 11
-745.08145050000053
 21
-202.39665570513966
 31
0.0
  0
LINE
  5
18C
100
AcDbEntity
  8
RKY70-0001
370
              15
390
0
  6
Continuous
 62
               7
100
AcDbLine
 10
-739.58256150000057
 20
-209.04217970513923
 30
0.0
 11
-742.43141850000052
 21
-205.80245570514012
 31
0.0
  0
LINE
  5
18D
100
AcDbEntity
  8
RKY70-0001
370
              15
390
0
  6
Continuous
 62
               7
100
AcDbLine
 10
-736.16125950000037
 20
-212.52530070513944
 30
0.0
 11
-739.58256150000057
 21
-209.04217970513923
 31
0.0
  0
LINE
  5
18E
100
AcDbEntity
  8
RKY70-0001
370
              15
390
0
  6
Continuous
 62
               7
100
AcDbLine
 10
-732.56768050000005
 20
-215.83285070513989
 30
0.0
 11
-736.16125950000037
 21
-212.52530070513944
 31
0.0
  0
LINE
  5
18F
100
AcDbEntity
  8
RKY70-0001
370
              15
390
0
  6
Continuous
 62
               7
100
AcDbLine
 10
-728.32259050000062
 20
-219.39096670514004
 30
0.0
 11
-732.56768050000005
 21
-215.83285070513989
 31
0.0
  0
LINE
  5
190
100
AcDbEntity
  8
RKY70-0001
370
              15
390
0
  6
Continuous
 62
               7
100
AcDbLine
 10
-723.92789750000043
 20
-222.76886170513967
 30
0.0
 11
-728.32259050000062
 21
-219.39096670514004
 31
0.0
  0
LINE
  5
191
100
AcDbEntity
  8
RKY70-0001
370
              15
390
0
  6
Continuous
 62
               7
100
AcDbLine
 10
-718.87181050000049
 20
-226.35933970513975
 30
0.0
 11
-723.92789750000043
 21
-222.76886170513967
 31
0.0
  0
LINE
  5
192
100
AcDbEntity
  8
RKY70-0001
370
              15
390
0
  6
Continuous
 62
               7
100
AcDbLine
 10
-713.69150650000051
 20
-229.77715470513954
 30
0.0
 11
-718.87181050000049
 21
-226.35933970513975
 31
0.0
  0
LINE
  5
193
100
AcDbEntity
  8
RKY70-0001
370
              15
390
0
  6
Continuous
 62
               7
100
AcDbLine
 10
-708.65557450000028
 20
-232.89886270514012
 30
0.0
 11
-713.69150650000051
 21
-229.77715470513954
 31
0.0
  0
LINE
  5
194
100
AcDbEntity
  8
RKY70-0001
370
              15
390
0
  6
Continuous
 62
               7
100
AcDbLine
 10
-703.54445250000049
 20
-235.90158670513915
 30
0.0
 11
-708.65557450000028
 21
-232.89886270514012
 31
0.0
  0
LINE
  5
195
100
AcDbEntity
  8
RKY70-0001
370
              15
390
0
  6
Continuous
 62
               7
100
AcDbLine
 10
-699.11700950000045
 20
-238.3894197051402
 30
0.0
 11
-703.54445250000049
 21
-235.90158670513915
 31
0.0
  0
LINE
  5
196
100
AcDbEntity
  8
RKY70-0001
370
              15
390
0
  6
Continuous
 62
               7
100
AcDbLine
 10
-694.65003350000029
 20
-240.81000770513924
 30
0.0
 11
-699.11700950000045
 21
-238.3894197051402
 31
0.0
  0
LINE
  5
197
100
AcDbEntity
  8
RKY70-0001
370
              15
390
0
  6
Continuous
 62
               7
100
AcDbLine
 10
-691.10490150000055
 20
-242.67462270513965
 30
0.0
 11
-694.65003350000029
 21
-240.81000770513924
 31
0.0
  0
LINE
  5
198
100
AcDbEntity
  8
RKY70-0001
370
              15
390
0
  6
Continuous
 62
               7
100
AcDbLine
 10
-687.5405845000007
 20
-244.50648770513976
 30
0.0
 11
-691.10490150000055
 21
-242.67462270513965
 31
0.0
  0
LINE
  5
199
100
AcDbEntity
  8
RKY70-0001
370
              15
390
0
  6
Continuous
 62
               7
100
AcDbLine
 10
-684.48166250000008
 20
-246.04806070514019
 30
0.0
 11
-687.5405845000007
 21
-244.50648770513976
 31
0.0
  0
LINE
  5
19A
100
AcDbEntity
  8
RKY70-0001
370
              15
390
0
  6
Continuous
 62
               7
100
AcDbLine
 10
-681.41072550000058
 20
-247.56889770513931
 30
0.0
 11
-684.48166250000008
 21
-246.04806070514019
 31
0.0
  0
LINE
  5
19B
100
AcDbEntity
  8
RKY70-0001
370
              15
390
0
  6
Continuous
 62
               7
100
AcDbLine
 10
-678.95234850000065
 20
-248.77056870514002
 30
0.0
 11
-681.41072550000058
 21
-247.56889770513931
 31
0.0
  0
LINE
  5
19C
100
AcDbEntity
  8
RKY70-0001
370
              15
390
0
  6
Continuous
 62
               7
100
AcDbLine
 10
-676.48738350000053
 20
-249.96099970514001
 30
0.0
 11
-678.95234850000065
 21
-248.77056870514002
 31
0.0
  0
LINE
  5
19D
100
AcDbEntity
  8
RKY70-0001
370
              15
390
0
  6
Continuous
 62
               7
100
AcDbLine
 10
-674.02745550000031
 20
-251.13689670514009
 30
0.0
 11
-676.48738350000053
 21
-249.96099970514001
 31
0.0
  0
LINE
  5
19E
100
AcDbEntity
  8
RKY70-0001
370
              15
390
0
  6
Continuous
 62
               7
100
AcDbLine
 10
-671.56365250000067
 20
-252.30407370513944
 30
0.0
 11
-674.02745550000031
 21
-251.13689670514009
 31
0.0
  0
LINE
  5
19F
100
AcDbEntity
  8
RKY70-0001
370
              15
390
0
  6
Continuous
 62
               7
100
AcDbLine
 10
-668.70743150000021
 20
-253.64391470513942
 30
0.0
 11
-671.56365250000067
 21
-252.30407370513944
 31
0.0
  0
LINE
  5
1A0
100
AcDbEntity
  8
RKY70-0001
370
              15
390
0
  6
Continuous
 62
               7
100
AcDbLine
 10
-665.84442850000028
 20
-254.97464670513978
 30
0.0
 11
-668.70743150000021
 21
-253.64391470513942
 31
0.0
  0
LINE
  5
1A1
100
AcDbEntity
  8
RKY70-0001
370
              15
390
0
  6
Continuous
 62
               7
100
AcDbLine
 10
-662.00609650000047
 20
-256.74294970513961
 30
0.0
 11
-665.84442850000028
 21
-254.97464670513978
 31
0.0
  0
LINE
  5
1A2
100
AcDbEntity
  8
RKY70-0001
370
              15
390
0
  6
Continuous
 62
               7
100
AcDbLine
 10
-658.16117650000047
 20
-258.49865670513987
 30
0.0
 11
-662.00609650000047
 21
-256.74294970513961
 31
0.0
  0
LINE
  5
1A3
100
AcDbEntity
  8
RKY70-0001
370
              15
390
0
  6
Continuous
 62
               7
100
AcDbLine
 10
-653.28821850000054
 20
-260.70821170513932
 30
0.0
 11
-658.16117650000047
 21
-258.49865670513987
 31
0.0
  0
LINE
  5
1A4
100
AcDbEntity
  8
RKY70-0001
370
              15
390
0
  6
Continuous
 62
               7
100
AcDbLine
 10
-648.40867150000008
 20
-262.90768970513977
 30
0.0
 11
-653.28821850000054
 21
-260.70821170513932
 31
0.0
  0
LINE
  5
1A5
100
AcDbEntity
  8
RKY70-0001
370
              15
390
0
  6
Continuous
 62
               7
100
AcDbLine
 10
-644.27500850000047
 20
-264.76784770513927
 30
0.0
 11
-648.40867150000008
 21
-262.90768970513977
 31
0.0
  0
LINE
  5
1A6
100
AcDbEntity
  8
RKY70-0001
370
              15
390
0
  6
Continuous
 62
               7
100
AcDbLine
 10
-640.13998950000064
 20
-266.62819870513954
 30
0.0
 11
-644.27500850000047
 21
-264.76784770513927
 31
0.0
  0
LINE
  5
1A7
100
AcDbEntity
  8
RKY70-0001
370
              15
390
0
  6
Continuous
 62
               7
100
AcDbLine
 10
-635.46004250000055
 20
-268.74047270513961
 30
0.0
 11
-640.13998950000064
 21
-266.62819870513954
 31
0.0
  0
LINE
  5
1A8
100
AcDbEntity
  8
RKY70-0001
370
              15
390
0
  6
Continuous
 62
               7
100
AcDbLine
 10
-630.78377850000038
 20
-270.86301770513978
 30
0.0
 11
-635.46004250000055
 21
-268.74047270513961
 31
0.0
  0
LINE
  5
1A9
100
AcDbEntity
  8
RKY70-0001
370
              15
390
0
  6
Continuous
 62
               7
100
AcDbLine
 10
-625.5722745000005
 20
-273.2527947051401
 30
0.0
 11
-630.78377850000038
 21
-270.86301770513978
 31
0.0
  0
LINE
  5
1AA
100
AcDbEntity
  8
RKY70-0001
370
              15
390
0
  6
Continuous
 62
               7
100
AcDbLine
 10
-620.37278550000042
 20
-275.6718327051401
 30
0.0
 11
-625.5722745000005
 21
-273.2527947051401
 31
0.0
  0
LINE
  5
1AB
100
AcDbEntity
  8
RKY70-0001
370
              15
390
0
  6
Continuous
 62
               7
100
AcDbLine
 10
-614.66092550000053
 20
-278.38116370513922
 30
0.0
 11
-620.37278550000042
 21
-275.6718327051401
 31
0.0
  0
LINE
  5
1AC
100
AcDbEntity
  8
RKY70-0001
370
              15
390
0
  6
Continuous
 62
               7
100
AcDbLine
 10
-608.9791015000003
 20
-281.15211870514008
 30
0.0
 11
-614.66092550000053
 21
-278.38116370513922
 31
0.0
  0
LINE
  5
1AD
100
AcDbEntity
  8
RKY70-0001
370
              15
390
0
  6
Continuous
 62
               7
100
AcDbLine
 10
-602.82908950000069
 20
-284.25968070513932
 30
0.0
 11
-608.9791015000003
 21
-281.15211870514008
 31
0.0
  0
LINE
  5
1AE
100
AcDbEntity
  8
RKY70-0001
370
              15
390
0
  6
Continuous
 62
               7
100
AcDbLine
 10
-596.72733050000011
 20
-287.46859370513971
 30
0.0
 11
-602.82908950000069
 21
-284.25968070513932
 31
0.0
  0
LINE
  5
1AF
100
AcDbEntity
  8
RKY70-0001
370
              15
390
0
  6
Continuous
 62
               7
100
AcDbLine
 10
-592.36383650000039
 20
-289.85274970513979
 30
0.0
 11
-596.72733050000011
 21
-287.46859370513971
 31
0.0
  0
LINE
  5
1B0
100
AcDbEntity
  8
RKY70-0001
370
              15
390
0
  6
Continuous
 62
               7
100
AcDbLine
 10
-588.04879050000022
 20
-292.32217270513934
 30
0.0
 11
-592.36383650000039
 21
-289.85274970513979
 31
0.0
  0
LINE
  5
1B1
100
AcDbEntity
  8
RKY70-0001
370
              15
390
0
  6
Continuous
 62
               7
100
AcDbLine
 10
-574.95442077749476
 20
-299.72197600000004
 30
0.0
 11
-588.04879050000022
 21
-292.32217270513934
 31
0.0
  0
LINE
  5
1B2
100
AcDbEntity
  8
RKY70-0001
370
              15
390
0
  6
Continuous
 62
               7
100
AcDbLine
 10
-729.56770717119912
 20
-140.63330270513916
 30
0.0
 11
-176.0440618288003
 21
-140.63330270513916
 31
0.0
  0
ARC
  5
1B3
100
AcDbEntity
  8
RKY70-0001
370
              15
390
0
  6
Continuous
 62
               7
100
AcDbCircle
 10
735.52203253610344
 20
-101.91231677216979
 30
0.0
 40
3.8290770529736426
100
AcDbArc
 50
71.706922292808443
 51
111.4398821909206
  0
ARC
  5
1B4
100
AcDbEntity
  8
RKY70-0001
370
              15
390
0
  6
Continuous
 62
               7
100
AcDbCircle
 10
714.60360600000138
 20
-390.85141118706133
 30
0.0
 40
289.72318178833922
100
AcDbArc
 50
70.180542612217678
 51
73.215521466522219
  0
ARC
  5
1B5
100
AcDbEntity
  8
RKY70-0001
370
              15
390
0
  6
Continuous
 62
               7
100
AcDbCircle
 10
618.36244340173096
 20
-709.92989084217902
 30
0.0
 40
622.99999999999943
100
AcDbArc
 50
73.215521466502963
 51
79.048016598201457
  0
ARC
  5
1B6
100
AcDbEntity
  8
RKY70-0001
370
              15
390
0
  6
Continuous
 62
               7
100
AcDbCircle
 10
441.57765656692447
 20
-36.163655890499058
 30
0.0
 40
227.89700182888507
100
AcDbArc
 50
233.59960257724691
 51
240.97176015294718
  0
ARC
  5
1B7
100
AcDbEntity
  8
RKY70-0001
370
              15
390
0
  6
Continuous
 62
               7
100
AcDbCircle
 10
371.80551873846127
 20
-130.7989071295649
 30
0.0
 40
110.32157074638735
100
AcDbArc
 50
220.62557161807032
 51
233.5996025772468
  0
ARC
  5
1B8
100
AcDbEntity
  8
RKY70-0001
370
              15
390
0
  6
Continuous
 62
               7
100
AcDbCircle
 10
323.63945207139989
 20
-172.11952265742548
 30
0.0
 40
46.860060791320386
100
AcDbArc
 50
196.77405504749339
 51
220.62557161806993
  0
ARC
  5
1B9
100
AcDbEntity
  8
RKY70-0001
370
              15
390
0
  6
Continuous
 62
               7
100
AcDbCircle
 10
303.15716718735996
 20
-178.2933701049551
 30
0.0
 40
25.467529702728967
100
AcDbArc
 50
158.26057839234525
 51
196.77405504749282
  0
ARC
  5
1BA
100
AcDbEntity
  8
RKY70-0001
370
              15
390
0
  6
Continuous
 62
               7
100
AcDbCircle
 10
313.54758780330314
 20
-182.43650405693097
 30
0.0
 40
36.653520920329463
100
AcDbArc
 50
144.25824008680112
 51
158.26057839234693
  0
ARC
  5
1BB
100
AcDbEntity
  8
RKY70-0001
370
              15
390
0
  6
Continuous
 62
               7
100
AcDbCircle
 10
332.49694428276473
 20
-196.07395156119992
 30
0.0
 40
59.999999999998082
100
AcDbArc
 50
126.98666044331206
 51
144.25824008680274
  0
ARC
  5
1BC
100
AcDbEntity
  8
RKY70-0001
370
              15
390
0
  6
Continuous
 62
               7
100
AcDbCircle
 10
300.02920477788359
 20
-152.96692845825055
 30
0.0
 40
6.033625753111469
100
AcDbArc
 50
89.127911238256033
 51
126.98666044331209
  0
ARC
  5
1BD
100
AcDbEntity
  8
RKY70-0001
370
              15
390
0
  6
Continuous
 62
               7
100
AcDbCircle
 10
368.07552481872256
 20
-494.51985810954966
 30
0.0
 40
219.46006600816096
100
AcDbArc
 50
58.733602648486553
 51
62.739577828706295
  0
ARC
  5
1BE
100
AcDbEntity
  8
RKY70-0001
370
              15
390
0
  6
Continuous
 62
               7
100
AcDbCircle
 10
154.70049231418261
 20
-908.62801511111297
 30
0.0
 40
685.30818523968151
100
AcDbArc
 50
62.739577828705826
 51
67.08997527645856
  0
ARC
  5
1BF
100
AcDbEntity
  8
RKY70-0001
370
              15
390
0
  6
Continuous
 62
               7
100
AcDbCircle
 10
1599.0945897662195
 20
2509.0633867685087
 30
0.0
 40
3025.0676484510482
100
AcDbArc
 50
246.10794472184665
 51
247.08997527645761
  0
ARC
  5
1C0
100
AcDbEntity
  8
RKY70-0001
370
              15
390
0
  6
Continuous
 62
               7
100
AcDbCircle
 10
590.4985222176623
 20
232.1846886991093
 30
0.0
 40
534.79805798566713
100
AcDbArc
 50
240.97176015294798
 51
246.10794472184884
  0
ARC
  5
1C1
100
AcDbEntity
  8
RKY70-0001
370
              15
390
0
  6
Continuous
 62
               7
100
AcDbCircle
 10
903.22946940510394
 20
-151.07058081414334
 30
0.0
 40
30.733720498251021
100
AcDbArc
 50
203.42346599624909
 51
216.81309143272912
  0
ARC
  5
1C2
100
AcDbEntity
  8
RKY70-0001
370
              15
390
0
  6
Continuous
 62
               7
100
AcDbCircle
 10
824.71980104135639
 20
-185.08293051590431
 30
0.0
 40
54.826830918979233
100
AcDbArc
 50
23.423465996254084
 51
43.563438371582706
  0
ARC
  5
1C3
100
AcDbEntity
  8
RKY70-0001
370
              15
390
0
  6
Continuous
 62
               7
100
AcDbCircle
 10
820.8297256736729
 20
-188.7826686501287
 30
0.0
 40
60.195326856212567
100
AcDbArc
 50
43.563438371582969
 51
52.275070352377213
  0
ARC
  5
1C4
100
AcDbEntity
  8
RKY70-0001
370
              15
390
0
  6
Continuous
 62
               7
100
AcDbCircle
 10
783.93109668754585
 20
-236.48100885238387
 30
0.0
 40
120.49989118683307
100
AcDbArc
 50
52.275070352380517
 51
56.285212154351399
  0
LINE
  5
1C5
100
AcDbEntity
  8
RKY70-0001
370
              15
390
0
  6
Continuous
 62
               7
100
AcDbLine
 10
897.68963748463091
 20
-258.24701870513923
 30
0.0
 11
864.71712252838586
 21
-258.24701870513923
 31
0.0
  0
LINE
  5
1C6
100
AcDbEntity
  8
RKY70-0001
370
              15
390
0
  6
Continuous
 62
               7
100
AcDbLine
 10
897.68963748463091
 20
-175.63326470513925
 30
0.0
 11
897.68963748463091
 21
-258.24701870513923
 31
0.0
  0
LINE
  5
1C7
100
AcDbEntity
  8
RKY70-0001
370
              15
390
0
  6
Continuous
 62
               7
100
AcDbLine
 10
890.90267681155171
 20
-175.63326470513925
 30
0.0
 11
897.68963748463091
 21
-175.63326470513925
 31
0.0
  0
ARC
  5
1C8
100
AcDbEntity
  8
RKY70-0001
370
              15
390
0
  6
Continuous
 62
               7
100
AcDbCircle
 10
890.90267681155149
 20
-160.2965934019237
 30
0.0
 40
15.33667130321558
100
AcDbArc
 50
216.81309143273427
 51
270.0000000000008
  0
LINE
  5
1C9
100
AcDbEntity
  8
RKY70-0001
370
              15
390
0
  6
Continuous
 62
               7
100
AcDbLine
 10
865.01159348463113
 20
-258.46037770513954
 30
0.0
 11
856.64543848463097
 21
-258.66472570513974
 31
0.0
  0
LINE
  5
1CA
100
AcDbEntity
  8
RKY70-0001
370
              15
390
0
  6
Continuous
 62
               7
100
AcDbLine
 10
803.1870744846309
 20
-262.3945367051399
 30
0.0
 11
798.14649048463104
 21
-263.0736627051399
 31
0.0
  0
LINE
  5
1CB
100
AcDbEntity
  8
RKY70-0001
370
              15
390
0
  6
Continuous
 62
               7
100
AcDbLine
 10
832.11127748463093
 20
-259.76475570513935
 30
0.0
 11
824.06506248463108
 21
-260.32363670513928
 31
0.0
  0
LINE
  5
1CC
100
AcDbEntity
  8
RKY70-0001
370
              15
390
0
  6
Continuous
 62
               7
100
AcDbLine
 10
840.3574794846312
 20
-259.30247770513938
 30
0.0
 11
832.11127748463093
 21
-259.76475570513935
 31
0.0
  0
LINE
  5
1CD
100
AcDbEntity
  8
RKY70-0001
370
              15
390
0
  6
Continuous
 62
               7
100
AcDbLine
 10
848.53372448463085
 20
-258.93961270513933
 30
0.0
 11
840.3574794846312
 21
-259.30247770513938
 31
0.0
  0
LINE
  5
1CE
100
AcDbEntity
  8
RKY70-0001
370
              15
390
0
  6
Continuous
 62
               7
100
AcDbLine
 10
856.64543848463097
 20
-258.66472570513974
 30
0.0
 11
848.53372448463085
 21
-258.93961270513933
 31
0.0
  0
LINE
  5
1CF
100
AcDbEntity
  8
RKY70-0001
370
              15
390
0
  6
Continuous
 62
               7
100
AcDbLine
 10
824.06506248463108
 20
-260.32363670513928
 30
0.0
 11
818.81596448463085
 21
-260.75248570513963
 31
0.0
  0
LINE
  5
1D0
100
AcDbEntity
  8
RKY70-0001
370
              15
390
0
  6
Continuous
 62
               7
100
AcDbLine
 10
808.36369548463097
 20
-261.77994270513932
 30
0.0
 11
803.1870744846309
 21
-262.3945367051399
 31
0.0
  0
LINE
  5
1D1
100
AcDbEntity
  8
RKY70-0001
370
              15
390
0
  6
Continuous
 62
               7
100
AcDbLine
 10
813.54477448463092
 20
-261.23879370513964
 30
0.0
 11
808.36369548463097
 21
-261.77994270513932
 31
0.0
  0
LINE
  5
1D2
100
AcDbEntity
  8
RKY70-0001
370
              15
390
0
  6
Continuous
 62
               7
100
AcDbLine
 10
818.81596448463085
 20
-260.75248570513963
 30
0.0
 11
813.54477448463092
 21
-261.23879370513964
 31
0.0
  0
LINE
  5
1D3
100
AcDbEntity
  8
RKY70-0001
370
              15
390
0
  6
Continuous
 62
               7
100
AcDbLine
 10
765.67231048463088
 20
-274.09634170513959
 30
0.0
 11
767.31213248463098
 21
-272.86758970513961
 31
0.0
  0
LINE
  5
1D4
100
AcDbEntity
  8
RKY70-0001
370
              15
390
0
  6
Continuous
 62
               7
100
AcDbLine
 10
772.58332248463091
 20
-269.56706470513996
 30
0.0
 11
775.91315748463091
 21
-268.0349877051392
 31
0.0
  0
LINE
  5
1D5
100
AcDbEntity
  8
RKY70-0001
370
              15
390
0
  6
Continuous
 62
               7
100
AcDbLine
 10
770.59371548463093
 20
-270.68637570513943
 30
0.0
 11
772.58332248463091
 21
-269.56706470513996
 31
0.0
  0
LINE
  5
1D6
100
AcDbEntity
  8
RKY70-0001
370
              15
390
0
  6
Continuous
 62
               7
100
AcDbLine
 10
768.91959248463115
 20
-271.74914970513942
 30
0.0
 11
770.59371548463093
 21
-270.68637570513943
 31
0.0
  0
LINE
  5
1D7
100
AcDbEntity
  8
RKY70-0001
370
              15
390
0
  6
Continuous
 62
               7
100
AcDbLine
 10
767.31213248463098
 20
-272.86758970513961
 30
0.0
 11
768.91959248463115
 21
-271.74914970513942
 31
0.0
  0
LINE
  5
1D8
100
AcDbEntity
  8
RKY70-0001
370
              15
390
0
  6
Continuous
 62
               7
100
AcDbLine
 10
798.14649048463104
 20
-263.0736627051399
 30
0.0
 11
793.29310448463127
 21
-263.80937270513982
 31
0.0
  0
LINE
  5
1D9
100
AcDbEntity
  8
RKY70-0001
370
              15
390
0
  6
Continuous
 62
               7
100
AcDbLine
 10
789.37803348463092
 20
-264.47735570513964
 30
0.0
 11
793.29310448463127
 21
-263.80937270513982
 31
0.0
  0
LINE
  5
1DA
100
AcDbEntity
  8
RKY70-0001
370
              15
390
0
  6
Continuous
 62
               7
100
AcDbLine
 10
786.19896348463124
 20
-265.09844170513929
 30
0.0
 11
789.37803348463092
 21
-264.47735570513964
 31
0.0
  0
LINE
  5
1DB
100
AcDbEntity
  8
RKY70-0001
370
              15
390
0
  6
Continuous
 62
               7
100
AcDbLine
 10
783.14566148463098
 20
-265.78502770513956
 30
0.0
 11
786.19896348463124
 21
-265.09844170513929
 31
0.0
  0
LINE
  5
1DC
100
AcDbEntity
  8
RKY70-0001
370
              15
390
0
  6
Continuous
 62
               7
100
AcDbLine
 10
781.51184748463118
 20
-266.20225070513948
 30
0.0
 11
783.14566148463098
 21
-265.78502770513956
 31
0.0
  0
LINE
  5
1DD
100
AcDbEntity
  8
RKY70-0001
370
              15
390
0
  6
Continuous
 62
               7
100
AcDbLine
 10
779.9943034846309
 20
-266.62964670513952
 30
0.0
 11
781.51184748463118
 21
-266.20225070513948
 31
0.0
  0
LINE
  5
1DE
100
AcDbEntity
  8
RKY70-0001
370
              15
390
0
  6
Continuous
 62
               7
100
AcDbLine
 10
778.43684048463081
 20
-267.11697170513958
 30
0.0
 11
779.9943034846309
 21
-266.62964670513952
 31
0.0
  0
LINE
  5
1DF
100
AcDbEntity
  8
RKY70-0001
370
              15
390
0
  6
Continuous
 62
               7
100
AcDbLine
 10
776.9512724846312
 20
-267.63675570513965
 30
0.0
 11
778.43684048463081
 21
-267.11697170513958
 31
0.0
  0
LINE
  5
1E0
100
AcDbEntity
  8
RKY70-0001
370
              15
390
0
  6
Continuous
 62
               7
100
AcDbLine
 10
775.91315748463091
 20
-268.0349877051392
 30
0.0
 11
776.9512724846312
 21
-267.63675570513965
 31
0.0
  0
LINE
  5
1E1
100
AcDbEntity
  8
RKY70-0001
370
              15
390
0
  6
Continuous
 62
               7
100
AcDbLine
 10
764.10980848463112
 20
-275.33783570513947
 30
0.0
 11
765.67231048463088
 21
-274.09634170513959
 31
0.0
  0
LINE
  5
1E2
100
AcDbEntity
  8
RKY70-0001
370
              15
390
0
  6
Continuous
 62
               7
100
AcDbLine
 10
762.63024748463101
 20
-276.5670247051396
 30
0.0
 11
764.10980848463112
 21
-275.33783570513947
 31
0.0
  0
LINE
  5
1E3
100
AcDbEntity
  8
RKY70-0001
370
              15
390
0
  6
Continuous
 62
               7
100
AcDbLine
 10
761.11997504896783
 20
-277.86634181477916
 30
0.0
 11
762.63024748463101
 21
-276.5670247051396
 31
0.0
  0
ARC
  5
1E4
100
AcDbEntity
  8
RKY70-0001
370
              15
390
0
  6
Continuous
 62
               7
100
AcDbCircle
 10
322.18859831650514
 20
2229.8607495035844
 30
0.0
 40
2376.8971930072994
100
AcDbArc
 50
269.46690846213215
 51
274.27594817076988
  0
ARC
  5
1E5
100
AcDbEntity
  8
RKY70-0001
370
              15
390
0
  6
Continuous
 62
               7
100
AcDbCircle
 10
714.60360600000161
 20
-390.85141118705883
 30
0.0
 40
289.72318178833683
100
AcDbArc
 50
65.81523099586272
 51
70.180542612217565
  0
ARC
  5
1E6
100
AcDbEntity
  8
RKY70-0001
370
              15
390
0
  6
Continuous
 62
               7
100
AcDbCircle
 10
783.93109668754494
 20
-236.48100885238387
 30
0.0
 40
120.49989118683362
100
AcDbArc
 50
56.285212154351115
 51
65.815230995834852
  0
LINE
  5
1E7
100
AcDbEntity
  8
RKY70-0001
370
              15
390
0
  6
Continuous
 62
               7
100
AcDbLine
 10
715.31142577472986
 20
-337.71987970513715
 30
0.0
 11
717.39390477472955
 21
-333.23507670513686
 31
0.0
  0
LINE
  5
1E8
100
AcDbEntity
  8
RKY70-0001
370
              15
390
0
  6
Continuous
 62
               7
100
AcDbLine
 10
713.4021427747299
 20
-342.30768170513716
 30
0.0
 11
715.31142577472986
 21
-337.71987970513715
 31
0.0
  0
LINE
  5
1E9
100
AcDbEntity
  8
RKY70-0001
370
              15
390
0
  6
Continuous
 62
               7
100
AcDbLine
 10
717.39390477472955
 20
-333.23507670513686
 30
0.0
 11
719.63683809052725
 21
-328.90887873542192
 31
0.0
  0
LINE
  5
1EA
100
AcDbEntity
  8
RKY70-0001
370
              15
390
0
  6
Continuous
 62
               7
100
AcDbLine
 10
715.31142577472986
 20
-337.71987970513715
 30
0.0
 11
717.39390477472955
 21
-333.23507670513686
 31
0.0
  0
LINE
  5
1EB
100
AcDbEntity
  8
RKY70-0001
370
              15
390
0
  6
Continuous
 62
               7
100
AcDbLine
 10
713.4021427747299
 20
-342.30768170513716
 30
0.0
 11
715.31142577472986
 21
-337.71987970513715
 31
0.0
  0
LINE
  5
1EC
100
AcDbEntity
  8
RKY70-0001
370
              15
390
0
  6
Continuous
 62
               7
100
AcDbLine
 10
717.39390477472955
 20
-333.23507670513686
 30
0.0
 11
719.63683809052725
 21
-328.90887873542192
 31
0.0
  0
ARC
  5
1ED
100
AcDbEntity
  8
RKY70-0001
370
              15
390
0
  6
Continuous
 62
               7
100
AcDbCircle
 10
893.4720558279854
 20
-427.809420059373
 30
0.0
 40
199.99999999999997
100
AcDbArc
 50
131.43426978653429
 51
150.36303640474046
  0
ARC
  5
1EE
100
AcDbEntity
  8
RKY70-0001
370
              15
390
0
  6
Continuous
 62
               7
100
AcDbCircle
 10
836.46470214265344
 20
-406.85486654969463
 30
0.0
 40
139.23549075751384
100
AcDbArc
 50
151.18827361874398
 51
158.56884535863776
  0
ARC
  5
1EF
100
AcDbEntity
  8
RKY70-0001
370
              15
390
0
  6
Continuous
 62
               7
100
AcDbCircle
 10
993.21682537050481
 20
-468.38369745653881
 30
0.0
 40
307.63093359728475
100
AcDbArc
 50
158.56884535863776
 51
171.86588228983189
  0
ARC
  5
1F0
100
AcDbEntity
  8
RKY70-0001
370
              15
390
0
  6
Continuous
 62
               7
100
AcDbCircle
 10
993.21682537050481
 20
-468.38369745653881
 30
0.0
 40
307.6309335972847
100
AcDbArc
 50
158.56884535864015
 51
171.86588228983189
  0
ARC
  5
1F1
100
AcDbEntity
  8
RKY70-0001
370
              15
390
0
  6
Continuous
 62
               7
100
AcDbCircle
 10
1742.9745135862727
 20
-575.5455553973909
 30
0.0
 40
1065.0081545618366
100
AcDbArc
 50
171.8658822898376
 51
180.13151448270764
  0
ARC
  5
1F2
100
AcDbEntity
  8
RKY70-0001
370
              15
390
0
  6
Continuous
 62
               7
100
AcDbCircle
 10
6798.8513707466809
 20
-807.3016980243201
 30
0.0
 40
6125.1761424478473
100
AcDbArc
 50
177.85448520753746
 51
180.0000000000002
  0
LINE
  5
1F3
100
AcDbEntity
  8
RKY70-0001
370
              15
390
0
  6
Continuous
 62
               7
100
AcDbLine
 10
673.67522829883444
 20
-807.30169802433784
 30
0.0
 11
673.67522829883399
 21
-998.1674687051468
 31
0.0
  0
LINE
  5
1F4
100
AcDbEntity
  8
RKY70-0001
370
              15
390
0
  6
Continuous
 62
               7
100
AcDbLine
 10
673.67522829883399
 20
-998.1674687051468
 30
0.0
 11
583.24140929883322
 21
-998.1674687051468
 31
0.0
  0
LINE
  5
1F5
100
AcDbEntity
  8
RKY70-0001
370
              15
390
0
  6
Continuous
 62
               7
100
AcDbLine
 10
583.24140929883322
 20
-998.1674687051468
 30
0.0
 11
583.24140929883276
 21
-807.30169802433511
 31
0.0
  0
ARC
  5
1F6
100
AcDbEntity
  8
RKY70-0001
370
              15
390
0
  6
Continuous
 62
               7
100
AcDbCircle
 10
-5541.9347331489262
 20
-807.30169802431919
 30
0.0
 40
6125.1761424477581
100
AcDbArc
 50
359.99999999999989
 51
2.0892082829782339
  0
ARC
  5
1F7
100
AcDbEntity
  8
RKY70-0001
370
              15
390
0
  6
Continuous
 62
               7
100
AcDbCircle
 10
-772.2189773237144
 20
-633.30374341493439
 30
0.0
 40
1352.2877423722325
100
AcDbArc
 50
2.0892082829783307
 51
7.0582998678326625
  0
ARC
  5
1F8
100
AcDbEntity
  8
RKY70-0001
370
              15
390
0
  6
Continuous
 62
               7
100
AcDbCircle
 10
152.13019039302094
 20
-525.15308930240212
 30
0.0
 40
420.88002494371119
100
AcDbArc
 50
7.0582998678331226
 51
18.209816721725211
  0
ARC
  5
1F9
100
AcDbEntity
  8
RKY70-0001
370
              15
390
0
  6
Continuous
 62
               7
100
AcDbCircle
 10
401.66881768412338
 20
-443.30346227571272
 30
0.0
 40
158.26100895228998
100
AcDbArc
 50
18.292999130525541
 51
59.505513854058584
  0
LINE
  5
1FA
100
AcDbEntity
  8
RKY70-0001
370
              15
390
0
  6
Continuous
 62
               7
100
AcDbLine
 10
-501.1978909999998
 20
-998.1674687051468
 30
0.0
 11
-404.41387799999984
 21
-998.1674687051468
 31
0.0
  0
POLYLINE
  5
1FB
100
AcDbEntity
  8
RKY70-0001
370
              15
390
0
  6
Continuous
 62
               7
100
AcDb2dPolyline
 66
               1
 10
0.0
 20
0.0
 30
0.0
 75
               5
  0
VERTEX
  5
1FC
100
AcDbEntity
  8
RKY70-0001
370
              15
390
0
  6
Continuous
 62
               7
100
AcDbVertex
100
AcDb2dVertex
 10
-404.41387799999984
 20
-994.57587000000058
 30
0.0
  0
VERTEX
  5
1FD
100
AcDbEntity
  8
RKY70-0001
370
              15
390
0
  6
Continuous
 62
               7
100
AcDbVertex
100
AcDb2dVertex
 10
-404.40186300000005
 20
-979.38222399999995
 30
0.0
  0
VERTEX
  5
1FE
100
AcDbEntity
  8
RKY70-0001
370
              15
390
0
  6
Continuous
 62
               7
100
AcDbVertex
100
AcDb2dVertex
 10
-404.39159199999995
 20
-964.18819100000019
 30
0.0
  0
VERTEX
  5
1FF
100
AcDbEntity
  8
RKY70-0001
370
              15
390
0
  6
Continuous
 62
               7
100
AcDbVertex
100
AcDb2dVertex
 10
-404.38209700000016
 20
-950.06696000000056
 30
0.0
  0
VERTEX
  5
200
100
AcDbEntity
  8
RKY70-0001
370
              15
390
0
  6
Continuous
 62
               7
100
AcDbVertex
100
AcDb2dVertex
 10
-404.37473300000011
 20
-935.94631000000027
 30
0.0
  0
VERTEX
  5
201
100
AcDbEntity
  8
RKY70-0001
370
              15
390
0
  6
Continuous
 62
               7
100
AcDbVertex
100
AcDb2dVertex
 10
-404.36717499999986
 20
-922.81998000000021
 30
0.0
  0
VERTEX
  5
202
100
AcDbEntity
  8
RKY70-0001
370
              15
390
0
  6
Continuous
 62
               7
100
AcDbVertex
100
AcDb2dVertex
 10
-404.36077999999998
 20
-909.69345599999997
 30
0.0
  0
VERTEX
  5
203
100
AcDbEntity
  8
RKY70-0001
370
              15
390
0
  6
Continuous
 62
               7
100
AcDbVertex
100
AcDb2dVertex
 10
-404.35419199999978
 20
-897.48896800000057
 30
0.0
  0
VERTEX
  5
204
100
AcDbEntity
  8
RKY70-0001
370
              15
390
0
  6
Continuous
 62
               7
100
AcDbVertex
100
AcDb2dVertex
 10
-404.34663399999999
 20
-885.2844810000006
 30
0.0
  0
VERTEX
  5
205
100
AcDbEntity
  8
RKY70-0001
370
              15
390
0
  6
Continuous
 62
               7
100
AcDbVertex
100
AcDb2dVertex
 10
-404.33926999999994
 20
-873.93594900000016
 30
0.0
  0
VERTEX
  5
206
100
AcDbEntity
  8
RKY70-0001
370
              15
390
0
  6
Continuous
 62
               7
100
AcDbVertex
100
AcDb2dVertex
 10
-404.33074299999998
 20
-862.58722300000045
 30
0.0
  0
VERTEX
  5
207
100
AcDbEntity
  8
RKY70-0001
370
              15
390
0
  6
Continuous
 62
               7
100
AcDbVertex
100
AcDb2dVertex
 10
-404.3224110000001
 20
-852.03418500000043
 30
0.0
  0
VERTEX
  5
208
100
AcDbEntity
  8
RKY70-0001
370
              15
390
0
  6
Continuous
 62
               7
100
AcDbVertex
100
AcDb2dVertex
 10
-404.31117099999983
 20
-841.48017800000025
 30
0.0
  0
VERTEX
  5
209
100
AcDbEntity
  8
RKY70-0001
370
              15
390
0
  6
Continuous
 62
               7
100
AcDbVertex
100
AcDb2dVertex
 10
-404.29993100000002
 20
-831.66682400000036
 30
0.0
  0
VERTEX
  5
20A
100
AcDbEntity
  8
RKY70-0001
370
              15
390
0
  6
Continuous
 62
               7
100
AcDbVertex
100
AcDb2dVertex
 10
-404.28791700000011
 20
-821.8525010000003
 30
0.0
  0
VERTEX
  5
20B
100
AcDbEntity
  8
RKY70-0001
370
              15
390
0
  6
Continuous
 62
               7
100
AcDbVertex
100
AcDb2dVertex
 10
-404.27377000000024
 20
-812.72747700000036
 30
0.0
  0
VERTEX
  5
20C
100
AcDbEntity
  8
RKY70-0001
370
              15
390
0
  6
Continuous
 62
               7
100
AcDbVertex
100
AcDb2dVertex
 10
-404.25807299999997
 20
-803.60206500000004
 30
0.0
  0
VERTEX
  5
20D
100
AcDbEntity
  8
RKY70-0001
370
              15
390
0
  6
Continuous
 62
               7
100
AcDbVertex
100
AcDb2dVertex
 10
-404.23656299999993
 20
-793.05832900000041
 30
0.0
  0
VERTEX
  5
20E
100
AcDbEntity
  8
RKY70-0001
370
              15
390
0
  6
Continuous
 62
               7
100
AcDbVertex
100
AcDb2dVertex
 10
-404.21214599999985
 20
-782.51517400000012
 30
0.0
  0
VERTEX
  5
20F
100
AcDbEntity
  8
RKY70-0001
370
              15
390
0
  6
Continuous
 62
               7
100
AcDbVertex
100
AcDb2dVertex
 10
-404.18617900000027
 20
-772.89851300000009
 30
0.0
  0
VERTEX
  5
210
100
AcDbEntity
  8
RKY70-0001
370
              15
390
0
  6
Continuous
 62
               7
100
AcDbVertex
100
AcDb2dVertex
 10
-404.15711099999999
 20
-763.28224
 30
0.0
  0
VERTEX
  5
211
100
AcDbEntity
  8
RKY70-0001
370
              15
390
0
  6
Continuous
 62
               7
100
AcDbVertex
100
AcDb2dVertex
 10
-404.12629900000002
 20
-754.51940300000024
 30
0.0
  0
VERTEX
  5
212
100
AcDbEntity
  8
RKY70-0001
370
              15
390
0
  6
Continuous
 62
               7
100
AcDbVertex
100
AcDb2dVertex
 10
-404.09277299999985
 20
-745.75617800000032
 30
0.0
  0
VERTEX
  5
213
100
AcDbEntity
  8
RKY70-0001
370
              15
390
0
  6
Continuous
 62
               7
100
AcDbVertex
100
AcDb2dVertex
 10
-404.05905499999972
 20
-737.77895200000012
 30
0.0
  0
VERTEX
  5
214
100
AcDbEntity
  8
RKY70-0001
370
              15
390
0
  6
Continuous
 62
               7
100
AcDbVertex
100
AcDb2dVertex
 10
-404.02087900000015
 20
-729.80250100000035
 30
0.0
  0
VERTEX
  5
215
100
AcDbEntity
  8
RKY70-0001
370
              15
390
0
  6
Continuous
 62
               7
100
AcDbVertex
100
AcDb2dVertex
 10
-403.9834780000001
 20
-722.55236200000036
 30
0.0
  0
VERTEX
  5
216
100
AcDbEntity
  8
RKY70-0001
370
              15
390
0
  6
Continuous
 62
               7
100
AcDbVertex
100
AcDb2dVertex
 10
-403.94239500000003
 20
-715.30144800000016
 30
0.0
  0
VERTEX
  5
217
100
AcDbEntity
  8
RKY70-0001
370
              15
390
0
  6
Continuous
 62
               7
100
AcDbVertex
100
AcDb2dVertex
 10
-403.90228100000013
 20
-708.72452399999997
 30
0.0
  0
VERTEX
  5
218
100
AcDbEntity
  8
RKY70-0001
370
              15
390
0
  6
Continuous
 62
               7
100
AcDbVertex
100
AcDb2dVertex
 10
-403.85829199999989
 20
-702.14798800000017
 30
0.0
  0
VERTEX
  5
219
100
AcDbEntity
  8
RKY70-0001
370
              15
390
0
  6
Continuous
 62
               7
100
AcDbVertex
100
AcDb2dVertex
 10
-403.80887600000005
 20
-695.19608600000015
 30
0.0
  0
VERTEX
  5
21A
100
AcDbEntity
  8
RKY70-0001
370
              15
390
0
  6
Continuous
 62
               7
100
AcDbVertex
100
AcDb2dVertex
 10
-403.75461599999971
 20
-688.24457300000017
 30
0.0
  0
VERTEX
  5
21B
100
AcDbEntity
  8
RKY70-0001
370
              15
390
0
  6
Continuous
 62
               7
100
AcDbVertex
100
AcDb2dVertex
 10
-403.70229299999983
 20
-682.09378600000014
 30
0.0
  0
VERTEX
  5
21C
100
AcDbEntity
  8
RKY70-0001
370
              15
390
0
  6
Continuous
 62
               7
100
AcDbVertex
100
AcDb2dVertex
 10
-403.64725799999997
 20
-675.94280500000036
 30
0.0
  0
VERTEX
  5
21D
100
AcDbEntity
  8
RKY70-0001
370
              15
390
0
  6
Continuous
 62
               7
100
AcDbVertex
100
AcDb2dVertex
 10
-403.59590499999968
 20
-670.53344500000003
 30
0.0
  0
VERTEX
  5
21E
100
AcDbEntity
  8
RKY70-0001
370
              15
390
0
  6
Continuous
 62
               7
100
AcDbVertex
100
AcDb2dVertex
 10
-403.54086899999993
 20
-665.1233100000004
 30
0.0
  0
VERTEX
  5
21F
100
AcDbEntity
  8
RKY70-0001
370
              15
390
0
  6
Continuous
 62
               7
100
AcDbVertex
100
AcDb2dVertex
 10
-403.49048499999981
 20
-660.40286200000037
 30
0.0
  0
VERTEX
  5
220
100
AcDbEntity
  8
RKY70-0001
370
              15
390
0
  6
Continuous
 62
               7
100
AcDbVertex
100
AcDb2dVertex
 10
-403.43719299999975
 20
-655.68260700000019
 30
0.0
  0
VERTEX
  5
221
100
AcDbEntity
  8
RKY70-0001
370
              15
390
0
  6
Continuous
 62
               7
100
AcDbVertex
100
AcDb2dVertex
 10
-403.37925099999984
 20
-650.8131370000001
 30
0.0
  0
VERTEX
  5
222
100
AcDbEntity
  8
RKY70-0001
370
              15
390
0
  6
Continuous
 62
               7
100
AcDbVertex
100
AcDb2dVertex
 10
-403.31859600000007
 20
-645.94444200000044
 30
0.0
  0
VERTEX
  5
223
100
AcDbEntity
  8
RKY70-0001
370
              15
390
0
  6
Continuous
 62
               7
100
AcDbVertex
100
AcDb2dVertex
 10
-403.24670100000003
 20
-640.51434700000027
 30
0.0
  0
VERTEX
  5
224
100
AcDbEntity
  8
RKY70-0001
370
              15
390
0
  6
Continuous
 62
               7
100
AcDbVertex
100
AcDb2dVertex
 10
-403.17092999999977
 20
-635.08464000000004
 30
0.0
  0
VERTEX
  5
225
100
AcDbEntity
  8
RKY70-0001
370
              15
390
0
  6
Continuous
 62
               7
100
AcDbVertex
100
AcDb2dVertex
 10
-403.07655599999998
 20
-628.71235500000012
 30
0.0
  0
VERTEX
  5
226
100
AcDbEntity
  8
RKY70-0001
370
              15
390
0
  6
Continuous
 62
               7
100
AcDbVertex
100
AcDb2dVertex
 10
-402.97481799999969
 20
-622.34084500000017
 30
0.0
  0
VERTEX
  5
227
100
AcDbEntity
  8
RKY70-0001
370
              15
390
0
  6
Continuous
 62
               7
100
AcDbVertex
100
AcDb2dVertex
 10
-402.85234500000024
 20
-615.14380300000039
 30
0.0
  0
VERTEX
  5
228
100
AcDbEntity
  8
RKY70-0001
370
              15
390
0
  6
Continuous
 62
               7
100
AcDbVertex
100
AcDb2dVertex
 10
-402.71979499999998
 20
-607.94637499999999
 30
0.0
  0
VERTEX
  5
229
100
AcDbEntity
  8
RKY70-0001
370
              15
390
0
  6
Continuous
 62
               7
100
AcDbVertex
100
AcDb2dVertex
 10
-402.56282800000008
 20
-600.05228300000044
 30
0.0
  0
VERTEX
  5
22A
100
AcDbEntity
  8
RKY70-0001
370
              15
390
0
  6
Continuous
 62
               7
100
AcDbVertex
100
AcDb2dVertex
 10
-402.39287700000023
 20
-592.15819100000044
 30
0.0
  0
VERTEX
  5
22B
100
AcDbEntity
  8
RKY70-0001
370
              15
390
0
  6
Continuous
 62
               7
100
AcDbVertex
100
AcDb2dVertex
 10
-402.19463300000007
 20
-583.70250600000008
 30
0.0
  0
VERTEX
  5
22C
100
AcDbEntity
  8
RKY70-0001
370
              15
390
0
  6
Continuous
 62
               7
100
AcDbVertex
100
AcDb2dVertex
 10
-401.97972400000026
 20
-575.2477899999999
 30
0.0
  0
VERTEX
  5
22D
100
AcDbEntity
  8
RKY70-0001
370
              15
390
0
  6
Continuous
 62
               7
100
AcDbVertex
100
AcDb2dVertex
 10
-401.59195699999964
 20
-561.67807500000026
 30
0.0
  0
VERTEX
  5
22E
100
AcDbEntity
  8
RKY70-0001
370
              15
390
0
  6
Continuous
 62
               7
100
AcDbVertex
100
AcDb2dVertex
 10
-401.14605400000028
 20
-548.11029899999994
 30
0.0
  0
VERTEX
  5
22F
100
AcDbEntity
  8
RKY70-0001
370
              15
390
0
  6
Continuous
 62
               7
100
AcDbVertex
100
AcDb2dVertex
 10
-400.61507900000015
 20
-534.05282399999987
 30
0.0
  0
VERTEX
  5
230
100
AcDbEntity
  8
RKY70-0001
370
              15
390
0
  6
Continuous
 62
               7
100
AcDbVertex
100
AcDb2dVertex
 10
-400.0
 20
-520.0
 30
0.0
  0
VERTEX
  5
231
100
AcDbEntity
  8
RKY70-0001
370
              15
390
0
  6
Continuous
 62
               7
100
AcDbVertex
100
AcDb2dVertex
 10
-399.28725299999996
 20
-505.93826200000035
 30
0.0
  0
VERTEX
  5
232
100
AcDbEntity
  8
RKY70-0001
370
              15
390
0
  6
Continuous
 62
               7
100
AcDbVertex
100
AcDb2dVertex
 10
-398.46036499999991
 20
-491.88427500000012
 30
0.0
  0
VERTEX
  5
233
100
AcDbEntity
  8
RKY70-0001
370
              15
390
0
  6
Continuous
 62
               7
100
AcDbVertex
100
AcDb2dVertex
 10
-397.54608000000007
 20
-478.50408399999992
 30
0.0
  0
VERTEX
  5
234
100
AcDbEntity
  8
RKY70-0001
370
              15
390
0
  6
Continuous
 62
               7
100
AcDbVertex
100
AcDb2dVertex
 10
-396.48548600000004
 20
-465.1355200000005
 30
0.0
  0
VERTEX
  5
235
100
AcDbEntity
  8
RKY70-0001
370
              15
390
0
  6
Continuous
 62
               7
100
AcDbVertex
100
AcDb2dVertex
 10
-395.34214500000007
 20
-452.70023300000025
 30
0.0
  0
VERTEX
  5
236
100
AcDbEntity
  8
RKY70-0001
370
              15
390
0
  6
Continuous
 62
               7
100
AcDbVertex
100
AcDb2dVertex
 10
-394.01838899999984
 20
-440.28316100000052
 30
0.0
  0
VERTEX
  5
237
100
AcDbEntity
  8
RKY70-0001
370
              15
390
0
  6
Continuous
 62
               7
100
AcDbVertex
100
AcDb2dVertex
 10
-392.61421100000007
 20
-428.89005900000052
 30
0.0
  0
VERTEX
  5
238
100
AcDbEntity
  8
RKY70-0001
370
              15
390
0
  6
Continuous
 62
               7
100
AcDbVertex
100
AcDb2dVertex
 10
-390.99182900000005
 20
-417.52757399999996
 30
0.0
  0
VERTEX
  5
239
100
AcDbEntity
  8
RKY70-0001
370
              15
390
0
  6
Continuous
 62
               7
100
AcDbVertex
100
AcDb2dVertex
 10
-390.15118299999995
 20
-412.24398200000019
 30
0.0
  0
VERTEX
  5
23A
100
AcDbEntity
  8
RKY70-0001
370
              15
390
0
  6
Continuous
 62
               7
100
AcDbVertex
100
AcDb2dVertex
 10
-389.24833100000023
 20
-406.97046700000033
 30
0.0
  0
VERTEX
  5
23B
100
AcDbEntity
  8
RKY70-0001
370
              15
390
0
  6
Continuous
 62
               7
100
AcDbVertex
100
AcDb2dVertex
 10
-388.32726300000013
 20
-401.9618580000008
 30
0.0
  0
VERTEX
  5
23C
100
AcDbEntity
  8
RKY70-0001
370
              15
390
0
  6
Continuous
 62
               7
100
AcDbVertex
100
AcDb2dVertex
 10
-387.34030799999982
 20
-396.96720100000061
 30
0.0
  0
VERTEX
  5
23D
100
AcDbEntity
  8
RKY70-0001
370
              15
390
0
  6
Continuous
 62
               7
100
AcDbVertex
100
AcDb2dVertex
 10
-386.3361060000002
 20
-392.23299400000019
 30
0.0
  0
VERTEX
  5
23E
100
AcDbEntity
  8
RKY70-0001
370
              15
390
0
  6
Continuous
 62
               7
100
AcDbVertex
100
AcDb2dVertex
 10
-385.26097700000037
 20
-387.51467800000069
 30
0.0
  0
VERTEX
  5
23F
100
AcDbEntity
  8
RKY70-0001
370
              15
390
0
  6
Continuous
 62
               7
100
AcDbVertex
100
AcDb2dVertex
 10
-384.168408
 20
-383.05119099999979
 30
0.0
  0
VERTEX
  5
240
100
AcDbEntity
  8
RKY70-0001
370
              15
390
0
  6
Continuous
 62
               7
100
AcDbVertex
100
AcDb2dVertex
 10
-383.00220099999979
 20
-378.60650100000043
 30
0.0
  0
VERTEX
  5
241
100
AcDbEntity
  8
RKY70-0001
370
              15
390
0
  6
Continuous
 62
               7
100
AcDbVertex
100
AcDb2dVertex
 10
-381.8195209999999
 20
-374.40733900000055
 30
0.0
  0
VERTEX
  5
242
100
AcDbEntity
  8
RKY70-0001
370
              15
390
0
  6
Continuous
 62
               7
100
AcDbVertex
100
AcDb2dVertex
 10
-380.55719500000032
 20
-370.23084899999981
 30
0.0
  0
VERTEX
  5
243
100
AcDbEntity
  8
RKY70-0001
370
              15
390
0
  6
Continuous
 62
               7
100
AcDbVertex
100
AcDb2dVertex
 10
-379.11619799999971
 20
-365.79991799999993
 30
0.0
  0
VERTEX
  5
244
100
AcDbEntity
  8
RKY70-0001
370
              15
390
0
  6
Continuous
 62
               7
100
AcDbVertex
100
AcDb2dVertex
 10
-377.569974
 20
-361.40600100000051
 30
0.0
  0
VERTEX
  5
245
100
AcDbEntity
  8
RKY70-0001
370
              15
390
0
  6
Continuous
 62
               7
100
AcDbVertex
100
AcDb2dVertex
 10
-375.59470699999974
 20
-356.26057800000058
 30
0.0
  0
VERTEX
  5
246
100
AcDbEntity
  8
RKY70-0001
370
              15
390
0
  6
Continuous
 62
               7
100
AcDbVertex
100
AcDb2dVertex
 10
-373.44910200000004
 20
-351.1872450000003
 30
0.0
  0
VERTEX
  5
247
100
AcDbEntity
  8
RKY70-0001
370
              15
390
0
  6
Continuous
 62
               7
100
AcDbVertex
100
AcDb2dVertex
 10
-370.85798100000011
 20
-345.66665100000068
 30
0.0
  0
VERTEX
  5
248
100
AcDbEntity
  8
RKY70-0001
370
              15
390
0
  6
Continuous
 62
               7
100
AcDbVertex
100
AcDb2dVertex
 10
-368.02423899999985
 20
-340.26969400000075
 30
0.0
  0
VERTEX
  5
249
100
AcDbEntity
  8
RKY70-0001
370
              15
390
0
  6
Continuous
 62
               7
100
AcDbVertex
100
AcDb2dVertex
 10
-365.85305400000016
 20
-336.51469100000054
 30
0.0
  0
VERTEX
  5
24A
100
AcDbEntity
  8
RKY70-0001
370
              15
390
0
  6
Continuous
 62
               7
100
AcDbVertex
100
AcDb2dVertex
 10
-363.54970600000024
 20
-332.84146499999974
 30
0.0
  0
VERTEX
  5
24B
100
AcDbEntity
  8
RKY70-0001
370
              15
390
0
  6
Continuous
 62
               7
100
AcDbVertex
100
AcDb2dVertex
 10
-361.1124520000003
 20
-329.25912600000015
 30
0.0
  0
VERTEX
  5
24C
100
AcDbEntity
  8
RKY70-0001
370
              15
390
0
  6
Continuous
 62
               7
100
AcDbVertex
100
AcDb2dVertex
 10
-358.39537000000018
 20
-325.58435000000031
 30
0.0
  0
VERTEX
  5
24D
100
AcDbEntity
  8
RKY70-0001
370
              15
390
0
  6
Continuous
 62
               7
100
AcDbVertex
100
AcDb2dVertex
 10
-355.53023399999984
 20
-322.02526500000045
 30
0.0
  0
VERTEX
  5
24E
100
AcDbEntity
  8
RKY70-0001
370
              15
390
0
  6
Continuous
 62
               7
100
AcDbVertex
100
AcDb2dVertex
 10
-352.52440999999999
 20
-318.58807199999978
 30
0.0
  0
VERTEX
  5
24F
100
AcDbEntity
  8
RKY70-0001
370
              15
390
0
  6
Continuous
 62
               7
100
AcDbVertex
100
AcDb2dVertex
 10
-349.17945899999995
 20
-315.07510800000023
 30
0.0
  0
VERTEX
  5
250
100
AcDbEntity
  8
RKY70-0001
370
              15
390
0
  6
Continuous
 62
               7
100
AcDbVertex
100
AcDb2dVertex
 10
-345.69536999999991
 20
-311.70632200000023
 30
0.0
  0
VERTEX
  5
251
100
AcDbEntity
  8
RKY70-0001
370
              15
390
0
  6
Continuous
 62
               7
100
AcDbVertex
100
AcDb2dVertex
 10
-342.08493099999987
 20
-308.48016200000006
 30
0.0
  0
VERTEX
  5
252
100
AcDbEntity
  8
RKY70-0001
370
              15
390
0
  6
Continuous
 62
               7
100
AcDbVertex
100
AcDb2dVertex
 10
-338.36849200000006
 20
-305.40186199999994
 30
0.0
  0
VERTEX
  5
253
100
AcDbEntity
  8
RKY70-0001
370
              15
390
0
  6
Continuous
 62
               7
100
AcDbVertex
100
AcDb2dVertex
 10
-334.53752399999985
 20
-302.46580100000051
 30
0.0
  0
VERTEX
  5
254
100
AcDbEntity
  8
RKY70-0001
370
              15
390
0
  6
Continuous
 62
               7
100
AcDbVertex
100
AcDb2dVertex
 10
-330.65773271115404
 20
-299.72197600000004
 30
0.0
  0
SEQEND
  5
255
100
AcDbEntity
  8
RKY70-0001
370
              15
390
0
  6
Continuous
 62
               7
  0
POLYLINE
  5
256
100
AcDbEntity
  8
RKY70-0001
370
              15
390
0
  6
Continuous
 62
               7
100
AcDb2dPolyline
 66
               1
 10
0.0
 20
0.0
 30
0.0
 75
               5
  0
VERTEX
  5
257
100
AcDbEntity
  8
RKY70-0001
370
              15
390
0
  6
Continuous
 62
               7
100
AcDbVertex
100
AcDb2dVertex
 10
-574.95442077749476
 20
-299.72197600000004
 30
0.0
  0
VERTEX
  5
258
100
AcDbEntity
  8
RKY70-0001
370
              15
390
0
  6
Continuous
 62
               7
100
AcDbVertex
100
AcDb2dVertex
 10
-571.07443899999998
 20
-302.46580100000051
 30
0.0
  0
VERTEX
  5
259
100
AcDbEntity
  8
RKY70-0001
370
              15
390
0
  6
Continuous
 62
               7
100
AcDbVertex
100
AcDb2dVertex
 10
-567.24288999999999
 20
-305.40186199999994
 30
0.0
  0
VERTEX
  5
25A
100
AcDbEntity
  8
RKY70-0001
370
              15
390
0
  6
Continuous
 62
               7
100
AcDbVertex
100
AcDb2dVertex
 10
-563.52664400000003
 20
-308.48016200000006
 30
0.0
  0
VERTEX
  5
25B
100
AcDbEntity
  8
RKY70-0001
370
              15
390
0
  6
Continuous
 62
               7
100
AcDbVertex
100
AcDb2dVertex
 10
-559.91620599999987
 20
-311.70632200000023
 30
0.0
  0
VERTEX
  5
25C
100
AcDbEntity
  8
RKY70-0001
370
              15
390
0
  6
Continuous
 62
               7
100
AcDbVertex
100
AcDb2dVertex
 10
-556.43172800000002
 20
-315.07510800000023
 30
0.0
  0
VERTEX
  5
25D
100
AcDbEntity
  8
RKY70-0001
370
              15
390
0
  6
Continuous
 62
               7
100
AcDbVertex
100
AcDb2dVertex
 10
-553.0877459999997
 20
-318.58807199999978
 30
0.0
  0
VERTEX
  5
25E
100
AcDbEntity
  8
RKY70-0001
370
              15
390
0
  6
Continuous
 62
               7
100
AcDbVertex
100
AcDb2dVertex
 10
-550.08134100000007
 20
-322.02526500000045
 30
0.0
  0
VERTEX
  5
25F
100
AcDbEntity
  8
RKY70-0001
370
              15
390
0
  6
Continuous
 62
               7
100
AcDbVertex
100
AcDb2dVertex
 10
-547.21717499999977
 20
-325.58435000000031
 30
0.0
  0
VERTEX
  5
260
100
AcDbEntity
  8
RKY70-0001
370
              15
390
0
  6
Continuous
 62
               7
100
AcDbVertex
100
AcDb2dVertex
 10
-544.49970499999972
 20
-329.25912600000015
 30
0.0
  0
VERTEX
  5
261
100
AcDbEntity
  8
RKY70-0001
370
              15
390
0
  6
Continuous
 62
               7
100
AcDbVertex
100
AcDb2dVertex
 10
-542.06186900000012
 20
-332.84146499999974
 30
0.0
  0
VERTEX
  5
262
100
AcDbEntity
  8
RKY70-0001
370
              15
390
0
  6
Continuous
 62
               7
100
AcDbVertex
100
AcDb2dVertex
 10
-539.75890899999968
 20
-336.51469100000054
 30
0.0
  0
VERTEX
  5
263
100
AcDbEntity
  8
RKY70-0001
370
              15
390
0
  6
Continuous
 62
               7
100
AcDbVertex
100
AcDb2dVertex
 10
-537.58714199999986
 20
-340.26969400000075
 30
0.0
  0
VERTEX
  5
264
100
AcDbEntity
  8
RKY70-0001
370
              15
390
0
  6
Continuous
 62
               7
100
AcDbVertex
100
AcDb2dVertex
 10
-534.75398199999972
 20
-345.66665100000068
 30
0.0
  0
VERTEX
  5
265
100
AcDbEntity
  8
RKY70-0001
370
              15
390
0
  6
Continuous
 62
               7
100
AcDbVertex
100
AcDb2dVertex
 10
-532.16208600000027
 20
-351.1872450000003
 30
0.0
  0
VERTEX
  5
266
100
AcDbEntity
  8
RKY70-0001
370
              15
390
0
  6
Continuous
 62
               7
100
AcDbVertex
100
AcDb2dVertex
 10
-530.01648100000011
 20
-356.26057800000058
 30
0.0
  0
VERTEX
  5
267
100
AcDbEntity
  8
RKY70-0001
370
              15
390
0
  6
Continuous
 62
               7
100
AcDbVertex
100
AcDb2dVertex
 10
-528.0416009999999
 20
-361.40600100000051
 30
0.0
  0
VERTEX
  5
268
100
AcDbEntity
  8
RKY70-0001
370
              15
390
0
  6
Continuous
 62
               7
100
AcDbVertex
100
AcDb2dVertex
 10
-525.89793399999962
 20
-367.59476999999993
 30
0.0
  0
VERTEX
  5
269
100
AcDbEntity
  8
RKY70-0001
370
              15
390
0
  6
Continuous
 62
               7
100
AcDbVertex
100
AcDb2dVertex
 10
-523.95580400000017
 20
-373.851946
 30
0.0
  0
VERTEX
  5
26A
100
AcDbEntity
  8
RKY70-0001
370
              15
390
0
  6
Continuous
 62
               7
100
AcDbVertex
100
AcDb2dVertex
 10
-522.20455399999992
 20
-380.11280400000055
 30
0.0
  0
VERTEX
  5
26B
100
AcDbEntity
  8
RKY70-0001
370
              15
390
0
  6
Continuous
 62
               7
100
AcDbVertex
100
AcDb2dVertex
 10
-520.61220999999978
 20
-386.41706999999974
 30
0.0
  0
VERTEX
  5
26C
100
AcDbEntity
  8
RKY70-0001
370
              15
390
0
  6
Continuous
 62
               7
100
AcDbVertex
100
AcDb2dVertex
 10
-519.05494099999987
 20
-393.2461109999997
 30
0.0
  0
VERTEX
  5
26D
100
AcDbEntity
  8
RKY70-0001
370
              15
390
0
  6
Continuous
 62
               7
100
AcDbVertex
100
AcDb2dVertex
 10
-517.64301100000012
 20
-400.10790100000054
 30
0.0
  0
VERTEX
  5
26E
100
AcDbEntity
  8
RKY70-0001
370
              15
390
0
  6
Continuous
 62
               7
100
AcDbVertex
100
AcDb2dVertex
 10
-516.26693299999988
 20
-407.51326300000005
 30
0.0
  0
VERTEX
  5
26F
100
AcDbEntity
  8
RKY70-0001
370
              15
390
0
  6
Continuous
 62
               7
100
AcDbVertex
100
AcDb2dVertex
 10
-515.02379099999962
 20
-414.94362300000034
 30
0.0
  0
VERTEX
  5
270
100
AcDbEntity
  8
RKY70-0001
370
              15
390
0
  6
Continuous
 62
               7
100
AcDbVertex
100
AcDb2dVertex
 10
-513.81960100000015
 20
-422.92375600000037
 30
0.0
  0
VERTEX
  5
271
100
AcDbEntity
  8
RKY70-0001
370
              15
390
0
  6
Continuous
 62
               7
100
AcDbVertex
100
AcDb2dVertex
 10
-512.73265200000014
 20
-430.92171799999983
 30
0.0
  0
VERTEX
  5
272
100
AcDbEntity
  8
RKY70-0001
370
              15
390
0
  6
Continuous
 62
               7
100
AcDbVertex
100
AcDb2dVertex
 10
-511.68736699999999
 20
-439.46189400000026
 30
0.0
  0
VERTEX
  5
273
100
AcDbEntity
  8
RKY70-0001
370
              15
390
0
  6
Continuous
 62
               7
100
AcDbVertex
100
AcDb2dVertex
 10
-510.74575800000002
 20
-448.01544099999978
 30
0.0
  0
VERTEX
  5
274
100
AcDbEntity
  8
RKY70-0001
370
              15
390
0
  6
Continuous
 62
               7
100
AcDbVertex
100
AcDb2dVertex
 10
-509.84716900000012
 20
-457.0885310000001
 30
0.0
  0
VERTEX
  5
275
100
AcDbEntity
  8
RKY70-0001
370
              15
390
0
  6
Continuous
 62
               7
100
AcDbVertex
100
AcDb2dVertex
 10
-509.03810999999996
 20
-466.17072800000074
 30
0.0
  0
VERTEX
  5
276
100
AcDbEntity
  8
RKY70-0001
370
              15
390
0
  6
Continuous
 62
               7
100
AcDbVertex
100
AcDb2dVertex
 10
-507.99689500000022
 20
-479.43600399999991
 30
0.0
  0
VERTEX
  5
277
100
AcDbEntity
  8
RKY70-0001
370
              15
390
0
  6
Continuous
 62
               7
100
AcDbVertex
100
AcDb2dVertex
 10
-507.09908099999984
 20
-492.71251900000038
 30
0.0
  0
VERTEX
  5
278
100
AcDbEntity
  8
RKY70-0001
370
              15
390
0
  6
Continuous
 62
               7
100
AcDbVertex
100
AcDb2dVertex
 10
-506.28556500000013
 20
-506.63608700000054
 30
0.0
  0
VERTEX
  5
279
100
AcDbEntity
  8
RKY70-0001
370
              15
390
0
  6
Continuous
 62
               7
100
AcDbVertex
100
AcDb2dVertex
 10
-505.58541399999967
 20
-520.56585700000005
 30
0.0
  0
VERTEX
  5
27A
100
AcDbEntity
  8
RKY70-0001
370
              15
390
0
  6
Continuous
 62
               7
100
AcDbVertex
100
AcDb2dVertex
 10
-504.97944299999972
 20
-534.47469800000044
 30
0.0
  0
VERTEX
  5
27B
100
AcDbEntity
  8
RKY70-0001
370
              15
390
0
  6
Continuous
 62
               7
100
AcDbVertex
100
AcDb2dVertex
 10
-504.45544400000017
 20
-548.38780200000019
 30
0.0
  0
VERTEX
  5
27C
100
AcDbEntity
  8
RKY70-0001
370
              15
390
0
  6
Continuous
 62
               7
100
AcDbVertex
100
AcDb2dVertex
 10
-504.01593600000024
 20
-561.81663300000037
 30
0.0
  0
VERTEX
  5
27D
100
AcDbEntity
  8
RKY70-0001
370
              15
390
0
  6
Continuous
 62
               7
100
AcDbVertex
100
AcDb2dVertex
 10
-503.63204500000029
 20
-575.2477899999999
 30
0.0
  0
VERTEX
  5
27E
100
AcDbEntity
  8
RKY70-0001
370
              15
390
0
  6
Continuous
 62
               7
100
AcDbVertex
100
AcDb2dVertex
 10
-503.41325999999981
 20
-583.85172199999988
 30
0.0
  0
VERTEX
  5
27F
100
AcDbEntity
  8
RKY70-0001
370
              15
390
0
  6
Continuous
 62
               7
100
AcDbVertex
100
AcDb2dVertex
 10
-503.21230299999979
 20
-592.45623500000056
 30
0.0
  0
VERTEX
  5
280
100
AcDbEntity
  8
RKY70-0001
370
              15
390
0
  6
Continuous
 62
               7
100
AcDbVertex
100
AcDb2dVertex
 10
-503.04022099999975
 20
-600.4762880000003
 30
0.0
  0
VERTEX
  5
281
100
AcDbEntity
  8
RKY70-0001
370
              15
390
0
  6
Continuous
 62
               7
100
AcDbVertex
100
AcDb2dVertex
 10
-502.88170300000002
 20
-608.4959530000001
 30
0.0
  0
VERTEX
  5
282
100
AcDbEntity
  8
RKY70-0001
370
              15
390
0
  6
Continuous
 62
               7
100
AcDbVertex
100
AcDb2dVertex
 10
-502.74818399999958
 20
-615.78833800000029
 30
0.0
  0
VERTEX
  5
283
100
AcDbEntity
  8
RKY70-0001
370
              15
390
0
  6
Continuous
 62
               7
100
AcDbVertex
100
AcDb2dVertex
 10
-502.62474199999997
 20
-623.0811090000002
 30
0.0
  0
VERTEX
  5
284
100
AcDbEntity
  8
RKY70-0001
370
              15
390
0
  6
Continuous
 62
               7
100
AcDbVertex
100
AcDb2dVertex
 10
-502.52300400000013
 20
-629.51056200000039
 30
0.0
  0
VERTEX
  5
285
100
AcDbEntity
  8
RKY70-0001
370
              15
390
0
  6
Continuous
 62
               7
100
AcDbVertex
100
AcDb2dVertex
 10
-502.42824299999984
 20
-635.94040200000018
 30
0.0
  0
VERTEX
  5
286
100
AcDbEntity
  8
RKY70-0001
370
              15
390
0
  6
Continuous
 62
               7
100
AcDbVertex
100
AcDb2dVertex
 10
-502.35266599999977
 20
-641.38600000000042
 30
0.0
  0
VERTEX
  5
287
100
AcDbEntity
  8
RKY70-0001
370
              15
390
0
  6
Continuous
 62
               7
100
AcDbVertex
100
AcDb2dVertex
 10
-502.28135199999997
 20
-646.8308219999999
 30
0.0
  0
VERTEX
  5
288
100
AcDbEntity
  8
RKY70-0001
370
              15
390
0
  6
Continuous
 62
               7
100
AcDbVertex
100
AcDb2dVertex
 10
-502.22108500000013
 20
-651.73575500000015
 30
0.0
  0
VERTEX
  5
289
100
AcDbEntity
  8
RKY70-0001
370
              15
390
0
  6
Continuous
 62
               7
100
AcDbVertex
100
AcDb2dVertex
 10
-502.16333600000007
 20
-656.64068799999995
 30
0.0
  0
VERTEX
  5
28A
100
AcDbEntity
  8
RKY70-0001
370
              15
390
0
  6
Continuous
 62
               7
100
AcDbVertex
100
AcDb2dVertex
 10
-502.09938699999975
 20
-662.42328099999986
 30
0.0
  0
VERTEX
  5
28B
100
AcDbEntity
  8
RKY70-0001
370
              15
390
0
  6
Continuous
 62
               7
100
AcDbVertex
100
AcDb2dVertex
 10
-502.03892499999984
 20
-668.2066490000002
 30
0.0
  0
VERTEX
  5
28C
100
AcDbEntity
  8
RKY70-0001
370
              15
390
0
  6
Continuous
 62
               7
100
AcDbVertex
100
AcDb2dVertex
 10
-501.97323199999983
 20
-674.98763000000008
 30
0.0
  0
VERTEX
  5
28D
100
AcDbEntity
  8
RKY70-0001
370
              15
390
0
  6
Continuous
 62
               7
100
AcDbVertex
100
AcDb2dVertex
 10
-501.9118010000002
 20
-681.7686120000003
 30
0.0
  0
VERTEX
  5
28E
100
AcDbEntity
  8
RKY70-0001
370
              15
390
0
  6
Continuous
 62
               7
100
AcDbVertex
100
AcDb2dVertex
 10
-501.84610800000019
 20
-689.64003000000025
 30
0.0
  0
VERTEX
  5
28F
100
AcDbEntity
  8
RKY70-0001
370
              15
390
0
  6
Continuous
 62
               7
100
AcDbVertex
100
AcDb2dVertex
 10
-501.78661499999998
 20
-697.51183700000024
 30
0.0
  0
VERTEX
  5
290
100
AcDbEntity
  8
RKY70-0001
370
              15
390
0
  6
Continuous
 62
               7
100
AcDbVertex
100
AcDb2dVertex
 10
-501.73874999999998
 20
-704.2668500000002
 30
0.0
  0
VERTEX
  5
291
100
AcDbEntity
  8
RKY70-0001
370
              15
390
0
  6
Continuous
 62
               7
100
AcDbVertex
100
AcDb2dVertex
 10
-501.69553499999984
 20
-711.02283300000045
 30
0.0
  0
VERTEX
  5
292
100
AcDbEntity
  8
RKY70-0001
370
              15
390
0
  6
Continuous
 62
               7
100
AcDbVertex
100
AcDb2dVertex
 10
-501.65038300000015
 20
-718.52101900000025
 30
0.0
  0
VERTEX
  5
293
100
AcDbEntity
  8
RKY70-0001
370
              15
390
0
  6
Continuous
 62
               7
100
AcDbVertex
100
AcDb2dVertex
 10
-501.60988199999974
 20
-726.02036700000031
 30
0.0
  0
VERTEX
  5
294
100
AcDbEntity
  8
RKY70-0001
370
              15
390
0
  6
Continuous
 62
               7
100
AcDbVertex
100
AcDb2dVertex
 10
-501.56937999999991
 20
-734.32412399999998
 30
0.0
  0
VERTEX
  5
295
100
AcDbEntity
  8
RKY70-0001
370
              15
390
0
  6
Continuous
 62
               7
100
AcDbVertex
100
AcDb2dVertex
 10
-501.53139800000008
 20
-742.62749300000019
 30
0.0
  0
VERTEX
  5
296
100
AcDbEntity
  8
RKY70-0001
370
              15
390
0
  6
Continuous
 62
               7
100
AcDbVertex
100
AcDb2dVertex
 10
-501.49535400000013
 20
-751.8069710000002
 30
0.0
  0
VERTEX
  5
297
100
AcDbEntity
  8
RKY70-0001
370
              15
390
0
  6
Continuous
 62
               7
100
AcDbVertex
100
AcDb2dVertex
 10
-501.46202200000016
 20
-760.98586800000021
 30
0.0
  0
VERTEX
  5
298
100
AcDbEntity
  8
RKY70-0001
370
              15
390
0
  6
Continuous
 62
               7
100
AcDbVertex
100
AcDb2dVertex
 10
-501.43043499999976
 20
-771.11877700000014
 30
0.0
  0
VERTEX
  5
299
100
AcDbEntity
  8
RKY70-0001
370
              15
390
0
  6
Continuous
 62
               7
100
AcDbVertex
100
AcDb2dVertex
 10
-501.40349900000001
 20
-781.25149100000021
 30
0.0
  0
VERTEX
  5
29A
100
AcDbEntity
  8
RKY70-0001
370
              15
390
0
  6
Continuous
 62
               7
100
AcDbVertex
100
AcDb2dVertex
 10
-501.37636900000007
 20
-792.42658400000028
 30
0.0
  0
VERTEX
  5
29B
100
AcDbEntity
  8
RKY70-0001
370
              15
390
0
  6
Continuous
 62
               7
100
AcDbVertex
100
AcDb2dVertex
 10
-501.35388999999986
 20
-803.60206500000004
 30
0.0
  0
VERTEX
  5
29C
100
AcDbEntity
  8
RKY70-0001
370
              15
390
0
  6
Continuous
 62
               7
100
AcDbVertex
100
AcDb2dVertex
 10
-501.33858000000009
 20
-812.72747700000036
 30
0.0
  0
VERTEX
  5
29D
100
AcDbEntity
  8
RKY70-0001
370
              15
390
0
  6
Continuous
 62
               7
100
AcDbVertex
100
AcDb2dVertex
 10
-501.32404599999973
 20
-821.8525010000003
 30
0.0
  0
VERTEX
  5
29E
100
AcDbEntity
  8
RKY70-0001
370
              15
390
0
  6
Continuous
 62
               7
100
AcDbVertex
100
AcDb2dVertex
 10
-501.3114499999997
 20
-831.66682400000036
 30
0.0
  0
VERTEX
  5
29F
100
AcDbEntity
  8
RKY70-0001
370
              15
390
0
  6
Continuous
 62
               7
100
AcDbVertex
100
AcDb2dVertex
 10
-501.2996290000001
 20
-841.48017800000025
 30
0.0
  0
VERTEX
  5
2A0
100
AcDbEntity
  8
RKY70-0001
370
              15
390
0
  6
Continuous
 62
               7
100
AcDbVertex
100
AcDb2dVertex
 10
-501.28974599999992
 20
-852.03418500000043
 30
0.0
  0
VERTEX
  5
2A1
100
AcDbEntity
  8
RKY70-0001
370
              15
390
0
  6
Continuous
 62
               7
100
AcDbVertex
100
AcDb2dVertex
 10
-501.28083199999992
 20
-862.58722300000045
 30
0.0
  0
VERTEX
  5
2A2
100
AcDbEntity
  8
RKY70-0001
370
              15
390
0
  6
Continuous
 62
               7
100
AcDbVertex
100
AcDb2dVertex
 10
-501.27172400000018
 20
-873.93594900000016
 30
0.0
  0
VERTEX
  5
2A3
100
AcDbEntity
  8
RKY70-0001
370
              15
390
0
  6
Continuous
 62
               7
100
AcDbVertex
100
AcDb2dVertex
 10
-501.26455400000032
 20
-885.2844810000006
 30
0.0
  0
VERTEX
  5
2A4
100
AcDbEntity
  8
RKY70-0001
370
              15
390
0
  6
Continuous
 62
               7
100
AcDbVertex
100
AcDb2dVertex
 10
-501.257384
 20
-897.48896800000057
 30
0.0
  0
VERTEX
  5
2A5
100
AcDbEntity
  8
RKY70-0001
370
              15
390
0
  6
Continuous
 62
               7
100
AcDbVertex
100
AcDb2dVertex
 10
-501.25098899999966
 20
-909.69345599999997
 30
0.0
  0
VERTEX
  5
2A6
100
AcDbEntity
  8
RKY70-0001
370
              15
390
0
  6
Continuous
 62
               7
100
AcDbVertex
100
AcDb2dVertex
 10
-501.24478799999997
 20
-922.81998000000021
 30
0.0
  0
VERTEX
  5
2A7
100
AcDbEntity
  8
RKY70-0001
370
              15
390
0
  6
Continuous
 62
               7
100
AcDbVertex
100
AcDb2dVertex
 10
-501.23742399999992
 20
-935.94631000000027
 30
0.0
  0
VERTEX
  5
2A8
100
AcDbEntity
  8
RKY70-0001
370
              15
390
0
  6
Continuous
 62
               7
100
AcDbVertex
100
AcDb2dVertex
 10
-501.22947900000008
 20
-950.06696000000056
 30
0.0
  0
VERTEX
  5
2A9
100
AcDbEntity
  8
RKY70-0001
370
              15
390
0
  6
Continuous
 62
               7
100
AcDbVertex
100
AcDb2dVertex
 10
-501.22037099999989
 20
-964.18819100000019
 30
0.0
  0
VERTEX
  5
2AA
100
AcDbEntity
  8
RKY70-0001
370
              15
390
0
  6
Continuous
 62
               7
100
AcDbVertex
100
AcDb2dVertex
 10
-501.20951799999966
 20
-979.38222399999995
 30
0.0
  0
VERTEX
  5
2AB
100
AcDbEntity
  8
RKY70-0001
370
              15
390
0
  6
Continuous
 62
               7
100
AcDbVertex
100
AcDb2dVertex
 10
-501.1978909999998
 20
-994.57587000000058
 30
0.0
  0
SEQEND
  5
2AC
100
AcDbEntity
  8
RKY70-0001
370
              15
390
0
  6
Continuous
 62
               7
  0
LINE
  5
2AD
100
AcDbEntity
  8
RKY70-0001
370
              15
390
0
  6
Continuous
 62
               7
100
AcDbLine
 10
-330.65734822250488
 20
-299.72197600000004
 30
0.0
 11
-317.56297849999942
 21
-292.32217270513934
 31
0.0
  0
LINE
  5
2AE
100
AcDbEntity
  8
RKY70-0001
370
              15
390
0
  6
Continuous
 62
               7
100
AcDbLine
 10
-317.56297849999942
 20
-292.32217270513934
 30
0.0
 11
-313.24793249999925
 21
-289.85274970513979
 31
0.0
  0
LINE
  5
2AF
100
AcDbEntity
  8
RKY70-0001
370
              15
390
0
  6
Continuous
 62
               7
100
AcDbLine
 10
-313.24793249999925
 20
-289.85274970513979
 30
0.0
 11
-308.88443849999953
 21
-287.46859370513971
 31
0.0
  0
LINE
  5
2B0
100
AcDbEntity
  8
RKY70-0001
370
              15
390
0
  6
Continuous
 62
               7
100
AcDbLine
 10
-308.88443849999953
 20
-287.46859370513971
 30
0.0
 11
-302.78267949999895
 21
-284.25968070513932
 31
0.0
  0
LINE
  5
2B1
100
AcDbEntity
  8
RKY70-0001
370
              15
390
0
  6
Continuous
 62
               7
100
AcDbLine
 10
-302.78267949999895
 20
-284.25968070513932
 30
0.0
 11
-296.63266749999934
 21
-281.15211870514008
 31
0.0
  0
LINE
  5
2B2
100
AcDbEntity
  8
RKY70-0001
370
              15
390
0
  6
Continuous
 62
               7
100
AcDbLine
 10
-296.63266749999934
 20
-281.15211870514008
 30
0.0
 11
-290.95084349999911
 21
-278.38116370513922
 31
0.0
  0
LINE
  5
2B3
100
AcDbEntity
  8
RKY70-0001
370
              15
390
0
  6
Continuous
 62
               7
100
AcDbLine
 10
-290.95084349999911
 20
-278.38116370513922
 30
0.0
 11
-285.23898349999922
 21
-275.6718327051401
 31
0.0
  0
DIMENSION
  5
2B4
100
AcDbEntity
  8
RKY70-0001
370
               5
390
0
  6
Continuous
 62
               7
100
AcDbDimension
  2
*D4
 10
-612.5064875000005
 20
1133.2427398173941
 30
0.0
 11
-452.5064875000005
 21
1133.2427398173941
 31
0.0
 71
               5
 72
               1
 41
1.0
 42
0.0
  3
tfrom線あり
100
AcDbAlignedDimension
 13
-292.5064875000005
 23
1033.2427398173941
 33
0.0
 14
-612.5064875000005
 24
1033.2427398173941
 34
0.0
100
AcDbRotatedDimension
1001
ACAD
1000
DSTYLE
1002
{
1070
             279
1070
               2
1070
             340
1005
32
1070
             147
1040
5.0
1002
}
  0
DIMENSION
  5
2B5
100
AcDbEntity
  8
RKY70-0001
370
               5
390
0
  6
Continuous
 62
               7
100
AcDbDimension
  2
*D5
 10
-51.040139594528341
 20
1033.2427398173941
 30
0.0
 11
-51.040139594528341
 21
723.24273981739452
 31
0.0
 71
               5
 72
               1
 41
1.0
 42
0.0
  1
615
  3
tfrom線あり
100
AcDbAlignedDimension
 13
-427.50648750000073
 23
413.24273981739452
 33
0.0
 14
-292.5064875000005
 24
1033.2427398173941
 34
0.0
 50
90.0
100
AcDbRotatedDimension
1001
ACAD
1000
DSTYLE
1002
{
1070
             279
1070
               2
1070
             340
1005
31
1070
             147
1040
5.0
1002
}
  0
DIMENSION
  5
2B6
100
AcDbEntity
  8
RKY70-0001
370
               5
390
0
  6
Continuous
 62
               7
100
AcDbDimension
  2
*D6
 10
-755.00648750000005
 20
225.24273981739452
 30
0.0
 11
-452.5064875000005
 21
225.24273981739452
 31
0.0
 71
               5
 72
               1
 41
1.0
 42
0.0
  3
tfrom線あり
100
AcDbAlignedDimension
 13
-150.00648750000096
 23
673.00930215881908
 33
0.0
 14
-755.00648750000005
 24
675.29827023956386
 34
0.0
100
AcDbRotatedDimension
1001
ACAD
1000
DSTYLE
1002
{
1070
             279
1070
               2
1070
             340
1005
32
1070
             147
1040
5.0
1002
}
  0
DIMENSION
  5
2B7
100
AcDbEntity
  8
RKY70-0001
370
               5
390
0
  6
Continuous
 62
               7
100
AcDbDimension
  2
*D7
 10
-702.52944567112513
 20
313.24273981739452
 30
0.0
 11
-452.52944567112513
 21
313.24273981739452
 31
0.0
 71
               5
 72
               1
 41
1.0
 42
0.0
  3
tfrom線あり
100
AcDbAlignedDimension
 13
-202.52944567112525
 23
534.74273981739452
 33
0.0
 14
-702.52944567112513
 24
534.74273981739452
 34
0.0
100
AcDbRotatedDimension
1001
ACAD
1000
DSTYLE
1002
{
1070
             279
1070
               2
1070
             340
1005
32
1070
             147
1040
5.0
1002
}
  0
DIMENSION
  5
2B8
100
AcDbEntity
  8
RKY70-0001
370
               5
390
0
  6
Continuous
 62
               7
100
AcDbDimension
  2
*D8
 10
-854.0064875000005
 20
863.24273981739407
 30
0.0
 11
-854.0064875000005
 21
658.24273981739407
 31
0.0
 71
               5
 72
               1
 41
1.0
 42
0.0
  3
tfrom線あり
100
AcDbAlignedDimension
 13
-582.98885681199272
 23
453.24273981739407
 33
0.0
 14
-717.33706361448913
 24
863.24273981739407
 34
0.0
 50
90.0
100
AcDbRotatedDimension
1001
ACAD
1000
DSTYLE
1002
{
1070
             279
1070
               2
1070
             340
1005
32
1070
             147
1040
5.0
1002
}
  0
DIMENSION
  5
2B9
100
AcDbEntity
  8
RKY70-0001
370
               5
390
0
  6
Continuous
 62
               7
100
AcDbDimension
  2
*D9
 10
897.68963748463091
 20
-372.03313402203935
 30
0.0
 11
757.68963748463091
 21
-372.03313402203935
 31
0.0
 71
               5
 72
               1
 41
1.0
 42
0.0
  3
tfrom線あり
100
AcDbAlignedDimension
 13
617.68963748463091
 23
-268.5199652926633
 33
0.0
 14
897.68963748463091
 24
-175.63326470513925
 34
0.0
100
AcDbRotatedDimension
1001
ACAD
1000
DSTYLE
1002
{
1070
             279
1070
               2
1070
             340
1005
32
1070
             147
1040
5.0
1002
}
  0
LINE
  5
2BA
100
AcDbEntity
  8
RKY70-0001
370
              15
390
0
  6
STYLE_12
 62
               7
100
AcDbLine
 10
-492.52944567112513
 20
-293.14741541214426
 30
0.0
 11
-412.52944567112513
 21
-293.14741541214426
 31
0.0
  0
LINE
  5
2BB
100
AcDbEntity
  8
RKY70-0001
370
              15
390
0
  6
STYLE_12
 62
               7
100
AcDbLine
 10
-492.52944567112513
 20
-293.14741541214426
 30
0.0
 11
-492.52944567112513
 21
-264.73296533894018
 31
0.0
  0
LINE
  5
2BC
100
AcDbEntity
  8
RKY70-0001
370
              15
390
0
  6
STYLE_12
 62
               7
100
AcDbLine
 10
657.72258792366404
 20
-293.14741541214426
 30
0.0
 11
577.72258792366404
 21
-293.14741541214426
 31
0.0
  0
LINE
  5
2BD
100
AcDbEntity
  8
RKY70-0001
370
              15
390
0
  6
STYLE_12
 62
               7
100
AcDbLine
 10
657.72258792366404
 20
-293.14741541214426
 30
0.0
 11
657.72258792366404
 21
-264.73296533893972
 31
0.0
  0
LINE
  5
2BE
100
AcDbEntity
  8
RKY70-0001
370
              15
390
0
  6
STYLE_12
 62
               7
100
AcDbLine
 10
577.72258792366404
 20
-293.14741541214426
 30
0.0
 11
577.72258792366404
 21
-264.73296533893949
 31
0.0
  0
ARC
  5
2BF
100
AcDbEntity
  8
RKY70-0001
370
              15
390
0
  6
STYLE_12
 62
               7
100
AcDbCircle
 10
-460.13786093392378
 20
39.093142927532199
 30
0.0
 40
305.54789939735645
100
AcDbArc
 50
216.03011383564939
 51
263.91455468481354
  0
ARC
  5
2C0
100
AcDbEntity
  8
RKY70-0001
370
              15
390
0
  6
STYLE_12
 62
               7
100
AcDbCircle
 10
600.30924638993122
 20
-129.50505911806204
 30
0.0
 40
141.13361324846903
100
AcDbArc
 50
294.00405708167301
 51
13.136092953240507
  0
ARC
  5
2C1
100
AcDbEntity
  8
RKY70-0001
370
              15
390
0
  6
STYLE_12
 62
               7
100
AcDbCircle
 10
575.35715045783979
 20
103.43896650974239
 30
0.0
 40
368.1795305222646
100
AcDbArc
 50
222.85519394917245
 51
270.36810986120031
  0
LINE
  5
2C2
100
AcDbEntity
  8
RKY70-0001
370
              15
390
0
  6
STYLE_12
 62
               7
100
AcDbLine
 10
-412.52944567112513
 20
-293.14741541214426
 30
0.0
 11
-412.52944567112513
 21
-264.73296533894018
 31
0.0
  0
ARC
  5
2C3
100
AcDbEntity
  8
RKY70-0001
370
              15
390
0
  6
STYLE_12
 62
               7
100
AcDbCircle
 10
-444.92103040832649
 20
39.093142927532199
 30
0.0
 40
305.5478993973565
100
AcDbArc
 50
276.08544531518646
 51
323.9698861643505
  0
DIMENSION
  5
2C4
100
AcDbEntity
  8
RKY70-0001
370
               5
390
0
  6
Continuous
 62
               7
100
AcDbDimension
  2
*D10
 10
-51.040139594528341
 20
-98.167468705146575
 30
0.0
 11
-51.040139594528341
 21
-548.1674687051468
 31
0.0
 71
               5
 72
               1
 41
1.0
 42
0.0
  3
tfrom線あり
100
AcDbAlignedDimension
 13
-404.41387799999984
 23
-998.1674687051468
 33
0.0
 14
-377.80588450000027
 24
-98.167468705146575
 34
0.0
 50
90.0
100
AcDbRotatedDimension
1001
ACAD
1000
DSTYLE
1002
{
1070
             279
1070
               2
1070
             340
1005
32
1070
             147
1040
5.0
1002
}
  0
LINE
  5
2C5
100
AcDbEntity
  8
RKY70-0001
370
              15
390
0
  6
STYLE_12
 62
               7
100
AcDbLine
 10
-501.1978909999998
 20
-994.57587000000058
 30
0.0
 11
-501.1978909999998
 21
-998.1674687051468
 31
0.0
  0
LINE
  5
2C6
100
AcDbEntity
  8
RKY70-0001
370
              15
390
0
  6
STYLE_12
 62
               7
100
AcDbLine
 10
-404.41387799999984
 20
-994.57587000000058
 30
0.0
 11
-404.41387799999984
 21
-998.1674687051468
 31
0.0
  0
DIMENSION
  5
2C7
100
AcDbEntity
  8
RKY70-0001
370
               5
390
0
  6
Continuous
 62
               7
100
AcDbDimension
  2
*D11
 10
622.41016745182117
 20
-148.89250502205959
 30
0.0
 11
627.41016745182117
 21
-119.22217899824909
 31
0.0
 70
             128
 71
               5
 72
               1
 41
1.0
 42
0.0
  3
tfrom線あり
100
AcDbAlignedDimension
 13
575.0
 23
-253.89250502205959
 33
0.0
 14
514.37822173508937
 24
-148.89250502205959
 34
0.0
 50
90.0
100
AcDbRotatedDimension
1001
ACAD
1000
DSTYLE
1002
{
1070
             279
1070
               2
1070
             340
1005
32
1070
               3
1000
<>(深さ)
1070
             174
1070
               0
1070
             147
1040
5.0
1002
}
  0
DIMENSION
  5
2C8
100
AcDbEntity
  8
RKY70-0001
370
               5
390
0
  6
Continuous
 62
               7
100
AcDbDimension
  2
*D12
 10
178.79920013229139
 20
-148.14741541214426
 30
0.0
 11
173.79920013229139
 21
-231.81996529266326
 31
0.0
 70
             128
 71
               5
 72
               1
 41
1.0
 42
0.0
  3
tfrom線あり
100
AcDbAlignedDimension
 13
577.72258792366404
 23
-293.14741541214426
 33
0.0
 14
296.39920013229141
 24
-148.14741541214426
 34
0.0
 50
90.0
100
AcDbRotatedDimension
1001
ACAD
1000
DSTYLE
1002
{
1070
             279
1070
               2
1070
             340
1005
32
1070
             147
1040
5.0
1002
}
  0
CIRCLE
  5
2C9
100
AcDbEntity
  8
RKY70-0001
370
              15
390
0
  6
STYLE_12
 62
               7
100
AcDbCircle
 10
-365.02944567112513
 20
-203.11996529266321
 30
0.0
 40
10.000000000000103
  0
LINE
  5
2CA
100
AcDbEntity
  8
RKY70-0001
370
              15
390
0
  6
STYLE_12
 62
               7
100
AcDbLine
 10
-365.02944567112513
 20
-223.11996529266321
 30
0.0
 11
-365.02944567112513
 21
-183.11996529266321
 31
0.0
  0
LINE
  5
2CB
100
AcDbEntity
  8
RKY70-0001
370
              15
390
0
  6
STYLE_12
 62
               7
100
AcDbLine
 10
-345.02944567112513
 20
-203.11996529266321
 30
0.0
 11
-385.02944567112513
 21
-203.11996529266321
 31
0.0
  0
CIRCLE
  5
2CC
100
AcDbEntity
  8
RKY70-0001
370
              15
390
0
  6
STYLE_12
 62
               7
100
AcDbCircle
 10
-540.02944567112513
 20
-203.11996529266321
 30
0.0
 40
10.000000000000103
  0
LINE
  5
2CD
100
AcDbEntity
  8
RKY70-0001
370
              15
390
0
  6
STYLE_12
 62
               7
100
AcDbLine
 10
-540.02944567112513
 20
-223.11996529266321
 30
0.0
 11
-540.02944567112513
 21
-183.11996529266321
 31
0.0
  0
LINE
  5
2CE
100
AcDbEntity
  8
RKY70-0001
370
              15
390
0
  6
STYLE_12
 62
               7
100
AcDbLine
 10
-520.02944567112513
 20
-203.11996529266321
 30
0.0
 11
-560.02944567112513
 21
-203.11996529266321
 31
0.0
  0
DIMENSION
  5
2CF
100
AcDbEntity
  8
RKY70-0001
370
               5
390
0
  6
Continuous
 62
               7
100
AcDbDimension
  2
*D13
 10
-854.0064875000005
 20
-98.167468705146575
 30
0.0
 11
-854.0064875000005
 21
-150.64371699890489
 31
0.0
 71
               5
 72
               1
 41
1.0
 42
0.0
  3
tfrom線あり
100
AcDbAlignedDimension
 13
-560.02944567112513
 23
-203.11996529266321
 33
0.0
 14
-502.80588449999937
 24
-98.167468705146575
 34
0.0
 50
90.0
100
AcDbRotatedDimension
1001
ACAD
1000
DSTYLE
1002
{
1070
             279
1070
               2
1070
             340
1005
32
1070
             147
1040
5.0
1002
}
  0
DIMENSION
  5
2D0
100
AcDbEntity
  8
RKY70-0001
370
               5
390
0
  6
Continuous
 62
               7
100
AcDbDimension
  2
*D14
 10
-540.02944567112513
 20
1.8325312948534247
 30
0.0
 11
-452.52944567112513
 21
1.8325312948534247
 31
0.0
 71
               5
 72
               1
 41
1.0
 42
0.0
  3
tfrom線あり
100
AcDbAlignedDimension
 13
-365.02944567112513
 23
-183.11996529266321
 33
0.0
 14
-540.02944567112513
 24
-183.11996529266321
 34
0.0
100
AcDbRotatedDimension
1001
ACAD
1000
DSTYLE
1002
{
1070
             279
1070
               2
1070
             340
1005
32
1070
             147
1040
5.0
1002
}
  0
DIMENSION
  5
2D1
100
AcDbEntity
  8
RKY70-0001
370
               5
390
0
  6
Continuous
 62
               7
100
AcDbDimension
  2
*D15
 10
128.41311458587927
 20
-148.14741541214426
 30
0.0
 11
128.41311458587927
 21
-573.14741541214426
 31
0.0
 71
               5
 72
               1
 41
1.0
 42
0.0
  3
tfrom線あり
100
AcDbAlignedDimension
 13
583.24140929883322
 23
-998.14741541214426
 33
0.0
 14
296.39920013229141
 24
-148.14741541214426
 34
0.0
 50
90.0
100
AcDbRotatedDimension
1001
ACAD
1000
DSTYLE
1002
{
1070
             279
1070
               2
1070
             340
1005
32
1070
             147
1040
5.0
1002
}
  0
MTEXT
  5
2D2
100
AcDbEntity
  8
RKY70-0001
390
0
 62
               7
100
AcDbMText
 10
-265.71501378954304
 20
-16.818650119463427
 30
0.0
 40
24.432617187500004
 41
0.0
 71
               1
 72
               1
  1
壁取付ボルト穴(2ヶ所)
  7
ＭＳ ゴシック
 73
               1
 44
0.7828267384257843
  0
LINE
  5
2D3
100
AcDbEntity
  8
RKY70-0001
370
               5
390
0
  6
Continuous
 62
               7
100
AcDbLine
 10
-365.02944567112513
 20
-203.11996529266321
 30
0.0
 11
-253.65151963096582
 21
-46.828509125626852
 31
0.0
  0
ENDSEC
  0
SECTION
  2
OBJECTS
  0
DICTIONARY
  5
19
100
AcDbDictionary
280
               0
281
               1
  3
ACAD_GROUP
350
1A
  3
ACAD_MLINESTYLE
350
1B
  3
ACAD_LAYOUT
350
1E
  3
ACAD_PLOTSETTINGS
350
22
  3
ACAD_PLOTSTYLENAME
350
1F
  0
DICTIONARY
  5
1A
102
{ACAD_REACTORS
330
19
102
}
100
AcDbDictionary
280
               0
281
               1
  0
DICTIONARY
  5
1B
102
{ACAD_REACTORS
330
19
102
}
100
AcDbDictionary
280
               0
281
               1
  3
Standard
350
1C
  0
MLINESTYLE
  5
1C
102
{ACAD_REACTORS
330
1B
102
}
100
AcDbMlineStyle
  2
Standard
 70
               0
  3

 62
               0
 51
90.0
 52
90.0
 71
               2
 49
0.5
 62
             256
  6
ByLayer
 49
-0.5
 62
             256
  6
ByLayer
  0
ACDBDICTIONARYWDFLT
  5
1F
102
{ACAD_REACTORS
330
19
102
}
100
AcDbDictionary
281
               1
  3
Normal
350
1D
100
AcDbDictionaryWithDefault
340
1D
  0
ACDBPLACEHOLDER
  5
1D
102
{ACAD_REACTORS
330
1F
102
}
  0
LAYOUT
  5
20
102
{ACAD_REACTORS
330
1E
102
}
100
AcDbPlotSettings
  1

  2

  4

  6

 40
0.0
 41
0.0
 42
0.0
 43
0.0
 44
0.0
 45
0.0
 46
0.0
 47
0.0
 48
0.0
 49
0.0
140
0.0
141
0.0
142
1.0
143
1.0
 70
            1024
 72
               0
 73
               0
 74
               0
  7

 75
               0
147
1.0
148
0.0
149
0.0
100
AcDbLayout
  1
Model
 70
               0
 71
               0
 10
0.0
 20
0.0
 11
0.0
 21
0.0
 12
0.0
 22
0.0
 32
0.0
 14
0.0
 24
0.0
 34
0.0
 15
0.0
 25
0.0
 35
0.0
146
0.0
 13
0.0
 23
0.0
 33
0.0
 16
0.0
 26
0.0
 36
0.0
 17
0.0
 27
0.0
 37
0.0
 76
               0
330
A
331
0
345
0
346
0
  0
LAYOUT
  5
21
102
{ACAD_REACTORS
330
1E
102
}
100
AcDbPlotSettings
  1

  2

  4

  6

 40
0.0
 41
0.0
 42
0.0
 43
0.0
 44
0.0
 45
0.0
 46
0.0
 47
0.0
 48
0.0
 49
0.0
140
0.0
141
0.0
142
1.0
143
1.0
 70
               0
 72
               0
 73
               0
 74
               0
  7

 75
               0
147
1.0
148
0.0
149
0.0
100
AcDbLayout
  1
Layout1
 70
               0
 71
               0
 10
0.0
 20
0.0
 11
0.0
 21
0.0
 12
0.0
 22
0.0
 32
0.0
 14
0.0
 24
0.0
 34
0.0
 15
0.0
 25
0.0
 35
0.0
146
0.0
 13
0.0
 23
0.0
 33
0.0
 16
0.0
 26
0.0
 36
0.0
 17
0.0
 27
0.0
 37
0.0
 76
               0
330
B
331
0
345
0
346
0
  0
DICTIONARY
  5
1E
102
{ACAD_REACTORS
330
19
102
}
100
AcDbDictionary
280
               0
281
               1
  3
Layout1
350
21
  3
Model
350
20
  0
DICTIONARY
  5
22
102
{ACAD_REACTORS
330
19
102
}
100
AcDbDictionary
280
               0
281
               1
  0
ENDSEC
  0
EOF
