  0
SECTION
  2
HEADER
  9
$ACADVER
  1
AC1015
  9
$ACADMAINTVER
 70
               6
  9
$DWGCODEPAGE
  3
ANSI_932
  9
$INSBASE
 10
0.0
 20
0.0
 30
0.0
  9
$EXTMIN
 10
-487.50000000012056
 20
-710.65823254174654
 30
-7.417152777777777
  9
$EXTMAX
 10
487.50000000012034
 20
704.57539723668197
 30
7.417152777777777
  9
$LIMMIN
 10
0.0
 20
0.0
  9
$LIMMAX
 10
0.0
 20
0.0
  9
$ORTHOMODE
 70
               0
  9
$REGENMODE
 70
               1
  9
$FILLMODE
 70
               1
  9
$QTEXTMODE
 70
               0
  9
$MIRRTEXT
 70
               1
  9
$LTSCALE
 40
25.399999999999999
  9
$ATTMODE
 70
               1
  9
$TEXTSIZE
 40
0.2
  9
$TRACEWID
 40
1.0
  9
$TEXTSTYLE
  7
Standard
  9
$CLAYER
  8
SHL74-1009
  9
$CELTYPE
  6
Continuous
  9
$CECOLOR
 62
             256
  9
$CELTSCALE
 40
1.0
  9
$DISPSILH
 70
               0
  9
$DIMSCALE
 40
1.0
  9
$DIMASZ
 40
2.5037231445312496
  9
$DIMEXO
 40
7.9500000000000002
  9
$DIMDLI
 40
7.0
  9
$DIMRND
 40
0.0
  9
$DIMDLE
 40
0.0
  9
$DIMEXE
 40
9.9999999999999982
  9
$DIMTP
 40
0.0
  9
$DIMTM
 40
0.0
  9
$DIMTXT
 40
12.216308593750002
  9
$DIMCEN
 40
0.0
  9
$DIMTSZ
 40
0.0
  9
$DIMTOL
 70
               0
  9
$DIMLIM
 70
               0
  9
$DIMTIH
 70
               0
  9
$DIMTOH
 70
               0
  9
$DIMSE1
 70
               0
  9
$DIMSE2
 70
               0
  9
$DIMTAD
 70
               1
  9
$DIMZIN
 70
              11
  9
$DIMBLK
  1
_DOT
  9
$DIMASO
 70
               1
  9
$DIMSHO
 70
               1
  9
$DIMPOST
  1
<>
  9
$DIMAPOST
  1
[]
  9
$DIMALT
 70
               0
  9
$DIMALTD
 70
               1
  9
$DIMALTF
 40
1.0
  9
$DIMLFAC
 40
1.0
  9
$DIMTOFL
 70
               1
  9
$DIMTVP
 40
0.0
  9
$DIMTIX
 70
               1
  9
$DIMSOXD
 70
               0
  9
$DIMSAH
 70
               0
  9
$DIMBLK1
  1

  9
$DIMBLK2
  1

  9
$DIMSTYLE
  2
b
  9
$DIMCLRD
 70
               0
  9
$DIMCLRE
 70
               0
  9
$DIMCLRT
 70
               0
  9
$DIMTFAC
 40
0.8
  9
$DIMGAP
 40
0.2
  9
$DIMJUST
 70
               0
  9
$DIMSD1
 70
               0
  9
$DIMSD2
 70
               0
  9
$DIMTOLJ
 70
               1
  9
$DIMTZIN
 70
              11
  9
$DIMALTZ
 70
              11
  9
$DIMALTTZ
 70
              11
  9
$DIMUPT
 70
               0
  9
$DIMDEC
 70
               1
  9
$DIMTDEC
 70
               1
  9
$DIMALTU
 70
               2
  9
$DIMALTTD
 70
               2
  9
$DIMTXSTY
  7
ＭＳ ゴシック
  9
$DIMAUNIT
 70
               0
  9
$DIMADEC
 70
               2
  9
$DIMALTRND
 40
0.0
  9
$DIMAZIN
 70
               0
  9
$DIMDSEP
 70
              46
  9
$DIMATFIT
 70
               0
  9
$DIMFRAC
 70
               2
  9
$DIMLDRBLK
  1

  9
$DIMLUNIT
 70
               2
  9
$DIMLWD
 70
              -2
  9
$DIMLWE
 70
              -2
  9
$DIMTMOVE
 70
               0
  9
$LUNITS
 70
               2
  9
$LUPREC
 70
               4
  9
$SKETCHINC
 40
0.1
  9
$FILLETRAD
 40
0.0
  9
$AUNITS
 70
               0
  9
$AUPREC
 70
               0
  9
$MENU
  1
acad
  9
$ELEVATION
 40
0.0
  9
$PELEVATION
 40
0.0
  9
$THICKNESS
 40
0.0
  9
$LIMCHECK
 70
               0
  9
$CHAMFERA
 40
0.0
  9
$CHAMFERB
 40
0.0
  9
$CHAMFERC
 40
0.0
  9
$CHAMFERD
 40
0.0
  9
$SKPOLY
 70
               0
  9
$TDCREATE
 40
2455884.712650463
  9
$TDUCREATE
 40
0.000000000
  9
$TDUPDATE
 40
2455884.712650463
  9
$TDUUPDATE
 40
0.000000000
  9
$TDINDWG
 40
0.0000000000
  9
$TDUSRTIMER
 40
0.0000000000
  9
$USRTIMER
 70
               1
  9
$ANGBASE
 50
0.0
  9
$ANGDIR
 70
               0
  9
$PDMODE
 70
               1
  9
$PDSIZE
 40
-2.0
  9
$PLINEWID
 40
0.0
  9
$SPLFRAME
 70
               0
  9
$SPLINETYPE
 70
               6
  9
$SPLINESEGS
 70
               8
  9
$HANDSEED
  5
14A
  9
$SURFTAB1
 70
               6
  9
$SURFTAB2
 70
               6
  9
$SURFTYPE
 70
               6
  9
$SURFU
 70
               6
  9
$SURFV
 70
               6
  9
$UCSBASE
  2

  9
$UCSNAME
  2

  9
$UCSORG
 10
0.0
 20
0.0
 30
0.0
  9
$UCSXDIR
 10
1.0
 20
0.0
 30
0.0
  9
$UCSYDIR
 10
0.0
 20
1.0
 30
0.0
  9
$UCSORTHOREF
  2

  9
$UCSORTHOVIEW
 70
               0
  9
$UCSORGTOP
 10
0.0
 20
0.0
 30
0.0
  9
$UCSORGBOTTOM
 10
0.0
 20
0.0
 30
0.0
  9
$UCSORGLEFT
 10
0.0
 20
0.0
 30
0.0
  9
$UCSORGRIGHT
 10
0.0
 20
0.0
 30
0.0
  9
$UCSORGFRONT
 10
0.0
 20
0.0
 30
0.0
  9
$UCSORGBACK
 10
0.0
 20
0.0
 30
0.0
  9
$PUCSBASE
  2

  9
$PUCSNAME
  2

  9
$PUCSORG
 10
0.0
 20
0.0
 30
0.0
  9
$PUCSXDIR
 10
1.0
 20
0.0
 30
0.0
  9
$PUCSYDIR
 10
0.0
 20
1.0
 30
0.0
  9
$PUCSORTHOREF
  2

  9
$PUCSORTHOVIEW
 70
               0
  9
$PUCSORGTOP
 10
0.0
 20
0.0
 30
0.0
  9
$PUCSORGBOTTOM
 10
0.0
 20
0.0
 30
0.0
  9
$PUCSORGLEFT
 10
0.0
 20
0.0
 30
0.0
  9
$PUCSORGRIGHT
 10
0.0
 20
0.0
 30
0.0
  9
$PUCSORGFRONT
 10
0.0
 20
0.0
 30
0.0
  9
$PUCSORGBACK
 10
0.0
 20
0.0
 30
0.0
  9
$USERI1
 70
               0
  9
$USERI2
 70
               0
  9
$USERI3
 70
               0
  9
$USERI4
 70
               0
  9
$USERI5
 70
               0
  9
$USERR1
 40
0.0
  9
$USERR2
 40
0.0
  9
$USERR3
 40
0.0
  9
$USERR4
 40
0.0
  9
$USERR5
 40
0.0
  9
$WORLDVIEW
 70
               1
  9
$SHADEDGE
 70
               3
  9
$SHADEDIF
 70
              70
  9
$TILEMODE
 70
               1
  9
$MAXACTVP
 70
              64
  9
$PINSBASE
 10
0.0
 20
0.0
 30
0.0
  9
$PLIMCHECK
 70
               0
  9
$PEXTMIN
 10
1.0000000000000000E+20
 20
1.0000000000000000E+20
 30
1.0000000000000000E+20
  9
$PEXTMAX
 10
-1.0000000000000000E+20
 20
-1.0000000000000000E+20
 30
-1.0000000000000000E+20
  9
$PLIMMIN
 10
0.0
 20
0.0
  9
$PLIMMAX
 10
12.0
 20
9.0
  9
$UNITMODE
 70
               0
  9
$VISRETAIN
 70
               0
  9
$PLINEGEN
 70
               1
  9
$PSLTSCALE
 70
               0
  9
$TREEDEPTH
 70
            3020
  9
$CMLSTYLE
  2
Standard
  9
$CMLJUST
 70
               0
  9
$CMLSCALE
 40
1.0
  9
$PROXYGRAPHICS
 70
               0
  9
$MEASUREMENT
 70
               1
  9
$CELWEIGHT
370
               0
  9
$ENDCAPS
280
               0
  9
$JOINSTYLE
280
               0
  9
$LWDISPLAY
290
               1
  9
$INSUNITS
 70
               4
  9
$HYPERLINKBASE
  1

  9
$STYLESHEET
  1

  9
$XEDIT
290
               1
  9
$CEPSNTYPE
380
               0
  9
$PSTYLEMODE
290
               1
  9
$FINGERPRINTGUID
  2

  9
$VERSIONGUID
  2

  9
$EXTNAMES
290
               1
  9
$PSVPSCALE
 40
0.0
  0
ENDSEC
  0
SECTION
  2
CLASSES
  0
CLASS
  1
LWPOLYLINE
  2
AcDbPolyline
  3
AutoCAD 2000
 90
        0
280
               0
281
               1
  0
CLASS
  1
IMAGE
  2
AcDbRasterImage
  3
ISM
 90
      127
280
               0
281
               1
  0
CLASS
  1
OLE2FRAME
  2
AcDbOle2Frame
  3
AutoCAD 2000
 90
        0
280
               0
281
               1
  0
CLASS
  1
HATCH
  2
AcDbHatch
  3
AutoCAD 2000
 90
        0
280
               0
281
               1
  0
CLASS
  1
DICTIONARYVAR
  2
AcDbDictionaryVar
  3
AutoCAD 2000
 90
        0
280
               0
281
               0
  0
CLASS
  1
RASTERVARIABLES
  2
AcDbRasterVariables
  3
ISM
 90
        0
280
               0
281
               0
  0
CLASS
  1
IMAGEDEF
  2
AcDbRasterImageDef
  3
ISM
 90
        0
280
               0
281
               0
  0
CLASS
  1
IMAGEDEF_REACTOR
  2
AcDbRasterImageDefReactor
  3
ISM
 90
        1
280
               0
281
               0
  0
CLASS
  1
IDBUFFER
  2
AcDbIdBuffer
  3
AutoCAD 2000
 90
        0
280
               0
281
               0
  0
CLASS
  1
SPATIAL_FILTER
  2
AcDbSpatialFilter
  3
AutoCAD 2000
 90
        0
280
               0
281
               0
  0
CLASS
  1
XRECORD
  2
AcDbXrecord
  3
AutoCAD 2000
 90
        0
280
               0
281
               0
  0
CLASS
  1
SORTENTSTABLE
  2
AcDbSortentsTable
  3
AutoCAD 2000
 90
        0
280
               0
281
               0
  0
CLASS
  1
LAYER_INDEX
  2
AcDbLayerIndex
  3
AutoCAD 2000
 90
        0
280
               0
281
               0
  0
CLASS
  1
SPATIAL_INDEX
  2
AcDbSpatialIndex
  3
AutoCAD 2000
 90
        0
280
               0
281
               0
  0
CLASS
  1
OBJECT_PTR
  2
CAseDLPNTableRecord
  3
"ASE-LPNTableRecord"
 90
        1
280
               0
281
               0
  0
CLASS
  1
LAYOUT
  2
AcDbLayout
  3
AutoCAD 2000
 90
        0
280
               0
281
               0
  0
CLASS
  1
PLOTSETTINGS
  2
AcDbPlotSettings
  3
AutoCAD 2000
 90
        0
280
               0
281
               0
  0
CLASS
  1
ACDBDICTIONARYWDFLT
  2
AcDbDictionaryWithDefault
  3
AutoCAD 2000
 90
        0
280
               0
281
               0
  0
CLASS
  1
ACDBPLACEHOLDER
  2
AcDbPlaceHolder
  3
AutoCAD 2000
 90
        0
280
               0
281
               0
  0
ENDSEC
  0
SECTION
  2
TABLES
  0
TABLE
  2
VPORT
  5
7
100
AcDbSymbolTable
 70
               1
  0
VPORT
  5
15
100
AcDbSymbolTableRecord
100
AcDbViewportTableRecord
  2
*ACTIVE
 70
               0
 10
0.0
 20
0.0
 11
1.0
 21
1.0
 12
-0.0000000000001137
 22
-3.0414176525322318
 13
0.0
 23
0.0
 14
1.0
 24
1.0
 15
0.0
 25
0.0
 16
0.0
 26
0.0
 36
1.0
 17
0.0
 27
0.0
 37
0.0
 40
1415.2336297784286
 41
0.688564
 42
50.0
 43
0.0
 44
0.0
 50
0.0
 51
0.0
 71
               0
 72
            2000
 73
               1
 74
               1
 75
               0
 76
               0
 77
               0
 78
               0
281
               0
 65
               0
110
0.0
120
0.0
130
0.0
111
1.0
121
0.0
131
0.0
112
0.0
122
1.0
132
0.0
345
0
346
0
 79
               0
146
0.0
  0
ENDTAB
  0
TABLE
  2
LTYPE
  5
4
100
AcDbSymbolTable
 70
              13
  0
LTYPE
  5
11
100
AcDbSymbolTableRecord
100
AcDbLinetypeTableRecord
  2
ByBlock
 70
              64
  3

 72
              65
 73
               0
 40
0.0
  0
LTYPE
  5
12
100
AcDbSymbolTableRecord
100
AcDbLinetypeTableRecord
  2
ByLayer
 70
              64
  3

 72
              65
 73
               0
 40
0.0
  0
LTYPE
  5
13
100
AcDbSymbolTableRecord
100
AcDbLinetypeTableRecord
  2
Continuous
 70
              64
  3
Solid line
 72
              65
 73
               0
 40
0.0
  0
LTYPE
  5
2E
100
AcDbSymbolTableRecord
100
AcDbLinetypeTableRecord
  2
STYLE_01
 70
               0
  3

 72
              65
 73
               2
 40
0.41664
 49
0.20828
 74
               0
 49
-0.20836
 74
               0
  0
LTYPE
  5
2F
100
AcDbSymbolTableRecord
100
AcDbLinetypeTableRecord
  2
STYLE_02
 70
               0
  3

 72
              65
 73
               2
 40
0.6944250000000001
 49
0.48607
 74
               0
 49
-0.2083550000000001
 74
               0
  0
LTYPE
  5
30
100
AcDbSymbolTableRecord
100
AcDbLinetypeTableRecord
  2
STYLE_03
 70
               0
  3

 72
              65
 73
               2
 40
1.25
 49
1.0416400000000001
 74
               0
 49
-0.2083599999999999
 74
               0
  0
LTYPE
  5
31
100
AcDbSymbolTableRecord
100
AcDbLinetypeTableRecord
  2
STYLE_04
 70
               0
  3

 72
              65
 73
               2
 40
1.5277099999999999
 49
1.3194249999999998
 74
               0
 49
-0.208285
 74
               0
  0
LTYPE
  5
32
100
AcDbSymbolTableRecord
100
AcDbLinetypeTableRecord
  2
STYLE_05
 70
               0
  3

 72
              65
 73
               2
 40
0.20828
 49
0.069425
 74
               0
 49
-0.138855
 74
               0
  0
LTYPE
  5
33
100
AcDbSymbolTableRecord
100
AcDbLinetypeTableRecord
  2
STYLE_06
 70
               0
  3

 72
              65
 73
               4
 40
1.0416400000000001
 49
0.625
 74
               0
 49
-0.20828
 74
               0
 49
0.06943
 74
               0
 49
-0.13893
 74
               0
  0
LTYPE
  5
34
100
AcDbSymbolTableRecord
100
AcDbLinetypeTableRecord
  2
STYLE_07
 70
               0
  3

 72
              65
 73
               6
 40
1.875
 49
0.625
 74
               0
 49
-0.20828
 74
               0
 49
0.6250000000000001
 74
               0
 49
-0.2083599999999999
 74
               0
 49
0.06943
 74
               0
 49
-0.1389299999999999
 74
               0
  0
LTYPE
  5
35
100
AcDbSymbolTableRecord
100
AcDbLinetypeTableRecord
  2
STYLE_08
 70
               0
  3

 72
              65
 73
               6
 40
1.25
 49
0.625
 74
               0
 49
-0.20828
 74
               0
 49
0.06943
 74
               0
 49
-0.13893
 74
               0
 49
0.0694299999999999
 74
               0
 49
-0.13893
 74
               0
  0
LTYPE
  5
36
100
AcDbSymbolTableRecord
100
AcDbLinetypeTableRecord
  2
STYLE_09
 70
               0
  3

 72
              65
 73
               4
 40
5.0
 49
3.75
 74
               0
 49
-0.2777849999999998
 74
               0
 49
0.6944300000000003
 74
               0
 49
-0.2777849999999998
 74
               0
  0
LTYPE
  5
37
100
AcDbSymbolTableRecord
100
AcDbLinetypeTableRecord
  2
STYLE_10
 70
               0
  3

 72
              65
 73
               6
 40
5.9375
 49
3.75
 74
               0
 49
-0.2777849999999998
 74
               0
 49
0.6944300000000003
 74
               0
 49
-0.2777849999999998
 74
               0
 49
0.625
 74
               0
 49
-0.3125
 74
               0
  0
ENDTAB
  0
TABLE
  2
LAYER
  5
2
100
AcDbSymbolTable
 70
               5
  0
LAYER
  5
14
100
AcDbSymbolTableRecord
100
AcDbLayerTableRecord
  2
0
 70
               0
 62
               7
  6
Continuous
290
               1
370
              -3
390
1D
  0
LAYER
  5
38
100
AcDbSymbolTableRecord
100
AcDbLayerTableRecord
  2
Defpoints
 70
               0
 62
               7
  6
Continuous
290
               0
370
              -3
390
1D
  0
LAYER
  5
39
100
AcDbSymbolTableRecord
100
AcDbLayerTableRecord
  2
template
 70
               0
 62
               7
  6
Continuous
290
               1
370
              -3
390
1D
  0
LAYER
  5
3A
100
AcDbSymbolTableRecord
100
AcDbLayerTableRecord
  2
info
 70
               0
 62
               7
  6
Continuous
290
               1
370
              -3
390
1D
  0
LAYER
  5
3B
100
AcDbSymbolTableRecord
100
AcDbLayerTableRecord
  2
SHL74-1009
 70
               0
 62
               7
  6
Continuous
290
               1
370
              -3
390
1D
  0
ENDTAB
  0
TABLE
  2
STYLE
  5
3
100
AcDbSymbolTable
 70
               2
  0
STYLE
  5
17
100
AcDbSymbolTableRecord
100
AcDbTextStyleTableRecord
  2
Standard
 70
               0
 40
0.0
 41
1.0
 50
0.0
 71
               0
 42
0.0
  3
txt
  4
BIGFONT.SHX
  0
STYLE
  5
2D
100
AcDbSymbolTableRecord
100
AcDbTextStyleTableRecord
  2
ＭＳ ゴシック
 70
               0
 40
0.0
 41
1.0
 50
0.0
 71
               0
 42
0.0
  3

  4
ＭＳ ゴシック
1001
ACAD
1000
ＭＳ ゴシック
1071
        0
  0
ENDTAB
  0
TABLE
  2
VIEW
  5
5
100
AcDbSymbolTable
 70
               0
  0
ENDTAB
  0
TABLE
  2
UCS
  5
6
100
AcDbSymbolTable
 70
               0
  0
ENDTAB
  0
TABLE
  2
APPID
  5
8
100
AcDbSymbolTable
 70
               1
  0
APPID
  5
16
100
AcDbSymbolTableRecord
100
AcDbRegAppTableRecord
  2
ACAD
 70
               0
  0
ENDTAB
  0
TABLE
  2
DIMSTYLE
  5
9
100
AcDbSymbolTable
 70
               3
100
AcDbDimStyleTable
 71
               0
  0
DIMSTYLE
105
18
100
AcDbSymbolTableRecord
100
AcDbDimStyleTableRecord
  2
Standard
 70
               0
  3

  4

 40
1.0
 41
0.18
 42
0.0625
 43
0.38
 44
0.18
 45
0.0
 46
0.0
 47
0.0
 48
0.0
 71
               0
 72
               0
 73
               1
 74
               1
 75
               0
 76
               0
 77
               0
 78
               0
 79
               0
140
0.18
141
0.09
142
0.0
143
25.399999999999999
144
1.0
145
0.0
146
1.0
147
0.09
148
0.0
170
               0
171
               2
172
               0
173
               0
174
               0
175
               0
176
               0
177
               0
178
               0
179
               0
271
               4
272
               4
273
               2
274
               2
275
               0
276
               0
277
               2
278
              46
279
               0
280
               0
281
               0
282
               0
283
               1
284
               0
285
               0
286
               0
288
               0
289
               3
340
17
341
0
342
0
343
0
344
0
371
              -2
372
              -2
  0
DIMSTYLE
105
44
100
AcDbSymbolTableRecord
100
AcDbDimStyleTableRecord
  2
TformSENN
 70
               0
  3
<>
  4
[]
 40
1.0
 41
1.9998779296875
 42
12.499999999999998
 43
0.9999999999999999
 44
0.0
 45
0.0
 46
0.0
 47
0.0
 48
0.0
 71
               0
 72
               0
 73
               0
 74
               0
 75
               0
 76
               0
 77
               1
 78
              11
 79
               0
140
12.216308593750002
141
0.0
142
0.0
143
1.0
144
1.0
145
0.0
146
0.8
147
0.4999999999999999
148
0.0
170
               0
171
               1
172
               1
173
               0
174
               1
175
               0
176
               0
177
               0
178
               0
179
               2
271
               1
272
               1
273
               2
274
               2
275
               0
276
               2
277
               2
278
              46
279
               0
280
               0
281
               0
282
               0
283
               1
284
              11
285
              11
286
              11
288
               0
289
               0
340
2D
341
3C
342
3C
343
0
344
0
371
              -2
372
              -2
  0
DIMSTYLE
105
45
100
AcDbSymbolTableRecord
100
AcDbDimStyleTableRecord
  2
b
 70
               0
  3
<>
  4
[]
 40
1.0
 41
2.5037231445312496
 42
7.9500000000000002
 43
7.0
 44
9.9999999999999982
 45
0.0
 46
0.0
 47
0.0
 48
0.0
 71
               0
 72
               0
 73
               0
 74
               0
 75
               0
 76
               0
 77
               1
 78
              11
 79
               0
140
12.216308593750002
141
0.0
142
0.0
143
1.0
144
1.0
145
0.0
146
0.8
147
0.2
148
0.0
170
               0
171
               1
172
               1
173
               0
174
               1
175
               0
176
               0
177
               0
178
               0
179
               2
271
               1
272
               1
273
               2
274
               2
275
               0
276
               2
277
               2
278
              46
279
               0
280
               0
281
               0
282
               0
283
               1
284
              11
285
              11
286
              11
288
               0
289
               0
340
2D
341
3C
342
3C
343
0
344
0
371
              -2
372
              -2
  0
ENDTAB
  0
TABLE
  2
BLOCK_RECORD
  5
1
100
AcDbSymbolTable
 70
              11
  0
BLOCK_RECORD
  5
A
100
AcDbSymbolTableRecord
100
AcDbBlockTableRecord
  2
*MODEL_SPACE
340
20
  0
BLOCK_RECORD
  5
B
100
AcDbSymbolTableRecord
100
AcDbBlockTableRecord
  2
*PAPER_SPACE
340
21
  0
BLOCK_RECORD
  5
3C
100
AcDbSymbolTableRecord
100
AcDbBlockTableRecord
  2
_DOT
340
0
  0
BLOCK_RECORD
  5
23
100
AcDbSymbolTableRecord
100
AcDbBlockTableRecord
  2
グループ
340
0
102
{BLKREFS
331
E5
102
}
  0
BLOCK_RECORD
  5
24
100
AcDbSymbolTableRecord
100
AcDbBlockTableRecord
  2
グループ-1
340
0
102
{BLKREFS
331
FB
102
}
  0
BLOCK_RECORD
  5
25
100
AcDbSymbolTableRecord
100
AcDbBlockTableRecord
  2
*D3
340
0
  0
BLOCK_RECORD
  5
26
100
AcDbSymbolTableRecord
100
AcDbBlockTableRecord
  2
*D4
340
0
  0
BLOCK_RECORD
  5
27
100
AcDbSymbolTableRecord
100
AcDbBlockTableRecord
  2
*D5
340
0
  0
BLOCK_RECORD
  5
28
100
AcDbSymbolTableRecord
100
AcDbBlockTableRecord
  2
*D6
340
0
  0
BLOCK_RECORD
  5
29
100
AcDbSymbolTableRecord
100
AcDbBlockTableRecord
  2
*D7
340
0
  0
BLOCK_RECORD
  5
2A
100
AcDbSymbolTableRecord
100
AcDbBlockTableRecord
  2
グループ-2
340
0
102
{BLKREFS
331
134
102
}
  0
BLOCK_RECORD
  5
2B
100
AcDbSymbolTableRecord
100
AcDbBlockTableRecord
  2
グループ-3
340
0
102
{BLKREFS
331
135
102
}
  0
BLOCK_RECORD
  5
2C
100
AcDbSymbolTableRecord
100
AcDbBlockTableRecord
  2
*D10
340
0
  0
ENDTAB
  0
ENDSEC
  0
SECTION
  2
BLOCKS
  0
BLOCK
  5
D
100
AcDbEntity
  8
0
390
0
100
AcDbBlockBegin
  2
*MODEL_SPACE
 70
               0
 10
0.0
 20
0.0
 30
0.0
  3
*MODEL_SPACE
  1

  0
ENDBLK
  5
E
100
AcDbEntity
  8
0
390
0
100
AcDbBlockEnd
  0
BLOCK
  5
F
100
AcDbEntity
 67
               1
  8
0
390
0
100
AcDbBlockBegin
  2
*PAPER_SPACE
 70
               0
 10
0.0
 20
0.0
 30
0.0
  3
*PAPER_SPACE
  1

  0
ENDBLK
  5
10
100
AcDbEntity
 67
               1
  8
0
390
0
100
AcDbBlockEnd
  0
BLOCK
  5
3D
100
AcDbEntity
  8
0
390
0
100
AcDbBlockBegin
  2
_DOT
 70
               0
 10
0.0
 20
0.0
 30
0.0
  3
_DOT
  1

  0
POLYLINE
  5
3E
100
AcDbEntity
  8
0
370
              -2
390
0
  6
ByBlock
 62
               0
100
AcDb2dPolyline
 66
               1
 10
0.0
 20
0.0
 30
0.0
 70
               1
 40
0.5
 41
0.5
  0
VERTEX
  5
3F
100
AcDbEntity
  8
0
370
              -2
390
0
  6
ByBlock
 62
               0
100
AcDbVertex
100
AcDb2dVertex
 10
-0.25
 20
0.0
 30
0.0
 42
1.0
  0
VERTEX
  5
40
100
AcDbEntity
  8
0
370
              -2
390
0
  6
ByBlock
 62
               0
100
AcDbVertex
100
AcDb2dVertex
 10
0.25
 20
0.0
 30
0.0
 42
1.0
  0
SEQEND
  5
41
100
AcDbEntity
  8
0
390
0
  0
LINE
  5
42
100
AcDbEntity
  8
0
370
              -2
390
0
  6
ByBlock
 62
               0
100
AcDbLine
 10
-0.5
 20
0.0
 30
0.0
 11
-1.0
 21
0.0
 31
0.0
  0
ENDBLK
  5
43
100
AcDbEntity
  8
0
390
0
100
AcDbBlockEnd
  0
BLOCK
  5
46
100
AcDbEntity
  8
template
390
0
100
AcDbBlockBegin
  2
グループ
 70
               0
 10
0.0
 20
0.0
 30
0.0
  3
グループ
  1

  0
LWPOLYLINE
  5
47
100
AcDbEntity
  8
0
370
              15
390
0
  6
Continuous
 62
               7
100
AcDbPolyline
 90
        8
 70
             129
 10
443.71425390153723
 20
-665.66810959581085
 10
443.71425390153723
 20
-668.66680394259879
 10
438.96365544253553
 20
-668.66680394259879
 10
438.96365544253553
 20
-680.8922855743532
 10
434.7859668116443
 20
-680.8922855743532
 10
434.7859668116443
 20
-668.66680394259879
 10
430.11948833848959
 20
-668.66680394259879
 10
430.11948833848959
 20
-665.66810959581085
  0
LWPOLYLINE
  5
48
100
AcDbEntity
  8
0
370
              15
390
0
  6
Continuous
 62
               7
100
AcDbPolyline
 90
      101
 70
             128
 10
450.07839981681576
 20
-666.03223384227908
 10
450.08607483120852
 20
-666.0300534639365
 42
-0.0222221607821835
 10
450.23107711954373
 20
-665.99574123131424
 10
450.23897400154061
 20
-665.99423951976576
 42
-0.0146883565583445
 10
450.37032535415256
 20
-665.97323792629095
 42
-0.0127458844192461
 10
450.50264483772912
 20
-665.95946944225466
 10
450.53387237688548
 20
-665.9570227309606
 42
-0.0198099018562066
 10
450.72929693162314
 20
-665.94948015226237
 10
450.75520266634595
 20
-665.94950704009489
 42
-0.0147617382765735
 10
451.00251439683132
 20
-665.95706705271721
 10
451.03886012427319
 20
-665.9592533561613
 42
-0.0162624549004981
 10
451.23393693900277
 20
-665.97736979379738
 10
451.29470313462997
 20
-665.98501307329536
 42
-0.0080020874670456
 10
451.36749265017806
 20
-665.99535449692985
 10
451.38665238547208
 20
-665.99839013583471
 42
-0.0053821929676048
 10
451.42089443813296
 20
-666.00419389774606
 10
451.0576915885336
 20
-667.09465812560302
 42
0.0108667757391986
 10
451.02403305347127
 20
-667.08806456799357
 10
451.00529904187351
 20
-667.08481569669584
 42
0.0170663203312018
 10
450.93369064841482
 20
-667.07490089804992
 10
450.89975298207418
 20
-667.07137731275623
 42
0.0220162375275722
 10
450.75956327814652
 20
-667.06303613237117
 10
450.72063549462069
 20
-667.06243644873791
 42
0.0282606915783871
 10
450.55281733283164
 20
-667.06933808722238
 10
450.53086069594445
 20
-667.07148808222428
 42
0.016967721369566
 10
450.40789844846597
 20
-667.0877566070003
 42
0.0190576269859529
 10
450.28644446717618
 20
-667.11283004305335
 10
450.28331487312056
 20
-667.1136015301081
 42
0.0213685642843383
 10
450.15812263088128
 20
-667.15020167266061
 10
450.15537768342364
 20
-667.15113317068995
 42
0.0237595297601291
 10
450.02863024097456
 20
-667.20097543163763
 10
450.0260792039594
 20
-667.20212131937683
 42
0.026185746881172
 10
449.89999381584488
 20
-667.26688948806395
 10
449.89478072130186
 20
-667.26992222529793
 42
0.0272553062017623
 10
449.77656583368167
 20
-667.34760832827055
 10
449.75918432692782
 20
-667.36043890231599
 42
0.0325996893170321
 10
449.68410665510117
 20
-667.42381283880241
 10
449.67225194054026
 20
-667.43522185305812
 42
0.0138050960647942
 10
449.62631036243459
 20
-667.48194668383462
 42
0.0125280103783168
 10
449.58288909602214
 20
-667.53102834712945
 10
449.5710488735636
 20
-667.54510759622826
 42
0.0205218024732729
 10
449.50849883580901
 20
-667.6260042533396
 10
449.49726566556319
 20
-667.64183411825627
 42
0.0163110129579993
 10
449.41941047593741
 20
-667.75949933579159
 10
449.41804852791205
 20
-667.76171121678408
 42
0.0131897341896104
 10
449.34464826745943
 20
-667.88827726296552
 10
449.34379821977581
 20
-667.8898363825341
 42
0.0107895576063931
 10
449.27490986867184
 20
-668.02294398734887
 10
449.27454342390797
 20
-668.02369110367488
 42
0.0091371507220987
 10
449.21030344958342
 20
-668.16095370255459
 10
449.19543063387874
 20
-668.19430695613414
 42
0.0135418326351365
 10
449.10957366434167
 20
-668.40177584877176
 10
449.09277126012449
 20
-668.44570891991259
 42
0.0092834542412068
 10
449.00715673016515
 20
-668.68265816906194
 10
448.99434816630838
 20
-668.72027870395243
 42
0.0054261043582349
 10
448.94052909215981
 20
-668.88416069049106
 10
448.9317660990535
 20
-668.91185477166175
 42
0.0008225090827054
 10
448.89743107315616
 20
-669.02098915068086
 10
448.40508650718942
 20
-670.53343479730893
 10
450.02139842722653
 20
-670.53343479730893
 10
449.76930221229969
 20
-671.48567394648524
 10
448.14127407130803
 20
-671.48567394648524
 10
445.22669955513101
 20
-680.89228547948755
 10
444.31415074997614
 20
-680.89228547948755
 10
447.2314897677266
 20
-671.48567394648524
 10
446.02893158320609
 20
-671.48567394648524
 10
446.28102779813281
 20
-670.53343479730893
 10
447.49530220360788
 20
-670.53343479730893
 10
447.92537966270237
 20
-669.21522829695959
 42
-0.0005863560657126
 10
447.94374700178986
 20
-669.15681508685907
 10
447.98179091863426
 20
-669.03631893712088
 42
-0.0087522378928556
 10
448.08152499036112
 20
-668.7386808935521
 10
448.12765712807095
 20
-668.60861080928692
 42
-0.0077400953830491
 10
448.25662395763499
 20
-668.26210847051721
 10
448.26450644342611
 20
-668.24189302881985
 42
-0.0082369946329962
 10
448.38804867873034
 20
-667.93985349572631
 42
-0.008572523836559
 10
448.52167172673336
 20
-667.64214047607925
 10
448.57248652723604
 20
-667.53392992508896
 42
-0.0168109410592615
 10
448.71595874160062
 20
-667.25332616203787
 10
448.77888043679377
 20
-667.13984414560457
 42
-0.0007817726857317
 10
448.8060226118584
 20
-667.09107202302357
 10
448.80608676486537
 20
-667.09095716865829
 42
-0.0036626142164153
 10
448.83353069687752
 20
-667.04265822867114
 42
-0.0080221150678572
 10
448.86209282458111
 20
-666.99501861129443
 10
448.87744280026146
 20
-666.97032313673367
 42
-0.0202139325574115
 10
448.94127067016609
 20
-666.87633233639133
 10
448.96830440275869
 20
-666.8397929042726
 42
-0.0249323791800088
 10
449.09788579961685
 20
-666.68177028319712
 10
449.10995570668183
 20
-666.66846314673921
 42
-0.0242132121541642
 10
449.27979607745237
 20
-666.4985214036376
 10
449.30375186382742
 20
-666.47676683554482
 42
-0.0251017527862423
 10
449.44574271414848
 20
-666.36027046266167
 10
449.44646545255569
 20
-666.35973583387192
 42
-0.0130868069038236
 10
449.59559577753407
 20
-666.2553455996009
 10
449.59637668710491
 20
-666.25482887946373
 42
-0.0290329526394396
 10
449.75193225780214
 20
-666.16441612864878
 10
449.76685503879645
 20
-666.15686493722831
 42
-0.0160250190045149
 10
449.89980724567755
 20
-666.09485688212249
 42
-0.0267600374778874
 10
450.037445284412
 20
-666.04448272184811
 10
450.05081324417216
 20
-666.04038644243531
 42
-0.0049981587713067
 10
450.07839981681576
 20
-666.03223384227908
 42
-0.0049981587713067
  0
LWPOLYLINE
  5
49
100
AcDbEntity
  8
0
370
              15
390
0
  6
Continuous
 62
               7
100
AcDbPolyline
 90
      118
 70
             128
 10
459.98558359903922
 20
-670.5704264612225
 10
460.92314456128901
 20
-670.5704264612225
 10
460.50412510848884
 20
-671.91120972442263
 42
-0.0010587229261102
 10
460.51985301624143
 20
-671.89275745778389
 10
460.5489500615908
 20
-671.8587663296571
 42
-0.0071874740402279
 10
460.62413767064135
 20
-671.77344598364095
 10
460.69499905727093
 20
-671.69532791298604
 42
-0.0148118053513709
 10
460.92006370362697
 20
-671.46152098997993
 10
460.96367487107659
 20
-671.41882232955447
 42
-0.0086273358690755
 10
461.13144927158243
 20
-671.26013451254448
 10
461.15336612969503
 20
-671.24010969037818
 42
-0.0103138323119098
 10
461.2823779808121
 20
-671.1270281217088
 10
461.30526518398182
 20
-671.10778709807357
 42
-0.0060206748556896
 10
461.39168921603181
 20
-671.03688977270156
 10
461.39270478147267
 20
-671.03607691988759
 42
-0.0067069027301116
 10
461.47885118880606
 20
-670.96900160298844
 10
461.48012557176378
 20
-670.96803651805476
 42
-0.0076184352049698
 10
461.56557820470476
 20
-670.905349080429
 42
-0.0089652861664619
 10
461.65305868607408
 20
-670.84553245026132
 10
461.67123454614557
 20
-670.8335768435204
 42
-0.0156916245941537
 10
461.76921429472452
 20
-670.77344560028394
 42
-0.0023299011062009
 10
461.869345316698
 20
-670.71685663052267
 10
461.87703738290429
 20
-670.7125566329812
 42
-0.0107669341484859
 10
461.99415579545825
 20
-670.65035656630459
 10
462.00528819599236
 20
-670.64474819133136
 42
-0.0078058045894903
 10
462.14708325496883
 20
-670.576067463512
 10
462.1520367988233
 20
-670.5737628995779
 42
-0.0181829330472106
 10
462.30719150113111
 20
-670.50833102903005
 10
462.33421922241365
 20
-670.49807346905857
 42
-0.0208411536032199
 10
462.50876170613975
 20
-670.44002823781182
 10
462.5159397562025
 20
-670.4379690153354
 42
-0.0222799817134721
 10
462.68029965316214
 20
-670.39864823226492
 10
462.68474413478083
 20
-670.39779222697234
 42
-0.0215509523887003
 10
462.84297961892048
 20
-670.37433438270523
 10
462.86422059944516
 20
-670.37211561930974
 42
-0.0182545924862446
 10
462.98127498909759
 20
-670.36419370661429
 10
463.00097549727201
 20
-670.3635814340746
 42
-0.0072962856543047
 10
463.078936937116
 20
-670.36229676981361
 10
463.09348677239819
 20
-670.36226935211175
 42
-0.005922751631325
 10
463.14236152197446
 20
-670.36275620800711
 10
463.15698263075183
 20
-670.36307509130972
 42
-0.0011833111823628
 10
463.17660827257674
 20
-670.36354959346363
 10
462.77891497477304
 20
-671.63291656601336
 42
0.0143932051618355
 10
462.7657142835979
 20
-671.62781708099067
 10
462.76207829738917
 20
-671.62653147156198
 42
0.0234388603480015
 10
462.74116286442336
 20
-671.62022185370438
 10
462.73682203296681
 20
-671.61913137270176
 42
0.0199162743016994
 10
462.7066776159254
 20
-671.61282300503387
 10
462.69627064702371
 20
-671.61107440531987
 42
0.0293643550674169
 10
462.64473321764393
 20
-671.60549938249335
 10
462.63239062728394
 20
-671.60489357398399
 42
0.0214606686861864
 10
462.55582016930975
 20
-671.6044242937752
 10
462.55113421389871
 20
-671.60459674954745
 42
0.0167564054185021
 10
462.46537411834248
 20
-671.61063527073179
 10
462.4611442219649
 20
-671.61107594094517
 42
0.0137677553245804
 10
462.36746756532989
 20
-671.62345059521738
 10
462.3637916955787
 20
-671.62403955520097
 42
0.0118497261475293
 10
462.26354281353179
 20
-671.64254823029466
 10
462.26046780990453
 20
-671.64319166165546
 42
0.0106421143902836
 10
462.15502736625598
 20
-671.66760784944438
 10
462.15257296206738
 20
-671.66823152078541
 42
0.009974637969449
 10
462.04334372748758
 20
-671.69831878494233
 10
462.01256970740098
 20
-671.70745972425811
 42
0.0191613675865089
 10
461.84457747614408
 20
-671.76444841440127
 10
461.80054758976956
 20
-671.78129186956392
 42
0.0205274080149041
 10
461.60789420382014
 20
-671.86420607347691
 10
461.57906956282926
 20
-671.87804005576299
 42
0.0181256912196907
 10
461.44993109249566
 20
-671.94588196525206
 10
461.42345340083915
 20
-671.96104077185919
 42
0.0140709242403248
 10
461.35097593352452
 20
-672.00528810857668
 10
461.33785149921863
 20
-672.01381651793224
 42
0.0086667884384639
 10
461.29338841844395
 20
-672.0438178518757
 42
0.0036408192030547
 10
461.24967179943138
 20
-672.0749082807688
 10
461.23205836219307
 20
-672.08762875372815
 42
0.0052260781281338
 10
461.15394401348806
 20
-672.14529494705255
 10
461.14584058536775
 20
-672.1514090023544
 42
0.005002443590055
 10
461.05283891384443
 20
-672.22305028648077
 10
461.04517983558065
 20
-672.22907329770851
 42
0.0136138710276
 10
460.93995920141634
 20
-672.31655655016664
 10
460.92312526352129
 20
-672.33134603652218
 42
0.0172815186917604
 10
460.7909234926924
 20
-672.45584437283151
 10
460.7896423197688
 20
-672.45713728140743
 42
0.018940385798717
 10
460.66435142047976
 20
-672.5935399138092
 10
460.64803567371018
 20
-672.61271187955958
 42
0.018504419950968
 10
460.55205745422126
 20
-672.7343361701196
 42
0.0088565243901036
 10
460.46282740090697
 20
-672.86109438019469
 10
460.45823841108268
 20
-672.86786507007469
 42
0.0157195347229941
 10
460.36662810791461
 20
-673.01262617473401
 10
460.34358663694934
 20
-673.05170227324413
 42
0.0095451879783146
 10
460.26104386188132
 20
-673.19799959442105
 10
460.25546990241799
 20
-673.20833493048428
 42
0.0100351706257285
 10
460.18944802783687
 20
-673.33686271073248
 42
0.0086935915422578
 10
460.12828245194021
 20
-673.46777928343386
 10
460.12662208123254
 20
-673.47150044492071
 42
0.007258017487451
 10
460.06644885525736
 20
-673.61179644071865
 10
460.06481803860692
 20
-673.61575645372113
 42
0.0060005122610192
 10
460.00521770443669
 20
-673.76556128902098
 10
460.00361221526487
 20
-673.76974205297597
 42
0.0049017786981192
 10
459.94416213583429
 20
-673.92920654328339
 10
459.94257923264098
 20
-673.93358301189335
 42
0.0039415167601843
 10
459.88286109361104
 20
-674.10285404310457
 10
459.88129554228647
 20
-674.10740564353819
 42
0.0031035838765545
 10
459.8208931494417
 20
-674.28662557441942
 10
459.81933812717466
 20
-674.2913358851124
 42
0.0025070747149331
 10
459.75788745151931
 20
-674.48065949357726
 10
459.7392405033043
 20
-674.5391053262108
 42
0.0029081910284429
 10
459.64323135439724
 20
-674.84618715536192
 10
459.62282977014036
 20
-674.91279877649458
 42
0.0009266453733988
 10
459.48862108296788
 20
-675.35391100650668
 10
459.47817734666
 20
-675.38846694608355
 42
-0.0005809993666308
 10
459.33950900636728
 20
-675.84537099939371
 10
459.30636810722791
 20
-675.95411346548281
 42
-0.0012018708169245
 10
459.23287595251617
 20
-676.19319479773378
 10
459.20671602668523
 20
-676.27757436832201
 42
-0.0002691059602783
 10
459.18493128614904
 20
-676.34770817833783
 10
457.76845333700447
 20
-680.89228547948755
 10
456.85945889101509
 20
-680.89228547948755
 10
459.98558359903922
 20
-670.5704264612225
  0
SPLINE
  5
4A
100
AcDbEntity
  8
0
370
              15
390
0
  6
Continuous
 62
               7
100
AcDbSpline
210
0.0
220
0.0
230
1.0
 70
              13
 71
               2
 72
             782
 73
             779
 74
               0
 42
0.000001
 43
0.000001
 40
0.0
 40
0.0
 40
0.0
 40
1.0
 40
1.0
 40
2.0
 40
2.0
 40
3.0
 40
3.0
 40
4.0
 40
4.0
 40
5.0
 40
5.0
 40
6.0
 40
6.0
 40
7.0
 40
7.0
 40
8.0
 40
8.0
 40
9.0
 40
9.0
 40
10.0
 40
10.0
 40
11.0
 40
11.0
 40
12.0
 40
12.0
 40
13.0
 40
13.0
 40
14.0
 40
14.0
 40
15.0
 40
15.0
 40
16.0
 40
16.0
 40
17.0
 40
17.0
 40
18.0
 40
18.0
 40
19.0
 40
19.0
 40
20.0
 40
20.0
 40
21.0
 40
21.0
 40
22.0
 40
22.0
 40
23.0
 40
23.0
 40
24.0
 40
24.0
 40
25.0
 40
25.0
 40
26.0
 40
26.0
 40
27.0
 40
27.0
 40
28.0
 40
28.0
 40
29.0
 40
29.0
 40
30.0
 40
30.0
 40
31.0
 40
31.0
 40
32.0
 40
32.0
 40
33.0
 40
33.0
 40
34.0
 40
34.0
 40
35.0
 40
35.0
 40
36.0
 40
36.0
 40
37.0
 40
37.0
 40
38.0
 40
38.0
 40
39.0
 40
39.0
 40
40.0
 40
40.0
 40
41.0
 40
41.0
 40
42.0
 40
42.0
 40
43.0
 40
43.0
 40
44.0
 40
44.0
 40
45.0
 40
45.0
 40
46.0
 40
46.0
 40
47.0
 40
47.0
 40
48.0
 40
48.0
 40
49.0
 40
49.0
 40
50.0
 40
50.0
 40
51.0
 40
51.0
 40
52.0
 40
52.0
 40
53.0
 40
53.0
 40
54.0
 40
54.0
 40
55.0
 40
55.0
 40
56.0
 40
56.0
 40
57.0
 40
57.0
 40
58.0
 40
58.0
 40
59.0
 40
59.0
 40
60.0
 40
60.0
 40
61.0
 40
61.0
 40
62.0
 40
62.0
 40
63.0
 40
63.0
 40
64.0
 40
64.0
 40
65.0
 40
65.0
 40
66.0
 40
66.0
 40
67.0
 40
67.0
 40
68.0
 40
68.0
 40
69.0
 40
69.0
 40
70.0
 40
70.0
 40
71.0
 40
71.0
 40
72.0
 40
72.0
 40
73.0
 40
73.0
 40
74.0
 40
74.0
 40
75.0
 40
75.0
 40
76.0
 40
76.0
 40
77.0
 40
77.0
 40
78.0
 40
78.0
 40
79.0
 40
79.0
 40
80.0
 40
80.0
 40
81.0
 40
81.0
 40
82.0
 40
82.0
 40
83.0
 40
83.0
 40
84.0
 40
84.0
 40
85.0
 40
85.0
 40
86.0
 40
86.0
 40
87.0
 40
87.0
 40
88.0
 40
88.0
 40
89.0
 40
89.0
 40
90.0
 40
90.0
 40
91.0
 40
91.0
 40
92.0
 40
92.0
 40
93.0
 40
93.0
 40
94.0
 40
94.0
 40
95.0
 40
95.0
 40
96.0
 40
96.0
 40
97.0
 40
97.0
 40
98.0
 40
98.0
 40
99.0
 40
99.0
 40
100.0
 40
100.0
 40
101.0
 40
101.0
 40
102.0
 40
102.0
 40
103.0
 40
103.0
 40
104.0
 40
104.0
 40
105.0
 40
105.0
 40
106.0
 40
106.0
 40
107.0
 40
107.0
 40
108.0
 40
108.0
 40
109.0
 40
109.0
 40
110.0
 40
110.0
 40
111.0
 40
111.0
 40
112.0
 40
112.0
 40
113.0
 40
113.0
 40
114.0
 40
114.0
 40
115.0
 40
115.0
 40
116.0
 40
116.0
 40
117.0
 40
117.0
 40
118.0
 40
118.0
 40
119.0
 40
119.0
 40
120.0
 40
120.0
 40
121.0
 40
121.0
 40
122.0
 40
122.0
 40
123.0
 40
123.0
 40
124.0
 40
124.0
 40
125.0
 40
125.0
 40
126.0
 40
126.0
 40
127.0
 40
127.0
 40
128.0
 40
128.0
 40
129.0
 40
129.0
 40
130.0
 40
130.0
 40
131.0
 40
131.0
 40
132.0
 40
132.0
 40
133.0
 40
133.0
 40
134.0
 40
134.0
 40
135.0
 40
135.0
 40
136.0
 40
136.0
 40
137.0
 40
137.0
 40
138.0
 40
138.0
 40
139.0
 40
139.0
 40
140.0
 40
140.0
 40
141.0
 40
141.0
 40
142.0
 40
142.0
 40
143.0
 40
143.0
 40
144.0
 40
144.0
 40
145.0
 40
145.0
 40
146.0
 40
146.0
 40
147.0
 40
147.0
 40
148.0
 40
148.0
 40
149.0
 40
149.0
 40
150.0
 40
150.0
 40
151.0
 40
151.0
 40
152.0
 40
152.0
 40
153.0
 40
153.0
 40
154.0
 40
154.0
 40
155.0
 40
155.0
 40
156.0
 40
156.0
 40
157.0
 40
157.0
 40
158.0
 40
158.0
 40
159.0
 40
159.0
 40
160.0
 40
160.0
 40
161.0
 40
161.0
 40
162.0
 40
162.0
 40
163.0
 40
163.0
 40
164.0
 40
164.0
 40
165.0
 40
165.0
 40
166.0
 40
166.0
 40
167.0
 40
167.0
 40
168.0
 40
168.0
 40
169.0
 40
169.0
 40
170.0
 40
170.0
 40
171.0
 40
171.0
 40
172.0
 40
172.0
 40
173.0
 40
173.0
 40
174.0
 40
174.0
 40
175.0
 40
175.0
 40
176.0
 40
176.0
 40
177.0
 40
177.0
 40
178.0
 40
178.0
 40
179.0
 40
179.0
 40
180.0
 40
180.0
 40
181.0
 40
181.0
 40
182.0
 40
182.0
 40
183.0
 40
183.0
 40
184.0
 40
184.0
 40
185.0
 40
185.0
 40
186.0
 40
186.0
 40
187.0
 40
187.0
 40
188.0
 40
188.0
 40
189.0
 40
189.0
 40
190.0
 40
190.0
 40
191.0
 40
191.0
 40
192.0
 40
192.0
 40
193.0
 40
193.0
 40
194.0
 40
194.0
 40
195.0
 40
195.0
 40
196.0
 40
196.0
 40
197.0
 40
197.0
 40
198.0
 40
198.0
 40
199.0
 40
199.0
 40
200.0
 40
200.0
 40
201.0
 40
201.0
 40
202.0
 40
202.0
 40
203.0
 40
203.0
 40
204.0
 40
204.0
 40
205.0
 40
205.0
 40
206.0
 40
206.0
 40
207.0
 40
207.0
 40
208.0
 40
208.0
 40
209.0
 40
209.0
 40
210.0
 40
210.0
 40
211.0
 40
211.0
 40
212.0
 40
212.0
 40
213.0
 40
213.0
 40
214.0
 40
214.0
 40
215.0
 40
215.0
 40
216.0
 40
216.0
 40
217.0
 40
217.0
 40
218.0
 40
218.0
 40
219.0
 40
219.0
 40
220.0
 40
220.0
 40
221.0
 40
221.0
 40
222.0
 40
222.0
 40
223.0
 40
223.0
 40
224.0
 40
224.0
 40
225.0
 40
225.0
 40
226.0
 40
226.0
 40
227.0
 40
227.0
 40
228.0
 40
228.0
 40
229.0
 40
229.0
 40
230.0
 40
230.0
 40
231.0
 40
231.0
 40
232.0
 40
232.0
 40
233.0
 40
233.0
 40
234.0
 40
234.0
 40
235.0
 40
235.0
 40
236.0
 40
236.0
 40
237.0
 40
237.0
 40
238.0
 40
238.0
 40
239.0
 40
239.0
 40
240.0
 40
240.0
 40
241.0
 40
241.0
 40
242.0
 40
242.0
 40
243.0
 40
243.0
 40
244.0
 40
244.0
 40
245.0
 40
245.0
 40
246.0
 40
246.0
 40
247.0
 40
247.0
 40
248.0
 40
248.0
 40
249.0
 40
249.0
 40
250.0
 40
250.0
 40
251.0
 40
251.0
 40
252.0
 40
252.0
 40
253.0
 40
253.0
 40
254.0
 40
254.0
 40
255.0
 40
255.0
 40
256.0
 40
256.0
 40
257.0
 40
257.0
 40
258.0
 40
258.0
 40
259.0
 40
259.0
 40
260.0
 40
260.0
 40
261.0
 40
261.0
 40
262.0
 40
262.0
 40
263.0
 40
263.0
 40
264.0
 40
264.0
 40
265.0
 40
265.0
 40
266.0
 40
266.0
 40
267.0
 40
267.0
 40
268.0
 40
268.0
 40
269.0
 40
269.0
 40
270.0
 40
270.0
 40
271.0
 40
271.0
 40
272.0
 40
272.0
 40
273.0
 40
273.0
 40
274.0
 40
274.0
 40
275.0
 40
275.0
 40
276.0
 40
276.0
 40
277.0
 40
277.0
 40
278.0
 40
278.0
 40
279.0
 40
279.0
 40
280.0
 40
280.0
 40
281.0
 40
281.0
 40
282.0
 40
282.0
 40
283.0
 40
283.0
 40
284.0
 40
284.0
 40
285.0
 40
285.0
 40
286.0
 40
286.0
 40
287.0
 40
287.0
 40
288.0
 40
288.0
 40
289.0
 40
289.0
 40
290.0
 40
290.0
 40
291.0
 40
291.0
 40
292.0
 40
292.0
 40
293.0
 40
293.0
 40
294.0
 40
294.0
 40
295.0
 40
295.0
 40
296.0
 40
296.0
 40
297.0
 40
297.0
 40
298.0
 40
298.0
 40
299.0
 40
299.0
 40
300.0
 40
300.0
 40
301.0
 40
301.0
 40
302.0
 40
302.0
 40
303.0
 40
303.0
 40
304.0
 40
304.0
 40
305.0
 40
305.0
 40
306.0
 40
306.0
 40
307.0
 40
307.0
 40
308.0
 40
308.0
 40
309.0
 40
309.0
 40
310.0
 40
310.0
 40
311.0
 40
311.0
 40
312.0
 40
312.0
 40
313.0
 40
313.0
 40
314.0
 40
314.0
 40
315.0
 40
315.0
 40
316.0
 40
316.0
 40
317.0
 40
317.0
 40
318.0
 40
318.0
 40
319.0
 40
319.0
 40
320.0
 40
320.0
 40
321.0
 40
321.0
 40
322.0
 40
322.0
 40
323.0
 40
323.0
 40
324.0
 40
324.0
 40
325.0
 40
325.0
 40
326.0
 40
326.0
 40
327.0
 40
327.0
 40
328.0
 40
328.0
 40
329.0
 40
329.0
 40
330.0
 40
330.0
 40
331.0
 40
331.0
 40
332.0
 40
332.0
 40
333.0
 40
333.0
 40
334.0
 40
334.0
 40
335.0
 40
335.0
 40
336.0
 40
336.0
 40
337.0
 40
337.0
 40
338.0
 40
338.0
 40
339.0
 40
339.0
 40
340.0
 40
340.0
 40
341.0
 40
341.0
 40
342.0
 40
342.0
 40
343.0
 40
343.0
 40
344.0
 40
344.0
 40
345.0
 40
345.0
 40
346.0
 40
346.0
 40
347.0
 40
347.0
 40
348.0
 40
348.0
 40
349.0
 40
349.0
 40
350.0
 40
350.0
 40
351.0
 40
351.0
 40
352.0
 40
352.0
 40
353.0
 40
353.0
 40
354.0
 40
354.0
 40
355.0
 40
355.0
 40
356.0
 40
356.0
 40
357.0
 40
357.0
 40
358.0
 40
358.0
 40
359.0
 40
359.0
 40
360.0
 40
360.0
 40
361.0
 40
361.0
 40
362.0
 40
362.0
 40
363.0
 40
363.0
 40
364.0
 40
364.0
 40
365.0
 40
365.0
 40
366.0
 40
366.0
 40
367.0
 40
367.0
 40
368.0
 40
368.0
 40
369.0
 40
369.0
 40
370.0
 40
370.0
 40
371.0
 40
371.0
 40
372.0
 40
372.0
 40
373.0
 40
373.0
 40
374.0
 40
374.0
 40
375.0
 40
375.0
 40
376.0
 40
376.0
 40
377.0
 40
377.0
 40
378.0
 40
378.0
 40
379.0
 40
379.0
 40
380.0
 40
380.0
 40
381.0
 40
381.0
 40
382.0
 40
382.0
 40
383.0
 40
383.0
 40
384.0
 40
384.0
 40
385.0
 40
385.0
 40
386.0
 40
386.0
 40
387.0
 40
387.0
 40
388.0
 40
388.0
 40
389.0
 40
389.0
 40
389.0
 10
465.1499358244053
 20
-670.56496327954142
 30
0.0
 41
1.0
 10
465.55914787876566
 20
-670.56496327954142
 30
0.0
 41
1.0
 10
465.96835993312601
 20
-670.56496327954142
 30
0.0
 41
1.0
 10
465.7614830653676
 20
-671.23627641166627
 30
0.0
 41
1.0
 10
465.55460619760919
 20
-671.90758954379112
 30
0.0
 41
1.0
 10
465.56377594519711
 20
-671.89323915732939
 30
0.0
 41
0.9999957264427691
 10
465.57302944361692
 20
-671.87894263224712
 30
0.0
 41
1.0
 10
465.58824410568138
 20
-671.85543619306577
 30
0.0
 41
1.0
 10
465.60345876774585
 20
-671.83192975388431
 30
0.0
 41
1.0
 10
465.64314159029783
 20
-671.770620350434
 30
0.0
 41
0.9995394069081023
 10
465.68647078607387
 20
-671.71183131956309
 30
0.0
 41
1.0
 10
465.70434921720368
 20
-671.68757387326627
 30
0.0
 41
1.0
 10
465.7222276483335
 20
-671.66331642696957
 30
0.0
 41
1.0
 10
465.7890909822429
 20
-671.5725962894054
 30
0.0
 41
0.9994460617142653
 10
465.86184122288762
 20
-671.4865250905799
 30
0.0
 41
1.0
 10
465.8640353133751
 20
-671.48392925038866
 30
0.0
 41
1.0
 10
465.86622940386263
 20
-671.48133341019741
 30
0.0
 41
1.0
 10
465.93459146353126
 20
-671.40045389175566
 30
0.0
 41
0.9994359394934479
 10
466.0082285787073
 20
-671.32434579117285
 30
0.0
 41
1.0
 10
466.0094202556852
 20
-671.32311412598506
 30
0.0
 41
1.0
 10
466.01061193266304
 20
-671.32188246079716
 30
0.0
 41
1.0
 10
466.08186569388459
 20
-671.24823769058912
 30
0.0
 41
0.9995293688568241
 10
466.15750153437409
 20
-671.17910108450837
 30
0.0
 41
1.0
 10
466.16714841400727
 20
-671.17028314168147
 30
0.0
 41
1.0
 10
466.17679529364045
 20
-671.16146519885444
 30
0.0
 41
1.0
 10
466.23313737486774
 20
-671.10996447842422
 30
0.0
 41
0.9997087614803607
 10
466.29189881934275
 20
-671.06124233802745
 30
0.0
 41
1.0
 10
466.30148185592975
 20
-671.05329654877414
 30
0.0
 41
1.0
 10
466.31106489251675
 20
-671.04535075952072
 30
0.0
 41
1.0
 10
466.35066026382117
 20
-671.01252019762774
 30
0.0
 41
0.9999595338691755
 10
466.39083989924779
 20
-670.98040733230107
 30
0.0
 41
1.0
 10
466.43101953467271
 20
-670.94829446697554
 30
0.0
 41
0.9999749417499172
 10
466.47164980184681
 20
-670.91675369000052
 30
0.0
 41
1.0
 10
466.482142874928
 20
-670.90860804634974
 30
0.0
 41
1.0
 10
466.49263594800919
 20
-670.90046240269896
 30
0.0
 41
1.0
 10
466.53491989066276
 20
-670.86763789777638
 30
0.0
 41
0.9999792037129072
 10
466.57762369054831
 20
-670.83536150695409
 30
0.0
 41
1.0
 10
466.5880361035114
 20
-670.82749159581977
 30
0.0
 41
1.0
 10
466.59844851647449
 20
-670.81962168468533
 30
0.0
 41
1.0
 10
466.62032749043993
 20
-670.80308511612725
 30
0.0
 41
0.9999993374259528
 10
466.64216833350463
 20
-670.78649821842032
 30
0.0
 41
1.0
 10
466.66400917657637
 20
-670.76991132070816
 30
0.0
 41
0.9999160953816553
 10
466.68627238203857
 20
-670.75389578810734
 30
0.0
 41
1.0
 10
466.7026833257471
 20
-670.74209021031584
 30
0.0
 41
1.0
 10
466.71909426945558
 20
-670.73028463252422
 30
0.0
 41
1.0
 10
466.77417936233519
 20
-670.69065794434016
 30
0.0
 41
0.9980964527232897
 10
466.83372385908569
 20
-670.65811420791204
 30
0.0
 41
1.0
 10
466.85224016254904
 20
-670.64799421811585
 30
0.0
 41
1.0
 10
466.87075646601232
 20
-670.63787422831967
 30
0.0
 41
1.0
 10
466.96041997264916
 20
-670.58886910296872
 30
0.0
 41
0.9984572810571973
 10
467.05496425582913
 20
-670.55010797229534
 30
0.0
 41
1.0
 10
467.05678739052752
 20
-670.54936052612618
 30
0.0
 41
1.0
 10
467.0586105252259
 20
-670.54861307995702
 30
0.0
 41
1.0
 10
467.14950853900933
 20
-670.51134684162184
 30
0.0
 41
0.9987838528034222
 10
467.24363486828827
 20
-670.4832140215392
 30
0.0
 41
1.0
 10
467.24575384288698
 20
-670.48258069469421
 30
0.0
 41
1.0
 10
467.24787281748564
 20
-670.48194736784933
 30
0.0
 41
1.0
 10
467.33776119756743
 20
-670.45508120145644
 30
0.0
 41
0.9990652816207282
 10
467.42963416342582
 20
-670.4360793616853
 30
0.0
 41
1.0
 10
467.43222836394239
 20
-670.43554281013189
 30
0.0
 41
1.0
 10
467.43482256445895
 20
-670.43500625857848
 30
0.0
 41
1.0
 10
467.5215071292846
 20
-670.41707752191417
 30
0.0
 41
0.9992909934270041
 10
467.60929501251292
 20
-670.40572230568102
 30
0.0
 41
1.0
 10
467.69708289574214
 20
-670.39436708944777
 30
0.0
 41
0.9994553539448846
 10
467.78542861228874
 20
-670.38882743734462
 30
0.0
 41
1.0
 10
467.8031458161862
 20
-670.3877164933208
 30
0.0
 41
1.0
 10
467.82086302008366
 20
-670.38660554929686
 30
0.0
 41
1.0
 10
467.90397590336869
 20
-670.38139401809099
 30
0.0
 41
0.9990928098292758
 10
467.98723079932029
 20
-670.38327383870831
 30
0.0
 41
1.0
 10
468.00651171695449
 20
-670.38370918447481
 30
0.0
 41
1.0
 10
468.02579263458875
 20
-670.3841445302412
 30
0.0
 41
1.0
 10
468.07048569527001
 20
-670.38515365932551
 30
0.0
 41
0.9998382089205595
 10
468.11511353666486
 20
-670.38776972258972
 30
0.0
 41
1.0
 10
468.11532848977538
 20
-670.38778232304094
 30
0.0
 41
1.0
 10
468.11554344288589
 20
-670.38779492349204
 30
0.0
 41
1.0
 10
468.15974137805847
 20
-670.39038578585382
 30
0.0
 41
0.9997558016758482
 10
468.2037816666583
 20
-670.39492704353688
 30
0.0
 41
1.0
 10
468.20401973587468
 20
-670.3949515922784
 30
0.0
 41
1.0
 10
468.204257805091
 20
-670.39497614101981
 30
0.0
 41
1.0
 10
468.24782195526012
 20
-670.39946830122028
 30
0.0
 41
0.999656514418159
 10
468.29109088192962
 20
-670.40623695456452
 30
0.0
 41
1.0
 10
468.29132384461997
 20
-670.40627339743037
 30
0.0
 41
1.0
 10
468.29155680731031
 20
-670.40630984029633
 30
0.0
 41
1.0
 10
468.33435980860219
 20
-670.41300560790944
 30
0.0
 41
0.9995321806867971
 10
468.37667334876465
 20
-670.42230585212383
 30
0.0
 41
1.0
 10
468.37686794604929
 20
-670.42234862335647
 30
0.0
 41
1.0
 10
468.37706254333398
 20
-670.42239139458911
 30
0.0
 41
1.0
 10
468.41898688892752
 20
-670.4316060963381
 30
0.0
 41
0.9993819199219302
 10
468.4601601560268
 20
-670.44374378796874
 30
0.0
 41
1.0
 10
468.46027937277603
 20
-670.4437789325234
 30
0.0
 41
1.0
 10
468.46039858952525
 20
-670.44381407707817
 30
0.0
 41
1.0
 10
468.501333423125
 20
-670.45588147959904
 30
0.0
 41
0.9992088568505272
 10
468.54117968261897
 20
-670.47116409749628
 30
0.0
 41
1.0
 10
468.58102017805845
 20
-670.48644389786284
 30
0.0
 41
0.9990226101772934
 10
468.61935551301207
 20
-670.50518261367017
 30
0.0
 41
1.0
 10
468.6576850839113
 20
-670.52391851194704
 30
0.0
 41
0.9988424273972606
 10
468.69403689751761
 20
-670.54625089957358
 30
0.0
 41
1.0
 10
468.69417075170713
 20
-670.54633313160957
 30
0.0
 41
1.0
 10
468.6943046058966
 20
-670.54641536364556
 30
0.0
 41
1.0
 10
468.73092412788219
 20
-670.56891221534431
 30
0.0
 41
0.9986928844491059
 10
468.76505556123681
 20
-670.59503008248396
 30
0.0
 41
1.0
 10
468.76534620734822
 20
-670.5952524890979
 30
0.0
 41
1.0
 10
468.76563685345963
 20
-670.59547489571196
 30
0.0
 41
1.0
 10
468.80034957903712
 20
-670.62203757607949
 30
0.0
 41
0.9986007262278492
 10
468.83206266392034
 20
-670.65211796092603
 30
0.0
 41
1.0
 10
468.83250987164917
 20
-670.65254214484378
 30
0.0
 41
1.0
 10
468.83295707937799
 20
-670.65296632876152
 30
0.0
 41
1.0
 10
468.86556457971852
 20
-670.68389508144332
 30
0.0
 41
0.9985581491380922
 10
468.89466838556945
 20
-670.71814132657926
 30
0.0
 41
1.0
 10
468.89929761236738
 20
-670.72358850543014
 30
0.0
 41
1.0
 10
468.90392683916525
 20
-670.72903568428103
 30
0.0
 41
1.0
 10
468.94228909861164
 20
-670.77417628711817
 30
0.0
 41
0.9970460233520317
 10
468.97328504919136
 20
-670.82465982920928
 30
0.0
 41
1.0
 10
468.98051973173148
 20
-670.83644305875055
 30
0.0
 41
1.0
 10
468.98775441427159
 20
-670.8482262882917
 30
0.0
 41
1.0
 10
469.00762276427707
 20
-670.8805861503065
 30
0.0
 41
0.9988468816637315
 10
469.02429594965292
 20
-670.91470237652015
 30
0.0
 41
1.0
 10
469.02781396089864
 20
-670.92190083708874
 30
0.0
 41
1.0
 10
469.03133197214436
 20
-670.92909929765744
 30
0.0
 41
1.0
 10
469.04096913502798
 20
-670.94881860273222
 30
0.0
 41
0.999843118999897
 10
469.04990179877626
 20
-670.96886687995436
 30
0.0
 41
1.0
 10
469.05883446252528
 20
-670.9889151571781
 30
0.0
 41
0.9999989989959611
 10
469.0678238242387
 20
-671.00893807597561
 30
0.0
 41
1.0
 10
469.07090998003378
 20
-671.01581218437741
 30
0.0
 41
1.0
 10
469.07399613582891
 20
-671.02268629277933
 30
0.0
 41
1.0
 10
469.08915780913378
 20
-671.05645742838317
 30
0.0
 41
0.9998790356323553
 10
469.1032617492038
 20
-671.09068380435428
 30
0.0
 41
1.0
 10
469.10667933984598
 20
-671.09897735506797
 30
0.0
 41
1.0
 10
469.11009693048811
 20
-671.10727090578166
 30
0.0
 41
1.0
 10
469.12187576167742
 20
-671.13585488322212
 30
0.0
 41
0.9998227574561264
 10
469.13257013587219
 20
-671.16486203736122
 30
0.0
 41
1.0
 10
469.14326451006707
 20
-671.19386919150111
 30
0.0
 41
0.9996797971042278
 10
469.15247765254651
 20
-671.22338025105944
 30
0.0
 41
1.0
 10
469.15442955390927
 20
-671.22963248014378
 30
0.0
 41
1.0
 10
469.15638145527203
 20
-671.23588470922812
 30
0.0
 41
1.0
 10
469.16949840047715
 20
-671.27790022695615
 30
0.0
 41
0.9979274938734609
 10
469.17711066221682
 20
-671.32125240628636
 30
0.0
 41
1.0
 10
469.17822250584732
 20
-671.32758440669659
 30
0.0
 41
1.0
 10
469.17933434947787
 20
-671.33391640710681
 30
0.0
 41
1.0
 10
469.184799319327
 20
-671.36503966075213
 30
0.0
 41
0.9994985982138761
 10
469.18828340191561
 20
-671.3964464113235
 30
0.0
 41
1.0
 10
469.19176748450406
 20
-671.4278531618919
 30
0.0
 41
0.9996372611199577
 10
469.19355541738787
 20
-671.45940195123285
 30
0.0
 41
1.0
 10
469.19363970613261
 20
-671.46088925977529
 30
0.0
 41
1.0
 10
469.19372399487736
 20
-671.46237656831772
 30
0.0
 41
1.0
 10
469.19568050525055
 20
-671.49689997474024
 30
0.0
 41
0.9997730630735601
 10
469.1961646619946
 20
-671.53147538675933
 30
0.0
 41
1.0
 10
469.19619321520361
 20
-671.53351447632951
 30
0.0
 41
1.0
 10
469.19622176841267
 20
-671.5355535658997
 30
0.0
 41
1.0
 10
469.19676303157479
 20
-671.57420715705837
 30
0.0
 41
0.9998772614070612
 10
469.19609298820893
 20
-671.61285873033682
 30
0.0
 41
1.0
 10
469.19604835660954
 20
-671.6154333122563
 30
0.0
 41
1.0
 10
469.19600372501014
 20
-671.61800789417578
 30
0.0
 41
1.0
 10
469.19524441844567
 20
-671.6618086312875
 30
0.0
 41
0.9999415567331803
 10
469.19353826332281
 20
-671.70558271212474
 30
0.0
 41
1.0
 10
469.19341760298505
 20
-671.7086784419962
 30
0.0
 41
1.0
 10
469.19329694264724
 20
-671.71177417186777
 30
0.0
 41
1.0
 10
469.19134946684886
 20
-671.76173971244498
 30
0.0
 41
0.9999716810425007
 10
469.18865017528952
 20
-671.81167028156085
 30
0.0
 41
1.0
 10
469.18704377589478
 20
-671.84138490639543
 30
0.0
 41
1.0
 10
469.18543737650003
 20
-671.87109953123002
 30
0.0
 41
1.0
 10
469.18140042192408
 20
-671.94577373186246
 30
0.0
 41
0.9999819129911716
 10
469.17646552611626
 20
-672.02039397071053
 30
0.0
 41
1.0
 10
469.17153063030793
 20
-672.09501420956622
 30
0.0
 41
1.0
 10
469.17031097002604
 20
-672.113610732491
 30
0.0
 41
1.0
 10
469.18166008694152
 20
-672.0942402338261
 30
0.0
 41
0.9999982128143379
 10
469.19308236631025
 20
-672.07491278686246
 30
0.0
 41
1.0
 10
469.20653714625723
 20
-672.0521461798271
 30
0.0
 41
1.0
 10
469.21999192620416
 20
-672.02937957279187
 30
0.0
 41
1.0
 10
469.25832376546782
 20
-671.96451891175593
 30
0.0
 41
0.999860919005529
 10
469.29879742189837
 20
-671.90097272079186
 30
0.0
 41
1.0
 10
469.3136215826413
 20
-671.8776978543101
 30
0.0
 41
1.0
 10
469.32844574338418
 20
-671.85442298782823
 30
0.0
 41
1.0
 10
469.36958185349988
 20
-671.78983670283549
 30
0.0
 41
0.9999067609732328
 10
469.41246635823018
 20
-671.72639785811702
 30
0.0
 41
1.0
 10
469.4136687098329
 20
-671.72461922508614
 30
0.0
 41
1.0
 10
469.41487106143569
 20
-671.72284059205538
 30
0.0
 41
1.0
 10
469.45535086296331
 20
-671.66295901339481
 30
0.0
 41
0.9998784952150696
 10
469.4976776678028
 20
-671.60436840504212
 30
0.0
 41
1.0
 10
469.54000447264195
 20
-671.54577779668966
 30
0.0
 41
0.9998532968284815
 10
469.58431328305164
 20
-671.48867134245677
 30
0.0
 41
1.0
 10
469.59429417754984
 20
-671.47580768194325
 30
0.0
 41
1.0
 10
469.60427507204804
 20
-671.46294402142973
 30
0.0
 41
1.0
 10
469.66351709692663
 20
-671.38659121594674
 30
0.0
 41
0.9991551975795584
 10
469.72882932173729
 20
-671.31536143490621
 30
0.0
 41
1.0
 10
469.73058412972699
 20
-671.31344763409425
 30
0.0
 41
1.0
 10
469.73233893771669
 20
-671.31153383328228
 30
0.0
 41
1.0
 10
469.79414154654938
 20
-671.2441316538642
 30
0.0
 41
0.9997418144182065
 10
469.85894261639936
 20
-671.17960694855833
 30
0.0
 41
1.0
 10
469.92374368625002
 20
-671.11508224325178
 30
0.0
 41
0.9989238204633519
 10
469.99424496037648
 20
-671.05683976223145
 30
0.0
 41
1.0
 10
470.01686879944532
 20
-671.03814976642775
 30
0.0
 41
1.0
 10
470.03949263851422
 20
-671.01945977062417
 30
0.0
 41
1.0
 10
470.10961266712542
 20
-670.96153224397835
 30
0.0
 41
0.9990825084096953
 10
470.18443263342726
 20
-670.9098177450619
 30
0.0
 41
1.0
 10
470.18945531545478
 20
-670.90634613852285
 30
0.0
 41
1.0
 10
470.19447799748224
 20
-670.90287453198368
 30
0.0
 41
1.0
 10
470.25925259972826
 20
-670.8581032461459
 30
0.0
 41
0.9998164899826016
 10
470.32569470141749
 20
-670.81584612538722
 30
0.0
 41
1.0
 10
470.33161748167845
 20
-670.81207924212572
 30
0.0
 41
1.0
 10
470.33754026193947
 20
-670.8083123588641
 30
0.0
 41
1.0
 10
470.39213680310382
 20
-670.77358900463014
 30
0.0
 41
0.9997473449132058
 10
470.44823878173031
 20
-670.74135452572114
 30
0.0
 41
1.0
 10
470.50434076035287
 20
-670.70912004681441
 30
0.0
 41
0.9999327861140275
 10
470.56117506573531
 20
-670.67819505097339
 30
0.0
 41
1.0
 10
470.56145106701638
 20
-670.67804487163346
 30
0.0
 41
1.0
 10
470.56172706829739
 20
-670.67789469229353
 30
0.0
 41
1.0
 10
470.61911337624053
 20
-670.64666933777346
 30
0.0
 41
0.999695642048426
 10
470.67797003916024
 20
-670.61831260428607
 30
0.0
 41
1.0
 10
470.69319024160552
 20
-670.61097961592168
 30
0.0
 41
1.0
 10
470.70841044405074
 20
-670.60364662755717
 30
0.0
 41
1.0
 10
470.75989899742353
 20
-670.5788397983348
 30
0.0
 41
0.9998070570176955
 10
470.81232219189496
 20
-670.55607450488401
 30
0.0
 41
1.0
 10
470.86474538636634
 20
-670.53330921143311
 30
0.0
 41
0.9997827436147591
 10
470.91807185467212
 20
-670.51274862577702
 30
0.0
 41
1.0
 10
470.92768327948698
 20
-670.50904283896114
 30
0.0
 41
1.0
 10
470.93729470430185
 20
-670.50533705214525
 30
0.0
 41
1.0
 10
471.00984402223929
 20
-670.4773648928566
 30
0.0
 41
0.9988031841976724
 10
471.08477920354255
 20
-670.45661486077256
 30
0.0
 41
1.0
 10
471.09723782772244
 20
-670.45316498786951
 30
0.0
 41
1.0
 10
471.10969645190238
 20
-670.44971511496658
 30
0.0
 41
1.0
 10
471.19333146472678
 20
-670.42655604376284
 30
0.0
 41
0.9984748040550016
 10
471.27900991905187
 20
-670.41275892763019
 30
0.0
 41
1.0
 10
471.28137948717671
 20
-670.41237734737342
 30
0.0
 41
1.0
 10
471.28374905530154
 20
-670.41199576711665
 30
0.0
 41
1.0
 10
471.36468837337662
 20
-670.39896181149766
 30
0.0
 41
0.998443649547937
 10
471.4465757452387
 20
-670.39502283458842
 30
0.0
 41
1.0
 10
471.45742434930423
 20
-670.3945009909886
 30
0.0
 41
1.0
 10
471.46827295336982
 20
-670.39397914738879
 30
0.0
 41
1.0
 10
471.5284631171009
 20
-670.39108385767918
 30
0.0
 41
0.998795478933552
 10
471.58864723955594
 20
-670.3941021215503
 30
0.0
 41
1.0
 10
471.59862963580281
 20
-670.39460274371959
 30
0.0
 41
1.0
 10
471.60861203204973
 20
-670.39510336588887
 30
0.0
 41
1.0
 10
471.64883136201058
 20
-670.39712038542143
 30
0.0
 41
0.9997941595878396
 10
471.68893575105807
 20
-670.40076741838186
 30
0.0
 41
1.0
 10
471.72904014010669
 20
-670.4044144513424
 30
0.0
 41
0.9998589466235049
 10
471.7689994135356
 20
-670.40940637856761
 30
0.0
 41
1.0
 10
471.78520251443837
 20
-670.41143055702707
 30
0.0
 41
1.0
 10
471.80140561534114
 20
-670.41345473548654
 30
0.0
 41
1.0
 10
471.87377109057604
 20
-670.42249501963056
 30
0.0
 41
0.9993495063249115
 10
471.94529671245783
 20
-670.43672787450134
 30
0.0
 41
1.0
 10
471.96176356103581
 20
-670.44000460610914
 30
0.0
 41
1.0
 10
471.97823040961379
 20
-670.44328133771694
 30
0.0
 41
1.0
 10
472.03287732121538
 20
-670.45415550478458
 30
0.0
 41
0.9996788715561422
 10
472.08690310719214
 20
-670.46778440446576
 30
0.0
 41
1.0
 10
472.08793460846118
 20
-670.46804461775218
 30
0.0
 41
1.0
 10
472.08896610973028
 20
-670.46830483103849
 30
0.0
 41
1.0
 10
472.14092889316976
 20
-670.48141330414717
 30
0.0
 41
0.9995480654492477
 10
472.192010010785
 20
-670.49762078245953
 30
0.0
 41
1.0
 10
472.19285483185013
 20
-670.49788883491669
 30
0.0
 41
1.0
 10
472.19369965291526
 20
-670.49815688737385
 30
0.0
 41
1.0
 10
472.24309112840024
 20
-670.51382826077202
 30
0.0
 41
0.999386795945623
 10
472.29126470762094
 20
-670.53291794541667
 30
0.0
 41
1.0
 10
472.29188618216301
 20
-670.53316421636464
 30
0.0
 41
1.0
 10
472.29250765670514
 20
-670.53341048731272
 30
0.0
 41
1.0
 10
472.33943828684198
 20
-670.55200763006144
 30
0.0
 41
0.9992050256521965
 10
472.38473812435893
 20
-670.57428457968081
 30
0.0
 41
1.0
 10
472.38510546571547
 20
-670.57446522591135
 30
0.0
 41
1.0
 10
472.38547280707206
 20
-670.57464587214201
 30
0.0
 41
1.0
 10
472.43003796187588
 20
-670.59656152930029
 30
0.0
 41
0.9990222350741221
 10
472.47249299257254
 20
-670.6223281631494
 30
0.0
 41
1.0
 10
472.47258493521412
 20
-670.62238396460202
 30
0.0
 41
1.0
 10
472.47267687785569
 20
-670.62243976605453
 30
0.0
 41
1.0
 10
472.51494802326965
 20
-670.64809479699875
 30
0.0
 41
0.9988642743804848
 10
472.55458529057881
 20
-670.67765689076111
 30
0.0
 41
1.0
 10
472.59422255788837
 20
-670.70721898452371
 30
0.0
 41
0.9987681233310506
 10
472.63073445002601
 20
-670.74056433022383
 30
0.0
 41
1.0
 10
472.63089891400909
 20
-670.74071453083116
 30
0.0
 41
1.0
 10
472.63106337799223
 20
-670.74086473143836
 30
0.0
 41
1.0
 10
472.66790419809632
 20
-670.77451047835314
 30
0.0
 41
0.9987496570898807
 10
472.70120110076033
 20
-670.8116668853969
 30
0.0
 41
1.0
 10
472.70158718564028
 20
-670.81209772207558
 30
0.0
 41
1.0
 10
472.70197327052028
 20
-670.81252855875425
 30
0.0
 41
1.0
 10
472.73604234294453
 20
-670.85054663915571
 30
0.0
 41
0.9988147669827048
 10
472.76625347005671
 20
-670.8916971425765
 30
0.0
 41
1.0
 10
472.76681313309564
 20
-670.89245945825292
 30
0.0
 41
1.0
 10
472.76737279613451
 20
-670.89322177392921
 30
0.0
 41
1.0
 10
472.79870324932432
 20
-670.93589690870238
 30
0.0
 41
0.99894526362158
 10
472.82598670580518
 20
-670.98126625328166
 30
0.0
 41
1.0
 10
472.82666106884801
 20
-670.98238764379482
 30
0.0
 41
1.0
 10
472.8273354318909
 20
-670.98350903430799
 30
0.0
 41
1.0
 10
472.85596761445709
 20
-671.0311211599128
 30
0.0
 41
0.999104643607087
 10
472.88047222111777
 20
-671.08098337642502
 30
0.0
 41
1.0
 10
472.88120415191293
 20
-671.08247271646155
 30
0.0
 41
1.0
 10
472.88193608270814
 20
-671.08396205649819
 30
0.0
 41
1.0
 10
472.90790455095924
 20
-671.13680295308382
 30
0.0
 41
0.9992763831100637
 10
472.92978111523655
 20
-671.1914649840611
 30
0.0
 41
1.0
 10
472.93052075006824
 20
-671.19331307782807
 30
0.0
 41
1.0
 10
472.93126038489999
 20
-671.19516117159503
 30
0.0
 41
1.0
 10
472.9546162188409
 20
-671.25351939010704
 30
0.0
 41
0.9994163472883682
 10
472.97393273443549
 20
-671.31333618433814
 30
0.0
 41
1.0
 10
472.97455181055875
 20
-671.3152532562292
 30
0.0
 41
1.0
 10
472.97517088668206
 20
-671.31717032812026
 30
0.0
 41
1.0
 10
472.99511266719088
 20
-671.37892335885999
 30
0.0
 41
0.9997268055890419
 10
473.01214669514701
 20
-671.44154087483594
 30
0.0
 41
1.0
 10
473.01261178528188
 20
-671.44325055789068
 30
0.0
 41
1.0
 10
473.01307687541674
 20
-671.44496024094542
 30
0.0
 41
1.0
 10
473.02918072310285
 20
-671.50415839081052
 30
0.0
 41
0.9996701319000291
 10
473.04222353148828
 20
-671.56410536744318
 30
0.0
 41
1.0
 10
473.05526633987358
 20
-671.6240523440747
 30
0.0
 41
0.9995785451108746
 10
473.06480812854329
 20
-671.68465522459053
 30
0.0
 41
1.0
 10
473.06691801963007
 20
-671.6980558019726
 30
0.0
 41
1.0
 10
473.0690279107169
 20
-671.71145637935467
 30
0.0
 41
1.0
 10
473.08231539868626
 20
-671.79584936620677
 30
0.0
 41
0.9979925101216862
 10
473.08482819164948
 20
-671.8812450302529
 30
0.0
 41
1.0
 10
473.0852405978618
 20
-671.89526039199109
 30
0.0
 41
1.0
 10
473.08565300407406
 20
-671.90927575372916
 30
0.0
 41
1.0
 10
473.08734098461281
 20
-671.96664069429505
 30
0.0
 41
0.999531490226255
 10
473.0855158885434
 20
-672.02400143617479
 30
0.0
 41
1.0
 10
473.08369079247416
 20
-672.08136217804986
 30
0.0
 41
0.9996245486944937
 10
473.07872624490886
 20
-672.13853681361138
 30
0.0
 41
1.0
 10
473.07864472091171
 20
-672.13947569167965
 30
0.0
 41
1.0
 10
473.0785631969145
 20
-672.14041456974792
 30
0.0
 41
1.0
 10
473.07343560135473
 20
-672.19946696144609
 30
0.0
 41
0.9997286095000642
 10
473.06556293956896
 20
-672.25821641589357
 30
0.0
 41
1.0
 10
473.06536619324385
 20
-672.25968462824403
 30
0.0
 41
1.0
 10
473.06516944691873
 20
-672.26115284059438
 30
0.0
 41
1.0
 10
473.05690329248324
 20
-672.32283871973959
 30
0.0
 41
0.9998265533968804
 10
473.0463455631172
 20
-672.38417395713259
 30
0.0
 41
1.0
 10
473.04600729204816
 20
-672.38613914638904
 30
0.0
 41
1.0
 10
473.04566902097912
 20
-672.38810433564538
 30
0.0
 41
1.0
 10
473.03443474947653
 20
-672.4533699515431
 30
0.0
 41
0.9999022530851204
 10
473.02138001717174
 20
-672.51829593586126
 30
0.0
 41
1.0
 10
473.02089069658859
 20
-672.52072950705747
 30
0.0
 41
1.0
 10
473.0204013760054
 20
-672.52316307825356
 30
0.0
 41
1.0
 10
473.00636800253551
 20
-672.59295620495823
 30
0.0
 41
0.9999524761940212
 10
472.99097651811866
 20
-672.66246245153798
 30
0.0
 41
1.0
 10
472.9903384645304
 20
-672.66534383119142
 30
0.0
 41
1.0
 10
472.98970041094219
 20
-672.66822521084475
 30
0.0
 41
1.0
 10
472.97303281934995
 20
-672.74349421672662
 30
0.0
 41
0.9999813588719549
 10
472.95544731895455
 20
-672.81855407304397
 30
0.0
 41
1.0
 10
472.95467035622471
 20
-672.82187036826178
 30
0.0
 41
1.0
 10
472.95389339349492
 20
-672.8251866634796
 30
0.0
 41
1.0
 10
472.93475396763745
 20
-672.90687911024293
 30
0.0
 41
0.9999955237653345
 10
472.91512602864395
 20
-672.98845556205936
 30
0.0
 41
1.0
 10
472.90898521082988
 20
-673.01397765730781
 30
0.0
 41
1.0
 10
472.90284439301581
 20
-673.03949975255637
 30
0.0
 41
1.0
 10
472.87093481838792
 20
-673.17212039489596
 30
0.0
 41
0.9999993604173487
 10
472.83872534480281
 20
-673.3046685202429
 30
0.0
 41
1.0
 10
472.83636592703152
 20
-673.31437797425394
 30
0.0
 41
1.0
 10
472.83400650926023
 20
-673.32408742826499
 30
0.0
 41
1.0
 10
472.79707820013084
 20
-673.47605446164175
 30
0.0
 41
0.9999659914720618
 10
472.75764840218716
 20
-673.62739173492503
 30
0.0
 41
1.0
 10
472.75517205772195
 20
-673.63689630351587
 30
0.0
 41
1.0
 10
472.75269571325674
 20
-673.6464008721066
 30
0.0
 41
1.0
 10
472.70831322638332
 20
-673.81674728256849
 30
0.0
 41
0.9999441976026277
 10
472.66034170990048
 20
-673.98611799522166
 30
0.0
 41
1.0
 10
472.65199145068857
 20
-674.01559985148242
 30
0.0
 41
1.0
 10
472.64364119147666
 20
-674.04508170774329
 30
0.0
 41
1.0
 10
472.57896915656897
 20
-674.27341613292174
 30
0.0
 41
0.9999625120738739
 10
472.51035277290697
 20
-674.50059639992094
 30
0.0
 41
1.0
 10
472.49245780136516
 20
-674.55984441323551
 30
0.0
 41
1.0
 10
472.47456282982341
 20
-674.61909242655008
 30
0.0
 41
1.0
 10
472.43730272780374
 20
-674.7424559655982
 30
0.0
 41
0.9999793386303736
 10
472.39845971623549
 20
-674.86533028521467
 30
0.0
 41
1.0
 10
472.35961670466662
 20
-674.98820460483273
 30
0.0
 41
1.0
 10
472.35422692523122
 20
-675.00521355702006
 30
0.0
 41
1.0
 10
471.42904039859667
 20
-677.94874951825386
 30
0.0
 41
1.0
 10
470.50385387196212
 20
-680.89228547948755
 30
0.0
 41
1.0
 10
470.02322552695028
 20
-680.89228547948755
 30
0.0
 41
1.0
 10
469.54259718193845
 20
-680.89228547948755
 30
0.0
 41
1.0
 10
470.35206957127775
 20
-678.31827122859283
 30
0.0
 41
1.0
 10
471.16154196061706
 20
-675.74425697769811
 30
0.0
 41
1.0
 10
471.18412487220155
 20
-675.6722413665716
 30
0.0
 41
1.0
 10
471.2067077837861
 20
-675.60022575544519
 30
0.0
 41
1.0
 10
471.2918599924684
 20
-675.32868024086133
 30
0.0
 41
0.9999911657899649
 10
471.37472639831282
 20
-675.05642847516526
 30
0.0
 41
1.0
 10
471.38957437005837
 20
-675.00764650515532
 30
0.0
 41
1.0
 10
471.40442234180392
 20
-674.95886453514538
 30
0.0
 41
1.0
 10
471.45759280414825
 20
-674.78417670949852
 30
0.0
 41
0.9999952428164401
 10
471.50968459881534
 20
-674.6091641973087
 30
0.0
 41
1.0
 10
471.51221433397723
 20
-674.60066506018575
 30
0.0
 41
1.0
 10
471.51474406913911
 20
-674.59216592306279
 30
0.0
 41
1.0
 10
471.56177639347425
 20
-674.43415168514593
 30
0.0
 41
0.9999931687481017
 10
471.60763931241473
 20
-674.27579407849862
 30
0.0
 41
1.0
 10
471.61010694464284
 20
-674.26727372386881
 30
0.0
 41
1.0
 10
471.61257457687094
 20
-674.25875336923912
 30
0.0
 41
1.0
 10
471.65350223135181
 20
-674.11743647186267
 30
0.0
 41
0.9999893840792957
 10
471.69312584458009
 20
-673.97574840723996
 30
0.0
 41
1.0
 10
471.7327494578069
 20
-673.83406034262282
 30
0.0
 41
0.999983398006956
 10
471.7707375781726
 20
-673.6919250511279
 30
0.0
 41
1.0
 10
471.77523954653623
 20
-673.67508061187948
 30
0.0
 41
1.0
 10
471.7797415148998
 20
-673.65823617263106
 30
0.0
 41
1.0
 10
471.81422378933394
 20
-673.52921825647877
 30
0.0
 41
0.9999233658066147
 10
471.84550127494515
 20
-673.39938617711357
 30
0.0
 41
1.0
 10
471.87677876055528
 20
-673.26955409775223
 30
0.0
 41
1.0
 10
471.89652046998401
 20
-673.18765076553916
 30
0.0
 41
1.0
 10
471.89900977197271
 20
-673.17732328460374
 30
0.0
 41
1.0
 10
471.90149907396136
 20
-673.16699580366844
 30
0.0
 41
1.0
 10
471.91626217941439
 20
-673.10574743331938
 30
0.0
 41
0.9999868670866049
 10
471.93039672141094
 20
-673.04435096050338
 30
0.0
 41
1.0
 10
471.93234546498974
 20
-673.03588616679531
 30
0.0
 41
1.0
 10
471.93429420856853
 20
-673.02742137308712
 30
0.0
 41
1.0
 10
471.94453126340869
 20
-672.98295448768249
 30
0.0
 41
0.9999778173346207
 10
471.95417506246679
 20
-672.93835517906541
 30
0.0
 41
1.0
 10
471.96381886152432
 20
-672.89375587045049
 30
0.0
 41
0.9999602692860125
 10
471.97266604084149
 20
-672.84899172622886
 30
0.0
 41
1.0
 10
471.97426795687949
 20
-672.84088649879004
 30
0.0
 41
1.0
 10
471.97586987291749
 20
-672.83278127135134
 30
0.0
 41
1.0
 10
471.98792088431048
 20
-672.77180667225275
 30
0.0
 41
0.9995617985320768
 10
471.99634255791983
 20
-672.71022579840019
 30
0.0
 41
1.0
 10
471.99757480287303
 20
-672.70121538971694
 30
0.0
 41
1.0
 10
471.99880704782618
 20
-672.69220498103357
 30
0.0
 41
1.0
 10
472.00894867835029
 20
-672.61804745618338
 30
0.0
 41
0.9991121410640015
 10
472.01281135514444
 20
-672.54329940678019
 30
0.0
 41
1.0
 10
472.01327075015672
 20
-672.53440948849175
 30
0.0
 41
1.0
 10
472.01373014516906
 20
-672.5255195702033
 30
0.0
 41
1.0
 10
472.01667403193863
 20
-672.4685513573769
 30
0.0
 41
0.9989792494904712
 10
472.01446448587984
 20
-672.41154993942803
 30
0.0
 41
1.0
 10
472.01414049994548
 20
-672.40319181646464
 30
0.0
 41
1.0
 10
472.01381651401118
 20
-672.39483369350137
 30
0.0
 41
1.0
 10
472.01225493982105
 20
-672.35454852148052
 30
0.0
 41
0.9997820295395749
 10
472.00901294113334
 20
-672.31436366060677
 30
0.0
 41
1.0
 10
472.00577094244579
 20
-672.27417879973666
 30
0.0
 41
0.999833510597309
 10
472.00106484468984
 20
-672.23413899151046
 30
0.0
 41
1.0
 10
472.00026738235158
 20
-672.22735412626855
 30
0.0
 41
1.0
 10
471.99946992001338
 20
-672.22056926102664
 30
0.0
 41
1.0
 10
471.99316889758137
 20
-672.16695972232048
 30
0.0
 41
0.9996876457879738
 10
471.98419694118229
 20
-672.11373200846231
 30
0.0
 41
1.0
 10
471.98308110960932
 20
-672.10711214083972
 30
0.0
 41
1.0
 10
471.9819652780364
 20
-672.10049227321701
 30
0.0
 41
1.0
 10
471.97506736732601
 20
-672.05956920123867
 30
0.0
 41
0.9995547496495348
 10
471.9657407063799
 20
-672.01913045264394
 30
0.0
 41
1.0
 10
471.9655537279441
 20
-672.01831974729043
 30
0.0
 41
1.0
 10
471.96536674950823
 20
-672.01750904193693
 30
0.0
 41
1.0
 10
471.95641404543363
 20
-671.97869170404852
 30
0.0
 41
0.9994899427175364
 10
471.9450015910939
 20
-671.9405250626312
 30
0.0
 41
1.0
 10
471.9447723277234
 20
-671.93975833773641
 30
0.0
 41
1.0
 10
471.94454306435284
 20
-671.93899161284162
 30
0.0
 41
1.0
 10
471.93358913675434
 20
-671.90235842121444
 30
0.0
 41
0.9993784877591024
 10
471.92008131920085
 20
-671.86658806863443
 30
0.0
 41
1.0
 10
471.91981547371239
 20
-671.86588407727413
 30
0.0
 41
1.0
 10
471.91954962822393
 20
-671.86518008591383
 30
0.0
 41
1.0
 10
471.9065735016477
 20
-671.83081771605532
 30
0.0
 41
0.9992430832254878
 10
471.89096523406783
 20
-671.79756814002076
 30
0.0
 41
1.0
 10
471.89067417603951
 20
-671.79694811246202
 30
0.0
 41
1.0
 10
471.89038311801119
 20
-671.79632808490328
 30
0.0
 41
1.0
 10
471.87535696648791
 20
-671.76431856398608
 30
0.0
 41
0.9990789632797803
 10
471.85764165309985
 20
-671.73371525811194
 30
0.0
 41
1.0
 10
471.85734380000901
 20
-671.73320071518265
 30
0.0
 41
1.0
 10
471.85704594691816
 20
-671.73268617225335
 30
0.0
 41
1.0
 10
471.83992633971189
 20
-671.70311195223769
 30
0.0
 41
0.9988874801120135
 10
471.82009670169543
 20
-671.67528209602824
 30
0.0
 41
1.0
 10
471.8198189386635
 20
-671.67489227019109
 30
0.0
 41
1.0
 10
471.81954117563163
 20
-671.67450244435406
 30
0.0
 41
1.0
 10
471.80026706367954
 20
-671.64745223981959
 30
0.0
 41
0.9986762060694173
 10
471.77831582804123
 20
-671.62252538259963
 30
0.0
 41
1.0
 10
471.77809384787497
 20
-671.62227331169117
 30
0.0
 41
1.0
 10
471.77787186770877
 20
-671.62202124078271
 30
0.0
 41
1.0
 10
471.75636459240286
 20
-671.59759852537957
 30
0.0
 41
0.9984621642486127
 10
471.73228581401423
 20
-671.57570687514453
 30
0.0
 41
1.0
 10
471.7321624967559
 20
-671.57559475906271
 30
0.0
 41
1.0
 10
471.73203917949758
 20
-671.57548264298089
 30
0.0
 41
1.0
 10
471.70820703562538
 20
-671.55381522490893
 30
0.0
 41
0.9982724693852606
 10
471.68199771970473
 20
-671.53509304965007
 30
0.0
 41
1.0
 10
471.65578840378396
 20
-671.5163708743911
 30
0.0
 41
0.9981399180156363
 10
471.62749537208703
 20
-671.50097761466941
 30
0.0
 41
1.0
 10
471.62747254104795
 20
-671.50096519309091
 30
0.0
 41
1.0
 10
471.62744971000888
 20
-671.5009527715124
 30
0.0
 41
1.0
 10
471.59911101623385
 20
-671.48553466863359
 30
0.0
 41
0.9980927086838967
 10
471.56908834070083
 20
-671.47372626420724
 30
0.0
 41
1.0
 10
471.56886825584479
 20
-671.47363970126969
 30
0.0
 41
1.0
 10
471.56864817098875
 20
-671.47355313833214
 30
0.0
 41
1.0
 10
471.53818532574371
 20
-671.46157160803079
 30
0.0
 41
0.9981411356561916
 10
471.50649106504341
 20
-671.45338528727791
 30
0.0
 41
1.0
 10
471.5060500066931
 20
-671.45327136617527
 30
0.0
 41
1.0
 10
471.5056089483428
 20
-671.45315744507263
 30
0.0
 41
1.0
 10
471.47303257094194
 20
-671.44474328211447
 30
0.0
 41
0.998303181293524
 10
471.43969885644481
 20
-671.44017360152634
 30
0.0
 41
1.0
 10
471.43526334374309
 20
-671.43956554219062
 30
0.0
 41
1.0
 10
471.43082783104137
 20
-671.43895748285502
 30
0.0
 41
1.0
 10
471.40365300978891
 20
-671.43523211785941
 30
0.0
 41
0.9983887708263778
 10
471.37623108514202
 20
-671.43460978104281
 30
0.0
 41
1.0
 10
471.37219938253128
 20
-671.43451828210527
 30
0.0
 41
1.0
 10
471.36816767992053
 20
-671.43442678316785
 30
0.0
 41
1.0
 10
471.3488091604936
 20
-671.4339874442262
 30
0.0
 41
0.9998869563081041
 10
471.32944618389428
 20
-671.43413037890605
 30
0.0
 41
1.0
 10
471.31008320729018
 20
-671.43427331358589
 30
0.0
 41
0.9999972320066775
 10
471.29072111768181
 20
-671.43450736335046
 30
0.0
 41
1.0
 10
471.28104460939466
 20
-671.43462433339505
 30
0.0
 41
1.0
 10
471.2713681011075
 20
-671.43474130343975
 30
0.0
 41
1.0
 10
471.232652994923
 20
-671.43520929329361
 30
0.0
 41
0.9997304945086829
 10
471.19400134180495
 20
-671.4374738401865
 30
0.0
 41
1.0
 10
471.18947652095198
 20
-671.43773894318156
 30
0.0
 41
1.0
 10
471.18495170009902
 20
-671.4380040461765
 30
0.0
 41
1.0
 10
471.13725040527544
 20
-671.44079879905939
 30
0.0
 41
0.9997888306416092
 10
471.08970423735411
 20
-671.44555128130401
 30
0.0
 41
1.0
 10
471.08534370656798
 20
-671.44598713862001
 30
0.0
 41
1.0
 10
471.08098317578191
 20
-671.44642299593613
 30
0.0
 41
1.0
 10
471.02471594628776
 20
-671.45204719281287
 30
0.0
 41
0.9984170238191032
 10
470.96943637261188
 20
-671.46395523378078
 30
0.0
 41
1.0
 10
470.95124580711956
 20
-671.46787375168367
 30
0.0
 41
1.0
 10
470.93305524162724
 20
-671.47179226958656
 30
0.0
 41
1.0
 10
470.87545970741564
 20
-671.48419920284152
 30
0.0
 41
0.9976592854199036
 10
470.82009562421246
 20
-671.50434854141531
 30
0.0
 41
1.0
 10
470.76473154100836
 20
-671.52449787998955
 30
0.0
 41
0.9993255074351729
 10
470.71099564161113
 20
-671.54865632923679
 30
0.0
 41
1.0
 10
470.70868305215129
 20
-671.54969601733592
 30
0.0
 41
1.0
 10
470.70637046269138
 20
-671.55073570543493
 30
0.0
 41
1.0
 10
470.64800938437321
 20
-671.57697353088076
 30
0.0
 41
0.9976475078276234
 10
470.59378571221862
 20
-671.61094752570943
 30
0.0
 41
1.0
 10
470.58461451515069
 20
-671.61669376511691
 30
0.0
 41
1.0
 10
470.57544331808276
 20
-671.62244000452449
 30
0.0
 41
1.0
 10
470.533342222307
 20
-671.64881856490854
 30
0.0
 41
0.9995131336406772
 10
470.4929683648279
 20
-671.67777167088525
 30
0.0
 41
1.0
 10
470.45259450734966
 20
-671.70672477686162
 30
0.0
 41
0.9995810107606123
 10
470.41396368348461
 20
-671.73796561809513
 30
0.0
 41
1.0
 10
470.41247866787967
 20
-671.73916655382732
 30
0.0
 41
1.0
 10
470.41099365227478
 20
-671.7403674895595
 30
0.0
 41
1.0
 10
470.369392797199
 20
-671.77401020225807
 30
0.0
 41
0.9996617837954621
 10
470.32959745363104
 20
-671.80977043003838
 30
0.0
 41
1.0
 10
470.32353207819415
 20
-671.81522079653223
 30
0.0
 41
1.0
 10
470.31746670275726
 20
-671.82067116302608
 30
0.0
 41
1.0
 10
470.28332893905684
 20
-671.85134747076415
 30
0.0
 41
0.9997267750051977
 10
470.25066218491497
 20
-671.88358573902678
 30
0.0
 41
1.0
 10
470.21799543077282
 20
-671.91582400728976
 30
0.0
 41
0.9999667288959548
 10
470.18585895920245
 20
-671.94859091073397
 30
0.0
 41
1.0
 10
470.15144523531353
 20
-671.98367974011444
 30
0.0
 41
1.0
 10
470.11703151142461
 20
-672.01876856949502
 30
0.0
 41
1.0
 10
470.01606759207687
 20
-672.12171313169983
 30
0.0
 41
0.998820533517528
 10
469.9255647835875
 20
-672.23396524772954
 30
0.0
 41
1.0
 10
469.91024480113464
 20
-672.25296687294508
 30
0.0
 41
1.0
 10
469.89492481868177
 20
-672.27196849816073
 30
0.0
 41
1.0
 10
469.77378204528713
 20
-672.42222386462117
 30
0.0
 41
0.9997077826755766
 10
469.66004306973355
 20
-672.57815876173072
 30
0.0
 41
1.0
 10
469.65918136216885
 20
-672.57934015341971
 30
0.0
 41
1.0
 10
469.65831965460421
 20
-672.5805215451087
 30
0.0
 41
1.0
 10
469.54285726392118
 20
-672.73881922559633
 30
0.0
 41
0.9989147567078843
 10
469.4426255124792
 20
-672.90717395618913
 30
0.0
 41
1.0
 10
469.43025493982617
 20
-672.92795224646466
 30
0.0
 41
1.0
 10
469.41788436717314
 20
-672.94873053674007
 30
0.0
 41
1.0
 10
469.34027871785349
 20
-673.07908122896811
 30
0.0
 41
0.9997476598181949
 10
469.26860622409902
 20
-673.21278610325862
 30
0.0
 41
1.0
 10
469.19693373034346
 20
-673.34649097755118
 30
0.0
 41
0.9996258967109661
 10
469.13267960437702
 20
-673.48391494586474
 30
0.0
 41
1.0
 10
469.12607964965281
 20
-673.49803064591117
 30
0.0
 41
1.0
 10
469.1194796949286
 20
-673.5121463459576
 30
0.0
 41
1.0
 10
469.04937533442882
 20
-673.66208254493392
 30
0.0
 41
0.9998735413945672
 10
468.98407466106858
 20
-673.81417234466812
 30
0.0
 41
1.0
 10
468.98235324703853
 20
-673.81818163740013
 30
0.0
 41
1.0
 10
468.98063183300843
 20
-673.82219093013202
 30
0.0
 41
1.0
 10
468.91877398770788
 20
-673.96626214440323
 30
0.0
 41
0.9999377418859864
 10
468.860146586621
 20
-674.11167787823945
 30
0.0
 41
1.0
 10
468.8015191855327
 20
-674.25709361207885
 30
0.0
 41
0.9999508299504389
 10
468.74578721384222
 20
-674.40364345049443
 30
0.0
 41
1.0
 10
468.74424682951218
 20
-674.40769396347321
 30
0.0
 41
1.0
 10
468.74270644518214
 20
-674.41174447645199
 30
0.0
 41
1.0
 10
468.68389370483146
 20
-674.56639534082524
 30
0.0
 41
0.999960922842817
 10
468.6278244033943
 20
-674.72206184883339
 30
0.0
 41
1.0
 10
468.62634639821931
 20
-674.72616526903857
 30
0.0
 41
1.0
 10
468.62486839304432
 20
-674.73026868924376
 30
0.0
 41
1.0
 10
468.56584308125844
 20
-674.89414203765887
 30
0.0
 41
0.9999674607404674
 10
468.5094693182225
 20
-675.05894634766184
 30
0.0
 41
1.0
 10
468.48377012294185
 20
-675.13407594550608
 30
0.0
 41
1.0
 10
468.4580709276612
 20
-675.20920554335032
 30
0.0
 41
1.0
 10
468.40006562428221
 20
-675.37877953460202
 30
0.0
 41
0.9999287532306812
 10
468.34612492229689
 20
-675.54968990408975
 30
0.0
 41
1.0
 10
468.3228862942226
 20
-675.62332117629012
 30
0.0
 41
1.0
 10
468.29964766614825
 20
-675.69695244849049
 30
0.0
 41
1.0
 10
468.29218422030476
 20
-675.72060027359885
 30
0.0
 41
0.9999998222860306
 10
468.28474896594633
 20
-675.74425697769811
 30
0.0
 41
1.0
 10
467.47442089754861
 20
-678.31827122859283
 30
0.0
 41
1.0
 10
466.66409282915089
 20
-680.89228547948755
 30
0.0
 41
1.0
 10
466.21143860720542
 20
-680.89228547948755
 30
0.0
 41
1.0
 10
465.75878438525996
 20
-680.89228547948755
 30
0.0
 41
1.0
 10
466.68482659095298
 20
-677.94874951825386
 30
0.0
 41
1.0
 10
467.610868796646
 20
-675.00521355702006
 30
0.0
 41
1.0
 10
467.61592967579742
 20
-674.98919195029521
 30
0.0
 41
1.0
 10
467.65223351022223
 20
-674.8740421793824
 30
0.0
 41
1.0
 10
467.68853734464727
 20
-674.75889240846868
 30
0.0
 41
0.9999825681970838
 10
467.72347886425348
 20
-674.64332196093483
 30
0.0
 41
1.0
 10
467.74762439533356
 20
-674.56345966918775
 30
0.0
 41
1.0
 10
467.7717699264137
 20
-674.48359737744056
 30
0.0
 41
1.0
 10
467.82034610307244
 20
-674.32292976655174
 30
0.0
 41
0.9999672528965944
 10
467.86631550588322
 20
-674.16149699376194
 30
0.0
 41
1.0
 10
467.86770994771712
 20
-674.15660007107044
 30
0.0
 41
1.0
 10
467.86910438955101
 20
-674.15170314837906
 30
0.0
 41
1.0
 10
467.91228490869446
 20
-674.00006422097078
 30
0.0
 41
0.9999899749137942
 10
467.95410571346235
 20
-673.84804467674257
 30
0.0
 41
1.0
 10
467.95915867297128
 20
-673.82967705790293
 30
0.0
 41
1.0
 10
467.96421163248016
 20
-673.81130943906317
 30
0.0
 41
1.0
 10
467.99592651823014
 20
-673.69602513251471
 30
0.0
 41
0.9999214200503582
 10
468.02474123241848
 20
-673.57998196141182
 30
0.0
 41
1.0
 10
468.03112415850887
 20
-673.55427651871332
 30
0.0
 41
1.0
 10
468.03750708459921
 20
-673.52857107601483
 30
0.0
 41
1.0
 10
468.05355594660716
 20
-673.46393879030757
 30
0.0
 41
0.9999828681677262
 10
468.06884707260502
 20
-673.39912305307337
 30
0.0
 41
1.0
 10
468.08413819860243
 20
-673.33430731584099
 30
0.0
 41
0.9999389844482147
 10
468.09799369299679
 20
-673.26916958789218
 30
0.0
 41
1.0
 10
468.1015625648572
 20
-673.25239153597204
 30
0.0
 41
1.0
 10
468.10513143671761
 20
-673.23561348405201
 30
0.0
 41
1.0
 10
468.12612467483297
 20
-673.13691965226189
 30
0.0
 41
0.9998933699442897
 10
468.1442268070345
 20
-673.03765484837982
 30
0.0
 41
1.0
 10
468.14491321964215
 20
-673.03389083803427
 30
0.0
 41
1.0
 10
468.14559963224985
 20
-673.0301268276886
 30
0.0
 41
1.0
 10
468.16507458966782
 20
-672.9233340031094
 30
0.0
 41
0.9996850305194138
 10
468.17916642779727
 20
-672.81569850039
 30
0.0
 41
1.0
 10
468.18016394448148
 20
-672.80807932333232
 30
0.0
 41
1.0
 10
468.18116146116569
 20
-672.80046014627453
 30
0.0
 41
1.0
 10
468.19486539239523
 20
-672.69578753269695
 30
0.0
 41
0.999469793670704
 10
468.20172767200529
 20
-672.59044493503006
 30
0.0
 41
1.0
 10
468.20196620663017
 20
-672.58678319892397
 30
0.0
 41
1.0
 10
468.20220474125506
 20
-672.58312146281776
 30
0.0
 41
1.0
 10
468.20858995161512
 20
-672.48510233736329
 30
0.0
 41
0.9991804893137091
 10
468.20702579347875
 20
-672.38688791237769
 30
0.0
 41
1.0
 10
468.20698385406769
 20
-672.38425451167132
 30
0.0
 41
1.0
 10
468.20694191465662
 20
-672.38162111096483
 30
0.0
 41
1.0
 10
468.20546163534237
 20
-672.28867348739084
 30
0.0
 41
0.998844832932151
 10
468.1950658625305
 20
-672.19629719247428
 30
0.0
 41
1.0
 10
468.19426882567905
 20
-672.189214764589
 30
0.0
 41
1.0
 10
468.19347178882754
 20
-672.18213233670383
 30
0.0
 41
1.0
 10
468.18467008971874
 20
-672.10392089755817
 30
0.0
 41
0.9985503209458386
 10
468.16751195356881
 20
-672.02710880551308
 30
0.0
 41
1.0
 10
468.16371895753298
 20
-672.01012864181212
 30
0.0
 41
1.0
 10
468.15992596149715
 20
-671.99314847811104
 30
0.0
 41
1.0
 10
468.1503538174187
 20
-671.95029671346697
 30
0.0
 41
0.99910367813695
 10
468.13719138659343
 20
-671.90840816980597
 30
0.0
 41
1.0
 10
468.13520027386551
 20
-671.90207158855083
 30
0.0
 41
1.0
 10
468.13320916113759
 20
-671.89573500729568
 30
0.0
 41
1.0
 10
468.12402895576787
 20
-671.86651962614337
 30
0.0
 41
0.9998874504369035
 10
468.11397635192867
 20
-671.83759282503183
 30
0.0
 41
1.0
 10
468.10392374808947
 20
-671.8086660239203
 30
0.0
 41
0.9994041637543889
 10
468.0918994416229
 20
-671.78050167197671
 30
0.0
 41
1.0
 10
468.08980104951053
 20
-671.77558663973491
 30
0.0
 41
1.0
 10
468.08770265739815
 20
-671.770671607493
 30
0.0
 41
1.0
 10
468.07376324190102
 20
-671.73802152450946
 30
0.0
 41
0.9991846840701435
 10
468.05723506355457
 20
-671.70660250886976
 30
0.0
 41
1.0
 10
468.05666676035719
 20
-671.70552220064269
 30
0.0
 41
1.0
 10
468.05609845715986
 20
-671.70444189241562
 30
0.0
 41
1.0
 10
468.04070688520846
 20
-671.67518349323041
 30
0.0
 41
0.9989253167923473
 10
468.02267217318058
 20
-671.64747602903446
 30
0.0
 41
1.0
 10
468.02214511084338
 20
-671.6466662816531
 30
0.0
 41
1.0
 10
468.02161804850618
 20
-671.64585653427184
 30
0.0
 41
1.0
 10
468.00463746115298
 20
-671.61976856483921
 30
0.0
 41
0.9986467172836711
 10
467.98503888483435
 20
-671.59558554802459
 30
0.0
 41
1.0
 10
467.98460182048416
 20
-671.59504624688566
 30
0.0
 41
1.0
 10
467.98416475613391
 20
-671.59450694574673
 30
0.0
 41
1.0
 10
467.96544030851561
 20
-671.57140253120986
 30
0.0
 41
0.9984001104268171
 10
467.94422694325698
 20
-671.55055997752538
 30
0.0
 41
1.0
 10
467.9439333742024
 20
-671.55027154008485
 30
0.0
 41
1.0
 10
467.94363980514782
 20
-671.54998310264432
 30
0.0
 41
1.0
 10
467.9230135779984
 20
-671.52971742384102
 30
0.0
 41
0.9982442159083329
 10
467.90013552733052
 20
-671.51203314321094
 30
0.0
 41
1.0
 10
467.9000281295996
 20
-671.51195012688936
 30
0.0
 41
1.0
 10
467.89992073186863
 20
-671.51186711056766
 30
0.0
 41
1.0
 10
467.87725747666241
 20
-671.49434886258064
 30
0.0
 41
0.9982450060837238
 10
467.8526819871268
 20
-671.47963297106401
 30
0.0
 41
1.0
 10
467.82810649759091
 20
-671.46491707954715
 30
0.0
 41
0.9983922639634119
 10
467.80202334450831
 20
-671.45307726222006
 30
0.0
 41
1.0
 10
467.80190990584617
 20
-671.45302576947938
 30
0.0
 41
1.0
 10
467.80179646718403
 20
-671.4529742767387
 30
0.0
 41
1.0
 10
467.77548643677784
 20
-671.44103147393059
 30
0.0
 41
0.9986517147151061
 10
467.74807995034416
 20
-671.43188091436969
 30
0.0
 41
1.0
 10
467.74774098962985
 20
-671.43176774115386
 30
0.0
 41
1.0
 10
467.74740202891547
 20
-671.43165456793793
 30
0.0
 41
1.0
 10
467.71931762105362
 20
-671.4222776619456
 30
0.0
 41
0.9989435598956267
 10
467.69049092747753
 20
-671.41551881082819
 30
0.0
 41
1.0
 10
467.68995086768689
 20
-671.41539218570176
 30
0.0
 41
1.0
 10
467.68941080789625
 20
-671.41526556057534
 30
0.0
 41
1.0
 10
467.65950399473894
 20
-671.4082534592053
 30
0.0
 41
0.9992249241240762
 10
467.62913824029016
 20
-671.40361578784768
 30
0.0
 41
1.0
 10
467.62843139614461
 20
-671.40350783364374
 30
0.0
 41
1.0
 10
467.62772455199899
 20
-671.4033998794398
 30
0.0
 41
1.0
 10
467.5959451092603
 20
-671.39854629967442
 30
0.0
 41
0.9994396597833695
 10
467.56391214099261
 20
-671.39582983850164
 30
0.0
 41
1.0
 10
467.55434180725285
 20
-671.39501825464231
 30
0.0
 41
1.0
 10
467.54477147351304
 20
-671.39420667078286
 30
0.0
 41
1.0
 10
467.49359783776686
 20
-671.38986704189142
 30
0.0
 41
0.9987693403122118
 10
467.44224602597359
 20
-671.39061857361764
 30
0.0
 41
1.0
 10
467.43711885885978
 20
-671.39069360950475
 30
0.0
 41
1.0
 10
467.43199169174602
 20
-671.39076864539186
 30
0.0
 41
1.0
 10
467.37721380865651
 20
-671.39157031753541
 30
0.0
 41
0.9989753644965143
 10
467.32273280864825
 20
-671.39732182099806
 30
0.0
 41
1.0
 10
467.2682518086396
 20
-671.40307332446082
 30
0.0
 41
0.998319006730624
 10
467.21480240315691
 20
-671.41509082035418
 30
0.0
 41
1.0
 10
467.21035192735383
 20
-671.41609145963548
 30
0.0
 41
1.0
 10
467.2059014515508
 20
-671.41709209891678
 30
0.0
 41
1.0
 10
467.14355109446194
 20
-671.43111087337263
 30
0.0
 41
0.9985539388302535
 10
467.08306621762353
 20
-671.45174271139524
 30
0.0
 41
1.0
 10
467.08189350214292
 20
-671.45214273330339
 30
0.0
 41
1.0
 10
467.08072078666231
 20
-671.45254275521143
 30
0.0
 41
1.0
 10
467.01789047886234
 20
-671.47397463705045
 30
0.0
 41
0.9988468746494031
 10
466.95740530771144
 20
-671.50133367958199
 30
0.0
 41
1.0
 10
466.95581389671781
 20
-671.50205351686168
 30
0.0
 41
1.0
 10
466.95422248572424
 20
-671.50277335414125
 30
0.0
 41
1.0
 10
466.89055449258598
 20
-671.53157207123195
 30
0.0
 41
0.9991322885918458
 10
466.82950420055806
 20
-671.56556973732268
 30
0.0
 41
1.0
 10
466.82070319503532
 20
-671.57047083831799
 30
0.0
 41
1.0
 10
466.81190218951258
 20
-671.5753719393133
 30
0.0
 41
1.0
 10
466.76081384898396
 20
-671.6038219972038
 30
0.0
 41
0.9993860037849884
 10
466.71184334694777
 20
-671.63578000499774
 30
0.0
 41
1.0
 10
466.70903419051922
 20
-671.6376132523468
 30
0.0
 41
1.0
 10
466.70622503409061
 20
-671.63944649969585
 30
0.0
 41
1.0
 10
466.66287284490863
 20
-671.66773801279351
 30
0.0
 41
0.999882149495143
 10
466.62040965700464
 20
-671.6973471278302
 30
0.0
 41
1.0
 10
466.57794646909991
 20
-671.72695624286746
 30
0.0
 41
0.9997976482745052
 10
466.53670865389961
 20
-671.75824944688713
 30
0.0
 41
1.0
 10
466.52939052149554
 20
-671.76380279177829
 30
0.0
 41
1.0
 10
466.52207238909153
 20
-671.76935613666933
 30
0.0
 41
1.0
 10
466.46619830908651
 20
-671.81175603046881
 30
0.0
 41
0.9998091630801702
 10
466.41202317007429
 20
-671.8563062058181
 30
0.0
 41
1.0
 10
466.405520293834
 20
-671.86165375604241
 30
0.0
 41
1.0
 10
466.39901741759371
 20
-671.86700130626684
 30
0.0
 41
1.0
 10
466.33183652610222
 20
-671.92224658206385
 30
0.0
 41
0.9995035112317032
 10
466.26826858722023
 20
-671.98161349057159
 30
0.0
 41
1.0
 10
466.26344493202669
 20
-671.98611836365046
 30
0.0
 41
1.0
 10
466.25862127683308
 20
-671.99062323672933
 30
0.0
 41
1.0
 10
466.1969097454508
 20
-672.0482564226071
 30
0.0
 41
0.9994630424299582
 10
466.13910554255892
 20
-672.10980779422448
 30
0.0
 41
1.0
 10
466.13726412317305
 20
-672.11176858398119
 30
0.0
 41
1.0
 10
466.13542270378713
 20
-672.1137293737379
 30
0.0
 41
1.0
 10
466.08130133966642
 20
-672.17135916584255
 30
0.0
 41
0.9995160693749657
 10
466.03086832490089
 20
-672.23224287477831
 30
0.0
 41
1.0
 10
466.0299014648599
 20
-672.23341008688317
 30
0.0
 41
1.0
 10
466.02893460481891
 20
-672.23457729898792
 30
0.0
 41
1.0
 10
465.98043531013406
 20
-672.29312658371566
 30
0.0
 41
0.9996561470513441
 10
465.9350722008021
 20
-672.35413796493913
 30
0.0
 41
1.0
 10
465.93199336785267
 20
-672.35827885945821
 30
0.0
 41
1.0
 10
465.92891453490324
 20
-672.36241975397729
 30
0.0
 41
1.0
 10
465.88970909146985
 20
-672.41514934616282
 30
0.0
 41
0.9998349055173106
 10
465.85244545050313
 20
-672.46926863799547
 30
0.0
 41
1.0
 10
465.8151818095335
 20
-672.52338792983232
 30
0.0
 41
0.9999728109572018
 10
465.77872036157595
 20
-672.57805089261365
 30
0.0
 41
1.0
 10
465.77806275387309
 20
-672.57903677736044
 30
0.0
 41
1.0
 10
465.77740514617017
 20
-672.58002266210724
 30
0.0
 41
1.0
 10
465.739628482814
 20
-672.63665739437147
 30
0.0
 41
0.9999972147291824
 10
465.70211957763786
 20
-672.69346981577246
 30
0.0
 41
1.0
 10
465.69963380631589
 20
-672.69723486002499
 30
0.0
 41
1.0
 10
465.69714803499392
 20
-672.70099990427752
 30
0.0
 41
1.0
 10
465.65466758718094
 20
-672.76534241417301
 30
0.0
 41
0.9999371979004579
 10
465.61363991247862
 20
-672.83062087106248
 30
0.0
 41
1.0
 10
465.61188547029951
 20
-672.83341233509213
 30
0.0
 41
1.0
 10
465.61013102812035
 20
-672.8362037991219
 30
0.0
 41
1.0
 10
465.56559446905618
 20
-672.90706518407637
 30
0.0
 41
0.9998272025611885
 10
465.52372277361496
 20
-672.97953312244772
 30
0.0
 41
1.0
 10
465.51611518760296
 20
-672.99269967967598
 30
0.0
 41
1.0
 10
465.50850760159102
 20
-673.00586623690424
 30
0.0
 41
1.0
 10
465.45142073412541
 20
-673.1046672897329
 30
0.0
 41
0.9995217214838216
 10
465.4005508893481
 20
-673.20680845366326
 30
0.0
 41
1.0
 10
465.39672910802994
 20
-673.21448217851605
 30
0.0
 41
1.0
 10
465.39290732671174
 20
-673.22215590336884
 30
0.0
 41
1.0
 10
465.34945468041775
 20
-673.30940413240796
 30
0.0
 41
0.9998269762607968
 10
465.30927744728223
 20
-673.39820827576841
 30
0.0
 41
1.0
 10
465.26910021414631
 20
-673.48701241912954
 30
0.0
 41
0.9998944747388531
 10
465.23151981686425
 20
-673.57694628194372
 30
0.0
 41
1.0
 10
465.2290429820672
 20
-673.58287360940596
 30
0.0
 41
1.0
 10
465.22656614727009
 20
-673.58880093686821
 30
0.0
 41
1.0
 10
465.186242616995
 20
-673.68529940687449
 30
0.0
 41
0.9999506734411772
 10
465.14784385254427
 20
-673.78257980929993
 30
0.0
 41
1.0
 10
465.14054386991097
 20
-673.80107377019738
 30
0.0
 41
1.0
 10
465.13324388727773
 20
-673.81956773109482
 30
0.0
 41
1.0
 10
465.10944508809115
 20
-673.87986021173151
 30
0.0
 41
0.9999912393958992
 10
465.0861518660812
 20
-673.94034981307584
 30
0.0
 41
1.0
 10
465.06285864407408
 20
-674.00083941441267
 30
0.0
 41
0.9999927113939873
 10
465.04002799687652
 20
-674.06150511816475
 30
0.0
 41
1.0
 10
465.03304378117582
 20
-674.0800636091692
 30
0.0
 41
1.0
 10
465.02605956547507
 20
-674.09862210017366
 30
0.0
 41
1.0
 10
464.98926048688094
 20
-674.19640478592191
 30
0.0
 41
0.9999487550953921
 10
464.95444867439585
 20
-674.2949124685108
 30
0.0
 41
1.0
 10
464.94265186942664
 20
-674.32829412365925
 30
0.0
 41
1.0
 10
464.93085506445749
 20
-674.36167577880769
 30
0.0
 41
1.0
 10
464.88351224727398
 20
-674.4956426962151
 30
0.0
 41
0.9999808436934276
 10
464.8378314529516
 20
-674.63018541185238
 30
0.0
 41
1.0
 10
464.79215065863434
 20
-674.76472812747465
 30
0.0
 41
0.9999873932924267
 10
464.74782330427519
 20
-674.89972280498137
 30
0.0
 41
1.0
 10
464.73777712583887
 20
-674.93031747136274
 30
0.0
 41
1.0
 10
464.72773094740256
 20
-674.96091213774412
 30
0.0
 41
1.0
 10
464.66331123616948
 20
-675.15709614801801
 30
0.0
 41
0.9999794883035852
 10
464.60140984368797
 20
-675.35408925116553
 30
0.0
 41
1.0
 10
464.59583371397923
 20
-675.37183455625222
 30
0.0
 41
1.0
 10
464.59025758427043
 20
-675.38957986133903
 30
0.0
 41
1.0
 10
464.5189785023174
 20
-675.61641623739592
 30
0.0
 41
0.9999982761785717
 10
464.44854228230139
 20
-675.84351574848426
 30
0.0
 41
1.0
 10
463.65447211601503
 20
-678.36790061398597
 30
0.0
 41
1.0
 10
462.86040194972867
 20
-680.89228547948755
 30
0.0
 41
1.0
 10
462.38602664399048
 20
-680.89228547948755
 30
0.0
 41
1.0
 10
461.91165133825228
 20
-680.89228547948755
 30
0.0
 41
1.0
 10
463.53079358132879
 20
-675.72862437951449
 30
0.0
 41
1.0
 10
465.1499358244053
 20
-670.56496327954142
 30
0.0
 41
1.0
  0
LWPOLYLINE
  5
4B
100
AcDbEntity
  8
0
370
              15
390
0
  6
Continuous
 62
               7
100
AcDbPolyline
 90
      232
 70
             128
 10
452.29816293749178
 20
-671.10713469529912
 42
0.0004370800671797
 10
452.27172435040006
 20
-671.14146801499999
 10
452.25208223489216
 20
-671.16702157137559
 42
0.0030481992185118
 10
452.18691287633021
 20
-671.25288241755072
 10
452.16765704045736
 20
-671.27857580944169
 42
0.0042058245755569
 10
452.06566451512072
 20
-671.41707868198091
 10
452.03946195387209
 20
-671.45329510536885
 42
0.012094889874232
 10
451.89143999549322
 20
-671.66866990764049
 10
451.84334374592976
 20
-671.74241027525682
 42
0.0141601263944752
 10
451.69152172246947
 20
-671.99024494362357
 10
451.67175308875494
 20
-672.02466692734208
 42
0.0071131081302013
 10
451.56911692713726
 20
-672.2094183267584
 42
0.0068458791003042
 10
451.47167716371547
 20
-672.39696410849717
 10
451.46827123248693
 20
-672.40374496535833
 42
0.0064120880291799
 10
451.3692001074636
 20
-672.60745720282023
 10
451.36543276470627
 20
-672.61546313117833
 42
0.0058857236445972
 10
451.26405506877444
 20
-672.83765118668657
 10
451.25996760562339
 20
-672.8468962635128
 42
0.0053189741899327
 10
451.15561544929011
 20
-673.08987800047078
 10
451.151241546449
 20
-673.10036893956988
 42
0.0047503650415863
 10
451.04325468337004
 20
-673.36646865618377
 10
451.03862055919956
 20
-673.37820684422866
 42
0.0042071762173815
 10
450.92634686733646
 20
-673.66975364126131
 10
450.92147216616132
 20
-673.68273672869839
 42
0.0036680086482556
 10
450.8042448445027
 20
-674.00205442097138
 10
450.79914095458145
 20
-674.01627868813625
 42
0.0032573142628872
 10
450.6763248115949
 20
-674.36570501802203
 10
450.64199955117817
 20
-674.46543656003792
 42
0.0026133366648634
 10
450.46777695179867
 20
-674.98036820187531
 10
450.43614855804566
 20
-675.07548361957993
 42
0.0020592950740811
 10
450.32921702356487
 20
-675.40153544587838
 10
450.32769112798854
 20
-675.40625369006705
 42
0.0025609928531164
 10
450.22678087724029
 20
-675.72382630126629
 10
450.22548519367075
 20
-675.72797747175628
 42
0.0031362356245385
 10
450.1307398008384
 20
-676.03835889982633
 10
450.12967427937753
 20
-676.04192955292251
 42
0.0037229918028222
 10
450.04127408591154
 20
-676.34642220391902
 10
450.04043479131241
 20
-676.34939564899173
 42
0.0043077623706348
 10
449.95856439027585
 20
-676.64930501489061
 42
0.004765416182436
 10
449.8821500290187
 20
-676.95064805933862
 10
449.86491772459834
 20
-677.02142894791666
 42
0.0112969368446745
 10
449.76698554552684
 20
-677.46727502822716
 10
449.75298235097819
 20
-677.53868905127763
 42
0.0130056762570287
 10
449.65256372915485
 20
-678.1321595871002
 10
449.64229385408089
 20
-678.20419864384155
 42
0.0138721532143659
 10
449.59044235181233
 20
-678.65761338675156
 10
449.58079460785842
 20
-678.7693622477135
 42
0.0071254697008651
 10
449.56412128489711
 20
-679.00095575213766
 10
449.5616407978157
 20
-679.04395774941372
 42
0.0028881799202837
 10
449.5540716511706
 20
-679.18982860433903
 42
0.006029729713754
 10
449.54910555128293
 20
-679.33580307239674
 10
449.54857441044936
 20
-679.35999925836393
 42
0.0229523164154643
 10
449.55243992434231
 20
-679.52137668150476
 10
449.5545528111025
 20
-679.55157844851294
 42
0.012367330066594
 10
449.56409213436154
 20
-679.65213881110026
 42
0.0128577674483563
 10
449.57868982956421
 20
-679.75208773606096
 10
449.58225276625819
 20
-679.77275214336214
 42
0.0285717853766421
 10
449.61449976710605
 20
-679.91181021901866
 10
449.62133402893909
 20
-679.93513760375674
 42
0.0316283099155664
 10
449.67923931889641
 20
-680.09464485467038
 10
449.68076366477442
 20
-680.09813804083365
 42
0.0338984824240224
 10
449.75547952025772
 20
-680.24192102292773
 10
449.75663388494263
 20
-680.24381653756564
 42
0.035022871836318
 10
449.84781403027944
 20
-680.37234252990402
 10
449.84825665616671
 20
-680.37288206878577
 42
0.034747674752141
 10
449.955468999787
 20
-680.48647459239601
 42
0.0331337701915963
 10
450.07709066266045
 20
-680.58453892343493
 10
450.07764071191826
 20
-680.58492527502108
 42
0.0305233319075766
 10
450.21191305970456
 20
-680.66748936006672
 10
450.21352808195553
 20
-680.66835136599821
 42
0.027374448115989
 10
450.35980493774258
 20
-680.73642043794337
 10
450.36235720531147
 20
-680.73744223017832
 42
0.02409644062012
 10
450.52009574313604
 20
-680.79193409331936
 10
450.52338740773945
 20
-680.79289646315647
 42
0.0209636179808787
 10
450.69208748406584
 20
-680.83463053712251
 10
450.69590371428995
 20
-680.83540649362317
 42
0.0181388704690832
 10
450.87506491028699
 20
-680.86511454022991
 10
450.87920533447823
 20
-680.86564763213869
 42
0.0156086547592231
 10
451.06829901657562
 20
-680.88401572542705
 10
451.08989664274071
 20
-680.88543497666672
 42
0.0137148329019683
 10
451.25373321538569
 20
-680.89169510429224
 10
451.27670131036206
 20
-680.89194232084992
 42
0.0051057823892088
 10
451.39477410364469
 20
-680.89200744805441
 42
0.005225669330875
 10
451.5128227455404
 20
-680.88963303582216
 10
451.54793613740873
 20
-680.8885595528152
 42
0.0161507179047855
 10
451.73580467645962
 20
-680.87673436765192
 10
451.74581115664591
 20
-680.87577927000814
 42
0.0101216737831252
 10
451.95282476738902
 20
-680.85178280482569
 10
451.96985141210473
 20
-680.84945895642056
 42
0.0245291776396771
 10
452.20824623988102
 20
-680.80492141738239
 10
452.25065789764511
 20
-680.79482345720885
 42
0.0143509212564848
 10
452.42897344961204
 20
-680.74692114031996
 42
0.0156557857035229
 10
452.60408148197342
 20
-680.68841553241134
 10
452.607832089223
 20
-680.68703045153347
 42
0.0170137333630476
 10
452.78613008706373
 20
-680.61420164409822
 10
452.78968204826748
 20
-680.61260772631636
 42
0.0183105364415797
 10
452.96935688235124
 20
-680.52394020540373
 10
452.97283026466994
 20
-680.52206498796806
 42
0.0194899958149753
 10
453.15207063516067
 20
-680.41607549702326
 10
453.15557757483015
 20
-680.41381282587508
 42
0.020486985294806
 10
453.33258472587841
 20
-680.28905281833124
 10
453.33621753017064
 20
-680.28626278565798
 42
0.0212516938557709
 10
453.50921249572218
 20
-680.141310787213
 10
453.53247084276438
 20
-680.12007713216212
 42
0.0215248918255159
 10
453.66248392720632
 20
-679.99069499266659
 10
453.6849987943998
 20
-679.96627293198833
 42
0.0114578554953698
 10
453.76239487123536
 20
-679.87836146526251
 10
453.76799213922578
 20
-679.87170208349335
 42
0.0061531305126001
 10
453.83122946222591
 20
-679.79455731683697
 42
0.0006325587115693
 10
453.89341870432156
 20
-679.71655562897433
 10
453.90493877182757
 20
-679.70206886866947
 42
0.0041897761562836
 10
453.98916647381094
 20
-679.59430918064243
 10
454.01839753375992
 20
-679.55625850714603
 42
0.0092993880035215
 10
454.15670349737394
 20
-679.369119125201
 10
454.19790074396911
 20
-679.3111506234228
 42
0.015932172708511
 10
454.37120398529242
 20
-679.05006351304155
 10
454.39338205298731
 20
-679.01422373091589
 42
0.0085547317016864
 10
454.51063793564981
 20
-678.8172862563041
 42
0.0084601156889952
 10
454.62112602437412
 20
-678.61647283178218
 10
454.62518376128611
 20
-678.60879299065164
 42
0.0081429654284609
 10
454.73680839650291
 20
-678.38893223438515
 10
454.74123847859681
 20
-678.37984281337162
 42
0.0076574581326937
 10
454.85444223388021
 20
-678.13825137574497
 10
454.85918205424207
 20
-678.12771913659344
 42
0.0070682724204165
 10
454.97440450814616
 20
-677.86170048420138
 10
454.97939965013637
 20
-677.84970588969713
 42
0.0064559514449167
 10
455.09706625422825
 20
-677.55654975643483
 10
455.10227093330963
 20
-677.54308229371668
 42
0.005831141390259
 10
455.22279430169118
 20
-677.22006624652454
 10
455.22817184038485
 20
-677.20512407594447
 42
0.0052312425819137
 10
455.35196247940507
 20
-676.84952286902808
 10
455.35748439759527
 20
-676.83310951299234
 42
0.0046680544797377
 10
455.48494861146497
 20
-676.44219635510683
 10
455.50594468648501
 20
-676.37570473646622
 42
0.0041666856445973
 10
455.60758769268159
 20
-676.04422034896618
 10
455.62641891301172
 20
-675.98092979514524
 42
0.0015170975155674
 10
455.68701220222005
 20
-675.77499561939248
 42
-0.0004887993115324
 10
455.74718208876465
 20
-675.56893641342958
 10
455.78542071752912
 20
-675.43845772040083
 42
0.0002583378927582
 10
455.92202800257564
 20
-674.97142936876173
 10
455.9629144273415
 20
-674.83137973904718
 42
0.0006636169674452
 10
456.0598483073552
 20
-674.49770327722626
 10
456.06239663453158
 20
-674.48888748577633
 42
0.0010589131323
 10
456.15312098498703
 20
-674.17252181426193
 10
456.15561202022491
 20
-674.16376536076018
 42
0.0015655524464453
 10
456.23974712381874
 20
-673.86445702115145
 10
456.24216222402646
 20
-673.85576094168277
 42
0.0021640440477896
 10
456.3193072100193
 20
-673.57324743267441
 10
456.32162431973558
 20
-673.56461506767255
 42
0.0028763871854342
 10
456.39138217876064
 20
-673.29863109225403
 10
456.39357511084756
 20
-673.29006910316377
 42
0.0037310511941753
 10
456.45555345676269
 20
-673.04034530616468
 10
456.45759106690508
 20
-673.03186517055087
 42
0.0047652197771405
 10
456.51140301716151
 20
-672.79812628638945
 10
456.51324831682223
 20
-672.78974650881878
 42
0.0060276699304061
 10
456.55851336639995
 20
-672.57170861124246
 10
456.56012271154481
 20
-672.56345800408644
 42
0.0075824337755663
 10
456.59646736625228
 20
-672.36082442187478
 10
456.59779005494198
 20
-672.35274694815223
 42
0.009513062460702
 10
456.62484767275805
 20
-672.16520227161357
 10
456.62834078469888
 20
-672.13723549255917
 42
0.0121054653219452
 10
456.64163644998831
 20
-672.00478757831831
 10
456.64206969486821
 20
-671.99908585685228
 42
0.0069050827387464
 10
456.64961410388696
 20
-671.87761524343171
 10
456.65018175372131
 20
-671.86585211490763
 42
0.0169063976707227
 10
456.65159539321132
 20
-671.76775575125907
 10
456.65101006744567
 20
-671.73758787058364
 42
0.0052007732889831
 10
456.64988334314904
 20
-671.69979117550838
 42
0.0054038123300128
 10
456.63990158722936
 20
-671.63978202750172
 10
456.63735865929448
 20
-671.62545278421271
 42
0.0112050460479157
 10
456.61966647826512
 20
-671.53728956504244
 10
456.6107539972449
 20
-671.49751877168285
 42
0.0240764468003398
 10
456.56530531417189
 20
-671.33240025393275
 10
456.55602593276478
 20
-671.30409017143461
 42
0.0256812331835332
 10
456.48434447267033
 20
-671.11822806830662
 10
456.4816397597595
 20
-671.11216240081148
 42
0.0268360501220217
 10
456.3969261393346
 20
-670.94666583380138
 10
456.3941579355174
 20
-670.94190599864578
 42
0.027467023172242
 10
456.29805744731038
 20
-670.79576231118665
 10
456.29536679732865
 20
-670.79212273741541
 42
0.0275035967101761
 10
456.18958035754821
 20
-670.66436479226377
 10
456.18704560706493
 20
-670.66162524844856
 42
0.0269557673531994
 10
456.07334383534516
 20
-670.55130410546735
 10
456.07097230645417
 20
-670.54923912823722
 42
0.0259124802206896
 10
455.95119489073846
 20
-670.45539386466089
 10
455.9489294681469
 20
-670.45380111349539
 42
0.0245162153006248
 10
455.82497129160026
 20
-670.37543460894062
 10
455.82270801843862
 20
-670.37415451034042
 42
0.0229282588836783
 10
455.69649824002448
 20
-670.31022041409051
 10
455.69410799310646
 20
-670.30914426420964
 42
0.0212984135701245
 10
455.5675890168751
 20
-670.25854480558849
 10
455.56493687439064
 20
-670.25761302420858
 42
0.0197555462332727
 10
455.44004770552885
 20
-670.21920531522619
 42
0.0183511896792716
 10
455.3125833427967
 20
-670.19041386174308
 10
455.26940074443604
 20
-670.18231246655068
 42
0.0338057877149498
 10
455.12664706980564
 20
-670.16540826398057
 10
455.0811443672834
 20
-670.16311843634981
 42
0.0091990524503726
 10
455.02822081296762
 20
-670.161430508389
 42
0.0028333980771947
 10
454.97526385496445
 20
-670.1610164546305
 10
454.97480612844663
 20
-670.16101546971845
 42
-0.0023619827788177
 10
454.92093312087997
 20
-670.16064504917904
 10
454.90273053580574
 20
-670.16043389594768
 42
0.0008824598473031
 10
454.81245254089248
 20
-670.15954600682869
 10
454.79052182467774
 20
-670.15936902606586
 42
0.003813266576831
 10
454.65638037673733
 20
-670.15930955803265
 10
454.64811354934164
 20
-670.15936894110439
 42
0.006066556933312
 10
454.49747330354478
 20
-670.16227909081476
 10
454.49034813753326
 20
-670.16250324479847
 42
0.0080356953340073
 10
454.32561877936388
 20
-670.170337105832
 10
454.31958377181996
 20
-670.17072139730226
 42
0.0098996399103771
 10
454.14320222949385
 20
-670.18546401190133
 10
454.13817937480724
 20
-670.18598416000032
 42
0.011774098137514
 10
453.95260094563173
 20
-670.20963028376548
 10
453.94848959739159
 20
-670.21025284205064
 42
0.0137435215136131
 10
453.75619518764779
 20
-670.24480132883195
 10
453.75286666808745
 20
-670.24549427694842
 42
0.0158359869381598
 10
453.55636812118689
 20
-670.29294032118844
 10
453.55366152775269
 20
-670.29368529162389
 42
0.0180554124025829
 10
453.35550400544844
 20
-670.35600429974249
 10
453.35322561140464
 20
-670.35681231787646
 42
0.0203657431287218
 10
453.15598685249711
 20
-670.43594248863531
 10
453.15391508299535
 20
-670.4368732993554
 42
0.0226819684648322
 10
452.96019705489454
 20
-670.53469458869029
 10
452.95809715938458
 20
-670.53587738465069
 42
0.0248634984609673
 10
452.77050618879412
 20
-670.65419070762414
 10
452.74640872440165
 20
-670.67111922853735
 42
0.0267044190885159
 10
452.60926237594356
 20
-670.77883941647133
 42
0.0139303002205666
 10
452.48117879297416
 20
-670.89745883692729
 10
452.47875210011364
 20
-670.8998351683573
 42
0.0283460963447273
 10
452.3567158029997
 20
-671.03370049858029
 10
452.33688155042199
 20
-671.05810128731628
 42
0.0070695364824675
 10
452.29816293749178
 20
-671.10713469529912
 42
0.0070695364824675
  0
LWPOLYLINE
  5
4C
100
AcDbEntity
  8
0
370
              15
390
0
  6
Continuous
 62
               7
100
AcDbPolyline
 90
      226
 70
             128
 10
450.5337527188687
 20
-678.96792909839087
 42
-0.0026277636637346
 10
450.53371377696868
 20
-678.93454313552922
 10
450.53382245608469
 20
-678.90796552679785
 42
-0.0088680296721785
 10
450.5357107642314
 20
-678.82145763559117
 10
450.53688394378747
 20
-678.79181762286953
 42
-0.0077381705614625
 10
450.54490699916886
 20
-678.64618737497278
 10
450.54534095475555
 20
-678.640043258128
 42
-0.0068872530539301
 10
450.55865699462913
 20
-678.48243238209852
 10
450.55925910672266
 20
-678.47631189258414
 42
-0.0062130021485968
 10
450.57805596513697
 20
-678.30687704696197
 10
450.57880791690417
 20
-678.30079011100656
 42
-0.0056726929668213
 10
450.60326884665625
 20
-678.11969249994343
 10
450.60415556947754
 20
-678.11364559982724
 42
-0.0052341884494835
 10
450.63446086260774
 20
-677.92104897206707
 10
450.63546985699583
 20
-677.91504650707213
 42
-0.0049768450170794
 10
450.67183919770838
 20
-677.71112422335852
 10
450.6839637050698
 20
-677.6468502318528
 42
-0.0089029805623894
 10
450.75250413096717
 20
-677.31596250814164
 10
450.7688768186265
 20
-677.24344679287981
 42
-0.0080318257097639
 10
450.88365112579584
 20
-676.77059197695678
 10
450.88964358902098
 20
-676.74752665935785
 42
-0.0074265721317226
 10
451.03164935844836
 20
-676.23249437015932
 10
451.04158913000452
 20
-676.19842733987218
 42
-0.0069711922702096
 10
451.20524141925767
 20
-675.6652934697089
 10
451.23521739280795
 20
-675.57228279053118
 42
-0.0052070422894877
 10
451.34993000544011
 20
-675.22864675200799
 10
451.35857060153921
 20
-675.20363311166193
 42
-0.0009167004443397
 10
451.46011654517093
 20
-674.91140518762245
 42
-0.0025162726943876
 10
451.56366536030458
 20
-674.61988455553433
 10
451.58227766620098
 20
-674.56830978259893
 42
-0.0028212681460288
 10
451.70636562568637
 20
-674.23044446650295
 10
451.7112810070609
 20
-674.21729074416669
 42
-0.0031964916819591
 10
451.8294271358929
 20
-673.90718836310111
 10
451.83424436289209
 20
-673.89478336803018
 42
-0.0036281836452137
 10
451.946797343443
 20
-673.61106302758287
 10
451.95151654851765
 20
-673.59941431184154
 42
-0.00412691668329
 10
452.05882539685132
 20
-673.34069386384226
 10
452.07514187506013
 20
-673.30225464066541
 42
-0.0047472213060043
 10
452.15366427783846
 20
-673.12204390672002
 10
452.15711131844546
 20
-673.11433360804767
 42
-0.0025651660000941
 10
452.23129033536776
 20
-672.95066958017981
 42
-0.0057144634992218
 10
452.30816518225299
 20
-672.78826474349978
 10
452.32218053495569
 20
-672.75951055229837
 42
-0.006538806836884
 10
452.41391404882404
 20
-672.57739430396896
 10
452.41814327671381
 20
-672.56926451428319
 42
-0.0074510843024564
 10
452.50623439965204
 20
-672.40592037372289
 10
452.51032423491574
 20
-672.39859998509166
 42
-0.0084648979861576
 10
452.59514116146755
 20
-672.25264547960785
 10
452.59906922471384
 20
-672.24614198377867
 42
-0.0095638542800652
 10
452.68098694850875
 20
-672.11619754779315
 10
452.68472442034323
 20
-672.11051286706754
 42
-0.0107191626802394
 10
452.7641252105384
 20
-671.99520724979345
 10
452.76763357740379
 20
-671.99033920361137
 42
-0.0118458573905662
 10
452.84490762666019
 20
-671.88830310595574
 42
-0.0129184518197697
 10
452.927133938461
 20
-671.7902228478705
 10
452.94220632464385
 20
-671.77315980841922
 42
-0.0217742579627175
 10
453.03051248581022
 20
-671.68155642329577
 10
453.03588525803497
 20
-671.6764480066995
 42
-0.0097266568655023
 10
453.11891406746821
 20
-671.60052421947557
 42
-0.0187720905721654
 10
453.20608785541441
 20
-671.52948979277994
 10
453.22144085074962
 20
-671.5179102515832
 42
-0.0179428207519589
 10
453.33765121074811
 20
-671.43663416302707
 10
453.33947737420726
 20
-671.43545219558234
 42
-0.0170047877698047
 10
453.45735919297118
 20
-671.3647219385075
 10
453.45925068734277
 20
-671.36367278599027
 42
-0.0160190788364487
 10
453.57770496116211
 20
-671.30284713499532
 42
-0.015110286149863
 10
453.69972085238703
 20
-671.24950574696743
 10
453.72591410349139
 20
-671.23898568052073
 42
-0.0271945441882893
 10
453.90524538301946
 20
-671.17805327516805
 10
453.93977778326609
 20
-671.16837850453419
 42
-0.0237596594025159
 10
454.14767620677588
 20
-671.12065314854374
 10
454.18170763364077
 20
-671.11452580448042
 42
-0.0213715440552508
 10
454.32464509936375
 20
-671.09505228872547
 10
454.3547186824735
 20
-671.09225743137495
 42
-0.0101465655814442
 10
454.43846494846974
 20
-671.08618565974291
 10
454.44313514156823
 20
-671.08594220224427
 42
-0.0100375910881577
 10
454.51771219185014
 20
-671.08355429328162
 10
454.52284182669058
 20
-671.08349307377443
 42
-0.0103625633365083
 10
454.58719582401778
 20
-671.08405879053771
 10
454.59832864965273
 20
-671.08438746977026
 42
-0.0115689250232548
 10
454.64035401841511
 20
-671.08660222289268
 42
-0.00724380374322
 10
454.68227315813607
 20
-671.09039682276762
 10
454.69067341287109
 20
-671.09128009412962
 42
-0.0217917313139508
 10
454.74895829452703
 20
-671.09999004048996
 10
454.78175833981385
 20
-671.1063633446978
 42
-0.0332943556749305
 10
454.8839544223257
 20
-671.13338349035075
 10
454.89904070659907
 20
-671.13846752890936
 42
-0.0184824084814758
 10
454.96829323483337
 20
-671.16469303660324
 42
-0.0198002050687917
 10
455.03533040508239
 20
-671.1961350667026
 10
455.0362737237715
 20
-671.19662396014292
 42
-0.0212242342984341
 10
455.10234319497226
 20
-671.23450532953939
 10
455.10325084274422
 20
-671.23507823064369
 42
-0.022609060578871
 10
455.1675027933548
 20
-671.27981805242587
 10
455.16842501422366
 20
-671.28052417891968
 42
-0.0238457052230992
 10
455.23001605487053
 20
-671.33252212685113
 10
455.23099241914969
 20
-671.33342956573392
 42
-0.0248160564159856
 10
455.28909317279965
 20
-671.39306686633779
 10
455.29014498950113
 20
-671.39425953319051
 42
-0.0254109591462998
 10
455.343947598434
 20
-671.46190372617264
 10
455.34507160939108
 20
-671.46347450037297
 42
-0.0255528488281982
 10
455.39379494879006
 20
-671.53948802749096
 10
455.39496049874765
 20
-671.54152883329391
 42
-0.0252146793227712
 10
455.43785101175234
 20
-671.62627995629259
 10
455.43900213133111
 20
-671.6288709972489
 42
-0.0244265635958883
 10
455.47532947821151
 20
-671.72274428327103
 10
455.47995267894584
 20
-671.73667699244015
 42
-0.0231319612907321
 10
455.50291406844207
 20
-671.81832751584182
 42
-0.0112130424361218
 10
455.52023207971064
 20
-671.90142931593357
 10
455.52083334226734
 20
-671.90467760937986
 42
-0.021052788122574
 10
455.53367657995284
 20
-671.99520543210156
 10
455.53543187736364
 20
-672.01290820637416
 42
-0.0190029892424491
 10
455.54315261413592
 20
-672.13967612951069
 10
455.54355760235791
 20
-672.15741393669475
 42
-0.0137974553664744
 10
455.5427831759402
 20
-672.31992964005815
 10
455.54236044846238
 20
-672.33298901235764
 42
-0.0081336634214987
 10
455.53493078085108
 20
-672.48566274615746
 42
-0.0073526923574953
 10
455.52277651416449
 20
-672.6380368682926
 10
455.52214580227241
 20
-672.64470520563304
 42
-0.0066886138696332
 10
455.50427800924933
 20
-672.8099982273809
 10
455.50344946451429
 20
-672.81680903687743
 42
-0.0061359187357247
 10
455.47952416348852
 20
-672.99519102692977
 10
455.47850541295242
 20
-673.00213842834205
 42
-0.0056698610061393
 10
455.44818024756876
 20
-673.19377771276186
 10
455.44697753090736
 20
-673.20085727237642
 42
-0.0052721077279906
 10
455.40991143050775
 20
-673.40592094221438
 10
455.40852985608672
 20
-673.41312925990837
 42
-0.004928927217463
 10
455.36438279703617
 20
-673.63178351547174
 10
455.36282654969534
 20
-673.63911794187743
 42
-0.0047415956708542
 10
455.31120755392976
 20
-673.8715163205801
 10
455.29382344874927
 20
-673.94641986827435
 42
-0.0084404470900452
 10
455.1988152269617
 20
-674.32653188054633
 10
455.19575188297063
 20
-674.33796394261662
 42
-0.0039635940262842
 10
455.08502504083276
 20
-674.73845837472606
 10
455.07833664323891
 20
-674.76192418303629
 42
-0.007247504083706
 10
454.94461319930554
 20
-675.20653404123698
 10
454.90950703589522
 20
-675.31740421621237
 42
-0.0051345458827275
 10
454.76612734986412
 20
-675.75456681012292
 10
454.75536421647803
 20
-675.78627994369481
 42
-0.0019150016601526
 10
454.62759751304708
 20
-676.15805450380094
 10
454.6243637108542
 20
-676.16734823624654
 42
-0.0021524362751462
 10
454.50012468531702
 20
-676.51951114711574
 10
454.49551947497179
 20
-676.53238793625815
 42
-0.002433128682087
 10
454.37739184545075
 20
-676.85768759032555
 10
454.37286786917019
 20
-676.86995924351709
 42
-0.0027449721784304
 10
454.26056058375775
 20
-677.16952418296501
 10
454.25611558006585
 20
-677.18118547788004
 42
-0.003108322976965
 10
454.14934433675666
 20
-677.45614749668084
 10
454.14497627091907
 20
-677.46719235460932
 42
-0.003531134327979
 10
454.04345567812311
 20
-677.71868391747489
 10
454.03916300855013
 20
-677.72910527922807
 42
-0.0040245640955585
 10
453.94260710665202
 20
-677.9582599405262
 10
453.93838904985051
 20
-677.96804962456213
 42
-0.0046015135841765
 10
453.84651090326849
 20
-678.17600213938329
 10
453.84236781435402
 20
-678.18515070911008
 42
-0.0052768638267895
 10
453.75487905487671
 20
-678.3730371512446
 10
453.75081294956385
 20
-678.38153382051496
 42
-0.0060672675643689
 10
453.66742314318026
 20
-678.55049163207332
 10
453.66343840294053
 20
-678.55832426156996
 42
-0.0069904648861983
 10
453.58385420593868
 20
-678.70949216490374
 10
453.57995850613088
 20
-678.71664743952181
 42
-0.0080637022768506
 10
453.50388257596029
 20
-678.85116509109389
 10
453.50008805964683
 20
-678.85762902389058
 42
-0.0093006455662498
 10
453.42721772137901
 20
-678.97663622314576
 10
453.42354238800556
 20
-678.98239520773484
 42
-0.0107060778061891
 10
453.3535681162881
 20
-679.08703036642191
 10
453.35003723215272
 20
-679.09207313769855
 42
-0.0122723111423459
 10
453.28264037304916
 20
-679.18346980244939
 10
453.2824772612683
 20
-679.18367999635916
 42
-0.0141836319612935
 10
453.21068645978511
 20
-679.27096487526899
 10
453.20721258196278
 20
-679.27495237539722
 42
-0.0175957477225316
 10
453.13725949794173
 20
-679.34976281960371
 42
-0.008046635966325
 10
453.06352761542371
 20
-679.42092408368194
 10
453.0405103431678
 20
-679.44243430272491
 42
-0.0269600260399503
 10
452.91387022017733
 20
-679.54859593197887
 10
452.8805866520272
 20
-679.57357163929203
 42
-0.0178362839752014
 10
452.76061440719991
 20
-679.65708060241764
 10
452.75699192169839
 20
-679.6594148585209
 42
-0.0174650732653104
 10
452.63882382297902
 20
-679.72984534099965
 42
-0.0169240130160196
 10
452.51609070004798
 20
-679.79199147088934
 10
452.49309762227125
 20
-679.80267244867196
 42
-0.0318883036837913
 10
452.31792219446237
 20
-679.8708416034267
 10
452.28373942687779
 20
-679.88169191366512
 42
-0.0284435909900995
 10
452.09571436373346
 20
-679.92980063140226
 10
452.07813528348566
 20
-679.93324742931622
 42
-0.0243909341016918
 10
451.92141355302476
 20
-679.95610794483161
 10
451.89627318963926
 20
-679.95853071828242
 42
-0.0196639292931534
 10
451.78847540087554
 20
-679.96465486103921
 10
451.76256336529008
 20
-679.9651064914076
 42
-0.0100501510691088
 10
451.70635172446163
 20
-679.96495629223091
 10
451.69052179379946
 20
-679.96459575628842
 42
-0.0019752031131346
 10
451.66597562544888
 20
-679.96393967618326
 10
451.66459547384079
 20
-679.96389733027013
 42
0.0065378752008823
 10
451.64280718646035
 20
-679.96351388466269
 42
-0.0167974694646754
 10
451.62104177499367
 20
-679.96268393539958
 10
451.61900210536339
 20
-679.96253742995214
 42
-0.0081283276293297
 10
451.59322220649574
 20
-679.96026393313343
 10
451.58735241955492
 20
-679.95964997434407
 42
-0.0126703440175072
 10
451.54999327165888
 20
-679.95478257880848
 10
451.53859933781985
 20
-679.9530034508507
 42
-0.011785208844103
 10
451.47882984490434
 20
-679.94222195327222
 10
451.45113961902223
 20
-679.93655018315485
 42
-0.0251774592285936
 10
451.33771759951702
 20
-679.90730117843805
 10
451.31535800459108
 20
-679.90031776877026
 42
-0.0146525199880898
 10
451.22216151082347
 20
-679.86818450517171
 42
-0.0166929435851992
 10
451.13117268276022
 20
-679.83028093864448
 10
451.12884436712358
 20
-679.82921848833746
 42
-0.0191684358441303
 10
451.0362525514995
 20
-679.78260044644287
 10
451.03458625862044
 20
-679.78167982266586
 42
-0.0221181781808782
 10
450.94293110666899
 20
-679.72561307348019
 10
450.94175620466513
 20
-679.7248209244849
 42
-0.0254984685373816
 10
450.85361112947243
 20
-679.65861534950011
 10
450.84237005562136
 20
-679.6492391950319
 42
-0.0292492648810647
 10
450.77998558619993
 20
-679.59069279521054
 42
-0.0159048957499517
 10
450.72306558747567
 20
-679.52668279941179
 10
450.7224061921853
 20
-679.52589199290094
 42
-0.0343813379565725
 10
450.67108756137225
 20
-679.45495633001622
 10
450.6553417956917
 20
-679.4297046339691
 42
-0.0369117275700619
 10
450.61239554474309
 20
-679.3479660134949
 42
-0.019175137990732
 10
450.57879885196479
 20
-679.26176371049246
 10
450.57791719008486
 20
-679.25921703815447
 42
-0.0378178042228234
 10
450.55301983069268
 20
-679.16474665011356
 10
450.55002218282749
 20
-679.14846634101502
 42
-0.0184846046476269
 10
450.5396635831803
 20
-679.07758993074276
 42
-0.0179866351323834
 10
450.53449708064358
 20
-679.00614452419984
 10
450.53446885942077
 20
-679.00536568089592
 42
-0.0085497186154504
 10
450.5337527188687
 20
-678.96792909839087
 42
-0.0085497186154504
  0
ENDBLK
  5
4D
100
AcDbEntity
  8
template
390
0
100
AcDbBlockEnd
  0
BLOCK
  5
4E
100
AcDbEntity
  8
template
390
0
100
AcDbBlockBegin
  2
グループ-1
 70
               0
 10
0.0
 20
0.0
 30
0.0
  3
グループ-1
  1

  0
POLYLINE
  5
4F
100
AcDbEntity
  8
0
370
               9
390
0
  6
STYLE_01
 62
               7
100
AcDb2dPolyline
 66
               1
 10
0.0
 20
0.0
 30
0.0
 75
               5
  0
VERTEX
  5
50
100
AcDbEntity
  8
0
370
               9
390
0
  6
STYLE_01
 62
               7
100
AcDbVertex
100
AcDb2dVertex
 10
206.08146758140884
 20
212.19511315911717
 30
0.0
  0
VERTEX
  5
51
100
AcDbEntity
  8
0
370
               9
390
0
  6
STYLE_01
 62
               7
100
AcDbVertex
100
AcDb2dVertex
 10
210.58146758140884
 20
212.19511315911717
 30
0.0
  0
VERTEX
  5
52
100
AcDbEntity
  8
0
370
               9
390
0
  6
STYLE_01
 62
               7
100
AcDbVertex
100
AcDb2dVertex
 10
210.58146758140884
 20
202.19511315911717
 30
0.0
  0
VERTEX
  5
53
100
AcDbEntity
  8
0
370
               9
390
0
  6
STYLE_01
 62
               7
100
AcDbVertex
100
AcDb2dVertex
 10
206.08146758140884
 20
202.19511315911717
 30
0.0
  0
SEQEND
  5
54
100
AcDbEntity
  8
0
370
               9
390
0
  6
STYLE_01
 62
               7
  0
POLYLINE
  5
55
100
AcDbEntity
  8
0
370
               9
390
0
  6
STYLE_01
 62
               7
100
AcDb2dPolyline
 66
               1
 10
0.0
 20
0.0
 30
0.0
 75
               5
  0
VERTEX
  5
56
100
AcDbEntity
  8
0
370
               9
390
0
  6
STYLE_01
 62
               7
100
AcDbVertex
100
AcDb2dVertex
 10
203.08146758140884
 20
202.19511315911717
 30
0.0
  0
VERTEX
  5
57
100
AcDbEntity
  8
0
370
               9
390
0
  6
STYLE_01
 62
               7
100
AcDbVertex
100
AcDb2dVertex
 10
198.58146758140884
 20
202.19511315911717
 30
0.0
  0
VERTEX
  5
58
100
AcDbEntity
  8
0
370
               9
390
0
  6
STYLE_01
 62
               7
100
AcDbVertex
100
AcDb2dVertex
 10
198.58146758140884
 20
212.19511315911717
 30
0.0
  0
VERTEX
  5
59
100
AcDbEntity
  8
0
370
               9
390
0
  6
STYLE_01
 62
               7
100
AcDbVertex
100
AcDb2dVertex
 10
203.08146758140884
 20
212.19511315911717
 30
0.0
  0
SEQEND
  5
5A
100
AcDbEntity
  8
0
370
               9
390
0
  6
STYLE_01
 62
               7
  0
LINE
  5
5B
100
AcDbEntity
  8
0
370
               9
390
0
  6
STYLE_01
 62
               7
100
AcDbLine
 10
203.08146758140884
 20
202.19511315911717
 30
0.0
 11
204.58146758140884
 21
203.69511315911714
 31
0.0
  0
LINE
  5
5C
100
AcDbEntity
  8
0
370
               9
390
0
  6
STYLE_01
 62
               7
100
AcDbLine
 10
206.08146758140884
 20
202.19511315911717
 30
0.0
 11
204.58146758140884
 21
203.69511315911711
 31
0.0
  0
LINE
  5
5D
100
AcDbEntity
  8
0
370
               9
390
0
  6
STYLE_01
 62
               7
100
AcDbLine
 10
203.08146758140884
 20
212.19511315911717
 30
0.0
 11
204.58146758140884
 21
210.6951131591172
 31
0.0
  0
LINE
  5
5E
100
AcDbEntity
  8
0
370
               9
390
0
  6
STYLE_01
 62
               7
100
AcDbLine
 10
206.08146758140884
 20
212.19511315911717
 30
0.0
 11
204.58146758140884
 21
210.69511315911723
 31
0.0
  0
LINE
  5
5F
100
AcDbEntity
  8
0
370
               9
390
0
  6
STYLE_01
 62
               7
100
AcDbLine
 10
203.08146758140884
 20
212.19511315911717
 30
0.0
 11
203.08146758140884
 21
202.19511315911717
 31
0.0
  0
LINE
  5
60
100
AcDbEntity
  8
0
370
               9
390
0
  6
STYLE_01
 62
               7
100
AcDbLine
 10
206.08146758140884
 20
202.19511315911717
 30
0.0
 11
206.08146758140884
 21
212.19511315911717
 31
0.0
  0
ENDBLK
  5
61
100
AcDbEntity
  8
template
390
0
100
AcDbBlockEnd
  0
BLOCK
  5
62
100
AcDbEntity
  8
info
390
0
100
AcDbBlockBegin
  2
*D3
 70
               1
 10
0.0
 20
0.0
 30
0.0
  3
*D3
  1

  0
LINE
  5
63
100
AcDbEntity
  8
0
370
              -2
390
0
  6
Continuous
 62
               0
100
AcDbLine
 10
-240.0
 20
227.13396534380854
 30
0.0
 11
-240.0
 21
291.77517986482633
 31
0.0
  0
LINE
  5
64
100
AcDbEntity
  8
0
370
              -2
390
0
  6
Continuous
 62
               0
100
AcDbLine
 10
10.0
 20
227.13396534380854
 30
0.0
 11
10.0
 21
291.77517986482633
 31
0.0
  0
LINE
  5
65
100
AcDbEntity
  8
0
370
              -2
390
0
  6
Continuous
 62
               0
100
AcDbLine
 10
-240.0
 20
291.77517986482633
 30
0.0
 11
10.0
 21
291.77517986482633
 31
0.0
  0
CIRCLE
  5
66
102
{ACAD_REACTORS
330
67
102
}
100
AcDbEntity
  8
0
370
              -2
390
0
  6
Continuous
 62
               0
100
AcDbCircle
 10
-240.0
 20
291.77517986482633
 30
0.0
 40
0.99993896484375
  0
HATCH
  5
67
100
AcDbEntity
  8
0
370
              -2
390
0
  6
Continuous
 62
               0
100
AcDbHatch
 10
0.0
 20
0.0
 30
0.0
210
0.0
220
0.0
230
1.0
  2
SOLID
 70
               1
 71
               1
 91
        1
 92
        1
 93
        1
 72
               2
 10
-240.0
 20
291.77517986482633
 40
0.99993896484375
 50
0.0
 51
360.0
 73
               0
 97
        1
330
66
 75
               0
 76
               1
 98
        1
 10
0.0
 20
0.0
  0
CIRCLE
  5
68
102
{ACAD_REACTORS
330
69
102
}
100
AcDbEntity
  8
0
370
              -2
390
0
  6
Continuous
 62
               0
100
AcDbCircle
 10
10.0
 20
291.77517986482633
 30
0.0
 40
0.99993896484375
  0
HATCH
  5
69
100
AcDbEntity
  8
0
370
              -2
390
0
  6
Continuous
 62
               0
100
AcDbHatch
 10
0.0
 20
0.0
 30
0.0
210
0.0
220
0.0
230
1.0
  2
SOLID
 70
               1
 71
               1
 91
        1
 92
        1
 93
        1
 72
               2
 10
10.0
 20
291.77517986482633
 40
0.99993896484375
 50
0.0
 51
360.0
 73
               0
 97
        1
330
68
 75
               0
 76
               1
 98
        1
 10
0.0
 20
0.0
  0
MTEXT
  5
6A
100
AcDbEntity
  8
0
390
0
 62
               0
100
AcDbMText
 10
-126.90625084108774
 20
308.71398845857635
 30
0.0
 40
12.216308593750002
 41
0.0
 71
               1
 72
               1
  1
250
  7
ＭＳ ゴシック
 73
               1
 44
0.7828267384257843
  0
POINT
  5
6B
100
AcDbEntity
  8
Defpoints
370
               0
390
0
 62
               0
100
AcDbPoint
 10
10.0
 20
214.63396534380854
 30
0.0
  0
POINT
  5
6C
100
AcDbEntity
  8
Defpoints
370
               0
390
0
 62
               0
100
AcDbPoint
 10
-240.0
 20
214.63396534380854
 30
0.0
  0
POINT
  5
6D
100
AcDbEntity
  8
Defpoints
370
               0
390
0
 62
               0
100
AcDbPoint
 10
-240.0
 20
291.77517986482633
 30
0.0
  0
ENDBLK
  5
6E
100
AcDbEntity
  8
info
390
0
100
AcDbBlockEnd
  0
BLOCK
  5
6F
100
AcDbEntity
  8
info
390
0
100
AcDbBlockBegin
  2
*D4
 70
               1
 10
0.0
 20
0.0
 30
0.0
  3
*D4
  1

  0
LINE
  5
70
100
AcDbEntity
  8
0
370
              -2
390
0
  6
Continuous
 62
               0
100
AcDbLine
 10
150.58146758140975
 20
219.69511315911723
 30
0.0
 11
150.58146758140975
 21
291.77517986482633
 31
0.0
  0
LINE
  5
71
100
AcDbEntity
  8
0
370
              -2
390
0
  6
Continuous
 62
               0
100
AcDbLine
 10
210.58146758140884
 20
227.695113159117
 30
0.0
 11
210.58146758140884
 21
291.77517986482633
 31
0.0
  0
LINE
  5
72
100
AcDbEntity
  8
0
370
              -2
390
0
  6
Continuous
 62
               0
100
AcDbLine
 10
150.58146758140975
 20
291.77517986482633
 30
0.0
 11
210.58146758140884
 21
291.77517986482633
 31
0.0
  0
CIRCLE
  5
73
102
{ACAD_REACTORS
330
74
102
}
100
AcDbEntity
  8
0
370
              -2
390
0
  6
Continuous
 62
               0
100
AcDbCircle
 10
150.58146758140975
 20
291.77517986482633
 30
0.0
 40
0.99993896484375
  0
HATCH
  5
74
100
AcDbEntity
  8
0
370
              -2
390
0
  6
Continuous
 62
               0
100
AcDbHatch
 10
0.0
 20
0.0
 30
0.0
210
0.0
220
0.0
230
1.0
  2
SOLID
 70
               1
 71
               1
 91
        1
 92
        1
 93
        1
 72
               2
 10
150.58146758140975
 20
291.77517986482633
 40
0.99993896484375
 50
0.0
 51
360.0
 73
               0
 97
        1
330
73
 75
               0
 76
               1
 98
        1
 10
0.0
 20
0.0
  0
CIRCLE
  5
75
102
{ACAD_REACTORS
330
76
102
}
100
AcDbEntity
  8
0
370
              -2
390
0
  6
Continuous
 62
               0
100
AcDbCircle
 10
210.58146758140884
 20
291.77517986482633
 30
0.0
 40
0.99993896484375
  0
HATCH
  5
76
100
AcDbEntity
  8
0
370
              -2
390
0
  6
Continuous
 62
               0
100
AcDbHatch
 10
0.0
 20
0.0
 30
0.0
210
0.0
220
0.0
230
1.0
  2
SOLID
 70
               1
 71
               1
 91
        1
 92
        1
 93
        1
 72
               2
 10
210.58146758140884
 20
291.77517986482633
 40
0.99993896484375
 50
0.0
 51
360.0
 73
               0
 97
        1
330
75
 75
               0
 76
               1
 98
        1
 10
0.0
 20
0.0
  0
MTEXT
  5
77
100
AcDbEntity
  8
0
390
0
 62
               0
100
AcDbMText
 10
172.6439675814093
 20
308.71398845857635
 30
0.0
 40
12.216308593750002
 41
0.0
 71
               1
 72
               1
  1
60
  7
ＭＳ ゴシック
 73
               1
 44
0.7828267384257843
  0
POINT
  5
78
100
AcDbEntity
  8
Defpoints
370
               0
390
0
 62
               0
100
AcDbPoint
 10
210.58146758140884
 20
215.195113159117
 30
0.0
  0
POINT
  5
79
100
AcDbEntity
  8
Defpoints
370
               0
390
0
 62
               0
100
AcDbPoint
 10
150.58146758140975
 20
207.19511315911723
 30
0.0
  0
POINT
  5
7A
100
AcDbEntity
  8
Defpoints
370
               0
390
0
 62
               0
100
AcDbPoint
 10
150.58146758140975
 20
291.77517986482633
 30
0.0
  0
ENDBLK
  5
7B
100
AcDbEntity
  8
info
390
0
100
AcDbBlockEnd
  0
BLOCK
  5
7C
100
AcDbEntity
  8
info
390
0
100
AcDbBlockBegin
  2
*D5
 70
               1
 10
0.0
 20
0.0
 30
0.0
  3
*D5
  1

  0
LINE
  5
7D
100
AcDbEntity
  8
0
370
              -2
390
0
  6
Continuous
 62
               0
100
AcDbLine
 10
146.08146758140975
 20
215.19511315911717
 30
0.0
 11
130.58146758140981
 21
215.19511315911717
 31
0.0
  0
LINE
  5
7E
100
AcDbEntity
  8
0
370
              -2
390
0
  6
Continuous
 62
               0
100
AcDbLine
 10
146.08146758140975
 20
199.19511315911723
 30
0.0
 11
130.58146758140981
 21
199.19511315911723
 31
0.0
  0
LINE
  5
7F
100
AcDbEntity
  8
0
370
              -2
390
0
  6
Continuous
 62
               0
100
AcDbLine
 10
130.58146758140981
 20
215.19511315911717
 30
0.0
 11
130.58146758140981
 21
199.19511315911723
 31
0.0
  0
CIRCLE
  5
80
102
{ACAD_REACTORS
330
81
102
}
100
AcDbEntity
  8
0
370
              -2
390
0
  6
Continuous
 62
               0
100
AcDbCircle
 10
130.58146758140981
 20
215.19511315911717
 30
0.0
 40
0.99993896484375
  0
HATCH
  5
81
100
AcDbEntity
  8
0
370
              -2
390
0
  6
Continuous
 62
               0
100
AcDbHatch
 10
0.0
 20
0.0
 30
0.0
210
0.0
220
0.0
230
1.0
  2
SOLID
 70
               1
 71
               1
 91
        1
 92
        1
 93
        1
 72
               2
 10
130.58146758140981
 20
215.19511315911717
 40
0.99993896484375
 50
0.0
 51
360.0
 73
               0
 97
        1
330
80
 75
               0
 76
               1
 98
        1
 10
0.0
 20
0.0
  0
CIRCLE
  5
82
102
{ACAD_REACTORS
330
83
102
}
100
AcDbEntity
  8
0
370
              -2
390
0
  6
Continuous
 62
               0
100
AcDbCircle
 10
130.58146758140981
 20
199.19511315911723
 30
0.0
 40
0.99993896484375
  0
HATCH
  5
83
100
AcDbEntity
  8
0
370
              -2
390
0
  6
Continuous
 62
               0
100
AcDbHatch
 10
0.0
 20
0.0
 30
0.0
210
0.0
220
0.0
230
1.0
  2
SOLID
 70
               1
 71
               1
 91
        1
 92
        1
 93
        1
 72
               2
 10
130.58146758140981
 20
199.19511315911723
 40
0.99993896484375
 50
0.0
 51
360.0
 73
               0
 97
        1
330
82
 75
               0
 76
               1
 98
        1
 10
0.0
 20
0.0
  0
MTEXT
  5
84
100
AcDbEntity
  8
0
390
0
 62
               0
100
AcDbMText
 10
113.64265898765981
 20
199.2576131591172
 30
0.0
 40
12.216308593750002
 41
0.0
 71
               1
 72
               1
  1
16
  7
ＭＳ ゴシック
 11
0.0
 21
1.0
 31
0.0
 73
               1
 44
0.7828267384257843
  0
POINT
  5
85
100
AcDbEntity
  8
Defpoints
370
               0
390
0
 62
               0
100
AcDbPoint
 10
158.58146758140975
 20
199.19511315911723
 30
0.0
  0
POINT
  5
86
100
AcDbEntity
  8
Defpoints
370
               0
390
0
 62
               0
100
AcDbPoint
 10
158.58146758140975
 20
215.19511315911717
 30
0.0
  0
POINT
  5
87
100
AcDbEntity
  8
Defpoints
370
               0
390
0
 62
               0
100
AcDbPoint
 10
130.58146758140981
 20
215.19511315911717
 30
0.0
  0
ENDBLK
  5
88
100
AcDbEntity
  8
info
390
0
100
AcDbBlockEnd
  0
BLOCK
  5
89
100
AcDbEntity
  8
info
390
0
100
AcDbBlockBegin
  2
*D6
 70
               1
 10
0.0
 20
0.0
 30
0.0
  3
*D6
  1

  0
LINE
  5
8A
100
AcDbEntity
  8
0
370
              -2
390
0
  6
Continuous
 62
               0
100
AcDbLine
 10
22.0
 20
-53.224820135173672
 30
0.0
 11
48.999999999998977
 21
-53.224820135173672
 31
0.0
  0
LINE
  5
8B
100
AcDbEntity
  8
0
370
              -2
390
0
  6
Continuous
 62
               0
100
AcDbLine
 10
22.5
 20
-113.22482013517367
 30
0.0
 11
48.999999999998977
 21
-113.22482013517367
 31
0.0
  0
LINE
  5
8C
100
AcDbEntity
  8
0
370
              -2
390
0
  6
Continuous
 62
               0
100
AcDbLine
 10
48.999999999998977
 20
-53.224820135173672
 30
0.0
 11
48.999999999998977
 21
-113.22482013517367
 31
0.0
  0
CIRCLE
  5
8D
102
{ACAD_REACTORS
330
8E
102
}
100
AcDbEntity
  8
0
370
              -2
390
0
  6
Continuous
 62
               0
100
AcDbCircle
 10
48.999999999998977
 20
-53.224820135173672
 30
0.0
 40
0.99993896484375
  0
HATCH
  5
8E
100
AcDbEntity
  8
0
370
              -2
390
0
  6
Continuous
 62
               0
100
AcDbHatch
 10
0.0
 20
0.0
 30
0.0
210
0.0
220
0.0
230
1.0
  2
SOLID
 70
               1
 71
               1
 91
        1
 92
        1
 93
        1
 72
               2
 10
48.999999999998977
 20
-53.224820135173672
 40
0.99993896484375
 50
0.0
 51
360.0
 73
               0
 97
        1
330
8D
 75
               0
 76
               1
 98
        1
 10
0.0
 20
0.0
  0
CIRCLE
  5
8F
102
{ACAD_REACTORS
330
90
102
}
100
AcDbEntity
  8
0
370
              -2
390
0
  6
Continuous
 62
               0
100
AcDbCircle
 10
48.999999999998977
 20
-113.22482013517367
 30
0.0
 40
0.99993896484375
  0
HATCH
  5
90
100
AcDbEntity
  8
0
370
              -2
390
0
  6
Continuous
 62
               0
100
AcDbHatch
 10
0.0
 20
0.0
 30
0.0
210
0.0
220
0.0
230
1.0
  2
SOLID
 70
               1
 71
               1
 91
        1
 92
        1
 93
        1
 72
               2
 10
48.999999999998977
 20
-113.22482013517367
 40
0.99993896484375
 50
0.0
 51
360.0
 73
               0
 97
        1
330
8F
 75
               0
 76
               1
 98
        1
 10
0.0
 20
0.0
  0
MTEXT
  5
91
100
AcDbEntity
  8
0
390
0
 62
               0
100
AcDbMText
 10
32.061191406248973
 20
-91.162320135173672
 30
0.0
 40
12.216308593750002
 41
0.0
 71
               1
 72
               1
  1
60
  7
ＭＳ ゴシック
 11
0.0
 21
1.0
 31
0.0
 73
               1
 44
0.7828267384257843
  0
POINT
  5
92
100
AcDbEntity
  8
Defpoints
370
               0
390
0
 62
               0
100
AcDbPoint
 10
10.0
 20
-113.22482013517367
 30
0.0
  0
POINT
  5
93
100
AcDbEntity
  8
Defpoints
370
               0
390
0
 62
               0
100
AcDbPoint
 10
9.5
 20
-53.224820135173672
 30
0.0
  0
POINT
  5
94
100
AcDbEntity
  8
Defpoints
370
               0
390
0
 62
               0
100
AcDbPoint
 10
48.999999999998977
 20
-53.224820135173672
 30
0.0
  0
ENDBLK
  5
95
100
AcDbEntity
  8
info
390
0
100
AcDbBlockEnd
  0
BLOCK
  5
96
100
AcDbEntity
  8
info
390
0
100
AcDbBlockBegin
  2
*D7
 70
               1
 10
0.0
 20
0.0
 30
0.0
  3
*D7
  1

  0
LINE
  5
97
100
AcDbEntity
  8
0
370
              -2
390
0
  6
Continuous
 62
               0
100
AcDbLine
 10
-111.46759764832206
 20
-113.42375320465715
 30
0.0
 11
-82.58367486045654
 21
-144.05821676754482
 31
0.0
  0
CIRCLE
  5
98
102
{ACAD_REACTORS
330
99
102
}
100
AcDbEntity
  8
0
370
              -2
390
0
  6
Continuous
 62
               0
100
AcDbCircle
 10
-111.46759764832206
 20
-113.42375320465715
 30
0.0
 40
1.9998779296875
  0
HATCH
  5
99
100
AcDbEntity
  8
0
370
              -2
390
0
  6
Continuous
 62
               0
100
AcDbHatch
 10
0.0
 20
0.0
 30
0.0
210
0.0
220
0.0
230
1.0
  2
SOLID
 70
               1
 71
               1
 91
        1
 92
        1
 93
        1
 72
               2
 10
-111.46759764832206
 20
-113.42375320465715
 40
1.9998779296875
 50
0.0
 51
360.0
 73
               0
 97
        1
330
98
 75
               0
 76
               1
 98
        1
 10
0.0
 20
0.0
  0
LINE
  5
9A
100
AcDbEntity
  8
0
370
              -2
390
0
  6
Continuous
 62
               0
100
AcDbLine
 10
-82.58367486045654
 20
-144.05821676754482
 30
0.0
 11
-35.83367486045654
 21
-144.05821676754482
 31
0.0
  0
MTEXT
  5
9B
100
AcDbEntity
  8
0
390
0
 62
               0
100
AcDbMText
 10
-67.58367486045654
 20
-127.11940817379482
 30
0.0
 40
12.216308593750002
 41
0.0
 71
               1
 72
               1
  1
φ16
  7
ＭＳ ゴシック
 73
               1
 44
0.7828267384257843
  0
POINT
  5
9C
100
AcDbEntity
  8
Defpoints
370
               0
390
0
 62
               0
100
AcDbPoint
 10
-119.69975207259117
 20
-104.69268033043249
 30
0.0
  0
POINT
  5
9D
100
AcDbEntity
  8
Defpoints
370
               0
390
0
 62
               0
100
AcDbPoint
 10
-111.46759764832206
 20
-113.42375320465715
 30
0.0
  0
ENDBLK
  5
9E
100
AcDbEntity
  8
info
390
0
100
AcDbBlockEnd
  0
BLOCK
  5
9F
100
AcDbEntity
  8
SHL74-1009
390
0
100
AcDbBlockBegin
  2
グループ-2
 70
               0
 10
0.0
 20
0.0
 30
0.0
  3
グループ-2
  1

  0
LINE
  5
A0
100
AcDbEntity
  8
0
370
              15
390
0
  6
Continuous
 62
               7
100
AcDbLine
 10
-230.2500980057041
 20
-53.927936480038525
 30
0.0
 11
-233.7499019942959
 21
-52.52170379030882
 31
0.0
  0
LINE
  5
A1
100
AcDbEntity
  8
0
370
              15
390
0
  6
Continuous
 62
               7
100
AcDbLine
 10
-230.2500980057041
 20
-52.52170379030882
 30
0.0
 11
-233.7499019942959
 21
-51.115471100579057
 31
0.0
  0
LINE
  5
A2
100
AcDbEntity
  8
0
370
              15
390
0
  6
Continuous
 62
               7
100
AcDbLine
 10
-230.2500980057041
 20
-51.115471100579057
 30
0.0
 11
-233.7499019942959
 21
-49.709238410849352
 31
0.0
  0
LINE
  5
A3
100
AcDbEntity
  8
0
370
              15
390
0
  6
Continuous
 62
               7
100
AcDbLine
 10
-230.2500980057041
 20
-49.709238410849352
 30
0.0
 11
-233.7499019942959
 21
-48.303005721119618
 31
0.0
  0
LINE
  5
A4
100
AcDbEntity
  8
0
370
              15
390
0
  6
Continuous
 62
               7
100
AcDbLine
 10
-230.2500980057041
 20
-48.303005721119618
 30
0.0
 11
-233.7499019942959
 21
-46.896773031389884
 31
0.0
  0
LINE
  5
A5
100
AcDbEntity
  8
0
370
              15
390
0
  6
Continuous
 62
               7
100
AcDbLine
 10
-230.2500980057041
 20
-46.896773031389884
 30
0.0
 11
-233.7499019942959
 21
-45.490540341660179
 31
0.0
  0
LINE
  5
A6
100
AcDbEntity
  8
0
370
              15
390
0
  6
Continuous
 62
               7
100
AcDbLine
 10
-230.2500980057041
 20
-41.271842272470863
 30
0.0
 11
-233.7499019942959
 21
-39.865609582741101
 31
0.0
  0
LINE
  5
A7
100
AcDbEntity
  8
0
370
              15
390
0
  6
Continuous
 62
               7
100
AcDbLine
 10
-230.2500980057041
 20
-42.678074962200625
 30
0.0
 11
-233.7499019942959
 21
-41.271842272470863
 31
0.0
  0
LINE
  5
A8
100
AcDbEntity
  8
0
370
              15
390
0
  6
Continuous
 62
               7
100
AcDbLine
 10
-230.2500980057041
 20
-39.865609582741101
 30
0.0
 11
-233.7499019942959
 21
-38.459376893011395
 31
0.0
  0
LINE
  5
A9
100
AcDbEntity
  8
0
370
              15
390
0
  6
Continuous
 62
               7
100
AcDbLine
 10
-230.2500980057041
 20
-38.459376893011395
 30
0.0
 11
-233.7499019942959
 21
-37.053144203281633
 31
0.0
  0
LINE
  5
AA
100
AcDbEntity
  8
0
370
              15
390
0
  6
Continuous
 62
               7
100
AcDbLine
 10
-230.2500980057041
 20
-37.053144203281633
 30
0.0
 11
-233.7499019942959
 21
-35.646911513551899
 31
0.0
  0
LINE
  5
AB
100
AcDbEntity
  8
0
370
              15
390
0
  6
Continuous
 62
               7
100
AcDbLine
 10
-230.2500980057041
 20
-35.646911513551899
 30
0.0
 11
-233.7499019942959
 21
-34.240678823822137
 31
0.0
  0
LINE
  5
AC
100
AcDbEntity
  8
0
370
              15
390
0
  6
Continuous
 62
               7
100
AcDbLine
 10
-230.2500980057041
 20
-34.240678823822137
 30
0.0
 11
-233.7499019942959
 21
-32.834446134092332
 31
0.0
  0
LINE
  5
AD
100
AcDbEntity
  8
0
370
              15
390
0
  6
Continuous
 62
               7
100
AcDbLine
 10
-230.2500980057041
 20
-32.834446134092332
 30
0.0
 11
-233.7499019942959
 21
-31.428213444362626
 31
0.0
  0
LINE
  5
AE
100
AcDbEntity
  8
0
370
              15
390
0
  6
Continuous
 62
               7
100
AcDbLine
 10
-230.2500980057041
 20
-45.490540341660179
 30
0.0
 11
-233.7499019942959
 21
-44.084307651930388
 31
0.0
  0
LINE
  5
AF
100
AcDbEntity
  8
0
370
              15
390
0
  6
Continuous
 62
               7
100
AcDbLine
 10
-230.2500980057041
 20
-31.428213444362626
 30
0.0
 11
-233.7499019942959
 21
-30.02198075463285
 31
0.0
  0
LINE
  5
B0
100
AcDbEntity
  8
0
370
              15
390
0
  6
Continuous
 62
               7
100
AcDbLine
 10
-230.2500980057041
 20
-28.615748064903087
 30
0.0
 11
-233.7499019942959
 21
-27.209515375173297
 31
0.0
  0
LINE
  5
B1
100
AcDbEntity
  8
0
370
              15
390
0
  6
Continuous
 62
               7
100
AcDbLine
 10
-230.2500980057041
 20
-27.209515375173297
 30
0.0
 11
-233.7499019942959
 21
-25.803282685443577
 31
0.0
  0
LINE
  5
B2
100
AcDbEntity
  8
0
370
              15
390
0
  6
Continuous
 62
               7
100
AcDbLine
 10
-230.2500980057041
 20
-30.02198075463285
 30
0.0
 11
-233.7499019942959
 21
-28.615748064903087
 31
0.0
  0
LINE
  5
B3
100
AcDbEntity
  8
0
370
              15
390
0
  6
Continuous
 62
               7
100
AcDbLine
 10
-232.0
 20
-20.178351926524485
 30
0.0
 11
-233.7499019942959
 21
-25.803282685443577
 31
0.0
  0
LINE
  5
B4
100
AcDbEntity
  8
0
370
              15
390
0
  6
Continuous
 62
               7
100
AcDbLine
 10
-232.0
 20
-20.178351926524485
 30
0.0
 11
-230.2500980057041
 21
-25.803282685443577
 31
0.0
  0
LINE
  5
B5
100
AcDbEntity
  8
0
370
              15
390
0
  6
Continuous
 62
               7
100
AcDbLine
 10
-230.2500980057041
 20
-44.084307651930388
 30
0.0
 11
-233.7499019942959
 21
-42.678074962200625
 31
0.0
  0
LINE
  5
B6
100
AcDbEntity
  8
0
370
              15
390
0
  6
Continuous
 62
               7
100
AcDbLine
 10
-230.2500980057041
 20
-54.127399072757711
 30
0.0
 11
-230.2500980057041
 21
-25.803282685443577
 31
0.0
  0
LINE
  5
B7
100
AcDbEntity
  8
0
370
              15
390
0
  6
Continuous
 62
               7
100
AcDbLine
 10
-233.7499019942959
 20
-54.127399072757711
 30
0.0
 11
-233.7499019942959
 21
-25.803836614091665
 31
0.0
  0
ENDBLK
  5
B8
100
AcDbEntity
  8
SHL74-1009
390
0
100
AcDbBlockEnd
  0
BLOCK
  5
B9
100
AcDbEntity
  8
SHL74-1009
390
0
100
AcDbBlockBegin
  2
グループ-3
 70
               0
 10
0.0
 20
0.0
 30
0.0
  3
グループ-3
  1

  0
LINE
  5
BA
100
AcDbEntity
  8
0
370
              15
390
0
  6
Continuous
 62
               7
100
AcDbLine
 10
3.7499019942959109
 20
-53.927936480038525
 30
0.0
 11
0.250098005704146
 21
-52.52170379030882
 31
0.0
  0
LINE
  5
BB
100
AcDbEntity
  8
0
370
              15
390
0
  6
Continuous
 62
               7
100
AcDbLine
 10
3.7499019942959109
 20
-52.52170379030882
 30
0.0
 11
0.250098005704146
 21
-51.115471100579057
 31
0.0
  0
LINE
  5
BC
100
AcDbEntity
  8
0
370
              15
390
0
  6
Continuous
 62
               7
100
AcDbLine
 10
3.7499019942959109
 20
-51.115471100579057
 30
0.0
 11
0.250098005704146
 21
-49.709238410849352
 31
0.0
  0
LINE
  5
BD
100
AcDbEntity
  8
0
370
              15
390
0
  6
Continuous
 62
               7
100
AcDbLine
 10
3.7499019942959109
 20
-49.709238410849352
 30
0.0
 11
0.250098005704146
 21
-48.303005721119618
 31
0.0
  0
LINE
  5
BE
100
AcDbEntity
  8
0
370
              15
390
0
  6
Continuous
 62
               7
100
AcDbLine
 10
3.7499019942959109
 20
-48.303005721119618
 30
0.0
 11
0.250098005704146
 21
-46.896773031389884
 31
0.0
  0
LINE
  5
BF
100
AcDbEntity
  8
0
370
              15
390
0
  6
Continuous
 62
               7
100
AcDbLine
 10
3.7499019942959109
 20
-46.896773031389884
 30
0.0
 11
0.250098005704146
 21
-45.490540341660179
 31
0.0
  0
LINE
  5
C0
100
AcDbEntity
  8
0
370
              15
390
0
  6
Continuous
 62
               7
100
AcDbLine
 10
3.7499019942959109
 20
-41.271842272470863
 30
0.0
 11
0.250098005704146
 21
-39.865609582741101
 31
0.0
  0
LINE
  5
C1
100
AcDbEntity
  8
0
370
              15
390
0
  6
Continuous
 62
               7
100
AcDbLine
 10
3.7499019942959109
 20
-42.678074962200625
 30
0.0
 11
0.250098005704146
 21
-41.271842272470863
 31
0.0
  0
LINE
  5
C2
100
AcDbEntity
  8
0
370
              15
390
0
  6
Continuous
 62
               7
100
AcDbLine
 10
3.7499019942959109
 20
-39.865609582741101
 30
0.0
 11
0.250098005704146
 21
-38.459376893011395
 31
0.0
  0
LINE
  5
C3
100
AcDbEntity
  8
0
370
              15
390
0
  6
Continuous
 62
               7
100
AcDbLine
 10
3.7499019942959109
 20
-38.459376893011395
 30
0.0
 11
0.250098005704146
 21
-37.053144203281633
 31
0.0
  0
LINE
  5
C4
100
AcDbEntity
  8
0
370
              15
390
0
  6
Continuous
 62
               7
100
AcDbLine
 10
3.7499019942959109
 20
-37.053144203281633
 30
0.0
 11
0.250098005704146
 21
-35.646911513551899
 31
0.0
  0
LINE
  5
C5
100
AcDbEntity
  8
0
370
              15
390
0
  6
Continuous
 62
               7
100
AcDbLine
 10
3.7499019942959109
 20
-35.646911513551899
 30
0.0
 11
0.250098005704146
 21
-34.240678823822137
 31
0.0
  0
LINE
  5
C6
100
AcDbEntity
  8
0
370
              15
390
0
  6
Continuous
 62
               7
100
AcDbLine
 10
3.7499019942959109
 20
-34.240678823822137
 30
0.0
 11
0.250098005704146
 21
-32.834446134092332
 31
0.0
  0
LINE
  5
C7
100
AcDbEntity
  8
0
370
              15
390
0
  6
Continuous
 62
               7
100
AcDbLine
 10
3.7499019942959109
 20
-32.834446134092332
 30
0.0
 11
0.250098005704146
 21
-31.428213444362626
 31
0.0
  0
LINE
  5
C8
100
AcDbEntity
  8
0
370
              15
390
0
  6
Continuous
 62
               7
100
AcDbLine
 10
3.7499019942959109
 20
-45.490540341660179
 30
0.0
 11
0.250098005704146
 21
-44.084307651930388
 31
0.0
  0
LINE
  5
C9
100
AcDbEntity
  8
0
370
              15
390
0
  6
Continuous
 62
               7
100
AcDbLine
 10
3.7499019942959109
 20
-31.428213444362626
 30
0.0
 11
0.250098005704146
 21
-30.02198075463285
 31
0.0
  0
LINE
  5
CA
100
AcDbEntity
  8
0
370
              15
390
0
  6
Continuous
 62
               7
100
AcDbLine
 10
3.7499019942959109
 20
-28.615748064903087
 30
0.0
 11
0.250098005704146
 21
-27.209515375173297
 31
0.0
  0
LINE
  5
CB
100
AcDbEntity
  8
0
370
              15
390
0
  6
Continuous
 62
               7
100
AcDbLine
 10
3.7499019942959109
 20
-27.209515375173297
 30
0.0
 11
0.250098005704146
 21
-25.803282685443577
 31
0.0
  0
LINE
  5
CC
100
AcDbEntity
  8
0
370
              15
390
0
  6
Continuous
 62
               7
100
AcDbLine
 10
3.7499019942959109
 20
-30.02198075463285
 30
0.0
 11
0.250098005704146
 21
-28.615748064903087
 31
0.0
  0
LINE
  5
CD
100
AcDbEntity
  8
0
370
              15
390
0
  6
Continuous
 62
               7
100
AcDbLine
 10
2.0000000000000284
 20
-20.178351926524485
 30
0.0
 11
0.250098005704146
 21
-25.803282685443577
 31
0.0
  0
LINE
  5
CE
100
AcDbEntity
  8
0
370
              15
390
0
  6
Continuous
 62
               7
100
AcDbLine
 10
2.0000000000000284
 20
-20.178351926524485
 30
0.0
 11
3.7499019942959109
 21
-25.803282685443577
 31
0.0
  0
LINE
  5
CF
100
AcDbEntity
  8
0
370
              15
390
0
  6
Continuous
 62
               7
100
AcDbLine
 10
3.7499019942959109
 20
-44.084307651930388
 30
0.0
 11
0.250098005704146
 21
-42.678074962200625
 31
0.0
  0
LINE
  5
D0
100
AcDbEntity
  8
0
370
              15
390
0
  6
Continuous
 62
               7
100
AcDbLine
 10
3.7499019942959109
 20
-54.127399072757711
 30
0.0
 11
3.7499019942959109
 21
-25.803282685443577
 31
0.0
  0
LINE
  5
D1
100
AcDbEntity
  8
0
370
              15
390
0
  6
Continuous
 62
               7
100
AcDbLine
 10
0.250098005704146
 20
-54.127399072757711
 30
0.0
 11
0.250098005704146
 21
-25.803836614091665
 31
0.0
  0
ENDBLK
  5
D2
100
AcDbEntity
  8
SHL74-1009
390
0
100
AcDbBlockEnd
  0
BLOCK
  5
D3
100
AcDbEntity
  8
SHL74-1009
390
0
100
AcDbBlockBegin
  2
*D10
 70
               1
 10
0.0
 20
0.0
 30
0.0
  3
*D10
  1

  0
LINE
  5
D4
100
AcDbEntity
  8
0
370
              -2
390
0
  6
Continuous
 62
               0
100
AcDbLine
 10
-223.88392278786563
 20
-77.634463562887575
 30
0.0
 11
-195.0
 21
-47.0
 31
0.0
  0
CIRCLE
  5
D5
102
{ACAD_REACTORS
330
D6
102
}
100
AcDbEntity
  8
0
370
              -2
390
0
  6
Continuous
 62
               0
100
AcDbCircle
 10
-223.88392278786563
 20
-77.634463562887575
 30
0.0
 40
1.9998779296875
  0
HATCH
  5
D6
100
AcDbEntity
  8
0
370
              -2
390
0
  6
Continuous
 62
               0
100
AcDbHatch
 10
0.0
 20
0.0
 30
0.0
210
0.0
220
0.0
230
1.0
  2
SOLID
 70
               1
 71
               1
 91
        1
 92
        1
 93
        1
 72
               2
 10
-223.88392278786563
 20
-77.634463562887575
 40
1.9998779296875
 50
0.0
 51
360.0
 73
               0
 97
        1
330
D5
 75
               0
 76
               1
 98
        1
 10
0.0
 20
0.0
  0
LINE
  5
D7
100
AcDbEntity
  8
0
370
              -2
390
0
  6
Continuous
 62
               0
100
AcDbLine
 10
-195.0
 20
-47.0
 30
0.0
 11
-140.3125
 21
-47.0
 31
0.0
  0
MTEXT
  5
D8
100
AcDbEntity
  8
0
390
0
 62
               0
100
AcDbMText
 10
-180.0
 20
-30.061191406249996
 30
0.0
 40
12.216308593750002
 41
0.0
 71
               1
 72
               1
  1
16x16
  7
ＭＳ ゴシック
 73
               1
 44
0.7828267384257843
  0
POINT
  5
D9
100
AcDbEntity
  8
Defpoints
370
               0
390
0
 62
               0
100
AcDbPoint
 10
-233.87500000000028
 20
-88.231060606060623
 30
0.0
  0
POINT
  5
DA
100
AcDbEntity
  8
Defpoints
370
               0
390
0
 62
               0
100
AcDbPoint
 10
-223.88392278786563
 20
-77.634463562887575
 30
0.0
  0
ENDBLK
  5
DB
100
AcDbEntity
  8
SHL74-1009
390
0
100
AcDbBlockEnd
  0
ENDSEC
  0
SECTION
  2
ENTITIES
  0
MTEXT
  5
DC
100
AcDbEntity
  8
template
390
0
 62
               7
100
AcDbMText
 10
-483.99999999987944
 20
-572.13206370081809
 30
0.0
 40
8.1442057291666661
 41
0.0
 71
               1
 72
               1
  1
品名
  7
ＭＳ ゴシック
 73
               1
 44
0.7828267384257843
  0
MTEXT
  5
DD
100
AcDbEntity
  8
template
390
0
 62
               7
100
AcDbMText
 10
-483.99999999987944
 20
-614.63206370081798
 30
0.0
 40
8.1442057291666661
 41
0.0
 71
               1
 72
               1
  1
仕様
  7
ＭＳ ゴシック
 73
               1
 44
0.7828267384257843
  0
MTEXT
  5
DE
100
AcDbEntity
  8
template
390
0
 62
               7
100
AcDbMText
 10
-457.49999999987944
 20
-586.42329416956807
 30
0.0
 40
12.216308593750002
 41
0.0
 71
               1
 72
               1
  1
タオルバー　-TFORM-
  7
ＭＳ ゴシック
 73
               1
 44
0.7828267384257843
  0
LINE
  5
DF
100
AcDbEntity
  8
template
370
               5
390
0
  6
Continuous
 62
               7
100
AcDbLine
 10
487.49999999987932
 20
-610.42460276331803
 30
0.0
 11
-487.50000000012056
 21
-610.42460276331803
 31
0.0
  0
LWPOLYLINE
  5
E0
100
AcDbEntity
  8
template
370
               5
390
0
  6
Continuous
 62
               7
100
AcDbPolyline
 90
        5
 70
             128
 10
487.50000000012034
 20
704.57539723668197
 10
-487.49999999987955
 20
704.57539723668197
 10
-487.49999999987955
 20
-695.42460276331803
 10
487.50000000012034
 20
-695.42460276331803
 10
487.50000000012034
 20
704.57539723668197
  0
LINE
  5
E1
100
AcDbEntity
  8
template
370
               5
390
0
  6
Continuous
 62
               7
100
AcDbLine
 10
487.49999999987932
 20
-567.92460276331803
 30
0.0
 11
-487.50000000012056
 21
-567.92460276331803
 31
0.0
  0
LINE
  5
E2
100
AcDbEntity
  8
template
370
               5
390
0
  6
Continuous
 62
               7
100
AcDbLine
 10
487.50000000012034
 20
-652.92460276331803
 30
0.0
 11
111.00000000012092
 21
-652.92460276331803
 31
0.0
  0
MTEXT
  5
E3
100
AcDbEntity
  8
template
390
0
 62
               7
100
AcDbMText
 10
-487.49999999977791
 20
-701.03236014591312
 30
0.0
 40
8.1442057291666661
 41
0.0
 71
               1
 72
               1
  1
111118HO
  7
ＭＳ ゴシック
 73
               1
 44
0.7828267384257843
  0
MTEXT
  5
E4
100
AcDbEntity
  8
template
390
0
 62
               7
100
AcDbMText
 10
125.9357031262508
 20
-667.87979999997208
 30
0.0
 40
12.216308593750002
 41
0.0
 71
               1
 72
               1
  1
大洋金物株式会社 ティーフォルム事業部
  7
ＭＳ ゴシック
 73
               1
 44
0.7828267384257843
  0
INSERT
  5
E5
100
AcDbEntity
  8
template
390
0
 62
               7
100
AcDbBlockReference
  2
グループ
 10
0.0
 20
0.0
 30
0.0
  0
MTEXT
  5
E6
100
AcDbEntity
  8
template
390
0
 62
               7
100
AcDbMText
 10
392.00000000024983
 20
-628.92329416956807
 30
0.0
 40
12.216308593750002
 41
0.0
 71
               1
 72
               1
  1
1:5
  7
ＭＳ ゴシック
 73
               1
 44
0.7828267384257843
  0
MTEXT
  5
E7
100
AcDbEntity
  8
template
390
0
 62
               7
100
AcDbMText
 10
365.50000000024971
 20
-614.63206370081798
 30
0.0
 40
8.1442057291666661
 41
0.0
 71
               1
 72
               1
  1
縮尺
  7
ＭＳ ゴシック
 73
               1
 44
0.7828267384257843
  0
LINE
  5
E8
100
AcDbEntity
  8
template
370
               5
390
0
  6
Continuous
 62
               7
100
AcDbLine
 10
362.00000000024983
 20
-652.92460276331803
 30
0.0
 11
362.00000000024983
 21
-610.42460276331803
 31
0.0
  0
MTEXT
  5
E9
100
AcDbEntity
  8
template
390
0
 62
               7
100
AcDbMText
 10
240.00000000025045
 20
-614.63206370081798
 30
0.0
 40
8.1442057291666661
 41
0.0
 71
               1
 72
               1
  1
容量
  7
ＭＳ ゴシック
 73
               1
 44
0.7828267384257843
  0
LINE
  5
EA
100
AcDbEntity
  8
template
370
               5
390
0
  6
Continuous
 62
               7
100
AcDbLine
 10
236.50000000025022
 20
-652.92460276331803
 30
0.0
 11
236.50000000025022
 21
-610.42460276331803
 31
0.0
  0
MTEXT
  5
EB
100
AcDbEntity
  8
template
390
0
 62
               7
100
AcDbMText
 10
114.50000000025032
 20
-572.13206370081809
 30
0.0
 40
8.1442057291666661
 41
0.0
 71
               1
 72
               1
  1
品番
  7
ＭＳ ゴシック
 73
               1
 44
0.7828267384257843
  0
MTEXT
  5
EC
100
AcDbEntity
  8
template
390
0
 62
               7
100
AcDbMText
 10
114.50000000025032
 20
-614.63206370081798
 30
0.0
 40
8.1442057291666661
 41
0.0
 71
               1
 72
               1
  1
重量
  7
ＭＳ ゴシック
 73
               1
 44
0.7828267384257843
  0
MTEXT
  5
ED
100
AcDbEntity
  8
template
390
0
 62
               7
100
AcDbMText
 10
141.06621719914352
 20
-586.42329416956807
 30
0.0
 40
12.216308593750002
 41
0.0
 71
               1
 72
               1
  1
SHL74-1009
  7
ＭＳ ゴシック
 73
               1
 44
0.7828267384257843
  0
LINE
  5
EE
100
AcDbEntity
  8
template
370
               5
390
0
  6
Continuous
 62
               7
100
AcDbLine
 10
111.00000000025038
 20
-695.42460276331803
 30
0.0
 11
111.00000000025038
 21
-567.92460276331803
 31
0.0
  0
MTEXT
  5
EF
100
AcDbEntity
  8
template
390
0
 62
               7
100
AcDbMText
 10
141.06621719914352
 20
-514.82180018454312
 30
0.0
 40
12.216308593750002
 41
0.0
 71
               1
 72
               1
  1
SHL74-1009-001   ポリッシュ\PSHL74-1009-002   サテン
  7
ＭＳ ゴシック
 73
               1
 44
1.1742401076386764
  0
MTEXT
  5
F0
100
AcDbEntity
  8
template
390
0
 62
               7
100
AcDbMText
 10
-457.49999999987944
 20
-630.43619140625003
 30
0.0
 40
12.216308593750002
 41
0.0
 71
               1
 72
               1
  1
幅250㎜/\P本体：ステンレス製
  7
ＭＳ ゴシック
 73
               1
 44
1.1742401076386764
  0
LINE
  5
F1
100
AcDbEntity
  8
template
370
              15
390
0
  6
STYLE_01
 62
               7
100
AcDbLine
 10
209.38093017412808
 20
205.56202141786514
 30
0.0
 11
210.78716286385776
 21
209.06182540645693
 31
0.0
  0
LINE
  5
F2
100
AcDbEntity
  8
template
370
              15
390
0
  6
STYLE_01
 62
               7
100
AcDbLine
 10
207.9809301741281
 20
205.56202141786514
 30
0.0
 11
209.38716286385778
 21
209.06182540645693
 31
0.0
  0
LINE
  5
F3
100
AcDbEntity
  8
template
370
              15
390
0
  6
STYLE_01
 62
               7
100
AcDbLine
 10
206.58093017412813
 20
205.56202141786514
 30
0.0
 11
207.9871628638578
 21
209.06182540645693
 31
0.0
  0
LINE
  5
F4
100
AcDbEntity
  8
template
370
              15
390
0
  6
STYLE_01
 62
               7
100
AcDbLine
 10
205.18093017412815
 20
205.56202141786514
 30
0.0
 11
206.58716286385783
 21
209.06182540645693
 31
0.0
  0
LINE
  5
F5
100
AcDbEntity
  8
template
370
              15
390
0
  6
STYLE_01
 62
               7
100
AcDbLine
 10
203.78093017412817
 20
205.56202141786514
 30
0.0
 11
205.18716286385785
 21
209.06182540645693
 31
0.0
  0
LINE
  5
F6
100
AcDbEntity
  8
template
370
              15
390
0
  6
STYLE_01
 62
               7
100
AcDbLine
 10
202.3809301741282
 20
205.56202141786514
 30
0.0
 11
203.78716286385787
 21
209.06182540645693
 31
0.0
  0
LINE
  5
F7
100
AcDbEntity
  8
template
370
              15
390
0
  6
STYLE_01
 62
               7
100
AcDbLine
 10
200.98093017412822
 20
205.56202141786514
 30
0.0
 11
202.3871628638579
 21
209.06182540645693
 31
0.0
  0
LINE
  5
F8
100
AcDbEntity
  8
template
370
              15
390
0
  6
STYLE_01
 62
               7
100
AcDbLine
 10
200.33156558711306
 20
207.4301879251077
 30
0.0
 11
200.98716286385792
 21
209.06182540645693
 31
0.0
  0
LINE
  5
F9
100
AcDbEntity
  8
template
370
               9
390
0
  6
STYLE_01
 62
               7
100
AcDbLine
 10
198.58146758140884
 20
210.69511315911717
 30
0.0
 11
200.33156558711312
 21
208.94501515341307
 31
0.0
  0
LINE
  5
FA
100
AcDbEntity
  8
template
370
               9
390
0
  6
STYLE_01
 62
               7
100
AcDbLine
 10
198.58146758140884
 20
203.69511315911717
 30
0.0
 11
200.33156558711295
 21
205.44521116482127
 31
0.0
  0
INSERT
  5
FB
100
AcDbEntity
  8
template
390
0
 62
               7
100
AcDbBlockReference
  2
グループ-1
 10
0.0
 20
0.0
 30
0.0
  0
LINE
  5
FC
100
AcDbEntity
  8
template
370
              15
390
0
  6
Continuous
 62
               7
100
AcDbLine
 10
244.53051472764201
 20
207.19511315911717
 30
0.0
 11
238.90558396872296
 21
208.94501515341307
 31
0.0
  0
LINE
  5
FD
100
AcDbEntity
  8
template
370
              15
390
0
  6
Continuous
 62
               7
100
AcDbLine
 10
244.53051472764201
 20
207.19511315911717
 30
0.0
 11
238.90558396872296
 21
205.44521116482127
 31
0.0
  0
LINE
  5
FE
100
AcDbEntity
  8
template
370
              15
390
0
  6
Continuous
 62
               7
100
AcDbLine
 10
200.33156558711295
 20
205.44521116482127
 30
0.0
 11
238.90558396872296
 21
205.44521116482127
 31
0.0
  0
LINE
  5
FF
100
AcDbEntity
  8
template
370
              15
390
0
  6
Continuous
 62
               7
100
AcDbLine
 10
200.36838786403956
 20
208.94501515341307
 30
0.0
 11
238.90503004007491
 21
208.94501515341307
 31
0.0
  0
LINE
  5
100
100
AcDbEntity
  8
template
370
               9
390
0
  6
STYLE_01
 62
               7
100
AcDbLine
 10
200.33156558711312
 20
208.94501515341307
 30
0.0
 11
200.33156558711312
 21
205.44521116482127
 31
0.0
  0
DIMENSION
  5
101
100
AcDbEntity
  8
info
370
               5
390
0
  6
Continuous
 62
               7
100
AcDbDimension
  2
*D3
 10
-240.0
 20
291.77517986482633
 30
0.0
 11
-114.99999999999997
 21
294.27517986482633
 31
0.0
 70
             128
 71
               5
 72
               1
 41
1.0
 42
0.0
  3
TformSENN
100
AcDbAlignedDimension
 13
10.0
 23
214.63396534380854
 33
0.0
 14
-240.0
 24
214.63396534380854
 34
0.0
100
AcDbRotatedDimension
1001
ACAD
1000
DSTYLE
1002
{
1070
             279
1070
               2
1070
             340
1005
2D
1070
             147
1040
2.5
1002
}
  0
DIMENSION
  5
102
100
AcDbEntity
  8
info
370
               5
390
0
  6
Continuous
 62
               7
100
AcDbDimension
  2
*D4
 10
150.58146758140975
 20
291.77517986482633
 30
0.0
 11
180.5814675814093
 21
291.77517986482633
 31
0.0
 71
               5
 72
               1
 41
1.0
 42
0.0
  3
TformSENN
100
AcDbAlignedDimension
 13
210.58146758140884
 23
215.195113159117
 33
0.0
 14
150.58146758140975
 24
207.19511315911723
 34
0.0
100
AcDbRotatedDimension
1001
ACAD
1000
DSTYLE
1002
{
1070
             279
1070
               2
1070
             340
1005
2D
1070
             147
1040
2.5
1002
}
  0
DIMENSION
  5
103
100
AcDbEntity
  8
info
370
               5
390
0
  6
Continuous
 62
               7
100
AcDbDimension
  2
*D5
 10
130.58146758140981
 20
215.19511315911717
 30
0.0
 11
130.58146758140981
 21
207.1951131591172
 31
0.0
 71
               5
 72
               1
 41
1.0
 42
0.0
  3
TformSENN
100
AcDbAlignedDimension
 13
158.58146758140975
 23
199.19511315911723
 33
0.0
 14
158.58146758140975
 24
215.19511315911717
 34
0.0
 50
90.0
100
AcDbRotatedDimension
1001
ACAD
1000
DSTYLE
1002
{
1070
             279
1070
               2
1070
             340
1005
2D
1070
             147
1040
2.5
1002
}
  0
DIMENSION
  5
104
100
AcDbEntity
  8
info
370
               5
390
0
  6
Continuous
 62
               7
100
AcDbDimension
  2
*D6
 10
48.999999999998977
 20
-53.224820135173672
 30
0.0
 11
48.999999999998977
 21
-83.224820135173672
 31
0.0
 71
               5
 72
               1
 41
1.0
 42
0.0
  3
TformSENN
100
AcDbAlignedDimension
 13
10.0
 23
-113.22482013517367
 33
0.0
 14
9.5
 24
-53.224820135173672
 34
0.0
 50
90.0
100
AcDbRotatedDimension
1001
ACAD
1000
DSTYLE
1002
{
1070
             279
1070
               2
1070
             340
1005
2D
1070
             147
1040
2.5
1002
}
  0
MTEXT
  5
105
100
AcDbEntity
  8
info
390
0
 62
               7
100
AcDbMText
 10
137.80646892714941
 20
174.43880859375
 30
0.0
 40
12.216308593750002
 41
0.0
 71
               1
 72
               1
  1
タッピングビス\P3.5×45
  7
ＭＳ ゴシック
 73
               1
 44
0.7828267384257843
  0
LINE
  5
106
100
AcDbEntity
  8
info
370
               5
390
0
  6
Continuous
 62
               7
100
AcDbLine
 10
233.58146758140896
 20
206.84799338083684
 30
0.0
 11
233.58146758140896
 21
179.41993730678035
 31
0.0
  0
DIMENSION
  5
107
100
AcDbEntity
  8
info
370
               9
390
0
  6
Continuous
 62
               7
100
AcDbDimension
  2
*D7
 10
-119.69975207259117
 20
-104.69268033043249
 30
0.0
 11
-67.583674860456242
 21
-144.05821676754454
 31
0.0
 70
               3
 71
               5
 72
               1
 41
1.0
 42
0.0
  1
 
  3
TformSENN
100
AcDbDiametricDimension
 15
-111.46759764832206
 25
-113.42375320465715
 35
0.0
 40
42.104053883222093
1001
ACAD
1000
DSTYLE
1002
{
1070
             172
1070
               0
1070
             289
1070
               0
1070
             342
1005
3C
1070
             340
1005
2D
1070
              75
1070
               1
1070
              76
1070
               1
1070
             174
1070
               0
1070
             147
1040
2.5
1002
}
  0
CIRCLE
  5
108
100
AcDbEntity
  8
SHL74-1009
370
              15
390
0
  6
Continuous
 62
               7
100
AcDbCircle
 10
158.58146758140975
 20
207.19511315911723
 30
0.0
 40
7.999999999999984
  0
LINE
  5
109
100
AcDbEntity
  8
SHL74-1009
370
              15
390
0
  6
Continuous
 62
               7
100
AcDbLine
 10
210.78093017412806
 20
205.56202141786514
 30
0.0
 11
212.18716286385774
 21
209.06182540645693
 31
0.0
  0
LINE
  5
10A
100
AcDbEntity
  8
SHL74-1009
370
              15
390
0
  6
Continuous
 62
               7
100
AcDbLine
 10
212.18716286385774
 20
205.56202141786514
 30
0.0
 11
213.59339555358753
 21
209.06182540645693
 31
0.0
  0
LINE
  5
10B
100
AcDbEntity
  8
SHL74-1009
370
              15
390
0
  6
Continuous
 62
               7
100
AcDbLine
 10
213.59339555358753
 20
205.56202141786514
 30
0.0
 11
214.9996282433172
 21
209.06182540645693
 31
0.0
  0
LINE
  5
10C
100
AcDbEntity
  8
SHL74-1009
370
              15
390
0
  6
Continuous
 62
               7
100
AcDbLine
 10
214.9996282433172
 20
205.56202141786514
 30
0.0
 11
216.40586093304699
 21
209.06182540645693
 31
0.0
  0
LINE
  5
10D
100
AcDbEntity
  8
SHL74-1009
370
              15
390
0
  6
Continuous
 62
               7
100
AcDbLine
 10
216.40586093304699
 20
205.56202141786514
 30
0.0
 11
217.81209362277667
 21
209.06182540645693
 31
0.0
  0
LINE
  5
10E
100
AcDbEntity
  8
SHL74-1009
370
              15
390
0
  6
Continuous
 62
               7
100
AcDbLine
 10
217.81209362277667
 20
205.56202141786514
 30
0.0
 11
219.21832631250641
 21
209.06182540645693
 31
0.0
  0
LINE
  5
10F
100
AcDbEntity
  8
SHL74-1009
370
              15
390
0
  6
Continuous
 62
               7
100
AcDbLine
 10
223.43702438169572
 20
205.56202141786514
 30
0.0
 11
224.84325707142551
 21
209.06182540645693
 31
0.0
  0
LINE
  5
110
100
AcDbEntity
  8
SHL74-1009
370
              15
390
0
  6
Continuous
 62
               7
100
AcDbLine
 10
222.03079169196593
 20
205.56202141786514
 30
0.0
 11
223.43702438169572
 21
209.06182540645693
 31
0.0
  0
LINE
  5
111
100
AcDbEntity
  8
SHL74-1009
370
              15
390
0
  6
Continuous
 62
               7
100
AcDbLine
 10
224.84325707142551
 20
205.56202141786514
 30
0.0
 11
226.24948976115519
 21
209.06182540645693
 31
0.0
  0
LINE
  5
112
100
AcDbEntity
  8
SHL74-1009
370
              15
390
0
  6
Continuous
 62
               7
100
AcDbLine
 10
226.24948976115519
 20
205.56202141786514
 30
0.0
 11
227.65572245088498
 21
209.06182540645693
 31
0.0
  0
LINE
  5
113
100
AcDbEntity
  8
SHL74-1009
370
              15
390
0
  6
Continuous
 62
               7
100
AcDbLine
 10
227.65572245088498
 20
205.56202141786514
 30
0.0
 11
229.06195514061466
 21
209.06182540645693
 31
0.0
  0
LINE
  5
114
100
AcDbEntity
  8
SHL74-1009
370
              15
390
0
  6
Continuous
 62
               7
100
AcDbLine
 10
229.06195514061466
 20
205.56202141786514
 30
0.0
 11
230.46818783034445
 21
209.06182540645693
 31
0.0
  0
LINE
  5
115
100
AcDbEntity
  8
SHL74-1009
370
              15
390
0
  6
Continuous
 62
               7
100
AcDbLine
 10
230.46818783034445
 20
205.56202141786514
 30
0.0
 11
231.87442052007424
 21
209.06182540645693
 31
0.0
  0
LINE
  5
116
100
AcDbEntity
  8
SHL74-1009
370
              15
390
0
  6
Continuous
 62
               7
100
AcDbLine
 10
231.87442052007424
 20
205.56202141786514
 30
0.0
 11
233.28065320980392
 21
209.06182540645693
 31
0.0
  0
LINE
  5
117
100
AcDbEntity
  8
SHL74-1009
370
              15
390
0
  6
Continuous
 62
               7
100
AcDbLine
 10
219.21832631250641
 20
205.56202141786514
 30
0.0
 11
220.6245590022362
 21
209.06182540645693
 31
0.0
  0
LINE
  5
118
100
AcDbEntity
  8
SHL74-1009
370
              15
390
0
  6
Continuous
 62
               7
100
AcDbLine
 10
233.28065320980392
 20
205.56202141786514
 30
0.0
 11
234.68688589953371
 21
209.06182540645693
 31
0.0
  0
LINE
  5
119
100
AcDbEntity
  8
SHL74-1009
370
              15
390
0
  6
Continuous
 62
               7
100
AcDbLine
 10
236.0931185892635
 20
205.56202141786514
 30
0.0
 11
237.49935127899329
 21
209.06182540645693
 31
0.0
  0
LINE
  5
11A
100
AcDbEntity
  8
SHL74-1009
370
              15
390
0
  6
Continuous
 62
               7
100
AcDbLine
 10
237.49935127899329
 20
205.56202141786514
 30
0.0
 11
238.90558396872296
 21
209.06182540645693
 31
0.0
  0
LINE
  5
11B
100
AcDbEntity
  8
SHL74-1009
370
              15
390
0
  6
Continuous
 62
               7
100
AcDbLine
 10
234.68688589953371
 20
205.56202141786514
 30
0.0
 11
236.0931185892635
 21
209.06182540645693
 31
0.0
  0
LINE
  5
11C
100
AcDbEntity
  8
SHL74-1009
370
              15
390
0
  6
Continuous
 62
               7
100
AcDbLine
 10
220.6245590022362
 20
205.56202141786514
 30
0.0
 11
222.03079169196593
 21
209.06182540645693
 31
0.0
  0
POLYLINE
  5
11D
100
AcDbEntity
  8
SHL74-1009
370
              15
390
0
  6
Continuous
 62
               7
100
AcDb2dPolyline
 66
               1
 10
0.0
 20
0.0
 30
0.0
 75
               5
  0
VERTEX
  5
11E
100
AcDbEntity
  8
SHL74-1009
370
              15
390
0
  6
Continuous
 62
               7
100
AcDbVertex
100
AcDb2dVertex
 10
158.58146758140958
 20
215.195113159117
 30
0.0
  0
VERTEX
  5
11F
100
AcDbEntity
  8
SHL74-1009
370
              15
390
0
  6
Continuous
 62
               7
100
AcDbVertex
100
AcDb2dVertex
 10
210.58146758140884
 20
215.195113159117
 30
0.0
  0
VERTEX
  5
120
100
AcDbEntity
  8
SHL74-1009
370
              15
390
0
  6
Continuous
 62
               7
100
AcDbVertex
100
AcDb2dVertex
 10
210.58146758140884
 20
199.19511315911734
 30
0.0
  0
VERTEX
  5
121
100
AcDbEntity
  8
SHL74-1009
370
              15
390
0
  6
Continuous
 62
               7
100
AcDbVertex
100
AcDb2dVertex
 10
158.58146758140958
 20
199.19511315911734
 30
0.0
  0
SEQEND
  5
122
100
AcDbEntity
  8
SHL74-1009
370
              15
390
0
  6
Continuous
 62
               7
  0
LINE
  5
123
100
AcDbEntity
  8
SHL74-1009
370
              15
390
0
  6
STYLE_05
 62
               7
100
AcDbLine
 10
-5.9999999999999147
 20
215.13396534380854
 30
0.0
 11
-5.9999999999999147
 21
199.13396534380922
 31
0.0
  0
LINE
  5
124
100
AcDbEntity
  8
SHL74-1009
370
              15
390
0
  6
STYLE_05
 62
               7
100
AcDbLine
 10
-224.0
 20
215.13396534380854
 30
0.0
 11
-224.0
 21
199.13396534380922
 31
0.0
  0
CIRCLE
  5
125
100
AcDbEntity
  8
SHL74-1009
370
              15
390
0
  6
Continuous
 62
               7
100
AcDbCircle
 10
158.58146758140975
 20
207.19511315911723
 30
0.0
 40
7.5000000000000604
  0
POLYLINE
  5
126
100
AcDbEntity
  8
SHL74-1009
370
              15
390
0
  6
Continuous
 62
               7
100
AcDb2dPolyline
 66
               1
 10
0.0
 20
0.0
 30
0.0
 75
               5
  0
VERTEX
  5
127
100
AcDbEntity
  8
SHL74-1009
370
              15
390
0
  6
Continuous
 62
               7
100
AcDbVertex
100
AcDb2dVertex
 10
-239.5
 20
215.13396534380854
 30
0.0
  0
VERTEX
  5
128
100
AcDbEntity
  8
SHL74-1009
370
              15
390
0
  6
Continuous
 62
               7
100
AcDbVertex
100
AcDb2dVertex
 10
-240.0
 20
214.63396534380854
 30
0.0
  0
VERTEX
  5
129
100
AcDbEntity
  8
SHL74-1009
370
              15
390
0
  6
Continuous
 62
               7
100
AcDbVertex
100
AcDb2dVertex
 10
-240.0
 20
199.63396534380922
 30
0.0
  0
VERTEX
  5
12A
100
AcDbEntity
  8
SHL74-1009
370
              15
390
0
  6
Continuous
 62
               7
100
AcDbVertex
100
AcDb2dVertex
 10
-239.5
 20
199.13396534380922
 30
0.0
  0
SEQEND
  5
12B
100
AcDbEntity
  8
SHL74-1009
370
              15
390
0
  6
Continuous
 62
               7
  0
LINE
  5
12C
100
AcDbEntity
  8
SHL74-1009
370
              15
390
0
  6
Continuous
 62
               7
100
AcDbLine
 10
-239.5
 20
215.13396534380854
 30
0.0
 11
9.5
 21
215.13396534380854
 31
0.0
  0
LINE
  5
12D
100
AcDbEntity
  8
SHL74-1009
370
              15
390
0
  6
Continuous
 62
               7
100
AcDbLine
 10
-239.5
 20
199.13396534380922
 30
0.0
 11
9.5
 21
199.13396534380922
 31
0.0
  0
POLYLINE
  5
12E
100
AcDbEntity
  8
SHL74-1009
370
              15
390
0
  6
Continuous
 62
               7
100
AcDb2dPolyline
 66
               1
 10
0.0
 20
0.0
 30
0.0
 75
               5
  0
VERTEX
  5
12F
100
AcDbEntity
  8
SHL74-1009
370
              15
390
0
  6
Continuous
 62
               7
100
AcDbVertex
100
AcDb2dVertex
 10
9.5
 20
215.13396534380854
 30
0.0
  0
VERTEX
  5
130
100
AcDbEntity
  8
SHL74-1009
370
              15
390
0
  6
Continuous
 62
               7
100
AcDbVertex
100
AcDb2dVertex
 10
10.0
 20
214.63396534380854
 30
0.0
  0
VERTEX
  5
131
100
AcDbEntity
  8
SHL74-1009
370
              15
390
0
  6
Continuous
 62
               7
100
AcDbVertex
100
AcDb2dVertex
 10
10.0
 20
199.63396534380922
 30
0.0
  0
VERTEX
  5
132
100
AcDbEntity
  8
SHL74-1009
370
              15
390
0
  6
Continuous
 62
               7
100
AcDbVertex
100
AcDb2dVertex
 10
9.5
 20
199.13396534380922
 30
0.0
  0
SEQEND
  5
133
100
AcDbEntity
  8
SHL74-1009
370
              15
390
0
  6
Continuous
 62
               7
  0
INSERT
  5
134
100
AcDbEntity
  8
SHL74-1009
390
0
 62
               7
100
AcDbBlockReference
  2
グループ-2
 10
0.0
 20
0.0
 30
0.0
  0
INSERT
  5
135
100
AcDbEntity
  8
SHL74-1009
390
0
 62
               7
100
AcDbBlockReference
  2
グループ-3
 10
0.0
 20
0.0
 30
0.0
  0
POLYLINE
  5
136
100
AcDbEntity
  8
SHL74-1009
370
              15
390
0
  6
Continuous
 62
               7
100
AcDb2dPolyline
 66
               1
 10
0.0
 20
0.0
 30
0.0
 70
               1
 75
               5
  0
VERTEX
  5
137
100
AcDbEntity
  8
SHL74-1009
370
              15
390
0
  6
Continuous
 62
               7
100
AcDbVertex
100
AcDb2dVertex
 10
-5.9999999999999147
 20
-53.224820135173672
 30
0.0
  0
VERTEX
  5
138
100
AcDbEntity
  8
SHL74-1009
370
              15
390
0
  6
Continuous
 62
               7
100
AcDbVertex
100
AcDb2dVertex
 10
10.0
 20
-53.224820135173672
 30
0.0
  0
VERTEX
  5
139
100
AcDbEntity
  8
SHL74-1009
370
              15
390
0
  6
Continuous
 62
               7
100
AcDbVertex
100
AcDb2dVertex
 10
10.0
 20
-105.22482013517367
 30
0.0
  0
VERTEX
  5
13A
100
AcDbEntity
  8
SHL74-1009
370
              15
390
0
  6
Continuous
 62
               7
100
AcDbVertex
100
AcDb2dVertex
 10
-5.9999999999999147
 20
-105.22482013517367
 30
0.0
  0
SEQEND
  5
13B
100
AcDbEntity
  8
SHL74-1009
370
              15
390
0
  6
Continuous
 62
               7
  0
POLYLINE
  5
13C
100
AcDbEntity
  8
SHL74-1009
370
              15
390
0
  6
Continuous
 62
               7
100
AcDb2dPolyline
 66
               1
 10
0.0
 20
0.0
 30
0.0
 70
               1
 75
               5
  0
VERTEX
  5
13D
100
AcDbEntity
  8
SHL74-1009
370
              15
390
0
  6
Continuous
 62
               7
100
AcDbVertex
100
AcDb2dVertex
 10
-240.0
 20
-53.224820135173672
 30
0.0
  0
VERTEX
  5
13E
100
AcDbEntity
  8
SHL74-1009
370
              15
390
0
  6
Continuous
 62
               7
100
AcDbVertex
100
AcDb2dVertex
 10
-224.0
 20
-53.224820135173672
 30
0.0
  0
VERTEX
  5
13F
100
AcDbEntity
  8
SHL74-1009
370
              15
390
0
  6
Continuous
 62
               7
100
AcDbVertex
100
AcDb2dVertex
 10
-224.0
 20
-105.22482013517367
 30
0.0
  0
VERTEX
  5
140
100
AcDbEntity
  8
SHL74-1009
370
              15
390
0
  6
Continuous
 62
               7
100
AcDbVertex
100
AcDb2dVertex
 10
-240.0
 20
-105.22482013517367
 30
0.0
  0
SEQEND
  5
141
100
AcDbEntity
  8
SHL74-1009
370
              15
390
0
  6
Continuous
 62
               7
  0
LINE
  5
142
100
AcDbEntity
  8
SHL74-1009
370
              15
390
0
  6
Continuous
 62
               7
100
AcDbLine
 10
-239.5
 20
-113.22482013517367
 30
0.0
 11
9.5
 21
-113.22482013517367
 31
0.0
  0
LINE
  5
143
100
AcDbEntity
  8
SHL74-1009
370
              15
390
0
  6
Continuous
 62
               7
100
AcDbLine
 10
10.0
 20
-97.724820135174241
 30
0.0
 11
10.0
 21
-112.72482013517367
 31
0.0
  0
LINE
  5
144
100
AcDbEntity
  8
SHL74-1009
370
              15
390
0
  6
Continuous
 62
               7
100
AcDbLine
 10
9.5
 20
-113.22482013517367
 30
0.0
 11
10.0
 21
-112.72482013517367
 31
0.0
  0
LINE
  5
145
100
AcDbEntity
  8
SHL74-1009
370
              15
390
0
  6
Continuous
 62
               7
100
AcDbLine
 10
-224.0
 20
-97.224820135173672
 30
0.0
 11
-5.9999999999999147
 21
-97.224820135173672
 31
0.0
  0
LINE
  5
146
100
AcDbEntity
  8
SHL74-1009
370
              15
390
0
  6
Continuous
 62
               7
100
AcDbLine
 10
-240.0
 20
-97.724820135174241
 30
0.0
 11
-240.0
 21
-112.72482013517367
 31
0.0
  0
LINE
  5
147
100
AcDbEntity
  8
SHL74-1009
370
              15
390
0
  6
Continuous
 62
               7
100
AcDbLine
 10
-239.5
 20
-113.22482013517367
 30
0.0
 11
-240.0
 21
-112.72482013517367
 31
0.0
  0
DIMENSION
  5
148
100
AcDbEntity
  8
SHL74-1009
370
               9
390
0
  6
Continuous
 62
               7
100
AcDbDimension
  2
*D10
 10
-233.87500000000028
 20
-88.231060606060623
 30
0.0
 11
-180.0
 21
-47.000000000000021
 31
0.0
 70
               3
 71
               5
 72
               1
 41
1.0
 42
0.0
  1
16x16
  3
TformSENN
100
AcDbDiametricDimension
 15
-223.88392278786563
 25
-77.634463562887575
 35
0.0
 40
42.104053883222093
1001
ACAD
1000
DSTYLE
1002
{
1070
             172
1070
               0
1070
             289
1070
               0
1070
             342
1005
3C
1070
             340
1005
2D
1070
              75
1070
               1
1070
              76
1070
               1
1070
             174
1070
               0
1070
             147
1040
2.5
1002
}
  0
LINE
  5
149
100
AcDbEntity
  8
SHL74-1009
370
              15
390
0
  6
Continuous
 62
               7
100
AcDbLine
 10
-224.0
 20
-97.224820135173672
 30
0.0
 11
-5.9999999999999147
 21
-97.224820135173672
 31
0.0
  0
ENDSEC
  0
SECTION
  2
OBJECTS
  0
DICTIONARY
  5
19
100
AcDbDictionary
280
               0
281
               1
  3
ACAD_GROUP
350
1A
  3
ACAD_MLINESTYLE
350
1B
  3
ACAD_LAYOUT
350
1E
  3
ACAD_PLOTSETTINGS
350
22
  3
ACAD_PLOTSTYLENAME
350
1F
  0
DICTIONARY
  5
1A
102
{ACAD_REACTORS
330
19
102
}
100
AcDbDictionary
280
               0
281
               1
  0
DICTIONARY
  5
1B
102
{ACAD_REACTORS
330
19
102
}
100
AcDbDictionary
280
               0
281
               1
  3
Standard
350
1C
  0
MLINESTYLE
  5
1C
102
{ACAD_REACTORS
330
1B
102
}
100
AcDbMlineStyle
  2
Standard
 70
               0
  3

 62
               0
 51
90.0
 52
90.0
 71
               2
 49
0.5
 62
             256
  6
ByLayer
 49
-0.5
 62
             256
  6
ByLayer
  0
ACDBDICTIONARYWDFLT
  5
1F
102
{ACAD_REACTORS
330
19
102
}
100
AcDbDictionary
281
               1
  3
Normal
350
1D
100
AcDbDictionaryWithDefault
340
1D
  0
ACDBPLACEHOLDER
  5
1D
102
{ACAD_REACTORS
330
1F
102
}
  0
LAYOUT
  5
20
102
{ACAD_REACTORS
330
1E
102
}
100
AcDbPlotSettings
  1

  2

  4

  6

 40
0.0
 41
0.0
 42
0.0
 43
0.0
 44
0.0
 45
0.0
 46
0.0
 47
0.0
 48
0.0
 49
0.0
140
0.0
141
0.0
142
1.0
143
1.0
 70
            1024
 72
               0
 73
               0
 74
               0
  7

 75
               0
147
1.0
148
0.0
149
0.0
100
AcDbLayout
  1
Model
 70
               0
 71
               0
 10
0.0
 20
0.0
 11
0.0
 21
0.0
 12
0.0
 22
0.0
 32
0.0
 14
0.0
 24
0.0
 34
0.0
 15
0.0
 25
0.0
 35
0.0
146
0.0
 13
0.0
 23
0.0
 33
0.0
 16
0.0
 26
0.0
 36
0.0
 17
0.0
 27
0.0
 37
0.0
 76
               0
330
A
331
0
345
0
346
0
  0
LAYOUT
  5
21
102
{ACAD_REACTORS
330
1E
102
}
100
AcDbPlotSettings
  1

  2

  4

  6

 40
0.0
 41
0.0
 42
0.0
 43
0.0
 44
0.0
 45
0.0
 46
0.0
 47
0.0
 48
0.0
 49
0.0
140
0.0
141
0.0
142
1.0
143
1.0
 70
               0
 72
               0
 73
               0
 74
               0
  7

 75
               0
147
1.0
148
0.0
149
0.0
100
AcDbLayout
  1
Layout1
 70
               0
 71
               0
 10
0.0
 20
0.0
 11
0.0
 21
0.0
 12
0.0
 22
0.0
 32
0.0
 14
0.0
 24
0.0
 34
0.0
 15
0.0
 25
0.0
 35
0.0
146
0.0
 13
0.0
 23
0.0
 33
0.0
 16
0.0
 26
0.0
 36
0.0
 17
0.0
 27
0.0
 37
0.0
 76
               0
330
B
331
0
345
0
346
0
  0
DICTIONARY
  5
1E
102
{ACAD_REACTORS
330
19
102
}
100
AcDbDictionary
280
               0
281
               1
  3
Layout1
350
21
  3
Model
350
20
  0
DICTIONARY
  5
22
102
{ACAD_REACTORS
330
19
102
}
100
AcDbDictionary
280
               0
281
               1
  0
ENDSEC
  0
EOF
