  0
SECTION
  2
HEADER
  9
$ACADVER
  1
AC1015
  9
$ACADMAINTVER
 70
               6
  9
$DWGCODEPAGE
  3
ANSI_932
  9
$INSBASE
 10
0.0
 20
0.0
 30
0.0
  9
$EXTMIN
 10
-210.0
 20
-295.42324908396785
 30
0.0
  9
$EXTMAX
 10
209.99999999999986
 20
298.5767509160321
 30
0.0
  9
$LIMMIN
 10
0.0
 20
0.0
  9
$LIMMAX
 10
0.0
 20
0.0
  9
$ORTHOMODE
 70
               0
  9
$REGENMODE
 70
               1
  9
$FILLMODE
 70
               1
  9
$QTEXTMODE
 70
               0
  9
$MIRRTEXT
 70
               1
  9
$LTSCALE
 40
10.16
  9
$ATTMODE
 70
               1
  9
$TEXTSIZE
 40
0.2
  9
$TRACEWID
 40
1.0
  9
$TEXTSTYLE
  7
Standard
  9
$CLAYER
  8
タオルリング
  9
$CELTYPE
  6
Continuous
  9
$CECOLOR
 62
             256
  9
$CELTSCALE
 40
1.0
  9
$DISPSILH
 70
               0
  9
$DIMSCALE
 40
1.0
  9
$DIMASZ
 40
1.0014892578124999
  9
$DIMEXO
 40
3.1800000000000002
  9
$DIMDLI
 40
7.0
  9
$DIMRND
 40
0.0
  9
$DIMDLE
 40
0.0
  9
$DIMEXE
 40
3.9999999999999996
  9
$DIMTP
 40
0.0
  9
$DIMTM
 40
0.0
  9
$DIMTXT
 40
4.8506944444444438
  9
$DIMCEN
 40
0.0
  9
$DIMTSZ
 40
0.0
  9
$DIMTOL
 70
               0
  9
$DIMLIM
 70
               0
  9
$DIMTIH
 70
               0
  9
$DIMTOH
 70
               0
  9
$DIMSE1
 70
               0
  9
$DIMSE2
 70
               0
  9
$DIMTAD
 70
               1
  9
$DIMZIN
 70
              11
  9
$DIMBLK
  1
_DOT
  9
$DIMASO
 70
               1
  9
$DIMSHO
 70
               1
  9
$DIMPOST
  1
<>
  9
$DIMAPOST
  1
[]
  9
$DIMALT
 70
               0
  9
$DIMALTD
 70
               1
  9
$DIMALTF
 40
1.0
  9
$DIMLFAC
 40
1.0
  9
$DIMTOFL
 70
               1
  9
$DIMTVP
 40
0.0
  9
$DIMTIX
 70
               1
  9
$DIMSOXD
 70
               0
  9
$DIMSAH
 70
               0
  9
$DIMBLK1
  1

  9
$DIMBLK2
  1

  9
$DIMSTYLE
  2
b
  9
$DIMCLRD
 70
               0
  9
$DIMCLRE
 70
               0
  9
$DIMCLRT
 70
               0
  9
$DIMTFAC
 40
0.8
  9
$DIMGAP
 40
0.2
  9
$DIMJUST
 70
               0
  9
$DIMSD1
 70
               0
  9
$DIMSD2
 70
               0
  9
$DIMTOLJ
 70
               1
  9
$DIMTZIN
 70
              11
  9
$DIMALTZ
 70
              11
  9
$DIMALTTZ
 70
              11
  9
$DIMUPT
 70
               0
  9
$DIMDEC
 70
               1
  9
$DIMTDEC
 70
               1
  9
$DIMALTU
 70
               2
  9
$DIMALTTD
 70
               2
  9
$DIMTXSTY
  7
MS UI Gothic
  9
$DIMAUNIT
 70
               0
  9
$DIMADEC
 70
               2
  9
$DIMALTRND
 40
0.0
  9
$DIMAZIN
 70
               0
  9
$DIMDSEP
 70
              46
  9
$DIMATFIT
 70
               0
  9
$DIMFRAC
 70
               2
  9
$DIMLDRBLK
  1

  9
$DIMLUNIT
 70
               2
  9
$DIMLWD
 70
              -2
  9
$DIMLWE
 70
              -2
  9
$DIMTMOVE
 70
               0
  9
$LUNITS
 70
               2
  9
$LUPREC
 70
               4
  9
$SKETCHINC
 40
0.1
  9
$FILLETRAD
 40
0.0
  9
$AUNITS
 70
               0
  9
$AUPREC
 70
               0
  9
$MENU
  1
acad
  9
$ELEVATION
 40
0.0
  9
$PELEVATION
 40
0.0
  9
$THICKNESS
 40
0.0
  9
$LIMCHECK
 70
               0
  9
$CHAMFERA
 40
0.0
  9
$CHAMFERB
 40
0.0
  9
$CHAMFERC
 40
0.0
  9
$CHAMFERD
 40
0.0
  9
$SKPOLY
 70
               0
  9
$TDCREATE
 40
2455884.714560185
  9
$TDUCREATE
 40
0.000000000
  9
$TDUPDATE
 40
2455884.714560185
  9
$TDUUPDATE
 40
0.000000000
  9
$TDINDWG
 40
0.0000000000
  9
$TDUSRTIMER
 40
0.0000000000
  9
$USRTIMER
 70
               1
  9
$ANGBASE
 50
0.0
  9
$ANGDIR
 70
               0
  9
$PDMODE
 70
               1
  9
$PDSIZE
 40
-2.0
  9
$PLINEWID
 40
0.0
  9
$SPLFRAME
 70
               0
  9
$SPLINETYPE
 70
               6
  9
$SPLINESEGS
 70
               8
  9
$HANDSEED
  5
14C
  9
$SURFTAB1
 70
               6
  9
$SURFTAB2
 70
               6
  9
$SURFTYPE
 70
               6
  9
$SURFU
 70
               6
  9
$SURFV
 70
               6
  9
$UCSBASE
  2

  9
$UCSNAME
  2

  9
$UCSORG
 10
0.0
 20
0.0
 30
0.0
  9
$UCSXDIR
 10
1.0
 20
0.0
 30
0.0
  9
$UCSYDIR
 10
0.0
 20
1.0
 30
0.0
  9
$UCSORTHOREF
  2

  9
$UCSORTHOVIEW
 70
               0
  9
$UCSORGTOP
 10
0.0
 20
0.0
 30
0.0
  9
$UCSORGBOTTOM
 10
0.0
 20
0.0
 30
0.0
  9
$UCSORGLEFT
 10
0.0
 20
0.0
 30
0.0
  9
$UCSORGRIGHT
 10
0.0
 20
0.0
 30
0.0
  9
$UCSORGFRONT
 10
0.0
 20
0.0
 30
0.0
  9
$UCSORGBACK
 10
0.0
 20
0.0
 30
0.0
  9
$PUCSBASE
  2

  9
$PUCSNAME
  2

  9
$PUCSORG
 10
0.0
 20
0.0
 30
0.0
  9
$PUCSXDIR
 10
1.0
 20
0.0
 30
0.0
  9
$PUCSYDIR
 10
0.0
 20
1.0
 30
0.0
  9
$PUCSORTHOREF
  2

  9
$PUCSORTHOVIEW
 70
               0
  9
$PUCSORGTOP
 10
0.0
 20
0.0
 30
0.0
  9
$PUCSORGBOTTOM
 10
0.0
 20
0.0
 30
0.0
  9
$PUCSORGLEFT
 10
0.0
 20
0.0
 30
0.0
  9
$PUCSORGRIGHT
 10
0.0
 20
0.0
 30
0.0
  9
$PUCSORGFRONT
 10
0.0
 20
0.0
 30
0.0
  9
$PUCSORGBACK
 10
0.0
 20
0.0
 30
0.0
  9
$USERI1
 70
               0
  9
$USERI2
 70
               0
  9
$USERI3
 70
               0
  9
$USERI4
 70
               0
  9
$USERI5
 70
               0
  9
$USERR1
 40
0.0
  9
$USERR2
 40
0.0
  9
$USERR3
 40
0.0
  9
$USERR4
 40
0.0
  9
$USERR5
 40
0.0
  9
$WORLDVIEW
 70
               1
  9
$SHADEDGE
 70
               3
  9
$SHADEDIF
 70
              70
  9
$TILEMODE
 70
               1
  9
$MAXACTVP
 70
              64
  9
$PINSBASE
 10
0.0
 20
0.0
 30
0.0
  9
$PLIMCHECK
 70
               0
  9
$PEXTMIN
 10
1.0000000000000000E+20
 20
1.0000000000000000E+20
 30
1.0000000000000000E+20
  9
$PEXTMAX
 10
-1.0000000000000000E+20
 20
-1.0000000000000000E+20
 30
-1.0000000000000000E+20
  9
$PLIMMIN
 10
0.0
 20
0.0
  9
$PLIMMAX
 10
12.0
 20
9.0
  9
$UNITMODE
 70
               0
  9
$VISRETAIN
 70
               0
  9
$PLINEGEN
 70
               1
  9
$PSLTSCALE
 70
               0
  9
$TREEDEPTH
 70
            3020
  9
$CMLSTYLE
  2
Standard
  9
$CMLJUST
 70
               0
  9
$CMLSCALE
 40
1.0
  9
$PROXYGRAPHICS
 70
               0
  9
$MEASUREMENT
 70
               1
  9
$CELWEIGHT
370
               0
  9
$ENDCAPS
280
               0
  9
$JOINSTYLE
280
               0
  9
$LWDISPLAY
290
               1
  9
$INSUNITS
 70
               4
  9
$HYPERLINKBASE
  1

  9
$STYLESHEET
  1

  9
$XEDIT
290
               1
  9
$CEPSNTYPE
380
               0
  9
$PSTYLEMODE
290
               1
  9
$FINGERPRINTGUID
  2

  9
$VERSIONGUID
  2

  9
$EXTNAMES
290
               1
  9
$PSVPSCALE
 40
0.0
  0
ENDSEC
  0
SECTION
  2
CLASSES
  0
CLASS
  1
LWPOLYLINE
  2
AcDbPolyline
  3
AutoCAD 2000
 90
        0
280
               0
281
               1
  0
CLASS
  1
IMAGE
  2
AcDbRasterImage
  3
ISM
 90
      127
280
               0
281
               1
  0
CLASS
  1
OLE2FRAME
  2
AcDbOle2Frame
  3
AutoCAD 2000
 90
        0
280
               0
281
               1
  0
CLASS
  1
HATCH
  2
AcDbHatch
  3
AutoCAD 2000
 90
        0
280
               0
281
               1
  0
CLASS
  1
DICTIONARYVAR
  2
AcDbDictionaryVar
  3
AutoCAD 2000
 90
        0
280
               0
281
               0
  0
CLASS
  1
RASTERVARIABLES
  2
AcDbRasterVariables
  3
ISM
 90
        0
280
               0
281
               0
  0
CLASS
  1
IMAGEDEF
  2
AcDbRasterImageDef
  3
ISM
 90
        0
280
               0
281
               0
  0
CLASS
  1
IMAGEDEF_REACTOR
  2
AcDbRasterImageDefReactor
  3
ISM
 90
        1
280
               0
281
               0
  0
CLASS
  1
IDBUFFER
  2
AcDbIdBuffer
  3
AutoCAD 2000
 90
        0
280
               0
281
               0
  0
CLASS
  1
SPATIAL_FILTER
  2
AcDbSpatialFilter
  3
AutoCAD 2000
 90
        0
280
               0
281
               0
  0
CLASS
  1
XRECORD
  2
AcDbXrecord
  3
AutoCAD 2000
 90
        0
280
               0
281
               0
  0
CLASS
  1
SORTENTSTABLE
  2
AcDbSortentsTable
  3
AutoCAD 2000
 90
        0
280
               0
281
               0
  0
CLASS
  1
LAYER_INDEX
  2
AcDbLayerIndex
  3
AutoCAD 2000
 90
        0
280
               0
281
               0
  0
CLASS
  1
SPATIAL_INDEX
  2
AcDbSpatialIndex
  3
AutoCAD 2000
 90
        0
280
               0
281
               0
  0
CLASS
  1
OBJECT_PTR
  2
CAseDLPNTableRecord
  3
"ASE-LPNTableRecord"
 90
        1
280
               0
281
               0
  0
CLASS
  1
LAYOUT
  2
AcDbLayout
  3
AutoCAD 2000
 90
        0
280
               0
281
               0
  0
CLASS
  1
PLOTSETTINGS
  2
AcDbPlotSettings
  3
AutoCAD 2000
 90
        0
280
               0
281
               0
  0
CLASS
  1
ACDBDICTIONARYWDFLT
  2
AcDbDictionaryWithDefault
  3
AutoCAD 2000
 90
        0
280
               0
281
               0
  0
CLASS
  1
ACDBPLACEHOLDER
  2
AcDbPlaceHolder
  3
AutoCAD 2000
 90
        0
280
               0
281
               0
  0
ENDSEC
  0
SECTION
  2
TABLES
  0
TABLE
  2
VPORT
  5
7
100
AcDbSymbolTable
 70
               1
  0
VPORT
  5
15
100
AcDbSymbolTableRecord
100
AcDbViewportTableRecord
  2
*ACTIVE
 70
               0
 10
0.0
 20
0.0
 11
1.0
 21
1.0
 12
-0.0000000000000568
 22
1.5767509160321538
 13
0.0
 23
0.0
 14
1.0
 24
1.0
 15
0.0
 25
0.0
 16
0.0
 26
0.0
 36
1.0
 17
0.0
 27
0.0
 37
0.0
 40
594.0
 41
0.688564
 42
50.0
 43
0.0
 44
0.0
 50
0.0
 51
0.0
 71
               0
 72
            2000
 73
               1
 74
               1
 75
               0
 76
               0
 77
               0
 78
               0
281
               0
 65
               0
110
0.0
120
0.0
130
0.0
111
1.0
121
0.0
131
0.0
112
0.0
122
1.0
132
0.0
345
0
346
0
 79
               0
146
0.0
  0
ENDTAB
  0
TABLE
  2
LTYPE
  5
4
100
AcDbSymbolTable
 70
              13
  0
LTYPE
  5
11
100
AcDbSymbolTableRecord
100
AcDbLinetypeTableRecord
  2
ByBlock
 70
              64
  3

 72
              65
 73
               0
 40
0.0
  0
LTYPE
  5
12
100
AcDbSymbolTableRecord
100
AcDbLinetypeTableRecord
  2
ByLayer
 70
              64
  3

 72
              65
 73
               0
 40
0.0
  0
LTYPE
  5
13
100
AcDbSymbolTableRecord
100
AcDbLinetypeTableRecord
  2
Continuous
 70
              64
  3
Solid line
 72
              65
 73
               0
 40
0.0
  0
LTYPE
  5
2E
100
AcDbSymbolTableRecord
100
AcDbLinetypeTableRecord
  2
STYLE_01
 70
               0
  3

 72
              65
 73
               2
 40
0.41664
 49
0.20828
 74
               0
 49
-0.20836
 74
               0
  0
LTYPE
  5
2F
100
AcDbSymbolTableRecord
100
AcDbLinetypeTableRecord
  2
STYLE_02
 70
               0
  3

 72
              65
 73
               2
 40
0.6944250000000001
 49
0.48607
 74
               0
 49
-0.2083550000000001
 74
               0
  0
LTYPE
  5
30
100
AcDbSymbolTableRecord
100
AcDbLinetypeTableRecord
  2
STYLE_03
 70
               0
  3

 72
              65
 73
               2
 40
1.25
 49
1.0416400000000001
 74
               0
 49
-0.2083599999999999
 74
               0
  0
LTYPE
  5
31
100
AcDbSymbolTableRecord
100
AcDbLinetypeTableRecord
  2
STYLE_04
 70
               0
  3

 72
              65
 73
               2
 40
1.5277099999999999
 49
1.3194249999999998
 74
               0
 49
-0.208285
 74
               0
  0
LTYPE
  5
32
100
AcDbSymbolTableRecord
100
AcDbLinetypeTableRecord
  2
STYLE_05
 70
               0
  3

 72
              65
 73
               2
 40
0.20828
 49
0.069425
 74
               0
 49
-0.138855
 74
               0
  0
LTYPE
  5
33
100
AcDbSymbolTableRecord
100
AcDbLinetypeTableRecord
  2
STYLE_06
 70
               0
  3

 72
              65
 73
               4
 40
1.0416400000000001
 49
0.625
 74
               0
 49
-0.20828
 74
               0
 49
0.06943
 74
               0
 49
-0.13893
 74
               0
  0
LTYPE
  5
34
100
AcDbSymbolTableRecord
100
AcDbLinetypeTableRecord
  2
STYLE_07
 70
               0
  3

 72
              65
 73
               6
 40
1.875
 49
0.625
 74
               0
 49
-0.20828
 74
               0
 49
0.6250000000000001
 74
               0
 49
-0.2083599999999999
 74
               0
 49
0.06943
 74
               0
 49
-0.1389299999999999
 74
               0
  0
LTYPE
  5
35
100
AcDbSymbolTableRecord
100
AcDbLinetypeTableRecord
  2
STYLE_08
 70
               0
  3

 72
              65
 73
               6
 40
1.25
 49
0.625
 74
               0
 49
-0.20828
 74
               0
 49
0.06943
 74
               0
 49
-0.13893
 74
               0
 49
0.0694299999999999
 74
               0
 49
-0.13893
 74
               0
  0
LTYPE
  5
36
100
AcDbSymbolTableRecord
100
AcDbLinetypeTableRecord
  2
STYLE_09
 70
               0
  3

 72
              65
 73
               4
 40
5.0
 49
3.75
 74
               0
 49
-0.2777849999999998
 74
               0
 49
0.6944300000000003
 74
               0
 49
-0.2777849999999998
 74
               0
  0
LTYPE
  5
37
100
AcDbSymbolTableRecord
100
AcDbLinetypeTableRecord
  2
STYLE_10
 70
               0
  3

 72
              65
 73
               6
 40
5.9375
 49
3.75
 74
               0
 49
-0.2777849999999998
 74
               0
 49
0.6944300000000003
 74
               0
 49
-0.2777849999999998
 74
               0
 49
0.625
 74
               0
 49
-0.3125
 74
               0
  0
ENDTAB
  0
TABLE
  2
LAYER
  5
2
100
AcDbSymbolTable
 70
               4
  0
LAYER
  5
14
100
AcDbSymbolTableRecord
100
AcDbLayerTableRecord
  2
0
 70
               0
 62
               7
  6
Continuous
290
               1
370
              -3
390
1D
  0
LAYER
  5
38
100
AcDbSymbolTableRecord
100
AcDbLayerTableRecord
  2
Defpoints
 70
               0
 62
               7
  6
Continuous
290
               0
370
              -3
390
1D
  0
LAYER
  5
39
100
AcDbSymbolTableRecord
100
AcDbLayerTableRecord
  2
タオルリング
 70
               0
 62
               7
  6
Continuous
290
               1
370
              -3
390
1D
  0
LAYER
  5
3A
100
AcDbSymbolTableRecord
100
AcDbLayerTableRecord
  2
template
 70
               0
 62
               7
  6
Continuous
290
               1
370
              -3
390
1D
  0
ENDTAB
  0
TABLE
  2
STYLE
  5
3
100
AcDbSymbolTable
 70
               3
  0
STYLE
  5
17
100
AcDbSymbolTableRecord
100
AcDbTextStyleTableRecord
  2
Standard
 70
               0
 40
0.0
 41
1.0
 50
0.0
 71
               0
 42
0.0
  3
txt
  4
BIGFONT.SHX
  0
STYLE
  5
2C
100
AcDbSymbolTableRecord
100
AcDbTextStyleTableRecord
  2
MS UI Gothic
 70
               0
 40
0.0
 41
1.0
 50
0.0
 71
               0
 42
0.0
  3

  4
MS UI Gothic
1001
ACAD
1000
MS UI Gothic
1071
        0
  0
STYLE
  5
2D
100
AcDbSymbolTableRecord
100
AcDbTextStyleTableRecord
  2
ＭＳ ゴシック
 70
               0
 40
0.0
 41
1.0
 50
0.0
 71
               0
 42
0.0
  3

  4
ＭＳ ゴシック
1001
ACAD
1000
ＭＳ ゴシック
1071
        0
  0
ENDTAB
  0
TABLE
  2
VIEW
  5
5
100
AcDbSymbolTable
 70
               0
  0
ENDTAB
  0
TABLE
  2
UCS
  5
6
100
AcDbSymbolTable
 70
               0
  0
ENDTAB
  0
TABLE
  2
APPID
  5
8
100
AcDbSymbolTable
 70
               1
  0
APPID
  5
16
100
AcDbSymbolTableRecord
100
AcDbRegAppTableRecord
  2
ACAD
 70
               0
  0
ENDTAB
  0
TABLE
  2
DIMSTYLE
  5
9
100
AcDbSymbolTable
 70
               3
100
AcDbDimStyleTable
 71
               0
  0
DIMSTYLE
105
18
100
AcDbSymbolTableRecord
100
AcDbDimStyleTableRecord
  2
Standard
 70
               0
  3

  4

 40
1.0
 41
0.18
 42
0.0625
 43
0.38
 44
0.18
 45
0.0
 46
0.0
 47
0.0
 48
0.0
 71
               0
 72
               0
 73
               1
 74
               1
 75
               0
 76
               0
 77
               0
 78
               0
 79
               0
140
0.18
141
0.09
142
0.0
143
25.399999999999999
144
1.0
145
0.0
146
1.0
147
0.09
148
0.0
170
               0
171
               2
172
               0
173
               0
174
               0
175
               0
176
               0
177
               0
178
               0
179
               0
271
               4
272
               4
273
               2
274
               2
275
               0
276
               0
277
               2
278
              46
279
               0
280
               0
281
               0
282
               0
283
               1
284
               0
285
               0
286
               0
288
               0
289
               3
340
17
341
0
342
0
343
0
344
0
371
              -2
372
              -2
  0
DIMSTYLE
105
43
100
AcDbSymbolTableRecord
100
AcDbDimStyleTableRecord
  2
b
 70
               0
  3
<>
  4
[]
 40
1.0
 41
1.0014892578124999
 42
3.1800000000000002
 43
7.0
 44
3.9999999999999996
 45
0.0
 46
0.0
 47
0.0
 48
0.0
 71
               0
 72
               0
 73
               0
 74
               0
 75
               0
 76
               0
 77
               1
 78
              11
 79
               0
140
4.8506944444444438
141
0.0
142
0.0
143
1.0
144
1.0
145
0.0
146
0.8
147
0.2
148
0.0
170
               0
171
               1
172
               1
173
               0
174
               1
175
               0
176
               0
177
               0
178
               0
179
               2
271
               1
272
               1
273
               2
274
               2
275
               0
276
               2
277
               2
278
              46
279
               0
280
               0
281
               0
282
               0
283
               1
284
              11
285
              11
286
              11
288
               0
289
               0
340
2C
341
3B
342
3B
343
0
344
0
371
              -2
372
              -2
  0
DIMSTYLE
105
44
100
AcDbSymbolTableRecord
100
AcDbDimStyleTableRecord
  2
a
 70
               0
  3
<>
  4
[]
 40
1.0
 41
1.0014892578124999
 42
3.1800000000000002
 43
10.16
 44
6.3600000000000003
 45
0.0
 46
0.0
 47
0.0
 48
0.0
 71
               0
 72
               0
 73
               0
 74
               0
 75
               0
 76
               0
 77
               1
 78
              11
 79
               0
140
4.8506944444444438
141
0.0
142
0.0
143
1.0
144
1.0
145
0.0
146
0.8
147
0.2
148
0.0
170
               0
171
               1
172
               1
173
               0
174
               1
175
               0
176
               0
177
               0
178
               0
179
               2
271
               1
272
               1
273
               2
274
               2
275
               0
276
               2
277
               2
278
              46
279
               0
280
               0
281
               0
282
               0
283
               1
284
              11
285
              11
286
              11
288
               0
289
               0
340
2C
341
3B
342
3B
343
0
344
0
371
              -2
372
              -2
  0
ENDTAB
  0
TABLE
  2
BLOCK_RECORD
  5
1
100
AcDbSymbolTable
 70
              10
  0
BLOCK_RECORD
  5
A
100
AcDbSymbolTableRecord
100
AcDbBlockTableRecord
  2
*MODEL_SPACE
340
20
  0
BLOCK_RECORD
  5
B
100
AcDbSymbolTableRecord
100
AcDbBlockTableRecord
  2
*PAPER_SPACE
340
21
  0
BLOCK_RECORD
  5
3B
100
AcDbSymbolTableRecord
100
AcDbBlockTableRecord
  2
_DOT
340
0
  0
BLOCK_RECORD
  5
23
100
AcDbSymbolTableRecord
100
AcDbBlockTableRecord
  2
*D1
340
0
  0
BLOCK_RECORD
  5
24
100
AcDbSymbolTableRecord
100
AcDbBlockTableRecord
  2
*D2
340
0
  0
BLOCK_RECORD
  5
25
100
AcDbSymbolTableRecord
100
AcDbBlockTableRecord
  2
*D3
340
0
  0
BLOCK_RECORD
  5
26
100
AcDbSymbolTableRecord
100
AcDbBlockTableRecord
  2
*D4
340
0
  0
BLOCK_RECORD
  5
27
100
AcDbSymbolTableRecord
100
AcDbBlockTableRecord
  2
*D5
340
0
  0
BLOCK_RECORD
  5
28
100
AcDbSymbolTableRecord
100
AcDbBlockTableRecord
  2
*D6
340
0
  0
BLOCK_RECORD
  5
29
100
AcDbSymbolTableRecord
100
AcDbBlockTableRecord
  2
*D7
340
0
  0
BLOCK_RECORD
  5
2A
100
AcDbSymbolTableRecord
100
AcDbBlockTableRecord
  2
*D8
340
0
  0
BLOCK_RECORD
  5
2B
100
AcDbSymbolTableRecord
100
AcDbBlockTableRecord
  2
グループ
340
0
102
{BLKREFS
331
141
102
}
  0
ENDTAB
  0
ENDSEC
  0
SECTION
  2
BLOCKS
  0
BLOCK
  5
D
100
AcDbEntity
  8
0
390
0
100
AcDbBlockBegin
  2
*MODEL_SPACE
 70
               0
 10
0.0
 20
0.0
 30
0.0
  3
*MODEL_SPACE
  1

  0
ENDBLK
  5
E
100
AcDbEntity
  8
0
390
0
100
AcDbBlockEnd
  0
BLOCK
  5
F
100
AcDbEntity
 67
               1
  8
0
390
0
100
AcDbBlockBegin
  2
*PAPER_SPACE
 70
               0
 10
0.0
 20
0.0
 30
0.0
  3
*PAPER_SPACE
  1

  0
ENDBLK
  5
10
100
AcDbEntity
 67
               1
  8
0
390
0
100
AcDbBlockEnd
  0
BLOCK
  5
3C
100
AcDbEntity
  8
0
390
0
100
AcDbBlockBegin
  2
_DOT
 70
               0
 10
0.0
 20
0.0
 30
0.0
  3
_DOT
  1

  0
POLYLINE
  5
3D
100
AcDbEntity
  8
0
370
              -2
390
0
  6
ByBlock
 62
               0
100
AcDb2dPolyline
 66
               1
 10
0.0
 20
0.0
 30
0.0
 70
               1
 40
0.5
 41
0.5
  0
VERTEX
  5
3E
100
AcDbEntity
  8
0
370
              -2
390
0
  6
ByBlock
 62
               0
100
AcDbVertex
100
AcDb2dVertex
 10
-0.25
 20
0.0
 30
0.0
 42
1.0
  0
VERTEX
  5
3F
100
AcDbEntity
  8
0
370
              -2
390
0
  6
ByBlock
 62
               0
100
AcDbVertex
100
AcDb2dVertex
 10
0.25
 20
0.0
 30
0.0
 42
1.0
  0
SEQEND
  5
40
100
AcDbEntity
  8
0
390
0
  0
LINE
  5
41
100
AcDbEntity
  8
0
370
              -2
390
0
  6
ByBlock
 62
               0
100
AcDbLine
 10
-0.5
 20
0.0
 30
0.0
 11
-1.0
 21
0.0
 31
0.0
  0
ENDBLK
  5
42
100
AcDbEntity
  8
0
390
0
100
AcDbBlockEnd
  0
BLOCK
  5
45
100
AcDbEntity
  8
タオルリング
390
0
100
AcDbBlockBegin
  2
*D1
 70
               1
 10
0.0
 20
0.0
 30
0.0
  3
*D1
  1

  0
LINE
  5
46
100
AcDbEntity
  8
0
370
              -2
390
0
  6
Continuous
 62
               0
100
AcDbLine
 10
-177.00000000000065
 20
117.62631872963851
 30
0.0
 11
-177.00000000000065
 21
135.62631872963851
 31
0.0
  0
LINE
  5
47
100
AcDbEntity
  8
0
370
              -2
390
0
  6
Continuous
 62
               0
100
AcDbLine
 10
3.0
 20
117.62631872963851
 30
0.0
 11
3.0
 21
135.62631872963851
 31
0.0
  0
LINE
  5
48
100
AcDbEntity
  8
0
370
              -2
390
0
  6
Continuous
 62
               0
100
AcDbLine
 10
-177.00000000000065
 20
131.62631872963851
 30
0.0
 11
3.0
 21
131.62631872963851
 31
0.0
  0
CIRCLE
  5
49
102
{ACAD_REACTORS
330
4A
102
}
100
AcDbEntity
  8
0
370
              -2
390
0
  6
Continuous
 62
               0
100
AcDbCircle
 10
-177.00000000000065
 20
131.62631872963851
 30
0.0
 40
0.5007446289062499
  0
HATCH
  5
4A
100
AcDbEntity
  8
0
370
              -2
390
0
  6
Continuous
 62
               0
100
AcDbHatch
 10
0.0
 20
0.0
 30
0.0
210
0.0
220
0.0
230
1.0
  2
SOLID
 70
               1
 71
               1
 91
        1
 92
        1
 93
        1
 72
               2
 10
-177.00000000000065
 20
131.62631872963851
 40
0.5007446289062499
 50
0.0
 51
360.0
 73
               0
 97
        1
330
49
 75
               0
 76
               1
 98
        1
 10
0.0
 20
0.0
  0
CIRCLE
  5
4B
102
{ACAD_REACTORS
330
4C
102
}
100
AcDbEntity
  8
0
370
              -2
390
0
  6
Continuous
 62
               0
100
AcDbCircle
 10
3.0
 20
131.62631872963851
 30
0.0
 40
0.5007446289062499
  0
HATCH
  5
4C
100
AcDbEntity
  8
0
370
              -2
390
0
  6
Continuous
 62
               0
100
AcDbHatch
 10
0.0
 20
0.0
 30
0.0
210
0.0
220
0.0
230
1.0
  2
SOLID
 70
               1
 71
               1
 91
        1
 92
        1
 93
        1
 72
               2
 10
3.0
 20
131.62631872963851
 40
0.5007446289062499
 50
0.0
 51
360.0
 73
               0
 97
        1
330
4B
 75
               0
 76
               1
 98
        1
 10
0.0
 20
0.0
  0
MTEXT
  5
4D
100
AcDbEntity
  8
0
390
0
 62
               0
100
AcDbMText
 10
-92.291666666666984
 20
137.86479095186073
 30
0.0
 40
4.8506944444444438
 41
0.0
 71
               1
 72
               1
  1
180
  7
MS UI Gothic
 73
               1
 44
0.8762322015334065
  0
POINT
  5
4E
100
AcDbEntity
  8
Defpoints
370
               0
390
0
 62
               0
100
AcDbPoint
 10
3.0
 20
54.406983333613653
 30
0.0
  0
POINT
  5
4F
100
AcDbEntity
  8
Defpoints
370
               0
390
0
 62
               0
100
AcDbPoint
 10
-177.00000000000065
 20
54.406983333613653
 30
0.0
  0
POINT
  5
50
100
AcDbEntity
  8
Defpoints
370
               0
390
0
 62
               0
100
AcDbPoint
 10
-177.00000000000065
 20
131.62631872963851
 30
0.0
  0
ENDBLK
  5
51
100
AcDbEntity
  8
タオルリング
390
0
100
AcDbBlockEnd
  0
BLOCK
  5
52
100
AcDbEntity
  8
タオルリング
390
0
100
AcDbBlockBegin
  2
*D2
 70
               1
 10
0.0
 20
0.0
 30
0.0
  3
*D2
  1

  0
LINE
  5
53
100
AcDbEntity
  8
0
370
              -2
390
0
  6
Continuous
 62
               0
100
AcDbLine
 10
7.4009336201447411
 20
110.0
 30
0.0
 11
25.400933620144741
 21
110.0
 31
0.0
  0
LINE
  5
54
100
AcDbEntity
  8
0
370
              -2
390
0
  6
Continuous
 62
               0
100
AcDbLine
 10
7.4009336201447411
 20
35.0
 30
0.0
 11
25.400933620144741
 21
35.0
 31
0.0
  0
LINE
  5
55
100
AcDbEntity
  8
0
370
              -2
390
0
  6
Continuous
 62
               0
100
AcDbLine
 10
21.400933620144741
 20
110.0
 30
0.0
 11
21.400933620144741
 21
35.0
 31
0.0
  0
CIRCLE
  5
56
102
{ACAD_REACTORS
330
57
102
}
100
AcDbEntity
  8
0
370
              -2
390
0
  6
Continuous
 62
               0
100
AcDbCircle
 10
21.400933620144741
 20
110.0
 30
0.0
 40
0.5007446289062499
  0
HATCH
  5
57
100
AcDbEntity
  8
0
370
              -2
390
0
  6
Continuous
 62
               0
100
AcDbHatch
 10
0.0
 20
0.0
 30
0.0
210
0.0
220
0.0
230
1.0
  2
SOLID
 70
               1
 71
               1
 91
        1
 92
        1
 93
        1
 72
               2
 10
21.400933620144741
 20
110.0
 40
0.5007446289062499
 50
0.0
 51
360.0
 73
               0
 97
        1
330
56
 75
               0
 76
               1
 98
        1
 10
0.0
 20
0.0
  0
CIRCLE
  5
58
102
{ACAD_REACTORS
330
59
102
}
100
AcDbEntity
  8
0
370
              -2
390
0
  6
Continuous
 62
               0
100
AcDbCircle
 10
21.400933620144741
 20
35.0
 30
0.0
 40
0.5007446289062499
  0
HATCH
  5
59
100
AcDbEntity
  8
0
370
              -2
390
0
  6
Continuous
 62
               0
100
AcDbHatch
 10
0.0
 20
0.0
 30
0.0
210
0.0
220
0.0
230
1.0
  2
SOLID
 70
               1
 71
               1
 91
        1
 92
        1
 93
        1
 72
               2
 10
21.400933620144741
 20
35.0
 40
0.5007446289062499
 50
0.0
 51
360.0
 73
               0
 97
        1
330
58
 75
               0
 76
               1
 98
        1
 10
0.0
 20
0.0
  0
MTEXT
  5
5A
100
AcDbEntity
  8
0
390
0
 62
               0
100
AcDbMText
 10
15.162461397922518
 20
68.972222222222229
 30
0.0
 40
4.8506944444444438
 41
0.0
 71
               1
 72
               1
  1
75
  7
MS UI Gothic
 11
0.0
 21
1.0
 31
0.0
 73
               1
 44
0.8762322015334065
  0
POINT
  5
5B
100
AcDbEntity
  8
Defpoints
370
               0
390
0
 62
               0
100
AcDbPoint
 10
-44.599066379855259
 20
35.0
 30
0.0
  0
POINT
  5
5C
100
AcDbEntity
  8
Defpoints
370
               0
390
0
 62
               0
100
AcDbPoint
 10
-44.599066379855259
 20
110.0
 30
0.0
  0
POINT
  5
5D
100
AcDbEntity
  8
Defpoints
370
               0
390
0
 62
               0
100
AcDbPoint
 10
21.400933620144741
 20
110.0
 30
0.0
  0
ENDBLK
  5
5E
100
AcDbEntity
  8
タオルリング
390
0
100
AcDbBlockEnd
  0
BLOCK
  5
5F
100
AcDbEntity
  8
タオルリング
390
0
100
AcDbBlockBegin
  2
*D3
 70
               1
 10
0.0
 20
0.0
 30
0.0
  3
*D3
  1

  0
LINE
  5
60
100
AcDbEntity
  8
0
370
              -2
390
0
  6
Continuous
 62
               0
100
AcDbLine
 10
10.790525984249527
 20
-95.557476338610115
 30
0.0
 11
28.790525984249527
 21
-95.557476338610115
 31
0.0
  0
LINE
  5
61
100
AcDbEntity
  8
0
370
              -2
390
0
  6
Continuous
 62
               0
100
AcDbLine
 10
10.790525984249527
 20
-35.557476338610229
 30
0.0
 11
28.790525984249527
 21
-35.557476338610229
 31
0.0
  0
LINE
  5
62
100
AcDbEntity
  8
0
370
              -2
390
0
  6
Continuous
 62
               0
100
AcDbLine
 10
24.790525984249527
 20
-95.557476338610115
 30
0.0
 11
24.790525984249527
 21
-35.557476338610229
 31
0.0
  0
CIRCLE
  5
63
102
{ACAD_REACTORS
330
64
102
}
100
AcDbEntity
  8
0
370
              -2
390
0
  6
Continuous
 62
               0
100
AcDbCircle
 10
24.790525984249527
 20
-95.557476338610115
 30
0.0
 40
0.5007446289062499
  0
HATCH
  5
64
100
AcDbEntity
  8
0
370
              -2
390
0
  6
Continuous
 62
               0
100
AcDbHatch
 10
0.0
 20
0.0
 30
0.0
210
0.0
220
0.0
230
1.0
  2
SOLID
 70
               1
 71
               1
 91
        1
 92
        1
 93
        1
 72
               2
 10
24.790525984249527
 20
-95.557476338610115
 40
0.5007446289062499
 50
0.0
 51
360.0
 73
               0
 97
        1
330
63
 75
               0
 76
               1
 98
        1
 10
0.0
 20
0.0
  0
CIRCLE
  5
65
102
{ACAD_REACTORS
330
66
102
}
100
AcDbEntity
  8
0
370
              -2
390
0
  6
Continuous
 62
               0
100
AcDbCircle
 10
24.790525984249527
 20
-35.557476338610229
 30
0.0
 40
0.5007446289062499
  0
HATCH
  5
66
100
AcDbEntity
  8
0
370
              -2
390
0
  6
Continuous
 62
               0
100
AcDbHatch
 10
0.0
 20
0.0
 30
0.0
210
0.0
220
0.0
230
1.0
  2
SOLID
 70
               1
 71
               1
 91
        1
 92
        1
 93
        1
 72
               2
 10
24.790525984249527
 20
-35.557476338610229
 40
0.5007446289062499
 50
0.0
 51
360.0
 73
               0
 97
        1
330
65
 75
               0
 76
               1
 98
        1
 10
0.0
 20
0.0
  0
MTEXT
  5
67
100
AcDbEntity
  8
0
390
0
 62
               0
100
AcDbMText
 10
18.552053762027306
 20
-69.085254116387944
 30
0.0
 40
4.8506944444444438
 41
0.0
 71
               1
 72
               1
  1
60
  7
MS UI Gothic
 11
0.0
 21
1.0
 31
0.0
 73
               1
 44
0.8762322015334065
  0
POINT
  5
68
100
AcDbEntity
  8
Defpoints
370
               0
390
0
 62
               0
100
AcDbPoint
 10
-13.680343834031206
 20
-35.557476338610229
 30
0.0
  0
POINT
  5
69
100
AcDbEntity
  8
Defpoints
370
               0
390
0
 62
               0
100
AcDbPoint
 10
-13.680343834031206
 20
-95.557476338610115
 30
0.0
  0
POINT
  5
6A
100
AcDbEntity
  8
Defpoints
370
               0
390
0
 62
               0
100
AcDbPoint
 10
24.790525984249527
 20
-95.557476338610115
 30
0.0
  0
ENDBLK
  5
6B
100
AcDbEntity
  8
タオルリング
390
0
100
AcDbBlockEnd
  0
BLOCK
  5
6C
100
AcDbEntity
  8
タオルリング
390
0
100
AcDbBlockBegin
  2
*D4
 70
               1
 10
0.0
 20
0.0
 30
0.0
  3
*D4
  1

  0
LINE
  5
6D
100
AcDbEntity
  8
0
370
              -2
390
0
  6
Continuous
 62
               0
100
AcDbLine
 10
-140.20892753061494
 20
-33.21777518238909
 30
0.0
 11
-140.20892753061494
 21
-15.21777518238909
 31
0.0
  0
LINE
  5
6E
100
AcDbEntity
  8
0
370
              -2
390
0
  6
Continuous
 62
               0
100
AcDbLine
 10
-32.208927530614943
 20
-33.21777518238909
 30
0.0
 11
-32.208927530614943
 21
-15.21777518238909
 31
0.0
  0
LINE
  5
6F
100
AcDbEntity
  8
0
370
              -2
390
0
  6
Continuous
 62
               0
100
AcDbLine
 10
-140.20892753061494
 20
-19.21777518238909
 30
0.0
 11
-32.208927530614943
 21
-19.21777518238909
 31
0.0
  0
CIRCLE
  5
70
102
{ACAD_REACTORS
330
71
102
}
100
AcDbEntity
  8
0
370
              -2
390
0
  6
Continuous
 62
               0
100
AcDbCircle
 10
-140.20892753061494
 20
-19.21777518238909
 30
0.0
 40
0.5007446289062499
  0
HATCH
  5
71
100
AcDbEntity
  8
0
370
              -2
390
0
  6
Continuous
 62
               0
100
AcDbHatch
 10
0.0
 20
0.0
 30
0.0
210
0.0
220
0.0
230
1.0
  2
SOLID
 70
               1
 71
               1
 91
        1
 92
        1
 93
        1
 72
               2
 10
-140.20892753061494
 20
-19.21777518238909
 40
0.5007446289062499
 50
0.0
 51
360.0
 73
               0
 97
        1
330
70
 75
               0
 76
               1
 98
        1
 10
0.0
 20
0.0
  0
CIRCLE
  5
72
102
{ACAD_REACTORS
330
73
102
}
100
AcDbEntity
  8
0
370
              -2
390
0
  6
Continuous
 62
               0
100
AcDbCircle
 10
-32.208927530614943
 20
-19.21777518238909
 30
0.0
 40
0.5007446289062499
  0
HATCH
  5
73
100
AcDbEntity
  8
0
370
              -2
390
0
  6
Continuous
 62
               0
100
AcDbHatch
 10
0.0
 20
0.0
 30
0.0
210
0.0
220
0.0
230
1.0
  2
SOLID
 70
               1
 71
               1
 91
        1
 92
        1
 93
        1
 72
               2
 10
-32.208927530614943
 20
-19.21777518238909
 40
0.5007446289062499
 50
0.0
 51
360.0
 73
               0
 97
        1
330
72
 75
               0
 76
               1
 98
        1
 10
0.0
 20
0.0
  0
MTEXT
  5
74
100
AcDbEntity
  8
0
390
0
 62
               0
100
AcDbMText
 10
-91.500594197281615
 20
-12.979302960166869
 30
0.0
 40
4.8506944444444438
 41
0.0
 71
               1
 72
               1
  1
108
  7
MS UI Gothic
 73
               1
 44
0.8762322015334065
  0
POINT
  5
75
100
AcDbEntity
  8
Defpoints
370
               0
390
0
 62
               0
100
AcDbPoint
 10
-32.208927530614943
 20
-36.55253629378052
 30
0.0
  0
POINT
  5
76
100
AcDbEntity
  8
Defpoints
370
               0
390
0
 62
               0
100
AcDbPoint
 10
-140.20892753061494
 20
-36.55253629378052
 30
0.0
  0
POINT
  5
77
100
AcDbEntity
  8
Defpoints
370
               0
390
0
 62
               0
100
AcDbPoint
 10
-140.20892753061494
 20
-19.21777518238909
 30
0.0
  0
ENDBLK
  5
78
100
AcDbEntity
  8
タオルリング
390
0
100
AcDbBlockEnd
  0
BLOCK
  5
79
100
AcDbEntity
  8
タオルリング
390
0
100
AcDbBlockBegin
  2
*D5
 70
               1
 10
0.0
 20
0.0
 30
0.0
  3
*D5
  1

  0
LINE
  5
7A
100
AcDbEntity
  8
0
370
              -2
390
0
  6
Continuous
 62
               0
100
AcDbLine
 10
74.000000000000043
 20
28.190075345923681
 30
0.0
 11
74.000000000000043
 21
13.910075345923687
 31
0.0
  0
LINE
  5
7B
100
AcDbEntity
  8
0
370
              -2
390
0
  6
Continuous
 62
               0
100
AcDbLine
 10
90.000000000000057
 20
28.190075345923681
 30
0.0
 11
90.000000000000057
 21
13.910075345923687
 31
0.0
  0
LINE
  5
7C
100
AcDbEntity
  8
0
370
              -2
390
0
  6
Continuous
 62
               0
100
AcDbLine
 10
74.000000000000043
 20
20.270075345923686
 30
0.0
 11
90.000000000000057
 21
20.270075345923686
 31
0.0
  0
CIRCLE
  5
7D
102
{ACAD_REACTORS
330
7E
102
}
100
AcDbEntity
  8
0
370
              -2
390
0
  6
Continuous
 62
               0
100
AcDbCircle
 10
74.000000000000043
 20
20.270075345923686
 30
0.0
 40
0.5007446289062499
  0
HATCH
  5
7E
100
AcDbEntity
  8
0
370
              -2
390
0
  6
Continuous
 62
               0
100
AcDbHatch
 10
0.0
 20
0.0
 30
0.0
210
0.0
220
0.0
230
1.0
  2
SOLID
 70
               1
 71
               1
 91
        1
 92
        1
 93
        1
 72
               2
 10
74.000000000000043
 20
20.270075345923686
 40
0.5007446289062499
 50
0.0
 51
360.0
 73
               0
 97
        1
330
7D
 75
               0
 76
               1
 98
        1
 10
0.0
 20
0.0
  0
CIRCLE
  5
7F
102
{ACAD_REACTORS
330
80
102
}
100
AcDbEntity
  8
0
370
              -2
390
0
  6
Continuous
 62
               0
100
AcDbCircle
 10
90.000000000000057
 20
20.270075345923686
 30
0.0
 40
0.5007446289062499
  0
HATCH
  5
80
100
AcDbEntity
  8
0
370
              -2
390
0
  6
Continuous
 62
               0
100
AcDbHatch
 10
0.0
 20
0.0
 30
0.0
210
0.0
220
0.0
230
1.0
  2
SOLID
 70
               1
 71
               1
 91
        1
 92
        1
 93
        1
 72
               2
 10
90.000000000000057
 20
20.270075345923686
 40
0.5007446289062499
 50
0.0
 51
360.0
 73
               0
 97
        1
330
7F
 75
               0
 76
               1
 98
        1
 10
0.0
 20
0.0
  0
MTEXT
  5
81
100
AcDbEntity
  8
0
390
0
 62
               0
100
AcDbMText
 10
78.472222222222285
 20
26.308547568145904
 30
0.0
 40
4.8506944444444438
 41
0.0
 71
               1
 72
               1
  1
16
  7
MS UI Gothic
 73
               1
 44
0.8762322015334065
  0
POINT
  5
82
100
AcDbEntity
  8
Defpoints
370
               0
390
0
 62
               0
100
AcDbPoint
 10
90.000000000000057
 20
31.370075345923681
 30
0.0
  0
POINT
  5
83
100
AcDbEntity
  8
Defpoints
370
               0
390
0
 62
               0
100
AcDbPoint
 10
74.000000000000043
 20
31.370075345923681
 30
0.0
  0
POINT
  5
84
100
AcDbEntity
  8
Defpoints
370
               0
390
0
 62
               0
100
AcDbPoint
 10
74.000000000000043
 20
20.270075345923686
 30
0.0
  0
ENDBLK
  5
85
100
AcDbEntity
  8
タオルリング
390
0
100
AcDbBlockEnd
  0
BLOCK
  5
86
100
AcDbEntity
  8
タオルリング
390
0
100
AcDbBlockBegin
  2
*D6
 70
               1
 10
0.0
 20
0.0
 30
0.0
  3
*D6
  1

  0
LINE
  5
87
100
AcDbEntity
  8
0
370
              -2
390
0
  6
Continuous
 62
               0
100
AcDbLine
 10
165.0
 20
110.06114781530852
 30
0.0
 11
183.0
 21
110.06114781530852
 31
0.0
  0
LINE
  5
88
100
AcDbEntity
  8
0
370
              -2
390
0
  6
Continuous
 62
               0
100
AcDbLine
 10
165.0
 20
94.0611478153088
 30
0.0
 11
183.0
 21
94.0611478153088
 31
0.0
  0
LINE
  5
89
100
AcDbEntity
  8
0
370
              -2
390
0
  6
Continuous
 62
               0
100
AcDbLine
 10
179.0
 20
110.06114781530852
 30
0.0
 11
179.0
 21
94.0611478153088
 31
0.0
  0
CIRCLE
  5
8A
102
{ACAD_REACTORS
330
8B
102
}
100
AcDbEntity
  8
0
370
              -2
390
0
  6
Continuous
 62
               0
100
AcDbCircle
 10
179.0
 20
110.06114781530852
 30
0.0
 40
0.5007446289062499
  0
HATCH
  5
8B
100
AcDbEntity
  8
0
370
              -2
390
0
  6
Continuous
 62
               0
100
AcDbHatch
 10
0.0
 20
0.0
 30
0.0
210
0.0
220
0.0
230
1.0
  2
SOLID
 70
               1
 71
               1
 91
        1
 92
        1
 93
        1
 72
               2
 10
179.0
 20
110.06114781530852
 40
0.5007446289062499
 50
0.0
 51
360.0
 73
               0
 97
        1
330
8A
 75
               0
 76
               1
 98
        1
 10
0.0
 20
0.0
  0
CIRCLE
  5
8C
102
{ACAD_REACTORS
330
8D
102
}
100
AcDbEntity
  8
0
370
              -2
390
0
  6
Continuous
 62
               0
100
AcDbCircle
 10
179.0
 20
94.0611478153088
 30
0.0
 40
0.5007446289062499
  0
HATCH
  5
8D
100
AcDbEntity
  8
0
370
              -2
390
0
  6
Continuous
 62
               0
100
AcDbHatch
 10
0.0
 20
0.0
 30
0.0
210
0.0
220
0.0
230
1.0
  2
SOLID
 70
               1
 71
               1
 91
        1
 92
        1
 93
        1
 72
               2
 10
179.0
 20
94.0611478153088
 40
0.5007446289062499
 50
0.0
 51
360.0
 73
               0
 97
        1
330
8C
 75
               0
 76
               1
 98
        1
 10
0.0
 20
0.0
  0
MTEXT
  5
8E
100
AcDbEntity
  8
0
390
0
 62
               0
100
AcDbMText
 10
172.76152777777779
 20
99.472222222222229
 30
0.0
 40
4.8506944444444438
 41
0.0
 71
               1
 72
               1
  1
16
  7
MS UI Gothic
 11
0.0
 21
1.0
 31
0.0
 73
               1
 44
0.8762322015334065
  0
POINT
  5
8F
100
AcDbEntity
  8
Defpoints
370
               0
390
0
 62
               0
100
AcDbPoint
 10
135.9999999999998
 20
94.0611478153088
 30
0.0
  0
POINT
  5
90
100
AcDbEntity
  8
Defpoints
370
               0
390
0
 62
               0
100
AcDbPoint
 10
135.9999999999998
 20
110.06114781530852
 30
0.0
  0
POINT
  5
91
100
AcDbEntity
  8
Defpoints
370
               0
390
0
 62
               0
100
AcDbPoint
 10
179.0
 20
110.06114781530852
 30
0.0
  0
ENDBLK
  5
92
100
AcDbEntity
  8
タオルリング
390
0
100
AcDbBlockEnd
  0
BLOCK
  5
93
100
AcDbEntity
  8
タオルリング
390
0
100
AcDbBlockBegin
  2
*D7
 70
               1
 10
0.0
 20
0.0
 30
0.0
  3
*D7
  1

  0
LINE
  5
94
100
AcDbEntity
  8
0
370
              -2
390
0
  6
Continuous
 62
               0
100
AcDbLine
 10
74.000000000000099
 20
117.24819312249701
 30
0.0
 11
74.000000000000099
 21
135.24819312249701
 31
0.0
  0
LINE
  5
95
100
AcDbEntity
  8
0
370
              -2
390
0
  6
Continuous
 62
               0
100
AcDbLine
 10
133.99999999999991
 20
117.24819312249701
 30
0.0
 11
133.99999999999991
 21
135.24819312249701
 31
0.0
  0
LINE
  5
96
100
AcDbEntity
  8
0
370
              -2
390
0
  6
Continuous
 62
               0
100
AcDbLine
 10
74.000000000000099
 20
131.24819312249701
 30
0.0
 11
133.99999999999991
 21
131.24819312249701
 31
0.0
  0
CIRCLE
  5
97
102
{ACAD_REACTORS
330
98
102
}
100
AcDbEntity
  8
0
370
              -2
390
0
  6
Continuous
 62
               0
100
AcDbCircle
 10
74.000000000000099
 20
131.24819312249701
 30
0.0
 40
0.5007446289062499
  0
HATCH
  5
98
100
AcDbEntity
  8
0
370
              -2
390
0
  6
Continuous
 62
               0
100
AcDbHatch
 10
0.0
 20
0.0
 30
0.0
210
0.0
220
0.0
230
1.0
  2
SOLID
 70
               1
 71
               1
 91
        1
 92
        1
 93
        1
 72
               2
 10
74.000000000000099
 20
131.24819312249701
 40
0.5007446289062499
 50
0.0
 51
360.0
 73
               0
 97
        1
330
97
 75
               0
 76
               1
 98
        1
 10
0.0
 20
0.0
  0
CIRCLE
  5
99
102
{ACAD_REACTORS
330
9A
102
}
100
AcDbEntity
  8
0
370
              -2
390
0
  6
Continuous
 62
               0
100
AcDbCircle
 10
133.99999999999991
 20
131.24819312249701
 30
0.0
 40
0.5007446289062499
  0
HATCH
  5
9A
100
AcDbEntity
  8
0
370
              -2
390
0
  6
Continuous
 62
               0
100
AcDbHatch
 10
0.0
 20
0.0
 30
0.0
210
0.0
220
0.0
230
1.0
  2
SOLID
 70
               1
 71
               1
 91
        1
 92
        1
 93
        1
 72
               2
 10
133.99999999999991
 20
131.24819312249701
 40
0.5007446289062499
 50
0.0
 51
360.0
 73
               0
 97
        1
330
99
 75
               0
 76
               1
 98
        1
 10
0.0
 20
0.0
  0
MTEXT
  5
9B
100
AcDbEntity
  8
0
390
0
 62
               0
100
AcDbMText
 10
100.47222222222223
 20
137.48666534471923
 30
0.0
 40
4.8506944444444438
 41
0.0
 71
               1
 72
               1
  1
60
  7
MS UI Gothic
 73
               1
 44
0.8762322015334065
  0
POINT
  5
9C
100
AcDbEntity
  8
Defpoints
370
               0
390
0
 62
               0
100
AcDbPoint
 10
133.99999999999991
 20
102.06114781530869
 30
0.0
  0
POINT
  5
9D
100
AcDbEntity
  8
Defpoints
370
               0
390
0
 62
               0
100
AcDbPoint
 10
74.000000000000099
 20
102.06114781530869
 30
0.0
  0
POINT
  5
9E
100
AcDbEntity
  8
Defpoints
370
               0
390
0
 62
               0
100
AcDbPoint
 10
74.000000000000099
 20
131.24819312249701
 30
0.0
  0
ENDBLK
  5
9F
100
AcDbEntity
  8
タオルリング
390
0
100
AcDbBlockEnd
  0
BLOCK
  5
A0
100
AcDbEntity
  8
タオルリング
390
0
100
AcDbBlockBegin
  2
*D8
 70
               1
 10
0.0
 20
0.0
 30
0.0
  3
*D8
  1

  0
LINE
  5
A1
100
AcDbEntity
  8
0
370
              -2
390
0
  6
Continuous
 62
               0
100
AcDbLine
 10
70.074602521976246
 20
110.06114781530852
 30
0.0
 11
52.074602521976246
 21
110.06114781530852
 31
0.0
  0
LINE
  5
A2
100
AcDbEntity
  8
0
370
              -2
390
0
  6
Continuous
 62
               0
100
AcDbLine
 10
70.074602521976246
 20
35.061147815308516
 30
0.0
 11
52.074602521976246
 21
35.061147815308516
 31
0.0
  0
LINE
  5
A3
100
AcDbEntity
  8
0
370
              -2
390
0
  6
Continuous
 62
               0
100
AcDbLine
 10
56.074602521976246
 20
110.06114781530852
 30
0.0
 11
56.074602521976246
 21
35.061147815308516
 31
0.0
  0
CIRCLE
  5
A4
102
{ACAD_REACTORS
330
A5
102
}
100
AcDbEntity
  8
0
370
              -2
390
0
  6
Continuous
 62
               0
100
AcDbCircle
 10
56.074602521976246
 20
110.06114781530852
 30
0.0
 40
0.5007446289062499
  0
HATCH
  5
A5
100
AcDbEntity
  8
0
370
              -2
390
0
  6
Continuous
 62
               0
100
AcDbHatch
 10
0.0
 20
0.0
 30
0.0
210
0.0
220
0.0
230
1.0
  2
SOLID
 70
               1
 71
               1
 91
        1
 92
        1
 93
        1
 72
               2
 10
56.074602521976246
 20
110.06114781530852
 40
0.5007446289062499
 50
0.0
 51
360.0
 73
               0
 97
        1
330
A4
 75
               0
 76
               1
 98
        1
 10
0.0
 20
0.0
  0
CIRCLE
  5
A6
102
{ACAD_REACTORS
330
A7
102
}
100
AcDbEntity
  8
0
370
              -2
390
0
  6
Continuous
 62
               0
100
AcDbCircle
 10
56.074602521976246
 20
35.061147815308516
 30
0.0
 40
0.5007446289062499
  0
HATCH
  5
A7
100
AcDbEntity
  8
0
370
              -2
390
0
  6
Continuous
 62
               0
100
AcDbHatch
 10
0.0
 20
0.0
 30
0.0
210
0.0
220
0.0
230
1.0
  2
SOLID
 70
               1
 71
               1
 91
        1
 92
        1
 93
        1
 72
               2
 10
56.074602521976246
 20
35.061147815308516
 40
0.5007446289062499
 50
0.0
 51
360.0
 73
               0
 97
        1
330
A6
 75
               0
 76
               1
 98
        1
 10
0.0
 20
0.0
  0
MTEXT
  5
A8
100
AcDbEntity
  8
0
390
0
 62
               0
100
AcDbMText
 10
49.836130299754025
 20
69.033370037530744
 30
0.0
 40
4.8506944444444438
 41
0.0
 71
               1
 72
               1
  1
75
  7
MS UI Gothic
 11
0.0
 21
1.0
 31
0.0
 73
               1
 44
0.8762322015334065
  0
POINT
  5
A9
100
AcDbEntity
  8
Defpoints
370
               0
390
0
 62
               0
100
AcDbPoint
 10
82.000000000000057
 20
35.061147815308516
 30
0.0
  0
POINT
  5
AA
100
AcDbEntity
  8
Defpoints
370
               0
390
0
 62
               0
100
AcDbPoint
 10
82.000000000000057
 20
110.06114781530852
 30
0.0
  0
POINT
  5
AB
100
AcDbEntity
  8
Defpoints
370
               0
390
0
 62
               0
100
AcDbPoint
 10
56.074602521976246
 20
110.06114781530852
 30
0.0
  0
ENDBLK
  5
AC
100
AcDbEntity
  8
タオルリング
390
0
100
AcDbBlockEnd
  0
BLOCK
  5
AD
100
AcDbEntity
  8
template
390
0
100
AcDbBlockBegin
  2
グループ
 70
               0
 10
0.0
 20
0.0
 30
0.0
  3
グループ
  1

  0
LWPOLYLINE
  5
AE
100
AcDbEntity
  8
0
370
              15
390
0
  6
Continuous
 62
               7
100
AcDbPolyline
 90
        8
 70
             129
 10
177.48570156061484
 20
-265.32119328870505
 10
177.48570156061484
 20
-266.52067102742024
 10
175.58546217701414
 20
-266.52067102742024
 10
175.58546217701414
 20
-271.41086368012196
 10
173.91438672465765
 20
-271.41086368012196
 10
173.91438672465765
 20
-266.52067102742024
 10
172.04779533539576
 20
-266.52067102742024
 10
172.04779533539576
 20
-265.32119328870505
  0
LWPOLYLINE
  5
AF
100
AcDbEntity
  8
0
370
              15
390
0
  6
Continuous
 62
               7
100
AcDbPolyline
 90
      101
 70
             128
 10
180.03135992672625
 20
-265.46684298729235
 10
180.03442993248399
 20
-265.46597083595515
 42
-0.0222221607817195
 10
180.09243084781744
 20
-265.45224594290642
 10
180.09558960061585
 20
-265.45164525828704
 42
-0.0146883565584386
 10
180.14813014166097
 20
-265.44324462089708
 42
-0.0127458844189433
 10
180.20105793509092
 20
-265.4377372272827
 10
180.21354895075413
 20
-265.43675854276501
 42
-0.0198099018563249
 10
180.29171877264946
 20
-265.43374151128563
 10
180.30208106653831
 20
-265.43375226641865
 42
-0.0147617382763712
 10
180.40100575873248
 20
-265.43677627146764
 10
180.41554404970825
 20
-265.4376507928452
 42
-0.0162624549005104
 10
180.49357477560105
 20
-265.44489736789967
 10
180.51788125385249
 20
-265.44795467969891
 42
-0.0080020874675877
 10
180.54699706007116
 20
-265.45209124915266
 10
180.55466095418939
 20
-265.45330550471476
 42
-0.0053821929680058
 10
180.56835777525313
 20
-265.45562700947914
 10
180.42307663541337
 20
-265.89181270062193
 42
0.0108667757388658
 10
180.40961322138619
 20
-265.88917527757775
 10
180.40211961674933
 20
-265.88787572905909
 42
0.0170663203309062
 10
180.37347625936624
 20
-265.88390980960077
 10
180.3599011928296
 20
-265.88250037548323
 42
0.0220162375278684
 10
180.30382531125832
 20
-265.87916390332919
 10
180.2882541978488
 20
-265.87892402987592
 42
0.0282606915782386
 10
180.22112693313258
 20
-265.8816846852697
 10
180.21234427837848
 20
-265.8825446832704
 42
0.0169677213683492
 10
180.16315937938631
 20
-265.88905209318079
 42
0.019057626986758
 10
180.11457778687014
 20
-265.89908146760217
 10
180.11332594924815
 20
-265.899390062424
 42
0.0213685642846035
 10
180.06324905235192
 20
-265.91403011944516
 10
180.06215107336939
 20
-265.91440271865673
 42
0.023759529759669
 10
180.01145209639006
 20
-265.93433962303567
 10
180.0104316815837
 20
-265.93479797813148
 42
0.0261857468814342
 10
179.9599975263373
 20
-265.96070524560662
 10
179.95791228852087
 20
-265.96191834049972
 42
0.0272553062012669
 10
179.91062633347261
 20
-265.99299278168894
 10
179.90367373077038
 20
-265.99812501130765
 42
0.0325996893194624
 10
179.8736426620404
 20
-266.02347458590168
 10
179.86890077621612
 20
-266.02803819160391
 42
0.0138050960641111
 10
179.85052414497378
 20
-266.04672812391459
 42
0.01252801038067
 10
179.83315563840733
 20
-266.06636078923424
 10
179.82841954942538
 20
-266.07199248887207
 42
0.02052180247458
 10
179.80339953432215
 20
-266.1043511517185
 10
179.7989062662252
 20
-266.11068309768325
 42
0.0163110129579954
 10
179.76776419037543
 20
-266.15774918469646
 10
179.76721941116475
 20
-266.15863393709435
 42
0.013189734189563
 10
179.73785930698432
 20
-266.20926035556579
 10
179.73751928791026
 20
-266.20988400339434
 42
0.0107895576058205
 10
179.70996394746896
 20
-266.26312704531966
 10
179.70981736956313
 20
-266.26342589185072
 42
0.0091371507221085
 10
179.68412137983242
 20
-266.31833093140455
 10
179.67817225355142
 20
-266.33167223283442
 42
0.0135418326347155
 10
179.64382946573738
 20
-266.41465978988731
 10
179.63710850405022
 20
-266.43223301834439
 42
0.0092834542413877
 10
179.602862692066
 20
-266.52701271800549
 10
179.59773926652346
 20
-266.54206093196115
 42
0.0054261043582374
 10
179.57621163686386
 20
-266.60761372657714
 10
179.5727064396188
 20
-266.6186913590534
 42
0.0008225090826801
 10
179.55897242926241
 20
-266.66234511065301
 10
179.3620346028757
 20
-267.26732336930434
 10
180.00855937089054
 20
-267.26732336930434
 10
179.90772088491983
 20
-267.64821902897478
 10
179.25650962852316
 20
-267.64821902897478
 10
178.09067982205235
 20
-271.41086364217574
 10
177.72566029999038
 20
-271.41086364217574
 10
178.89259590709057
 20
-267.64821902897478
 10
178.41157263328236
 20
-267.64821902897478
 10
178.51241111925307
 20
-267.26732336930434
 10
178.9981208814431
 20
-267.26732336930434
 10
179.1701518650809
 20
-266.74004076916452
 42
-0.0005863560657954
 10
179.17749880071642
 20
-266.71667548512249
 10
179.19271636745364
 20
-266.66847702522909
 42
-0.0087522378927359
 10
179.23260999614487
 20
-266.54942180780017
 10
179.25106285122743
 20
-266.49739377409799
 42
-0.0077400953830661
 10
179.30264958305392
 20
-266.35879283858753
 10
179.30580257736938
 20
-266.35070666191115
 42
-0.0082369946329018
 10
179.35521947149206
 20
-266.22989084867118
 42
-0.0085725238365436
 10
179.40866869069228
 20
-266.11080564081453
 10
179.42899461089459
 20
-266.06752142041574
 42
-0.0168109410593594
 10
179.48638349664017
 20
-265.95527991519589
 10
179.51155217471879
 20
-265.90988710862013
 42
-0.0007817726857672
 10
179.52240904474328
 20
-265.89037825959019
 10
179.52243470594547
 20
-265.89033231784521
 42
-0.0036626142170954
 10
179.53341227875094
 20
-265.8710127418492
 42
-0.0080221150648169
 10
179.54483712983324
 20
-265.85195689489706
 10
179.55097712010453
 20
-265.84207870507419
 42
-0.0202139325572795
 10
179.57650826806551
 20
-265.80448238493841
 10
179.58732176110342
 20
-265.78986661208978
 42
-0.0249323791799451
 10
179.63915431984717
 20
-265.72665756365899
 10
179.64398228267268
 20
-265.72133470907636
 42
-0.0242132121536213
 10
179.7119184309814
 20
-265.65335801183522
 10
179.72150074553184
 20
-265.64465618459775
 42
-0.025101752785644
 10
179.77829708565932
 20
-265.5980576354454
 10
179.77858618102184
 20
-265.59784378392976
 42
-0.0130868069035525
 10
179.83823831101355
 20
-265.55608769022109
 10
179.8385506748414
 20
-265.55588100216653
 42
-0.029032952639254
 10
179.90077290312078
 20
-265.51971590184019
 10
179.90674201551874
 20
-265.51669542527191
 42
-0.0160250190044845
 10
179.95992289827095
 20
-265.49189220322967
 42
-0.0267600374777737
 10
180.01497811376461
 20
-265.47174253911993
 10
180.02032529766879
 20
-265.47010402735481
 42
-0.004998158770146
 10
180.03135992672625
 20
-265.46684298729235
 42
-0.004998158770146
  0
LWPOLYLINE
  5
B0
100
AcDbEntity
  8
0
370
              15
390
0
  6
Continuous
 62
               7
100
AcDbPolyline
 90
      118
 70
             128
 10
183.99423343961561
 20
-267.28212003486976
 10
184.36925782451553
 20
-267.28212003486976
 10
184.20165004339546
 20
-267.8184333401498
 42
-0.0010587229240522
 10
184.20794120650325
 20
-267.81105243348645
 10
184.21958002463626
 20
-267.7974559822436
 42
-0.0071874740412582
 10
184.24965506825552
 20
-267.76332784383817
 10
184.27799962290831
 20
-267.73208061557511
 42
-0.0148118053513357
 10
184.36802548145076
 20
-267.63855784637269
 10
184.38546994843179
 20
-267.6214783822013
 42
-0.0086273358690031
 10
184.4525797086329
 20
-267.55800325539849
 10
184.461346451878
 20
-267.54999332653193
 42
-0.010313832311448
 10
184.51295119232478
 20
-267.50476069906426
 10
184.52210607358987
 20
-267.49706428961252
 42
-0.0060206748563363
 10
184.55667568641266
 20
-267.46870535946135
 10
184.55708191259214
 20
-267.46838021833327
 42
-0.0067069027291637
 10
184.59154047552235
 20
-267.44155009157612
 10
184.59205022870884
 20
-267.44116405760008
 42
-0.0076184352047521
 10
184.62623128188184
 20
-267.41608908255228
 42
-0.0089652861671455
 10
184.66122347442715
 20
-267.39216243048679
 10
184.66849381845822
 20
-267.38738018778884
 42
-0.0156916245938603
 10
184.70768571788975
 20
-267.36332769049432
 42
-0.0023299011062456
 10
184.74773812668266
 20
-267.34069210258775
 10
184.75081495316167
 20
-267.33897210357316
 42
-0.0107669341478992
 10
184.79766231818127
 20
-267.31409207690359
 10
184.80211527839688
 20
-267.3118487269133
 42
-0.0078058045894654
 10
184.85883330198797
 20
-267.2843764357853
 10
184.86081471952926
 20
-267.28345461021189
 42
-0.0181829330471773
 10
184.92287660045289
 20
-267.25728186199257
 10
184.93368768896531
 20
-267.2531788380042
 42
-0.0208411536029471
 10
185.00350468245583
 20
-267.22996074550542
 10
185.0063759024813
 20
-267.22913705651473
 42
-0.0222799817131073
 10
185.07211986126478
 20
-267.21340874328666
 10
185.07389765391272
 20
-267.21306634116957
 42
-0.0215509523880581
 10
185.13719184756812
 20
-267.20368320346279
 10
185.14568823977737
 20
-267.20279569810469
 42
-0.0182545924873861
 10
185.19250999563897
 20
-267.19962693302648
 10
185.20039019891013
 20
-267.19938202401056
 42
-0.0072962856528512
 10
185.23157477484634
 20
-267.19886815830614
 10
185.23739470895791
 20
-267.19885719122539
 42
-0.005922751631359
 10
185.25694460878972
 20
-267.19905193358352
 10
185.26279305228323
 20
-267.19917948690414
 42
-0.0011833111897339
 10
185.27064330903065
 20
-267.19936928776622
 10
185.11156598990917
 20
-267.70711607678601
 42
0.0143932051522976
 10
185.1062857134398
 20
-267.70507628277721
 10
185.1048313189556
 20
-267.70456203900551
 42
0.0234388603552839
 10
185.0964651457688
 20
-267.70203819186236
 10
185.09472881318666
 20
-267.70160199946145
 42
0.0199162742990435
 10
185.08267104637073
 20
-267.69907865239441
 10
185.07850825880942
 20
-267.69837921250871
 42
0.0293643550666041
 10
185.05789328705691
 20
-267.69614920337801
 10
185.05295625091352
 20
-267.69590687997436
 42
0.0214606686862434
 10
185.02232806772395
 20
-267.69571916789084
 10
185.02045368555943
 20
-267.69578815019975
 42
0.0167564054189548
 10
184.98614964733676
 20
-267.69820355867341
 10
184.98445768878591
 20
-267.69837982675875
 42
0.0137677553240705
 10
184.9469870261334
 20
-267.70332968846736
 10
184.94551667823143
 20
-267.70356527246105
 42
0.0118497261488166
 10
184.90541712541091
 20
-267.71096874249895
 10
184.90418712396175
 20
-267.7112261150429
 42
0.0106421143897213
 10
184.86201094650502
 20
-267.72099259015778
 10
184.86102918482689
 20
-267.72124205869488
 42
0.0099746379709161
 10
184.81733749099456
 20
-267.7332769643578
 10
184.80502788296033
 20
-267.73693334008397
 42
0.0191613675864396
 10
184.73783099045679
 20
-267.75972881614149
 10
184.72021903590797
 20
-267.76646619820622
 42
0.020527408014814
 10
184.64315768152798
 20
-267.79963187977148
 10
184.6316278251314
 20
-267.80516547268604
 42
0.0181256912200687
 10
184.57997243699819
 20
-267.8323022364815
 10
184.56938136033611
 20
-267.83836575912403
 42
0.0140709242401195
 10
184.54039037340974
 20
-267.85606469381133
 10
184.53514059968688
 20
-267.85947605755388
 42
0.0086667884402514
 10
184.51735536737752
 20
-267.871476591131
 42
0.00364081920473
 10
184.49986871976674
 20
-267.88391276269243
 10
184.49282334487717
 20
-267.88900095187199
 42
0.005226078126952
 10
184.46157760539907
 20
-267.91206742919877
 10
184.45833623414703
 20
-267.9145130513225
 42
0.0050024435902547
 10
184.42113556553576
 20
-267.94316956497448
 10
184.41807193423219
 20
-267.94557876946408
 42
0.0136138710278571
 10
184.3759836805672
 20
-267.98057207044673
 10
184.36925010540844
 20
-267.98648786498961
 42
0.0172815186919111
 10
184.3163693970765
 20
-268.03628719951377
 10
184.31585692790745
 20
-268.03680436294371
 42
0.0189403857991323
 10
184.26574056819138
 20
-268.09136541590482
 10
184.25921426948452
 20
-268.09903420220388
 42
0.0185044199501618
 10
184.22082298168843
 20
-268.14768391842858
 42
0.008856524389812
 10
184.18513096036457
 20
-268.19838720245588
 10
184.18329536443301
 20
-268.20109547841059
 42
0.0157195347236636
 10
184.14665124316556
 20
-268.25899992027473
 10
184.13743465477981
 20
-268.27463035967816
 42
0.0095451879782862
 10
184.10441754475247
 20
-268.33314928814917
 10
184.10218796096598
 20
-268.3372834225766
 42
0.0100351706256344
 10
184.07577921113469
 20
-268.38869453467373
 42
0.0086935915417508
 10
184.05131298077634
 20
-268.44106116375349
 10
184.05064883249295
 20
-268.44254962834896
 42
0.0072580174868008
 10
184.02657954210511
 20
-268.49866802666281
 10
184.02592721544269
 20
-268.50025203186919
 42
0.0060005122610458
 10
184.00208708177414
 20
-268.56017396599032
 10
184.00144488610587
 20
-268.56184627157114
 42
0.0049017786983202
 10
183.97766485433428
 20
-268.62563206769238
 10
183.97703169305632
 20
-268.62738265513809
 42
0.0039415167598199
 10
183.95314443744471
 20
-268.69509106762143
 10
183.95251821691451
 20
-268.69691170779595
 42
0.003103583876957
 10
183.92835725977639
 20
-268.76859968014918
 10
183.9277352508698
 20
-268.77048380442568
 42
0.0025070747150245
 10
183.90315498060724
 20
-268.8462132478129
 10
183.89569620132167
 20
-268.86959158086506
 42
0.0029081910284406
 10
183.85729254175834
 20
-268.99242431252708
 10
183.84913190805608
 20
-269.01906896097853
 42
0.0009266453733988
 10
183.79544843319704
 20
-269.19551385295034
 10
183.79127093866572
 20
-269.20933622880807
 42
-0.0005809993667144
 10
183.73580360254684
 20
-269.39209785013816
 10
183.72254724289152
 20
-269.43559483657248
 42
-0.0012018708168898
 10
183.6931503810064
 20
-269.53122736947427
 10
183.68268641069398
 20
-269.56497919764524
 42
-0.0002691059607682
 10
183.67397251445956
 20
-269.59303272171582
 10
183.10738133480172
 20
-271.41086364217574
 10
182.74378355640599
 20
-271.41086364217574
 10
183.99423343961561
 20
-267.28212003486976
  0
SPLINE
  5
B1
100
AcDbEntity
  8
0
370
              15
390
0
  6
Continuous
 62
               7
100
AcDbSpline
210
0.0
220
0.0
230
1.0
 70
              13
 71
               2
 72
             782
 73
             779
 74
               0
 42
0.000001
 43
0.000001
 40
0.0
 40
0.0
 40
0.0
 40
1.0
 40
1.0
 40
2.0
 40
2.0
 40
3.0
 40
3.0
 40
4.0
 40
4.0
 40
5.0
 40
5.0
 40
6.0
 40
6.0
 40
7.0
 40
7.0
 40
8.0
 40
8.0
 40
9.0
 40
9.0
 40
10.0
 40
10.0
 40
11.0
 40
11.0
 40
12.0
 40
12.0
 40
13.0
 40
13.0
 40
14.0
 40
14.0
 40
15.0
 40
15.0
 40
16.0
 40
16.0
 40
17.0
 40
17.0
 40
18.0
 40
18.0
 40
19.0
 40
19.0
 40
20.0
 40
20.0
 40
21.0
 40
21.0
 40
22.0
 40
22.0
 40
23.0
 40
23.0
 40
24.0
 40
24.0
 40
25.0
 40
25.0
 40
26.0
 40
26.0
 40
27.0
 40
27.0
 40
28.0
 40
28.0
 40
29.0
 40
29.0
 40
30.0
 40
30.0
 40
31.0
 40
31.0
 40
32.0
 40
32.0
 40
33.0
 40
33.0
 40
34.0
 40
34.0
 40
35.0
 40
35.0
 40
36.0
 40
36.0
 40
37.0
 40
37.0
 40
38.0
 40
38.0
 40
39.0
 40
39.0
 40
40.0
 40
40.0
 40
41.0
 40
41.0
 40
42.0
 40
42.0
 40
43.0
 40
43.0
 40
44.0
 40
44.0
 40
45.0
 40
45.0
 40
46.0
 40
46.0
 40
47.0
 40
47.0
 40
48.0
 40
48.0
 40
49.0
 40
49.0
 40
50.0
 40
50.0
 40
51.0
 40
51.0
 40
52.0
 40
52.0
 40
53.0
 40
53.0
 40
54.0
 40
54.0
 40
55.0
 40
55.0
 40
56.0
 40
56.0
 40
57.0
 40
57.0
 40
58.0
 40
58.0
 40
59.0
 40
59.0
 40
60.0
 40
60.0
 40
61.0
 40
61.0
 40
62.0
 40
62.0
 40
63.0
 40
63.0
 40
64.0
 40
64.0
 40
65.0
 40
65.0
 40
66.0
 40
66.0
 40
67.0
 40
67.0
 40
68.0
 40
68.0
 40
69.0
 40
69.0
 40
70.0
 40
70.0
 40
71.0
 40
71.0
 40
72.0
 40
72.0
 40
73.0
 40
73.0
 40
74.0
 40
74.0
 40
75.0
 40
75.0
 40
76.0
 40
76.0
 40
77.0
 40
77.0
 40
78.0
 40
78.0
 40
79.0
 40
79.0
 40
80.0
 40
80.0
 40
81.0
 40
81.0
 40
82.0
 40
82.0
 40
83.0
 40
83.0
 40
84.0
 40
84.0
 40
85.0
 40
85.0
 40
86.0
 40
86.0
 40
87.0
 40
87.0
 40
88.0
 40
88.0
 40
89.0
 40
89.0
 40
90.0
 40
90.0
 40
91.0
 40
91.0
 40
92.0
 40
92.0
 40
93.0
 40
93.0
 40
94.0
 40
94.0
 40
95.0
 40
95.0
 40
96.0
 40
96.0
 40
97.0
 40
97.0
 40
98.0
 40
98.0
 40
99.0
 40
99.0
 40
100.0
 40
100.0
 40
101.0
 40
101.0
 40
102.0
 40
102.0
 40
103.0
 40
103.0
 40
104.0
 40
104.0
 40
105.0
 40
105.0
 40
106.0
 40
106.0
 40
107.0
 40
107.0
 40
108.0
 40
108.0
 40
109.0
 40
109.0
 40
110.0
 40
110.0
 40
111.0
 40
111.0
 40
112.0
 40
112.0
 40
113.0
 40
113.0
 40
114.0
 40
114.0
 40
115.0
 40
115.0
 40
116.0
 40
116.0
 40
117.0
 40
117.0
 40
118.0
 40
118.0
 40
119.0
 40
119.0
 40
120.0
 40
120.0
 40
121.0
 40
121.0
 40
122.0
 40
122.0
 40
123.0
 40
123.0
 40
124.0
 40
124.0
 40
125.0
 40
125.0
 40
126.0
 40
126.0
 40
127.0
 40
127.0
 40
128.0
 40
128.0
 40
129.0
 40
129.0
 40
130.0
 40
130.0
 40
131.0
 40
131.0
 40
132.0
 40
132.0
 40
133.0
 40
133.0
 40
134.0
 40
134.0
 40
135.0
 40
135.0
 40
136.0
 40
136.0
 40
137.0
 40
137.0
 40
138.0
 40
138.0
 40
139.0
 40
139.0
 40
140.0
 40
140.0
 40
141.0
 40
141.0
 40
142.0
 40
142.0
 40
143.0
 40
143.0
 40
144.0
 40
144.0
 40
145.0
 40
145.0
 40
146.0
 40
146.0
 40
147.0
 40
147.0
 40
148.0
 40
148.0
 40
149.0
 40
149.0
 40
150.0
 40
150.0
 40
151.0
 40
151.0
 40
152.0
 40
152.0
 40
153.0
 40
153.0
 40
154.0
 40
154.0
 40
155.0
 40
155.0
 40
156.0
 40
156.0
 40
157.0
 40
157.0
 40
158.0
 40
158.0
 40
159.0
 40
159.0
 40
160.0
 40
160.0
 40
161.0
 40
161.0
 40
162.0
 40
162.0
 40
163.0
 40
163.0
 40
164.0
 40
164.0
 40
165.0
 40
165.0
 40
166.0
 40
166.0
 40
167.0
 40
167.0
 40
168.0
 40
168.0
 40
169.0
 40
169.0
 40
170.0
 40
170.0
 40
171.0
 40
171.0
 40
172.0
 40
172.0
 40
173.0
 40
173.0
 40
174.0
 40
174.0
 40
175.0
 40
175.0
 40
176.0
 40
176.0
 40
177.0
 40
177.0
 40
178.0
 40
178.0
 40
179.0
 40
179.0
 40
180.0
 40
180.0
 40
181.0
 40
181.0
 40
182.0
 40
182.0
 40
183.0
 40
183.0
 40
184.0
 40
184.0
 40
185.0
 40
185.0
 40
186.0
 40
186.0
 40
187.0
 40
187.0
 40
188.0
 40
188.0
 40
189.0
 40
189.0
 40
190.0
 40
190.0
 40
191.0
 40
191.0
 40
192.0
 40
192.0
 40
193.0
 40
193.0
 40
194.0
 40
194.0
 40
195.0
 40
195.0
 40
196.0
 40
196.0
 40
197.0
 40
197.0
 40
198.0
 40
198.0
 40
199.0
 40
199.0
 40
200.0
 40
200.0
 40
201.0
 40
201.0
 40
202.0
 40
202.0
 40
203.0
 40
203.0
 40
204.0
 40
204.0
 40
205.0
 40
205.0
 40
206.0
 40
206.0
 40
207.0
 40
207.0
 40
208.0
 40
208.0
 40
209.0
 40
209.0
 40
210.0
 40
210.0
 40
211.0
 40
211.0
 40
212.0
 40
212.0
 40
213.0
 40
213.0
 40
214.0
 40
214.0
 40
215.0
 40
215.0
 40
216.0
 40
216.0
 40
217.0
 40
217.0
 40
218.0
 40
218.0
 40
219.0
 40
219.0
 40
220.0
 40
220.0
 40
221.0
 40
221.0
 40
222.0
 40
222.0
 40
223.0
 40
223.0
 40
224.0
 40
224.0
 40
225.0
 40
225.0
 40
226.0
 40
226.0
 40
227.0
 40
227.0
 40
228.0
 40
228.0
 40
229.0
 40
229.0
 40
230.0
 40
230.0
 40
231.0
 40
231.0
 40
232.0
 40
232.0
 40
233.0
 40
233.0
 40
234.0
 40
234.0
 40
235.0
 40
235.0
 40
236.0
 40
236.0
 40
237.0
 40
237.0
 40
238.0
 40
238.0
 40
239.0
 40
239.0
 40
240.0
 40
240.0
 40
241.0
 40
241.0
 40
242.0
 40
242.0
 40
243.0
 40
243.0
 40
244.0
 40
244.0
 40
245.0
 40
245.0
 40
246.0
 40
246.0
 40
247.0
 40
247.0
 40
248.0
 40
248.0
 40
249.0
 40
249.0
 40
250.0
 40
250.0
 40
251.0
 40
251.0
 40
252.0
 40
252.0
 40
253.0
 40
253.0
 40
254.0
 40
254.0
 40
255.0
 40
255.0
 40
256.0
 40
256.0
 40
257.0
 40
257.0
 40
258.0
 40
258.0
 40
259.0
 40
259.0
 40
260.0
 40
260.0
 40
261.0
 40
261.0
 40
262.0
 40
262.0
 40
263.0
 40
263.0
 40
264.0
 40
264.0
 40
265.0
 40
265.0
 40
266.0
 40
266.0
 40
267.0
 40
267.0
 40
268.0
 40
268.0
 40
269.0
 40
269.0
 40
270.0
 40
270.0
 40
271.0
 40
271.0
 40
272.0
 40
272.0
 40
273.0
 40
273.0
 40
274.0
 40
274.0
 40
275.0
 40
275.0
 40
276.0
 40
276.0
 40
277.0
 40
277.0
 40
278.0
 40
278.0
 40
279.0
 40
279.0
 40
280.0
 40
280.0
 40
281.0
 40
281.0
 40
282.0
 40
282.0
 40
283.0
 40
283.0
 40
284.0
 40
284.0
 40
285.0
 40
285.0
 40
286.0
 40
286.0
 40
287.0
 40
287.0
 40
288.0
 40
288.0
 40
289.0
 40
289.0
 40
290.0
 40
290.0
 40
291.0
 40
291.0
 40
292.0
 40
292.0
 40
293.0
 40
293.0
 40
294.0
 40
294.0
 40
295.0
 40
295.0
 40
296.0
 40
296.0
 40
297.0
 40
297.0
 40
298.0
 40
298.0
 40
299.0
 40
299.0
 40
300.0
 40
300.0
 40
301.0
 40
301.0
 40
302.0
 40
302.0
 40
303.0
 40
303.0
 40
304.0
 40
304.0
 40
305.0
 40
305.0
 40
306.0
 40
306.0
 40
307.0
 40
307.0
 40
308.0
 40
308.0
 40
309.0
 40
309.0
 40
310.0
 40
310.0
 40
311.0
 40
311.0
 40
312.0
 40
312.0
 40
313.0
 40
313.0
 40
314.0
 40
314.0
 40
315.0
 40
315.0
 40
316.0
 40
316.0
 40
317.0
 40
317.0
 40
318.0
 40
318.0
 40
319.0
 40
319.0
 40
320.0
 40
320.0
 40
321.0
 40
321.0
 40
322.0
 40
322.0
 40
323.0
 40
323.0
 40
324.0
 40
324.0
 40
325.0
 40
325.0
 40
326.0
 40
326.0
 40
327.0
 40
327.0
 40
328.0
 40
328.0
 40
329.0
 40
329.0
 40
330.0
 40
330.0
 40
331.0
 40
331.0
 40
332.0
 40
332.0
 40
333.0
 40
333.0
 40
334.0
 40
334.0
 40
335.0
 40
335.0
 40
336.0
 40
336.0
 40
337.0
 40
337.0
 40
338.0
 40
338.0
 40
339.0
 40
339.0
 40
340.0
 40
340.0
 40
341.0
 40
341.0
 40
342.0
 40
342.0
 40
343.0
 40
343.0
 40
344.0
 40
344.0
 40
345.0
 40
345.0
 40
346.0
 40
346.0
 40
347.0
 40
347.0
 40
348.0
 40
348.0
 40
349.0
 40
349.0
 40
350.0
 40
350.0
 40
351.0
 40
351.0
 40
352.0
 40
352.0
 40
353.0
 40
353.0
 40
354.0
 40
354.0
 40
355.0
 40
355.0
 40
356.0
 40
356.0
 40
357.0
 40
357.0
 40
358.0
 40
358.0
 40
359.0
 40
359.0
 40
360.0
 40
360.0
 40
361.0
 40
361.0
 40
362.0
 40
362.0
 40
363.0
 40
363.0
 40
364.0
 40
364.0
 40
365.0
 40
365.0
 40
366.0
 40
366.0
 40
367.0
 40
367.0
 40
368.0
 40
368.0
 40
369.0
 40
369.0
 40
370.0
 40
370.0
 40
371.0
 40
371.0
 40
372.0
 40
372.0
 40
373.0
 40
373.0
 40
374.0
 40
374.0
 40
375.0
 40
375.0
 40
376.0
 40
376.0
 40
377.0
 40
377.0
 40
378.0
 40
378.0
 40
379.0
 40
379.0
 40
380.0
 40
380.0
 40
381.0
 40
381.0
 40
382.0
 40
382.0
 40
383.0
 40
383.0
 40
384.0
 40
384.0
 40
385.0
 40
385.0
 40
386.0
 40
386.0
 40
387.0
 40
387.0
 40
388.0
 40
388.0
 40
389.0
 40
389.0
 40
389.0
 10
186.05997432976207
 20
-267.27993476219729
 30
0.0
 41
1.0
 10
186.22365915150621
 20
-267.27993476219729
 30
0.0
 41
1.0
 10
186.38734397325035
 20
-267.27993476219729
 30
0.0
 41
1.0
 10
186.30459322614698
 20
-267.54846001504723
 30
0.0
 41
1.0
 10
186.2218424790436
 20
-267.81698526789717
 30
0.0
 41
1.0
 10
186.22551037807546
 20
-267.81124511331757
 30
0.0
 41
0.9999957264431811
 10
186.22921177743999
 20
-267.80552650328997
 30
0.0
 41
1.0
 10
186.23529764226913
 20
-267.7961239276122
 30
0.0
 41
1.0
 10
186.24138350709828
 20
-267.78672135193443
 30
0.0
 41
1.0
 10
186.25725663611928
 20
-267.76219759055402
 30
0.0
 41
0.9995394069081083
 10
186.27458831442956
 20
-267.73868197820588
 30
0.0
 41
1.0
 10
186.28173968688174
 20
-267.72897899968689
 30
0.0
 41
1.0
 10
186.28889105933388
 20
-267.7192760211679
 30
0.0
 41
1.0
 10
186.3156363928976
 20
-267.68298796614238
 30
0.0
 41
0.9994460617142938
 10
186.344736489155
 20
-267.64855948661273
 30
0.0
 41
1.0
 10
186.3456141253501
 20
-267.64752115053614
 30
0.0
 41
1.0
 10
186.34649176154517
 20
-267.64648281445949
 30
0.0
 41
1.0
 10
186.37383658541248
 20
-267.61413100708296
 30
0.0
 41
0.9994359394934519
 10
186.40329143148287
 20
-267.58368776684989
 30
0.0
 41
1.0
 10
186.40376810227343
 20
-267.58319510077536
 30
0.0
 41
1.0
 10
186.40424477306402
 20
-267.58270243470082
 30
0.0
 41
1.0
 10
186.4327462775527
 20
-267.55324452661733
 30
0.0
 41
0.9995293688567847
 10
186.46300061374959
 20
-267.52558988418411
 30
0.0
 41
1.0
 10
186.46685936560218
 20
-267.52206270705392
 30
0.0
 41
1.0
 10
186.47071811745477
 20
-267.51853552992378
 30
0.0
 41
1.0
 10
186.49325494994613
 20
-267.49793524175118
 30
0.0
 41
0.9997087614802971
 10
186.51675952773704
 20
-267.47844638559172
 30
0.0
 41
1.0
 10
186.52059274237155
 20
-267.47526806989066
 30
0.0
 41
1.0
 10
186.52442595700603
 20
-267.4720897541896
 30
0.0
 41
1.0
 10
186.54026410552663
 20
-267.45895752943329
 30
0.0
 41
0.9999595338699309
 10
186.55633595969906
 20
-267.44611238330117
 30
0.0
 41
1.0
 10
186.57240781387003
 20
-267.43326723717013
 30
0.0
 41
0.9999749417507754
 10
186.5886599207391
 20
-267.42065092638057
 30
0.0
 41
1.0
 10
186.59285714997446
 20
-267.41739266891801
 30
0.0
 41
1.0
 10
186.59705437920982
 20
-267.41413441145545
 30
0.0
 41
1.0
 10
186.6139679562674
 20
-267.40100460948952
 30
0.0
 41
0.9999792037124623
 10
186.63104947621926
 20
-267.38809405316238
 30
0.0
 41
1.0
 10
186.63521444140019
 20
-267.38494608871184
 30
0.0
 41
1.0
 10
186.63937940658113
 20
-267.38179812426131
 30
0.0
 41
1.0
 10
186.64813099617169
 20
-267.37518349683478
 30
0.0
 41
0.9999993374192292
 10
186.65686733340178
 20
-267.36854873774882
 30
0.0
 41
1.0
 10
186.66560367063008
 20
-267.36191397866423
 30
0.0
 41
0.9999160953814614
 10
186.67450895281368
 20
-267.35550776562479
 30
0.0
 41
1.0
 10
186.68107333029792
 20
-267.35078553450762
 30
0.0
 41
1.0
 10
186.68763770778216
 20
-267.34606330339039
 30
0.0
 41
1.0
 10
186.70967174493356
 20
-267.33021262811701
 30
0.0
 41
0.998096452723182
 10
186.7334895436336
 20
-267.31719513354585
 30
0.0
 41
1.0
 10
186.7408960650192
 20
-267.31314713762725
 30
0.0
 41
1.0
 10
186.7483025864048
 20
-267.30909914170866
 30
0.0
 41
1.0
 10
186.78416798905971
 20
-267.28949709156819
 30
0.0
 41
0.9984572810572341
 10
186.8219857023316
 20
-267.27399263929885
 30
0.0
 41
1.0
 10
186.82271495621103
 20
-267.27369366083116
 30
0.0
 41
1.0
 10
186.82344421009043
 20
-267.27339468236346
 30
0.0
 41
1.0
 10
186.85980341560375
 20
-267.25848818702946
 30
0.0
 41
0.9987838528034518
 10
186.89745394731526
 20
-267.24723505899641
 30
0.0
 41
1.0
 10
186.89830153715477
 20
-267.24698172825845
 30
0.0
 41
1.0
 10
186.89914912699427
 20
-267.24672839752049
 30
0.0
 41
1.0
 10
186.93510447902688
 20
-267.23598193096331
 30
0.0
 41
0.9990652816207101
 10
186.97185366537028
 20
-267.22838119505485
 30
0.0
 41
1.0
 10
186.9728913455765
 20
-267.22816657443354
 30
0.0
 41
1.0
 10
186.9739290257827
 20
-267.22795195381229
 30
0.0
 41
1.0
 10
187.00860285171345
 20
-267.22078045914645
 30
0.0
 41
0.9992909934270214
 10
187.0437180050051
 20
-267.21623837265315
 30
0.0
 41
1.0
 10
187.07883315829676
 20
-267.21169628615985
 30
0.0
 41
0.9994553539448647
 10
187.1141714449154
 20
-267.20948042531859
 30
0.0
 41
1.0
 10
187.12125832647476
 20
-267.20903604770899
 30
0.0
 41
1.0
 10
187.12834520803412
 20
-267.20859167009945
 30
0.0
 41
1.0
 10
187.16159036134781
 20
-267.20650705761716
 30
0.0
 41
0.9990928098293228
 10
187.19489231972804
 20
-267.20725898586409
 30
0.0
 41
1.0
 10
187.2026046867818
 20
-267.20743312417062
 30
0.0
 41
1.0
 10
187.21031705383555
 20
-267.20760726247721
 30
0.0
 41
1.0
 10
187.22819427810802
 20
-267.2080109141109
 30
0.0
 41
0.999838208920576
 10
187.24604541466587
 20
-267.20905733941657
 30
0.0
 41
1.0
 10
187.24613139590966
 20
-267.20906237959701
 30
0.0
 41
1.0
 10
187.24621737715344
 20
-267.20906741977745
 30
0.0
 41
1.0
 10
187.2638965512229
 20
-267.21010376472219
 30
0.0
 41
0.9997558016757996
 10
187.28151266666325
 20
-267.21192026779545
 30
0.0
 41
1.0
 10
187.28160789434889
 20
-267.21193008729193
 30
0.0
 41
1.0
 10
187.28170312203457
 20
-267.21193990678842
 30
0.0
 41
1.0
 10
187.2991287821032
 20
-267.21373677086876
 30
0.0
 41
0.999656514418146
 10
187.31643635277177
 20
-267.21644423220658
 30
0.0
 41
1.0
 10
187.31652953784715
 20
-267.21645880935284
 30
0.0
 41
1.0
 10
187.31662272292249
 20
-267.2164733864991
 30
0.0
 41
1.0
 10
187.33374392344012
 20
-267.2191516935444
 30
0.0
 41
0.9995321806867547
 10
187.3506693395058
 20
-267.2228717912302
 30
0.0
 41
1.0
 10
187.35074717842031
 20
-267.22288889972344
 30
0.0
 41
1.0
 10
187.35082501733481
 20
-267.22290600821663
 30
0.0
 41
1.0
 10
187.36759475557153
 20
-267.22659188891612
 30
0.0
 41
0.9993819199219105
 10
187.38406406241066
 20
-267.23144696556824
 30
0.0
 41
1.0
 10
187.38411174911028
 20
-267.23146102339012
 30
0.0
 41
1.0
 10
187.38415943580992
 20
-267.23147508121201
 30
0.0
 41
1.0
 10
187.40053336925004
 20
-267.23630204222042
 30
0.0
 41
0.9992088568505415
 10
187.41647187304753
 20
-267.24241508937922
 30
0.0
 41
1.0
 10
187.43240807122339
 20
-267.2485270095259
 30
0.0
 41
0.9990226101772819
 10
187.44774220520478
 20
-267.25602249584881
 30
0.0
 41
1.0
 10
187.46307403356437
 20
-267.26351685515942
 30
0.0
 41
0.9988424273971612
 10
187.47761475900683
 20
-267.27244981021005
 30
0.0
 41
1.0
 10
187.47766830068269
 20
-267.27248270302448
 30
0.0
 41
1.0
 10
187.47772184235859
 20
-267.27251559583897
 30
0.0
 41
1.0
 10
187.49236965115261
 20
-267.28151433651834
 30
0.0
 41
0.9986928844491028
 10
187.50602222449464
 20
-267.29196148337428
 30
0.0
 41
1.0
 10
187.50613848293921
 20
-267.29205044601986
 30
0.0
 41
1.0
 10
187.5062547413838
 20
-267.29213940866549
 30
0.0
 41
1.0
 10
187.52013983161513
 20
-267.30276448081281
 30
0.0
 41
0.9986007262279053
 10
187.53282506556843
 20
-267.31479663475147
 30
0.0
 41
1.0
 10
187.53300394865977
 20
-267.31496630831839
 30
0.0
 41
1.0
 10
187.53318283175113
 20
-267.31513598188531
 30
0.0
 41
1.0
 10
187.5462258318876
 20
-267.32750748295825
 30
0.0
 41
0.9985581491380623
 10
187.55786735422794
 20
-267.34120598101265
 30
0.0
 41
1.0
 10
187.55971904494697
 20
-267.34338485255284
 30
0.0
 41
1.0
 10
187.56157073566604
 20
-267.3455637240931
 30
0.0
 41
1.0
 10
187.57691563944459
 20
-267.36361996522794
 30
0.0
 41
0.9970460233519793
 10
187.58931401967652
 20
-267.38381338206443
 30
0.0
 41
1.0
 10
187.5922078926925
 20
-267.38852667388085
 30
0.0
 41
1.0
 10
187.59510176570851
 20
-267.39323996569721
 30
0.0
 41
1.0
 10
187.60304910571085
 20
-267.40618391050339
 30
0.0
 41
0.9988468816636893
 10
187.60971837986111
 20
-267.41983040098876
 30
0.0
 41
1.0
 10
187.61112558435917
 20
-267.42270978521583
 30
0.0
 41
1.0
 10
187.61253278885727
 20
-267.42558916944284
 30
0.0
 41
1.0
 10
187.61638765401085
 20
-267.43347689147305
 30
0.0
 41
0.9998431189997658
 10
187.61996071951043
 20
-267.44149620236249
 30
0.0
 41
1.0
 10
187.62353378500674
 20
-267.44951551324459
 30
0.0
 41
0.9999989990023874
 10
187.62712952968903
 20
-267.45752468075676
 30
0.0
 41
1.0
 10
187.62836399201026
 20
-267.46027432412461
 30
0.0
 41
1.0
 10
187.6295984543315
 20
-267.46302396749246
 30
0.0
 41
1.0
 10
187.63566312365336
 20
-267.47653242173374
 30
0.0
 41
0.9998790356320295
 10
187.64130469968077
 20
-267.4902229721207
 30
0.0
 41
1.0
 10
187.64267173593785
 20
-267.49354039240671
 30
0.0
 41
1.0
 10
187.64403877219493
 20
-267.49685781269272
 30
0.0
 41
1.0
 10
187.64875030467098
 20
-267.50829140366977
 30
0.0
 41
0.9998227574561437
 10
187.65302805434882
 20
-267.51989426532526
 30
0.0
 41
1.0
 10
187.65730580402678
 20
-267.53149712698115
 30
0.0
 41
0.9996797971042178
 10
187.66099106101873
 20
-267.54330155080504
 30
0.0
 41
1.0
 10
187.66177182156375
 20
-267.54580244243851
 30
0.0
 41
1.0
 10
187.66255258210876
 20
-267.54830333407199
 30
0.0
 41
1.0
 10
187.66779936019086
 20
-267.56510954116334
 30
0.0
 41
0.9979274938734384
 10
187.67084426488663
 20
-267.58245041289513
 30
0.0
 41
1.0
 10
187.67128900233885
 20
-267.58498321305933
 30
0.0
 41
1.0
 10
187.67173373979108
 20
-267.58751601322348
 30
0.0
 41
1.0
 10
187.67391972773081
 20
-267.59996531468209
 30
0.0
 41
0.9994985982138639
 10
187.67531336076618
 20
-267.61252801491014
 30
0.0
 41
1.0
 10
187.67670699380167
 20
-267.62509071513915
 30
0.0
 41
0.9996372611200751
 10
187.67742216695518
 20
-267.63771023087537
 30
0.0
 41
1.0
 10
187.67745588245305
 20
-267.63830515429163
 30
0.0
 41
1.0
 10
187.67748959795088
 20
-267.63890007770783
 30
0.0
 41
1.0
 10
187.67827220210015
 20
-267.65270944027679
 30
0.0
 41
0.9997730630735565
 10
187.67846586479774
 20
-267.6665396050833
 30
0.0
 41
1.0
 10
187.67847728608137
 20
-267.667355240912
 30
0.0
 41
1.0
 10
187.67848870736501
 20
-267.66817087674065
 30
0.0
 41
1.0
 10
187.67870521262984
 20
-267.68363231320745
 30
0.0
 41
0.9998772614071362
 10
187.67843719528344
 20
-267.6990929425217
 30
0.0
 41
1.0
 10
187.67841934264374
 20
-267.70012277528639
 30
0.0
 41
1.0
 10
187.67840149000401
 20
-267.70115260805107
 30
0.0
 41
1.0
 10
187.67809776737826
 20
-267.71867290289583
 30
0.0
 41
0.9999415567327092
 10
187.67741530532902
 20
-267.73618253523142
 30
0.0
 41
1.0
 10
187.67736704119392
 20
-267.73742082717968
 30
0.0
 41
1.0
 10
187.67731877705884
 20
-267.73865911912787
 30
0.0
 41
1.0
 10
187.67653978673937
 20
-267.75864533536014
 30
0.0
 41
0.9999716810421842
 10
187.67546007011578
 20
-267.77861756300422
 30
0.0
 41
1.0
 10
187.67481751035803
 20
-267.79050341293544
 30
0.0
 41
1.0
 10
187.67417495060027
 20
-267.80238926286665
 30
0.0
 41
1.0
 10
187.67256016876991
 20
-267.83225894312034
 30
0.0
 41
0.9999819129905654
 10
187.67058621044643
 20
-267.86210703866493
 30
0.0
 41
1.0
 10
187.6686122521231
 20
-267.89195513420725
 30
0.0
 41
1.0
 10
187.66812438801034
 20
-267.89939374337712
 30
0.0
 41
1.0
 10
187.67266403478283
 20
-267.89164554390061
 30
0.0
 41
0.9999982128246582
 10
187.67723294654209
 20
-267.8839145650951
 30
0.0
 41
1.0
 10
187.68261485851184
 20
-267.87480792229633
 30
0.0
 41
1.0
 10
187.68799677048159
 20
-267.8657012794975
 30
0.0
 41
1.0
 10
187.70332950618652
 20
-267.83975701508399
 30
0.0
 41
0.9998609190057032
 10
187.719518968758
 20
-267.81433853869947
 30
0.0
 41
1.0
 10
187.72544863305487
 20
-267.80502859210719
 30
0.0
 41
1.0
 10
187.73137829735174
 20
-267.79571864551491
 30
0.0
 41
1.0
 10
187.7478327413998
 20
-267.76988413151497
 30
0.0
 41
0.9999067609732542
 10
187.764986543292
 20
-267.74450859362753
 30
0.0
 41
1.0
 10
187.76546748393233
 20
-267.74379714041635
 30
0.0
 41
1.0
 10
187.76594842457266
 20
-267.74308568720517
 30
0.0
 41
1.0
 10
187.78214034518481
 20
-267.71913305573918
 30
0.0
 41
0.9998784952147984
 10
187.79907106712105
 20
-267.6956968123975
 30
0.0
 41
1.0
 10
187.81600178905745
 20
-267.67226056905571
 30
0.0
 41
0.9998532968282731
 10
187.83372531322118
 20
-267.64941798736265
 30
0.0
 41
1.0
 10
187.83771767101985
 20
-267.64427252315807
 30
0.0
 41
1.0
 10
187.84171002881854
 20
-267.63912705895342
 30
0.0
 41
1.0
 10
187.86540683877021
 20
-267.60858593675982
 30
0.0
 41
0.9991551975795536
 10
187.89153172869484
 20
-267.58009402434323
 30
0.0
 41
1.0
 10
187.89223365189056
 20
-267.57932850401858
 30
0.0
 41
1.0
 10
187.89293557508628
 20
-267.57856298369398
 30
0.0
 41
1.0
 10
187.91765661861925
 20
-267.55160211192685
 30
0.0
 41
0.9997418144181252
 10
187.94357704655968
 20
-267.52579222980404
 30
0.0
 41
1.0
 10
187.9694974745002
 20
-267.49998234768123
 30
0.0
 41
0.9989238204633525
 10
187.99769798415068
 20
-267.47668535527316
 30
0.0
 41
1.0
 10
188.00674751977823
 20
-267.46920935695175
 30
0.0
 41
1.0
 10
188.01579705540576
 20
-267.46173335863028
 30
0.0
 41
1.0
 10
188.04384506684983
 20
-267.43856234797221
 30
0.0
 41
0.9990825084096391
 10
188.07377305337084
 20
-267.4178765484055
 30
0.0
 41
1.0
 10
188.07578212618245
 20
-267.41648790578944
 30
0.0
 41
1.0
 10
188.07779119899408
 20
-267.41509926317337
 30
0.0
 41
1.0
 10
188.10370103989223
 20
-267.39719074883851
 30
0.0
 41
0.9998164899826477
 10
188.13027788056692
 20
-267.38028790053556
 30
0.0
 41
1.0
 10
188.13264699267148
 20
-267.37878114723082
 30
0.0
 41
1.0
 10
188.13501610477607
 20
-267.37727439392609
 30
0.0
 41
1.0
 10
188.15685472124133
 20
-267.36338505223284
 30
0.0
 41
0.9997473449130967
 10
188.17929551269205
 20
-267.35049126066917
 30
0.0
 41
1.0
 10
188.2017363041416
 20
-267.33759746910624
 30
0.0
 41
0.9999327861144137
 10
188.22447002629426
 20
-267.32522747077002
 30
0.0
 41
1.0
 10
188.22458042680657
 20
-267.32516739903406
 30
0.0
 41
1.0
 10
188.22469082731888
 20
-267.32510732729816
 30
0.0
 41
1.0
 10
188.24764535049638
 20
-267.31261718548996
 30
0.0
 41
0.9996956420484331
 10
188.27118801566445
 20
-267.30127449209493
 30
0.0
 41
1.0
 10
188.27727609664245
 20
-267.29834129674919
 30
0.0
 41
1.0
 10
188.28336417762046
 20
-267.29540810140344
 30
0.0
 41
1.0
 10
188.30395959896924
 20
-267.28548536971476
 30
0.0
 41
0.9998070570177385
 10
188.32492887675792
 20
-267.27637925233432
 30
0.0
 41
1.0
 10
188.34589815454675
 20
-267.26727313495388
 30
0.0
 41
0.9997827436148662
 10
188.36722874186935
 20
-267.25904890069131
 30
0.0
 41
1.0
 10
188.37107331179502
 20
-267.25756658596504
 30
0.0
 41
1.0
 10
188.37491788172068
 20
-267.25608427123882
 30
0.0
 41
1.0
 10
188.40393760889498
 20
-267.24489540752353
 30
0.0
 41
0.9988031841976297
 10
188.43391168141571
 20
-267.23659539469003
 30
0.0
 41
1.0
 10
188.4388951310886
 20
-267.23521544552864
 30
0.0
 41
1.0
 10
188.44387858076146
 20
-267.23383549636719
 30
0.0
 41
1.0
 10
188.47733258589082
 20
-267.2245718678858
 30
0.0
 41
0.9984748040549649
 10
188.51160396762069
 20
-267.21905302143284
 30
0.0
 41
1.0
 10
188.5125517948704
 20
-267.2189003893302
 30
0.0
 41
1.0
 10
188.51349962212012
 20
-267.2187477572275
 30
0.0
 41
1.0
 10
188.54587534935041
 20
-267.21353417497983
 30
0.0
 41
0.9984436495479621
 10
188.57863029809542
 20
-267.21195858421606
 30
0.0
 41
1.0
 10
188.5829697397217
 20
-267.21174984677612
 30
0.0
 41
1.0
 10
188.58730918134799
 20
-267.21154110933622
 30
0.0
 41
1.0
 10
188.61138524684034
 20
-267.21038299345236
 30
0.0
 41
0.9987954789335284
 10
188.63545889582232
 20
-267.21159029900082
 30
0.0
 41
1.0
 10
188.63945185432132
 20
-267.21179054786853
 30
0.0
 41
1.0
 10
188.64344481282032
 20
-267.21199079673625
 30
0.0
 41
1.0
 10
188.65953254480439
 20
-267.21279760454928
 30
0.0
 41
0.9997941595878449
 10
188.67557430042316
 20
-267.21425641773351
 30
0.0
 41
1.0
 10
188.69161605604236
 20
-267.21571523091774
 30
0.0
 41
0.9998589466235882
 10
188.70759976541376
 20
-267.2177120018078
 30
0.0
 41
1.0
 10
188.71408100577509
 20
-267.21852167319162
 30
0.0
 41
1.0
 10
188.72056224613638
 20
-267.21933134457538
 30
0.0
 41
1.0
 10
188.74950843623088
 20
-267.22294745823314
 30
0.0
 41
0.9993495063249236
 10
188.77811868498421
 20
-267.22864060018151
 30
0.0
 41
1.0
 10
188.78470542441386
 20
-267.22995129282435
 30
0.0
 41
1.0
 10
188.79129216384354
 20
-267.23126198546714
 30
0.0
 41
1.0
 10
188.8131509284849
 20
-267.23561165229427
 30
0.0
 41
0.999678871556117
 10
188.83476124287679
 20
-267.24106321216703
 30
0.0
 41
1.0
 10
188.83517384338495
 20
-267.24116729748175
 30
0.0
 41
1.0
 10
188.83558644389313
 20
-267.24127138279641
 30
0.0
 41
1.0
 10
188.85637155726857
 20
-267.2465147720398
 30
0.0
 41
0.999548065449274
 10
188.87680400431393
 20
-267.25299776336453
 30
0.0
 41
1.0
 10
188.87714193273973
 20
-267.25310498434732
 30
0.0
 41
1.0
 10
188.87747986116557
 20
-267.2532122053301
 30
0.0
 41
1.0
 10
188.89723645135967
 20
-267.25948075468938
 30
0.0
 41
0.9993867959456733
 10
188.9165058830483
 20
-267.26711662854734
 30
0.0
 41
1.0
 10
188.91675447286519
 20
-267.26721513692655
 30
0.0
 41
1.0
 10
188.91700306268206
 20
-267.26731364530576
 30
0.0
 41
1.0
 10
188.93577531473682
 20
-267.27475250240531
 30
0.0
 41
0.9992050256522269
 10
188.95389524974351
 20
-267.28366328225309
 30
0.0
 41
1.0
 10
188.95404218628613
 20
-267.28373554074528
 30
0.0
 41
1.0
 10
188.95418912282872
 20
-267.28380779923754
 30
0.0
 41
1.0
 10
188.97201518475038
 20
-267.29257406210093
 30
0.0
 41
0.9990222350741539
 10
188.98899719702897
 20
-267.30288071564047
 30
0.0
 41
1.0
 10
188.98903397408549
 20
-267.30290303622144
 30
0.0
 41
1.0
 10
188.98907075114198
 20
-267.30292535680235
 30
0.0
 41
1.0
 10
189.00597920930775
 20
-267.31318736918018
 30
0.0
 41
0.9988642743805073
 10
189.02183411623147
 20
-267.32501220668519
 30
0.0
 41
1.0
 10
189.03768902315517
 20
-267.33683704419013
 30
0.0
 41
0.9987681233310607
 10
189.05229378001059
 20
-267.35017518247048
 30
0.0
 41
1.0
 10
189.05235956560369
 20
-267.35023526271328
 30
0.0
 41
1.0
 10
189.05242535119683
 20
-267.35029534295609
 30
0.0
 41
1.0
 10
189.0671616792383
 20
-267.36375364172181
 30
0.0
 41
0.9987496570898706
 10
189.08048044030366
 20
-267.37861620453901
 30
0.0
 41
1.0
 10
189.08063487425585
 20
-267.37878853921075
 30
0.0
 41
1.0
 10
189.08078930820804
 20
-267.37896087388242
 30
0.0
 41
1.0
 10
189.09441693717756
 20
-267.39416810604274
 30
0.0
 41
0.9988147669826082
 10
189.10650138802265
 20
-267.4106283074114
 30
0.0
 41
1.0
 10
189.10672525323821
 20
-267.41093323368193
 30
0.0
 41
1.0
 10
189.10694911845374
 20
-267.4112381599524
 30
0.0
 41
1.0
 10
189.11948129972964
 20
-267.42830821386167
 30
0.0
 41
0.9989452636215886
 10
189.13039468232205
 20
-267.44645595169351
 30
0.0
 41
1.0
 10
189.13066442753916
 20
-267.44690450789869
 30
0.0
 41
1.0
 10
189.1309341727563
 20
-267.44735306410394
 30
0.0
 41
1.0
 10
189.14238704578298
 20
-267.46639791434632
 30
0.0
 41
0.9991046436071536
 10
189.1521888884472
 20
-267.48634280095109
 30
0.0
 41
1.0
 10
189.1524816607652
 20
-267.48693853696557
 30
0.0
 41
1.0
 10
189.15277443308318
 20
-267.48753427298004
 30
0.0
 41
1.0
 10
189.16316182038364
 20
-267.50867063161428
 30
0.0
 41
0.9992763831100644
 10
189.17191244609469
 20
-267.53053544400552
 30
0.0
 41
1.0
 10
189.17220830002731
 20
-267.53127468151212
 30
0.0
 41
1.0
 10
189.17250415395992
 20
-267.53201391901871
 30
0.0
 41
1.0
 10
189.18184648753632
 20
-267.55535720642359
 30
0.0
 41
0.9994163472883904
 10
189.18957309377413
 20
-267.57928392411594
 30
0.0
 41
1.0
 10
189.18982072422364
 20
-267.58005075287292
 30
0.0
 41
1.0
 10
189.19006835467312
 20
-267.5808175816299
 30
0.0
 41
1.0
 10
189.19804506687643
 20
-267.60551879392523
 30
0.0
 41
0.9997268055890268
 10
189.20485867805874
 20
-267.63056580031514
 30
0.0
 41
1.0
 10
189.20504471411283
 20
-267.63124967353752
 30
0.0
 41
1.0
 10
189.20523075016692
 20
-267.63193354675991
 30
0.0
 41
1.0
 10
189.21167228924125
 20
-267.65561280670585
 30
0.0
 41
0.999670131900126
 10
189.21688941259524
 20
-267.67959159735796
 30
0.0
 41
1.0
 10
189.22210653594931
 20
-267.70357038801046
 30
0.0
 41
0.99957854511094
 10
189.22592325141724
 20
-267.72781154021669
 30
0.0
 41
1.0
 10
189.22676720785196
 20
-267.73317177116962
 30
0.0
 41
1.0
 10
189.22761116428669
 20
-267.73853200212255
 30
0.0
 41
1.0
 10
189.23292615947443
 20
-267.77228919686343
 30
0.0
 41
0.9979925101216983
 10
189.23393127665972
 20
-267.80644746248191
 30
0.0
 41
1.0
 10
189.23409623914466
 20
-267.81205360717797
 30
0.0
 41
1.0
 10
189.23426120162958
 20
-267.81765975187403
 30
0.0
 41
1.0
 10
189.23493639384503
 20
-267.84060572809943
 30
0.0
 41
0.9995314902262983
 10
189.23420635541729
 20
-267.86355002485061
 30
0.0
 41
1.0
 10
189.23347631698948
 20
-267.88649432160173
 30
0.0
 41
0.9996245486945706
 10
189.23149049796336
 20
-267.90936417582651
 30
0.0
 41
1.0
 10
189.23145788836456
 20
-267.90973972705319
 30
0.0
 41
1.0
 10
189.23142527876573
 20
-267.91011527827993
 30
0.0
 41
1.0
 10
189.22937424054183
 20
-267.93373623495944
 30
0.0
 41
0.9997286094999255
 10
189.22622517582761
 20
-267.95723601673751
 30
0.0
 41
1.0
 10
189.2261464772975
 20
-267.95782330167799
 30
0.0
 41
1.0
 10
189.22606777876743
 20
-267.95841058661847
 30
0.0
 41
1.0
 10
189.22276131699277
 20
-267.98308493827909
 30
0.0
 41
0.9998265533969564
 10
189.21853822524639
 20
-268.00761903323621
 30
0.0
 41
1.0
 10
189.218402916819
 20
-268.00840510893755
 30
0.0
 41
1.0
 10
189.21826760839159
 20
-268.00919118463889
 30
0.0
 41
1.0
 10
189.21377389979025
 20
-268.03529743099926
 30
0.0
 41
0.9999022530852769
 10
189.20855200686842
 20
-268.06126782472637
 30
0.0
 41
1.0
 10
189.20835627863525
 20
-268.06224125320426
 30
0.0
 41
1.0
 10
189.20816055040208
 20
-268.06321468168215
 30
0.0
 41
1.0
 10
189.20254720101391
 20
-268.09113193236487
 30
0.0
 41
0.9999524761935091
 10
189.19639060724762
 20
-268.1189344309949
 30
0.0
 41
1.0
 10
189.19613538581223
 20
-268.12008698285678
 30
0.0
 41
1.0
 10
189.1958801643768
 20
-268.12123953471865
 30
0.0
 41
1.0
 10
189.18921312774054
 20
-268.15134713706868
 30
0.0
 41
0.9999813588720239
 10
189.18217892758221
 20
-268.18137107959643
 30
0.0
 41
1.0
 10
189.18186814249006
 20
-268.18269759768452
 30
0.0
 41
1.0
 10
189.18155735739791
 20
-268.18402411577262
 30
0.0
 41
1.0
 10
189.17390158705484
 20
-268.21670109447825
 30
0.0
 41
0.999995523764572
 10
189.16605041145533
 20
-268.24933167521363
 30
0.0
 41
1.0
 10
189.16359408433078
 20
-268.25954051330848
 30
0.0
 41
1.0
 10
189.16113775720626
 20
-268.26974935140328
 30
0.0
 41
1.0
 10
189.14837392735376
 20
-268.32279760834444
 30
0.0
 41
0.9999993604263114
 10
189.13549013791769
 20
-268.3758168584917
 30
0.0
 41
1.0
 10
189.13454637081085
 20
-268.37970064008925
 30
0.0
 41
1.0
 10
189.13360260370402
 20
-268.38358442168675
 30
0.0
 41
1.0
 10
189.11883128005209
 20
-268.44437123503803
 30
0.0
 41
0.9999659914726959
 10
189.1030593608744
 20
-268.50490614435239
 30
0.0
 41
1.0
 10
189.10206882308853
 20
-268.50870797178789
 30
0.0
 41
1.0
 10
189.10107828530263
 20
-268.51250979922338
 30
0.0
 41
1.0
 10
189.08332529055406
 20
-268.58064836340532
 30
0.0
 41
0.9999441976023359
 10
189.06413668396101
 20
-268.6483966484663
 30
0.0
 41
1.0
 10
189.06079658027579
 20
-268.66018939097216
 30
0.0
 41
1.0
 10
189.0574564765906
 20
-268.67198213347808
 30
0.0
 41
1.0
 10
189.03158766262723
 20
-268.76331590355045
 30
0.0
 41
0.9999625120734509
 10
189.00414110916296
 20
-268.85418801034831
 30
0.0
 41
1.0
 10
188.99698312054659
 20
-268.87788721567301
 30
0.0
 41
1.0
 10
188.98982513193025
 20
-268.90158642099772
 30
0.0
 41
1.0
 10
188.97492109112193
 20
-268.95093183661851
 30
0.0
 41
0.9999793386308382
 10
188.95938388649412
 20
-269.0000815644666
 30
0.0
 41
1.0
 10
188.94384668186657
 20
-269.04923129231383
 30
0.0
 41
1.0
 10
188.94169077009244
 20
-269.05603487318876
 30
0.0
 41
1.0
 10
188.57161615943861
 20
-270.23344925768225
 30
0.0
 41
1.0
 10
188.20154154878477
 20
-271.41086364217574
 30
0.0
 41
1.0
 10
188.00929021078005
 20
-271.41086364217574
 30
0.0
 41
1.0
 10
187.81703887277533
 20
-271.41086364217574
 30
0.0
 41
1.0
 10
188.14082782851105
 20
-270.38125794181786
 30
0.0
 41
1.0
 10
188.46461678424677
 20
-269.35165224145999
 30
0.0
 41
1.0
 10
188.47364994888292
 20
-269.32284599700188
 30
0.0
 41
1.0
 10
188.48268311351907
 20
-269.29403975254382
 30
0.0
 41
1.0
 10
188.51674399699033
 20
-269.18542154671536
 30
0.0
 41
0.9999911657891019
 10
188.54989055932506
 20
-269.07652084044679
 30
0.0
 41
1.0
 10
188.55582974802442
 20
-269.05700805243907
 30
0.0
 41
1.0
 10
188.56176893672378
 20
-269.03749526443141
 30
0.0
 41
1.0
 10
188.5830371216602
 20
-268.96762013417697
 30
0.0
 41
0.9999952428136616
 10
188.60387383952607
 20
-268.89761512930414
 30
0.0
 41
1.0
 10
188.60488573359297
 20
-268.89421547444783
 30
0.0
 41
1.0
 10
188.60589762765986
 20
-268.89081581959147
 30
0.0
 41
1.0
 10
188.62471055739178
 20
-268.82761012443189
 30
0.0
 41
0.9999931687526426
 10
188.64305572496582
 20
-268.76426708178013
 30
0.0
 41
1.0
 10
188.64404277785758
 20
-268.76085893992644
 30
0.0
 41
1.0
 10
188.64502983074934
 20
-268.75745079807274
 30
0.0
 41
1.0
 10
188.66140089254054
 20
-268.70092403912622
 30
0.0
 41
0.9999893840801376
 10
188.67725033783196
 20
-268.6442488132767
 30
0.0
 41
1.0
 10
188.69309978312384
 20
-268.58757358742571
 30
0.0
 41
0.9999833980064653
 10
188.70829503127206
 20
-268.53071947082032
 30
0.0
 41
1.0
 10
188.71009581861614
 20
-268.52398169512605
 30
0.0
 41
1.0
 10
188.71189660596022
 20
-268.51724391943173
 30
0.0
 41
1.0
 10
188.72568951573371
 20
-268.46563675297153
 30
0.0
 41
0.9999233658065936
 10
188.73820050997799
 20
-268.4137039212261
 30
0.0
 41
1.0
 10
188.75071150422204
 20
-268.36177108948164
 30
0.0
 41
1.0
 10
188.75860818799353
 20
-268.32900975659641
 30
0.0
 41
1.0
 10
188.75960390878885
 20
-268.324878764223
 30
0.0
 41
1.0
 10
188.76059962958414
 20
-268.3207477718496
 30
0.0
 41
1.0
 10
188.76650487176437
 20
-268.29624842371396
 30
0.0
 41
0.9999868670868932
 10
188.7721586885643
 20
-268.27168983458211
 30
0.0
 41
1.0
 10
188.77293818599679
 20
-268.26830391709461
 30
0.0
 41
1.0
 10
188.77371768342928
 20
-268.26491799960712
 30
0.0
 41
1.0
 10
188.77781250536438
 20
-268.24713124544951
 30
0.0
 41
0.9999778173353969
 10
188.78167002498665
 20
-268.22929152200692
 30
0.0
 41
1.0
 10
188.78552754461006
 20
-268.21145179855915
 30
0.0
 41
0.9999602692861616
 10
188.78906641633674
 20
-268.19354614087126
 30
0.0
 41
1.0
 10
188.78970718275184
 20
-268.19030404989627
 30
0.0
 41
1.0
 10
188.79034794916694
 20
-268.18706195892128
 30
0.0
 41
1.0
 10
188.79516835372399
 20
-268.16267211928255
 30
0.0
 41
0.9995617985320549
 10
188.7985370231678
 20
-268.13803976974134
 30
0.0
 41
1.0
 10
188.79902992114916
 20
-268.13443560626735
 30
0.0
 41
1.0
 10
188.79952281913052
 20
-268.13083144279335
 30
0.0
 41
1.0
 10
188.80357947134016
 20
-268.10116843285334
 30
0.0
 41
0.9991121410638856
 10
188.80512454205771
 20
-268.07126921309282
 30
0.0
 41
1.0
 10
188.80530830006262
 20
-268.06771324577795
 30
0.0
 41
1.0
 10
188.8054920580675
 20
-268.06415727846309
 30
0.0
 41
1.0
 10
188.80666961277535
 20
-268.04136999333161
 30
0.0
 41
0.9989792494905677
 10
188.80578579435186
 20
-268.01856942615188
 30
0.0
 41
1.0
 10
188.8056561999781
 20
-268.01522617696583
 30
0.0
 41
1.0
 10
188.80552660560434
 20
-268.01188292777977
 30
0.0
 41
1.0
 10
188.80490197592832
 20
-267.99576885897159
 30
0.0
 41
0.9997820295394231
 10
188.80360517645326
 20
-267.97969491462339
 30
0.0
 41
1.0
 10
188.80230837697809
 20
-267.96362097027338
 30
0.0
 41
0.9998335105972227
 10
188.80042593787573
 20
-267.94760504698371
 30
0.0
 41
1.0
 10
188.8001069529405
 20
-267.9448911008875
 30
0.0
 41
1.0
 10
188.79978796800529
 20
-267.94217715479135
 30
0.0
 41
1.0
 10
188.79726755903235
 20
-267.92073333930767
 30
0.0
 41
0.9996876457879987
 10
188.7936787764726
 20
-267.89944225376411
 30
0.0
 41
1.0
 10
188.79323244384358
 20
-267.89679430671606
 30
0.0
 41
1.0
 10
188.79278611121455
 20
-267.89414635966801
 30
0.0
 41
1.0
 10
188.79002694693037
 20
-267.87777713087644
 30
0.0
 41
0.9995547496494484
 10
188.78629628255189
 20
-267.8616016314383
 30
0.0
 41
1.0
 10
188.78622149117754
 20
-267.86127734929687
 30
0.0
 41
1.0
 10
188.7861466998032
 20
-267.86095306715538
 30
0.0
 41
1.0
 10
188.78256561817329
 20
-267.84542613199972
 30
0.0
 41
0.9994899427174582
 10
188.7780006364375
 20
-267.83015947543322
 30
0.0
 41
1.0
 10
188.7779089310894
 20
-267.82985278547562
 30
0.0
 41
1.0
 10
188.7778172257413
 20
-267.82954609551808
 30
0.0
 41
1.0
 10
188.77343565470167
 20
-267.81489281886655
 30
0.0
 41
0.9993784877590681
 10
188.76803252768028
 20
-267.80058467783454
 30
0.0
 41
1.0
 10
188.76792618948485
 20
-267.80030308129034
 30
0.0
 41
1.0
 10
188.76781985128943
 20
-267.80002148474614
 30
0.0
 41
1.0
 10
188.76262940065888
 20
-267.78627653680252
 30
0.0
 41
0.9992430832253918
 10
188.75638609362707
 20
-267.77297670638904
 30
0.0
 41
1.0
 10
188.7562696704158
 20
-267.77272869536569
 30
0.0
 41
1.0
 10
188.75615324720454
 20
-267.77248068434233
 30
0.0
 41
1.0
 10
188.75014278659526
 20
-267.75967687597552
 30
0.0
 41
0.9990789632798973
 10
188.74305666123988
 20
-267.74743555362545
 30
0.0
 41
1.0
 10
188.74293752000358
 20
-267.74722973645373
 30
0.0
 41
1.0
 10
188.74281837876725
 20
-267.74702391928207
 30
0.0
 41
1.0
 10
188.73597053588472
 20
-267.73519423127584
 30
0.0
 41
0.9988874801120411
 10
188.72803868067811
 20
-267.72406228879197
 30
0.0
 41
1.0
 10
188.72792757546523
 20
-267.72390635845693
 30
0.0
 41
1.0
 10
188.72781647025232
 20
-267.72375042812195
 30
0.0
 41
1.0
 10
188.72010682547148
 20
-267.7129303463081
 30
0.0
 41
0.9986762060691292
 10
188.71132633121644
 20
-267.7029596034206
 30
0.0
 41
1.0
 10
188.71123753915009
 20
-267.70285877505739
 30
0.0
 41
1.0
 10
188.71114874708377
 20
-267.70275794669419
 30
0.0
 41
1.0
 10
188.70254583696143
 20
-267.69298886053303
 30
0.0
 41
0.9984621642490091
 10
188.69291432560564
 20
-267.68423220043849
 30
0.0
 41
1.0
 10
188.69286499870225
 20
-267.68418735400576
 30
0.0
 41
1.0
 10
188.69281567179885
 20
-267.68414250757297
 30
0.0
 41
1.0
 10
188.68328281425002
 20
-267.67547554034422
 30
0.0
 41
0.9982724693850876
 10
188.67279908788183
 20
-267.66798667024079
 30
0.0
 41
1.0
 10
188.66231536151375
 20
-267.66049780013736
 30
0.0
 41
0.9981399180159033
 10
188.65099814883513
 20
-267.65434049624866
 30
0.0
 41
1.0
 10
188.65098901641932
 20
-267.65433552761715
 30
0.0
 41
1.0
 10
188.65097988400348
 20
-267.65433055898563
 30
0.0
 41
1.0
 10
188.63964440649355
 20
-267.64816331783419
 30
0.0
 41
0.9980927086838681
 10
188.62763533628055
 20
-267.64343995606373
 30
0.0
 41
1.0
 10
188.62754730233797
 20
-267.64340533088864
 30
0.0
 41
1.0
 10
188.62745926839543
 20
-267.64337070571355
 30
0.0
 41
1.0
 10
188.61527413029742
 20
-267.63857809359308
 30
0.0
 41
0.9981411356563058
 10
188.60259642601747
 20
-267.63530356529191
 30
0.0
 41
1.0
 10
188.60242000267726
 20
-267.63525799685084
 30
0.0
 41
1.0
 10
188.60224357933706
 20
-267.63521242840977
 30
0.0
 41
1.0
 10
188.58921302837675
 20
-267.63184676322652
 30
0.0
 41
0.9983031812934611
 10
188.57587954257781
 20
-267.63001889099127
 30
0.0
 41
1.0
 10
188.57410533749714
 20
-267.62977566725704
 30
0.0
 41
1.0
 10
188.57233113241651
 20
-267.62953244352275
 30
0.0
 41
1.0
 10
188.56146120391554
 20
-267.62804229752453
 30
0.0
 41
0.9983887708264467
 10
188.55049243405674
 20
-267.62779336279789
 30
0.0
 41
1.0
 10
188.54887975301301
 20
-267.62775676322292
 30
0.0
 41
1.0
 10
188.54726707196926
 20
-267.62772016364795
 30
0.0
 41
1.0
 10
188.53952366419793
 20
-267.62754442807119
 30
0.0
 41
0.9998869563078258
 10
188.53177847355764
 20
-267.62760160194313
 30
0.0
 41
1.0
 10
188.52403328291717
 20
-267.62765877581506
 30
0.0
 41
0.9999972320127903
 10
188.51628844707503
 20
-267.6277523957209
 30
0.0
 41
1.0
 10
188.51241784375898
 20
-267.62779918373877
 30
0.0
 41
1.0
 10
188.50854724044294
 20
-267.62784597175664
 30
0.0
 41
1.0
 10
188.49306119796952
 20
-267.62803316769816
 30
0.0
 41
0.9997304945086969
 10
188.47760053672278
 20
-267.6289389864553
 30
0.0
 41
1.0
 10
188.47579060838115
 20
-267.62904502765332
 30
0.0
 41
1.0
 10
188.47398068003955
 20
-267.62915106885134
 30
0.0
 41
1.0
 10
188.45490016210957
 20
-267.63026897000458
 30
0.0
 41
0.9997888306416534
 10
188.43588169494029
 20
-267.63216996290248
 30
0.0
 41
1.0
 10
188.43413748262651
 20
-267.63234430582884
 30
0.0
 41
1.0
 10
188.4323932703127
 20
-267.63251864875519
 30
0.0
 41
1.0
 10
188.40988637851501
 20
-267.63476832750587
 30
0.0
 41
0.9984170238190462
 10
188.38777454904482
 20
-267.63953154389304
 30
0.0
 41
1.0
 10
188.38049832284764
 20
-267.64109895105423
 30
0.0
 41
1.0
 10
188.37322209665044
 20
-267.64266635821542
 30
0.0
 41
1.0
 10
188.35018388296606
 20
-267.64762913151742
 30
0.0
 41
0.9976592854199603
 10
188.32803824968491
 20
-267.65568886694689
 30
0.0
 41
1.0
 10
188.30589261640395
 20
-267.66374860237624
 30
0.0
 41
0.9993255074351459
 10
188.28439825664586
 20
-267.67341198207475
 30
0.0
 41
1.0
 10
188.28347322086117
 20
-267.67382785731468
 30
0.0
 41
1.0
 10
188.28254818507648
 20
-267.67424373255466
 30
0.0
 41
1.0
 10
188.2592037537492
 20
-267.68473886273296
 30
0.0
 41
0.9976475078276152
 10
188.23751428488703
 20
-267.69832846066464
 30
0.0
 41
1.0
 10
188.23384580605949
 20
-267.70062695642787
 30
0.0
 41
1.0
 10
188.23017732723198
 20
-267.70292545219115
 30
0.0
 41
1.0
 10
188.21333688892219
 20
-267.71347687634443
 30
0.0
 41
0.9995131336405755
 10
188.1971873459311
 20
-267.72505811873486
 30
0.0
 41
1.0
 10
188.18103780293936
 20
-267.7366393611257
 30
0.0
 41
0.9995810107606433
 10
188.16558547339329
 20
-267.74913569761912
 30
0.0
 41
1.0
 10
188.16499146715157
 20
-267.74961607191176
 30
0.0
 41
1.0
 10
188.16439746090984
 20
-267.75009644620445
 30
0.0
 41
1.0
 10
188.14775711888043
 20
-267.76355353128315
 30
0.0
 41
0.9996617837955009
 10
188.13183898145314
 20
-267.77785762239529
 30
0.0
 41
1.0
 10
188.12941283127742
 20
-267.78003776899374
 30
0.0
 41
1.0
 10
188.12698668110167
 20
-267.78221791559218
 30
0.0
 41
1.0
 10
188.11333157562234
 20
-267.7944884386867
 30
0.0
 41
0.9997267750052543
 10
188.10026487396593
 20
-267.80738374599144
 30
0.0
 41
1.0
 10
188.08719817230818
 20
-267.8202790532975
 30
0.0
 41
0.9999667288957871
 10
188.07434358367948
 20
-267.83338581467581
 30
0.0
 41
1.0
 10
188.06057809412465
 20
-267.84742134642727
 30
0.0
 41
1.0
 10
188.04681260456979
 20
-267.86145687817873
 30
0.0
 41
1.0
 10
188.00642703683039
 20
-267.90263470306093
 30
0.0
 41
0.9988205335175063
 10
187.9702259134344
 20
-267.94753554947312
 30
0.0
 41
1.0
 10
187.96409792045353
 20
-267.95513619955904
 30
0.0
 41
1.0
 10
187.95796992747265
 20
-267.96273684964495
 30
0.0
 41
1.0
 10
187.90951281811454
 20
-268.02283899622944
 30
0.0
 41
0.999707782675435
 10
187.86401722789324
 20
-268.08521295507308
 30
0.0
 41
1.0
 10
187.86367254486743
 20
-268.08568551174858
 30
0.0
 41
1.0
 10
187.86332786184161
 20
-268.08615806842414
 30
0.0
 41
1.0
 10
187.8171429055684
 20
-268.14947714061918
 30
0.0
 41
0.9989147567078863
 10
187.77705020499195
 20
-268.21681903285577
 30
0.0
 41
1.0
 10
187.77210197592993
 20
-268.22513034896735
 30
0.0
 41
1.0
 10
187.7671537468679
 20
-268.23344166507889
 30
0.0
 41
1.0
 10
187.73611148714059
 20
-268.28558194196916
 30
0.0
 41
0.9997476598181487
 10
187.70744248963953
 20
-268.33906389168419
 30
0.0
 41
1.0
 10
187.67877349213717
 20
-268.39254584140144
 30
0.0
 41
0.9996258967109258
 10
187.65307184175089
 20
-268.44751542872626
 30
0.0
 41
1.0
 10
187.65043185986116
 20
-268.45316170874497
 30
0.0
 41
1.0
 10
187.64779187797143
 20
-268.45880798876368
 30
0.0
 41
1.0
 10
187.61975013377187
 20
-268.51878246835349
 30
0.0
 41
0.9998735413946046
 10
187.59362986442736
 20
-268.57961838824792
 30
0.0
 41
1.0
 10
187.59294129881528
 20
-268.58122210534083
 30
0.0
 41
1.0
 10
187.5922527332032
 20
-268.58282582243373
 30
0.0
 41
1.0
 10
187.56750959508344
 20
-268.64045430814122
 30
0.0
 41
0.9999377418864035
 10
187.54405863464834
 20
-268.69862060167645
 30
0.0
 41
1.0
 10
187.5206076742133
 20
-268.75678689521163
 30
0.0
 41
0.9999508299509333
 10
187.498314885539
 20
-268.81540683057267
 30
0.0
 41
1.0
 10
187.49769873180588
 20
-268.81702703576707
 30
0.0
 41
1.0
 10
187.49708257807279
 20
-268.81864724096147
 30
0.0
 41
1.0
 10
187.47355748193155
 20
-268.88050758671318
 30
0.0
 41
0.9999609228436428
 10
187.45112976135704
 20
-268.94277418991572
 30
0.0
 41
1.0
 10
187.45053855928734
 20
-268.94441555799699
 30
0.0
 41
1.0
 10
187.44994735721767
 20
-268.9460569260782
 30
0.0
 41
1.0
 10
187.42633723250376
 20
-269.01160626544316
 30
0.0
 41
0.9999674607400766
 10
187.40378772729051
 20
-269.07752798944097
 30
0.0
 41
1.0
 10
187.39350804917734
 20
-269.10757982858132
 30
0.0
 41
1.0
 10
187.38322837106418
 20
-269.13763166772168
 30
0.0
 41
1.0
 10
187.36002624971272
 20
-269.20546126422198
 30
0.0
 41
0.9999287532306016
 10
187.3384499689187
 20
-269.27382541201666
 30
0.0
 41
1.0
 10
187.32915451769435
 20
-269.30327792087979
 30
0.0
 41
1.0
 10
187.31985906647
 20
-269.33273042974292
 30
0.0
 41
1.0
 10
187.31687368812683
 20
-269.34218955980441
 30
0.0
 41
0.9999998224457184
 10
187.31389958637848
 20
-269.35165224145999
 30
0.0
 41
1.0
 10
186.98976835901939
 20
-270.38125794181786
 30
0.0
 41
1.0
 10
186.6656371316603
 20
-271.41086364217574
 30
0.0
 41
1.0
 10
186.48457544288212
 20
-271.41086364217574
 30
0.0
 41
1.0
 10
186.30351375410393
 20
-271.41086364217574
 30
0.0
 41
1.0
 10
186.67393063638113
 20
-270.23344925768225
 30
0.0
 41
1.0
 10
187.04434751865833
 20
-269.05603487318876
 30
0.0
 41
1.0
 10
187.04637187031889
 20
-269.0496262304988
 30
0.0
 41
1.0
 10
187.06089340408883
 20
-269.00356632213368
 30
0.0
 41
1.0
 10
187.07541493785891
 20
-268.95750641376799
 30
0.0
 41
0.9999825681967719
 10
187.08939154570137
 20
-268.91127823475443
 30
0.0
 41
1.0
 10
187.09904975813319
 20
-268.8793333180563
 30
0.0
 41
1.0
 10
187.10870797056501
 20
-268.84738840135816
 30
0.0
 41
1.0
 10
187.12813844122834
 20
-268.78312135700327
 30
0.0
 41
0.9999672528964781
 10
187.14652620235321
 20
-268.71854824788545
 30
0.0
 41
1.0
 10
187.14708397908646
 20
-268.71658947881002
 30
0.0
 41
1.0
 10
187.14764175581968
 20
-268.71463070973459
 30
0.0
 41
1.0
 10
187.16491396347652
 20
-268.65397513877332
 30
0.0
 41
0.9999899749145199
 10
187.18164228538487
 20
-268.59316732107777
 30
0.0
 41
1.0
 10
187.18366346918845
 20
-268.58582027354191
 30
0.0
 41
1.0
 10
187.18568465299199
 20
-268.578473226006
 30
0.0
 41
1.0
 10
187.19837060729202
 20
-268.53235950338643
 30
0.0
 41
0.9999214200504082
 10
187.20989649296732
 20
-268.48594223494541
 30
0.0
 41
1.0
 10
187.21244966340382
 20
-268.47566005786456
 30
0.0
 41
1.0
 10
187.21500283384032
 20
-268.46537788078371
 30
0.0
 41
1.0
 10
187.22142237864315
 20
-268.43952496650218
 30
0.0
 41
0.9999828681664117
 10
187.22753882904195
 20
-268.41359867161009
 30
0.0
 41
1.0
 10
187.23365527944131
 20
-268.38767237671556
 30
0.0
 41
0.9999389844479099
 10
187.23919747719938
 20
-268.36161728553435
 30
0.0
 41
1.0
 10
187.24062502594319
 20
-268.35490606476799
 30
0.0
 41
1.0
 10
187.24205257468699
 20
-268.34819484400157
 30
0.0
 41
1.0
 10
187.25044986993254
 20
-268.30871731128832
 30
0.0
 41
0.9998933699439185
 10
187.25769072281273
 20
-268.2690113897383
 30
0.0
 41
1.0
 10
187.25796528785631
 20
-268.26750578559722
 30
0.0
 41
1.0
 10
187.25823985289989
 20
-268.26600018145621
 30
0.0
 41
1.0
 10
187.26602983586707
 20
-268.22328305162472
 30
0.0
 41
0.999685030519342
 10
187.27166657111877
 20
-268.18022885053728
 30
0.0
 41
1.0
 10
187.27206557779249
 20
-268.17718117971378
 30
0.0
 41
1.0
 10
187.27246458446623
 20
-268.17413350889029
 30
0.0
 41
1.0
 10
187.27794615695808
 20
-268.13226446345902
 30
0.0
 41
0.999469793670642
 10
187.28069106880204
 20
-268.09012742439268
 30
0.0
 41
1.0
 10
187.28078648265199
 20
-268.08866272995044
 30
0.0
 41
1.0
 10
187.28088189650191
 20
-268.08719803550827
 30
0.0
 41
1.0
 10
187.28343598064598
 20
-268.04799038532622
 30
0.0
 41
0.9991804893137029
 10
187.28281031739144
 20
-268.00870461533185
 30
0.0
 41
1.0
 10
187.28279354162703
 20
-268.00765125504961
 30
0.0
 41
1.0
 10
187.28277676586259
 20
-268.00659789476737
 30
0.0
 41
1.0
 10
187.28218465413693
 20
-267.96941884533771
 30
0.0
 41
0.9988448329321307
 10
187.27802634501214
 20
-267.93246832737049
 30
0.0
 41
1.0
 10
187.27770753027153
 20
-267.92963535621612
 30
0.0
 41
1.0
 10
187.27738871553089
 20
-267.92680238506176
 30
0.0
 41
1.0
 10
187.27386803588743
 20
-267.89551780940394
 30
0.0
 41
0.9985503209458176
 10
187.26700478142746
 20
-267.86479297258597
 30
0.0
 41
1.0
 10
187.26548758301328
 20
-267.85800090710615
 30
0.0
 41
1.0
 10
187.26397038459908
 20
-267.85120884162632
 30
0.0
 41
1.0
 10
187.26014152696763
 20
-267.83406813576869
 30
0.0
 41
0.9991036781371957
 10
187.25487655463732
 20
-267.81731271830313
 30
0.0
 41
1.0
 10
187.25408010954604
 20
-267.81477808580075
 30
0.0
 41
1.0
 10
187.25328366445476
 20
-267.81224345329832
 30
0.0
 41
1.0
 10
187.24961158230698
 20
-267.8005573008378
 30
0.0
 41
0.9998874504369703
 10
187.24559054077142
 20
-267.7889865803935
 30
0.0
 41
1.0
 10
187.24156949923562
 20
-267.77741585994846
 30
0.0
 41
0.9994041637543428
 10
187.23675977664891
 20
-267.76615011917085
 30
0.0
 41
1.0
 10
187.23592041980407
 20
-267.76418410627434
 30
0.0
 41
1.0
 10
187.23508106295924
 20
-267.7622180933779
 30
0.0
 41
1.0
 10
187.22950529676024
 20
-267.74915806018424
 30
0.0
 41
0.9991846840701618
 10
187.22289402542177
 20
-267.73659045392856
 30
0.0
 41
1.0
 10
187.22266670414285
 20
-267.73615833063775
 30
0.0
 41
1.0
 10
187.22243938286394
 20
-267.735726207347
 30
0.0
 41
1.0
 10
187.21628275408324
 20
-267.7240228476727
 30
0.0
 41
0.9989253167923399
 10
187.20906886927216
 20
-267.71293986199453
 30
0.0
 41
1.0
 10
187.20885804433735
 20
-267.71261596304214
 30
0.0
 41
1.0
 10
187.20864721940254
 20
-267.7122920640897
 30
0.0
 41
1.0
 10
187.20185498446122
 20
-267.70185687631653
 30
0.0
 41
0.9986467172836215
 10
187.19401555393367
 20
-267.69218366959058
 30
0.0
 41
1.0
 10
187.19384072819361
 20
-267.69196794913501
 30
0.0
 41
1.0
 10
187.19366590245352
 20
-267.69175222867943
 30
0.0
 41
1.0
 10
187.18617612340614
 20
-267.68251046286457
 30
0.0
 41
0.9984001104266389
 10
187.17769077730273
 20
-267.67417344139085
 30
0.0
 41
1.0
 10
187.17757334968087
 20
-267.67405806641466
 30
0.0
 41
1.0
 10
187.17745592205901
 20
-267.67394269143841
 30
0.0
 41
1.0
 10
187.16920543119929
 20
-267.66583641991713
 30
0.0
 41
0.9982442159081816
 10
187.16005421093215
 20
-267.65876270766512
 30
0.0
 41
1.0
 10
187.16001125183976
 20
-267.65872950113646
 30
0.0
 41
1.0
 10
187.15996829274735
 20
-267.65869629460775
 30
0.0
 41
1.0
 10
187.15090299066512
 20
-267.65168899541311
 30
0.0
 41
0.9982450060835696
 10
187.14107279485066
 20
-267.64580263880634
 30
0.0
 41
1.0
 10
187.1312425990364
 20
-267.63991628219964
 30
0.0
 41
0.998392263963395
 10
187.12080933780317
 20
-267.63518035526869
 30
0.0
 41
1.0
 10
187.12076396233834
 20
-267.63515975817245
 30
0.0
 41
1.0
 10
187.12071858687355
 20
-267.63513916107621
 30
0.0
 41
1.0
 10
187.11019457471076
 20
-267.63036203995284
 30
0.0
 41
0.9986517147149988
 10
187.09923198013735
 20
-267.62670181612856
 30
0.0
 41
1.0
 10
187.09909639585175
 20
-267.62665654684224
 30
0.0
 41
1.0
 10
187.09896081156612
 20
-267.62661127755592
 30
0.0
 41
1.0
 10
187.08772704842164
 20
-267.62286051515906
 30
0.0
 41
0.9989435598956856
 10
187.0761963709916
 20
-267.62015697471219
 30
0.0
 41
1.0
 10
187.07598034707502
 20
-267.62010632466149
 30
0.0
 41
1.0
 10
187.07576432315844
 20
-267.62005567461085
 30
0.0
 41
1.0
 10
187.06380159789541
 20
-267.61725083406276
 30
0.0
 41
0.9992249241240138
 10
187.05165529611591
 20
-267.61539576551974
 30
0.0
 41
1.0
 10
187.05137255845773
 20
-267.61535258383816
 30
0.0
 41
1.0
 10
187.05108982079955
 20
-267.61530940215658
 30
0.0
 41
1.0
 10
187.0383780437038
 20
-267.61336797025041
 30
0.0
 41
0.9994396597833796
 10
187.02556485639658
 20
-267.61228138578127
 30
0.0
 41
1.0
 10
187.02173672290087
 20
-267.61195675223757
 30
0.0
 41
1.0
 10
187.01790858940515
 20
-267.61163211869382
 30
0.0
 41
1.0
 10
186.9974391351067
 20
-267.60989626713723
 30
0.0
 41
0.9987693403121547
 10
186.97689841038937
 20
-267.61019687982775
 30
0.0
 41
1.0
 10
186.97484754354417
 20
-267.61022689418257
 30
0.0
 41
1.0
 10
186.97279667669901
 20
-267.61025690853739
 30
0.0
 41
1.0
 10
186.95088552346289
 20
-267.61057757739491
 30
0.0
 41
0.9989753644966551
 10
186.92909312345924
 20
-267.61287817877997
 30
0.0
 41
1.0
 10
186.90730072345599
 20
-267.61517878016497
 30
0.0
 41
0.9983190067305172
 10
186.88592096126305
 20
-267.61998577852233
 30
0.0
 41
1.0
 10
186.88414077094166
 20
-267.62038603423491
 30
0.0
 41
1.0
 10
186.88236058062026
 20
-267.62078628994743
 30
0.0
 41
1.0
 10
186.85742043778436
 20
-267.6263937997299
 30
0.0
 41
0.9985539388302385
 10
186.83322648704868
 20
-267.63464653493907
 30
0.0
 41
1.0
 10
186.83275740085676
 20
-267.63480654370221
 30
0.0
 41
1.0
 10
186.83228831466485
 20
-267.6349665524653
 30
0.0
 41
1.0
 10
186.80715619154537
 20
-267.6435393052007
 30
0.0
 41
0.9988468746494142
 10
186.78296212308553
 20
-267.65448292221305
 30
0.0
 41
1.0
 10
186.78232555868757
 20
-267.65477085712513
 30
0.0
 41
1.0
 10
186.78168899428962
 20
-267.65505879203721
 30
0.0
 41
1.0
 10
186.7562217970337
 20
-267.66657827887383
 30
0.0
 41
0.9991322885918467
 10
186.73180168022193
 20
-267.68017734531048
 30
0.0
 41
1.0
 10
186.72828127801341
 20
-267.68213778570828
 30
0.0
 41
1.0
 10
186.72476087580489
 20
-267.68409822610613
 30
0.0
 41
1.0
 10
186.70432553959364
 20
-267.69547824926218
 30
0.0
 41
0.9993860037849697
 10
186.68473733877906
 20
-267.70826145237982
 30
0.0
 41
1.0
 10
186.68361367620804
 20
-267.70899475131915
 30
0.0
 41
1.0
 10
186.68249001363705
 20
-267.70972805025849
 30
0.0
 41
1.0
 10
186.66514913796422
 20
-267.72104465549756
 30
0.0
 41
0.9998821494953909
 10
186.64816386280179
 20
-267.73288830151284
 30
0.0
 41
1.0
 10
186.63117858763894
 20
-267.74473194752841
 30
0.0
 41
0.9997976482745037
 10
186.61468346155851
 20
-267.75724922913651
 30
0.0
 41
1.0
 10
186.61175620859751
 20
-267.75947056709248
 30
0.0
 41
1.0
 10
186.60882895563654
 20
-267.76169190504845
 30
0.0
 41
1.0
 10
186.58647932363382
 20
-267.77865186256878
 30
0.0
 41
0.9998091630798974
 10
186.56480926802837
 20
-267.79647193270904
 30
0.0
 41
1.0
 10
186.56220811753289
 20
-267.7986109527983
 30
0.0
 41
1.0
 10
186.55960696703741
 20
-267.8007499728875
 30
0.0
 41
1.0
 10
186.53273461044137
 20
-267.82284808320588
 30
0.0
 41
0.999503511231724
 10
186.5073074348891
 20
-267.84659484660841
 30
0.0
 41
1.0
 10
186.50537797281089
 20
-267.8483967958407
 30
0.0
 41
1.0
 10
186.50344851073268
 20
-267.85019874507293
 30
0.0
 41
1.0
 10
186.47876389817998
 20
-267.87325201942377
 30
0.0
 41
0.9994630424298636
 10
186.4556422170235
 20
-267.89787256807051
 30
0.0
 41
1.0
 10
186.45490564926914
 20
-267.89865688397322
 30
0.0
 41
1.0
 10
186.45416908151478
 20
-267.89944119987587
 30
0.0
 41
1.0
 10
186.43252053586664
 20
-267.92249311671753
 30
0.0
 41
0.9995160693750261
 10
186.41234732996028
 20
-267.94684660029202
 30
0.0
 41
1.0
 10
186.41196058594414
 20
-267.94731348513358
 30
0.0
 41
1.0
 10
186.41157384192803
 20
-267.94778036997519
 30
0.0
 41
1.0
 10
186.39217412405355
 20
-267.97120008386702
 30
0.0
 41
0.999656147051501
 10
186.37402888032076
 20
-267.9956046363564
 30
0.0
 41
1.0
 10
186.37279734713968
 20
-267.9972609941658
 30
0.0
 41
1.0
 10
186.37156581395863
 20
-267.99891735197514
 30
0.0
 41
1.0
 10
186.35588363658721
 20
-268.02000918884676
 30
0.0
 41
0.999834905517406
 10
186.34097818020118
 20
-268.04165690557892
 30
0.0
 41
1.0
 10
186.32607272381739
 20
-268.06330462230773
 30
0.0
 41
0.9999728109562587
 10
186.31148814463643
 20
-268.08516980741706
 30
0.0
 41
1.0
 10
186.31122510155222
 20
-268.08556416132035
 30
0.0
 41
1.0
 10
186.31096205846799
 20
-268.08595851522364
 30
0.0
 41
1.0
 10
186.29585139312621
 20
-268.10861240812824
 30
0.0
 41
0.9999972147356657
 10
186.28084783105061
 20
-268.13133737669648
 30
0.0
 41
1.0
 10
186.27985352252404
 20
-268.13284339439411
 30
0.0
 41
1.0
 10
186.27885921399749
 20
-268.13434941209175
 30
0.0
 41
1.0
 10
186.26186703487298
 20
-268.16008641604896
 30
0.0
 41
0.9999371979006074
 10
186.24545596499053
 20
-268.18619779880703
 30
0.0
 41
1.0
 10
186.24475418811932
 20
-268.18731438441824
 30
0.0
 41
1.0
 10
186.24405241124808
 20
-268.18843097002946
 30
0.0
 41
1.0
 10
186.22623778762136
 20
-268.21677552401286
 30
0.0
 41
0.999827202561013
 10
186.20948910944458
 20
-268.2457626993621
 30
0.0
 41
1.0
 10
186.20644607504045
 20
-268.25102932225224
 30
0.0
 41
1.0
 10
186.20340304063635
 20
-268.25629594514237
 30
0.0
 41
1.0
 10
186.18056829365094
 20
-268.29581636627239
 30
0.0
 41
0.9995217214838846
 10
186.16022035574002
 20
-268.33667283184434
 30
0.0
 41
1.0
 10
186.15869164321222
 20
-268.3397423217865
 30
0.0
 41
1.0
 10
186.15716293068442
 20
-268.34281181172867
 30
0.0
 41
1.0
 10
186.13978187216725
 20
-268.37771110334353
 30
0.0
 41
0.9998269762609268
 10
186.12371097891284
 20
-268.41323276068806
 30
0.0
 41
1.0
 10
186.10764008565829
 20
-268.44875441803299
 30
0.0
 41
0.9998944747389812
 10
186.09260792674587
 20
-268.48472796315764
 30
0.0
 41
1.0
 10
186.09161719282702
 20
-268.4870988941426
 30
0.0
 41
1.0
 10
186.09062645890819
 20
-268.48946982512751
 30
0.0
 41
1.0
 10
186.074497046798
 20
-268.52806921313027
 30
0.0
 41
0.9999506734414542
 10
186.05913754101763
 20
-268.56698137410069
 30
0.0
 41
1.0
 10
186.05621754796431
 20
-268.5743789584597
 30
0.0
 41
1.0
 10
186.05329755491101
 20
-268.58177654281872
 30
0.0
 41
1.0
 10
186.04377803523607
 20
-268.60589353507396
 30
0.0
 41
0.9999912393944755
 10
186.03446074643242
 20
-268.63008937561108
 30
0.0
 41
1.0
 10
186.02514345762779
 20
-268.65428521615053
 30
0.0
 41
0.999992711396646
 10
186.016011198749
 20
-268.6785514976508
 30
0.0
 41
1.0
 10
186.01321751246948
 20
-268.6859748940505
 30
0.0
 41
1.0
 10
186.01042382618996
 20
-268.6933982904502
 30
0.0
 41
1.0
 10
185.99570419475205
 20
-268.73251136475011
 30
0.0
 41
0.9999487550950404
 10
185.98177946975699
 20
-268.77191443778867
 30
0.0
 41
1.0
 10
185.97706074776994
 20
-268.78526709984635
 30
0.0
 41
1.0
 10
185.97234202578286
 20
-268.79861976190398
 30
0.0
 41
1.0
 10
185.9534048989089
 20
-268.85220652886858
 30
0.0
 41
0.9999808436933021
 10
185.93513258118057
 20
-268.90602361512163
 30
0.0
 41
1.0
 10
185.91686026345107
 20
-268.9598407013782
 30
0.0
 41
0.9999873932909593
 10
185.89912932170813
 20
-269.01383857237892
 30
0.0
 41
1.0
 10
185.89511085033456
 20
-269.02607643892861
 30
0.0
 41
1.0
 10
185.89109237896096
 20
-269.03831430547837
 30
0.0
 41
1.0
 10
185.86532449446858
 20
-269.11678790958536
 30
0.0
 41
0.9999794883039533
 10
185.84056393747699
 20
-269.19558515084105
 30
0.0
 41
1.0
 10
185.83833348559108
 20
-269.20268327288341
 30
0.0
 41
1.0
 10
185.83610303370514
 20
-269.20978139492576
 30
0.0
 41
1.0
 10
185.80759140092539
 20
-269.30051594534382
 30
0.0
 41
0.9999982761625504
 10
185.77941691292048
 20
-269.39135574977445
 30
0.0
 41
1.0
 10
185.46178884640594
 20
-270.40110969597509
 30
0.0
 41
1.0
 10
185.14416077989139
 20
-271.41086364217574
 30
0.0
 41
1.0
 10
184.95441065759613
 20
-271.41086364217574
 30
0.0
 41
1.0
 10
184.76466053530086
 20
-271.41086364217574
 30
0.0
 41
1.0
 10
185.41231743253147
 20
-269.34539920218651
 30
0.0
 41
1.0
 10
186.05997432976207
 20
-267.27993476219729
 30
0.0
 41
1.0
  0
LWPOLYLINE
  5
B2
100
AcDbEntity
  8
0
370
              15
390
0
  6
Continuous
 62
               7
100
AcDbPolyline
 90
      232
 70
             128
 10
180.91926517499664
 20
-267.49680332850033
 42
0.0004370800652905
 10
180.90868974020682
 20
-267.51053665631969
 10
180.90083289395679
 20
-267.52075807893095
 42
0.0030481992186939
 10
180.87476515053248
 20
-267.55510241740041
 10
180.86706281618288
 20
-267.56537977415735
 42
0.0042058245750223
 10
180.8262658060502
 20
-267.62078092317034
 10
180.81578478154879
 20
-267.63526749252821
 42
0.0120948898742062
 10
180.75657599819701
 20
-267.72141741343722
 10
180.73733749837217
 20
-267.75091356048296
 42
0.0141601263945811
 10
180.67660868898773
 20
-267.85004742783013
 10
180.66870123550237
 20
-267.86381622131677
 42
0.0071131081303037
 10
180.62764677085485
 20
-267.93771678108408
 42
0.0068458791001826
 10
180.58867086548653
 20
-268.01273509377876
 10
180.58730849299471
 20
-268.01544743652403
 42
0.0064120880289559
 10
180.54768004298683
 20
-268.0969323315058
 10
180.54617310588245
 20
-268.10013470285207
 42
0.0058857236452316
 10
180.50562202750666
 20
-268.18900992506229
 10
180.50398704224929
 20
-268.19270795578586
 42
0.00531897418939
 10
180.46224617971788
 20
-268.28990065056445
 10
180.46049661857953
 20
-268.29409702620865
 42
0.0047503650417893
 10
180.41730187334969
 20
-268.40053691284987
 10
180.41544822367976
 20
-268.4052321880722
 42
0.0042071762172776
 10
180.37053874693527
 20
-268.52185090688329
 10
180.36858886646448
 20
-268.52704414186007
 42
0.003668008648388
 10
180.32169793780196
 20
-268.65477121876671
 10
180.31965638183252
 20
-268.66046092563522
 42
0.0032573142629277
 10
180.27052992463882
 20
-268.80023145758685
 10
180.25679982046921
 20
-268.84012407440167
 42
0.0026133366649138
 10
180.18711078071939
 20
-269.04609673113089
 10
180.17445942321865
 20
-269.08414289821138
 42
0.0020592950744484
 10
180.13168680942587
 20
-269.21456362873209
 10
180.13107645119325
 20
-269.21645092641404
 42
0.0025609928532329
 10
180.09071235089604
 20
-269.34347997088719
 10
180.09019407746896
 20
-269.34514043908081
 42
0.0031362356245009
 10
180.0522959203353
 20
-269.46929301031122
 10
180.05186971174956
 20
-269.47072127155423
 42
0.0037229918027252
 10
180.01650963436455
 20
-269.59251833194827
 10
180.01617391652388
 20
-269.59370770998095
 42
0.0043077623705092
 10
179.98342575611028
 20
-269.71367145633695
 42
0.0047654161824141
 10
179.95286001160704
 20
-269.83420867411775
 10
179.94596708983929
 20
-269.86252102954734
 42
0.0112969368444772
 10
179.90679421821085
 20
-270.04085946167078
 10
179.90119294039121
 20
-270.06942507089178
 42
0.0130056762571435
 10
179.86102549166188
 20
-270.30681328522076
 10
179.85691754163233
 20
-270.33562890791706
 42
0.0138721532145126
 10
179.83617694072487
 20
-270.51699480508137
 10
179.83231784314324
 20
-270.56169434946702
 42
0.0071254697009391
 10
179.82564851395878
 20
-270.65433175123576
 10
179.82465631912629
 20
-270.67153255014495
 42
0.0028881799194332
 10
179.82162866046818
 20
-270.72988089211628
 42
0.006029729714013
 10
179.81964222051306
 20
-270.78827067934105
 10
179.81942976417966
 20
-270.79794915372662
 42
0.02295231641557
 10
179.82097596973685
 20
-270.86250012298262
 10
179.82182112444102
 20
-270.87458082978702
 42
0.0123673300669555
 10
179.82563685374456
 20
-270.91480497482081
 42
0.0128577674488007
 10
179.83147593182582
 20
-270.95478454480616
 10
179.83290110650321
 20
-270.96305030772555
 42
0.0285717853767869
 10
179.84579990684253
 20
-271.01867353798872
 10
179.84853361157559
 20
-271.02800449188345
 42
0.0316283099166457
 10
179.87169572755849
 20
-271.09180739224882
 10
179.87230546590951
 20
-271.09320466671369
 42
0.0338984824232583
 10
179.90219180810303
 20
-271.15071785955183
 10
179.90265355397693
 20
-271.15147606540688
 42
0.0350228718356773
 10
179.93912561211172
 20
-271.20288646234235
 10
179.93930266246684
 20
-271.20310227789531
 42
0.0347476747526102
 10
179.98218759991474
 20
-271.24853928733916
 42
0.0331337701916299
 10
180.03083626506418
 20
-271.28776501975477
 10
180.03105628476723
 20
-271.28791956038913
 42
0.0305233319082703
 10
180.08476522388196
 20
-271.32094519440744
 10
180.08541123278215
 20
-271.32128999677997
 42
0.0273744481155474
 10
180.14392197509693
 20
-271.34851762555803
 10
180.14494288212452
 20
-271.34892634245199
 42
0.0240964406197624
 10
180.20803829725381
 20
-271.37072308770826
 10
180.20935496309571
 20
-271.37110803564326
 42
0.020963617980749
 10
180.27683499362615
 20
-271.38780166522969
 10
180.27836148571592
 20
-271.38811204782996
 42
0.0181388704693395
 10
180.35002596411564
 20
-271.39999526647279
 10
180.35168213379123
 20
-271.40020850323617
 42
0.0156086547584146
 10
180.42731960662908
 20
-271.40755574055152
 10
180.43595865709625
 20
-271.40812344104745
 42
0.0137148329025223
 10
180.50149328615421
 20
-271.41062749209755
 10
180.5106805241397
 20
-271.4107263787206
 42
0.0051057823883131
 10
180.55790964145783
 20
-271.41075242960244
 42
0.0052256693310902
 10
180.60512909821509
 20
-271.40980266470956
 10
180.61917445496343
 20
-271.40937327150675
 42
0.0161507179053674
 10
180.69432187058405
 20
-271.40464319744143
 10
180.69832446265829
 20
-271.40426115838397
 42
0.0101216737830093
 10
180.78112990695513
 20
-271.39466257231106
 10
180.78794056484182
 20
-271.39373303294894
 42
0.0245291776403537
 10
180.88329849595289
 20
-271.37591801733345
 10
180.90026315905837
 20
-271.37187883326413
 42
0.0143509212562724
 10
180.97158937984474
 20
-271.3527179065087
 42
0.0156557857038002
 10
181.04163259278928
 20
-271.32931566334531
 10
181.04313283568914
 20
-271.32876163099411
 42
0.0170137333631011
 10
181.11445203482529
 20
-271.29963010801998
 10
181.11587281930693
 20
-271.29899254090719
 42
0.0183105364410401
 10
181.18774275293953
 20
-271.2635255325427
 10
181.18913210586791
 20
-271.26277544556791
 42
0.0194899958148619
 10
181.26082825406465
 20
-271.22037964918979
 10
181.262231029932
 20
-271.21947458073078
 42
0.0204869852944162
 10
181.33303389035021
 20
-271.16957057771401
 10
181.33448701206819
 20
-271.16845456464387
 42
0.0212516938562661
 10
181.40368499828975
 20
-271.110473765265
 10
181.41298833710493
 20
-271.10198030324625
 42
0.0215248918252459
 10
181.46499357088246
 20
-271.05022744744736
 10
181.4739995177583
 20
-271.0404586231777
 42
0.0114578554957757
 10
181.50495794849408
 20
-271.00529403648568
 10
181.50719685569254
 20
-271.00263028377526
 42
0.0061531305139626
 10
181.53249178489031
 20
-270.97177237711549
 42
0.0006325587129624
 10
181.55736748171637
 20
-270.94057170198579
 10
181.56197550873097
 20
-270.93477699784853
 42
0.0041897761551474
 10
181.59566658952849
 20
-270.89167312263226
 10
181.6073590135039
 20
-270.87645285323913
 42
0.0092993880035708
 10
181.66268139894984
 20
-270.80159710046064
 10
181.6791602975882
 20
-270.77840969974898
 42
0.015932172708688
 10
181.7484815941169
 20
-270.67397485559735
 10
181.75735282119368
 20
-270.65963894274898
 42
0.0085547317016677
 10
181.80425517425985
 20
-270.5808639529024
 42
0.0084601156893365
 10
181.84845040974935
 20
-270.500538583094
 10
181.85007350451437
 20
-270.49746664664139
 42
0.0081429654283518
 10
181.894723358601
 20
-270.40952234413504
 10
181.89649539143866
 20
-270.40588657572937
 42
0.0076574581328115
 10
181.94177689355359
 20
-270.30925000067532
 10
181.94367282169677
 20
-270.30503710501813
 42
0.0070682724201543
 10
181.98976180325784
 20
-270.19862964406269
 10
181.99175986005449
 20
-270.1938318062596
 42
0.0064559514448586
 10
182.0388265016916
 20
-270.07656935295364
 10
182.04090837332379
 20
-270.07118236786732
 42
0.005831141390578
 10
182.08911772067751
 20
-269.94197594898748
 10
182.09126873615386
 20
-269.93599908075851
 42
0.0052312425819707
 10
182.14078499176176
 20
-269.79375859799256
 10
182.14299375903803
 20
-269.78719325557768
 42
0.0046680544795831
 10
182.19397944458538
 20
-269.63082799242522
 10
182.20237787459379
 20
-269.60423134496767
 42
0.0041666856444807
 10
182.24303507707256
 20
-269.47163758996714
 10
182.25056756520362
 20
-269.44632136844217
 42
0.0015170975151649
 10
182.27480488088796
 20
-269.36394769813774
 42
-0.0004887993111065
 10
182.29887283551327
 20
-269.28152401572703
 10
182.3141682870116
 20
-269.22933253854109
 42
0.0002583378927582
 10
182.36881120104113
 20
-269.04252119784798
 10
182.38516577093822
 20
-268.98650134599393
 42
0.0006636169675289
 10
182.423939322942
 20
-268.85303076127127
 10
182.42495865381585
 20
-268.84950444467989
 42
0.0010589131325425
 10
182.46124839399474
 20
-268.72295817608551
 10
182.46224480809082
 20
-268.71945559468156
 42
0.0015655524458203
 10
182.49589884952744
 20
-268.5997322588413
 10
182.49686488961052
 20
-268.59625382705383
 42
0.0021640440478601
 10
182.52772288400766
 20
-268.4832484234505
 10
182.52864972789286
 20
-268.47979547745467
 42
0.0028763871850844
 10
182.55655287150418
 20
-268.37340188728228
 10
182.55743004433745
 20
-268.36997709165206
 42
0.0037310511941176
 10
182.582221382705
 20
-268.27008757284659
 10
182.5830364267629
 20
-268.26669551859709
 42
0.0047652197774653
 10
182.60456120686453
 20
-268.17319996493654
 10
182.60529932672858
 20
-268.16984805390933
 42
0.0060276699303611
 10
182.62340534655991
 20
-268.08263289487769
 10
182.62404908461784
 20
-268.07933265201524
 42
0.007582433775624
 10
182.63858694650085
 20
-267.99827921913061
 10
182.63911602197697
 20
-267.99504822964008
 42
0.0095130624605677
 10
182.64993906910317
 20
-267.9200303590261
 10
182.65133631387965
 20
-267.9088436474031
 42
0.0121054653226593
 10
182.65665457999526
 20
-267.85586448170807
 10
182.65682787794714
 20
-267.85358379312248
 42
0.0069050827399043
 10
182.65984564155471
 20
-267.80499554775338
 10
182.66007270148842
 20
-267.80029029634471
 42
0.0169063976694427
 10
182.66063815728447
 20
-267.76105175088429
 10
182.6604040269782
 20
-267.74898459861328
 42
0.005200773290631
 10
182.65995333725957
 20
-267.73386592058404
 42
0.0054038123298895
 10
182.65596063489122
 20
-267.70986226137865
 10
182.65494346371773
 20
-267.70413056406585
 42
0.0112050460468946
 10
182.64786659130596
 20
-267.6688652763977
 10
182.6443015988979
 20
-267.65295695905388
 42
0.0240764468007038
 10
182.62612212566862
 20
-267.58690955195351
 10
182.62241037310599
 20
-267.57558551895488
 42
0.0256812331832401
 10
182.59373778906806
 20
-267.50124067770338
 10
182.59265590390379
 20
-267.49881441070545
 42
0.0268360501216278
 10
182.55877045573376
 20
-267.43261578390127
 10
182.55766317420682
 20
-267.43071184983893
 42
0.0274670231724837
 10
182.51922297892409
 20
-267.37225437485534
 10
182.5181467189316
 20
-267.3707985453471
 42
0.027503596710191
 10
182.47583214301923
 20
-267.31969536728627
 10
182.47481824282599
 20
-267.31859954976022
 42
0.0269557673529058
 10
182.429337534138
 20
-267.27447109256769
 10
182.42838892258138
 20
-267.27364510167547
 42
0.0259124802209613
 10
182.38047795629532
 20
-267.2361069962451
 10
182.3795717872585
 20
-267.23546989577875
 42
0.0245162153010614
 10
182.32998851664004
 20
-267.20412329395691
 10
182.3290832073755
 20
-267.20361125451689
 42
0.0229282588832073
 10
182.27859929600973
 20
-267.17803761601692
 10
182.27764319724295
 20
-267.17760715606477
 42
0.0212984135693444
 10
182.22703560674998
 20
-267.15736737261614
 10
182.22597474975649
 20
-267.1569946600643
 42
0.0197555462339658
 10
182.17601908221147
 20
-267.14163157647113
 42
0.0183511896784625
 10
182.12503333711879
 20
-267.13011499507803
 10
182.10776029777486
 20
-267.12687443700116
 42
0.033805787714824
 10
182.05065882792221
 20
-267.12011275597297
 10
182.03245774691172
 20
-267.11919682492061
 42
0.0091990524506125
 10
182.011288325187
 20
-267.11852165373625
 42
0.0028333980769474
 10
181.99010554198409
 20
-267.1183560322329
 10
181.98992245137859
 20
-267.1183556382681
 42
-0.0023619827796197
 10
181.96837324835059
 20
-267.11820747005237
 10
181.96109221432224
 20
-267.11812300875982
 42
0.0008824598481209
 10
181.92498101633709
 20
-267.11776785311207
 10
181.91620872987104
 20
-267.11769706080707
 42
0.0038132665768056
 10
181.86255215069951
 20
-267.11767327359377
 10
181.8592454197366
 20
-267.1176970268225
 42
0.0060665569335911
 10
181.79898932141839
 20
-267.1188610867066
 10
181.79613925501323
 20
-267.11895074830011
 42
0.008035695333914
 10
181.73024751174401
 20
-267.12208429271362
 10
181.72783350872791
 20
-267.12223800930161
 42
0.0098996399104017
 10
181.6572808917972
 20
-267.12813505514129
 10
181.65527174992283
 20
-267.12834311438087
 42
0.0117740981363452
 10
181.5810403782553
 20
-267.13780156388646
 10
181.57939583895657
 20
-267.13805058720095
 42
0.0137435215133084
 10
181.50247807505954
 20
-267.15186998191331
 10
181.50114666723491
 20
-267.15214716116003
 42
0.0158359869385287
 10
181.4225472484741
 20
-267.17112557885628
 10
181.42146461110102
 20
-267.17142356703027
 42
0.0180554124023086
 10
181.34220160217899
 20
-267.19635117027786
 10
181.3412902445618
 20
-267.19667437753128
 42
0.0203657431281979
 10
181.26239474100052
 20
-267.228326445834
 10
181.26156603319808
 20
-267.22869877012283
 42
0.0226819684657319
 10
181.18407882195643
 20
-267.26782728585761
 10
181.18323886375376
 20
-267.26830040424102
 42
0.0248634984605841
 10
181.10820247551743
 20
-267.31562573343041
 10
181.09856348976083
 20
-267.32239714179542
 42
0.0267044190882928
 10
181.04370495037736
 20
-267.3654852169692
 42
0.0139303002200621
 10
180.99247151718845
 20
-267.41293298515274
 10
180.9915008400454
 20
-267.41388351772366
 42
0.0283460963447659
 10
180.94268632119994
 20
-267.46742964981274
 10
180.93475262016872
 20
-267.47718996530728
 42
0.0070695364819295
 10
180.91926517499664
 20
-267.49680332850033
 42
0.0070695364819295
  0
LWPOLYLINE
  5
B3
100
AcDbEntity
  8
0
370
              15
390
0
  6
Continuous
 62
               7
100
AcDbPolyline
 90
      226
 70
             128
 10
180.21350108754743
 20
-270.64112108973711
 42
-0.002627763666465
 10
180.21348551078739
 20
-270.62776670458925
 10
180.21352898243381
 20
-270.61713566109989
 42
-0.008868029671802
 10
180.21428430569253
 20
-270.58253250461655
 10
180.21475357751493
 20
-270.57067649952859
 42
-0.0077381705615908
 10
180.2179627996675
 20
-270.51242440036953
 10
180.21813638190216
 20
-270.50996675363194
 42
-0.0068872530534384
 10
180.22346279785182
 20
-270.44692240321763
 10
180.223703642689
 20
-270.44447420741437
 42
-0.0062130021487901
 10
180.2312223860545
 20
-270.37670026916737
 10
180.2315231667616
 20
-270.37426549478334
 42
-0.0056726929664775
 10
180.24130753866251
 20
-270.30182645035762
 10
180.24166222779095
 20
-270.29940769031157
 42
-0.0052341884493323
 10
180.25378434504265
 20
-270.22236903920981
 10
180.25418794279827
 20
-270.21996805320953
 42
-0.0049768450169023
 10
180.26873567908356
 20
-270.13839913972276
 10
180.27358548202787
 20
-270.11268954312186
 42
-0.0089029805625211
 10
180.30100165238687
 20
-269.98033445363717
 10
180.30755072745055
 20
-269.95132816753267
 42
-0.0080318257099523
 10
180.35346045031855
 20
-269.76218624116245
 10
180.35585743560833
 20
-269.75296011412388
 42
-0.0074265721317656
 10
180.41265974337853
 20
-269.54694719844701
 10
180.41663565200128
 20
-269.53332038633113
 42
-0.0069711922702604
 10
180.482096567703
 20
-269.32006683826432
 10
180.49408695712404
 20
-269.28286256659038
 42
-0.0052070422895184
 10
180.53997200217597
 20
-269.14540815118391
 10
180.54342824060481
 20
-269.13540269507672
 42
-0.0009167004447031
 10
180.5840466180683
 20
-269.01851152542969
 42
-0.0025162726943683
 10
180.62546614412179
 20
-268.90190327259438
 10
180.63291106648242
 20
-268.88127336341449
 42
-0.0028212681459673
 10
180.6825462502745
 20
-268.74612723698192
 10
180.68451240282539
 20
-268.74086574804454
 42
-0.0031964916819331
 10
180.73177085435711
 20
-268.61682479562114
 10
180.73369774515638
 20
-268.61186279759386
 42
-0.0036281836454528
 10
180.77871893737714
 20
-268.49837466141389
 10
180.78060661941021
 20
-268.4937151751094
 42
-0.004126916683105
 10
180.82353015874045
 20
-268.39022699591766
 10
180.83005675002332
 20
-268.3748513066484
 42
-0.0047472213057588
 10
180.86146571113531
 20
-268.30276701306877
 10
180.86284452737672
 20
-268.29968289360289
 42
-0.0025651659999048
 10
180.89251613414703
 20
-268.23421728245268
 42
-0.0057144634995048
 10
180.92326607290079
 20
-268.1692553477813
 10
180.92887221398195
 20
-268.15775367130061
 42
-0.0065388068371472
 10
180.96556561952954
 20
-268.08490717196833
 10
180.96725731068449
 20
-268.08165525609587
 42
-0.0074510843023809
 10
181.00249375986076
 20
-268.01631759986992
 10
181.00412969396768
 20
-268.01338944441488
 42
-0.0084648979865775
 10
181.03805646458696
 20
-267.9550076422239
 10
181.03962768988634
 20
-267.95240624389083
 42
-0.0095638542804194
 10
181.07239477940342
 20
-267.90042846949802
 10
181.07388976813817
 20
-267.89815459720631
 42
-0.0107191626809169
 10
181.10565008421528
 20
-267.85203235029815
 10
181.10705343096188
 20
-267.8500851318247
 42
-0.0118458573900728
 10
181.13796305066401
 20
-267.80927069276305
 42
-0.0129184518189441
 10
181.17085357538522
 20
-267.77003858952793
 10
181.17688252985778
 20
-267.7632133737481
 42
-0.0217742579625253
 10
181.21220499432403
 20
-267.72657201969901
 10
181.21435410321578
 20
-267.72452865305871
 42
-0.0097266568646459
 10
181.24756562698721
 20
-267.69415913817096
 42
-0.0187720905728931
 10
181.28243514216558
 20
-267.66574536749278
 10
181.28857634029916
 20
-267.66111355101447
 42
-0.0179428207521103
 10
181.33506048429919
 20
-267.62860311559155
 10
181.33579094968286
 20
-267.62813032861368
 42
-0.0170047877699747
 10
181.38294367718842
 20
-267.59983822578374
 10
181.38370027493812
 20
-267.59941856477627
 42
-0.0160190788360129
 10
181.43108198446478
 20
-267.57508830437882
 42
-0.0151102861491464
 10
181.47988834095446
 20
-267.55375174916776
 10
181.49036564139649
 20
-267.54954372258896
 42
-0.0271945441883604
 10
181.56209815320895
 20
-267.52517076044762
 10
181.57591111330555
 20
-267.52130085219466
 42
-0.0237596594022659
 10
181.65907048271029
 20
-267.50221070979819
 10
181.67268305345627
 20
-267.49975977217287
 42
-0.0213715440554707
 10
181.72985803974544
 20
-267.49197036587088
 10
181.7418874729874
 20
-267.49085242293086
 42
-0.0101465655826592
 10
181.77538597938783
 20
-267.48842371427793
 10
181.77725405662912
 20
-267.48832633127842
 42
-0.0100375910874793
 10
181.80708487673999
 20
-267.48737116769337
 10
181.80913673067749
 20
-267.48734667989044
 42
-0.0103625633374066
 10
181.83487832960705
 20
-267.48757296659585
 10
181.83933145986163
 20
-267.48770443828886
 42
-0.0115689250230987
 10
181.85614160736597
 20
-267.48859033953784
 42
-0.0072438037423922
 10
181.87290926325514
 20
-267.49010817948783
 10
181.87626936514837
 20
-267.49046148803257
 42
-0.0217917313141999
 10
181.89958331781088
 20
-267.49394546657669
 10
181.9127033359251
 20
-267.49649478825972
 42
-0.033294355675102
 10
181.95358176893021
 20
-267.50730284652104
 10
181.95961628264033
 20
-267.50933646194477
 42
-0.0184824084803566
 10
181.98731729393327
 20
-267.51982666502204
 42
-0.0198002050690992
 10
182.01413216203261
 20
-267.53240347706162
 10
182.01450948950853
 20
-267.53259903443791
 42
-0.0212242342970186
 10
182.04093727798889
 20
-267.54775158219644
 10
182.04130033709762
 20
-267.54798074263817
 42
-0.0226090605794645
 10
182.06700111734176
 20
-267.56587667135091
 10
182.06737000568941
 20
-267.56615912194854
 42
-0.023845705224514
 10
182.09200642194776
 20
-267.58695830112083
 10
182.09239696765982
 20
-267.58732127667429
 42
-0.0248160564156313
 10
182.11563726911996
 20
-267.61117619691606
 10
182.11605799580039
 20
-267.61165326365693
 42
-0.0254109591458508
 10
182.13757903937355
 20
-267.63871094084982
 10
182.13802864375637
 20
-267.63933925052993
 42
-0.02555284882863
 10
182.15751797951569
 20
-267.66974466137657
 10
182.157984199499
 20
-267.67056098369824
 42
-0.0252146793221469
 10
182.17514040470093
 20
-267.70446143289786
 10
182.17560085253237
 20
-267.70549784928028
 42
-0.0244265635951869
 10
182.19013179128478
 20
-267.74304716368977
 10
182.19198107157843
 20
-267.74862024735728
 42
-0.0231319612899115
 10
182.20116562737675
 20
-267.78128045671747
 42
-0.0112130424369644
 10
182.2080928318843
 20
-267.81452117675474
 10
182.20833333690686
 20
-267.81582049413265
 42
-0.0210527881237267
 10
182.21347063198098
 20
-267.85203162322057
 10
182.21417275094538
 20
-267.85911273293038
 42
-0.0190029892421057
 10
182.21726104565428
 20
-267.90981990218501
 10
182.21742304094309
 20
-267.91691502505864
 42
-0.0137974553659329
 10
182.21711327037596
 20
-267.98192130640592
 10
182.21694417938494
 20
-267.98714505532172
 42
-0.0081336634215926
 10
182.21397231234036
 20
-268.0482145488437
 42
-0.0073526923571384
 10
182.20911060566542
 20
-268.10916419770098
 10
182.20885832090889
 20
-268.11183153263391
 42
-0.0066886138689421
 10
182.2017112036996
 20
-268.17794874133364
 10
182.20137978580564
 20
-268.18067306513171
 42
-0.0061359187363773
 10
182.19180966539551
 20
-268.25202586115148
 10
182.1914021651809
 20
-268.25480482171753
 42
-0.0056698610057917
 10
182.179272099027
 20
-268.33146053548802
 10
182.17879101236289
 20
-268.33429235933124
 42
-0.0052721077281341
 10
182.1639645722037
 20
-268.41631782726301
 10
182.16341194243464
 20
-268.41920115434402
 42
-0.0049289272173419
 10
182.14575311881481
 20
-268.50666285656752
 10
182.14513061987807
 20
-268.50959662713171
 42
-0.0047415956710254
 10
182.12448302157171
 20
-268.60255597861334
 10
182.11752937949964
 20
-268.63251739769049
 42
-0.0084404470903042
 10
182.07952609078524
 20
-268.78456220259699
 10
182.07830075318819
 20
-268.78913502742739
 42
-0.0039635940258745
 10
182.0340100163308
 20
-268.94933280027897
 10
182.0313346572955
 20
-268.95871912359524
 42
-0.0072475040837242
 10
181.97784527972254
 20
-269.13656306687432
 10
181.96380281435714
 20
-269.18091113686842
 42
-0.0051345458826099
 10
181.90645093994559
 20
-269.35577617442993
 10
181.90214568659403
 20
-269.36846142785026
 42
-0.0019150016603374
 10
181.85103900521878
 20
-269.51717125190112
 10
181.84974548433905
 20
-269.52088874488675
 42
-0.0021524362751591
 10
181.80004987412676
 20
-269.661753909227
 10
181.79820778998771
 20
-269.66690462488663
 42
-0.0024331286820128
 10
181.75095673818024
 20
-269.79702448651096
 10
181.74914714766916
 20
-269.80193314778444
 42
-0.002744972178668
 10
181.70422423350303
 20
-269.92175912356669
 10
181.70244623202623
 20
-269.92642364153284
 42
-0.0031083229769293
 10
181.65973773470259
 20
-270.03640844905306
 10
181.65799050836551
 20
-270.04082639222958
 42
-0.0035311343279004
 10
181.61738227124917
 20
-270.1414230173707
 10
181.61566520342015
 20
-270.1455915620715
 42
-0.0040245640953119
 10
181.57704284266075
 20
-270.23725342659122
 10
181.57535561994146
 20
-270.24116930020256
 42
-0.0046015135848009
 10
181.53860436130734
 20
-270.32435030613408
 10
181.53694712574233
 20
-270.32800973402306
 42
-0.0052768638269921
 10
181.50195162195061
 20
-270.40316431087854
 10
181.50032517982663
 20
-270.4065629785843
 42
-0.0060672675643026
 10
181.46696925727204
 20
-270.47414610321005
 10
181.46537536117469
 20
-270.47727915501156
 42
-0.0069904648863244
 10
181.43354168237542
 20
-270.53774631634224
 10
181.43198340245411
 20
-270.54060842618617
 42
-0.0080637022768498
 10
181.40155303038406
 20
-270.59441548681832
 10
181.40003522385834
 20
-270.59700105993761
 42
-0.009300645566005
 10
181.37088708855154
 20
-270.64460393963907
 10
181.36941695520136
 20
-270.646907533476
 42
-0.0107060778052087
 10
181.34142724651517
 20
-270.68876159694952
 10
181.3400148928593
 20
-270.69077870546261
 42
-0.0122723111413196
 10
181.31305614921959
 20
-270.72733737136048
 10
181.31299090450901
 20
-270.72742144892209
 42
-0.01418363196271
 10
181.28427458391397
 20
-270.76233540048827
 10
181.28288503278335
 20
-270.76393040054148
 42
-0.0175957477213258
 10
181.25490379917662
 20
-270.79385457822218
 42
-0.0080466359671617
 10
181.22541104616928
 20
-270.82231908385359
 10
181.21620413726706
 20
-270.83092317147066
 42
-0.0269600260399921
 10
181.16554808807089
 20
-270.87338782317221
 10
181.15223466081207
 20
-270.88337810609653
 42
-0.0178362839761405
 10
181.10424576287991
 20
-270.91678169134781
 10
181.10279676867884
 20
-270.91771539378942
 42
-0.0174650732649333
 10
181.05552952919155
 20
-270.9458875867806
 42
-0.0169240130158455
 10
181.00643628001995
 20
-270.97074603873614
 10
180.99723904890843
 20
-270.97501842984951
 42
-0.0318883036844109
 10
180.92716887778462
 20
-271.00228609175144
 10
180.91349577075053
 20
-271.00662621584689
 42
-0.0284435909899497
 10
180.83828574549332
 20
-271.02586970294158
 10
180.83125411339404
 20
-271.02724842210722
 42
-0.0243909341013193
 10
180.76856542120984
 20
-271.03639262831331
 10
180.75850927585591
 20
-271.03736173769363
 42
-0.0196639292929926
 10
180.71539016035015
 20
-271.03981139479635
 10
180.70502534611586
 20
-271.03999204694372
 42
-0.0100501510667797
 10
180.68254068978459
 20
-271.03993196727311
 10
180.67620871751038
 20
-271.0397877528959
 42
-0.0019752031120948
 10
180.66639025017949
 20
-271.03952532085407
 10
180.66583818953464
 20
-271.0395083824888
 42
0.0065378752022304
 10
180.65712287458408
 20
-271.03935500424581
 42
-0.0167974694675096
 10
180.64841670999849
 20
-271.03902302454065
 10
180.64760084214529
 20
-271.03896442236163
 42
-0.0081283276293451
 10
180.6372888825982
 20
-271.03805502363412
 10
180.6349409678219
 20
-271.03780944011839
 42
-0.0126703440179625
 10
180.61999730866341
 20
-271.03586248190413
 10
180.61543973512786
 20
-271.03515083072102
 42
-0.0117852088421236
 10
180.59153193796053
 20
-271.03083823168942
 10
180.58045584760882
 20
-271.02856952364266
 42
-0.0251774592294021
 10
180.53508703980759
 20
-271.01686992175615
 10
180.5261432018367
 20
-271.01407655788893
 42
-0.0146525199886633
 10
180.48886460432934
 20
-271.00122325244939
 42
-0.0166929435853377
 10
180.45246907310408
 20
-270.98606182583853
 10
180.45153774684937
 20
-270.9856368457157
 42
-0.0191684358435702
 10
180.41450102059989
 20
-270.96698962895789
 10
180.4138345034481
 20
-270.96662137944702
 42
-0.0221181781814506
 10
180.37717244266705
 20
-270.94419467977241
 10
180.37670248186598
 20
-270.94387782017463
 42
-0.0254984685377914
 10
180.34144445178885
 20
-270.91739559018066
 10
180.33694802224838
 20
-270.91364512839334
 42
-0.0292492648811328
 10
180.3119942344799
 20
-270.89022656846487
 42
-0.0159048957490586
 10
180.28922623499
 20
-270.86462257014523
 10
180.28896247687405
 20
-270.86430624754109
 42
-0.0343813379562436
 10
180.26843502454884
 20
-270.83593198238719
 10
180.26213671827668
 20
-270.82583130396841
 42
-0.0369117275713445
 10
180.24495821789716
 20
-270.79313585577864
 42
-0.0191751379905269
 10
180.23151954078568
 20
-270.75865493457712
 10
180.23116687603388
 20
-270.75763626564247
 42
-0.0378178042237
 10
180.22120793227703
 20
-270.7198481104262
 10
180.22000887313098
 20
-270.71333598678683
 42
-0.0184846046472728
 10
180.21586543327206
 20
-270.68498542267787
 42
-0.0179866351342098
 10
180.2137988322574
 20
-270.656407260062
 10
180.21378754376823
 20
-270.65609572273911
 42
-0.0085497186162095
 10
180.21350108754743
 20
-270.64112108973711
 42
-0.0085497186162095
  0
ENDBLK
  5
B4
100
AcDbEntity
  8
template
390
0
100
AcDbBlockEnd
  0
ENDSEC
  0
SECTION
  2
ENTITIES
  0
POLYLINE
  5
B5
100
AcDbEntity
  8
タオルリング
370
               5
390
0
  6
Continuous
 62
               7
100
AcDb2dPolyline
 66
               1
 10
0.0
 20
0.0
 30
0.0
 70
               1
 75
               5
  0
VERTEX
  5
B6
100
AcDbEntity
  8
タオルリング
370
               5
390
0
  6
Continuous
 62
               7
100
AcDbVertex
100
AcDb2dVertex
 10
-41.249999999999801
 20
110.0
 30
0.0
  0
VERTEX
  5
B7
100
AcDbEntity
  8
タオルリング
370
               5
390
0
  6
Continuous
 62
               7
100
AcDbVertex
100
AcDb2dVertex
 10
-25.249999999999801
 20
110.0
 30
0.0
  0
VERTEX
  5
B8
100
AcDbEntity
  8
タオルリング
370
               5
390
0
  6
Continuous
 62
               7
100
AcDbVertex
100
AcDb2dVertex
 10
-25.249999999999801
 20
94.000000000000682
 30
0.0
  0
VERTEX
  5
B9
100
AcDbEntity
  8
タオルリング
370
               5
390
0
  6
Continuous
 62
               7
100
AcDbVertex
100
AcDb2dVertex
 10
-41.249999999999801
 20
94.000000000000682
 30
0.0
  0
SEQEND
  5
BA
100
AcDbEntity
  8
タオルリング
370
               5
390
0
  6
Continuous
 62
               7
  0
POLYLINE
  5
BB
100
AcDbEntity
  8
タオルリング
370
               5
390
0
  6
Continuous
 62
               7
100
AcDb2dPolyline
 66
               1
 10
0.0
 20
0.0
 30
0.0
 70
               1
 75
               5
  0
VERTEX
  5
BC
100
AcDbEntity
  8
タオルリング
370
               5
390
0
  6
Continuous
 62
               7
100
AcDbVertex
100
AcDb2dVertex
 10
-173.00000000000065
 20
110.0
 30
0.0
  0
VERTEX
  5
BD
100
AcDbEntity
  8
タオルリング
370
               5
390
0
  6
Continuous
 62
               7
100
AcDbVertex
100
AcDb2dVertex
 10
-1.0
 20
110.0
 30
0.0
  0
VERTEX
  5
BE
100
AcDbEntity
  8
タオルリング
370
               5
390
0
  6
Continuous
 62
               7
100
AcDbVertex
100
AcDb2dVertex
 10
-1.0
 20
94.000000000000682
 30
0.0
  0
VERTEX
  5
BF
100
AcDbEntity
  8
タオルリング
370
               5
390
0
  6
Continuous
 62
               7
100
AcDbVertex
100
AcDb2dVertex
 10
-173.00000000000065
 20
94.000000000000682
 30
0.0
  0
SEQEND
  5
C0
100
AcDbEntity
  8
タオルリング
370
               5
390
0
  6
Continuous
 62
               7
  0
POLYLINE
  5
C1
100
AcDbEntity
  8
タオルリング
370
               9
390
0
  6
Continuous
 62
               7
100
AcDb2dPolyline
 66
               1
 10
0.0
 20
0.0
 30
0.0
 70
               1
 75
               5
  0
VERTEX
  5
C2
100
AcDbEntity
  8
タオルリング
370
               9
390
0
  6
Continuous
 62
               7
100
AcDbVertex
100
AcDb2dVertex
 10
-1.0
 20
110.0
 30
0.0
  0
VERTEX
  5
C3
100
AcDbEntity
  8
タオルリング
370
               9
390
0
  6
Continuous
 62
               7
100
AcDbVertex
100
AcDb2dVertex
 10
0.0
 20
110.0
 30
0.0
  0
VERTEX
  5
C4
100
AcDbEntity
  8
タオルリング
370
               9
390
0
  6
Continuous
 62
               7
100
AcDbVertex
100
AcDb2dVertex
 10
0.0
 20
94.0
 30
0.0
  0
VERTEX
  5
C5
100
AcDbEntity
  8
タオルリング
370
               9
390
0
  6
Continuous
 62
               7
100
AcDbVertex
100
AcDb2dVertex
 10
-1.0
 20
94.0
 30
0.0
  0
SEQEND
  5
C6
100
AcDbEntity
  8
タオルリング
370
               9
390
0
  6
Continuous
 62
               7
  0
POLYLINE
  5
C7
100
AcDbEntity
  8
タオルリング
370
               9
390
0
  6
Continuous
 62
               7
100
AcDb2dPolyline
 66
               1
 10
0.0
 20
0.0
 30
0.0
 70
               1
 75
               5
  0
VERTEX
  5
C8
100
AcDbEntity
  8
タオルリング
370
               9
390
0
  6
Continuous
 62
               7
100
AcDbVertex
100
AcDb2dVertex
 10
-174.00000000000065
 20
110.0
 30
0.0
  0
VERTEX
  5
C9
100
AcDbEntity
  8
タオルリング
370
               9
390
0
  6
Continuous
 62
               7
100
AcDbVertex
100
AcDb2dVertex
 10
-173.00000000000065
 20
110.0
 30
0.0
  0
VERTEX
  5
CA
100
AcDbEntity
  8
タオルリング
370
               9
390
0
  6
Continuous
 62
               7
100
AcDbVertex
100
AcDb2dVertex
 10
-173.00000000000065
 20
94.0
 30
0.0
  0
VERTEX
  5
CB
100
AcDbEntity
  8
タオルリング
370
               9
390
0
  6
Continuous
 62
               7
100
AcDbVertex
100
AcDb2dVertex
 10
-174.00000000000065
 20
94.0
 30
0.0
  0
SEQEND
  5
CC
100
AcDbEntity
  8
タオルリング
370
               9
390
0
  6
Continuous
 62
               7
  0
LINE
  5
CD
100
AcDbEntity
  8
タオルリング
370
               9
390
0
  6
Continuous
 62
               7
100
AcDbLine
 10
-174.00000000000065
 20
110.0
 30
0.0
 11
-174.00000000000065
 21
48.0
 31
0.0
  0
LINE
  5
CE
100
AcDbEntity
  8
タオルリング
370
               9
390
0
  6
Continuous
 62
               7
100
AcDbLine
 10
-177.00000000000065
 20
110.0
 30
0.0
 11
-177.00000000000065
 21
48.0
 31
0.0
  0
LINE
  5
CF
100
AcDbEntity
  8
タオルリング
370
               9
390
0
  6
Continuous
 62
               7
100
AcDbLine
 10
3.0
 20
110.0
 30
0.0
 11
3.0
 21
48.0
 31
0.0
  0
LINE
  5
D0
100
AcDbEntity
  8
タオルリング
370
               9
390
0
  6
Continuous
 62
               7
100
AcDbLine
 10
0.0
 20
110.0
 30
0.0
 11
0.0
 21
48.0
 31
0.0
  0
LINE
  5
D1
100
AcDbEntity
  8
タオルリング
370
               9
390
0
  6
Continuous
 62
               7
100
AcDbLine
 10
-177.00000000000065
 20
110.0
 30
0.0
 11
-174.00000000000065
 21
110.0
 31
0.0
  0
LINE
  5
D2
100
AcDbEntity
  8
タオルリング
370
               9
390
0
  6
Continuous
 62
               7
100
AcDbLine
 10
0.0
 20
110.0
 30
0.0
 11
3.0
 21
110.0
 31
0.0
  0
LINE
  5
D3
100
AcDbEntity
  8
タオルリング
370
               9
390
0
  6
Continuous
 62
               7
100
AcDbLine
 10
-164.00000000000065
 20
35.0
 30
0.0
 11
-10.0
 21
35.0
 31
0.0
  0
LINE
  5
D4
100
AcDbEntity
  8
タオルリング
370
               9
390
0
  6
Continuous
 62
               7
100
AcDbLine
 10
-164.00000000000065
 20
38.0
 30
0.0
 11
-10.0
 21
38.0
 31
0.0
  0
ARC
  5
D5
100
AcDbEntity
  8
タオルリング
370
               9
390
0
  6
Continuous
 62
               7
100
AcDbCircle
 10
-164.00000000000065
 20
48.0
 30
0.0
 40
10.0
100
AcDbArc
 50
180.0
 51
270.0
  0
ARC
  5
D6
100
AcDbEntity
  8
タオルリング
370
               9
390
0
  6
Continuous
 62
               7
100
AcDbCircle
 10
-164.00000000000065
 20
48.0
 30
0.0
 40
13.0
100
AcDbArc
 50
180.0
 51
270.0
  0
ARC
  5
D7
100
AcDbEntity
  8
タオルリング
370
               9
390
0
  6
Continuous
 62
               7
100
AcDbCircle
 10
-10.0
 20
48.0
 30
0.0
 40
10.0
100
AcDbArc
 50
270.0
 51
0.0
  0
ARC
  5
D8
100
AcDbEntity
  8
タオルリング
370
               9
390
0
  6
Continuous
 62
               7
100
AcDbCircle
 10
-10.0
 20
48.0
 30
0.0
 40
13.0
100
AcDbArc
 50
270.0
 51
0.0
  0
DIMENSION
  5
D9
100
AcDbEntity
  8
タオルリング
370
               9
390
0
  6
Continuous
 62
               7
100
AcDbDimension
  2
*D1
 10
-177.00000000000065
 20
131.62631872963851
 30
0.0
 11
-87.000000000000313
 21
132.02631872963852
 31
0.0
 70
             128
 71
               5
 72
               1
 41
1.0
 42
0.0
  3
b
100
AcDbAlignedDimension
 13
3.0
 23
54.406983333613653
 33
0.0
 14
-177.00000000000065
 24
54.406983333613653
 34
0.0
100
AcDbRotatedDimension
1001
ACAD
1000
DSTYLE
1002
{
1070
             279
1070
               2
1070
             340
1005
2C
1070
             147
1040
0.4
1002
}
  0
DIMENSION
  5
DA
100
AcDbEntity
  8
タオルリング
370
               9
390
0
  6
Continuous
 62
               7
100
AcDbDimension
  2
*D2
 10
21.400933620144741
 20
110.0
 30
0.0
 11
21.400933620144741
 21
72.5
 31
0.0
 71
               5
 72
               1
 41
1.0
 42
0.0
  3
b
100
AcDbAlignedDimension
 13
-44.599066379855259
 23
35.0
 33
0.0
 14
-44.599066379855259
 24
110.0
 34
0.0
 50
90.0
100
AcDbRotatedDimension
1001
ACAD
1000
DSTYLE
1002
{
1070
             279
1070
               2
1070
             340
1005
2C
1070
             147
1040
0.4
1002
}
  0
POLYLINE
  5
DB
100
AcDbEntity
  8
タオルリング
370
               5
390
0
  6
Continuous
 62
               7
100
AcDb2dPolyline
 66
               1
 10
0.0
 20
0.0
 30
0.0
 70
               1
 75
               5
  0
VERTEX
  5
DC
100
AcDbEntity
  8
タオルリング
370
               5
390
0
  6
Continuous
 62
               7
100
AcDbVertex
100
AcDb2dVertex
 10
-40.867163238647791
 20
-79.557476338610797
 30
0.0
  0
VERTEX
  5
DD
100
AcDbEntity
  8
タオルリング
370
               5
390
0
  6
Continuous
 62
               7
100
AcDbVertex
100
AcDb2dVertex
 10
-24.867163238647791
 20
-79.557476338610797
 30
0.0
  0
VERTEX
  5
DE
100
AcDbEntity
  8
タオルリング
370
               5
390
0
  6
Continuous
 62
               7
100
AcDbVertex
100
AcDb2dVertex
 10
-24.867163238647791
 20
-95.557476338610115
 30
0.0
  0
VERTEX
  5
DF
100
AcDbEntity
  8
タオルリング
370
               5
390
0
  6
Continuous
 62
               7
100
AcDbVertex
100
AcDb2dVertex
 10
-40.867163238647791
 20
-95.557476338610115
 30
0.0
  0
SEQEND
  5
E0
100
AcDbEntity
  8
タオルリング
370
               5
390
0
  6
Continuous
 62
               7
  0
POLYLINE
  5
E1
100
AcDbEntity
  8
タオルリング
370
               5
390
0
  6
Continuous
 62
               7
100
AcDb2dPolyline
 66
               1
 10
0.0
 20
0.0
 30
0.0
 70
               1
 75
               5
  0
VERTEX
  5
E2
100
AcDbEntity
  8
タオルリング
370
               5
390
0
  6
Continuous
 62
               7
100
AcDbVertex
100
AcDb2dVertex
 10
-172.61716323864843
 20
-79.557476338610797
 30
0.0
  0
VERTEX
  5
E3
100
AcDbEntity
  8
タオルリング
370
               5
390
0
  6
Continuous
 62
               7
100
AcDbVertex
100
AcDb2dVertex
 10
-0.6171632386479047
 20
-79.557476338610797
 30
0.0
  0
VERTEX
  5
E4
100
AcDbEntity
  8
タオルリング
370
               5
390
0
  6
Continuous
 62
               7
100
AcDbVertex
100
AcDb2dVertex
 10
-0.6171632386479047
 20
-95.557476338610115
 30
0.0
  0
VERTEX
  5
E5
100
AcDbEntity
  8
タオルリング
370
               5
390
0
  6
Continuous
 62
               7
100
AcDbVertex
100
AcDb2dVertex
 10
-172.61716323864843
 20
-95.557476338610115
 30
0.0
  0
SEQEND
  5
E6
100
AcDbEntity
  8
タオルリング
370
               5
390
0
  6
Continuous
 62
               7
  0
POLYLINE
  5
E7
100
AcDbEntity
  8
タオルリング
370
               5
390
0
  6
Continuous
 62
               7
100
AcDb2dPolyline
 66
               1
 10
0.0
 20
0.0
 30
0.0
 70
               1
 75
               5
  0
VERTEX
  5
E8
100
AcDbEntity
  8
タオルリング
370
               5
390
0
  6
Continuous
 62
               7
100
AcDbVertex
100
AcDb2dVertex
 10
-40.867163238647791
 20
-35.557476338610229
 30
0.0
  0
VERTEX
  5
E9
100
AcDbEntity
  8
タオルリング
370
               5
390
0
  6
Continuous
 62
               7
100
AcDbVertex
100
AcDb2dVertex
 10
-24.867163238647791
 20
-35.557476338610229
 30
0.0
  0
VERTEX
  5
EA
100
AcDbEntity
  8
タオルリング
370
               5
390
0
  6
Continuous
 62
               7
100
AcDbVertex
100
AcDb2dVertex
 10
-24.867163238647791
 20
-87.557476338610229
 30
0.0
  0
VERTEX
  5
EB
100
AcDbEntity
  8
タオルリング
370
               5
390
0
  6
Continuous
 62
               7
100
AcDbVertex
100
AcDb2dVertex
 10
-40.867163238647791
 20
-87.557476338610229
 30
0.0
  0
SEQEND
  5
EC
100
AcDbEntity
  8
タオルリング
370
               5
390
0
  6
Continuous
 62
               7
  0
POLYLINE
  5
ED
100
AcDbEntity
  8
タオルリング
370
               5
390
0
  6
Continuous
 62
               7
100
AcDb2dPolyline
 66
               1
 10
0.0
 20
0.0
 30
0.0
 70
               1
 75
               5
  0
VERTEX
  5
EE
100
AcDbEntity
  8
タオルリング
370
               5
390
0
  6
Continuous
 62
               7
100
AcDbVertex
100
AcDb2dVertex
 10
-148.36716323864843
 20
-35.557476338610229
 30
0.0
  0
VERTEX
  5
EF
100
AcDbEntity
  8
タオルリング
370
               5
390
0
  6
Continuous
 62
               7
100
AcDbVertex
100
AcDb2dVertex
 10
-132.36716323864843
 20
-35.557476338610229
 30
0.0
  0
VERTEX
  5
F0
100
AcDbEntity
  8
タオルリング
370
               5
390
0
  6
Continuous
 62
               7
100
AcDbVertex
100
AcDb2dVertex
 10
-132.36716323864843
 20
-87.557476338610229
 30
0.0
  0
VERTEX
  5
F1
100
AcDbEntity
  8
タオルリング
370
               5
390
0
  6
Continuous
 62
               7
100
AcDbVertex
100
AcDb2dVertex
 10
-148.36716323864843
 20
-87.557476338610229
 30
0.0
  0
SEQEND
  5
F2
100
AcDbEntity
  8
タオルリング
370
               5
390
0
  6
Continuous
 62
               7
  0
DIMENSION
  5
F3
100
AcDbEntity
  8
タオルリング
370
               9
390
0
  6
Continuous
 62
               7
100
AcDbDimension
  2
*D3
 10
24.790525984249527
 20
-95.557476338610115
 30
0.0
 11
24.790525984249527
 21
-65.557476338610172
 31
0.0
 71
               5
 72
               1
 41
1.0
 42
0.0
  3
b
100
AcDbAlignedDimension
 13
-13.680343834031206
 23
-35.557476338610229
 33
0.0
 14
-13.680343834031206
 24
-95.557476338610115
 34
0.0
 50
90.0
100
AcDbRotatedDimension
1001
ACAD
1000
DSTYLE
1002
{
1070
             279
1070
               2
1070
             340
1005
2C
1070
             147
1040
0.4
1002
}
  0
POLYLINE
  5
F4
100
AcDbEntity
  8
タオルリング
370
               9
390
0
  6
Continuous
 62
               7
100
AcDb2dPolyline
 66
               1
 10
0.0
 20
0.0
 30
0.0
 70
               1
 75
               5
  0
VERTEX
  5
F5
100
AcDbEntity
  8
タオルリング
370
               9
390
0
  6
Continuous
 62
               7
100
AcDbVertex
100
AcDb2dVertex
 10
-0.6171632386479047
 20
-79.557476338610797
 30
0.0
  0
VERTEX
  5
F6
100
AcDbEntity
  8
タオルリング
370
               9
390
0
  6
Continuous
 62
               7
100
AcDbVertex
100
AcDb2dVertex
 10
0.3828367613520953
 20
-79.557476338610797
 30
0.0
  0
VERTEX
  5
F7
100
AcDbEntity
  8
タオルリング
370
               9
390
0
  6
Continuous
 62
               7
100
AcDbVertex
100
AcDb2dVertex
 10
0.3828367613520953
 20
-95.557476338610797
 30
0.0
  0
VERTEX
  5
F8
100
AcDbEntity
  8
タオルリング
370
               9
390
0
  6
Continuous
 62
               7
100
AcDbVertex
100
AcDb2dVertex
 10
-0.6171632386479047
 20
-95.557476338610797
 30
0.0
  0
SEQEND
  5
F9
100
AcDbEntity
  8
タオルリング
370
               9
390
0
  6
Continuous
 62
               7
  0
POLYLINE
  5
FA
100
AcDbEntity
  8
タオルリング
370
               9
390
0
  6
Continuous
 62
               7
100
AcDb2dPolyline
 66
               1
 10
0.0
 20
0.0
 30
0.0
 70
               1
 75
               5
  0
VERTEX
  5
FB
100
AcDbEntity
  8
タオルリング
370
               9
390
0
  6
Continuous
 62
               7
100
AcDbVertex
100
AcDb2dVertex
 10
-173.61716323864843
 20
-79.557476338610797
 30
0.0
  0
VERTEX
  5
FC
100
AcDbEntity
  8
タオルリング
370
               9
390
0
  6
Continuous
 62
               7
100
AcDbVertex
100
AcDb2dVertex
 10
-172.61716323864843
 20
-79.557476338610797
 30
0.0
  0
VERTEX
  5
FD
100
AcDbEntity
  8
タオルリング
370
               9
390
0
  6
Continuous
 62
               7
100
AcDbVertex
100
AcDb2dVertex
 10
-172.61716323864843
 20
-95.557476338610797
 30
0.0
  0
VERTEX
  5
FE
100
AcDbEntity
  8
タオルリング
370
               9
390
0
  6
Continuous
 62
               7
100
AcDbVertex
100
AcDb2dVertex
 10
-173.61716323864843
 20
-95.557476338610797
 30
0.0
  0
SEQEND
  5
FF
100
AcDbEntity
  8
タオルリング
370
               9
390
0
  6
Continuous
 62
               7
  0
DIMENSION
  5
100
100
AcDbEntity
  8
タオルリング
370
               9
390
0
  6
Continuous
 62
               7
100
AcDbDimension
  2
*D4
 10
-140.20892753061494
 20
-19.21777518238909
 30
0.0
 11
-86.208927530614943
 21
-18.817775182389092
 31
0.0
 70
             128
 71
               5
 72
               1
 41
1.0
 42
0.0
  3
b
100
AcDbAlignedDimension
 13
-32.208927530614943
 23
-36.55253629378052
 33
0.0
 14
-140.20892753061494
 24
-36.55253629378052
 34
0.0
100
AcDbRotatedDimension
1001
ACAD
1000
DSTYLE
1002
{
1070
             279
1070
               2
1070
             340
1005
2C
1070
             147
1040
0.4
1002
}
  0
POLYLINE
  5
101
100
AcDbEntity
  8
タオルリング
370
               9
390
0
  6
Continuous
 62
               7
100
AcDb2dPolyline
 66
               1
 10
0.0
 20
0.0
 30
0.0
 70
               1
 75
               5
  0
VERTEX
  5
102
100
AcDbEntity
  8
タオルリング
370
               9
390
0
  6
Continuous
 62
               7
100
AcDbVertex
100
AcDb2dVertex
 10
-176.61716323864843
 20
-79.557476338610797
 30
0.0
  0
VERTEX
  5
103
100
AcDbEntity
  8
タオルリング
370
               9
390
0
  6
Continuous
 62
               7
100
AcDbVertex
100
AcDb2dVertex
 10
-173.61716323864843
 20
-79.557476338610797
 30
0.0
  0
VERTEX
  5
104
100
AcDbEntity
  8
タオルリング
370
               9
390
0
  6
Continuous
 62
               7
100
AcDbVertex
100
AcDb2dVertex
 10
-173.61716323864843
 20
-95.557476338610797
 30
0.0
  0
VERTEX
  5
105
100
AcDbEntity
  8
タオルリング
370
               9
390
0
  6
Continuous
 62
               7
100
AcDbVertex
100
AcDb2dVertex
 10
-176.61716323864843
 20
-95.557476338610797
 30
0.0
  0
SEQEND
  5
106
100
AcDbEntity
  8
タオルリング
370
               9
390
0
  6
Continuous
 62
               7
  0
POLYLINE
  5
107
100
AcDbEntity
  8
タオルリング
370
               9
390
0
  6
Continuous
 62
               7
100
AcDb2dPolyline
 66
               1
 10
0.0
 20
0.0
 30
0.0
 70
               1
 75
               5
  0
VERTEX
  5
108
100
AcDbEntity
  8
タオルリング
370
               9
390
0
  6
Continuous
 62
               7
100
AcDbVertex
100
AcDb2dVertex
 10
0.3828367613520953
 20
-79.557476338610797
 30
0.0
  0
VERTEX
  5
109
100
AcDbEntity
  8
タオルリング
370
               9
390
0
  6
Continuous
 62
               7
100
AcDbVertex
100
AcDb2dVertex
 10
3.3828367613520953
 20
-79.557476338610797
 30
0.0
  0
VERTEX
  5
10A
100
AcDbEntity
  8
タオルリング
370
               9
390
0
  6
Continuous
 62
               7
100
AcDbVertex
100
AcDb2dVertex
 10
3.3828367613520953
 20
-95.557476338610797
 30
0.0
  0
VERTEX
  5
10B
100
AcDbEntity
  8
タオルリング
370
               9
390
0
  6
Continuous
 62
               7
100
AcDbVertex
100
AcDb2dVertex
 10
0.3828367613520953
 20
-95.557476338610797
 30
0.0
  0
SEQEND
  5
10C
100
AcDbEntity
  8
タオルリング
370
               9
390
0
  6
Continuous
 62
               7
  0
POLYLINE
  5
10D
100
AcDbEntity
  8
タオルリング
370
               5
390
0
  6
Continuous
 62
               7
100
AcDb2dPolyline
 66
               1
 10
0.0
 20
0.0
 30
0.0
 70
               1
 75
               5
  0
VERTEX
  5
10E
100
AcDbEntity
  8
タオルリング
370
               5
390
0
  6
Continuous
 62
               7
100
AcDbVertex
100
AcDb2dVertex
 10
82.000000000000057
 20
110.06114781530852
 30
0.0
  0
VERTEX
  5
10F
100
AcDbEntity
  8
タオルリング
370
               5
390
0
  6
Continuous
 62
               7
100
AcDbVertex
100
AcDb2dVertex
 10
133.99999999999991
 20
110.06114781530852
 30
0.0
  0
VERTEX
  5
110
100
AcDbEntity
  8
タオルリング
370
               5
390
0
  6
Continuous
 62
               7
100
AcDbVertex
100
AcDb2dVertex
 10
133.99999999999991
 20
94.0611478153088
 30
0.0
  0
VERTEX
  5
111
100
AcDbEntity
  8
タオルリング
370
               5
390
0
  6
Continuous
 62
               7
100
AcDbVertex
100
AcDb2dVertex
 10
82.000000000000057
 20
94.0611478153088
 30
0.0
  0
SEQEND
  5
112
100
AcDbEntity
  8
タオルリング
370
               5
390
0
  6
Continuous
 62
               7
  0
CIRCLE
  5
113
100
AcDbEntity
  8
タオルリング
370
               5
390
0
  6
Continuous
 62
               7
100
AcDbCircle
 10
82.000000000000057
 20
102.06114781530869
 30
0.0
 40
7.9999999999999636
  0
CIRCLE
  5
114
100
AcDbEntity
  8
タオルリング
370
               5
390
0
  6
Continuous
 62
               7
100
AcDbCircle
 10
82.000000000000057
 20
102.06114781530869
 30
0.0
 40
6.999999999999976
  0
LWPOLYLINE
  5
115
100
AcDbEntity
  8
タオルリング
370
               5
390
0
  6
Continuous
 62
               7
100
AcDbPolyline
 90
        7
 70
             128
 10
90.000000000000057
 20
35.061147815308516
 10
90.000000000000057
 20
101.83069514041148
 10
90.000000000000057
 20
102.06114781530852
 42
0.414213562373095
 10
82.000000000000043
 20
110.06114781530852
 42
0.4142135623730955
 10
74.000000000000043
 20
102.06114781530852
 10
74.000000000000043
 20
101.83069514041148
 10
74.000000000000043
 20
35.061147815308516
  0
ARC
  5
116
100
AcDbEntity
  8
タオルリング
370
               5
390
0
  6
Continuous
 62
               7
100
AcDbCircle
 10
74.302889589300833
 20
35.361147815309096
 30
0.0
 40
0.2999999999999972
100
AcDbArc
 50
180.0
 51
270.0
  0
ARC
  5
117
100
AcDbEntity
  8
タオルリング
370
               5
390
0
  6
Continuous
 62
               7
100
AcDbCircle
 10
89.690354346211649
 20
35.361147815309096
 30
0.0
 40
0.2999999999999545
100
AcDbArc
 50
270.0
 51
0.0
  0
LINE
  5
118
100
AcDbEntity
  8
タオルリング
370
               5
390
0
  6
Continuous
 62
               7
100
AcDbLine
 10
89.700000165568497
 20
35.061147815309141
 30
0.0
 11
74.300000000000026
 21
35.061147815309141
 31
0.0
  0
LINE
  5
119
100
AcDbEntity
  8
タオルリング
370
               5
390
0
  6
STYLE_02
 62
               7
100
AcDbLine
 10
74.000000000000043
 20
38.061147815309027
 30
0.0
 11
90.000000000000057
 21
38.061147815309027
 31
0.0
  0
DIMENSION
  5
11A
100
AcDbEntity
  8
タオルリング
370
               9
390
0
  6
Continuous
 62
               7
100
AcDbDimension
  2
*D5
 10
74.000000000000043
 20
20.270075345923686
 30
0.0
 11
82.000000000000057
 21
20.270075345923686
 31
0.0
 71
               5
 72
               1
 41
1.0
 42
0.0
  3
a
100
AcDbAlignedDimension
 13
90.000000000000057
 23
31.370075345923681
 33
0.0
 14
74.000000000000043
 24
31.370075345923681
 34
0.0
100
AcDbRotatedDimension
1001
ACAD
1000
DSTYLE
1002
{
1070
             279
1070
               2
1070
             340
1005
2C
1002
}
  0
DIMENSION
  5
11B
100
AcDbEntity
  8
タオルリング
370
               9
390
0
  6
Continuous
 62
               7
100
AcDbDimension
  2
*D6
 10
179.0
 20
110.06114781530852
 30
0.0
 11
179.40000000000001
 21
103.0
 31
0.0
 70
             128
 71
               5
 72
               1
 41
1.0
 42
0.0
  3
b
100
AcDbAlignedDimension
 13
135.9999999999998
 23
94.0611478153088
 33
0.0
 14
135.9999999999998
 24
110.06114781530852
 34
0.0
 50
90.0
100
AcDbRotatedDimension
1001
ACAD
1000
DSTYLE
1002
{
1070
             279
1070
               2
1070
             340
1005
2C
1070
             147
1040
0.4
1002
}
  0
DIMENSION
  5
11C
100
AcDbEntity
  8
タオルリング
370
               9
390
0
  6
Continuous
 62
               7
100
AcDbDimension
  2
*D7
 10
74.000000000000099
 20
131.24819312249701
 30
0.0
 11
104.0
 21
131.24819312249701
 31
0.0
 71
               5
 72
               1
 41
1.0
 42
0.0
  3
b
100
AcDbAlignedDimension
 13
133.99999999999991
 23
102.06114781530869
 33
0.0
 14
74.000000000000099
 24
102.06114781530869
 34
0.0
100
AcDbRotatedDimension
1001
ACAD
1000
DSTYLE
1002
{
1070
             279
1070
               2
1070
             340
1005
2C
1070
             147
1040
0.4
1002
}
  0
DIMENSION
  5
11D
100
AcDbEntity
  8
タオルリング
370
               9
390
0
  6
Continuous
 62
               7
100
AcDbDimension
  2
*D8
 10
56.074602521976246
 20
110.06114781530852
 30
0.0
 11
56.074602521976246
 21
72.561147815308516
 31
0.0
 71
               5
 72
               1
 41
1.0
 42
0.0
  3
b
100
AcDbAlignedDimension
 13
82.000000000000057
 23
35.061147815308516
 33
0.0
 14
82.000000000000057
 24
110.06114781530852
 34
0.0
 50
90.0
100
AcDbRotatedDimension
1001
ACAD
1000
DSTYLE
1002
{
1070
             279
1070
               2
1070
             340
1005
2C
1070
             147
1040
0.4
1002
}
  0
LINE
  5
11E
100
AcDbEntity
  8
タオルリング
370
               9
390
0
  6
Continuous
 62
               7
100
AcDbLine
 10
134.1994625927191
 20
100.42805607405666
 30
0.0
 11
135.60569528244881
 21
103.92786006264845
 31
0.0
  0
LINE
  5
11F
100
AcDbEntity
  8
タオルリング
370
               9
390
0
  6
Continuous
 62
               7
100
AcDbLine
 10
135.60569528244881
 20
100.42805607405666
 30
0.0
 11
137.01192797217857
 21
103.92786006264845
 31
0.0
  0
LINE
  5
120
100
AcDbEntity
  8
タオルリング
370
               9
390
0
  6
Continuous
 62
               7
100
AcDbLine
 10
137.01192797217857
 20
100.42805607405666
 30
0.0
 11
138.41816066190827
 21
103.92786006264845
 31
0.0
  0
LINE
  5
121
100
AcDbEntity
  8
タオルリング
370
               9
390
0
  6
Continuous
 62
               7
100
AcDbLine
 10
138.41816066190827
 20
100.42805607405666
 30
0.0
 11
139.82439335163801
 21
103.92786006264845
 31
0.0
  0
LINE
  5
122
100
AcDbEntity
  8
タオルリング
370
               9
390
0
  6
Continuous
 62
               7
100
AcDbLine
 10
139.82439335163801
 20
100.42805607405666
 30
0.0
 11
141.23062604136774
 21
103.92786006264845
 31
0.0
  0
LINE
  5
123
100
AcDbEntity
  8
タオルリング
370
               9
390
0
  6
Continuous
 62
               7
100
AcDbLine
 10
141.23062604136774
 20
100.42805607405666
 30
0.0
 11
142.63685873109745
 21
103.92786006264845
 31
0.0
  0
LINE
  5
124
100
AcDbEntity
  8
タオルリング
370
               9
390
0
  6
Continuous
 62
               7
100
AcDbLine
 10
146.85555680028676
 20
100.42805607405666
 30
0.0
 11
148.26178949001653
 21
103.92786006264845
 31
0.0
  0
LINE
  5
125
100
AcDbEntity
  8
タオルリング
370
               9
390
0
  6
Continuous
 62
               7
100
AcDbLine
 10
145.449324110557
 20
100.42805607405666
 30
0.0
 11
146.85555680028676
 21
103.92786006264845
 31
0.0
  0
LINE
  5
126
100
AcDbEntity
  8
タオルリング
370
               9
390
0
  6
Continuous
 62
               7
100
AcDbLine
 10
148.26178949001653
 20
100.42805607405666
 30
0.0
 11
149.66802217974623
 21
103.92786006264845
 31
0.0
  0
LINE
  5
127
100
AcDbEntity
  8
タオルリング
370
               9
390
0
  6
Continuous
 62
               7
100
AcDbLine
 10
149.66802217974623
 20
100.42805607405666
 30
0.0
 11
151.07425486947599
 21
103.92786006264845
 31
0.0
  0
LINE
  5
128
100
AcDbEntity
  8
タオルリング
370
               9
390
0
  6
Continuous
 62
               7
100
AcDbLine
 10
151.07425486947599
 20
100.42805607405666
 30
0.0
 11
152.48048755920573
 21
103.92786006264845
 31
0.0
  0
LINE
  5
129
100
AcDbEntity
  8
タオルリング
370
               9
390
0
  6
Continuous
 62
               7
100
AcDbLine
 10
152.48048755920573
 20
100.42805607405666
 30
0.0
 11
153.88672024893549
 21
103.92786006264845
 31
0.0
  0
LINE
  5
12A
100
AcDbEntity
  8
タオルリング
370
               9
390
0
  6
Continuous
 62
               7
100
AcDbLine
 10
153.88672024893549
 20
100.42805607405666
 30
0.0
 11
155.29295293866528
 21
103.92786006264845
 31
0.0
  0
LINE
  5
12B
100
AcDbEntity
  8
タオルリング
370
               9
390
0
  6
Continuous
 62
               7
100
AcDbLine
 10
155.29295293866528
 20
100.42805607405666
 30
0.0
 11
156.69918562839499
 21
103.92786006264845
 31
0.0
  0
LINE
  5
12C
100
AcDbEntity
  8
タオルリング
370
               9
390
0
  6
Continuous
 62
               7
100
AcDbLine
 10
142.63685873109745
 20
100.42805607405666
 30
0.0
 11
144.04309142082724
 21
103.92786006264845
 31
0.0
  0
LINE
  5
12D
100
AcDbEntity
  8
タオルリング
370
               9
390
0
  6
Continuous
 62
               7
100
AcDbLine
 10
156.69918562839499
 20
100.42805607405666
 30
0.0
 11
158.10541831812475
 21
103.92786006264845
 31
0.0
  0
LINE
  5
12E
100
AcDbEntity
  8
タオルリング
370
               9
390
0
  6
Continuous
 62
               7
100
AcDbLine
 10
159.51165100785451
 20
100.42805607405666
 30
0.0
 11
160.9178836975843
 21
103.92786006264845
 31
0.0
  0
LINE
  5
12F
100
AcDbEntity
  8
タオルリング
370
               9
390
0
  6
Continuous
 62
               7
100
AcDbLine
 10
160.9178836975843
 20
100.42805607405666
 30
0.0
 11
162.32411638731401
 21
103.92786006264845
 31
0.0
  0
LINE
  5
130
100
AcDbEntity
  8
タオルリング
370
               9
390
0
  6
Continuous
 62
               7
100
AcDbLine
 10
158.10541831812475
 20
100.42805607405666
 30
0.0
 11
159.51165100785451
 21
103.92786006264845
 31
0.0
  0
LINE
  5
131
100
AcDbEntity
  8
タオルリング
370
               9
390
0
  6
Continuous
 62
               7
100
AcDbLine
 10
167.94904714623308
 20
102.17795806835255
 30
0.0
 11
162.32411638731401
 21
103.92786006264845
 31
0.0
  0
LINE
  5
132
100
AcDbEntity
  8
タオルリング
370
               9
390
0
  6
Continuous
 62
               7
100
AcDbLine
 10
167.94904714623308
 20
102.17795806835255
 30
0.0
 11
162.32411638731401
 21
100.42805607405666
 31
0.0
  0
LINE
  5
133
100
AcDbEntity
  8
タオルリング
370
               9
390
0
  6
Continuous
 62
               7
100
AcDbLine
 10
144.04309142082724
 20
100.42805607405666
 30
0.0
 11
145.449324110557
 21
103.92786006264845
 31
0.0
  0
LINE
  5
134
100
AcDbEntity
  8
タオルリング
370
               9
390
0
  6
Continuous
 62
               7
100
AcDbLine
 10
133.99999999999991
 20
100.42805607405666
 30
0.0
 11
162.32411638731401
 21
100.42805607405666
 31
0.0
  0
LINE
  5
135
100
AcDbEntity
  8
タオルリング
370
               9
390
0
  6
Continuous
 62
               7
100
AcDbLine
 10
133.99999999999991
 20
103.92786006264845
 30
0.0
 11
162.32356245866592
 21
103.92786006264845
 31
0.0
  0
MTEXT
  5
136
100
AcDbEntity
  8
タオルリング
390
0
 62
               7
100
AcDbMText
 10
125.22500134574042
 20
70.166558093691322
 30
0.0
 40
4.8865234375000002
 41
0.0
 71
               1
 72
               1
  1
タッピングビス\P3.5×45
  7
ＭＳ ゴシック
 73
               1
 44
0.7828267384257843
  0
LINE
  5
137
100
AcDbEntity
  8
タオルリング
370
               9
390
0
  6
Continuous
 62
               7
100
AcDbLine
 10
147.0
 20
101.71402803702833
 30
0.0
 11
147.0
 21
74.285971962971672
 31
0.0
  0
MTEXT
  5
138
100
AcDbEntity
  8
template
390
0
 62
               7
100
AcDbMText
 10
-193.59999999995182
 20
-227.90677493070797
 30
0.0
 40
3.2576822916666663
 41
0.0
 71
               1
 72
               1
  1
品名
  7
ＭＳ ゴシック
 73
               1
 44
0.7828267384257843
  0
MTEXT
  5
139
100
AcDbEntity
  8
template
390
0
 62
               7
100
AcDbMText
 10
-193.59999999995182
 20
-244.90677493070794
 30
0.0
 40
3.2576822916666663
 41
0.0
 71
               1
 72
               1
  1
仕様
  7
ＭＳ ゴシック
 73
               1
 44
0.7828267384257843
  0
MTEXT
  5
13A
100
AcDbEntity
  8
template
390
0
 62
               7
100
AcDbMText
 10
-182.99999999995183
 20
-233.62326711820793
 30
0.0
 40
4.8865234375000002
 41
0.0
 71
               1
 72
               1
  1
タオルリング
  7
ＭＳ ゴシック
 73
               1
 44
0.7828267384257843
  0
LINE
  5
13B
100
AcDbEntity
  8
template
370
               5
390
0
  6
Continuous
 62
               7
100
AcDbLine
 10
194.99999999995165
 20
-243.22379055570792
 30
0.0
 11
-195.00000000004826
 21
-243.22379055570792
 31
0.0
  0
LWPOLYLINE
  5
13C
100
AcDbEntity
  8
template
370
               5
390
0
  6
Continuous
 62
               7
100
AcDbPolyline
 90
        5
 70
             128
 10
195.00000000004806
 20
282.77620944429202
 10
-194.99999999995185
 20
282.77620944429202
 10
-194.99999999995185
 20
-277.22379055570798
 10
195.00000000004806
 20
-277.22379055570798
 10
195.00000000004806
 20
282.77620944429202
  0
LINE
  5
13D
100
AcDbEntity
  8
template
370
               5
390
0
  6
Continuous
 62
               7
100
AcDbLine
 10
194.99999999995165
 20
-226.22379055570795
 30
0.0
 11
-195.00000000004826
 21
-226.22379055570795
 31
0.0
  0
LINE
  5
13E
100
AcDbEntity
  8
template
370
               5
390
0
  6
Continuous
 62
               7
100
AcDbLine
 10
195.00000000004806
 20
-260.22379055570798
 30
0.0
 11
44.400000000048323
 21
-260.22379055570798
 31
0.0
  0
MTEXT
  5
13F
100
AcDbEntity
  8
template
390
0
 62
               7
100
AcDbMText
 10
-194.99999999991121
 20
-279.59455496707938
 30
0.0
 40
4.3435763888888888
 41
0.0
 71
               1
 72
               1
  1
110526HO
  7
ＭＳ ゴシック
 73
               1
 44
0.7828267384257843
  0
MTEXT
  5
140
100
AcDbEntity
  8
template
390
0
 62
               7
100
AcDbMText
 10
50.374281250500275
 20
-266.20586945036951
 30
0.0
 40
4.8865234375000002
 41
0.0
 71
               1
 72
               1
  1
大洋金物株式会社 ティーフォルム事業部
  7
ＭＳ ゴシック
 73
               1
 44
0.7828267384257843
  0
INSERT
  5
141
100
AcDbEntity
  8
template
390
0
 62
               7
100
AcDbBlockReference
  2
グループ
 10
0.0
 20
0.0
 30
0.0
210
0.0
220
1.0
230
0.0
  0
MTEXT
  5
142
100
AcDbEntity
  8
template
390
0
 62
               7
100
AcDbMText
 10
156.80000000009986
 20
-250.62326711820793
 30
0.0
 40
4.8865234375000002
 41
0.0
 71
               1
 72
               1
  1
1:2
  7
ＭＳ ゴシック
 73
               1
 44
0.7828267384257843
  0
MTEXT
  5
143
100
AcDbEntity
  8
template
390
0
 62
               7
100
AcDbMText
 10
146.20000000009983
 20
-244.90677493070794
 30
0.0
 40
3.2576822916666663
 41
0.0
 71
               1
 72
               1
  1
縮尺
  7
ＭＳ ゴシック
 73
               1
 44
0.7828267384257843
  0
LINE
  5
144
100
AcDbEntity
  8
template
370
               5
390
0
  6
Continuous
 62
               7
100
AcDbLine
 10
144.80000000009986
 20
-260.22379055570798
 30
0.0
 11
144.80000000009986
 21
-243.22379055570792
 31
0.0
  0
MTEXT
  5
145
100
AcDbEntity
  8
template
390
0
 62
               7
100
AcDbMText
 10
96.00000000010013
 20
-244.90677493070794
 30
0.0
 40
3.2576822916666663
 41
0.0
 71
               1
 72
               1
  1
容量
  7
ＭＳ ゴシック
 73
               1
 44
0.7828267384257843
  0
LINE
  5
146
100
AcDbEntity
  8
template
370
               5
390
0
  6
Continuous
 62
               7
100
AcDbLine
 10
94.600000000100039
 20
-260.22379055570798
 30
0.0
 11
94.600000000100039
 21
-243.22379055570792
 31
0.0
  0
MTEXT
  5
147
100
AcDbEntity
  8
template
390
0
 62
               7
100
AcDbMText
 10
45.800000000100084
 20
-227.90677493070797
 30
0.0
 40
3.2576822916666663
 41
0.0
 71
               1
 72
               1
  1
品番
  7
ＭＳ ゴシック
 73
               1
 44
0.7828267384257843
  0
MTEXT
  5
148
100
AcDbEntity
  8
template
390
0
 62
               7
100
AcDbMText
 10
45.800000000100084
 20
-244.90677493070794
 30
0.0
 40
3.2576822916666663
 41
0.0
 71
               1
 72
               1
  1
重量
  7
ＭＳ ゴシック
 73
               1
 44
0.7828267384257843
  0
MTEXT
  5
149
100
AcDbEntity
  8
template
390
0
 62
               7
100
AcDbMText
 10
56.400000000100107
 20
-233.62326711820793
 30
0.0
 40
4.8865234375000002
 41
0.0
 71
               1
 72
               1
  1
SHL74-1030
  7
ＭＳ ゴシック
 73
               1
 44
0.7828267384257843
  0
LINE
  5
14A
100
AcDbEntity
  8
template
370
               5
390
0
  6
Continuous
 62
               7
100
AcDbLine
 10
44.400000000100107
 20
-277.22379055570798
 30
0.0
 11
44.400000000100107
 21
-226.22379055570795
 31
0.0
  0
MTEXT
  5
14B
100
AcDbEntity
  8
template
390
0
 62
               7
100
AcDbMText
 10
-182.99999999995183
 20
-251.62326711820793
 30
0.0
 40
4.8865234375000002
 41
0.0
 71
               1
 72
               1
  1
ステンレス
  7
ＭＳ ゴシック
 73
               1
 44
0.7828267384257843
  0
ENDSEC
  0
SECTION
  2
OBJECTS
  0
DICTIONARY
  5
19
100
AcDbDictionary
280
               0
281
               1
  3
ACAD_GROUP
350
1A
  3
ACAD_MLINESTYLE
350
1B
  3
ACAD_LAYOUT
350
1E
  3
ACAD_PLOTSETTINGS
350
22
  3
ACAD_PLOTSTYLENAME
350
1F
  0
DICTIONARY
  5
1A
102
{ACAD_REACTORS
330
19
102
}
100
AcDbDictionary
280
               0
281
               1
  0
DICTIONARY
  5
1B
102
{ACAD_REACTORS
330
19
102
}
100
AcDbDictionary
280
               0
281
               1
  3
Standard
350
1C
  0
MLINESTYLE
  5
1C
102
{ACAD_REACTORS
330
1B
102
}
100
AcDbMlineStyle
  2
Standard
 70
               0
  3

 62
               0
 51
90.0
 52
90.0
 71
               2
 49
0.5
 62
             256
  6
ByLayer
 49
-0.5
 62
             256
  6
ByLayer
  0
ACDBDICTIONARYWDFLT
  5
1F
102
{ACAD_REACTORS
330
19
102
}
100
AcDbDictionary
281
               1
  3
Normal
350
1D
100
AcDbDictionaryWithDefault
340
1D
  0
ACDBPLACEHOLDER
  5
1D
102
{ACAD_REACTORS
330
1F
102
}
  0
LAYOUT
  5
20
102
{ACAD_REACTORS
330
1E
102
}
100
AcDbPlotSettings
  1

  2

  4

  6

 40
0.0
 41
0.0
 42
0.0
 43
0.0
 44
0.0
 45
0.0
 46
0.0
 47
0.0
 48
0.0
 49
0.0
140
0.0
141
0.0
142
1.0
143
1.0
 70
            1024
 72
               0
 73
               0
 74
               0
  7

 75
               0
147
1.0
148
0.0
149
0.0
100
AcDbLayout
  1
Model
 70
               0
 71
               0
 10
0.0
 20
0.0
 11
0.0
 21
0.0
 12
0.0
 22
0.0
 32
0.0
 14
0.0
 24
0.0
 34
0.0
 15
0.0
 25
0.0
 35
0.0
146
0.0
 13
0.0
 23
0.0
 33
0.0
 16
0.0
 26
0.0
 36
0.0
 17
0.0
 27
0.0
 37
0.0
 76
               0
330
A
331
0
345
0
346
0
  0
LAYOUT
  5
21
102
{ACAD_REACTORS
330
1E
102
}
100
AcDbPlotSettings
  1

  2

  4

  6

 40
0.0
 41
0.0
 42
0.0
 43
0.0
 44
0.0
 45
0.0
 46
0.0
 47
0.0
 48
0.0
 49
0.0
140
0.0
141
0.0
142
1.0
143
1.0
 70
               0
 72
               0
 73
               0
 74
               0
  7

 75
               0
147
1.0
148
0.0
149
0.0
100
AcDbLayout
  1
Layout1
 70
               0
 71
               0
 10
0.0
 20
0.0
 11
0.0
 21
0.0
 12
0.0
 22
0.0
 32
0.0
 14
0.0
 24
0.0
 34
0.0
 15
0.0
 25
0.0
 35
0.0
146
0.0
 13
0.0
 23
0.0
 33
0.0
 16
0.0
 26
0.0
 36
0.0
 17
0.0
 27
0.0
 37
0.0
 76
               0
330
B
331
0
345
0
346
0
  0
DICTIONARY
  5
1E
102
{ACAD_REACTORS
330
19
102
}
100
AcDbDictionary
280
               0
281
               1
  3
Layout1
350
21
  3
Model
350
20
  0
DICTIONARY
  5
22
102
{ACAD_REACTORS
330
19
102
}
100
AcDbDictionary
280
               0
281
               1
  0
ENDSEC
  0
EOF
