  0
SECTION
  2
HEADER
  9
$ACADVER
  1
AC1021
  9
$ACADMAINTVER
 70
    25
  9
$DWGCODEPAGE
  3
ANSI_932
  9
$LASTSAVEDBY
  1
Shimosaki
  9
$INSBASE
 10
0.0
 20
0.0
 30
0.0
  9
$EXTMIN
 10
0.0
 20
0.0
 30
0.0
  9
$EXTMAX
 10
594.0
 20
420.0
 30
0.0
  9
$LIMMIN
 10
-761.2983459259849
 20
-84.24062991642111
  9
$LIMMAX
 10
-167.2983459259849
 20
335.7593700835788
  9
$ORTHOMODE
 70
     0
  9
$REGENMODE
 70
     1
  9
$FILLMODE
 70
     1
  9
$QTEXTMODE
 70
     0
  9
$MIRRTEXT
 70
     1
  9
$LTSCALE
 40
2.0
  9
$ATTMODE
 70
     1
  9
$TEXTSIZE
 40
0.2
  9
$TRACEWID
 40
0.05
  9
$TEXTSTYLE
  7
STANDARD
  9
$CLAYER
  8
0
  9
$CELTYPE
  6
ByBlock
  9
$CECOLOR
 62
   256
  9
$CELTSCALE
 40
1.0
  9
$DISPSILH
 70
     0
  9
$DIMSCALE
 40
1.0
  9
$DIMASZ
 40
0.18
  9
$DIMEXO
 40
0.0625
  9
$DIMDLI
 40
0.38
  9
$DIMRND
 40
0.0
  9
$DIMDLE
 40
0.0
  9
$DIMEXE
 40
0.18
  9
$DIMTP
 40
0.0
  9
$DIMTM
 40
0.0
  9
$DIMTXT
 40
0.18
  9
$DIMCEN
 40
0.09
  9
$DIMTSZ
 40
0.0
  9
$DIMTOL
 70
     0
  9
$DIMLIM
 70
     0
  9
$DIMTIH
 70
     1
  9
$DIMTOH
 70
     1
  9
$DIMSE1
 70
     0
  9
$DIMSE2
 70
     0
  9
$DIMTAD
 70
     0
  9
$DIMZIN
 70
     0
  9
$DIMBLK
  1

  9
$DIMASO
 70
     1
  9
$DIMSHO
 70
     1
  9
$DIMPOST
  1

  9
$DIMAPOST
  1

  9
$DIMALT
 70
     0
  9
$DIMALTD
 70
     2
  9
$DIMALTF
 40
25.4
  9
$DIMLFAC
 40
1.0
  9
$DIMTOFL
 70
     0
  9
$DIMTVP
 40
0.0
  9
$DIMTIX
 70
     0
  9
$DIMSOXD
 70
     0
  9
$DIMSAH
 70
     0
  9
$DIMBLK1
  1

  9
$DIMBLK2
  1

  9
$DIMSTYLE
  2
Standard
  9
$DIMCLRD
 70
     0
  9
$DIMCLRE
 70
     0
  9
$DIMCLRT
 70
     0
  9
$DIMTFAC
 40
1.0
  9
$DIMGAP
 40
0.09
  9
$DIMJUST
 70
     0
  9
$DIMSD1
 70
     0
  9
$DIMSD2
 70
     0
  9
$DIMTOLJ
 70
     1
  9
$DIMTZIN
 70
     0
  9
$DIMALTZ
 70
     0
  9
$DIMALTTZ
 70
     0
  9
$DIMUPT
 70
     0
  9
$DIMDEC
 70
     4
  9
$DIMTDEC
 70
     4
  9
$DIMALTU
 70
     2
  9
$DIMALTTD
 70
     2
  9
$DIMTXSTY
  7
STANDARD
  9
$DIMAUNIT
 70
     0
  9
$DIMADEC
 70
     0
  9
$DIMALTRND
 40
0.0
  9
$DIMAZIN
 70
     0
  9
$DIMDSEP
 70
    46
  9
$DIMATFIT
 70
     3
  9
$DIMFRAC
 70
     0
  9
$DIMLDRBLK
  1

  9
$DIMLUNIT
 70
     2
  9
$DIMLWD
 70
    -2
  9
$DIMLWE
 70
    -2
  9
$DIMTMOVE
 70
     2
  9
$DIMFXL
 40
1.0
  9
$DIMFXLON
 70
     0
  9
$DIMJOGANG
 40
0.7853981633974483
  9
$DIMTFILL
 70
     0
  9
$DIMTFILLCLR
 70
     0
  9
$DIMARCSYM
 70
     0
  9
$DIMLTYPE
  6

  9
$DIMLTEX1
  6

  9
$DIMLTEX2
  6

  9
$LUNITS
 70
     2
  9
$LUPREC
 70
     4
  9
$SKETCHINC
 40
0.1
  9
$FILLETRAD
 40
0.5
  9
$AUNITS
 70
     0
  9
$AUPREC
 70
     0
  9
$MENU
  1
.
  9
$ELEVATION
 40
0.0
  9
$PELEVATION
 40
0.0
  9
$THICKNESS
 40
0.0
  9
$LIMCHECK
 70
     0
  9
$CHAMFERA
 40
0.0
  9
$CHAMFERB
 40
0.0
  9
$CHAMFERC
 40
0.0
  9
$CHAMFERD
 40
0.0
  9
$SKPOLY
 70
     0
  9
$TDCREATE
 40
2456762.781890857
  9
$TDUCREATE
 40
2456762.406890857
  9
$TDUPDATE
 40
2456763.459268611
  9
$TDUUPDATE
 40
2456763.084268611
  9
$TDINDWG
 40
0.0080330208
  9
$TDUSRTIMER
 40
2456763.084131065
  9
$USRTIMER
 70
     1
  9
$ANGBASE
 50
0.0
  9
$ANGDIR
 70
     0
  9
$PDMODE
 70
     0
  9
$PDSIZE
 40
0.0
  9
$PLINEWID
 40
0.0
  9
$SPLFRAME
 70
     0
  9
$SPLINETYPE
 70
     6
  9
$SPLINESEGS
 70
     8
  9
$HANDSEED
  5
538
  9
$SURFTAB1
 70
     6
  9
$SURFTAB2
 70
     6
  9
$SURFTYPE
 70
     6
  9
$SURFU
 70
     6
  9
$SURFV
 70
     6
  9
$UCSBASE
  2

  9
$UCSNAME
  2

  9
$UCSORG
 10
0.0
 20
0.0
 30
0.0
  9
$UCSXDIR
 10
1.0
 20
0.0
 30
0.0
  9
$UCSYDIR
 10
0.0
 20
1.0
 30
0.0
  9
$UCSORTHOREF
  2

  9
$UCSORTHOVIEW
 70
     0
  9
$UCSORGTOP
 10
0.0
 20
0.0
 30
0.0
  9
$UCSORGBOTTOM
 10
0.0
 20
0.0
 30
0.0
  9
$UCSORGLEFT
 10
0.0
 20
0.0
 30
0.0
  9
$UCSORGRIGHT
 10
0.0
 20
0.0
 30
0.0
  9
$UCSORGFRONT
 10
0.0
 20
0.0
 30
0.0
  9
$UCSORGBACK
 10
0.0
 20
0.0
 30
0.0
  9
$PUCSBASE
  2

  9
$PUCSNAME
  2

  9
$PUCSORG
 10
0.0
 20
0.0
 30
0.0
  9
$PUCSXDIR
 10
1.0
 20
0.0
 30
0.0
  9
$PUCSYDIR
 10
0.0
 20
1.0
 30
0.0
  9
$PUCSORTHOREF
  2

  9
$PUCSORTHOVIEW
 70
     0
  9
$PUCSORGTOP
 10
0.0
 20
0.0
 30
0.0
  9
$PUCSORGBOTTOM
 10
0.0
 20
0.0
 30
0.0
  9
$PUCSORGLEFT
 10
0.0
 20
0.0
 30
0.0
  9
$PUCSORGRIGHT
 10
0.0
 20
0.0
 30
0.0
  9
$PUCSORGFRONT
 10
0.0
 20
0.0
 30
0.0
  9
$PUCSORGBACK
 10
0.0
 20
0.0
 30
0.0
  9
$USERI1
 70
     0
  9
$USERI2
 70
     0
  9
$USERI3
 70
     0
  9
$USERI4
 70
     0
  9
$USERI5
 70
     0
  9
$USERR1
 40
0.0
  9
$USERR2
 40
0.0
  9
$USERR3
 40
0.0
  9
$USERR4
 40
0.0
  9
$USERR5
 40
0.0
  9
$WORLDVIEW
 70
     1
  9
$SHADEDGE
 70
     3
  9
$SHADEDIF
 70
    70
  9
$TILEMODE
 70
     1
  9
$MAXACTVP
 70
    64
  9
$PINSBASE
 10
0.0
 20
0.0
 30
0.0
  9
$PLIMCHECK
 70
     0
  9
$PEXTMIN
 10
1.000000000000000E+20
 20
1.000000000000000E+20
 30
1.000000000000000E+20
  9
$PEXTMAX
 10
-1.000000000000000E+20
 20
-1.000000000000000E+20
 30
-1.000000000000000E+20
  9
$PLIMMIN
 10
0.0
 20
0.0
  9
$PLIMMAX
 10
0.0
 20
0.0
  9
$UNITMODE
 70
     0
  9
$VISRETAIN
 70
     1
  9
$PLINEGEN
 70
     0
  9
$PSLTSCALE
 70
     1
  9
$TREEDEPTH
 70
  3020
  9
$CMLSTYLE
  2
Standard
  9
$CMLJUST
 70
     0
  9
$CMLSCALE
 40
1.0
  9
$PROXYGRAPHICS
 70
     1
  9
$MEASUREMENT
 70
     0
  9
$CELWEIGHT
370
    -1
  9
$ENDCAPS
280
     0
  9
$JOINSTYLE
280
     0
  9
$LWDISPLAY
290
     0
  9
$INSUNITS
 70
     0
  9
$HYPERLINKBASE
  1

  9
$STYLESHEET
  1

  9
$XEDIT
290
     1
  9
$CEPSNTYPE
380
     0
  9
$PSTYLEMODE
290
     1
  9
$FINGERPRINTGUID
  2
{86861647-54C5-4D57-86C1-E60307BFD033}
  9
$VERSIONGUID
  2
{FAEB1C32-E019-11D5-929B-00C0DF256EC4}
  9
$EXTNAMES
290
     1
  9
$PSVPSCALE
 40
0.0
  9
$OLESTARTUP
290
     0
  9
$SORTENTS
280
   127
  9
$INDEXCTL
280
     0
  9
$HIDETEXT
280
     1
  9
$XCLIPFRAME
290
     0
  9
$HALOGAP
280
     0
  9
$OBSCOLOR
 70
   257
  9
$OBSLTYPE
280
     0
  9
$INTERSECTIONDISPLAY
280
     0
  9
$INTERSECTIONCOLOR
 70
   257
  9
$DIMASSOC
280
     2
  9
$PROJECTNAME
  1

  9
$CAMERADISPLAY
290
     0
  9
$LENSLENGTH
 40
50.0
  9
$CAMERAHEIGHT
 40
0.0
  9
$STEPSPERSEC
 40
2.0
  9
$STEPSIZE
 40
6.0
  9
$3DDWFPREC
 40
2.0
  9
$PSOLWIDTH
 40
0.25
  9
$PSOLHEIGHT
 40
4.0
  9
$LOFTANG1
 40
1.570796326794897
  9
$LOFTANG2
 40
1.570796326794897
  9
$LOFTMAG1
 40
0.0
  9
$LOFTMAG2
 40
0.0
  9
$LOFTPARAM
 70
     7
  9
$LOFTNORMALS
280
     1
  9
$LATITUDE
 40
37.795
  9
$LONGITUDE
 40
-122.394
  9
$NORTHDIRECTION
 40
0.0
  9
$TIMEZONE
 70
 -8000
  9
$LIGHTGLYPHDISPLAY
280
     1
  9
$TILEMODELIGHTSYNCH
280
     1
  9
$SOLIDHIST
280
     1
  9
$SHOWHIST
280
     1
  9
$DWFFRAME
280
     2
  9
$DGNFRAME
280
     2
  9
$REALWORLDSCALE
290
     1
  9
$INTERFERECOLOR
 62
   256
  9
$CSHADOW
280
     0
  9
$SHADOWPLANELOCATION
 40
0.0
  0
ENDSEC
  0
SECTION
  2
CLASSES
  0
CLASS
  1
ACDBDICTIONARYWDFLT
  2
AcDbDictionaryWithDefault
  3
ObjectDBX Classes
 90
        0
 91
        5
280
     0
281
     0
  0
CLASS
  1
SCALE
  2
AcDbScale
  3
ObjectDBX Classes
 90
     1153
 91
        5
280
     0
281
     0
  0
CLASS
  1
VISUALSTYLE
  2
AcDbVisualStyle
  3
ObjectDBX Classes
 90
     4095
 91
        5
280
     0
281
     0
  0
CLASS
  1
MATERIAL
  2
AcDbMaterial
  3
ObjectDBX Classes
 90
     1153
 91
        5
280
     0
281
     0
  0
CLASS
  1
TABLESTYLE
  2
AcDbTableStyle
  3
ObjectDBX Classes
 90
     4095
 91
        5
280
     0
281
     0
  0
CLASS
  1
SUN
  2
AcDbSun
  3
SCENEOE
 90
     1153
 91
        5
280
     0
281
     0
  0
CLASS
  1
RASTERVARIABLES
  2
AcDbRasterVariables
  3
ISM
 90
        0
 91
        5
280
     0
281
     0
  0
CLASS
  1
DIMASSOC
  2
AcDbDimAssoc
  3
"AcDbDimAssoc|Product Desc:     AcDim ARX App For Dimension|Company:          Autodesk, Inc.|WEB Address:      www.autodesk.com"
 90
        0
 91
        4
280
     0
281
     0
  0
CLASS
  1
DICTIONARYVAR
  2
AcDbDictionaryVar
  3
ObjectDBX Classes
 90
        0
 91
        4
280
     0
281
     0
  0
CLASS
  1
CELLSTYLEMAP
  2
AcDbCellStyleMap
  3
ObjectDBX Classes
 90
     1152
 91
        4
280
     0
281
     0
  0
ENDSEC
  0
SECTION
  2
TABLES
  0
TABLE
  2
VPORT
  5
8
330
0
100
AcDbSymbolTable
 70
     1
  0
VPORT
  5
176
330
8
100
AcDbSymbolTableRecord
100
AcDbViewportTableRecord
  2
*Active
 70
     0
 10
0.0
 20
0.0
 11
1.0
 21
1.0
 12
-425.9647916006734
 22
97.39772503987305
 13
0.0
 23
0.0
 14
0.5
 24
0.5
 15
0.5
 25
0.5
 16
0.0
 26
0.0
 36
1.0
 17
0.0
 27
0.0
 37
0.0
 40
499.6003610813206
 41
2.213422818791946
 42
50.0
 43
0.0
 44
0.0
 50
0.0
 51
0.0
 71
    16
 72
   100
 73
     1
 74
     3
 75
     0
 76
     0
 77
     0
 78
     0
281
     0
 65
     1
110
0.0
120
0.0
130
0.0
111
1.0
121
0.0
131
0.0
112
0.0
122
1.0
132
0.0
 79
     0
146
0.0
348
1A2
 60
     3
 61
     5
292
     1
282
     1
141
0.0
142
0.0
 63
   250
361
1BD
  0
ENDTAB
  0
TABLE
  2
LTYPE
  5
5
330
0
100
AcDbSymbolTable
 70
    45
  0
LTYPE
  5
14
330
5
100
AcDbSymbolTableRecord
100
AcDbLinetypeTableRecord
  2
ByBlock
 70
     0
  3

 72
    65
 73
     0
 40
0.0
  0
LTYPE
  5
15
330
5
100
AcDbSymbolTableRecord
100
AcDbLinetypeTableRecord
  2
ByLayer
 70
     0
  3

 72
    65
 73
     0
 40
0.0
  0
LTYPE
  5
16
330
5
100
AcDbSymbolTableRecord
100
AcDbLinetypeTableRecord
  2
CONTINUOUS
 70
     0
  3
実線
 72
    65
 73
     0
 40
0.0
  0
LTYPE
  5
21
330
5
100
AcDbSymbolTableRecord
100
AcDbLinetypeTableRecord
  2
DASHED1
 70
     0
  3
--  --  --  --  --  --  --  --  
 72
    65
 73
     2
 40
2.5
 49
1.25
 74
     0
 49
-1.25
 74
     0
  0
LTYPE
  5
22
330
5
100
AcDbSymbolTableRecord
100
AcDbLinetypeTableRecord
  2
DASHED2
 70
     0
  3
----    ----    ----    ----    
 72
    65
 73
     2
 40
5.0
 49
2.5
 74
     0
 49
-2.5
 74
     0
  0
LTYPE
  5
23
330
5
100
AcDbSymbolTableRecord
100
AcDbLinetypeTableRecord
  2
DASHED3
 70
     0
  3
------  ------  ------  ------  
 72
    65
 73
     2
 40
5.0
 49
3.75
 74
     0
 49
-1.25
 74
     0
  0
LTYPE
  5
24
330
5
100
AcDbSymbolTableRecord
100
AcDbLinetypeTableRecord
  2
CENTER1
 70
     0
  3
----- - ----- - ----- - ----- - 
 72
    65
 73
     4
 40
10.0
 49
6.25
 74
     0
 49
-1.25
 74
     0
 49
1.25
 74
     0
 49
-1.25
 74
     0
  0
LTYPE
  5
25
330
5
100
AcDbSymbolTableRecord
100
AcDbLinetypeTableRecord
  2
CENTER2
 70
     0
  3
----------  --  ----------  --  
 72
    65
 73
     4
 40
20.0
 49
12.5
 74
     0
 49
-2.5
 74
     0
 49
2.5
 74
     0
 49
-2.5
 74
     0
  0
LTYPE
  5
26
330
5
100
AcDbSymbolTableRecord
100
AcDbLinetypeTableRecord
  2
PHANTOM1
 70
     0
  3
--- - - --- - - --- - - --- - - 
 72
    65
 73
     6
 40
9.5
 49
3.25
 74
     0
 49
-1.25
 74
     0
 49
1.25
 74
     0
 49
-1.25
 74
     0
 49
1.25
 74
     0
 49
-1.25
 74
     0
  0
LTYPE
  5
27
330
5
100
AcDbSymbolTableRecord
100
AcDbLinetypeTableRecord
  2
PHANTOM2
 70
     0
  3
--------  -  -  --------  -  -  
 72
    65
 73
     6
 40
20.0
 49
10.0
 74
     0
 49
-2.5
 74
     0
 49
1.25
 74
     0
 49
-2.5
 74
     0
 49
1.25
 74
     0
 49
-2.5
 74
     0
  0
LTYPE
  5
28
330
5
100
AcDbSymbolTableRecord
100
AcDbLinetypeTableRecord
  2
DOT
 70
     0
  3
-   -   -   -   -   -   -   -   
 72
    65
 73
     2
 40
2.5
 49
0.625
 74
     0
 49
-1.875
 74
     0
  0
LTYPE
  5
29
330
5
100
AcDbSymbolTableRecord
100
AcDbLinetypeTableRecord
  2
DUMMY
 70
     0
  3
ダミー
 72
    65
 73
     0
 40
0.0
  0
LTYPE
  5
2A
330
5
100
AcDbSymbolTableRecord
100
AcDbLinetypeTableRecord
  2
RAND1
 70
     0
  3
ランダム線1
 72
    65
 73
     4
 40
10.0
 49
1.0
 74
     0
 49
-2.0
 74
     0
 49
3.0
 74
     0
 49
-4.0
 74
     0
  0
LTYPE
  5
2B
330
5
100
AcDbSymbolTableRecord
100
AcDbLinetypeTableRecord
  2
RAND2
 70
     0
  3
ランダム線2
 72
    65
 73
     4
 40
14.0
 49
2.0
 74
     0
 49
-3.0
 74
     0
 49
4.0
 74
     0
 49
-5.0
 74
     0
  0
LTYPE
  5
2C
330
5
100
AcDbSymbolTableRecord
100
AcDbLinetypeTableRecord
  2
RAND3
 70
     0
  3
ランダム線3
 72
    65
 73
     4
 40
18.0
 49
3.0
 74
     0
 49
-4.0
 74
     0
 49
5.0
 74
     0
 49
-6.0
 74
     0
  0
LTYPE
  5
2D
330
5
100
AcDbSymbolTableRecord
100
AcDbLinetypeTableRecord
  2
RAND4
 70
     0
  3
ランダム線4
 72
    65
 73
     4
 40
22.0
 49
4.0
 74
     0
 49
-5.0
 74
     0
 49
6.0
 74
     0
 49
-7.0
 74
     0
  0
LTYPE
  5
2E
330
5
100
AcDbSymbolTableRecord
100
AcDbLinetypeTableRecord
  2
RAND5
 70
     0
  3
ランダム線5
 72
    65
 73
     4
 40
26.0
 49
5.0
 74
     0
 49
-6.0
 74
     0
 49
7.0
 74
     0
 49
-8.0
 74
     0
  0
LTYPE
  5
2F
330
5
100
AcDbSymbolTableRecord
100
AcDbLinetypeTableRecord
  2
LONG1
 70
     0
  3
----------  --  ----------  --  
 72
    65
 73
     4
 40
40.0
 49
32.5
 74
     0
 49
-2.5
 74
     0
 49
2.5
 74
     0
 49
-2.5
 74
     0
  0
LTYPE
  5
30
330
5
100
AcDbSymbolTableRecord
100
AcDbLinetypeTableRecord
  2
LONG2
 70
     0
  3
--------  -  -  --------  -  -  
 72
    65
 73
     6
 40
40.0
 49
30.0
 74
     0
 49
-2.5
 74
     0
 49
1.25
 74
     0
 49
-2.5
 74
     0
 49
1.25
 74
     0
 49
-2.5
 74
     0
  0
LTYPE
  5
31
330
5
100
AcDbSymbolTableRecord
100
AcDbLinetypeTableRecord
  2
LONG3
 70
     0
  3
+++++++++++++++..+++++++++++++++
 72
    65
 73
     2
 40
40.0
 49
37.5
 74
     0
 49
-2.5
 74
     0
  0
LTYPE
  5
32
330
5
100
AcDbSymbolTableRecord
100
AcDbLinetypeTableRecord
  2
LONG4
 70
     0
  3
+++++++++++++++..+++++++++++++++
 72
    65
 73
     2
 40
80.0
 49
75.0
 74
     0
 49
-5.0
 74
     0
  0
LTYPE
  5
33
330
5
100
AcDbSymbolTableRecord
100
AcDbLinetypeTableRecord
  2
LONG5
 70
     0
  3
----------  --  ----------  --  
 72
    65
 73
     4
 40
60.0
 49
37.5
 74
     0
 49
-7.5
 74
     0
 49
7.5
 74
     0
 49
-7.5
 74
     0
  0
LTYPE
  5
34
330
5
100
AcDbSymbolTableRecord
100
AcDbLinetypeTableRecord
  2
dashed
 70
     0
  3
-------   -------------   ------
 72
    65
 73
     2
 40
7.5
 49
6.0
 74
     0
 49
-1.5
 74
     0
  0
LTYPE
  5
35
330
5
100
AcDbSymbolTableRecord
100
AcDbLinetypeTableRecord
  2
dashed_spaced
 70
     0
  3
----        --------        ----
 72
    65
 73
     2
 40
12.0
 49
6.0
 74
     0
 49
-6.0
 74
     0
  0
LTYPE
  5
36
330
5
100
AcDbSymbolTableRecord
100
AcDbLinetypeTableRecord
  2
long_dashed_dotted
 70
     0
  3
------------- --- --------------
 72
    65
 73
     4
 40
15.25
 49
12.0
 74
     0
 49
-1.5
 74
     0
 49
0.25
 74
     0
 49
-1.5
 74
     0
  0
LTYPE
  5
37
330
5
100
AcDbSymbolTableRecord
100
AcDbLinetypeTableRecord
  2
long_dashed_double-dotted
 70
     0
  3
----------- --- --- ------------
 72
    65
 73
     6
 40
17.0
 49
12.0
 74
     0
 49
-1.5
 74
     0
 49
0.25
 74
     0
 49
-1.5
 74
     0
 49
0.25
 74
     0
 49
-1.5
 74
     0
  0
LTYPE
  5
38
330
5
100
AcDbSymbolTableRecord
100
AcDbLinetypeTableRecord
  2
long_dashed_triplicate-dotted
 70
     0
  3
--------- --- --- --- ----------
 72
    65
 73
     8
 40
18.75
 49
12.0
 74
     0
 49
-1.5
 74
     0
 49
0.25
 74
     0
 49
-1.5
 74
     0
 49
0.25
 74
     0
 49
-1.5
 74
     0
 49
0.25
 74
     0
 49
-1.5
 74
     0
  0
LTYPE
  5
39
330
5
100
AcDbSymbolTableRecord
100
AcDbLinetypeTableRecord
  2
dotted
 70
     0
  3
   -       -       -       -    
 72
    65
 73
     2
 40
1.75
 49
0.25
 74
     0
 49
-1.5
 74
     0
  0
LTYPE
  5
3A
330
5
100
AcDbSymbolTableRecord
100
AcDbLinetypeTableRecord
  2
chain
 70
     0
  3
-------------- -- --------------
 72
    65
 73
     4
 40
18.5
 49
12.0
 74
     0
 49
-1.5
 74
     0
 49
3.5
 74
     0
 49
-1.5
 74
     0
  0
LTYPE
  5
3B
330
5
100
AcDbSymbolTableRecord
100
AcDbLinetypeTableRecord
  2
chain_double_dash
 70
     0
  3
------------ -- -- -------------
 72
    65
 73
     6
 40
23.5
 49
12.0
 74
     0
 49
-1.5
 74
     0
 49
3.5
 74
     0
 49
-1.5
 74
     0
 49
3.5
 74
     0
 49
-1.5
 74
     0
  0
LTYPE
  5
3C
330
5
100
AcDbSymbolTableRecord
100
AcDbLinetypeTableRecord
  2
dashed_dotted
 70
     0
  3
-----------     -     ----------
 72
    65
 73
     4
 40
9.25
 49
6.0
 74
     0
 49
-1.5
 74
     0
 49
0.25
 74
     0
 49
-1.5
 74
     0
  0
LTYPE
  5
3D
330
5
100
AcDbSymbolTableRecord
100
AcDbLinetypeTableRecord
  2
double-dashed_dotted
 70
     0
  3
------   -----------   -   -----
 72
    65
 73
     6
 40
16.75
 49
6.0
 74
     0
 49
-1.5
 74
     0
 49
6.0
 74
     0
 49
-1.5
 74
     0
 49
0.25
 74
     0
 49
-1.5
 74
     0
  0
LTYPE
  5
3E
330
5
100
AcDbSymbolTableRecord
100
AcDbLinetypeTableRecord
  2
dashed_double-dotted
 70
     0
  3
---------    -    -    ---------
 72
    65
 73
     6
 40
11.0
 49
6.0
 74
     0
 49
-1.5
 74
     0
 49
0.25
 74
     0
 49
-1.5
 74
     0
 49
0.25
 74
     0
 49
-1.5
 74
     0
  0
LTYPE
  5
3F
330
5
100
AcDbSymbolTableRecord
100
AcDbLinetypeTableRecord
  2
double-dashed_double-dotted
 70
     0
  3
-----   ---------   -   -   ----
 72
    65
 73
     8
 40
18.5
 49
6.0
 74
     0
 49
-1.5
 74
     0
 49
6.0
 74
     0
 49
-1.5
 74
     0
 49
0.25
 74
     0
 49
-1.5
 74
     0
 49
0.25
 74
     0
 49
-1.5
 74
     0
  0
LTYPE
  5
40
330
5
100
AcDbSymbolTableRecord
100
AcDbLinetypeTableRecord
  2
dashed_triplicate-dotted
 70
     0
  3
-------    -    -    -    ------
 72
    65
 73
     8
 40
12.75
 49
6.0
 74
     0
 49
-1.5
 74
     0
 49
0.25
 74
     0
 49
-1.5
 74
     0
 49
0.25
 74
     0
 49
-1.5
 74
     0
 49
0.25
 74
     0
 49
-1.5
 74
     0
  0
LTYPE
  5
41
330
5
100
AcDbSymbolTableRecord
100
AcDbLinetypeTableRecord
  2
double-dashed_triplicate-dotted
 70
     0
  3
-----  ---------  -  -  -  -----
 72
    65
 73
    10
 40
20.25
 49
6.0
 74
     0
 49
-1.5
 74
     0
 49
6.0
 74
     0
 49
-1.5
 74
     0
 49
0.25
 74
     0
 49
-1.5
 74
     0
 49
0.25
 74
     0
 49
-1.5
 74
     0
 49
0.25
 74
     0
 49
-1.5
 74
     0
  0
LTYPE
  5
42
330
5
100
AcDbSymbolTableRecord
100
AcDbLinetypeTableRecord
  2
undefined
 70
     0
  3
--------------------------------
 72
    65
 73
     0
 40
0.0
  0
LTYPE
  5
43
330
5
100
AcDbSymbolTableRecord
100
AcDbLinetypeTableRecord
  2
STYLE_01
 70
     0
  3
----        --------        ----
 72
    65
 73
     2
 40
0.4166399999999998
 49
0.2082799999999999
 74
     0
 49
-0.2083599999999999
 74
     0
  0
LTYPE
  5
44
330
5
100
AcDbSymbolTableRecord
100
AcDbLinetypeTableRecord
  2
STYLE_02
 70
     0
  3
------     -----------     -----
 72
    65
 73
     2
 40
0.6944250000000001
 49
0.48607
 74
     0
 49
-0.2083550000000001
 74
     0
  0
LTYPE
  5
45
330
5
100
AcDbSymbolTableRecord
100
AcDbLinetypeTableRecord
  2
STYLE_03
 70
     0
  3
-------   -------------   ------
 72
    65
 73
     2
 40
1.25
 49
1.04164
 74
     0
 49
-0.2083599999999999
 74
     0
  0
LTYPE
  5
46
330
5
100
AcDbSymbolTableRecord
100
AcDbLinetypeTableRecord
  2
STYLE_04
 70
     0
  3
-------  --------------  -------
 72
    65
 73
     2
 40
1.52771
 49
1.319425
 74
     0
 49
-0.208285
 74
     0
  0
LTYPE
  5
47
330
5
100
AcDbSymbolTableRecord
100
AcDbLinetypeTableRecord
  2
STYLE_05
 70
     0
  3
---           -----           --
 72
    65
 73
     2
 40
0.20828
 49
0.069425
 74
     0
 49
-0.138855
 74
     0
  0
LTYPE
  5
48
330
5
100
AcDbSymbolTableRecord
100
AcDbLinetypeTableRecord
  2
STYLE_06
 70
     0
  3
----------      --    ----------
 72
    65
 73
     4
 40
1.04164
 49
0.625
 74
     0
 49
-0.2082799999999999
 74
     0
 49
0.06943
 74
     0
 49
-0.13893
 74
     0
  0
LTYPE
  5
49
330
5
100
AcDbSymbolTableRecord
100
AcDbLinetypeTableRecord
  2
STYLE_07
 70
     0
  3
-----    -----------    -  -----
 72
    65
 73
     6
 40
1.875
 49
0.625
 74
     0
 49
-0.2082799999999999
 74
     0
 49
0.6250000000000001
 74
     0
 49
-0.2083599999999999
 74
     0
 49
0.06943
 74
     0
 49
-0.1389299999999998
 74
     0
  0
LTYPE
  5
4A
330
5
100
AcDbSymbolTableRecord
100
AcDbLinetypeTableRecord
  2
STYLE_08
 70
     0
  3
--------     --    --    -------
 72
    65
 73
     6
 40
1.25
 49
0.625
 74
     0
 49
-0.2082799999999999
 74
     0
 49
0.06943
 74
     0
 49
-0.13893
 74
     0
 49
0.0694299999999997
 74
     0
 49
-0.13893
 74
     0
  0
LTYPE
  5
4B
330
5
100
AcDbSymbolTableRecord
100
AcDbLinetypeTableRecord
  2
STYLE_09
 70
     0
  3
------------  ----  ------------
 72
    65
 73
     4
 40
5.0
 49
3.75
 74
     0
 49
-0.2777849999999997
 74
     0
 49
0.6944300000000003
 74
     0
 49
-0.2777849999999997
 74
     0
  0
LTYPE
  5
4C
330
5
100
AcDbSymbolTableRecord
100
AcDbLinetypeTableRecord
  2
STYLE_10
 70
     0
  3
----------- ---- ---  ----------
 72
    65
 73
     6
 40
5.9375
 49
3.75
 74
     0
 49
-0.2777849999999997
 74
     0
 49
0.6944300000000003
 74
     0
 49
-0.2777849999999997
 74
     0
 49
0.625
 74
     0
 49
-0.3125
 74
     0
  0
ENDTAB
  0
TABLE
  2
LAYER
  5
2
330
0
100
AcDbSymbolTable
 70
     7
  0
LAYER
  5
10
330
2
100
AcDbSymbolTableRecord
100
AcDbLayerTableRecord
  2
0
 70
     0
 62
     7
  6
CONTINUOUS
370
    -3
390
F
347
1B9
  0
LAYER
  5
4F
330
2
100
AcDbSymbolTableRecord
100
AcDbLayerTableRecord
  2
_0-0_0
 70
     0
 62
     7
  6
CONTINUOUS
370
    -3
390
F
347
1B9
  0
LAYER
  5
50
330
2
100
AcDbSymbolTableRecord
100
AcDbLayerTableRecord
  2
_0-1_1_5
 70
     0
 62
     7
  6
CONTINUOUS
370
    -3
390
F
347
1B9
  0
LAYER
  5
51
330
2
100
AcDbSymbolTableRecord
100
AcDbLayerTableRecord
  2
_0-2_ADD_LINE
 70
     0
 62
     7
  6
CONTINUOUS
370
    -3
390
F
347
1B9
  0
LAYER
  5
52
330
2
100
AcDbSymbolTableRecord
100
AcDbLayerTableRecord
  2
_0-3_
 70
     0
 62
     7
  6
CONTINUOUS
370
    -3
390
F
347
1B9
  0
LAYER
  5
53
330
2
100
AcDbSymbolTableRecord
100
AcDbLayerTableRecord
  2
ADD_LINE
 70
     0
 62
     7
  6
CONTINUOUS
370
    -3
390
F
347
1B9
  0
LAYER
  5
1C0
330
2
100
AcDbSymbolTableRecord
100
AcDbLayerTableRecord
  2
Defpoints
 70
     0
 62
     7
  6
CONTINUOUS
290
     0
370
    -3
390
F
347
1B9
  0
ENDTAB
  0
TABLE
  2
STYLE
  5
3
330
0
100
AcDbSymbolTable
 70
     3
  0
STYLE
  5
11
330
3
100
AcDbSymbolTableRecord
100
AcDbTextStyleTableRecord
  2
STANDARD
 70
     0
 40
0.0
 41
1.0
 50
0.0
 71
     0
 42
0.2
  3
txt
  4
bigfont.shx
  0
STYLE
  5
4E
330
3
100
AcDbSymbolTableRecord
100
AcDbTextStyleTableRecord
  2
TATEGAKI
 70
     4
 40
0.0
 41
1.0
 50
0.0
 71
     0
 42
1.0
  3
txt
  4
bigfont.shx
  0
STYLE
  5
1CD
330
3
100
AcDbSymbolTableRecord
100
AcDbTextStyleTableRecord
  2
ＭＳ ゴシック
 70
     0
 40
0.0
 41
1.0
 50
0.0
 71
     0
 42
0.2
  3
msgothic.ttc
  4
ＭＳ ゴシック
1001
ACAD
1000
ＭＳ ゴシック
1071
        0
  0
ENDTAB
  0
TABLE
  2
VIEW
  5
6
330
0
100
AcDbSymbolTable
 70
     0
  0
ENDTAB
  0
TABLE
  2
UCS
  5
7
330
0
100
AcDbSymbolTable
 70
     0
  0
ENDTAB
  0
TABLE
  2
APPID
  5
9
330
0
100
AcDbSymbolTable
 70
     1
  0
APPID
  5
12
330
9
100
AcDbSymbolTableRecord
100
AcDbRegAppTableRecord
  2
ACAD
 70
     0
  0
ENDTAB
  0
TABLE
  2
DIMSTYLE
  5
A
330
0
100
AcDbSymbolTable
 70
     2
100
AcDbDimStyleTable
  0
DIMSTYLE
105
54
330
A
100
AcDbSymbolTableRecord
100
AcDbDimStyleTableRecord
  2
Standard
 70
     0
178
     0
340
11
  0
DIMSTYLE
105
1CC
102
{ACAD_REACTORS
330
401
330
402
330
405
330
406
330
409
330
40C
330
51B
102
}
330
A
100
AcDbSymbolTableRecord
100
AcDbDimStyleTableRecord
  2
T-form線あり
 70
     0
  3
<>
  4
[]
 41
7.99951171875
 42
49.99999999999999
 43
0.9999999999999999
 44
0.0
 73
     0
 74
     0
 77
     1
 78
    11
140
48.86523437500001
141
0.0
143
0.0393700787401575
147
0.4999999999999999
171
     3
172
     1
174
     1
178
     0
179
     2
271
     1
272
     1
273
     4
276
     2
284
    11
285
    15
286
    15
289
     0
340
1CD
341
1CE
342
1CE
  0
ENDTAB
  0
TABLE
  2
BLOCK_RECORD
  5
1
330
0
100
AcDbSymbolTable
 70
    16
  0
BLOCK_RECORD
  5
1D
330
1
100
AcDbSymbolTableRecord
100
AcDbBlockTableRecord
  2
*Model_Space
340
1E
 70
     0
280
     1
281
     0
  0
BLOCK_RECORD
  5
1B
330
1
100
AcDbSymbolTableRecord
100
AcDbBlockTableRecord
  2
*Paper_Space
340
1C
 70
     0
280
     1
281
     0
  0
BLOCK_RECORD
  5
1CE
330
1
100
AcDbSymbolTableRecord
100
AcDbBlockTableRecord
  2
_DOT
340
0
102
{BLKREFS
331
2D2
331
2D3
331
2E1
331
2E2
331
2EE
331
2EF
331
2FD
331
2FE
331
30C
331
30D
331
31D
331
31E
331
417
331
418
331
423
331
424
331
42F
331
430
331
43B
331
43C
331
447
331
448
331
455
331
456
331
48E
331
48F
331
511
331
512
331
522
331
523
102
}
 70
     0
280
     1
281
     0
  0
BLOCK_RECORD
  5
411
330
1
100
AcDbSymbolTableRecord
100
AcDbBlockTableRecord
  2
*D7
340
0
 70
     0
280
     1
281
     0
  0
BLOCK_RECORD
  5
41D
330
1
100
AcDbSymbolTableRecord
100
AcDbBlockTableRecord
  2
*D8
340
0
 70
     0
280
     1
281
     0
  0
BLOCK_RECORD
  5
429
330
1
100
AcDbSymbolTableRecord
100
AcDbBlockTableRecord
  2
*D9
340
0
 70
     0
280
     1
281
     0
  0
BLOCK_RECORD
  5
435
330
1
100
AcDbSymbolTableRecord
100
AcDbBlockTableRecord
  2
*D10
340
0
 70
     0
280
     1
281
     0
  0
BLOCK_RECORD
  5
441
330
1
100
AcDbSymbolTableRecord
100
AcDbBlockTableRecord
  2
*D11
340
0
 70
     0
280
     1
281
     0
  0
BLOCK_RECORD
  5
44D
330
1
100
AcDbSymbolTableRecord
100
AcDbBlockTableRecord
  2
*D12
340
0
 70
     0
280
     1
281
     0
  0
BLOCK_RECORD
  5
51C
330
1
100
AcDbSymbolTableRecord
100
AcDbBlockTableRecord
  2
*D15
340
0
 70
     0
280
     1
281
     0
  0
ENDTAB
  0
ENDSEC
  0
SECTION
  2
BLOCKS
  0
BLOCK
  5
199
330
1D
100
AcDbEntity
  8
0
100
AcDbBlockBegin
  2
*Model_Space
 70
     0
 10
0.0
 20
0.0
 30
0.0
  3
*Model_Space
  1
*Model_Space
  0
ENDBLK
  5
19A
330
1D
100
AcDbEntity
  8
0
100
AcDbBlockEnd
  0
BLOCK
  5
19B
330
1B
100
AcDbEntity
 67
     1
  8
0
100
AcDbBlockBegin
  2
*Paper_Space
 70
     0
 10
0.0
 20
0.0
 30
0.0
  3
*Paper_Space
  1
*Paper_Space
  0
ENDBLK
  5
19C
330
1B
100
AcDbEntity
 67
     1
  8
0
100
AcDbBlockEnd
  0
BLOCK
  5
1CF
330
1CE
100
AcDbEntity
  8
0
390
F
100
AcDbBlockBegin
  2
_DOT
 70
     0
 10
0.0
 20
0.0
 30
0.0
  3
_DOT
  1
_DOT
  0
POLYLINE
  5
1D0
330
1CE
100
AcDbEntity
  8
0
  6
ByBlock
 62
     0
370
    -2
390
F
100
AcDb2dPolyline
 66
     1
 10
0.0
 20
0.0
 30
0.0
 70
     1
 40
0.5
 41
0.5
  0
VERTEX
  5
1D1
330
1D0
100
AcDbEntity
  8
0
  6
ByBlock
 62
     0
370
    -2
390
F
100
AcDbVertex
100
AcDb2dVertex
 10
-0.25
 20
0.0
 30
0.0
 42
1.0
  0
VERTEX
  5
1D2
330
1D0
100
AcDbEntity
  8
0
  6
ByBlock
 62
     0
370
    -2
390
F
100
AcDbVertex
100
AcDb2dVertex
 10
0.25
 20
0.0
 30
0.0
 42
1.0
  0
SEQEND
  5
1D3
330
1D0
100
AcDbEntity
  8
0
390
F
  0
LINE
  5
1D4
330
1CE
100
AcDbEntity
  8
0
  6
ByBlock
 62
     0
370
    -2
390
F
100
AcDbLine
 10
-0.5
 20
0.0
 30
0.0
 11
-1.0
 21
0.0
 31
0.0
  0
ENDBLK
  5
1D5
330
1CE
100
AcDbEntity
  8
0
390
F
100
AcDbBlockEnd
  0
BLOCK
  5
412
330
411
100
AcDbEntity
  8
0
100
AcDbBlockBegin
  2
*D7
 70
     1
 10
0.0
 20
0.0
 30
0.0
  3
*D7
  1
*D8
  0
LINE
  5
414
330
411
100
AcDbEntity
  8
0
  6
ByBlock
 62
     0
370
    -2
100
AcDbLine
 10
-712.4047746190238
 20
194.0873510871257
 30
0.0
 11
-712.4047746190238
 21
244.4829749282698
 31
0.0
  0
LINE
  5
415
330
411
100
AcDbEntity
  8
0
  6
ByBlock
 62
     0
370
    -2
100
AcDbLine
 10
-404.4047746190229
 20
194.0873510871257
 30
0.0
 11
-404.4047746190229
 21
244.4829749282698
 31
0.0
  0
LINE
  5
416
330
411
100
AcDbEntity
  8
0
  6
ByBlock
 62
     0
370
    -2
100
AcDbLine
 10
-710.8048722752737
 20
244.4829749282698
 30
0.0
 11
-406.0046769627729
 21
244.4829749282698
 31
0.0
  0
INSERT
  5
417
330
411
100
AcDbEntity
  8
0
 62
     0
370
    -2
100
AcDbBlockReference
  2
_DOT
 10
-712.4047746190238
 20
244.4829749282698
 30
0.0
 41
1.59990234375
 42
1.59990234375
 43
1.59990234375
 50
180.0
  0
INSERT
  5
418
330
411
100
AcDbEntity
  8
0
 62
     0
370
    -2
100
AcDbBlockReference
  2
_DOT
 10
-404.4047746190229
 20
244.4829749282698
 30
0.0
 41
1.59990234375
 42
1.59990234375
 43
1.59990234375
  0
MTEXT
  5
419
330
411
100
AcDbEntity
  8
0
  6
ByBlock
 62
     0
100
AcDbMText
 10
-558.4047746190233
 20
249.4829749282698
 30
0.0
 40
6.0
 41
0.0
 46
0.0
 71
     5
 72
     1
  1
\A1;308
  7
ＭＳ ゴシック
 73
     1
 44
1.0
  0
POINT
  5
41A
330
411
100
AcDbEntity
  8
Defpoints
 62
     0
100
AcDbPoint
 10
-712.4047746190238
 20
184.0873510871257
 30
0.0
  0
POINT
  5
41B
330
411
100
AcDbEntity
  8
Defpoints
 62
     0
100
AcDbPoint
 10
-404.4047746190229
 20
184.0873510871257
 30
0.0
  0
POINT
  5
41C
330
411
100
AcDbEntity
  8
Defpoints
 62
     0
100
AcDbPoint
 10
-404.4047746190229
 20
244.4829749282698
 30
0.0
  0
ENDBLK
  5
413
330
411
100
AcDbEntity
  8
0
100
AcDbBlockEnd
  0
BLOCK
  5
41E
330
41D
100
AcDbEntity
  8
0
100
AcDbBlockBegin
  2
*D8
 70
     1
 10
0.0
 20
0.0
 30
0.0
  3
*D8
  1
*D9
  0
LINE
  5
420
330
41D
100
AcDbEntity
  8
0
  6
ByBlock
 62
     0
370
    -2
100
AcDbLine
 10
-698.4047746190238
 20
198.0873510871257
 30
0.0
 11
-698.4047746190238
 21
221.7967693746462
 31
0.0
  0
LINE
  5
421
330
41D
100
AcDbEntity
  8
0
  6
ByBlock
 62
     0
370
    -2
100
AcDbLine
 10
-418.4047746190229
 20
198.0873510871257
 30
0.0
 11
-418.4047746190229
 21
221.7967693746462
 31
0.0
  0
LINE
  5
422
330
41D
100
AcDbEntity
  8
0
  6
ByBlock
 62
     0
370
    -2
100
AcDbLine
 10
-696.8048722752737
 20
221.7967693746462
 30
0.0
 11
-420.0046769627729
 21
221.7967693746462
 31
0.0
  0
INSERT
  5
423
330
41D
100
AcDbEntity
  8
0
 62
     0
370
    -2
100
AcDbBlockReference
  2
_DOT
 10
-698.4047746190238
 20
221.7967693746462
 30
0.0
 41
1.59990234375
 42
1.59990234375
 43
1.59990234375
 50
180.0
  0
INSERT
  5
424
330
41D
100
AcDbEntity
  8
0
 62
     0
370
    -2
100
AcDbBlockReference
  2
_DOT
 10
-418.4047746190229
 20
221.7967693746462
 30
0.0
 41
1.59990234375
 42
1.59990234375
 43
1.59990234375
  0
MTEXT
  5
425
330
41D
100
AcDbEntity
  8
0
  6
ByBlock
 62
     0
100
AcDbMText
 10
-558.4047746190233
 20
226.7967693746462
 30
0.0
 40
6.0
 41
0.0
 46
0.0
 71
     5
 72
     1
  1
\A1;280
  7
ＭＳ ゴシック
 73
     1
 44
1.0
  0
POINT
  5
426
330
41D
100
AcDbEntity
  8
Defpoints
 62
     0
100
AcDbPoint
 10
-698.4047746190238
 20
194.0873510871257
 30
0.0
  0
POINT
  5
427
330
41D
100
AcDbEntity
  8
Defpoints
 62
     0
100
AcDbPoint
 10
-418.4047746190229
 20
194.0873510871257
 30
0.0
  0
POINT
  5
428
330
41D
100
AcDbEntity
  8
Defpoints
 62
     0
100
AcDbPoint
 10
-418.4047746190229
 20
221.7967693746462
 30
0.0
  0
ENDBLK
  5
41F
330
41D
100
AcDbEntity
  8
0
100
AcDbBlockEnd
  0
BLOCK
  5
42A
330
429
100
AcDbEntity
  8
0
100
AcDbBlockBegin
  2
*D9
 70
     1
 10
0.0
 20
0.0
 30
0.0
  3
*D9
  1
*D10
  0
LINE
  5
42C
330
429
100
AcDbEntity
  8
0
  6
ByBlock
 62
     0
370
    -2
100
AcDbLine
 10
-232.4507642279269
 20
199.1358445814933
 30
0.0
 11
-232.4507642279269
 21
233.2775186118437
 31
0.0
  0
LINE
  5
42D
330
429
100
AcDbEntity
  8
0
  6
ByBlock
 62
     0
370
    -2
100
AcDbLine
 10
-286.4728115439684
 20
199.1358445814933
 30
0.0
 11
-286.4728115439684
 21
233.2775186118437
 31
0.0
  0
LINE
  5
42E
330
429
100
AcDbEntity
  8
0
  6
ByBlock
 62
     0
370
    -2
100
AcDbLine
 10
-234.0506665716769
 20
233.2775186118437
 30
0.0
 11
-284.8729092002184
 21
233.2775186118437
 31
0.0
  0
INSERT
  5
42F
330
429
100
AcDbEntity
  8
0
 62
     0
370
    -2
100
AcDbBlockReference
  2
_DOT
 10
-232.4507642279269
 20
233.2775186118437
 30
0.0
 41
1.59990234375
 42
1.59990234375
 43
1.59990234375
  0
INSERT
  5
430
330
429
100
AcDbEntity
  8
0
 62
     0
370
    -2
100
AcDbBlockReference
  2
_DOT
 10
-286.4728115439684
 20
233.2775186118437
 30
0.0
 41
1.59990234375
 42
1.59990234375
 43
1.59990234375
 50
180.0
  0
MTEXT
  5
431
330
429
100
AcDbEntity
  8
0
  6
ByBlock
 62
     0
100
AcDbMText
 10
-259.4617878859476
 20
238.2775186118437
 30
0.0
 40
6.0
 41
0.0
 46
0.0
 71
     5
 72
     1
  1
\A1;54
  7
ＭＳ ゴシック
 73
     1
 44
1.0
  0
POINT
  5
432
330
429
100
AcDbEntity
  8
Defpoints
 62
     0
100
AcDbPoint
 10
-232.4507642279269
 20
198.1358445814933
 30
0.0
  0
POINT
  5
433
330
429
100
AcDbEntity
  8
Defpoints
 62
     0
100
AcDbPoint
 10
-286.4728115439684
 20
198.1358445814933
 30
0.0
  0
POINT
  5
434
330
429
100
AcDbEntity
  8
Defpoints
 62
     0
100
AcDbPoint
 10
-286.4728115439684
 20
233.2775186118437
 30
0.0
  0
ENDBLK
  5
42B
330
429
100
AcDbEntity
  8
0
100
AcDbBlockEnd
  0
BLOCK
  5
436
330
435
100
AcDbEntity
  8
0
100
AcDbBlockBegin
  2
*D10
 70
     1
 10
0.0
 20
0.0
 30
0.0
  3
*D10
  1
*D11
  0
LINE
  5
438
330
435
100
AcDbEntity
  8
0
  6
ByBlock
 62
     0
370
    -2
100
AcDbLine
 10
-296.8507642279268
 20
174.0873510871259
 30
0.0
 11
-317.4341897266809
 21
174.0873510871259
 31
0.0
  0
LINE
  5
439
330
435
100
AcDbEntity
  8
0
  6
ByBlock
 62
     0
370
    -2
100
AcDbLine
 10
-296.8507642279268
 20
194.0873510871259
 30
0.0
 11
-317.4341897266809
 21
194.0873510871259
 31
0.0
  0
LINE
  5
43A
330
435
100
AcDbEntity
  8
0
  6
ByBlock
 62
     0
370
    -2
100
AcDbLine
 10
-317.4341897266809
 20
175.6872534308759
 30
0.0
 11
-317.4341897266809
 21
192.4874487433759
 31
0.0
  0
INSERT
  5
43B
330
435
100
AcDbEntity
  8
0
 62
     0
370
    -2
100
AcDbBlockReference
  2
_DOT
 10
-317.4341897266809
 20
174.0873510871259
 30
0.0
 41
1.59990234375
 42
1.59990234375
 43
1.59990234375
 50
270.0
  0
INSERT
  5
43C
330
435
100
AcDbEntity
  8
0
 62
     0
370
    -2
100
AcDbBlockReference
  2
_DOT
 10
-317.4341897266809
 20
194.0873510871259
 30
0.0
 41
1.59990234375
 42
1.59990234375
 43
1.59990234375
 50
90.0
  0
MTEXT
  5
43D
330
435
100
AcDbEntity
  8
0
  6
ByBlock
 62
     0
100
AcDbMText
 10
-322.9201897266809
 20
184.0873510871259
 30
0.0
 40
6.0
 41
0.0
 46
0.0
 71
     5
 72
     1
  1
\A1;φ20
  7
ＭＳ ゴシック
 11
0.0
 21
1.0
 31
0.0
 73
     1
 44
1.0
  0
POINT
  5
43E
330
435
100
AcDbEntity
  8
Defpoints
 62
     0
100
AcDbPoint
 10
-296.4507642279269
 20
174.0873510871259
 30
0.0
  0
POINT
  5
43F
330
435
100
AcDbEntity
  8
Defpoints
 62
     0
100
AcDbPoint
 10
-296.4507642279269
 20
194.0873510871259
 30
0.0
  0
POINT
  5
440
330
435
100
AcDbEntity
  8
Defpoints
 62
     0
100
AcDbPoint
 10
-317.4341897266809
 20
194.0873510871259
 30
0.0
  0
ENDBLK
  5
437
330
435
100
AcDbEntity
  8
0
100
AcDbBlockEnd
  0
BLOCK
  5
442
330
441
100
AcDbEntity
  8
0
100
AcDbBlockBegin
  2
*D11
 70
     1
 10
0.0
 20
0.0
 30
0.0
  3
*D11
  1
*D12
  0
LINE
  5
444
330
441
100
AcDbEntity
  8
0
  6
ByBlock
 62
     0
370
    -2
100
AcDbLine
 10
-400.4047746190237
 20
68.10399384920078
 30
0.0
 11
-386.5366368349341
 21
68.10399384920078
 31
0.0
  0
LINE
  5
445
330
441
100
AcDbEntity
  8
0
  6
ByBlock
 62
     0
370
    -2
100
AcDbLine
 10
-404.4047746190237
 20
4.103993849201004
 30
0.0
 11
-386.5366368349341
 21
4.103993849201002
 31
0.0
  0
LINE
  5
446
330
441
100
AcDbEntity
  8
0
  6
ByBlock
 62
     0
370
    -2
100
AcDbLine
 10
-386.5366368349341
 20
66.50409150545077
 30
0.0
 11
-386.5366368349341
 21
5.703896192951002
 31
0.0
  0
INSERT
  5
447
330
441
100
AcDbEntity
  8
0
 62
     0
370
    -2
100
AcDbBlockReference
  2
_DOT
 10
-386.5366368349341
 20
68.10399384920078
 30
0.0
 41
1.59990234375
 42
1.59990234375
 43
1.59990234375
 50
90.0
  0
INSERT
  5
448
330
441
100
AcDbEntity
  8
0
 62
     0
370
    -2
100
AcDbBlockReference
  2
_DOT
 10
-386.5366368349341
 20
4.103993849201002
 30
0.0
 41
1.59990234375
 42
1.59990234375
 43
1.59990234375
 50
270.0
  0
MTEXT
  5
449
330
441
100
AcDbEntity
  8
0
  6
ByBlock
 62
     0
100
AcDbMText
 10
-391.5366368349341
 20
36.10399384920089
 30
0.0
 40
6.0
 41
0.0
 46
0.0
 71
     5
 72
     1
  1
\A1;64
  7
ＭＳ ゴシック
 11
0.0
 21
1.0
 31
0.0
 73
     1
 44
1.0
  0
POINT
  5
44A
330
441
100
AcDbEntity
  8
Defpoints
 62
     0
100
AcDbPoint
 10
-404.4047746190237
 20
68.10399384920078
 30
0.0
  0
POINT
  5
44B
330
441
100
AcDbEntity
  8
Defpoints
 62
     0
100
AcDbPoint
 10
-408.4047746190237
 20
4.103993849201004
 30
0.0
  0
POINT
  5
44C
330
441
100
AcDbEntity
  8
Defpoints
 62
     0
100
AcDbPoint
 10
-386.5366368349341
 20
4.103993849201002
 30
0.0
  0
ENDBLK
  5
443
330
441
100
AcDbEntity
  8
0
100
AcDbBlockEnd
  0
BLOCK
  5
44E
330
44D
100
AcDbEntity
  8
0
100
AcDbBlockBegin
  2
*D12
 70
     1
 10
0.0
 20
0.0
 30
0.0
  3
*D12
  1
*D13
  0
LINE
  5
450
330
44D
100
AcDbEntity
  8
0
  6
ByBlock
 62
     0
370
    -2
100
AcDbLine
 10
-559.4047746190238
 20
9.103993849201004
 30
0.0
 11
-558.4047746190238
 21
9.103993849201004
 31
0.0
  0
LINE
  5
451
330
44D
100
AcDbEntity
  8
0
  6
ByBlock
 62
     0
370
    -2
100
AcDbLine
 10
-559.4047746190238
 20
19.103993849201
 30
0.0
 11
-558.4047746190238
 21
19.103993849201
 31
0.0
  0
LINE
  5
452
330
44D
100
AcDbEntity
  8
0
  6
ByBlock
 62
     0
370
    -2
100
AcDbLine
 10
-558.4047746190238
 20
9.103993849201004
 30
0.0
 11
-558.4047746190238
 21
19.103993849201
 31
0.0
  0
LINE
  5
453
330
44D
100
AcDbEntity
  8
0
  6
ByBlock
 62
     0
370
    -2
100
AcDbLine
 10
-558.4047746190238
 20
7.504091505451004
 30
0.0
 11
-558.4047746190238
 21
5.904189161701003
 31
0.0
  0
LINE
  5
454
330
44D
100
AcDbEntity
  8
0
  6
ByBlock
 62
     0
370
    -2
100
AcDbLine
 10
-558.4047746190238
 20
20.703896192951
 30
0.0
 11
-558.4047746190238
 21
22.303798536701
 31
0.0
  0
INSERT
  5
455
330
44D
100
AcDbEntity
  8
0
 62
     0
370
    -2
100
AcDbBlockReference
  2
_DOT
 10
-558.4047746190238
 20
9.103993849201004
 30
0.0
 41
1.59990234375
 42
1.59990234375
 43
1.59990234375
 50
90.0
  0
INSERT
  5
456
330
44D
100
AcDbEntity
  8
0
 62
     0
370
    -2
100
AcDbBlockReference
  2
_DOT
 10
-558.4047746190238
 20
19.103993849201
 30
0.0
 41
1.59990234375
 42
1.59990234375
 43
1.59990234375
 50
270.0
  0
MTEXT
  5
457
330
44D
100
AcDbEntity
  8
0
  6
ByBlock
 62
     0
100
AcDbMText
 10
-562.1232590542946
 20
29.79431958997958
 30
0.0
 40
6.0
 41
0.0
 46
0.0
 71
     5
 72
     1
  1
\A1;φ10
  7
ＭＳ ゴシック
 11
0.0
 21
1.0
 31
0.0
 73
     1
 44
1.0
  0
POINT
  5
458
330
44D
100
AcDbEntity
  8
Defpoints
 62
     0
100
AcDbPoint
 10
-558.4047746190238
 20
9.103993849201004
 30
0.0
  0
POINT
  5
459
330
44D
100
AcDbEntity
  8
Defpoints
 62
     0
100
AcDbPoint
 10
-558.4047746190238
 20
19.103993849201
 30
0.0
  0
POINT
  5
45A
330
44D
100
AcDbEntity
  8
Defpoints
 62
     0
100
AcDbPoint
 10
-558.4047746190238
 20
19.103993849201
 30
0.0
  0
ENDBLK
  5
44F
330
44D
100
AcDbEntity
  8
0
100
AcDbBlockEnd
  0
BLOCK
  5
51D
330
51C
100
AcDbEntity
  8
0
100
AcDbBlockBegin
  2
*D15
 70
     1
 10
0.0
 20
0.0
 30
0.0
  3
*D15
  1
*D17
  0
LINE
  5
51F
330
51C
100
AcDbEntity
  8
0
  6
ByBlock
 62
     0
370
    -2
100
AcDbLine
 10
-232.4507642279269
 20
169.0873510871257
 30
0.0
 11
-232.4507642279269
 21
155.4454201608581
 31
0.0
  0
LINE
  5
520
330
51C
100
AcDbEntity
  8
0
  6
ByBlock
 62
     0
370
    -2
100
AcDbLine
 10
-236.4507642279269
 20
169.0873510871257
 30
0.0
 11
-236.4507642279269
 21
155.4454201608581
 31
0.0
  0
LINE
  5
521
330
51C
100
AcDbEntity
  8
0
  6
ByBlock
 62
     0
370
    -2
100
AcDbLine
 10
-234.0506665716769
 20
155.4454201608581
 30
0.0
 11
-234.8508618841769
 21
155.4454201608581
 31
0.0
  0
INSERT
  5
522
330
51C
100
AcDbEntity
  8
0
 62
     0
370
    -2
100
AcDbBlockReference
  2
_DOT
 10
-232.4507642279269
 20
155.4454201608581
 30
0.0
 41
1.59990234375
 42
1.59990234375
 43
1.59990234375
  0
INSERT
  5
523
330
51C
100
AcDbEntity
  8
0
 62
     0
370
    -2
100
AcDbBlockReference
  2
_DOT
 10
-236.4507642279269
 20
155.4454201608581
 30
0.0
 41
1.59990234375
 42
1.59990234375
 43
1.59990234375
 50
180.0
  0
MTEXT
  5
524
330
51C
100
AcDbEntity
  8
0
  6
ByBlock
 62
     0
100
AcDbMText
 10
-234.4507642279269
 20
160.4454201608581
 30
0.0
 40
6.0
 41
0.0
 46
0.0
 71
     5
 72
     1
  1
\A1;4
  7
ＭＳ ゴシック
 73
     1
 44
1.0
  0
POINT
  5
525
330
51C
100
AcDbEntity
  8
Defpoints
 62
     0
100
AcDbPoint
 10
-232.4507642279269
 20
170.0873510871257
 30
0.0
  0
POINT
  5
526
330
51C
100
AcDbEntity
  8
Defpoints
 62
     0
100
AcDbPoint
 10
-236.4507642279269
 20
170.0873510871257
 30
0.0
  0
POINT
  5
527
330
51C
100
AcDbEntity
  8
Defpoints
 62
     0
100
AcDbPoint
 10
-236.4507642279269
 20
155.4454201608581
 30
0.0
  0
ENDBLK
  5
51E
330
51C
100
AcDbEntity
  8
0
100
AcDbBlockEnd
  0
ENDSEC
  0
SECTION
  2
ENTITIES
  0
TEXT
  5
329
330
1D
100
AcDbEntity
  8
_0-3_
 62
     7
100
AcDbText
 10
-539.1115284420268
 20
-66.29024416093037
 30
0.0
 40
5.0
  1
ステンレススチール
  7
ＭＳ ゴシック
100
AcDbText
  0
LINE
  5
32A
330
1D
100
AcDbEntity
  8
_0-0_0
  6
Continuous
 62
     7
100
AcDbLine
 10
-761.2983459259849
 20
335.7593700835788
 30
0.0
 11
-761.2983459259849
 21
-84.24062991642111
 31
0.0
  0
LINE
  5
32B
330
1D
100
AcDbEntity
  8
_0-0_0
  6
Continuous
 62
     7
100
AcDbLine
 10
-761.2983459259849
 20
-84.24062991642111
 30
0.0
 11
-167.2983459259849
 21
-84.24062991642117
 31
0.0
  0
LINE
  5
32C
330
1D
100
AcDbEntity
  8
_0-0_0
  6
Continuous
 62
     7
100
AcDbLine
 10
-167.2983459259849
 20
-84.24062991642117
 30
0.0
 11
-167.2983459259849
 21
335.7593700835788
 31
0.0
  0
LINE
  5
32D
330
1D
100
AcDbEntity
  8
_0-0_0
  6
Continuous
 62
     7
100
AcDbLine
 10
-167.2983459259849
 20
335.7593700835788
 30
0.0
 11
-761.2983459259849
 21
335.7593700835788
 31
0.0
  0
TEXT
  5
32E
330
1D
100
AcDbEntity
  8
_0-3_
 62
     7
100
AcDbText
 10
-553.0210247128388
 20
-62.90051903637286
 30
0.0
 40
4.0
  1
材質
100
AcDbText
  0
TEXT
  5
32F
330
1D
100
AcDbEntity
  8
_0-3_
 62
     7
100
AcDbText
 10
-553.0210247128388
 20
-50.41778546170892
 30
0.0
 40
4.0
  1
仕上げ
100
AcDbText
  0
TEXT
  5
330
330
1D
100
AcDbEntity
  8
_0-3_
 62
     7
100
AcDbText
 10
-553.0210247128388
 20
-38.55918856577822
 30
0.0
 40
4.0
  1
品名
100
AcDbText
  0
LINE
  5
331
330
1D
100
AcDbEntity
  8
_0-3_
  6
Continuous
 62
     7
100
AcDbLine
 10
-368.9451058671298
 20
-68.80054147173993
 30
0.0
 11
-368.9451058671298
 21
-32.80054147173988
 31
0.0
  0
LINE
  5
332
330
1D
100
AcDbEntity
  8
_0-3_
  6
Continuous
 62
     7
100
AcDbLine
 10
-182.2784391871298
 20
-32.80054147173988
 30
0.0
 11
-555.9728643024134
 21
-32.80054147173988
 31
0.0
  0
LINE
  5
333
330
1D
100
AcDbEntity
  8
_0-3_
  6
Continuous
 62
     7
100
AcDbLine
 10
-182.2784391871298
 20
-44.80054147173988
 30
0.0
 11
-555.9728643024134
 21
-44.80054147173988
 31
0.0
  0
LINE
  5
334
330
1D
100
AcDbEntity
  8
_0-3_
  6
Continuous
 62
     7
100
AcDbLine
 10
-182.2784391871298
 20
-56.80054147173988
 30
0.0
 11
-555.9728643024134
 21
-56.80054147173988
 31
0.0
  0
LINE
  5
335
330
1D
100
AcDbEntity
  8
_0-3_
  6
Continuous
 62
     7
100
AcDbLine
 10
-555.9728643024134
 20
-68.80054147173988
 30
0.0
 11
-555.9728643024134
 21
-32.80054147173988
 31
0.0
  0
TEXT
  5
336
330
1D
100
AcDbEntity
  8
_0-3_
 62
     7
100
AcDbText
 10
-366.3719924941095
 20
-39.06031944540851
 30
0.0
 40
4.0
  1
品番
100
AcDbText
  0
TEXT
  5
337
330
1D
100
AcDbEntity
  8
_0-3_
 62
     7
100
AcDbText
 10
-366.3719924941095
 20
-50.7390421641006
 30
0.0
 40
4.0
  1
縮尺
100
AcDbText
  0
TEXT
  5
338
330
1D
100
AcDbEntity
  8
_0-3_
 62
     7
100
AcDbText
 10
-741.1665331737428
 20
-76.72518315284262
 30
0.0
 40
5.0
  1
140415SH
  7
ＭＳ ゴシック
100
AcDbText
  0
LINE
  5
339
330
1D
100
AcDbEntity
  8
_0-3_
  6
Continuous
 62
     7
100
AcDbLine
 10
-742.2784391871298
 20
321.1994585282603
 30
0.0
 11
-742.2784391871298
 21
-68.80054147173988
 31
0.0
  0
LINE
  5
33A
330
1D
100
AcDbEntity
  8
_0-3_
  6
Continuous
 62
     7
100
AcDbLine
 10
-742.2784391871298
 20
-68.80054147173988
 30
0.0
 11
-182.2784391871298
 21
-68.80054147173993
 31
0.0
  0
LINE
  5
33B
330
1D
100
AcDbEntity
  8
_0-3_
  6
Continuous
 62
     7
100
AcDbLine
 10
-182.2784391871298
 20
-68.80054147173993
 30
0.0
 11
-182.2784391871298
 21
321.1994585282602
 31
0.0
  0
TEXT
  5
33C
330
1D
100
AcDbEntity
  8
_0-3_
 62
     7
100
AcDbText
 10
-539.1115284420268
 20
-41.8817496157138
 30
0.0
 40
5.0
  1
タオルバー
  7
ＭＳ ゴシック
100
AcDbText
  0
TEXT
  5
33D
330
1D
100
AcDbEntity
  8
_0-3_
 62
     7
100
AcDbText
 10
-352.4348113359009
 20
-66.9968598944184
 30
0.0
 40
5.0
  1
大洋金物株式会社  ティーエフプラス事業部
  7
ＭＳ ゴシック
100
AcDbText
  0
TEXT
  5
33E
330
1D
100
AcDbEntity
  8
_0-3_
 62
     7
100
AcDbText
 10
-539.1115284420268
 20
-54.18895335243464
 30
0.0
 40
5.0
  1
サテン
  7
ＭＳ ゴシック
100
AcDbText
  0
LINE
  5
33F
330
1D
100
AcDbEntity
  8
_0-1_1_5
  6
Continuous
 62
     7
100
AcDbLine
 10
-688.4047746190238
 20
4.103993849201004
 30
0.0
 11
-688.4047746190238
 21
64.10399384920078
 31
0.0
  0
LINE
  5
340
330
1D
100
AcDbEntity
  8
_0-1_1_5
  6
Continuous
 62
     7
100
AcDbLine
 10
-408.4047746190237
 20
4.103993849201004
 30
0.0
 11
-408.4047746190237
 21
64.10399384920078
 31
0.0
  0
LINE
  5
341
330
1D
100
AcDbEntity
  8
_0-1_1_5
  6
Continuous
 62
     7
100
AcDbLine
 10
-428.4047746190238
 20
4.103993849201004
 30
0.0
 11
-428.4047746190238
 21
64.10399384920078
 31
0.0
  0
LINE
  5
342
102
{ACAD_REACTORS
330
40B
102
}
330
1D
100
AcDbEntity
  8
_0-1_1_5
  6
Continuous
 62
     7
100
AcDbLine
 10
-428.4047746190238
 20
4.103993849201004
 30
0.0
 11
-408.4047746190237
 21
4.103993849201004
 31
0.0
  0
LINE
  5
343
330
1D
100
AcDbEntity
  8
_0-1_1_5
  6
Continuous
 62
     7
100
AcDbLine
 10
-408.4047746190237
 20
64.10399384920078
 30
0.0
 11
-428.4047746190238
 21
64.10399384920078
 31
0.0
  0
LINE
  5
344
330
1D
100
AcDbEntity
  8
_0-1_1_5
  6
Continuous
 62
     7
100
AcDbLine
 10
-418.4047746190238
 20
91.57246604066552
 30
0.0
 11
-420.1546766133198
 21
85.9475352817463
 31
0.0
  0
LINE
  5
345
330
1D
100
AcDbEntity
  8
_0-1_1_5
  6
Continuous
 62
     7
100
AcDbLine
 10
-418.4047746190238
 20
91.57246604066552
 30
0.0
 11
-416.6548726247279
 21
85.9475352817463
 31
0.0
  0
LINE
  5
346
330
1D
100
AcDbEntity
  8
_0-1_1_5
  6
Continuous
 62
     7
100
AcDbLine
 10
-416.7716828777719
 20
63.44781224607055
 30
0.0
 11
-420.2714868663637
 21
64.8540449358
 31
0.0
  0
LINE
  5
347
330
1D
100
AcDbEntity
  8
_0-1_1_5
  6
Continuous
 62
     7
100
AcDbLine
 10
-416.7716828777719
 20
64.8540449358
 30
0.0
 11
-420.2714868663637
 21
66.26027762553016
 31
0.0
  0
LINE
  5
348
330
1D
100
AcDbEntity
  8
_0-1_1_5
  6
Continuous
 62
     7
100
AcDbLine
 10
-416.7716828777719
 20
70.47897569471951
 30
0.0
 11
-420.2714868663637
 21
71.8852083844491
 31
0.0
  0
LINE
  5
349
330
1D
100
AcDbEntity
  8
_0-1_1_5
  6
Continuous
 62
     7
100
AcDbLine
 10
-416.7716828777719
 20
69.07274300498949
 30
0.0
 11
-420.2714868663637
 21
70.47897569471951
 31
0.0
  0
LINE
  5
34A
330
1D
100
AcDbEntity
  8
_0-1_1_5
  6
Continuous
 62
     7
100
AcDbLine
 10
-416.7716828777719
 20
71.8852083844491
 30
0.0
 11
-420.2714868663637
 21
73.29144107417869
 31
0.0
  0
LINE
  5
34B
330
1D
100
AcDbEntity
  8
_0-1_1_5
  6
Continuous
 62
     7
100
AcDbLine
 10
-416.7716828777719
 20
73.29144107417869
 30
0.0
 11
-420.2714868663637
 21
74.69767376390843
 31
0.0
  0
LINE
  5
34C
330
1D
100
AcDbEntity
  8
_0-1_1_5
  6
Continuous
 62
     7
100
AcDbLine
 10
-416.7716828777719
 20
74.69767376390843
 30
0.0
 11
-420.2714868663637
 21
76.10390645363816
 31
0.0
  0
LINE
  5
34D
330
1D
100
AcDbEntity
  8
_0-1_1_5
  6
Continuous
 62
     7
100
AcDbLine
 10
-416.7716828777719
 20
76.10390645363816
 30
0.0
 11
-420.2714868663637
 21
77.51013914336804
 31
0.0
  0
LINE
  5
34E
330
1D
100
AcDbEntity
  8
_0-1_1_5
  6
Continuous
 62
     7
100
AcDbLine
 10
-416.7716828777719
 20
77.51013914336804
 30
0.0
 11
-420.2714868663637
 21
78.91637183309763
 31
0.0
  0
LINE
  5
34F
330
1D
100
AcDbEntity
  8
_0-1_1_5
  6
Continuous
 62
     7
100
AcDbLine
 10
-416.7716828777719
 20
78.91637183309763
 30
0.0
 11
-420.2714868663637
 21
80.32260452282736
 31
0.0
  0
LINE
  5
350
330
1D
100
AcDbEntity
  8
_0-1_1_5
  6
Continuous
 62
     7
100
AcDbLine
 10
-416.7716828777719
 20
66.26027762553016
 30
0.0
 11
-420.2714868663637
 21
67.66651031525961
 31
0.0
  0
LINE
  5
351
330
1D
100
AcDbEntity
  8
_0-1_1_5
  6
Continuous
 62
     7
100
AcDbLine
 10
-416.7716828777719
 20
80.32260452282736
 30
0.0
 11
-420.2714868663637
 21
81.72883721255738
 31
0.0
  0
LINE
  5
352
330
1D
100
AcDbEntity
  8
_0-1_1_5
  6
Continuous
 62
     7
100
AcDbLine
 10
-416.7716828777719
 20
83.13506990228697
 30
0.0
 11
-420.2714868663637
 21
84.54130259201685
 31
0.0
  0
LINE
  5
353
330
1D
100
AcDbEntity
  8
_0-1_1_5
  6
Continuous
 62
     7
100
AcDbLine
 10
-416.7716828777719
 20
84.54130259201685
 30
0.0
 11
-420.2714868663637
 21
85.9475352817463
 31
0.0
  0
LINE
  5
354
330
1D
100
AcDbEntity
  8
_0-1_1_5
  6
Continuous
 62
     7
100
AcDbLine
 10
-416.7716828777719
 20
81.72883721255738
 30
0.0
 11
-420.2714868663637
 21
83.13506990228697
 31
0.0
  0
LINE
  5
355
330
1D
100
AcDbEntity
  8
_0-1_1_5
  6
Continuous
 62
     7
100
AcDbLine
 10
-416.7716828777719
 20
67.66651031525961
 30
0.0
 11
-420.2714868663637
 21
69.07274300498949
 31
0.0
  0
LINE
  5
356
330
1D
100
AcDbEntity
  8
_0-1_1_5
  6
Continuous
 62
     7
100
AcDbLine
 10
-420.1546766133198
 20
63.09557515496962
 30
0.0
 11
-420.1546766133198
 21
85.9469813530985
 31
0.0
  0
LINE
  5
357
330
1D
100
AcDbEntity
  8
_0-1_1_5
  6
Continuous
 62
     7
100
AcDbLine
 10
-416.6548726247279
 20
63.09557515496962
 30
0.0
 11
-416.6548726247279
 21
85.9475352817463
 31
0.0
  0
LINE
  5
358
330
1D
100
AcDbEntity
  8
_0-1_1_5
  6
Continuous
 62
     7
100
AcDbLine
 10
-708.4047746190238
 20
4.103993849201004
 30
0.0
 11
-688.4047746190238
 21
4.103993849201004
 31
0.0
  0
LINE
  5
359
330
1D
100
AcDbEntity
  8
_0-1_1_5
  6
Continuous
 62
     7
100
AcDbLine
 10
-708.4047746190238
 20
4.103993849201004
 30
0.0
 11
-708.4047746190238
 21
64.10399384920078
 31
0.0
  0
LINE
  5
35A
330
1D
100
AcDbEntity
  8
_0-1_1_5
  6
Continuous
 62
     7
100
AcDbLine
 10
-708.4047746190238
 20
64.10399384920078
 30
0.0
 11
-688.4047746190238
 21
64.10399384920078
 31
0.0
  0
LINE
  5
35B
330
1D
100
AcDbEntity
  8
_0-1_1_5
  6
Continuous
 62
     7
100
AcDbLine
 10
-698.4047746190238
 20
91.57246604066552
 30
0.0
 11
-700.1546766133197
 21
85.9475352817463
 31
0.0
  0
LINE
  5
35C
330
1D
100
AcDbEntity
  8
_0-1_1_5
  6
Continuous
 62
     7
100
AcDbLine
 10
-698.4047746190238
 20
91.57246604066552
 30
0.0
 11
-696.654872624728
 21
85.9475352817463
 31
0.0
  0
LINE
  5
35D
330
1D
100
AcDbEntity
  8
_0-1_1_5
  6
Continuous
 62
     7
100
AcDbLine
 10
-696.7716828777718
 20
63.44781224607055
 30
0.0
 11
-700.2714868663637
 21
64.8540449358
 31
0.0
  0
LINE
  5
35E
330
1D
100
AcDbEntity
  8
_0-1_1_5
  6
Continuous
 62
     7
100
AcDbLine
 10
-696.7716828777718
 20
64.8540449358
 30
0.0
 11
-700.2714868663637
 21
66.26027762553016
 31
0.0
  0
LINE
  5
35F
330
1D
100
AcDbEntity
  8
_0-1_1_5
  6
Continuous
 62
     7
100
AcDbLine
 10
-696.7716828777718
 20
70.47897569471951
 30
0.0
 11
-700.2714868663637
 21
71.8852083844491
 31
0.0
  0
LINE
  5
360
330
1D
100
AcDbEntity
  8
_0-1_1_5
  6
Continuous
 62
     7
100
AcDbLine
 10
-696.7716828777718
 20
69.07274300498949
 30
0.0
 11
-700.2714868663637
 21
70.47897569471951
 31
0.0
  0
LINE
  5
361
330
1D
100
AcDbEntity
  8
_0-1_1_5
  6
Continuous
 62
     7
100
AcDbLine
 10
-696.7716828777718
 20
71.8852083844491
 30
0.0
 11
-700.2714868663637
 21
73.29144107417869
 31
0.0
  0
LINE
  5
362
330
1D
100
AcDbEntity
  8
_0-1_1_5
  6
Continuous
 62
     7
100
AcDbLine
 10
-696.7716828777718
 20
73.29144107417869
 30
0.0
 11
-700.2714868663637
 21
74.69767376390843
 31
0.0
  0
LINE
  5
363
330
1D
100
AcDbEntity
  8
_0-1_1_5
  6
Continuous
 62
     7
100
AcDbLine
 10
-696.7716828777718
 20
74.69767376390843
 30
0.0
 11
-700.2714868663637
 21
76.10390645363816
 31
0.0
  0
LINE
  5
364
330
1D
100
AcDbEntity
  8
_0-1_1_5
  6
Continuous
 62
     7
100
AcDbLine
 10
-696.7716828777718
 20
76.10390645363816
 30
0.0
 11
-700.2714868663637
 21
77.51013914336804
 31
0.0
  0
LINE
  5
365
330
1D
100
AcDbEntity
  8
_0-1_1_5
  6
Continuous
 62
     7
100
AcDbLine
 10
-696.7716828777718
 20
77.51013914336804
 30
0.0
 11
-700.2714868663637
 21
78.91637183309763
 31
0.0
  0
LINE
  5
366
330
1D
100
AcDbEntity
  8
_0-1_1_5
  6
Continuous
 62
     7
100
AcDbLine
 10
-696.7716828777718
 20
78.91637183309763
 30
0.0
 11
-700.2714868663637
 21
80.32260452282736
 31
0.0
  0
LINE
  5
367
330
1D
100
AcDbEntity
  8
_0-1_1_5
  6
Continuous
 62
     7
100
AcDbLine
 10
-696.7716828777718
 20
66.26027762553016
 30
0.0
 11
-700.2714868663637
 21
67.66651031525961
 31
0.0
  0
LINE
  5
368
330
1D
100
AcDbEntity
  8
_0-1_1_5
  6
Continuous
 62
     7
100
AcDbLine
 10
-696.7716828777718
 20
80.32260452282736
 30
0.0
 11
-700.2714868663637
 21
81.72883721255738
 31
0.0
  0
LINE
  5
369
330
1D
100
AcDbEntity
  8
_0-1_1_5
  6
Continuous
 62
     7
100
AcDbLine
 10
-696.7716828777718
 20
83.13506990228697
 30
0.0
 11
-700.2714868663637
 21
84.54130259201685
 31
0.0
  0
LINE
  5
36A
330
1D
100
AcDbEntity
  8
_0-1_1_5
  6
Continuous
 62
     7
100
AcDbLine
 10
-696.7716828777718
 20
84.54130259201685
 30
0.0
 11
-700.2714868663637
 21
85.9475352817463
 31
0.0
  0
LINE
  5
36B
330
1D
100
AcDbEntity
  8
_0-1_1_5
  6
Continuous
 62
     7
100
AcDbLine
 10
-696.7716828777718
 20
81.72883721255738
 30
0.0
 11
-700.2714868663637
 21
83.13506990228697
 31
0.0
  0
LINE
  5
36C
330
1D
100
AcDbEntity
  8
_0-1_1_5
  6
Continuous
 62
     7
100
AcDbLine
 10
-696.7716828777718
 20
67.66651031525961
 30
0.0
 11
-700.2714868663637
 21
69.07274300498949
 31
0.0
  0
LINE
  5
36D
330
1D
100
AcDbEntity
  8
_0-1_1_5
  6
Continuous
 62
     7
100
AcDbLine
 10
-700.1546766133197
 20
63.09557515496962
 30
0.0
 11
-700.1546766133197
 21
85.9469813530985
 31
0.0
  0
LINE
  5
36E
330
1D
100
AcDbEntity
  8
_0-1_1_5
  6
Continuous
 62
     7
100
AcDbLine
 10
-696.654872624728
 20
63.09557515496962
 30
0.0
 11
-696.654872624728
 21
85.9475352817463
 31
0.0
  0
LINE
  5
36F
102
{ACAD_REACTORS
330
40E
102
}
330
1D
100
AcDbEntity
  8
_0-1_1_5
  6
Continuous
 62
     7
100
AcDbLine
 10
-688.4047746190238
 20
19.103993849201
 30
0.0
 11
-428.4047746190238
 21
19.103993849201
 31
0.0
  0
LINE
  5
370
330
1D
100
AcDbEntity
  8
_0-1_1_5
  6
Continuous
 62
     7
100
AcDbLine
 10
-688.4047746190238
 20
19.103993849201
 30
0.0
 11
-667.2948117028436
 21
19.103993849201
 31
0.0
  0
LINE
  5
371
330
1D
100
AcDbEntity
  8
_0-1_1_5
  6
Continuous
 62
     7
100
AcDbLine
 10
-688.4047746190238
 20
9.103993849201004
 30
0.0
 11
-667.2948117028436
 21
9.103993849201004
 31
0.0
  0
LINE
  5
372
102
{ACAD_REACTORS
330
40E
102
}
330
1D
100
AcDbEntity
  8
_0-1_1_5
  6
Continuous
 62
     7
100
AcDbLine
 10
-688.4047746190238
 20
9.103993849201004
 30
0.0
 11
-428.4047746190238
 21
9.103993849201004
 31
0.0
  0
LINE
  5
373
330
1D
100
AcDbEntity
  8
_0-1_1_5
  6
DASHED2
 62
     7
100
AcDbLine
 10
-413.2823192675822
 20
49.09557515496951
 30
0.0
 11
-423.2823192675822
 21
49.09557515496951
 31
0.0
  0
LINE
  5
374
330
1D
100
AcDbEntity
  8
_0-1_1_5
  6
STYLE_01
 62
     7
100
AcDbLine
 10
-414.904774619024
 20
49.62341889443255
 30
0.0
 11
-416.6548726247279
 21
51.37351690013631
 31
0.0
  0
LINE
  5
375
330
1D
100
AcDbEntity
  8
_0-1_1_5
  6
DASHED2
 62
     7
100
AcDbLine
 10
-416.7716828777719
 20
61.82288148715168
 30
0.0
 11
-420.2714868663637
 21
63.22911417688113
 31
0.0
  0
LINE
  5
376
330
1D
100
AcDbEntity
  8
_0-1_1_5
  6
DASHED2
 62
     7
100
AcDbLine
 10
-416.7716828777719
 20
60.42288148715144
 30
0.0
 11
-420.2714868663637
 21
61.82911417688126
 31
0.0
  0
LINE
  5
377
330
1D
100
AcDbEntity
  8
_0-1_1_5
  6
DASHED2
 62
     7
100
AcDbLine
 10
-416.7716828777719
 20
59.02288148715158
 30
0.0
 11
-420.2714868663637
 21
60.4291141768814
 31
0.0
  0
LINE
  5
378
330
1D
100
AcDbEntity
  8
_0-1_1_5
  6
DASHED2
 62
     7
100
AcDbLine
 10
-416.7716828777719
 20
57.6228814871516
 30
0.0
 11
-420.2714868663637
 21
59.02911417688117
 31
0.0
  0
LINE
  5
379
330
1D
100
AcDbEntity
  8
_0-1_1_5
  6
DASHED2
 62
     7
100
AcDbLine
 10
-416.7716828777719
 20
56.22288148715174
 30
0.0
 11
-420.2714868663637
 21
57.6291141768813
 31
0.0
  0
LINE
  5
37A
330
1D
100
AcDbEntity
  8
_0-1_1_5
  6
DASHED2
 62
     7
100
AcDbLine
 10
-416.7716828777719
 20
54.82288148715188
 30
0.0
 11
-420.2714868663637
 21
56.22911417688132
 31
0.0
  0
LINE
  5
37B
330
1D
100
AcDbEntity
  8
_0-1_1_5
  6
DASHED2
 62
     7
100
AcDbLine
 10
-416.7716828777719
 20
53.42288148715173
 30
0.0
 11
-420.2714868663637
 21
54.82911417688146
 31
0.0
  0
LINE
  5
37C
330
1D
100
AcDbEntity
  8
_0-1_1_5
  6
DASHED2
 62
     7
100
AcDbLine
 10
-416.7716828777719
 20
52.02288148715169
 30
0.0
 11
-420.2714868663637
 21
53.4291141768816
 31
0.0
  0
LINE
  5
37D
330
1D
100
AcDbEntity
  8
_0-1_1_5
  6
DASHED2
 62
     7
100
AcDbLine
 10
-418.6398493850144
 20
51.37351690013668
 30
0.0
 11
-420.2714868663637
 21
52.02911417688128
 31
0.0
  0
LINE
  5
37E
330
1D
100
AcDbEntity
  8
_0-1_1_5
  6
DASHED2
 62
     7
100
AcDbLine
 10
-420.1546766133198
 20
51.37351690013668
 30
0.0
 11
-416.6548726247279
 21
51.37351690013668
 31
0.0
  0
LINE
  5
37F
330
1D
100
AcDbEntity
  8
_0-1_1_5
  6
DASHED2
 62
     7
100
AcDbLine
 10
-421.9047746190238
 20
49.62341889443255
 30
0.0
 11
-420.1546766133198
 21
51.37351690013668
 31
0.0
  0
LINE
  5
380
330
1D
100
AcDbEntity
  8
_0-1_1_5
  6
DASHED2
 62
     7
100
AcDbLine
 10
-420.1546766133198
 20
51.37351690013668
 30
0.0
 11
-420.1546766133198
 21
67.09557515496962
 31
0.0
  0
LINE
  5
381
330
1D
100
AcDbEntity
  8
_0-1_1_5
  6
DASHED2
 62
     7
100
AcDbLine
 10
-416.6548726247282
 20
51.37351690013668
 30
0.0
 11
-416.6548726247279
 21
67.09557515496962
 31
0.0
  0
LINE
  5
382
330
1D
100
AcDbEntity
  8
_0-1_1_5
  6
DASHED2
 62
     7
100
AcDbLine
 10
-412.2823192675822
 20
64.09557515496951
 30
0.0
 11
-412.2823192675822
 21
59.34557515496985
 31
0.0
  0
LINE
  5
383
330
1D
100
AcDbEntity
  8
_0-1_1_5
  6
DASHED2
 62
     7
100
AcDbLine
 10
-412.2823192675822
 20
59.34557515496985
 30
0.0
 11
-413.2823192675822
 21
59.34557515496985
 31
0.0
  0
LINE
  5
384
330
1D
100
AcDbEntity
  8
_0-1_1_5
  6
DASHED2
 62
     7
100
AcDbLine
 10
-413.2823192675822
 20
59.34557515496985
 30
0.0
 11
-413.2823192675822
 21
54.84557515496968
 31
0.0
  0
LINE
  5
385
330
1D
100
AcDbEntity
  8
_0-1_1_5
  6
DASHED2
 62
     7
100
AcDbLine
 10
-413.2823192675822
 20
54.84557515496968
 30
0.0
 11
-412.2823192675822
 21
54.84557515496968
 31
0.0
  0
LINE
  5
386
330
1D
100
AcDbEntity
  8
_0-1_1_5
  6
DASHED2
 62
     7
100
AcDbLine
 10
-412.2823192675822
 20
54.84557515496968
 30
0.0
 11
-412.2823192675822
 21
49.09557515496951
 31
0.0
  0
LINE
  5
387
330
1D
100
AcDbEntity
  8
_0-1_1_5
  6
DASHED2
 62
     7
100
AcDbLine
 10
-412.2823192675822
 20
49.09557515496951
 30
0.0
 11
-413.2823192675822
 21
49.09557515496951
 31
0.0
  0
LINE
  5
388
330
1D
100
AcDbEntity
  8
_0-1_1_5
  6
DASHED2
 62
     7
100
AcDbLine
 10
-413.2823192675822
 20
49.09557515496951
 30
0.0
 11
-415.7823192675822
 21
51.59557515496951
 31
0.0
  0
LINE
  5
389
330
1D
100
AcDbEntity
  8
_0-1_1_5
  6
DASHED2
 62
     7
100
AcDbLine
 10
-415.7823192675822
 20
51.59557515496951
 30
0.0
 11
-415.7823192675822
 21
64.0955751549698
 31
0.0
  0
LINE
  5
38A
330
1D
100
AcDbEntity
  8
_0-1_1_5
  6
DASHED2
 62
     7
100
AcDbLine
 10
-420.7823192675822
 20
64.09557515496965
 30
0.0
 11
-415.7823192675822
 21
64.09557515496965
 31
0.0
  0
LINE
  5
38B
330
1D
100
AcDbEntity
  8
_0-1_1_5
  6
DASHED2
 62
     7
100
AcDbLine
 10
-428.2900599610165
 20
64.09557515496951
 30
0.0
 11
-424.2823192675822
 21
64.09557515496951
 31
0.0
  0
LINE
  5
38C
330
1D
100
AcDbEntity
  8
_0-1_1_5
  6
DASHED2
 62
     7
100
AcDbLine
 10
-424.2823192675822
 20
64.09557515496951
 30
0.0
 11
-424.2823192675822
 21
59.34557515496985
 31
0.0
  0
LINE
  5
38D
330
1D
100
AcDbEntity
  8
_0-1_1_5
  6
DASHED2
 62
     7
100
AcDbLine
 10
-424.2823192675822
 20
59.34557515496985
 30
0.0
 11
-423.2823192675822
 21
59.34557515496985
 31
0.0
  0
LINE
  5
38E
330
1D
100
AcDbEntity
  8
_0-1_1_5
  6
DASHED2
 62
     7
100
AcDbLine
 10
-423.2823192675822
 20
59.34557515496985
 30
0.0
 11
-423.2823192675822
 21
54.84557515496968
 31
0.0
  0
LINE
  5
38F
330
1D
100
AcDbEntity
  8
_0-1_1_5
  6
DASHED2
 62
     7
100
AcDbLine
 10
-423.2823192675822
 20
54.84557515496968
 30
0.0
 11
-424.2823192675822
 21
54.84557515496968
 31
0.0
  0
LINE
  5
390
330
1D
100
AcDbEntity
  8
_0-1_1_5
  6
DASHED2
 62
     7
100
AcDbLine
 10
-424.2823192675822
 20
54.84557515496968
 30
0.0
 11
-424.2823192675822
 21
49.09557515496951
 31
0.0
  0
LINE
  5
391
330
1D
100
AcDbEntity
  8
_0-1_1_5
  6
DASHED2
 62
     7
100
AcDbLine
 10
-424.2823192675822
 20
49.09557515496951
 30
0.0
 11
-423.2823192675822
 21
49.09557515496951
 31
0.0
  0
LINE
  5
392
330
1D
100
AcDbEntity
  8
_0-1_1_5
  6
DASHED2
 62
     7
100
AcDbLine
 10
-423.2823192675822
 20
49.09557515496951
 30
0.0
 11
-420.7823192675822
 21
51.59557515496951
 31
0.0
  0
LINE
  5
393
330
1D
100
AcDbEntity
  8
_0-1_1_5
  6
DASHED2
 62
     7
100
AcDbLine
 10
-420.7823192675822
 20
51.59557515496951
 30
0.0
 11
-420.7823192675822
 21
64.0955751549698
 31
0.0
  0
LINE
  5
394
330
1D
100
AcDbEntity
  8
_0-1_1_5
  6
DASHED2
 62
     7
100
AcDbLine
 10
-693.2823192675822
 20
49.09557515496951
 30
0.0
 11
-703.2823192675822
 21
49.09557515496951
 31
0.0
  0
LINE
  5
395
330
1D
100
AcDbEntity
  8
_0-1_1_5
  6
STYLE_01
 62
     7
100
AcDbLine
 10
-694.9047746190239
 20
49.62341889443255
 30
0.0
 11
-696.654872624728
 21
51.37351690013631
 31
0.0
  0
LINE
  5
396
330
1D
100
AcDbEntity
  8
_0-1_1_5
  6
DASHED2
 62
     7
100
AcDbLine
 10
-696.7716828777718
 20
61.82288148715168
 30
0.0
 11
-700.2714868663637
 21
63.22911417688113
 31
0.0
  0
LINE
  5
397
330
1D
100
AcDbEntity
  8
_0-1_1_5
  6
DASHED2
 62
     7
100
AcDbLine
 10
-696.7716828777718
 20
60.42288148715144
 30
0.0
 11
-700.2714868663637
 21
61.82911417688126
 31
0.0
  0
LINE
  5
398
330
1D
100
AcDbEntity
  8
_0-1_1_5
  6
DASHED2
 62
     7
100
AcDbLine
 10
-696.7716828777718
 20
59.02288148715158
 30
0.0
 11
-700.2714868663637
 21
60.4291141768814
 31
0.0
  0
LINE
  5
399
330
1D
100
AcDbEntity
  8
_0-1_1_5
  6
DASHED2
 62
     7
100
AcDbLine
 10
-696.7716828777718
 20
57.6228814871516
 30
0.0
 11
-700.2714868663637
 21
59.02911417688117
 31
0.0
  0
LINE
  5
39A
330
1D
100
AcDbEntity
  8
_0-1_1_5
  6
DASHED2
 62
     7
100
AcDbLine
 10
-696.7716828777718
 20
56.22288148715174
 30
0.0
 11
-700.2714868663637
 21
57.6291141768813
 31
0.0
  0
LINE
  5
39B
330
1D
100
AcDbEntity
  8
_0-1_1_5
  6
DASHED2
 62
     7
100
AcDbLine
 10
-696.7716828777718
 20
54.82288148715188
 30
0.0
 11
-700.2714868663637
 21
56.22911417688132
 31
0.0
  0
LINE
  5
39C
330
1D
100
AcDbEntity
  8
_0-1_1_5
  6
DASHED2
 62
     7
100
AcDbLine
 10
-696.7716828777718
 20
53.42288148715173
 30
0.0
 11
-700.2714868663637
 21
54.82911417688146
 31
0.0
  0
LINE
  5
39D
330
1D
100
AcDbEntity
  8
_0-1_1_5
  6
DASHED2
 62
     7
100
AcDbLine
 10
-696.7716828777718
 20
52.02288148715169
 30
0.0
 11
-700.2714868663637
 21
53.4291141768816
 31
0.0
  0
LINE
  5
39E
330
1D
100
AcDbEntity
  8
_0-1_1_5
  6
DASHED2
 62
     7
100
AcDbLine
 10
-698.6398493850144
 20
51.37351690013668
 30
0.0
 11
-700.2714868663637
 21
52.02911417688128
 31
0.0
  0
LINE
  5
39F
330
1D
100
AcDbEntity
  8
_0-1_1_5
  6
DASHED2
 62
     7
100
AcDbLine
 10
-700.1546766133197
 20
51.37351690013668
 30
0.0
 11
-696.654872624728
 21
51.37351690013668
 31
0.0
  0
LINE
  5
3A0
330
1D
100
AcDbEntity
  8
_0-1_1_5
  6
DASHED2
 62
     7
100
AcDbLine
 10
-701.9047746190239
 20
49.62341889443255
 30
0.0
 11
-700.1546766133197
 21
51.37351690013668
 31
0.0
  0
LINE
  5
3A1
330
1D
100
AcDbEntity
  8
_0-1_1_5
  6
DASHED2
 62
     7
100
AcDbLine
 10
-700.1546766133197
 20
51.37351690013668
 30
0.0
 11
-700.1546766133197
 21
67.09557515496962
 31
0.0
  0
LINE
  5
3A2
330
1D
100
AcDbEntity
  8
_0-1_1_5
  6
DASHED2
 62
     7
100
AcDbLine
 10
-696.6548726247282
 20
51.37351690013668
 30
0.0
 11
-696.654872624728
 21
67.09557515496962
 31
0.0
  0
LINE
  5
3A3
330
1D
100
AcDbEntity
  8
_0-1_1_5
  6
DASHED2
 62
     7
100
AcDbLine
 10
-692.2823192675822
 20
64.09557515496951
 30
0.0
 11
-692.2823192675822
 21
59.34557515496985
 31
0.0
  0
LINE
  5
3A4
330
1D
100
AcDbEntity
  8
_0-1_1_5
  6
DASHED2
 62
     7
100
AcDbLine
 10
-692.2823192675822
 20
59.34557515496985
 30
0.0
 11
-693.2823192675822
 21
59.34557515496985
 31
0.0
  0
LINE
  5
3A5
330
1D
100
AcDbEntity
  8
_0-1_1_5
  6
DASHED2
 62
     7
100
AcDbLine
 10
-693.2823192675822
 20
59.34557515496985
 30
0.0
 11
-693.2823192675822
 21
54.84557515496968
 31
0.0
  0
LINE
  5
3A6
330
1D
100
AcDbEntity
  8
_0-1_1_5
  6
DASHED2
 62
     7
100
AcDbLine
 10
-693.2823192675822
 20
54.84557515496968
 30
0.0
 11
-692.2823192675822
 21
54.84557515496968
 31
0.0
  0
LINE
  5
3A7
330
1D
100
AcDbEntity
  8
_0-1_1_5
  6
DASHED2
 62
     7
100
AcDbLine
 10
-692.2823192675822
 20
54.84557515496968
 30
0.0
 11
-692.2823192675822
 21
49.09557515496951
 31
0.0
  0
LINE
  5
3A8
330
1D
100
AcDbEntity
  8
_0-1_1_5
  6
DASHED2
 62
     7
100
AcDbLine
 10
-692.2823192675822
 20
49.09557515496951
 30
0.0
 11
-693.2823192675822
 21
49.09557515496951
 31
0.0
  0
LINE
  5
3A9
330
1D
100
AcDbEntity
  8
_0-1_1_5
  6
DASHED2
 62
     7
100
AcDbLine
 10
-693.2823192675822
 20
49.09557515496951
 30
0.0
 11
-695.7823192675822
 21
51.59557515496951
 31
0.0
  0
LINE
  5
3AA
330
1D
100
AcDbEntity
  8
_0-1_1_5
  6
DASHED2
 62
     7
100
AcDbLine
 10
-695.7823192675822
 20
51.59557515496951
 30
0.0
 11
-695.7823192675822
 21
64.0955751549698
 31
0.0
  0
LINE
  5
3AB
330
1D
100
AcDbEntity
  8
_0-1_1_5
  6
DASHED2
 62
     7
100
AcDbLine
 10
-700.7823192675822
 20
64.09557515496965
 30
0.0
 11
-695.7823192675822
 21
64.09557515496965
 31
0.0
  0
LINE
  5
3AC
330
1D
100
AcDbEntity
  8
_0-1_1_5
  6
DASHED2
 62
     7
100
AcDbLine
 10
-708.2900599610164
 20
64.09557515496951
 30
0.0
 11
-704.2823192675824
 21
64.09557515496951
 31
0.0
  0
LINE
  5
3AD
330
1D
100
AcDbEntity
  8
_0-1_1_5
  6
DASHED2
 62
     7
100
AcDbLine
 10
-704.2823192675824
 20
64.09557515496951
 30
0.0
 11
-704.2823192675824
 21
59.34557515496985
 31
0.0
  0
LINE
  5
3AE
330
1D
100
AcDbEntity
  8
_0-1_1_5
  6
DASHED2
 62
     7
100
AcDbLine
 10
-704.2823192675824
 20
59.34557515496985
 30
0.0
 11
-703.2823192675822
 21
59.34557515496985
 31
0.0
  0
LINE
  5
3AF
330
1D
100
AcDbEntity
  8
_0-1_1_5
  6
DASHED2
 62
     7
100
AcDbLine
 10
-703.2823192675822
 20
59.34557515496985
 30
0.0
 11
-703.2823192675822
 21
54.84557515496968
 31
0.0
  0
LINE
  5
3B0
330
1D
100
AcDbEntity
  8
_0-1_1_5
  6
DASHED2
 62
     7
100
AcDbLine
 10
-703.2823192675822
 20
54.84557515496968
 30
0.0
 11
-704.2823192675824
 21
54.84557515496968
 31
0.0
  0
LINE
  5
3B1
330
1D
100
AcDbEntity
  8
_0-1_1_5
  6
DASHED2
 62
     7
100
AcDbLine
 10
-704.2823192675824
 20
54.84557515496968
 30
0.0
 11
-704.2823192675824
 21
49.09557515496951
 31
0.0
  0
LINE
  5
3B2
330
1D
100
AcDbEntity
  8
_0-1_1_5
  6
DASHED2
 62
     7
100
AcDbLine
 10
-704.2823192675824
 20
49.09557515496951
 30
0.0
 11
-703.2823192675822
 21
49.09557515496951
 31
0.0
  0
LINE
  5
3B3
330
1D
100
AcDbEntity
  8
_0-1_1_5
  6
DASHED2
 62
     7
100
AcDbLine
 10
-703.2823192675822
 20
49.09557515496951
 30
0.0
 11
-700.7823192675822
 21
51.59557515496951
 31
0.0
  0
LINE
  5
3B4
330
1D
100
AcDbEntity
  8
_0-1_1_5
  6
DASHED2
 62
     7
100
AcDbLine
 10
-700.7823192675822
 20
51.59557515496951
 30
0.0
 11
-700.7823192675822
 21
64.0955751549698
 31
0.0
  0
LINE
  5
3B5
330
1D
100
AcDbEntity
  8
_0-1_1_5
  6
Continuous
 62
     7
100
AcDbLine
 10
-689.7445205811794
 20
189.0873510871257
 30
0.0
 11
-427.0650286568672
 21
189.0873510871257
 31
0.0
  0
LINE
  5
3B6
330
1D
100
AcDbEntity
  8
_0-1_1_5
  6
Continuous
 62
     7
100
AcDbLine
 10
-689.7445205811794
 20
179.0873510871257
 30
0.0
 11
-427.0650286568672
 21
179.0873510871257
 31
0.0
  0
CIRCLE
  5
3B7
102
{ACAD_REACTORS
330
404
102
}
330
1D
100
AcDbEntity
  8
_0-1_1_5
  6
Continuous
 62
     7
100
AcDbCircle
 10
-418.4047746190229
 20
184.0873510871257
 30
0.0
 40
10.0
  0
LINE
  5
3B8
330
1D
100
AcDbEntity
  8
_0-1_1_5
  6
CENTER2
 62
     7
100
AcDbLine
 10
-418.4047746190234
 20
189.0873510871257
 30
0.0
 11
-418.4047746190234
 21
179.0372365326786
 31
0.0
  0
LINE
  5
3B9
330
1D
100
AcDbEntity
  8
_0-1_1_5
  6
CENTER2
 62
     7
100
AcDbLine
 10
-423.4047746190234
 20
184.0873510871257
 30
0.0
 11
-413.4047746190234
 21
184.0873510871257
 31
0.0
  0
LINE
  5
3BA
330
1D
100
AcDbEntity
  8
_0-1_1_5
  6
CENTER2
 62
     7
100
AcDbLine
 10
-423.4047746190234
 20
184.0873510871257
 30
0.0
 11
-413.4047746190234
 21
184.0873510871257
 31
0.0
  0
CIRCLE
  5
3BB
102
{ACAD_REACTORS
330
404
102
}
330
1D
100
AcDbEntity
  8
_0-1_1_5
  6
Continuous
 62
     7
100
AcDbCircle
 10
-698.4047746190238
 20
184.0873510871257
 30
0.0
 40
10.0
  0
LINE
  5
3BC
330
1D
100
AcDbEntity
  8
_0-1_1_5
  6
CENTER2
 62
     7
100
AcDbLine
 10
-698.4047746190234
 20
189.0873510871257
 30
0.0
 11
-698.4047746190234
 21
179.0372365326786
 31
0.0
  0
LINE
  5
3BD
330
1D
100
AcDbEntity
  8
_0-1_1_5
  6
CENTER2
 62
     7
100
AcDbLine
 10
-703.4047746190234
 20
184.0873510871257
 30
0.0
 11
-693.4047746190234
 21
184.0873510871257
 31
0.0
  0
LINE
  5
3BE
330
1D
100
AcDbEntity
  8
_0-1_1_5
  6
CENTER2
 62
     7
100
AcDbLine
 10
-703.4047746190234
 20
184.0873510871257
 30
0.0
 11
-693.4047746190234
 21
184.0873510871257
 31
0.0
  0
LINE
  5
3BF
330
1D
100
AcDbEntity
  8
_0-3_
  6
Continuous
 62
     7
100
AcDbLine
 10
-182.2784391871298
 20
321.1994585282602
 30
0.0
 11
-742.2784391871298
 21
321.1994585282603
 31
0.0
  0
LINE
  5
3C0
330
1D
100
AcDbEntity
  8
_0-1_1_5
  6
Continuous
 62
     7
100
AcDbLine
 10
-208.9738733422311
 20
184.2098064385673
 30
0.0
 11
-214.5988041011503
 21
185.9597084328632
 31
0.0
  0
LINE
  5
3C1
330
1D
100
AcDbEntity
  8
_0-1_1_5
  6
Continuous
 62
     7
100
AcDbLine
 10
-208.9738733422311
 20
184.2098064385673
 30
0.0
 11
-214.5988041011503
 21
182.4599044442714
 31
0.0
  0
LINE
  5
3C2
330
1D
100
AcDbEntity
  8
_0-1_1_5
  6
Continuous
 62
     7
100
AcDbLine
 10
-237.0985271368261
 20
182.5767146973152
 30
0.0
 11
-235.6922944470966
 21
186.076518685907
 31
0.0
  0
LINE
  5
3C3
330
1D
100
AcDbEntity
  8
_0-1_1_5
  6
Continuous
 62
     7
100
AcDbLine
 10
-235.6922944470966
 20
182.5767146973152
 30
0.0
 11
-234.2860617573663
 21
186.076518685907
 31
0.0
  0
LINE
  5
3C4
330
1D
100
AcDbEntity
  8
_0-1_1_5
  6
Continuous
 62
     7
100
AcDbLine
 10
-230.0673636881771
 20
182.5767146973152
 30
0.0
 11
-228.6611309984474
 21
186.076518685907
 31
0.0
  0
LINE
  5
3C5
330
1D
100
AcDbEntity
  8
_0-1_1_5
  6
Continuous
 62
     7
100
AcDbLine
 10
-231.4735963779071
 20
182.5767146973152
 30
0.0
 11
-230.0673636881771
 21
186.076518685907
 31
0.0
  0
LINE
  5
3C6
330
1D
100
AcDbEntity
  8
_0-1_1_5
  6
Continuous
 62
     7
100
AcDbLine
 10
-228.6611309984474
 20
182.5767146973152
 30
0.0
 11
-227.2548983087179
 21
186.076518685907
 31
0.0
  0
LINE
  5
3C7
330
1D
100
AcDbEntity
  8
_0-1_1_5
  6
Continuous
 62
     7
100
AcDbLine
 10
-227.2548983087179
 20
182.5767146973152
 30
0.0
 11
-225.8486656189882
 21
186.076518685907
 31
0.0
  0
LINE
  5
3C8
330
1D
100
AcDbEntity
  8
_0-1_1_5
  6
Continuous
 62
     7
100
AcDbLine
 10
-225.8486656189882
 20
182.5767146973152
 30
0.0
 11
-224.4424329292585
 21
186.076518685907
 31
0.0
  0
LINE
  5
3C9
330
1D
100
AcDbEntity
  8
_0-1_1_5
  6
Continuous
 62
     7
100
AcDbLine
 10
-224.4424329292585
 20
182.5767146973152
 30
0.0
 11
-223.0362002395286
 21
186.076518685907
 31
0.0
  0
LINE
  5
3CA
330
1D
100
AcDbEntity
  8
_0-1_1_5
  6
Continuous
 62
     7
100
AcDbLine
 10
-223.0362002395286
 20
182.5767146973152
 30
0.0
 11
-221.6299675497989
 21
186.076518685907
 31
0.0
  0
LINE
  5
3CB
330
1D
100
AcDbEntity
  8
_0-1_1_5
  6
Continuous
 62
     7
100
AcDbLine
 10
-221.6299675497989
 20
182.5767146973152
 30
0.0
 11
-220.2237348600693
 21
186.076518685907
 31
0.0
  0
LINE
  5
3CC
330
1D
100
AcDbEntity
  8
_0-1_1_5
  6
Continuous
 62
     7
100
AcDbLine
 10
-234.2860617573663
 20
182.5767146973152
 30
0.0
 11
-232.8798290676369
 21
186.076518685907
 31
0.0
  0
LINE
  5
3CD
330
1D
100
AcDbEntity
  8
_0-1_1_5
  6
Continuous
 62
     7
100
AcDbLine
 10
-220.2237348600693
 20
182.5767146973152
 30
0.0
 11
-218.8175021703393
 21
186.076518685907
 31
0.0
  0
LINE
  5
3CE
330
1D
100
AcDbEntity
  8
_0-1_1_5
  6
Continuous
 62
     7
100
AcDbLine
 10
-217.4112694806096
 20
182.5767146973152
 30
0.0
 11
-216.0050367908798
 21
186.076518685907
 31
0.0
  0
LINE
  5
3CF
330
1D
100
AcDbEntity
  8
_0-1_1_5
  6
Continuous
 62
     7
100
AcDbLine
 10
-216.0050367908798
 20
182.5767146973152
 30
0.0
 11
-214.5988041011503
 21
186.076518685907
 31
0.0
  0
LINE
  5
3D0
330
1D
100
AcDbEntity
  8
_0-1_1_5
  6
Continuous
 62
     7
100
AcDbLine
 10
-218.8175021703393
 20
182.5767146973152
 30
0.0
 11
-217.4112694806096
 21
186.076518685907
 31
0.0
  0
LINE
  5
3D1
330
1D
100
AcDbEntity
  8
_0-1_1_5
  6
Continuous
 62
     7
100
AcDbLine
 10
-232.8798290676369
 20
182.5767146973152
 30
0.0
 11
-231.4735963779071
 21
186.076518685907
 31
0.0
  0
LINE
  5
3D2
330
1D
100
AcDbEntity
  8
_0-1_1_5
  6
Continuous
 62
     7
100
AcDbLine
 10
-237.4507642279269
 20
185.9597084328632
 30
0.0
 11
-214.5993580297981
 21
185.9597084328632
 31
0.0
  0
LINE
  5
3D3
330
1D
100
AcDbEntity
  8
_0-1_1_5
  6
Continuous
 62
     7
100
AcDbLine
 10
-237.4507642279269
 20
182.4599044442714
 30
0.0
 11
-214.5988041011503
 21
182.4599044442714
 31
0.0
  0
CIRCLE
  5
3D4
330
1D
100
AcDbEntity
  8
_0-1_1_5
  6
DASHED1
 62
     7
100
AcDbCircle
 10
-286.4507642279269
 20
184.0873510871259
 30
0.0
 40
5.0
  0
LINE
  5
3D5
330
1D
100
AcDbEntity
  8
_0-1_1_5
  6
Continuous
 62
     7
100
AcDbLine
 10
-236.4507642279268
 20
194.0873510871259
 30
0.0
 11
-236.4507642279268
 21
174.0873510871259
 31
0.0
  0
LINE
  5
3D6
330
1D
100
AcDbEntity
  8
_0-1_1_5
  6
Continuous
 62
     7
100
AcDbLine
 10
-236.4507642279268
 20
174.0873510871259
 30
0.0
 11
-296.4507642279269
 21
174.0873510871259
 31
0.0
  0
LINE
  5
3D7
102
{ACAD_REACTORS
330
408
102
}
330
1D
100
AcDbEntity
  8
_0-1_1_5
  6
Continuous
 62
     7
100
AcDbLine
 10
-296.4507642279269
 20
174.0873510871259
 30
0.0
 11
-296.4507642279269
 21
194.0873510871259
 31
0.0
  0
LINE
  5
3D8
102
{ACAD_REACTORS
330
408
102
}
330
1D
100
AcDbEntity
  8
_0-1_1_5
  6
Continuous
 62
     7
100
AcDbLine
 10
-296.4507642279269
 20
194.0873510871259
 30
0.0
 11
-236.4507642279268
 21
194.0873510871259
 31
0.0
  0
LINE
  5
3D9
330
1D
100
AcDbEntity
  8
_0-1_1_5
  6
DASHED2
 62
     7
100
AcDbLine
 10
-251.450764227927
 20
179.0873510871257
 30
0.0
 11
-251.450764227927
 21
189.0873510871257
 31
0.0
  0
LINE
  5
3DA
330
1D
100
AcDbEntity
  8
_0-1_1_5
  6
STYLE_01
 62
     7
100
AcDbLine
 10
-250.9229204884642
 20
180.7098064385673
 30
0.0
 11
-249.1728224827602
 21
182.4599044442714
 31
0.0
  0
LINE
  5
3DB
330
1D
100
AcDbEntity
  8
_0-1_1_5
  6
DASHED2
 62
     7
100
AcDbLine
 10
-238.7234578957448
 20
182.5767146973152
 30
0.0
 11
-237.3172252060155
 21
186.076518685907
 31
0.0
  0
LINE
  5
3DC
330
1D
100
AcDbEntity
  8
_0-1_1_5
  6
DASHED2
 62
     7
100
AcDbLine
 10
-240.1234578957451
 20
182.5767146973152
 30
0.0
 11
-238.7172252060154
 21
186.076518685907
 31
0.0
  0
LINE
  5
3DD
330
1D
100
AcDbEntity
  8
_0-1_1_5
  6
DASHED2
 62
     7
100
AcDbLine
 10
-241.523457895745
 20
182.5767146973152
 30
0.0
 11
-240.1172252060152
 21
186.076518685907
 31
0.0
  0
LINE
  5
3DE
330
1D
100
AcDbEntity
  8
_0-1_1_5
  6
DASHED2
 62
     7
100
AcDbLine
 10
-242.9234578957451
 20
182.5767146973152
 30
0.0
 11
-241.5172252060154
 21
186.076518685907
 31
0.0
  0
LINE
  5
3DF
330
1D
100
AcDbEntity
  8
_0-1_1_5
  6
DASHED2
 62
     7
100
AcDbLine
 10
-244.3234578957449
 20
182.5767146973152
 30
0.0
 11
-242.9172252060152
 21
186.076518685907
 31
0.0
  0
LINE
  5
3E0
330
1D
100
AcDbEntity
  8
_0-1_1_5
  6
DASHED2
 62
     7
100
AcDbLine
 10
-245.7234578957448
 20
182.5767146973152
 30
0.0
 11
-244.3172252060153
 21
186.076518685907
 31
0.0
  0
LINE
  5
3E1
330
1D
100
AcDbEntity
  8
_0-1_1_5
  6
DASHED2
 62
     7
100
AcDbLine
 10
-247.1234578957449
 20
182.5767146973152
 30
0.0
 11
-245.7172252060152
 21
186.076518685907
 31
0.0
  0
LINE
  5
3E2
330
1D
100
AcDbEntity
  8
_0-1_1_5
  6
DASHED2
 62
     7
100
AcDbLine
 10
-248.5234578957449
 20
182.5767146973152
 30
0.0
 11
-247.1172252060151
 21
186.076518685907
 31
0.0
  0
LINE
  5
3E3
330
1D
100
AcDbEntity
  8
_0-1_1_5
  6
DASHED2
 62
     7
100
AcDbLine
 10
-249.1728224827598
 20
184.4448812045578
 30
0.0
 11
-248.5172252060153
 21
186.076518685907
 31
0.0
  0
LINE
  5
3E4
330
1D
100
AcDbEntity
  8
_0-1_1_5
  6
DASHED2
 62
     7
100
AcDbLine
 10
-249.1728224827598
 20
185.9597084328632
 30
0.0
 11
-249.1728224827598
 21
182.4599044442714
 31
0.0
  0
LINE
  5
3E5
330
1D
100
AcDbEntity
  8
_0-1_1_5
  6
DASHED2
 62
     7
100
AcDbLine
 10
-250.9229204884642
 20
187.7098064385673
 30
0.0
 11
-249.1728224827598
 21
185.9597084328632
 31
0.0
  0
LINE
  5
3E6
330
1D
100
AcDbEntity
  8
_0-1_1_5
  6
DASHED2
 62
     7
100
AcDbLine
 10
-249.1728224827598
 20
185.9597084328632
 30
0.0
 11
-233.4507642279269
 21
185.9597084328632
 31
0.0
  0
LINE
  5
3E7
330
1D
100
AcDbEntity
  8
_0-1_1_5
  6
DASHED2
 62
     7
100
AcDbLine
 10
-249.1728224827598
 20
182.4599044442718
 30
0.0
 11
-233.4507642279269
 21
182.4599044442714
 31
0.0
  0
LINE
  5
3E8
330
1D
100
AcDbEntity
  8
_0-1_1_5
  6
DASHED2
 62
     7
100
AcDbLine
 10
-236.450764227927
 20
178.0873510871258
 30
0.0
 11
-241.2007642279266
 21
178.0873510871258
 31
0.0
  0
LINE
  5
3E9
330
1D
100
AcDbEntity
  8
_0-1_1_5
  6
DASHED2
 62
     7
100
AcDbLine
 10
-241.2007642279266
 20
178.0873510871258
 30
0.0
 11
-241.2007642279266
 21
179.0873510871257
 31
0.0
  0
LINE
  5
3EA
330
1D
100
AcDbEntity
  8
_0-1_1_5
  6
DASHED2
 62
     7
100
AcDbLine
 10
-241.2007642279266
 20
179.0873510871257
 30
0.0
 11
-245.7007642279269
 21
179.0873510871257
 31
0.0
  0
LINE
  5
3EB
330
1D
100
AcDbEntity
  8
_0-1_1_5
  6
DASHED2
 62
     7
100
AcDbLine
 10
-245.7007642279269
 20
179.0873510871257
 30
0.0
 11
-245.7007642279269
 21
178.0873510871258
 31
0.0
  0
LINE
  5
3EC
330
1D
100
AcDbEntity
  8
_0-1_1_5
  6
DASHED2
 62
     7
100
AcDbLine
 10
-245.7007642279269
 20
178.0873510871258
 30
0.0
 11
-251.450764227927
 21
178.0873510871258
 31
0.0
  0
LINE
  5
3ED
330
1D
100
AcDbEntity
  8
_0-1_1_5
  6
DASHED2
 62
     7
100
AcDbLine
 10
-251.450764227927
 20
178.0873510871258
 30
0.0
 11
-251.450764227927
 21
179.0873510871257
 31
0.0
  0
LINE
  5
3EE
330
1D
100
AcDbEntity
  8
_0-1_1_5
  6
DASHED2
 62
     7
100
AcDbLine
 10
-251.450764227927
 20
179.0873510871257
 30
0.0
 11
-248.950764227927
 21
181.5873510871257
 31
0.0
  0
LINE
  5
3EF
330
1D
100
AcDbEntity
  8
_0-1_1_5
  6
DASHED2
 62
     7
100
AcDbLine
 10
-248.950764227927
 20
181.5873510871257
 30
0.0
 11
-236.4507642279268
 21
181.5873510871257
 31
0.0
  0
LINE
  5
3F0
330
1D
100
AcDbEntity
  8
_0-1_1_5
  6
DASHED2
 62
     7
100
AcDbLine
 10
-236.4507642279269
 20
186.5873510871257
 30
0.0
 11
-236.4507642279269
 21
181.5873510871257
 31
0.0
  0
LINE
  5
3F1
330
1D
100
AcDbEntity
  8
_0-1_1_5
  6
DASHED2
 62
     7
100
AcDbLine
 10
-236.450764227927
 20
194.0950917805598
 30
0.0
 11
-236.450764227927
 21
190.0873510871258
 31
0.0
  0
LINE
  5
3F2
330
1D
100
AcDbEntity
  8
_0-1_1_5
  6
DASHED2
 62
     7
100
AcDbLine
 10
-236.450764227927
 20
190.0873510871258
 30
0.0
 11
-241.2007642279266
 21
190.0873510871258
 31
0.0
  0
LINE
  5
3F3
330
1D
100
AcDbEntity
  8
_0-1_1_5
  6
DASHED2
 62
     7
100
AcDbLine
 10
-241.2007642279266
 20
190.0873510871258
 30
0.0
 11
-241.2007642279266
 21
189.0873510871257
 31
0.0
  0
LINE
  5
3F4
330
1D
100
AcDbEntity
  8
_0-1_1_5
  6
DASHED2
 62
     7
100
AcDbLine
 10
-241.2007642279266
 20
189.0873510871257
 30
0.0
 11
-245.7007642279269
 21
189.0873510871257
 31
0.0
  0
LINE
  5
3F5
330
1D
100
AcDbEntity
  8
_0-1_1_5
  6
DASHED2
 62
     7
100
AcDbLine
 10
-245.7007642279269
 20
189.0873510871257
 30
0.0
 11
-245.7007642279269
 21
190.0873510871258
 31
0.0
  0
LINE
  5
3F6
330
1D
100
AcDbEntity
  8
_0-1_1_5
  6
DASHED2
 62
     7
100
AcDbLine
 10
-245.7007642279269
 20
190.0873510871258
 30
0.0
 11
-251.450764227927
 21
190.0873510871258
 31
0.0
  0
LINE
  5
3F7
330
1D
100
AcDbEntity
  8
_0-1_1_5
  6
DASHED2
 62
     7
100
AcDbLine
 10
-251.450764227927
 20
190.0873510871258
 30
0.0
 11
-251.450764227927
 21
189.0873510871257
 31
0.0
  0
LINE
  5
3F8
330
1D
100
AcDbEntity
  8
_0-1_1_5
  6
DASHED2
 62
     7
100
AcDbLine
 10
-251.450764227927
 20
189.0873510871257
 30
0.0
 11
-248.950764227927
 21
186.5873510871257
 31
0.0
  0
LINE
  5
3F9
330
1D
100
AcDbEntity
  8
_0-1_1_5
  6
DASHED2
 62
     7
100
AcDbLine
 10
-248.950764227927
 20
186.5873510871257
 30
0.0
 11
-236.4507642279268
 21
186.5873510871257
 31
0.0
  0
TEXT
  5
3FA
330
1D
100
AcDbEntity
  8
_0-3_
 62
     7
100
AcDbText
 10
-352.0219476624774
 20
-54.00036632388898
 30
0.0
 40
5.0
  1
1/2
  7
ＭＳ ゴシック
100
AcDbText
  0
POINT
  5
3FB
330
1D
100
AcDbEntity
  8
_0-2_ADD_LINE
 62
     7
100
AcDbPoint
 10
-408.4706491583108
 20
234.6220586218015
 30
0.0
  0
POINT
  5
3FC
330
1D
100
AcDbEntity
  8
_0-2_ADD_LINE
 62
     7
100
AcDbPoint
 10
-708.4706491583107
 20
234.6220586218015
 30
0.0
  0
POINT
  5
3FD
330
1D
100
AcDbEntity
  8
_0-2_ADD_LINE
 62
     7
100
AcDbPoint
 10
-558.0158009714387
 20
9.103993849201004
 30
0.0
  0
POINT
  5
3FE
330
1D
100
AcDbEntity
  8
_0-2_ADD_LINE
 62
     7
100
AcDbPoint
 10
-558.0158009714387
 20
19.103993849201
 30
0.0
  0
LINE
  5
3FF
330
1D
100
AcDbEntity
  8
_0-2_ADD_LINE
  6
Continuous
 62
     7
100
AcDbLine
 10
-224.6043837288889
 20
183.2562697069641
 30
0.0
 11
-224.6043837288889
 21
116.7302691568662
 31
0.0
  0
TEXT
  5
400
330
1D
100
AcDbEntity
  8
_0-3_
 62
     7
100
AcDbText
 10
-352.3462722350578
 20
-41.80563917926415
 30
0.0
 40
5.0
  1
TFP40-A230-002
  7
ＭＳ ゴシック
100
AcDbText
  0
DIMENSION
  5
401
330
1D
100
AcDbEntity
  8
0
  6
ByBlock
100
AcDbDimension
  2
*D7
 10
-404.4047746190229
 20
244.4829749282698
 30
0.0
 11
-558.4047746190233
 21
249.4829749282698
 31
0.0
 70
    32
 71
     5
 42
308.0000000000009
 73
     0
 74
     0
 75
     0
  3
T-form線あり
100
AcDbAlignedDimension
 13
-712.4047746190238
 23
184.0873510871257
 33
0.0
 14
-404.4047746190229
 24
184.0873510871257
 34
0.0
100
AcDbRotatedDimension
1001
ACAD
1000
DSTYLE
1002
{
1070
   147
1040
10.0
1070
    40
1040
0.2
1070
   289
1070
     0
1070
    42
1040
50.0
1070
   140
1040
30.0
1070
   279
1070
     2
1002
}
  0
DIMENSION
  5
402
102
{ACAD_REACTORS
330
404
102
}
102
{ACAD_XDICTIONARY
360
403
102
}
330
1D
100
AcDbEntity
  8
0
  6
ByBlock
100
AcDbDimension
  2
*D8
 10
-418.4047746190229
 20
221.7967693746462
 30
0.0
 11
-558.4047746190233
 21
226.7967693746462
 31
0.0
 70
    32
 71
     5
 42
280.0000000000009
 73
     0
 74
     0
 75
     0
  3
T-form線あり
100
AcDbAlignedDimension
 13
-698.4047746190238
 23
194.0873510871257
 33
0.0
 14
-418.4047746190229
 24
194.0873510871257
 34
0.0
100
AcDbRotatedDimension
1001
ACAD
1000
DSTYLE
1002
{
1070
   147
1040
10.0
1070
    40
1040
0.2
1070
   289
1070
     0
1070
   140
1040
30.0
1070
    42
1040
20.0
1070
   279
1070
     2
1002
}
  0
DIMENSION
  5
405
330
1D
100
AcDbEntity
  8
0
  6
ByBlock
100
AcDbDimension
  2
*D9
 10
-286.4728115439684
 20
233.2775186118437
 30
0.0
 11
-259.4617878859476
 21
238.2775186118437
 31
0.0
 70
    32
 71
     5
 42
54.02204731604144
 73
     0
 74
     0
 75
     0
  3
T-form線あり
100
AcDbAlignedDimension
 13
-232.4507642279269
 23
198.1358445814933
 33
0.0
 14
-286.4728115439684
 24
198.1358445814933
 34
0.0
100
AcDbRotatedDimension
1001
ACAD
1000
DSTYLE
1002
{
1070
   147
1040
10.0
1070
    40
1040
0.2
1070
   289
1070
     0
1070
   140
1040
30.0
1070
    42
1040
5.0
1070
   279
1070
     2
1002
}
  0
DIMENSION
  5
406
102
{ACAD_REACTORS
330
408
102
}
102
{ACAD_XDICTIONARY
360
407
102
}
330
1D
100
AcDbEntity
  8
0
  6
ByBlock
100
AcDbDimension
  2
*D10
 10
-317.4341897266809
 20
194.0873510871259
 30
0.0
 11
-322.9201897266809
 21
184.0873510871259
 31
0.0
 70
    32
 71
     5
 42
20.0
 73
     0
 74
     0
 75
     0
  3
T-form線あり
100
AcDbAlignedDimension
 13
-296.4507642279269
 23
174.0873510871259
 33
0.0
 14
-296.4507642279269
 24
194.0873510871259
 34
0.0
 50
90.0
100
AcDbRotatedDimension
1001
ACAD
1000
DSTYLE
1002
{
1070
   147
1040
10.0
1070
     3
1000
φ<>
1070
    40
1040
0.2
1070
   289
1070
     0
1070
   140
1040
30.0
1070
    42
1040
2.0
1070
   279
1070
     2
1002
}
  0
DIMENSION
  5
409
102
{ACAD_REACTORS
330
40B
102
}
102
{ACAD_XDICTIONARY
360
40A
102
}
330
1D
100
AcDbEntity
  8
0
  6
ByBlock
100
AcDbDimension
  2
*D11
 10
-386.5366368349341
 20
4.103993849201002
 30
0.0
 11
-391.5366368349341
 21
36.10399384920089
 31
0.0
 70
    32
 71
     5
 42
63.99999999999977
 73
     0
 74
     0
 75
     0
  3
T-form線あり
100
AcDbAlignedDimension
 13
-404.4047746190237
 23
68.10399384920078
 33
0.0
 14
-408.4047746190237
 24
4.103993849201004
 34
0.0
 50
90.0
100
AcDbRotatedDimension
1001
ACAD
1000
DSTYLE
1002
{
1070
   147
1040
10.0
1070
    40
1040
0.2
1070
   289
1070
     0
1070
   140
1040
30.0
1070
    42
1040
20.0
1070
   279
1070
     2
1002
}
  0
DIMENSION
  5
40C
102
{ACAD_REACTORS
330
40E
102
}
102
{ACAD_XDICTIONARY
360
40D
102
}
330
1D
100
AcDbEntity
  8
0
  6
ByBlock
100
AcDbDimension
  2
*D12
 10
-558.4047746190238
 20
19.103993849201
 30
0.0
 11
-562.1232590542946
 21
29.79431958997958
 31
0.0
 70
   160
 71
     5
 42
10.0
 73
     0
 74
     1
 75
     1
  3
T-form線あり
100
AcDbAlignedDimension
 13
-558.4047746190238
 23
9.103993849201004
 33
0.0
 14
-558.4047746190238
 24
19.103993849201
 34
0.0
 50
90.0
100
AcDbRotatedDimension
1001
ACAD
1000
DSTYLE
1002
{
1070
   147
1040
10.0
1070
     3
1000
φ<>
1070
    40
1040
0.2
1070
   289
1070
     0
1070
   140
1040
30.0
1070
    42
1040
5.0
1070
   279
1070
     2
1002
}
  0
TEXT
  5
40F
330
1D
100
AcDbEntity
  8
_0-3_
 62
     7
100
AcDbText
 10
-247.3593161644201
 20
107.6011553784508
 30
0.0
 40
6.0
  1
タッピングビス
  7
ＭＳ ゴシック
100
AcDbText
  0
TEXT
  5
410
330
1D
100
AcDbEntity
  8
_0-3_
 62
     7
100
AcDbText
 10
-247.3593161644201
 20
97.24455698538523
 30
0.0
 40
6.0
  1
3.5x40
  7
ＭＳ ゴシック
100
AcDbText
  0
ARC
  5
45C
330
1D
100
AcDbEntity
  8
0
  6
ByBlock
100
AcDbCircle
 10
-418.4047746190229
 20
184.0873510871257
 30
0.0
 40
14.0
100
AcDbArc
 50
200.9248324276383
 51
159.0751675723617
  0
ARC
  5
45D
330
1D
100
AcDbEntity
  8
0
  6
ByBlock
100
AcDbCircle
 10
-698.4047746190238
 20
184.0873510871257
 30
0.0
 40
14.0
100
AcDbArc
 50
20.92483242763829
 51
339.0751675723617
  0
LWPOLYLINE
  5
45F
330
1D
100
AcDbEntity
  8
0
  6
ByBlock
100
AcDbPolyline
 90
        4
 70
     1
 43
0.0
 10
-432.4047746190237
 20
64.10399384920078
 10
-432.4047746190237
 20
68.10399384920078
 10
-404.4047746190237
 20
68.10399384920078
 10
-404.4047746190237
 20
64.10399384920078
  0
LWPOLYLINE
  5
460
330
1D
100
AcDbEntity
  8
0
  6
ByBlock
100
AcDbPolyline
 90
        4
 70
     1
 43
0.0
 10
-684.4047746190229
 20
64.10399384920078
 10
-684.4047746190229
 20
68.10399384920078
 10
-712.4047746190229
 20
68.10399384920078
 10
-712.4047746190229
 20
64.10399384920078
  0
LWPOLYLINE
  5
461
330
1D
100
AcDbEntity
  8
0
  6
ByBlock
100
AcDbPolyline
 90
        4
 70
     1
 43
0.0
 10
-236.4507642279269
 20
198.0873510871257
 10
-232.4507642279269
 20
198.0873510871257
 10
-232.4507642279269
 20
170.0873510871257
 10
-236.4507642279269
 20
170.0873510871257
  0
DIMENSION
  5
51B
330
1D
100
AcDbEntity
  8
0
  6
ByBlock
100
AcDbDimension
  2
*D15
 10
-236.4507642279269
 20
155.4454201608581
 30
0.0
 11
-234.4507642279269
 21
160.4454201608581
 31
0.0
 70
    32
 71
     5
 42
4.0
 73
     0
 74
     1
 75
     1
  3
T-form線あり
100
AcDbAlignedDimension
 13
-232.4507642279269
 23
170.0873510871257
 33
0.0
 14
-236.4507642279269
 24
170.0873510871257
 34
0.0
100
AcDbRotatedDimension
1001
ACAD
1000
DSTYLE
1002
{
1070
   147
1040
10.0
1070
    40
1040
0.2
1070
   289
1070
     0
1070
   140
1040
30.0
1070
    42
1040
5.0
1070
   279
1070
     2
1002
}
  0
ENDSEC
  0
SECTION
  2
OBJECTS
  0
DICTIONARY
  5
C
330
0
100
AcDbDictionary
281
     1
  3
ACAD_DETAILVIEWSTYLE
350
532
  3
ACAD_GROUP
350
D
  3
ACAD_IMAGE_VARS
350
1BE
  3
ACAD_LAYOUT
350
1A
  3
ACAD_MATERIAL
350
1B6
  3
ACAD_MLEADERSTYLE
350
1DA
  3
ACAD_MLINESTYLE
350
17
  3
ACAD_PLOTSETTINGS
350
19
  3
ACAD_PLOTSTYLENAME
350
E
  3
ACAD_SCALELIST
350
177
  3
ACAD_SECTIONVIEWSTYLE
350
533
  3
ACAD_TABLESTYLE
350
1BA
  3
ACAD_VISUALSTYLE
350
19D
  3
ACDB_RECOMPOSE_DATA
350
537
  3
AcDbVariableDictionary
350
52A
  3
APPDATA
350
1BC
  0
SUN
  5
1BD
330
176
100
AcDbSun
 90
        1
290
     0
 63
     7
421
 16777215
 40
1.0
291
     1
 91
  2455826
 92
 54000000
292
     0
 70
     2
 71
   256
280
     1
  0
DICTIONARY
  5
403
330
402
100
AcDbDictionary
280
     1
281
     1
  3
ACAD_DIMASSOC
360
404
  0
DICTIONARY
  5
407
330
406
100
AcDbDictionary
280
     1
281
     1
  3
ACAD_DIMASSOC
360
408
  0
DICTIONARY
  5
40A
330
409
100
AcDbDictionary
280
     1
281
     1
  3
ACAD_DIMASSOC
360
40B
  0
DICTIONARY
  5
40D
330
40C
100
AcDbDictionary
280
     1
281
     1
  3
ACAD_DIMASSOC
360
40E
  0
DICTIONARY
  5
532
102
{ACAD_REACTORS
330
C
102
}
330
C
100
AcDbDictionary
281
     1
  0
DICTIONARY
  5
D
102
{ACAD_REACTORS
330
C
102
}
330
C
100
AcDbDictionary
281
     1
  0
RASTERVARIABLES
  5
1BE
102
{ACAD_REACTORS
330
C
102
}
330
C
100
AcDbRasterVariables
 90
        0
 70
     1
 71
     1
 72
     0
  0
DICTIONARY
  5
1A
102
{ACAD_REACTORS
330
C
102
}
330
C
100
AcDbDictionary
281
     1
  3
Model
350
1E
  3
シート 1
350
1C
  0
DICTIONARY
  5
1B6
102
{ACAD_REACTORS
330
C
102
}
330
C
100
AcDbDictionary
281
     1
  3
ByBlock
350
1B8
  3
ByLayer
350
1B7
  3
Global
350
1B9
  0
DICTIONARY
  5
1DA
102
{ACAD_REACTORS
330
C
102
}
330
C
100
AcDbDictionary
281
     1
  0
DICTIONARY
  5
17
102
{ACAD_REACTORS
330
C
102
}
330
C
100
AcDbDictionary
281
     1
  3
Standard
350
18
  0
DICTIONARY
  5
19
102
{ACAD_REACTORS
330
C
102
}
330
C
100
AcDbDictionary
281
     1
  0
ACDBDICTIONARYWDFLT
  5
E
102
{ACAD_REACTORS
330
C
102
}
330
C
100
AcDbDictionary
281
     1
  3
Normal
350
F
100
AcDbDictionaryWithDefault
340
F
  0
DICTIONARY
  5
177
102
{ACAD_REACTORS
330
C
102
}
330
C
100
AcDbDictionary
281
     1
  3
A0
350
178
  3
A1
350
179
  3
A2
350
17A
  3
A3
350
17B
  3
A4
350
17C
  3
A5
350
17D
  3
A6
350
17E
  3
A7
350
17F
  3
A8
350
180
  3
A9
350
181
  3
B0
350
182
  3
B1
350
183
  3
B2
350
184
  3
B3
350
185
  3
B4
350
186
  3
B5
350
187
  3
B6
350
188
  3
B7
350
189
  3
B8
350
18A
  3
B9
350
18B
  3
C0
350
18C
  3
C1
350
18D
  3
C2
350
18E
  3
C3
350
18F
  3
C4
350
190
  3
C5
350
191
  3
C6
350
192
  3
C7
350
193
  3
C8
350
194
  3
C9
350
195
  3
D0
350
196
  3
D1
350
197
  3
D2
350
198
  0
DICTIONARY
  5
533
102
{ACAD_REACTORS
330
C
102
}
330
C
100
AcDbDictionary
281
     1
  0
DICTIONARY
  5
1BA
102
{ACAD_REACTORS
330
C
102
}
330
C
100
AcDbDictionary
281
     1
  3
Standard
350
1BB
  0
DICTIONARY
  5
19D
102
{ACAD_REACTORS
330
C
102
}
330
C
100
AcDbDictionary
281
     1
  3
2dWireframe
350
1A2
  3
Basic
350
1A5
  3
Brighten
350
1A9
  3
ColorChange
350
1AD
  3
Conceptual
350
1A7
  3
Dim
350
1A8
  3
EdgeColorOff
350
1B0
  3
Facepattern
350
1AC
  3
Flat
350
19E
  3
FlatWithEdges
350
19F
  3
Gouraud
350
1A0
  3
GouraudWithEdges
350
1A1
  3
Hidden
350
1A4
  3
JitterOff
350
1AE
  3
Linepattern
350
1AB
  3
OverhangOff
350
1AF
  3
Realistic
350
1A6
  3
Shaded
350
1B5
  3
Shaded with edges
350
1B4
  3
Shades of Gray
350
1B1
  3
Sketchy
350
1B2
  3
Thicken
350
1AA
  3
Wireframe
350
1A3
  3
X-Ray
350
1B3
  0
XRECORD
  5
537
102
{ACAD_REACTORS
330
C
102
}
330
C
100
AcDbXrecord
280
     1
 90
        1
330
1BB
  0
DICTIONARY
  5
52A
102
{ACAD_REACTORS
330
C
102
}
330
C
100
AcDbDictionary
281
     1
  3
CANNOSCALE
350
52B
  3
CTABLESTYLE
350
530
  3
LIGHTINGUNITS
350
52C
  3
MSLTSCALE
350
531
  3
XCLIPFRAME
350
534
  0
DICTIONARY
  5
1BC
102
{ACAD_REACTORS
330
C
102
}
330
C
100
AcDbDictionary
281
     1
  0
DIMASSOC
  5
404
102
{ACAD_REACTORS
330
403
102
}
330
403
100
AcDbDimAssoc
330
402
 90
        3
 70
     0
 71
     1
  1
AcDbOsnapPointRef
 72
     5
331
3BB
 73
     0
 91
        0
 40
1.570796326794897
 10
0.0
 20
0.0
 30
0.0
 75
     0
  1
AcDbOsnapPointRef
 72
     5
331
3B7
 73
     0
 91
        0
 40
1.570796326794897
 10
0.0
 20
0.0
 30
0.0
 75
     0
  0
DIMASSOC
  5
408
102
{ACAD_REACTORS
330
407
102
}
330
407
100
AcDbDimAssoc
330
406
 90
        3
 70
     0
 71
     1
  1
AcDbOsnapPointRef
 72
    13
331
3D7
 73
     0
 91
        0
 40
0.0
 10
0.0
 20
0.0
 30
0.0
 75
     0
  1
AcDbOsnapPointRef
 72
    13
331
3D8
 73
     0
 91
        0
 40
0.0
 10
0.0
 20
0.0
 30
0.0
 75
     0
  0
DIMASSOC
  5
40B
102
{ACAD_REACTORS
330
40A
102
}
330
40A
100
AcDbDimAssoc
330
409
 90
        2
 70
     0
 71
     1
  1
AcDbOsnapPointRef
 72
     1
331
342
 73
     0
 91
        0
 40
0.0
 10
0.0
 20
0.0
 30
0.0
 75
     0
  0
DIMASSOC
  5
40E
102
{ACAD_REACTORS
330
40D
102
}
330
40D
100
AcDbDimAssoc
330
40C
 90
        3
 70
     0
 71
     1
  1
AcDbOsnapPointRef
 72
     2
331
372
 73
     0
 91
        0
 40
0.5
 10
0.0
 20
0.0
 30
0.0
 75
     0
  1
AcDbOsnapPointRef
 72
     2
331
36F
 73
     0
 91
        0
 40
0.5
 10
0.0
 20
0.0
 30
0.0
 75
     0
  0
LAYOUT
  5
1E
102
{ACAD_REACTORS
330
1A
102
}
330
1A
100
AcDbPlotSettings
  1

  2
none_device
  4
Letter_(8.50_x_11.00_Inches)
  6

 40
6.35
 41
6.35
 42
6.35
 43
6.35
 44
215.9
 45
279.4
 46
0.0
 47
0.0
 48
0.0
 49
0.0
140
0.0
141
0.0
142
1.0
143
1.0
 70
  1712
 72
     0
 73
     0
 74
     0
  7

 75
     0
 76
     0
 77
     2
 78
   300
147
1.0
148
0.0
149
0.0
100
AcDbLayout
  1
Model
 70
     1
 71
     0
 10
-761.2983459259849
 20
-84.24062991642111
 11
-167.2983459259849
 21
335.7593700835788
 12
0.0
 22
0.0
 32
0.0
 14
0.0
 24
0.0
 34
0.0
 15
594.0
 25
420.0
 35
0.0
146
0.0
 13
0.0
 23
0.0
 33
0.0
 16
1.0
 26
0.0
 36
0.0
 17
0.0
 27
1.0
 37
0.0
 76
     0
330
1D
331
176
  0
LAYOUT
  5
1C
102
{ACAD_REACTORS
330
1A
102
}
330
1A
100
AcDbPlotSettings
  1

  2
none_device
  4

  6

 40
0.0
 41
0.0
 42
0.0
 43
0.0
 44
0.0
 45
0.0
 46
0.0
 47
0.0
 48
0.0
 49
0.0
140
0.0
141
0.0
142
1.0
143
1.0
 70
   688
 72
     0
 73
     0
 74
     5
  7

 75
    16
 76
     0
 77
     2
 78
   300
147
1.0
148
0.0
149
0.0
100
AcDbLayout
  1
シート 1
 70
     1
 71
     1
 10
0.0
 20
0.0
 11
0.0
 21
0.0
 12
0.0
 22
0.0
 32
0.0
 14
1.000000000000000E+20
 24
1.000000000000000E+20
 34
1.000000000000000E+20
 15
-1.000000000000000E+20
 25
-1.000000000000000E+20
 35
-1.000000000000000E+20
146
0.0
 13
0.0
 23
0.0
 33
0.0
 16
1.0
 26
0.0
 36
0.0
 17
0.0
 27
1.0
 37
0.0
 76
     0
330
1B
  0
MATERIAL
  5
1B8
102
{ACAD_REACTORS
330
1B6
102
}
330
1B6
100
AcDbMaterial
  1
ByBlock
 72
     1
 94
      127
  0
MATERIAL
  5
1B7
102
{ACAD_REACTORS
330
1B6
102
}
330
1B6
100
AcDbMaterial
  1
ByLayer
 72
     1
 94
      127
  0
MATERIAL
  5
1B9
102
{ACAD_REACTORS
330
1B6
102
}
330
1B6
100
AcDbMaterial
  1
Global
 72
     1
 94
      127
  0
MLINESTYLE
  5
18
102
{ACAD_REACTORS
330
17
102
}
330
17
100
AcDbMlineStyle
  2
Standard
 70
     0
  3

 62
   256
 51
90.0
 52
90.0
 71
     2
 49
0.5
 62
   256
  6
BYLAYER
 49
-0.5
 62
   256
  6
BYLAYER
  0
ACDBPLACEHOLDER
  5
F
102
{ACAD_REACTORS
330
E
102
}
330
E
  0
SCALE
  5
178
102
{ACAD_REACTORS
330
177
102
}
330
177
100
AcDbScale
 70
     0
300
1:1
140
1.0
141
1.0
290
     1
  0
SCALE
  5
179
102
{ACAD_REACTORS
330
177
102
}
330
177
100
AcDbScale
 70
     0
300
1:2
140
1.0
141
2.0
290
     0
  0
SCALE
  5
17A
102
{ACAD_REACTORS
330
177
102
}
330
177
100
AcDbScale
 70
     0
300
1:4
140
1.0
141
4.0
290
     0
  0
SCALE
  5
17B
102
{ACAD_REACTORS
330
177
102
}
330
177
100
AcDbScale
 70
     0
300
1:5
140
1.0
141
5.0
290
     0
  0
SCALE
  5
17C
102
{ACAD_REACTORS
330
177
102
}
330
177
100
AcDbScale
 70
     0
300
1:8
140
1.0
141
8.0
290
     0
  0
SCALE
  5
17D
102
{ACAD_REACTORS
330
177
102
}
330
177
100
AcDbScale
 70
     0
300
1:10
140
1.0
141
10.0
290
     0
  0
SCALE
  5
17E
102
{ACAD_REACTORS
330
177
102
}
330
177
100
AcDbScale
 70
     0
300
1:16
140
1.0
141
16.0
290
     0
  0
SCALE
  5
17F
102
{ACAD_REACTORS
330
177
102
}
330
177
100
AcDbScale
 70
     0
300
1:20
140
1.0
141
20.0
290
     0
  0
SCALE
  5
180
102
{ACAD_REACTORS
330
177
102
}
330
177
100
AcDbScale
 70
     0
300
1:30
140
1.0
141
30.0
290
     0
  0
SCALE
  5
181
102
{ACAD_REACTORS
330
177
102
}
330
177
100
AcDbScale
 70
     0
300
1:40
140
1.0
141
40.0
290
     0
  0
SCALE
  5
182
102
{ACAD_REACTORS
330
177
102
}
330
177
100
AcDbScale
 70
     0
300
1:50
140
1.0
141
50.0
290
     0
  0
SCALE
  5
183
102
{ACAD_REACTORS
330
177
102
}
330
177
100
AcDbScale
 70
     0
300
1:100
140
1.0
141
100.0
290
     0
  0
SCALE
  5
184
102
{ACAD_REACTORS
330
177
102
}
330
177
100
AcDbScale
 70
     0
300
2:1
140
2.0
141
1.0
290
     0
  0
SCALE
  5
185
102
{ACAD_REACTORS
330
177
102
}
330
177
100
AcDbScale
 70
     0
300
4:1
140
4.0
141
1.0
290
     0
  0
SCALE
  5
186
102
{ACAD_REACTORS
330
177
102
}
330
177
100
AcDbScale
 70
     0
300
8:1
140
8.0
141
1.0
290
     0
  0
SCALE
  5
187
102
{ACAD_REACTORS
330
177
102
}
330
177
100
AcDbScale
 70
     0
300
10:1
140
10.0
141
1.0
290
     0
  0
SCALE
  5
188
102
{ACAD_REACTORS
330
177
102
}
330
177
100
AcDbScale
 70
     0
300
100:1
140
100.0
141
1.0
290
     0
  0
SCALE
  5
189
102
{ACAD_REACTORS
330
177
102
}
330
177
100
AcDbScale
 70
     0
300
1/128" = 1'-0"
140
0.0078125
141
12.0
290
     0
  0
SCALE
  5
18A
102
{ACAD_REACTORS
330
177
102
}
330
177
100
AcDbScale
 70
     0
300
1/64" = 1'-0"
140
0.015625
141
12.0
290
     0
  0
SCALE
  5
18B
102
{ACAD_REACTORS
330
177
102
}
330
177
100
AcDbScale
 70
     0
300
1/32" = 1'-0"
140
0.03125
141
12.0
290
     0
  0
SCALE
  5
18C
102
{ACAD_REACTORS
330
177
102
}
330
177
100
AcDbScale
 70
     0
300
1/16" = 1'-0"
140
0.0625
141
12.0
290
     0
  0
SCALE
  5
18D
102
{ACAD_REACTORS
330
177
102
}
330
177
100
AcDbScale
 70
     0
300
3/32" = 1'-0"
140
0.09375
141
12.0
290
     0
  0
SCALE
  5
18E
102
{ACAD_REACTORS
330
177
102
}
330
177
100
AcDbScale
 70
     0
300
1/8" = 1'-0"
140
0.125
141
12.0
290
     0
  0
SCALE
  5
18F
102
{ACAD_REACTORS
330
177
102
}
330
177
100
AcDbScale
 70
     0
300
3/16" = 1'-0"
140
0.1875
141
12.0
290
     0
  0
SCALE
  5
190
102
{ACAD_REACTORS
330
177
102
}
330
177
100
AcDbScale
 70
     0
300
1/4" = 1'-0"
140
0.25
141
12.0
290
     0
  0
SCALE
  5
191
102
{ACAD_REACTORS
330
177
102
}
330
177
100
AcDbScale
 70
     0
300
3/8" = 1'-0"
140
0.375
141
12.0
290
     0
  0
SCALE
  5
192
102
{ACAD_REACTORS
330
177
102
}
330
177
100
AcDbScale
 70
     0
300
1/2" = 1'-0"
140
0.5
141
12.0
290
     0
  0
SCALE
  5
193
102
{ACAD_REACTORS
330
177
102
}
330
177
100
AcDbScale
 70
     0
300
3/4" = 1'-0"
140
0.75
141
12.0
290
     0
  0
SCALE
  5
194
102
{ACAD_REACTORS
330
177
102
}
330
177
100
AcDbScale
 70
     0
300
1" = 1'-0"
140
1.0
141
12.0
290
     0
  0
SCALE
  5
195
102
{ACAD_REACTORS
330
177
102
}
330
177
100
AcDbScale
 70
     0
300
1-1/2" = 1'-0"
140
1.5
141
12.0
290
     0
  0
SCALE
  5
196
102
{ACAD_REACTORS
330
177
102
}
330
177
100
AcDbScale
 70
     0
300
3" = 1'-0"
140
3.0
141
12.0
290
     0
  0
SCALE
  5
197
102
{ACAD_REACTORS
330
177
102
}
330
177
100
AcDbScale
 70
     0
300
6" = 1'-0"
140
6.0
141
12.0
290
     0
  0
SCALE
  5
198
102
{ACAD_REACTORS
330
177
102
}
330
177
100
AcDbScale
 70
     0
300
1'-0" = 1'-0"
140
12.0
141
12.0
290
     0
  0
TABLESTYLE
  5
1BB
102
{ACAD_REACTORS
330
1BA
102
}
102
{ACAD_XDICTIONARY
360
535
102
}
330
1BA
100
AcDbTableStyle
  3
Standard
 70
     0
 71
     0
 40
0.06
 41
0.06
280
     0
281
     0
  7
STANDARD
140
0.18
170
     2
 62
     0
 63
   257
283
     0
 90
        4
 91
        0
  1

274
    -2
284
     1
 64
     0
275
    -2
285
     1
 65
     0
276
    -2
286
     1
 66
     0
277
    -2
287
     1
 67
     0
278
    -2
288
     1
 68
     0
279
    -2
289
     1
 69
     0
  7
STANDARD
140
0.25
170
     5
 62
     0
 63
   257
283
     0
 90
        4
 91
        0
  1

274
    -2
284
     1
 64
     0
275
    -2
285
     1
 65
     0
276
    -2
286
     1
 66
     0
277
    -2
287
     1
 67
     0
278
    -2
288
     1
 68
     0
279
    -2
289
     1
 69
     0
  7
STANDARD
140
0.18
170
     5
 62
     0
 63
   257
283
     0
 90
        4
 91
        0
  1

274
    -2
284
     1
 64
     0
275
    -2
285
     1
 65
     0
276
    -2
286
     1
 66
     0
277
    -2
287
     1
 67
     0
278
    -2
288
     1
 68
     0
279
    -2
289
     1
 69
     0
  0
VISUALSTYLE
  5
1A2
102
{ACAD_REACTORS
330
19D
102
}
330
19D
100
AcDbVisualStyle
  2
2dWireframe
 70
     4
 71
     0
 72
     2
 73
     0
 90
        0
 40
0.6
 41
30.0
 62
     5
 63
     7
421
 16777215
 74
     1
 91
        4
 64
     7
 65
   257
 75
     1
175
     1
 42
1.0
 92
        0
 66
   257
 43
1.0
 76
     1
 77
     6
 78
     2
 67
     7
 79
     5
170
     0
171
     0
290
     0
174
     0
 93
        1
 44
0.0
173
     0
291
     0
 45
0.0
  0
VISUALSTYLE
  5
1A5
102
{ACAD_REACTORS
330
19D
102
}
330
19D
100
AcDbVisualStyle
  2
Basic
 70
     7
 71
     1
 72
     0
 73
     1
 90
        0
 40
0.6
 41
30.0
 62
     5
 63
     7
421
 16777215
 74
     0
 91
        4
 64
     7
 65
   257
 75
     1
175
     1
 42
1.0
 92
        8
 66
     7
 43
1.0
 76
     1
 77
     6
 78
     2
 67
     7
 79
     5
170
     0
171
     0
290
     0
174
     0
 93
        1
 44
0.0
173
     0
291
     1
 45
0.0
  0
VISUALSTYLE
  5
1A9
102
{ACAD_REACTORS
330
19D
102
}
330
19D
100
AcDbVisualStyle
  2
Brighten
 70
    12
 71
     2
 72
     2
 73
     0
 90
        0
 40
0.6
 41
30.0
 62
     5
 63
     7
421
 16777215
 74
     1
 91
        4
 64
     7
 65
   257
 75
     1
175
     1
 42
1.0
 92
        8
 66
     7
 43
1.0
 76
     1
 77
     6
 78
     2
 67
     7
 79
     5
170
     0
171
     0
290
     0
174
     0
 93
        1
 44
50.0
173
     0
291
     1
 45
0.0
  0
VISUALSTYLE
  5
1AD
102
{ACAD_REACTORS
330
19D
102
}
330
19D
100
AcDbVisualStyle
  2
ColorChange
 70
    16
 71
     2
 72
     2
 73
     3
 90
        0
 40
0.6
 41
30.0
 62
     5
 63
     8
421
  8421504
 74
     1
 91
        4
 64
     7
 65
   257
 75
     1
175
     1
 42
1.0
 92
        8
 66
     8
424
  8421504
 43
1.0
 76
     1
 77
     6
 78
     2
 67
     7
 79
     5
170
     0
171
     0
290
     0
174
     0
 93
        1
 44
0.0
173
     0
291
     1
 45
0.0
  0
VISUALSTYLE
  5
1A7
102
{ACAD_REACTORS
330
19D
102
}
330
19D
100
AcDbVisualStyle
  2
Conceptual
 70
     9
 71
     3
 72
     2
 73
     0
 90
        0
 40
0.6
 41
30.0
 62
     5
 63
     7
421
 16777215
 74
     2
 91
        2
 64
     7
 65
   257
 75
     1
175
     1
 42
179.0
 92
        8
 66
     7
 43
1.0
 76
     1
 77
     6
 78
     2
 67
     7
 79
     3
170
     0
171
     0
290
     0
174
     0
 93
        1
 44
0.0
173
     0
291
     0
 45
0.0
  0
VISUALSTYLE
  5
1A8
102
{ACAD_REACTORS
330
19D
102
}
330
19D
100
AcDbVisualStyle
  2
Dim
 70
    11
 71
     2
 72
     2
 73
     0
 90
        0
 40
0.6
 41
30.0
 62
     5
 63
     7
421
 16777215
 74
     1
 91
        4
 64
     7
 65
   257
 75
     1
175
     1
 42
1.0
 92
        8
 66
     7
 43
1.0
 76
     1
 77
     6
 78
     2
 67
     7
 79
     5
170
     0
171
     0
290
     0
174
     0
 93
        1
 44
-50.0
173
     0
291
     1
 45
0.0
  0
VISUALSTYLE
  5
1B0
102
{ACAD_REACTORS
330
19D
102
}
330
19D
100
AcDbVisualStyle
  2
EdgeColorOff
 70
    22
 71
     2
 72
     2
 73
     0
 90
        0
 40
0.6
 41
30.0
 62
     5
 63
     7
421
 16777215
 74
     1
 91
        4
 64
     7
 65
   257
 75
     1
175
     1
 42
1.0
 92
        8
 66
     7
 43
1.0
 76
     1
 77
     6
 78
     2
 67
     7
 79
     5
170
     0
171
     0
290
     0
174
     0
 93
        1
 44
0.0
173
     0
291
     1
 45
0.0
  0
VISUALSTYLE
  5
1AC
102
{ACAD_REACTORS
330
19D
102
}
330
19D
100
AcDbVisualStyle
  2
Facepattern
 70
    15
 71
     2
 72
     2
 73
     0
 90
        0
 40
0.6
 41
30.0
 62
     5
 63
     7
421
 16777215
 74
     1
 91
        4
 64
     7
 65
   257
 75
     1
175
     1
 42
1.0
 92
        8
 66
     7
 43
1.0
 76
     1
 77
     6
 78
     2
 67
     7
 79
     5
170
     0
171
     0
290
     0
174
     0
 93
        1
 44
0.0
173
     0
291
     1
 45
0.0
  0
VISUALSTYLE
  5
19E
102
{ACAD_REACTORS
330
19D
102
}
330
19D
100
AcDbVisualStyle
  2
Flat
 70
     0
 71
     2
 72
     1
 73
     1
 90
        2
 40
0.6
 41
30.0
 62
     5
 63
     7
421
 16777215
 74
     0
 91
        0
 64
     7
 65
   257
 75
     1
175
     1
 42
1.0
 92
        8
 66
     7
 43
1.0
 76
     1
 77
     6
 78
     2
 67
     7
 79
     5
170
     0
171
     0
290
     0
174
     0
 93
       13
 44
0.0
173
     0
291
     1
 45
0.0
  0
VISUALSTYLE
  5
19F
102
{ACAD_REACTORS
330
19D
102
}
330
19D
100
AcDbVisualStyle
  2
FlatWithEdges
 70
     1
 71
     2
 72
     1
 73
     1
 90
        2
 40
0.6
 41
30.0
 62
     5
 63
     7
421
 16777215
 74
     1
 91
        0
 64
     7
 65
   257
 75
     1
175
     1
 42
1.0
 92
        0
 66
   257
 43
1.0
 76
     1
 77
     6
 78
     2
 67
     7
 79
     5
170
     0
171
     0
290
     0
174
     0
 93
       13
 44
0.0
173
     0
291
     1
 45
0.0
  0
VISUALSTYLE
  5
1A0
102
{ACAD_REACTORS
330
19D
102
}
330
19D
100
AcDbVisualStyle
  2
Gouraud
 70
     2
 71
     2
 72
     2
 73
     1
 90
        2
 40
0.6
 41
30.0
 62
     5
 63
     7
421
 16777215
 74
     0
 91
        0
 64
     7
 65
   257
 75
     1
175
     1
 42
1.0
 92
        0
 66
     7
 43
1.0
 76
     1
 77
     6
 78
     2
 67
     7
 79
     5
170
     0
171
     0
290
     0
174
     0
 93
       13
 44
0.0
173
     0
291
     1
 45
0.0
  0
VISUALSTYLE
  5
1A1
102
{ACAD_REACTORS
330
19D
102
}
330
19D
100
AcDbVisualStyle
  2
GouraudWithEdges
 70
     3
 71
     2
 72
     2
 73
     1
 90
        2
 40
0.6
 41
30.0
 62
     5
 63
     7
421
 16777215
 74
     1
 91
        0
 64
     7
 65
   257
 75
     1
175
     1
 42
1.0
 92
        0
 66
   257
 43
1.0
 76
     1
 77
     6
 78
     2
 67
     7
 79
     5
170
     0
171
     0
290
     0
174
     0
 93
       13
 44
0.0
173
     0
291
     1
 45
0.0
  0
VISUALSTYLE
  5
1A4
102
{ACAD_REACTORS
330
19D
102
}
330
19D
100
AcDbVisualStyle
  2
Hidden
 70
     6
 71
     1
 72
     2
 73
     2
 90
        0
 40
0.6
 41
30.0
 62
     5
 63
     7
421
 16777215
 74
     2
 91
        2
 64
     7
 65
   257
 75
     2
175
     1
 42
40.0
 92
        0
 66
   257
 43
1.0
 76
     1
 77
     6
 78
     2
 67
     7
 79
     3
170
     0
171
     0
290
     0
174
     0
 93
        1
 44
0.0
173
     0
291
     0
 45
0.0
  0
VISUALSTYLE
  5
1AE
102
{ACAD_REACTORS
330
19D
102
}
330
19D
100
AcDbVisualStyle
  2
JitterOff
 70
    20
 71
     2
 72
     2
 73
     0
 90
        0
 40
0.6
 41
30.0
 62
     5
 63
     7
421
 16777215
 74
     1
 91
        4
 64
     7
 65
   257
 75
     1
175
     1
 42
1.0
 92
       10
 66
     7
 43
1.0
 76
     1
 77
     6
 78
     2
 67
     7
 79
     5
170
     0
171
     0
290
     0
174
     0
 93
        1
 44
0.0
173
     0
291
     1
 45
0.0
  0
VISUALSTYLE
  5
1AB
102
{ACAD_REACTORS
330
19D
102
}
330
19D
100
AcDbVisualStyle
  2
Linepattern
 70
    14
 71
     2
 72
     2
 73
     0
 90
        0
 40
0.6
 41
30.0
 62
     5
 63
     7
421
 16777215
 74
     1
 91
        4
 64
     7
 65
   257
 75
     7
175
     7
 42
1.0
 92
        8
 66
     7
 43
1.0
 76
     1
 77
     6
 78
     2
 67
     7
 79
     5
170
     0
171
     0
290
     0
174
     0
 93
        1
 44
0.0
173
     0
291
     1
 45
0.0
  0
VISUALSTYLE
  5
1AF
102
{ACAD_REACTORS
330
19D
102
}
330
19D
100
AcDbVisualStyle
  2
OverhangOff
 70
    21
 71
     2
 72
     2
 73
     0
 90
        0
 40
0.6
 41
30.0
 62
     5
 63
     7
421
 16777215
 74
     1
 91
        4
 64
     7
 65
   257
 75
     1
175
     1
 42
1.0
 92
        9
 66
     7
 43
1.0
 76
     1
 77
     6
 78
     2
 67
     7
 79
     5
170
     0
171
     0
290
     0
174
     0
 93
        1
 44
0.0
173
     0
291
     1
 45
0.0
  0
VISUALSTYLE
  5
1A6
102
{ACAD_REACTORS
330
19D
102
}
330
19D
100
AcDbVisualStyle
  2
Realistic
 70
     8
 71
     2
 72
     3
 73
     0
 90
        2
 40
0.6
 41
30.0
 62
     5
 63
     7
421
 16777215
 74
     0
 91
        0
 64
     7
 65
   257
 75
     1
175
     1
 42
1.0
 92
        8
 66
   257
 43
1.0
 76
     1
 77
     6
 78
     2
 67
     7
 79
     3
170
     0
171
     0
290
     0
174
     0
 93
       13
 44
0.0
173
     0
291
     0
 45
0.0
  0
VISUALSTYLE
  5
1B5
102
{ACAD_REACTORS
330
19D
102
}
330
19D
100
AcDbVisualStyle
  2
Shaded
 70
    27
 71
     2
 72
     2
 73
     1
 90
        2
 40
0.6
 41
30.0
 62
     5
 63
     7
421
 16777215
 74
     0
 91
        4
 64
     7
 65
   257
 75
     1
175
     1
 42
1.0
 92
        8
 66
   257
 43
1.0
 76
     1
 77
     6
 78
     2
 67
     8
425
  7895160
 79
     3
170
     0
171
     0
290
     0
174
     0
 93
        5
 44
0.0
173
     0
291
     0
 45
0.0
  0
VISUALSTYLE
  5
1B4
102
{ACAD_REACTORS
330
19D
102
}
330
19D
100
AcDbVisualStyle
  2
Shaded with edges
 70
    26
 71
     2
 72
     2
 73
     1
 90
        2
 40
0.6
 41
30.0
 62
     5
 63
     7
421
 16777215
 74
     1
 91
       10
 64
     7
 65
   257
 75
     2
175
     1
 42
1.0
 92
        8
 66
   257
 43
1.0
 76
     1
 77
     6
 78
     2
 67
     7
 79
     3
170
     0
171
     0
290
     0
174
     0
 93
        5
 44
0.0
173
     0
291
     0
 45
0.0
  0
VISUALSTYLE
  5
1B1
102
{ACAD_REACTORS
330
19D
102
}
330
19D
100
AcDbVisualStyle
  2
Shades of Gray
 70
    23
 71
     2
 72
     2
 73
     3
 90
        0
 40
0.6
 41
30.0
 62
     5
 63
     7
421
 16777215
 74
     2
 91
        2
 64
     7
 65
     7
 75
     1
175
     1
 42
40.0
 92
        8
 66
     7
 43
1.0
 76
     1
 77
     6
 78
     2
 67
     7
 79
     3
170
     0
171
     0
290
     0
174
     0
 93
        1
 44
0.0
173
     0
291
     0
 45
0.0
  0
VISUALSTYLE
  5
1B2
102
{ACAD_REACTORS
330
19D
102
}
330
19D
100
AcDbVisualStyle
  2
Sketchy
 70
    24
 71
     1
 72
     2
 73
     2
 90
        0
 40
0.6
 41
30.0
 62
     5
 63
     7
421
 16777215
 74
     2
 91
        2
 64
     7
 65
     7
 75
     1
175
     1
 42
40.0
 92
       11
 66
     7
 43
1.0
 76
     1
 77
     6
 78
     2
 67
     7
 79
     6
170
     0
171
     0
290
     0
174
     0
 93
        1
 44
0.0
173
     0
291
     0
 45
0.0
  0
VISUALSTYLE
  5
1AA
102
{ACAD_REACTORS
330
19D
102
}
330
19D
100
AcDbVisualStyle
  2
Thicken
 70
    13
 71
     2
 72
     2
 73
     0
 90
        0
 40
0.6
 41
30.0
 62
     5
 63
     7
421
 16777215
 74
     1
 91
        4
 64
     7
 65
   257
 75
     1
175
     1
 42
1.0
 92
       12
 66
     7
 43
1.0
 76
     1
 77
     6
 78
     2
 67
     7
 79
     5
170
     0
171
     0
290
     0
174
     0
 93
        1
 44
0.0
173
     0
291
     1
 45
0.0
  0
VISUALSTYLE
  5
1A3
102
{ACAD_REACTORS
330
19D
102
}
330
19D
100
AcDbVisualStyle
  2
Wireframe
 70
     5
 71
     0
 72
     2
 73
     0
 90
        0
 40
0.6
 41
30.0
 62
     5
 63
     7
421
 16777215
 74
     1
 91
        4
 64
     7
 65
   257
 75
     1
175
     1
 42
1.0
 92
        0
 66
   257
 43
1.0
 76
     1
 77
     6
 78
     2
 67
     7
 79
     3
170
     0
171
     0
290
     0
174
     0
 93
        1
 44
0.0
173
     0
291
     0
 45
0.0
  0
VISUALSTYLE
  5
1B3
102
{ACAD_REACTORS
330
19D
102
}
330
19D
100
AcDbVisualStyle
  2
X-Ray
 70
    25
 71
     2
 72
     2
 73
     1
 90
        1
 40
0.5
 41
30.0
 62
     5
 63
     7
421
 16777215
 74
     1
 91
        0
 64
     7
 65
   257
 75
     1
175
     1
 42
1.0
 92
        8
 66
     7
 43
1.0
 76
     1
 77
     6
 78
     2
 67
     7
 79
     3
170
     0
171
     0
290
     0
174
     0
 93
       13
 44
0.0
173
     0
291
     0
 45
0.0
  0
DICTIONARYVAR
  5
52B
102
{ACAD_REACTORS
330
52A
102
}
330
52A
100
DictionaryVariables
280
     0
  1
1:1
  0
DICTIONARYVAR
  5
530
102
{ACAD_REACTORS
330
52A
102
}
330
52A
100
DictionaryVariables
280
     0
  1
Standard
  0
DICTIONARYVAR
  5
52C
102
{ACAD_REACTORS
330
52A
102
}
330
52A
100
DictionaryVariables
280
     0
  1
0
  0
DICTIONARYVAR
  5
531
102
{ACAD_REACTORS
330
52A
102
}
330
52A
100
DictionaryVariables
280
     0
  1
0
  0
DICTIONARYVAR
  5
534
102
{ACAD_REACTORS
330
52A
102
}
330
52A
100
DictionaryVariables
280
     0
  1
0
  0
DICTIONARY
  5
535
330
1BB
100
AcDbDictionary
280
     1
281
     1
  3
ACAD_ROUNDTRIP_2008_TABLESTYLE_CELLSTYLEMAP
360
536
  0
CELLSTYLEMAP
  5
536
102
{ACAD_REACTORS
330
535
102
}
330
535
100
AcDbCellStyleMap
 90
        3
300
CELLSTYLE
  1
TABLEFORMAT_BEGIN
 90
        5
170
     1
 91
        0
 92
        0
 62
   257
 93
        1
300
CONTENTFORMAT
  1
CONTENTFORMAT_BEGIN
 90
        0
 91
        0
 92
        4
 93
        0
300

 40
0.0
140
1.0
 94
        5
 62
     0
340
11
144
0.25
309
CONTENTFORMAT_END
171
     1
301
MARGIN
  1
CELLMARGIN_BEGIN
 40
0.06
 40
0.06
 40
0.06
 40
0.06
 40
0.06
 40
0.06
309
CELLMARGIN_END
 94
        6
 95
        1
302
GRIDFORMAT
  1
GRIDFORMAT_BEGIN
 90
        0
 91
        1
 62
     0
 92
       -2
340
14
 93
        0
 40
0.045
309
GRIDFORMAT_END
 95
        2
302
GRIDFORMAT
  1
GRIDFORMAT_BEGIN
 90
        0
 91
        1
 62
     0
 92
       -2
340
14
 93
        0
 40
0.045
309
GRIDFORMAT_END
 95
        4
302
GRIDFORMAT
  1
GRIDFORMAT_BEGIN
 90
        0
 91
        1
 62
     0
 92
       -2
340
14
 93
        0
 40
0.045
309
GRIDFORMAT_END
 95
        8
302
GRIDFORMAT
  1
GRIDFORMAT_BEGIN
 90
        0
 91
        1
 62
     0
 92
       -2
340
14
 93
        0
 40
0.045
309
GRIDFORMAT_END
 95
       16
302
GRIDFORMAT
  1
GRIDFORMAT_BEGIN
 90
        0
 91
        1
 62
     0
 92
       -2
340
14
 93
        0
 40
0.045
309
GRIDFORMAT_END
 95
       32
302
GRIDFORMAT
  1
GRIDFORMAT_BEGIN
 90
        0
 91
        1
 62
     0
 92
       -2
340
14
 93
        0
 40
0.045
309
GRIDFORMAT_END
309
TABLEFORMAT_END
  1
CELLSTYLE_BEGIN
 90
        1
 91
        1
300
_TITLE
309
CELLSTYLE_END
300
CELLSTYLE
  1
TABLEFORMAT_BEGIN
 90
        5
170
     1
 91
        0
 92
        0
 62
   257
 93
        1
300
CONTENTFORMAT
  1
CONTENTFORMAT_BEGIN
 90
        0
 91
        0
 92
        4
 93
        0
300

 40
0.0
140
1.0
 94
        5
 62
     0
340
11
144
0.18
309
CONTENTFORMAT_END
171
     1
301
MARGIN
  1
CELLMARGIN_BEGIN
 40
0.06
 40
0.06
 40
0.06
 40
0.06
 40
0.06
 40
0.06
309
CELLMARGIN_END
 94
        6
 95
        1
302
GRIDFORMAT
  1
GRIDFORMAT_BEGIN
 90
        0
 91
        1
 62
     0
 92
       -2
340
14
 93
        0
 40
0.045
309
GRIDFORMAT_END
 95
        2
302
GRIDFORMAT
  1
GRIDFORMAT_BEGIN
 90
        0
 91
        1
 62
     0
 92
       -2
340
14
 93
        0
 40
0.045
309
GRIDFORMAT_END
 95
        4
302
GRIDFORMAT
  1
GRIDFORMAT_BEGIN
 90
        0
 91
        1
 62
     0
 92
       -2
340
14
 93
        0
 40
0.045
309
GRIDFORMAT_END
 95
        8
302
GRIDFORMAT
  1
GRIDFORMAT_BEGIN
 90
        0
 91
        1
 62
     0
 92
       -2
340
14
 93
        0
 40
0.045
309
GRIDFORMAT_END
 95
       16
302
GRIDFORMAT
  1
GRIDFORMAT_BEGIN
 90
        0
 91
        1
 62
     0
 92
       -2
340
14
 93
        0
 40
0.045
309
GRIDFORMAT_END
 95
       32
302
GRIDFORMAT
  1
GRIDFORMAT_BEGIN
 90
        0
 91
        1
 62
     0
 92
       -2
340
14
 93
        0
 40
0.045
309
GRIDFORMAT_END
309
TABLEFORMAT_END
  1
CELLSTYLE_BEGIN
 90
        2
 91
        1
300
_HEADER
309
CELLSTYLE_END
300
CELLSTYLE
  1
TABLEFORMAT_BEGIN
 90
        5
170
     1
 91
        0
 92
        0
 62
   257
 93
        1
300
CONTENTFORMAT
  1
CONTENTFORMAT_BEGIN
 90
        0
 91
        0
 92
        4
 93
        0
300

 40
0.0
140
1.0
 94
        2
 62
     0
340
11
144
0.18
309
CONTENTFORMAT_END
171
     1
301
MARGIN
  1
CELLMARGIN_BEGIN
 40
0.06
 40
0.06
 40
0.06
 40
0.06
 40
0.06
 40
0.06
309
CELLMARGIN_END
 94
        6
 95
        1
302
GRIDFORMAT
  1
GRIDFORMAT_BEGIN
 90
        0
 91
        1
 62
     0
 92
       -2
340
14
 93
        0
 40
0.045
309
GRIDFORMAT_END
 95
        2
302
GRIDFORMAT
  1
GRIDFORMAT_BEGIN
 90
        0
 91
        1
 62
     0
 92
       -2
340
14
 93
        0
 40
0.045
309
GRIDFORMAT_END
 95
        4
302
GRIDFORMAT
  1
GRIDFORMAT_BEGIN
 90
        0
 91
        1
 62
     0
 92
       -2
340
14
 93
        0
 40
0.045
309
GRIDFORMAT_END
 95
        8
302
GRIDFORMAT
  1
GRIDFORMAT_BEGIN
 90
        0
 91
        1
 62
     0
 92
       -2
340
14
 93
        0
 40
0.045
309
GRIDFORMAT_END
 95
       16
302
GRIDFORMAT
  1
GRIDFORMAT_BEGIN
 90
        0
 91
        1
 62
     0
 92
       -2
340
14
 93
        0
 40
0.045
309
GRIDFORMAT_END
 95
       32
302
GRIDFORMAT
  1
GRIDFORMAT_BEGIN
 90
        0
 91
        1
 62
     0
 92
       -2
340
14
 93
        0
 40
0.045
309
GRIDFORMAT_END
309
TABLEFORMAT_END
  1
CELLSTYLE_BEGIN
 90
        3
 91
        2
300
_DATA
309
CELLSTYLE_END
  0
ENDSEC
  0
EOF
