  0
SECTION
  2
HEADER
  9
$ACADVER
  1
AC1021
  9
$ACADMAINTVER
 70
    25
  9
$DWGCODEPAGE
  3
ANSI_932
  9
$LASTSAVEDBY
  1
Shimosaki
  9
$INSBASE
 10
0.0
 20
0.0
 30
0.0
  9
$EXTMIN
 10
0.0
 20
0.0
 30
0.0
  9
$EXTMAX
 10
1485.0
 20
1050.0
 30
0.0
  9
$LIMMIN
 10
-1980.44266008778
 20
-210.6015747910527
  9
$LIMMAX
 10
-495.4426600877803
 20
839.3984252089471
  9
$ORTHOMODE
 70
     0
  9
$REGENMODE
 70
     1
  9
$FILLMODE
 70
     1
  9
$QTEXTMODE
 70
     0
  9
$MIRRTEXT
 70
     1
  9
$LTSCALE
 40
5.0
  9
$ATTMODE
 70
     1
  9
$TEXTSIZE
 40
0.2
  9
$TRACEWID
 40
0.05
  9
$TEXTSTYLE
  7
STANDARD
  9
$CLAYER
  8
0
  9
$CELTYPE
  6
ByBlock
  9
$CECOLOR
 62
   256
  9
$CELTSCALE
 40
1.0
  9
$DISPSILH
 70
     0
  9
$DIMSCALE
 40
1.0
  9
$DIMASZ
 40
0.18
  9
$DIMEXO
 40
0.0625
  9
$DIMDLI
 40
0.38
  9
$DIMRND
 40
0.0
  9
$DIMDLE
 40
0.0
  9
$DIMEXE
 40
0.18
  9
$DIMTP
 40
0.0
  9
$DIMTM
 40
0.0
  9
$DIMTXT
 40
0.18
  9
$DIMCEN
 40
0.09
  9
$DIMTSZ
 40
0.0
  9
$DIMTOL
 70
     0
  9
$DIMLIM
 70
     0
  9
$DIMTIH
 70
     1
  9
$DIMTOH
 70
     1
  9
$DIMSE1
 70
     0
  9
$DIMSE2
 70
     0
  9
$DIMTAD
 70
     0
  9
$DIMZIN
 70
     0
  9
$DIMBLK
  1

  9
$DIMASO
 70
     1
  9
$DIMSHO
 70
     1
  9
$DIMPOST
  1

  9
$DIMAPOST
  1

  9
$DIMALT
 70
     0
  9
$DIMALTD
 70
     2
  9
$DIMALTF
 40
25.4
  9
$DIMLFAC
 40
1.0
  9
$DIMTOFL
 70
     0
  9
$DIMTVP
 40
0.0
  9
$DIMTIX
 70
     0
  9
$DIMSOXD
 70
     0
  9
$DIMSAH
 70
     0
  9
$DIMBLK1
  1

  9
$DIMBLK2
  1

  9
$DIMSTYLE
  2
Standard
  9
$DIMCLRD
 70
     0
  9
$DIMCLRE
 70
     0
  9
$DIMCLRT
 70
     0
  9
$DIMTFAC
 40
1.0
  9
$DIMGAP
 40
0.09
  9
$DIMJUST
 70
     0
  9
$DIMSD1
 70
     0
  9
$DIMSD2
 70
     0
  9
$DIMTOLJ
 70
     1
  9
$DIMTZIN
 70
     0
  9
$DIMALTZ
 70
     0
  9
$DIMALTTZ
 70
     0
  9
$DIMUPT
 70
     0
  9
$DIMDEC
 70
     4
  9
$DIMTDEC
 70
     4
  9
$DIMALTU
 70
     2
  9
$DIMALTTD
 70
     2
  9
$DIMTXSTY
  7
STANDARD
  9
$DIMAUNIT
 70
     0
  9
$DIMADEC
 70
     0
  9
$DIMALTRND
 40
0.0
  9
$DIMAZIN
 70
     0
  9
$DIMDSEP
 70
    46
  9
$DIMATFIT
 70
     3
  9
$DIMFRAC
 70
     0
  9
$DIMLDRBLK
  1

  9
$DIMLUNIT
 70
     2
  9
$DIMLWD
 70
    -2
  9
$DIMLWE
 70
    -2
  9
$DIMTMOVE
 70
     2
  9
$DIMFXL
 40
1.0
  9
$DIMFXLON
 70
     0
  9
$DIMJOGANG
 40
0.7853981633974483
  9
$DIMTFILL
 70
     0
  9
$DIMTFILLCLR
 70
     0
  9
$DIMARCSYM
 70
     0
  9
$DIMLTYPE
  6

  9
$DIMLTEX1
  6

  9
$DIMLTEX2
  6

  9
$LUNITS
 70
     2
  9
$LUPREC
 70
     4
  9
$SKETCHINC
 40
0.1
  9
$FILLETRAD
 40
0.5
  9
$AUNITS
 70
     0
  9
$AUPREC
 70
     0
  9
$MENU
  1
.
  9
$ELEVATION
 40
0.0
  9
$PELEVATION
 40
0.0
  9
$THICKNESS
 40
0.0
  9
$LIMCHECK
 70
     0
  9
$CHAMFERA
 40
0.0
  9
$CHAMFERB
 40
0.0
  9
$CHAMFERC
 40
0.0
  9
$CHAMFERD
 40
0.0
  9
$SKPOLY
 70
     0
  9
$TDCREATE
 40
2456763.447646539
  9
$TDUCREATE
 40
2456763.072646539
  9
$TDUPDATE
 40
2456763.453959653
  9
$TDUUPDATE
 40
2456763.078959653
  9
$TDINDWG
 40
0.0054571991
  9
$TDUSRTIMER
 40
2456763.078718241
  9
$USRTIMER
 70
     1
  9
$ANGBASE
 50
0.0
  9
$ANGDIR
 70
     0
  9
$PDMODE
 70
     0
  9
$PDSIZE
 40
0.0
  9
$PLINEWID
 40
0.0
  9
$SPLFRAME
 70
     0
  9
$SPLINETYPE
 70
     6
  9
$SPLINESEGS
 70
     8
  9
$HANDSEED
  5
4FE
  9
$SURFTAB1
 70
     6
  9
$SURFTAB2
 70
     6
  9
$SURFTYPE
 70
     6
  9
$SURFU
 70
     6
  9
$SURFV
 70
     6
  9
$UCSBASE
  2

  9
$UCSNAME
  2

  9
$UCSORG
 10
0.0
 20
0.0
 30
0.0
  9
$UCSXDIR
 10
1.0
 20
0.0
 30
0.0
  9
$UCSYDIR
 10
0.0
 20
1.0
 30
0.0
  9
$UCSORTHOREF
  2

  9
$UCSORTHOVIEW
 70
     0
  9
$UCSORGTOP
 10
0.0
 20
0.0
 30
0.0
  9
$UCSORGBOTTOM
 10
0.0
 20
0.0
 30
0.0
  9
$UCSORGLEFT
 10
0.0
 20
0.0
 30
0.0
  9
$UCSORGRIGHT
 10
0.0
 20
0.0
 30
0.0
  9
$UCSORGFRONT
 10
0.0
 20
0.0
 30
0.0
  9
$UCSORGBACK
 10
0.0
 20
0.0
 30
0.0
  9
$PUCSBASE
  2

  9
$PUCSNAME
  2

  9
$PUCSORG
 10
0.0
 20
0.0
 30
0.0
  9
$PUCSXDIR
 10
1.0
 20
0.0
 30
0.0
  9
$PUCSYDIR
 10
0.0
 20
1.0
 30
0.0
  9
$PUCSORTHOREF
  2

  9
$PUCSORTHOVIEW
 70
     0
  9
$PUCSORGTOP
 10
0.0
 20
0.0
 30
0.0
  9
$PUCSORGBOTTOM
 10
0.0
 20
0.0
 30
0.0
  9
$PUCSORGLEFT
 10
0.0
 20
0.0
 30
0.0
  9
$PUCSORGRIGHT
 10
0.0
 20
0.0
 30
0.0
  9
$PUCSORGFRONT
 10
0.0
 20
0.0
 30
0.0
  9
$PUCSORGBACK
 10
0.0
 20
0.0
 30
0.0
  9
$USERI1
 70
     0
  9
$USERI2
 70
     0
  9
$USERI3
 70
     0
  9
$USERI4
 70
     0
  9
$USERI5
 70
     0
  9
$USERR1
 40
0.0
  9
$USERR2
 40
0.0
  9
$USERR3
 40
0.0
  9
$USERR4
 40
0.0
  9
$USERR5
 40
0.0
  9
$WORLDVIEW
 70
     1
  9
$SHADEDGE
 70
     3
  9
$SHADEDIF
 70
    70
  9
$TILEMODE
 70
     1
  9
$MAXACTVP
 70
    64
  9
$PINSBASE
 10
0.0
 20
0.0
 30
0.0
  9
$PLIMCHECK
 70
     0
  9
$PEXTMIN
 10
1.000000000000000E+20
 20
1.000000000000000E+20
 30
1.000000000000000E+20
  9
$PEXTMAX
 10
-1.000000000000000E+20
 20
-1.000000000000000E+20
 30
-1.000000000000000E+20
  9
$PLIMMIN
 10
0.0
 20
0.0
  9
$PLIMMAX
 10
0.0
 20
0.0
  9
$UNITMODE
 70
     0
  9
$VISRETAIN
 70
     1
  9
$PLINEGEN
 70
     0
  9
$PSLTSCALE
 70
     1
  9
$TREEDEPTH
 70
  3020
  9
$CMLSTYLE
  2
Standard
  9
$CMLJUST
 70
     0
  9
$CMLSCALE
 40
1.0
  9
$PROXYGRAPHICS
 70
     1
  9
$MEASUREMENT
 70
     0
  9
$CELWEIGHT
370
    -1
  9
$ENDCAPS
280
     0
  9
$JOINSTYLE
280
     0
  9
$LWDISPLAY
290
     0
  9
$INSUNITS
 70
     0
  9
$HYPERLINKBASE
  1

  9
$STYLESHEET
  1

  9
$XEDIT
290
     1
  9
$CEPSNTYPE
380
     0
  9
$PSTYLEMODE
290
     1
  9
$FINGERPRINTGUID
  2
{E616B071-4AA5-42D5-838F-B3DFD7AF2D53}
  9
$VERSIONGUID
  2
{FAEB1C32-E019-11D5-929B-00C0DF256EC4}
  9
$EXTNAMES
290
     1
  9
$PSVPSCALE
 40
0.0
  9
$OLESTARTUP
290
     0
  9
$SORTENTS
280
   127
  9
$INDEXCTL
280
     0
  9
$HIDETEXT
280
     1
  9
$XCLIPFRAME
290
     0
  9
$HALOGAP
280
     0
  9
$OBSCOLOR
 70
   257
  9
$OBSLTYPE
280
     0
  9
$INTERSECTIONDISPLAY
280
     0
  9
$INTERSECTIONCOLOR
 70
   257
  9
$DIMASSOC
280
     2
  9
$PROJECTNAME
  1

  9
$CAMERADISPLAY
290
     0
  9
$LENSLENGTH
 40
50.0
  9
$CAMERAHEIGHT
 40
0.0
  9
$STEPSPERSEC
 40
2.0
  9
$STEPSIZE
 40
6.0
  9
$3DDWFPREC
 40
2.0
  9
$PSOLWIDTH
 40
0.25
  9
$PSOLHEIGHT
 40
4.0
  9
$LOFTANG1
 40
1.570796326794897
  9
$LOFTANG2
 40
1.570796326794897
  9
$LOFTMAG1
 40
0.0
  9
$LOFTMAG2
 40
0.0
  9
$LOFTPARAM
 70
     7
  9
$LOFTNORMALS
280
     1
  9
$LATITUDE
 40
37.795
  9
$LONGITUDE
 40
-122.394
  9
$NORTHDIRECTION
 40
0.0
  9
$TIMEZONE
 70
 -8000
  9
$LIGHTGLYPHDISPLAY
280
     1
  9
$TILEMODELIGHTSYNCH
280
     1
  9
$SOLIDHIST
280
     1
  9
$SHOWHIST
280
     1
  9
$DWFFRAME
280
     2
  9
$DGNFRAME
280
     2
  9
$REALWORLDSCALE
290
     1
  9
$INTERFERECOLOR
 62
   256
  9
$CSHADOW
280
     0
  9
$SHADOWPLANELOCATION
 40
0.0
  0
ENDSEC
  0
SECTION
  2
CLASSES
  0
CLASS
  1
ACDBDICTIONARYWDFLT
  2
AcDbDictionaryWithDefault
  3
ObjectDBX Classes
 90
        0
 91
        5
280
     0
281
     0
  0
CLASS
  1
SCALE
  2
AcDbScale
  3
ObjectDBX Classes
 90
     1153
 91
        5
280
     0
281
     0
  0
CLASS
  1
VISUALSTYLE
  2
AcDbVisualStyle
  3
ObjectDBX Classes
 90
     4095
 91
        5
280
     0
281
     0
  0
CLASS
  1
MATERIAL
  2
AcDbMaterial
  3
ObjectDBX Classes
 90
     1153
 91
        5
280
     0
281
     0
  0
CLASS
  1
TABLESTYLE
  2
AcDbTableStyle
  3
ObjectDBX Classes
 90
     4095
 91
        5
280
     0
281
     0
  0
CLASS
  1
SUN
  2
AcDbSun
  3
SCENEOE
 90
     1153
 91
        5
280
     0
281
     0
  0
CLASS
  1
RASTERVARIABLES
  2
AcDbRasterVariables
  3
ISM
 90
        0
 91
        5
280
     0
281
     0
  0
CLASS
  1
DIMASSOC
  2
AcDbDimAssoc
  3
"AcDbDimAssoc|Product Desc:     AcDim ARX App For Dimension|Company:          Autodesk, Inc.|WEB Address:      www.autodesk.com"
 90
        0
 91
        4
280
     0
281
     0
  0
CLASS
  1
DICTIONARYVAR
  2
AcDbDictionaryVar
  3
ObjectDBX Classes
 90
        0
 91
        4
280
     0
281
     0
  0
CLASS
  1
CELLSTYLEMAP
  2
AcDbCellStyleMap
  3
ObjectDBX Classes
 90
     1152
 91
        4
280
     0
281
     0
  0
ENDSEC
  0
SECTION
  2
TABLES
  0
TABLE
  2
VPORT
  5
8
330
0
100
AcDbSymbolTable
 70
     1
  0
VPORT
  5
176
330
8
100
AcDbSymbolTableRecord
100
AcDbViewportTableRecord
  2
*Active
 70
     0
 10
0.0
 20
0.0
 11
1.0
 21
1.0
 12
-1637.919024206115
 22
10.17415624044699
 13
0.0
 23
0.0
 14
0.5
 24
0.5
 15
0.5
 25
0.5
 16
0.0
 26
0.0
 36
1.0
 17
0.0
 27
0.0
 37
0.0
 40
780.625564189562
 41
2.213422818791946
 42
50.0
 43
0.0
 44
0.0
 50
0.0
 51
0.0
 71
    16
 72
   100
 73
     1
 74
     3
 75
     0
 76
     0
 77
     0
 78
     0
281
     0
 65
     1
110
0.0
120
0.0
130
0.0
111
1.0
121
0.0
131
0.0
112
0.0
122
1.0
132
0.0
 79
     0
146
0.0
348
1A2
 60
     3
 61
     5
292
     1
282
     1
141
0.0
142
0.0
 63
   250
361
1BD
  0
ENDTAB
  0
TABLE
  2
LTYPE
  5
5
330
0
100
AcDbSymbolTable
 70
    45
  0
LTYPE
  5
14
330
5
100
AcDbSymbolTableRecord
100
AcDbLinetypeTableRecord
  2
ByBlock
 70
     0
  3

 72
    65
 73
     0
 40
0.0
  0
LTYPE
  5
15
330
5
100
AcDbSymbolTableRecord
100
AcDbLinetypeTableRecord
  2
ByLayer
 70
     0
  3

 72
    65
 73
     0
 40
0.0
  0
LTYPE
  5
16
330
5
100
AcDbSymbolTableRecord
100
AcDbLinetypeTableRecord
  2
CONTINUOUS
 70
     0
  3
実線
 72
    65
 73
     0
 40
0.0
  0
LTYPE
  5
21
330
5
100
AcDbSymbolTableRecord
100
AcDbLinetypeTableRecord
  2
DASHED1
 70
     0
  3
--  --  --  --  --  --  --  --  
 72
    65
 73
     2
 40
2.5
 49
1.25
 74
     0
 49
-1.25
 74
     0
  0
LTYPE
  5
22
330
5
100
AcDbSymbolTableRecord
100
AcDbLinetypeTableRecord
  2
DASHED2
 70
     0
  3
----    ----    ----    ----    
 72
    65
 73
     2
 40
5.0
 49
2.5
 74
     0
 49
-2.5
 74
     0
  0
LTYPE
  5
23
330
5
100
AcDbSymbolTableRecord
100
AcDbLinetypeTableRecord
  2
DASHED3
 70
     0
  3
------  ------  ------  ------  
 72
    65
 73
     2
 40
5.0
 49
3.75
 74
     0
 49
-1.25
 74
     0
  0
LTYPE
  5
24
330
5
100
AcDbSymbolTableRecord
100
AcDbLinetypeTableRecord
  2
CENTER1
 70
     0
  3
----- - ----- - ----- - ----- - 
 72
    65
 73
     4
 40
10.0
 49
6.25
 74
     0
 49
-1.25
 74
     0
 49
1.25
 74
     0
 49
-1.25
 74
     0
  0
LTYPE
  5
25
330
5
100
AcDbSymbolTableRecord
100
AcDbLinetypeTableRecord
  2
CENTER2
 70
     0
  3
----------  --  ----------  --  
 72
    65
 73
     4
 40
20.0
 49
12.5
 74
     0
 49
-2.5
 74
     0
 49
2.5
 74
     0
 49
-2.5
 74
     0
  0
LTYPE
  5
26
330
5
100
AcDbSymbolTableRecord
100
AcDbLinetypeTableRecord
  2
PHANTOM1
 70
     0
  3
--- - - --- - - --- - - --- - - 
 72
    65
 73
     6
 40
9.5
 49
3.25
 74
     0
 49
-1.25
 74
     0
 49
1.25
 74
     0
 49
-1.25
 74
     0
 49
1.25
 74
     0
 49
-1.25
 74
     0
  0
LTYPE
  5
27
330
5
100
AcDbSymbolTableRecord
100
AcDbLinetypeTableRecord
  2
PHANTOM2
 70
     0
  3
--------  -  -  --------  -  -  
 72
    65
 73
     6
 40
20.0
 49
10.0
 74
     0
 49
-2.5
 74
     0
 49
1.25
 74
     0
 49
-2.5
 74
     0
 49
1.25
 74
     0
 49
-2.5
 74
     0
  0
LTYPE
  5
28
330
5
100
AcDbSymbolTableRecord
100
AcDbLinetypeTableRecord
  2
DOT
 70
     0
  3
-   -   -   -   -   -   -   -   
 72
    65
 73
     2
 40
2.5
 49
0.625
 74
     0
 49
-1.875
 74
     0
  0
LTYPE
  5
29
330
5
100
AcDbSymbolTableRecord
100
AcDbLinetypeTableRecord
  2
DUMMY
 70
     0
  3
ダミー
 72
    65
 73
     0
 40
0.0
  0
LTYPE
  5
2A
330
5
100
AcDbSymbolTableRecord
100
AcDbLinetypeTableRecord
  2
RAND1
 70
     0
  3
ランダム線1
 72
    65
 73
     4
 40
10.0
 49
1.0
 74
     0
 49
-2.0
 74
     0
 49
3.0
 74
     0
 49
-4.0
 74
     0
  0
LTYPE
  5
2B
330
5
100
AcDbSymbolTableRecord
100
AcDbLinetypeTableRecord
  2
RAND2
 70
     0
  3
ランダム線2
 72
    65
 73
     4
 40
14.0
 49
2.0
 74
     0
 49
-3.0
 74
     0
 49
4.0
 74
     0
 49
-5.0
 74
     0
  0
LTYPE
  5
2C
330
5
100
AcDbSymbolTableRecord
100
AcDbLinetypeTableRecord
  2
RAND3
 70
     0
  3
ランダム線3
 72
    65
 73
     4
 40
18.0
 49
3.0
 74
     0
 49
-4.0
 74
     0
 49
5.0
 74
     0
 49
-6.0
 74
     0
  0
LTYPE
  5
2D
330
5
100
AcDbSymbolTableRecord
100
AcDbLinetypeTableRecord
  2
RAND4
 70
     0
  3
ランダム線4
 72
    65
 73
     4
 40
22.0
 49
4.0
 74
     0
 49
-5.0
 74
     0
 49
6.0
 74
     0
 49
-7.0
 74
     0
  0
LTYPE
  5
2E
330
5
100
AcDbSymbolTableRecord
100
AcDbLinetypeTableRecord
  2
RAND5
 70
     0
  3
ランダム線5
 72
    65
 73
     4
 40
26.0
 49
5.0
 74
     0
 49
-6.0
 74
     0
 49
7.0
 74
     0
 49
-8.0
 74
     0
  0
LTYPE
  5
2F
330
5
100
AcDbSymbolTableRecord
100
AcDbLinetypeTableRecord
  2
LONG1
 70
     0
  3
----------  --  ----------  --  
 72
    65
 73
     4
 40
40.0
 49
32.5
 74
     0
 49
-2.5
 74
     0
 49
2.5
 74
     0
 49
-2.5
 74
     0
  0
LTYPE
  5
30
330
5
100
AcDbSymbolTableRecord
100
AcDbLinetypeTableRecord
  2
LONG2
 70
     0
  3
--------  -  -  --------  -  -  
 72
    65
 73
     6
 40
40.0
 49
30.0
 74
     0
 49
-2.5
 74
     0
 49
1.25
 74
     0
 49
-2.5
 74
     0
 49
1.25
 74
     0
 49
-2.5
 74
     0
  0
LTYPE
  5
31
330
5
100
AcDbSymbolTableRecord
100
AcDbLinetypeTableRecord
  2
LONG3
 70
     0
  3
+++++++++++++++..+++++++++++++++
 72
    65
 73
     2
 40
40.0
 49
37.5
 74
     0
 49
-2.5
 74
     0
  0
LTYPE
  5
32
330
5
100
AcDbSymbolTableRecord
100
AcDbLinetypeTableRecord
  2
LONG4
 70
     0
  3
+++++++++++++++..+++++++++++++++
 72
    65
 73
     2
 40
80.0
 49
75.0
 74
     0
 49
-5.0
 74
     0
  0
LTYPE
  5
33
330
5
100
AcDbSymbolTableRecord
100
AcDbLinetypeTableRecord
  2
LONG5
 70
     0
  3
----------  --  ----------  --  
 72
    65
 73
     4
 40
60.0
 49
37.5
 74
     0
 49
-7.5
 74
     0
 49
7.5
 74
     0
 49
-7.5
 74
     0
  0
LTYPE
  5
34
330
5
100
AcDbSymbolTableRecord
100
AcDbLinetypeTableRecord
  2
dashed
 70
     0
  3
-------   -------------   ------
 72
    65
 73
     2
 40
7.5
 49
6.0
 74
     0
 49
-1.5
 74
     0
  0
LTYPE
  5
35
330
5
100
AcDbSymbolTableRecord
100
AcDbLinetypeTableRecord
  2
dashed_spaced
 70
     0
  3
----        --------        ----
 72
    65
 73
     2
 40
12.0
 49
6.0
 74
     0
 49
-6.0
 74
     0
  0
LTYPE
  5
36
330
5
100
AcDbSymbolTableRecord
100
AcDbLinetypeTableRecord
  2
long_dashed_dotted
 70
     0
  3
------------- --- --------------
 72
    65
 73
     4
 40
15.25
 49
12.0
 74
     0
 49
-1.5
 74
     0
 49
0.25
 74
     0
 49
-1.5
 74
     0
  0
LTYPE
  5
37
330
5
100
AcDbSymbolTableRecord
100
AcDbLinetypeTableRecord
  2
long_dashed_double-dotted
 70
     0
  3
----------- --- --- ------------
 72
    65
 73
     6
 40
17.0
 49
12.0
 74
     0
 49
-1.5
 74
     0
 49
0.25
 74
     0
 49
-1.5
 74
     0
 49
0.25
 74
     0
 49
-1.5
 74
     0
  0
LTYPE
  5
38
330
5
100
AcDbSymbolTableRecord
100
AcDbLinetypeTableRecord
  2
long_dashed_triplicate-dotted
 70
     0
  3
--------- --- --- --- ----------
 72
    65
 73
     8
 40
18.75
 49
12.0
 74
     0
 49
-1.5
 74
     0
 49
0.25
 74
     0
 49
-1.5
 74
     0
 49
0.25
 74
     0
 49
-1.5
 74
     0
 49
0.25
 74
     0
 49
-1.5
 74
     0
  0
LTYPE
  5
39
330
5
100
AcDbSymbolTableRecord
100
AcDbLinetypeTableRecord
  2
dotted
 70
     0
  3
   -       -       -       -    
 72
    65
 73
     2
 40
1.75
 49
0.25
 74
     0
 49
-1.5
 74
     0
  0
LTYPE
  5
3A
330
5
100
AcDbSymbolTableRecord
100
AcDbLinetypeTableRecord
  2
chain
 70
     0
  3
-------------- -- --------------
 72
    65
 73
     4
 40
18.5
 49
12.0
 74
     0
 49
-1.5
 74
     0
 49
3.5
 74
     0
 49
-1.5
 74
     0
  0
LTYPE
  5
3B
330
5
100
AcDbSymbolTableRecord
100
AcDbLinetypeTableRecord
  2
chain_double_dash
 70
     0
  3
------------ -- -- -------------
 72
    65
 73
     6
 40
23.5
 49
12.0
 74
     0
 49
-1.5
 74
     0
 49
3.5
 74
     0
 49
-1.5
 74
     0
 49
3.5
 74
     0
 49
-1.5
 74
     0
  0
LTYPE
  5
3C
330
5
100
AcDbSymbolTableRecord
100
AcDbLinetypeTableRecord
  2
dashed_dotted
 70
     0
  3
-----------     -     ----------
 72
    65
 73
     4
 40
9.25
 49
6.0
 74
     0
 49
-1.5
 74
     0
 49
0.25
 74
     0
 49
-1.5
 74
     0
  0
LTYPE
  5
3D
330
5
100
AcDbSymbolTableRecord
100
AcDbLinetypeTableRecord
  2
double-dashed_dotted
 70
     0
  3
------   -----------   -   -----
 72
    65
 73
     6
 40
16.75
 49
6.0
 74
     0
 49
-1.5
 74
     0
 49
6.0
 74
     0
 49
-1.5
 74
     0
 49
0.25
 74
     0
 49
-1.5
 74
     0
  0
LTYPE
  5
3E
330
5
100
AcDbSymbolTableRecord
100
AcDbLinetypeTableRecord
  2
dashed_double-dotted
 70
     0
  3
---------    -    -    ---------
 72
    65
 73
     6
 40
11.0
 49
6.0
 74
     0
 49
-1.5
 74
     0
 49
0.25
 74
     0
 49
-1.5
 74
     0
 49
0.25
 74
     0
 49
-1.5
 74
     0
  0
LTYPE
  5
3F
330
5
100
AcDbSymbolTableRecord
100
AcDbLinetypeTableRecord
  2
double-dashed_double-dotted
 70
     0
  3
-----   ---------   -   -   ----
 72
    65
 73
     8
 40
18.5
 49
6.0
 74
     0
 49
-1.5
 74
     0
 49
6.0
 74
     0
 49
-1.5
 74
     0
 49
0.25
 74
     0
 49
-1.5
 74
     0
 49
0.25
 74
     0
 49
-1.5
 74
     0
  0
LTYPE
  5
40
330
5
100
AcDbSymbolTableRecord
100
AcDbLinetypeTableRecord
  2
dashed_triplicate-dotted
 70
     0
  3
-------    -    -    -    ------
 72
    65
 73
     8
 40
12.75
 49
6.0
 74
     0
 49
-1.5
 74
     0
 49
0.25
 74
     0
 49
-1.5
 74
     0
 49
0.25
 74
     0
 49
-1.5
 74
     0
 49
0.25
 74
     0
 49
-1.5
 74
     0
  0
LTYPE
  5
41
330
5
100
AcDbSymbolTableRecord
100
AcDbLinetypeTableRecord
  2
double-dashed_triplicate-dotted
 70
     0
  3
-----  ---------  -  -  -  -----
 72
    65
 73
    10
 40
20.25
 49
6.0
 74
     0
 49
-1.5
 74
     0
 49
6.0
 74
     0
 49
-1.5
 74
     0
 49
0.25
 74
     0
 49
-1.5
 74
     0
 49
0.25
 74
     0
 49
-1.5
 74
     0
 49
0.25
 74
     0
 49
-1.5
 74
     0
  0
LTYPE
  5
42
330
5
100
AcDbSymbolTableRecord
100
AcDbLinetypeTableRecord
  2
undefined
 70
     0
  3
--------------------------------
 72
    65
 73
     0
 40
0.0
  0
LTYPE
  5
43
330
5
100
AcDbSymbolTableRecord
100
AcDbLinetypeTableRecord
  2
STYLE_01
 70
     0
  3
----        --------        ----
 72
    65
 73
     2
 40
0.4166399999999998
 49
0.2082799999999999
 74
     0
 49
-0.2083599999999999
 74
     0
  0
LTYPE
  5
44
330
5
100
AcDbSymbolTableRecord
100
AcDbLinetypeTableRecord
  2
STYLE_02
 70
     0
  3
------     -----------     -----
 72
    65
 73
     2
 40
0.6944250000000001
 49
0.48607
 74
     0
 49
-0.2083550000000001
 74
     0
  0
LTYPE
  5
45
330
5
100
AcDbSymbolTableRecord
100
AcDbLinetypeTableRecord
  2
STYLE_03
 70
     0
  3
-------   -------------   ------
 72
    65
 73
     2
 40
1.25
 49
1.04164
 74
     0
 49
-0.2083599999999999
 74
     0
  0
LTYPE
  5
46
330
5
100
AcDbSymbolTableRecord
100
AcDbLinetypeTableRecord
  2
STYLE_04
 70
     0
  3
-------  --------------  -------
 72
    65
 73
     2
 40
1.52771
 49
1.319425
 74
     0
 49
-0.208285
 74
     0
  0
LTYPE
  5
47
330
5
100
AcDbSymbolTableRecord
100
AcDbLinetypeTableRecord
  2
STYLE_05
 70
     0
  3
---           -----           --
 72
    65
 73
     2
 40
0.20828
 49
0.069425
 74
     0
 49
-0.138855
 74
     0
  0
LTYPE
  5
48
330
5
100
AcDbSymbolTableRecord
100
AcDbLinetypeTableRecord
  2
STYLE_06
 70
     0
  3
----------      --    ----------
 72
    65
 73
     4
 40
1.04164
 49
0.625
 74
     0
 49
-0.2082799999999999
 74
     0
 49
0.06943
 74
     0
 49
-0.13893
 74
     0
  0
LTYPE
  5
49
330
5
100
AcDbSymbolTableRecord
100
AcDbLinetypeTableRecord
  2
STYLE_07
 70
     0
  3
-----    -----------    -  -----
 72
    65
 73
     6
 40
1.875
 49
0.625
 74
     0
 49
-0.2082799999999999
 74
     0
 49
0.6250000000000001
 74
     0
 49
-0.2083599999999999
 74
     0
 49
0.06943
 74
     0
 49
-0.1389299999999998
 74
     0
  0
LTYPE
  5
4A
330
5
100
AcDbSymbolTableRecord
100
AcDbLinetypeTableRecord
  2
STYLE_08
 70
     0
  3
--------     --    --    -------
 72
    65
 73
     6
 40
1.25
 49
0.625
 74
     0
 49
-0.2082799999999999
 74
     0
 49
0.06943
 74
     0
 49
-0.13893
 74
     0
 49
0.0694299999999997
 74
     0
 49
-0.13893
 74
     0
  0
LTYPE
  5
4B
330
5
100
AcDbSymbolTableRecord
100
AcDbLinetypeTableRecord
  2
STYLE_09
 70
     0
  3
------------  ----  ------------
 72
    65
 73
     4
 40
5.0
 49
3.75
 74
     0
 49
-0.2777849999999997
 74
     0
 49
0.6944300000000003
 74
     0
 49
-0.2777849999999997
 74
     0
  0
LTYPE
  5
4C
330
5
100
AcDbSymbolTableRecord
100
AcDbLinetypeTableRecord
  2
STYLE_10
 70
     0
  3
----------- ---- ---  ----------
 72
    65
 73
     6
 40
5.9375
 49
3.75
 74
     0
 49
-0.2777849999999997
 74
     0
 49
0.6944300000000003
 74
     0
 49
-0.2777849999999997
 74
     0
 49
0.625
 74
     0
 49
-0.3125
 74
     0
  0
ENDTAB
  0
TABLE
  2
LAYER
  5
2
330
0
100
AcDbSymbolTable
 70
     7
  0
LAYER
  5
10
330
2
100
AcDbSymbolTableRecord
100
AcDbLayerTableRecord
  2
0
 70
     0
 62
     7
  6
CONTINUOUS
370
    -3
390
F
347
1B9
  0
LAYER
  5
4F
330
2
100
AcDbSymbolTableRecord
100
AcDbLayerTableRecord
  2
_0-0_0
 70
     0
 62
     7
  6
CONTINUOUS
370
    -3
390
F
347
1B9
  0
LAYER
  5
50
330
2
100
AcDbSymbolTableRecord
100
AcDbLayerTableRecord
  2
_0-1_1_5
 70
     0
 62
     7
  6
CONTINUOUS
370
    -3
390
F
347
1B9
  0
LAYER
  5
51
330
2
100
AcDbSymbolTableRecord
100
AcDbLayerTableRecord
  2
_0-2_ADD_LINE
 70
     0
 62
     7
  6
CONTINUOUS
370
    -3
390
F
347
1B9
  0
LAYER
  5
52
330
2
100
AcDbSymbolTableRecord
100
AcDbLayerTableRecord
  2
_0-3_
 70
     0
 62
     7
  6
CONTINUOUS
370
    -3
390
F
347
1B9
  0
LAYER
  5
53
330
2
100
AcDbSymbolTableRecord
100
AcDbLayerTableRecord
  2
ADD_LINE
 70
     0
 62
     7
  6
CONTINUOUS
370
    -3
390
F
347
1B9
  0
LAYER
  5
1C0
330
2
100
AcDbSymbolTableRecord
100
AcDbLayerTableRecord
  2
Defpoints
 70
     0
 62
     7
  6
CONTINUOUS
290
     0
370
    -3
390
F
347
1B9
  0
ENDTAB
  0
TABLE
  2
STYLE
  5
3
330
0
100
AcDbSymbolTable
 70
     3
  0
STYLE
  5
11
330
3
100
AcDbSymbolTableRecord
100
AcDbTextStyleTableRecord
  2
STANDARD
 70
     0
 40
0.0
 41
1.0
 50
0.0
 71
     0
 42
0.2
  3
txt
  4
bigfont.shx
  0
STYLE
  5
4E
330
3
100
AcDbSymbolTableRecord
100
AcDbTextStyleTableRecord
  2
TATEGAKI
 70
     4
 40
0.0
 41
1.0
 50
0.0
 71
     0
 42
1.0
  3
txt
  4
bigfont.shx
  0
STYLE
  5
1CD
330
3
100
AcDbSymbolTableRecord
100
AcDbTextStyleTableRecord
  2
ＭＳ ゴシック
 70
     0
 40
0.0
 41
1.0
 50
0.0
 71
     0
 42
0.2
  3
msgothic.ttc
  4
ＭＳ ゴシック
1001
ACAD
1000
ＭＳ ゴシック
1071
        0
  0
ENDTAB
  0
TABLE
  2
VIEW
  5
6
330
0
100
AcDbSymbolTable
 70
     0
  0
ENDTAB
  0
TABLE
  2
UCS
  5
7
330
0
100
AcDbSymbolTable
 70
     0
  0
ENDTAB
  0
TABLE
  2
APPID
  5
9
330
0
100
AcDbSymbolTable
 70
     1
  0
APPID
  5
12
330
9
100
AcDbSymbolTableRecord
100
AcDbRegAppTableRecord
  2
ACAD
 70
     0
  0
ENDTAB
  0
TABLE
  2
DIMSTYLE
  5
A
330
0
100
AcDbSymbolTable
 70
     2
100
AcDbDimStyleTable
  0
DIMSTYLE
105
54
330
A
100
AcDbSymbolTableRecord
100
AcDbDimStyleTableRecord
  2
Standard
 70
     0
178
     0
340
11
  0
DIMSTYLE
105
1CC
102
{ACAD_REACTORS
330
3FA
330
3FB
330
3FE
330
3FF
330
402
330
405
330
493
330
4DF
102
}
330
A
100
AcDbSymbolTableRecord
100
AcDbDimStyleTableRecord
  2
T-form線あり
 70
     0
  3
<>
  4
[]
 41
7.99951171875
 42
49.99999999999999
 43
0.9999999999999999
 44
0.0
 73
     0
 74
     0
 77
     1
 78
    11
140
48.86523437500001
141
0.0
143
0.0393700787401575
147
0.4999999999999999
171
     3
172
     1
174
     1
178
     0
179
     2
271
     1
272
     1
273
     4
276
     2
284
    11
285
    15
286
    15
289
     0
340
1CD
341
1CE
342
1CE
  0
ENDTAB
  0
TABLE
  2
BLOCK_RECORD
  5
1
330
0
100
AcDbSymbolTable
 70
    20
  0
BLOCK_RECORD
  5
1D
330
1
100
AcDbSymbolTableRecord
100
AcDbBlockTableRecord
  2
*Model_Space
340
1E
 70
     0
280
     1
281
     0
  0
BLOCK_RECORD
  5
1B
330
1
100
AcDbSymbolTableRecord
100
AcDbBlockTableRecord
  2
*Paper_Space
340
1C
 70
     0
280
     1
281
     0
  0
BLOCK_RECORD
  5
1CE
330
1
100
AcDbSymbolTableRecord
100
AcDbBlockTableRecord
  2
_DOT
340
0
102
{BLKREFS
331
2CF
331
2D0
331
2DE
331
2DF
331
2EB
331
2EC
331
2FA
331
2FB
331
309
331
30A
331
31A
331
31B
331
40F
331
410
331
41B
331
41C
331
427
331
428
331
433
331
434
331
43F
331
440
331
44D
331
44E
331
4E8
331
4E9
102
}
 70
     0
280
     1
281
     0
  0
BLOCK_RECORD
  5
409
330
1
100
AcDbSymbolTableRecord
100
AcDbBlockTableRecord
  2
*D8
340
0
 70
     0
280
     1
281
     0
  0
BLOCK_RECORD
  5
415
330
1
100
AcDbSymbolTableRecord
100
AcDbBlockTableRecord
  2
*D9
340
0
 70
     0
280
     1
281
     0
  0
BLOCK_RECORD
  5
421
330
1
100
AcDbSymbolTableRecord
100
AcDbBlockTableRecord
  2
*D10
340
0
 70
     0
280
     1
281
     0
  0
BLOCK_RECORD
  5
42D
330
1
100
AcDbSymbolTableRecord
100
AcDbBlockTableRecord
  2
*D11
340
0
 70
     0
280
     1
281
     0
  0
BLOCK_RECORD
  5
439
330
1
100
AcDbSymbolTableRecord
100
AcDbBlockTableRecord
  2
*D12
340
0
 70
     0
280
     1
281
     0
  0
BLOCK_RECORD
  5
445
330
1
100
AcDbSymbolTableRecord
100
AcDbBlockTableRecord
  2
*D13
340
0
 70
     0
280
     1
281
     0
  0
BLOCK_RECORD
  5
494
330
1
100
AcDbSymbolTableRecord
100
AcDbBlockTableRecord
  2
*D16
340
0
 70
     0
280
     1
281
     0
  0
BLOCK_RECORD
  5
4E2
330
1
100
AcDbSymbolTableRecord
100
AcDbBlockTableRecord
  2
*D19
340
0
 70
     0
280
     1
281
     0
  0
ENDTAB
  0
ENDSEC
  0
SECTION
  2
BLOCKS
  0
BLOCK
  5
199
330
1D
100
AcDbEntity
  8
0
100
AcDbBlockBegin
  2
*Model_Space
 70
     0
 10
0.0
 20
0.0
 30
0.0
  3
*Model_Space
  1
*Model_Space
  0
ENDBLK
  5
19A
330
1D
100
AcDbEntity
  8
0
100
AcDbBlockEnd
  0
BLOCK
  5
19B
330
1B
100
AcDbEntity
 67
     1
  8
0
100
AcDbBlockBegin
  2
*Paper_Space
 70
     0
 10
0.0
 20
0.0
 30
0.0
  3
*Paper_Space
  1
*Paper_Space
  0
ENDBLK
  5
19C
330
1B
100
AcDbEntity
 67
     1
  8
0
100
AcDbBlockEnd
  0
BLOCK
  5
1CF
330
1CE
100
AcDbEntity
  8
0
390
F
100
AcDbBlockBegin
  2
_DOT
 70
     0
 10
0.0
 20
0.0
 30
0.0
  3
_DOT
  1
_DOT
  0
POLYLINE
  5
1D0
330
1CE
100
AcDbEntity
  8
0
  6
ByBlock
 62
     0
370
    -2
390
F
100
AcDb2dPolyline
 66
     1
 10
0.0
 20
0.0
 30
0.0
 70
     1
 40
0.5
 41
0.5
  0
VERTEX
  5
1D1
330
1D0
100
AcDbEntity
  8
0
  6
ByBlock
 62
     0
370
    -2
390
F
100
AcDbVertex
100
AcDb2dVertex
 10
-0.25
 20
0.0
 30
0.0
 42
1.0
  0
VERTEX
  5
1D2
330
1D0
100
AcDbEntity
  8
0
  6
ByBlock
 62
     0
370
    -2
390
F
100
AcDbVertex
100
AcDb2dVertex
 10
0.25
 20
0.0
 30
0.0
 42
1.0
  0
SEQEND
  5
1D3
330
1D0
100
AcDbEntity
  8
0
390
F
  0
LINE
  5
1D4
330
1CE
100
AcDbEntity
  8
0
  6
ByBlock
 62
     0
370
    -2
390
F
100
AcDbLine
 10
-0.5
 20
0.0
 30
0.0
 11
-1.0
 21
0.0
 31
0.0
  0
ENDBLK
  5
1D5
330
1CE
100
AcDbEntity
  8
0
390
F
100
AcDbBlockEnd
  0
BLOCK
  5
40A
330
409
100
AcDbEntity
  8
0
100
AcDbBlockBegin
  2
*D8
 70
     1
 10
0.0
 20
0.0
 30
0.0
  3
*D8
  1
*D8
  0
LINE
  5
40C
330
409
100
AcDbEntity
  8
0
  6
ByBlock
 62
     0
370
    -2
100
AcDbLine
 10
-1649.568064504714
 20
442.9033513899622
 30
0.0
 11
-1649.568064504714
 21
516.1848627138588
 31
0.0
  0
LINE
  5
40D
330
409
100
AcDbEntity
  8
0
  6
ByBlock
 62
     0
370
    -2
100
AcDbLine
 10
-1041.568064504713
 20
442.9033513899622
 30
0.0
 11
-1041.568064504713
 21
516.1848627138588
 31
0.0
  0
LINE
  5
40E
330
409
100
AcDbEntity
  8
0
  6
ByBlock
 62
     0
370
    -2
100
AcDbLine
 10
-1645.568064504714
 20
516.1848627138588
 30
0.0
 11
-1045.568064504713
 21
516.1848627138588
 31
0.0
  0
INSERT
  5
40F
330
409
100
AcDbEntity
  8
0
 62
     0
370
    -2
100
AcDbBlockReference
  2
_DOT
 10
-1649.568064504714
 20
516.1848627138588
 30
0.0
 41
4.0
 42
4.0
 43
4.0
 50
180.0
  0
INSERT
  5
410
330
409
100
AcDbEntity
  8
0
 62
     0
370
    -2
100
AcDbBlockReference
  2
_DOT
 10
-1041.568064504713
 20
516.1848627138588
 30
0.0
 41
4.0
 42
4.0
 43
4.0
  0
MTEXT
  5
411
330
409
100
AcDbEntity
  8
0
  6
ByBlock
 62
     0
100
AcDbMText
 10
-1345.568064504714
 20
527.1848627138588
 30
0.0
 40
12.0
 41
0.0
 46
0.0
 71
     5
 72
     1
  1
\A1;608
  7
ＭＳ ゴシック
 73
     1
 44
1.0
  0
POINT
  5
412
330
409
100
AcDbEntity
  8
Defpoints
 62
     0
100
AcDbPoint
 10
-1649.568064504714
 20
427.9033513899622
 30
0.0
  0
POINT
  5
413
330
409
100
AcDbEntity
  8
Defpoints
 62
     0
100
AcDbPoint
 10
-1041.568064504713
 20
427.9033513899622
 30
0.0
  0
POINT
  5
414
330
409
100
AcDbEntity
  8
Defpoints
 62
     0
100
AcDbPoint
 10
-1041.568064504713
 20
516.1848627138588
 30
0.0
  0
ENDBLK
  5
40B
330
409
100
AcDbEntity
  8
0
100
AcDbBlockEnd
  0
BLOCK
  5
416
330
415
100
AcDbEntity
  8
0
100
AcDbBlockBegin
  2
*D9
 70
     1
 10
0.0
 20
0.0
 30
0.0
  3
*D9
  1
*D9
  0
LINE
  5
418
330
415
100
AcDbEntity
  8
0
  6
ByBlock
 62
     0
370
    -2
100
AcDbLine
 10
-1635.568064504714
 20
447.9033513899622
 30
0.0
 11
-1635.568064504714
 21
488.5483153269306
 31
0.0
  0
LINE
  5
419
330
415
100
AcDbEntity
  8
0
  6
ByBlock
 62
     0
370
    -2
100
AcDbLine
 10
-1055.568064504713
 20
447.9033513899622
 30
0.0
 11
-1055.568064504713
 21
488.5483153269306
 31
0.0
  0
LINE
  5
41A
330
415
100
AcDbEntity
  8
0
  6
ByBlock
 62
     0
370
    -2
100
AcDbLine
 10
-1631.568064504714
 20
488.5483153269306
 30
0.0
 11
-1059.568064504713
 21
488.5483153269306
 31
0.0
  0
INSERT
  5
41B
330
415
100
AcDbEntity
  8
0
 62
     0
370
    -2
100
AcDbBlockReference
  2
_DOT
 10
-1635.568064504714
 20
488.5483153269306
 30
0.0
 41
4.0
 42
4.0
 43
4.0
 50
180.0
  0
INSERT
  5
41C
330
415
100
AcDbEntity
  8
0
 62
     0
370
    -2
100
AcDbBlockReference
  2
_DOT
 10
-1055.568064504713
 20
488.5483153269306
 30
0.0
 41
4.0
 42
4.0
 43
4.0
  0
MTEXT
  5
41D
330
415
100
AcDbEntity
  8
0
  6
ByBlock
 62
     0
100
AcDbMText
 10
-1345.568064504714
 20
499.5483153269306
 30
0.0
 40
12.0
 41
0.0
 46
0.0
 71
     5
 72
     1
  1
\A1;580
  7
ＭＳ ゴシック
 73
     1
 44
1.0
  0
POINT
  5
41E
330
415
100
AcDbEntity
  8
Defpoints
 62
     0
100
AcDbPoint
 10
-1635.568064504714
 20
437.9033513899622
 30
0.0
  0
POINT
  5
41F
330
415
100
AcDbEntity
  8
Defpoints
 62
     0
100
AcDbPoint
 10
-1055.568064504713
 20
437.9033513899622
 30
0.0
  0
POINT
  5
420
330
415
100
AcDbEntity
  8
Defpoints
 62
     0
100
AcDbPoint
 10
-1055.568064504713
 20
488.5483153269306
 30
0.0
  0
ENDBLK
  5
417
330
415
100
AcDbEntity
  8
0
100
AcDbBlockEnd
  0
BLOCK
  5
422
330
421
100
AcDbEntity
  8
0
100
AcDbBlockBegin
  2
*D10
 70
     1
 10
0.0
 20
0.0
 30
0.0
  3
*D10
  1
*D10
  0
LINE
  5
424
330
421
100
AcDbEntity
  8
0
  6
ByBlock
 62
     0
370
    -2
100
AcDbLine
 10
-873.6140541136172
 20
447.9110920833965
 30
0.0
 11
-873.6140541136172
 21
488.6219506320421
 31
0.0
  0
LINE
  5
425
330
421
100
AcDbEntity
  8
0
  6
ByBlock
 62
     0
370
    -2
100
AcDbLine
 10
-819.6140541136178
 20
451.9033513899625
 30
0.0
 11
-819.6140541136178
 21
488.6219506320421
 31
0.0
  0
LINE
  5
426
330
421
100
AcDbEntity
  8
0
  6
ByBlock
 62
     0
370
    -2
100
AcDbLine
 10
-869.6140541136172
 20
488.6219506320421
 30
0.0
 11
-823.6140541136178
 21
488.6219506320421
 31
0.0
  0
INSERT
  5
427
330
421
100
AcDbEntity
  8
0
 62
     0
370
    -2
100
AcDbBlockReference
  2
_DOT
 10
-873.6140541136172
 20
488.6219506320421
 30
0.0
 41
4.0
 42
4.0
 43
4.0
 50
180.0
  0
INSERT
  5
428
330
421
100
AcDbEntity
  8
0
 62
     0
370
    -2
100
AcDbBlockReference
  2
_DOT
 10
-819.6140541136178
 20
488.6219506320421
 30
0.0
 41
4.0
 42
4.0
 43
4.0
  0
MTEXT
  5
429
330
421
100
AcDbEntity
  8
0
  6
ByBlock
 62
     0
100
AcDbMText
 10
-846.6140541136175
 20
499.6219506320421
 30
0.0
 40
12.0
 41
0.0
 46
0.0
 71
     5
 72
     1
  1
\A1;54
  7
ＭＳ ゴシック
 73
     1
 44
1.0
  0
POINT
  5
42A
330
421
100
AcDbEntity
  8
Defpoints
 62
     0
100
AcDbPoint
 10
-873.6140541136172
 20
437.9110920833965
 30
0.0
  0
POINT
  5
42B
330
421
100
AcDbEntity
  8
Defpoints
 62
     0
100
AcDbPoint
 10
-819.6140541136178
 20
441.9033513899625
 30
0.0
  0
POINT
  5
42C
330
421
100
AcDbEntity
  8
Defpoints
 62
     0
100
AcDbPoint
 10
-819.6140541136178
 20
488.6219506320421
 30
0.0
  0
ENDBLK
  5
423
330
421
100
AcDbEntity
  8
0
100
AcDbBlockEnd
  0
BLOCK
  5
42E
330
42D
100
AcDbEntity
  8
0
100
AcDbBlockBegin
  2
*D11
 70
     1
 10
0.0
 20
0.0
 30
0.0
  3
*D11
  1
*D11
  0
LINE
  5
430
330
42D
100
AcDbEntity
  8
0
  6
ByBlock
 62
     0
370
    -2
100
AcDbLine
 10
-893.6140541136172
 20
437.9033513899624
 30
0.0
 11
-919.5042395596781
 21
437.9033513899624
 31
0.0
  0
LINE
  5
431
330
42D
100
AcDbEntity
  8
0
  6
ByBlock
 62
     0
370
    -2
100
AcDbLine
 10
-893.6140541136172
 20
417.9033513899624
 30
0.0
 11
-919.5042395596781
 21
417.9033513899624
 31
0.0
  0
LINE
  5
432
330
42D
100
AcDbEntity
  8
0
  6
ByBlock
 62
     0
370
    -2
100
AcDbLine
 10
-919.5042395596781
 20
433.9033513899624
 30
0.0
 11
-919.5042395596781
 21
421.9033513899624
 31
0.0
  0
INSERT
  5
433
330
42D
100
AcDbEntity
  8
0
 62
     0
370
    -2
100
AcDbBlockReference
  2
_DOT
 10
-919.5042395596781
 20
437.9033513899624
 30
0.0
 41
4.0
 42
4.0
 43
4.0
 50
90.0
  0
INSERT
  5
434
330
42D
100
AcDbEntity
  8
0
 62
     0
370
    -2
100
AcDbBlockReference
  2
_DOT
 10
-919.5042395596781
 20
417.9033513899624
 30
0.0
 41
4.0
 42
4.0
 43
4.0
 50
270.0
  0
MTEXT
  5
435
330
42D
100
AcDbEntity
  8
0
  6
ByBlock
 62
     0
100
AcDbMText
 10
-931.4762395596781
 20
427.9033513899624
 30
0.0
 40
12.0
 41
0.0
 46
0.0
 71
     5
 72
     1
  1
\A1;φ20
  7
ＭＳ ゴシック
 11
0.0
 21
1.0
 31
0.0
 73
     1
 44
1.0
  0
POINT
  5
436
330
42D
100
AcDbEntity
  8
Defpoints
 62
     0
100
AcDbPoint
 10
-883.6140541136172
 20
437.9033513899624
 30
0.0
  0
POINT
  5
437
330
42D
100
AcDbEntity
  8
Defpoints
 62
     0
100
AcDbPoint
 10
-883.6140541136172
 20
417.9033513899624
 30
0.0
  0
POINT
  5
438
330
42D
100
AcDbEntity
  8
Defpoints
 62
     0
100
AcDbPoint
 10
-919.5042395596781
 20
417.9033513899624
 30
0.0
  0
ENDBLK
  5
42F
330
42D
100
AcDbEntity
  8
0
100
AcDbBlockEnd
  0
BLOCK
  5
43A
330
439
100
AcDbEntity
  8
0
100
AcDbBlockBegin
  2
*D12
 70
     1
 10
0.0
 20
0.0
 30
0.0
  3
*D12
  1
*D12
  0
LINE
  5
43C
330
439
100
AcDbEntity
  8
0
  6
ByBlock
 62
     0
370
    -2
100
AcDbLine
 10
-1031.568064504714
 20
211.9199941520374
 30
0.0
 11
-977.4542558483964
 21
211.9199941520374
 31
0.0
  0
LINE
  5
43D
330
439
100
AcDbEntity
  8
0
  6
ByBlock
 62
     0
370
    -2
100
AcDbLine
 10
-1035.568064504714
 20
147.9199941520376
 30
0.0
 11
-977.4542558483964
 21
147.9199941520376
 31
0.0
  0
LINE
  5
43E
330
439
100
AcDbEntity
  8
0
  6
ByBlock
 62
     0
370
    -2
100
AcDbLine
 10
-977.4542558483964
 20
207.9199941520374
 30
0.0
 11
-977.4542558483964
 21
151.9199941520376
 31
0.0
  0
INSERT
  5
43F
330
439
100
AcDbEntity
  8
0
 62
     0
370
    -2
100
AcDbBlockReference
  2
_DOT
 10
-977.4542558483964
 20
211.9199941520374
 30
0.0
 41
4.0
 42
4.0
 43
4.0
 50
90.0
  0
INSERT
  5
440
330
439
100
AcDbEntity
  8
0
 62
     0
370
    -2
100
AcDbBlockReference
  2
_DOT
 10
-977.4542558483964
 20
147.9199941520376
 30
0.0
 41
4.0
 42
4.0
 43
4.0
 50
270.0
  0
MTEXT
  5
441
330
439
100
AcDbEntity
  8
0
  6
ByBlock
 62
     0
100
AcDbMText
 10
-988.4542558483964
 20
179.9199941520375
 30
0.0
 40
12.0
 41
0.0
 46
0.0
 71
     5
 72
     1
  1
\A1;64
  7
ＭＳ ゴシック
 11
0.0
 21
1.0
 31
0.0
 73
     1
 44
1.0
  0
POINT
  5
442
330
439
100
AcDbEntity
  8
Defpoints
 62
     0
100
AcDbPoint
 10
-1041.568064504714
 20
211.9199941520374
 30
0.0
  0
POINT
  5
443
330
439
100
AcDbEntity
  8
Defpoints
 62
     0
100
AcDbPoint
 10
-1045.568064504714
 20
147.9199941520376
 30
0.0
  0
POINT
  5
444
330
439
100
AcDbEntity
  8
Defpoints
 62
     0
100
AcDbPoint
 10
-977.4542558483964
 20
147.9199941520376
 30
0.0
  0
ENDBLK
  5
43B
330
439
100
AcDbEntity
  8
0
100
AcDbBlockEnd
  0
BLOCK
  5
446
330
445
100
AcDbEntity
  8
0
100
AcDbBlockBegin
  2
*D13
 70
     1
 10
0.0
 20
0.0
 30
0.0
  3
*D13
  1
*D13
  0
LINE
  5
448
330
445
100
AcDbEntity
  8
0
  6
ByBlock
 62
     0
370
    -2
100
AcDbLine
 10
-1425.568064504714
 20
162.9199941520376
 30
0.0
 11
-1410.568064504714
 21
162.9199941520376
 31
0.0
  0
LINE
  5
449
330
445
100
AcDbEntity
  8
0
  6
ByBlock
 62
     0
370
    -2
100
AcDbLine
 10
-1425.568064504714
 20
152.9199941520376
 30
0.0
 11
-1410.568064504714
 21
152.9199941520376
 31
0.0
  0
LINE
  5
44A
330
445
100
AcDbEntity
  8
0
  6
ByBlock
 62
     0
370
    -2
100
AcDbLine
 10
-1410.568064504714
 20
162.9199941520376
 30
0.0
 11
-1410.568064504714
 21
152.9199941520376
 31
0.0
  0
LINE
  5
44B
330
445
100
AcDbEntity
  8
0
  6
ByBlock
 62
     0
370
    -2
100
AcDbLine
 10
-1410.568064504714
 20
166.9199941520376
 30
0.0
 11
-1410.568064504714
 21
170.9199941520376
 31
0.0
  0
LINE
  5
44C
330
445
100
AcDbEntity
  8
0
  6
ByBlock
 62
     0
370
    -2
100
AcDbLine
 10
-1410.568064504714
 20
148.9199941520376
 30
0.0
 11
-1410.568064504714
 21
144.9199941520376
 31
0.0
  0
INSERT
  5
44D
330
445
100
AcDbEntity
  8
0
 62
     0
370
    -2
100
AcDbBlockReference
  2
_DOT
 10
-1410.568064504714
 20
162.9199941520376
 30
0.0
 41
4.0
 42
4.0
 43
4.0
 50
270.0
  0
INSERT
  5
44E
330
445
100
AcDbEntity
  8
0
 62
     0
370
    -2
100
AcDbBlockReference
  2
_DOT
 10
-1410.568064504714
 20
152.9199941520376
 30
0.0
 41
4.0
 42
4.0
 43
4.0
 50
90.0
  0
MTEXT
  5
44F
330
445
100
AcDbEntity
  8
0
  6
ByBlock
 62
     0
100
AcDbMText
 10
-1421.568064504714
 20
188.6186411093556
 30
0.0
 40
12.0
 41
0.0
 46
0.0
 71
     5
 72
     1
  1
\A1;φ10
  7
ＭＳ ゴシック
 11
0.0
 21
1.0
 31
0.0
 73
     1
 44
1.0
  0
POINT
  5
450
330
445
100
AcDbEntity
  8
Defpoints
 62
     0
100
AcDbPoint
 10
-1410.568064504714
 20
162.9199941520376
 30
0.0
  0
POINT
  5
451
330
445
100
AcDbEntity
  8
Defpoints
 62
     0
100
AcDbPoint
 10
-1410.568064504714
 20
152.9199941520376
 30
0.0
  0
POINT
  5
452
330
445
100
AcDbEntity
  8
Defpoints
 62
     0
100
AcDbPoint
 10
-1410.568064504714
 20
152.9199941520376
 30
0.0
  0
ENDBLK
  5
447
330
445
100
AcDbEntity
  8
0
100
AcDbBlockEnd
  0
BLOCK
  5
495
330
494
100
AcDbEntity
  8
0
100
AcDbBlockBegin
  2
*D16
 70
     1
 10
0.0
 20
0.0
 30
0.0
  3
*D16
  1
*D16
  0
LINE
  5
497
330
494
100
AcDbEntity
  8
0
  6
ByBlock
 62
     0
370
    -2
100
AcDbLine
 10
-823.6140541136172
 20
403.9033513899623
 30
0.0
 11
-823.6140541136172
 21
390.8571159907784
 31
0.0
  0
LINE
  5
498
330
494
100
AcDbEntity
  8
0
  6
ByBlock
 62
     0
370
    -2
100
AcDbLine
 10
-819.6140541136172
 20
403.9033513899625
 30
0.0
 11
-819.6140541136172
 21
390.8571159907784
 31
0.0
  0
LINE
  5
499
330
494
100
AcDbEntity
  8
0
  6
ByBlock
 62
     0
370
    -2
100
AcDbLine
 10
-823.6140541136172
 20
390.8571159907784
 30
0.0
 11
-819.6140541136172
 21
390.8571159907784
 31
0.0
  0
LINE
  5
49A
330
494
100
AcDbEntity
  8
0
  6
ByBlock
 62
     0
370
    -2
100
AcDbLine
 10
-827.6140541136172
 20
390.8571159907784
 30
0.0
 11
-831.6140541136172
 21
390.8571159907784
 31
0.0
  0
LINE
  5
49B
330
494
100
AcDbEntity
  8
0
  6
ByBlock
 62
     0
370
    -2
100
AcDbLine
 10
-815.6140541136172
 20
390.8571159907784
 30
0.0
 11
-811.6140541136172
 21
390.8571159907784
 31
0.0
  0
INSERT
  5
49C
330
494
100
AcDbEntity
  8
0
 62
     0
370
    -2
100
AcDbBlockReference
  2
_DOT
 10
-823.6140541136172
 20
390.8571159907784
 30
0.0
 41
4.0
 42
4.0
 43
4.0
  0
INSERT
  5
49D
330
494
100
AcDbEntity
  8
0
 62
     0
370
    -2
100
AcDbBlockReference
  2
_DOT
 10
-819.6140541136172
 20
390.8571159907784
 30
0.0
 41
4.0
 42
4.0
 43
4.0
 50
180.0
  0
MTEXT
  5
49E
330
494
100
AcDbEntity
  8
0
  6
ByBlock
 62
     0
100
AcDbMText
 10
-829.3466514269815
 20
400.7385500778636
 30
0.0
 40
12.0
 41
0.0
 46
0.0
 71
     5
 72
     1
  1
\A1;4
  7
ＭＳ ゴシック
 73
     1
 44
1.0
  0
POINT
  5
49F
330
494
100
AcDbEntity
  8
Defpoints
 62
     0
100
AcDbPoint
 10
-823.6140541136172
 20
413.9033513899623
 30
0.0
  0
POINT
  5
4A0
330
494
100
AcDbEntity
  8
Defpoints
 62
     0
100
AcDbPoint
 10
-819.6140541136172
 20
413.9033513899625
 30
0.0
  0
POINT
  5
4A1
330
494
100
AcDbEntity
  8
Defpoints
 62
     0
100
AcDbPoint
 10
-819.6140541136172
 20
390.8571159907784
 30
0.0
  0
ENDBLK
  5
496
330
494
100
AcDbEntity
  8
0
100
AcDbBlockEnd
  0
BLOCK
  5
4E3
330
4E2
100
AcDbEntity
  8
0
100
AcDbBlockBegin
  2
*D19
 70
     1
 10
0.0
 20
0.0
 30
0.0
  3
*D19
  1
*D19
  0
LINE
  5
4E5
330
4E2
100
AcDbEntity
  8
0
  6
ByBlock
 62
     0
370
    -2
100
AcDbLine
 10
-1041.568064504714
 20
221.9199941520374
 30
0.0
 11
-1041.568064504714
 21
247.8101795980984
 31
0.0
  0
LINE
  5
4E6
330
4E2
100
AcDbEntity
  8
0
  6
ByBlock
 62
     0
370
    -2
100
AcDbLine
 10
-1069.568064504714
 20
221.9199941520374
 30
0.0
 11
-1069.568064504714
 21
247.8101795980984
 31
0.0
  0
LINE
  5
4E7
330
4E2
100
AcDbEntity
  8
0
  6
ByBlock
 62
     0
370
    -2
100
AcDbLine
 10
-1045.568064504714
 20
247.8101795980984
 30
0.0
 11
-1065.568064504714
 21
247.8101795980984
 31
0.0
  0
INSERT
  5
4E8
330
4E2
100
AcDbEntity
  8
0
 62
     0
370
    -2
100
AcDbBlockReference
  2
_DOT
 10
-1041.568064504714
 20
247.8101795980984
 30
0.0
 41
4.0
 42
4.0
 43
4.0
  0
INSERT
  5
4E9
330
4E2
100
AcDbEntity
  8
0
 62
     0
370
    -2
100
AcDbBlockReference
  2
_DOT
 10
-1069.568064504714
 20
247.8101795980984
 30
0.0
 41
4.0
 42
4.0
 43
4.0
 50
180.0
  0
MTEXT
  5
4EA
330
4E2
100
AcDbEntity
  8
0
  6
ByBlock
 62
     0
100
AcDbMText
 10
-1055.568064504714
 20
259.7821795980984
 30
0.0
 40
12.0
 41
0.0
 46
0.0
 71
     5
 72
     1
  1
\A1;φ28
  7
ＭＳ ゴシック
 73
     1
 44
1.0
  0
POINT
  5
4EB
330
4E2
100
AcDbEntity
  8
Defpoints
 62
     0
100
AcDbPoint
 10
-1041.568064504714
 20
211.9199941520374
 30
0.0
  0
POINT
  5
4EC
330
4E2
100
AcDbEntity
  8
Defpoints
 62
     0
100
AcDbPoint
 10
-1069.568064504714
 20
211.9199941520374
 30
0.0
  0
POINT
  5
4ED
330
4E2
100
AcDbEntity
  8
Defpoints
 62
     0
100
AcDbPoint
 10
-1069.568064504714
 20
247.8101795980984
 30
0.0
  0
ENDBLK
  5
4E4
330
4E2
100
AcDbEntity
  8
0
100
AcDbBlockEnd
  0
ENDSEC
  0
SECTION
  2
ENTITIES
  0
TEXT
  5
325
330
1D
100
AcDbEntity
  8
_0-3_
 62
     7
100
AcDbText
 10
-1424.975616377885
 20
-165.7256104023259
 30
0.0
 40
12.0
  1
ステンレススチール
  7
ＭＳ ゴシック
100
AcDbText
  0
LINE
  5
326
330
1D
100
AcDbEntity
  8
_0-0_0
  6
Continuous
 62
     7
100
AcDbLine
 10
-1980.44266008778
 20
839.3984252089473
 30
0.0
 11
-1980.44266008778
 21
-210.6015747910527
 31
0.0
  0
LINE
  5
327
330
1D
100
AcDbEntity
  8
_0-0_0
  6
Continuous
 62
     7
100
AcDbLine
 10
-1980.44266008778
 20
-210.6015747910527
 30
0.0
 11
-495.4426600877803
 21
-210.6015747910529
 31
0.0
  0
LINE
  5
328
330
1D
100
AcDbEntity
  8
_0-0_0
  6
Continuous
 62
     7
100
AcDbLine
 10
-495.4426600877803
 20
-210.6015747910529
 30
0.0
 11
-495.4426600877803
 21
839.3984252089471
 31
0.0
  0
LINE
  5
329
330
1D
100
AcDbEntity
  8
_0-0_0
  6
Continuous
 62
     7
100
AcDbLine
 10
-495.4426600877803
 20
839.3984252089471
 30
0.0
 11
-1980.44266008778
 21
839.3984252089473
 31
0.0
  0
TEXT
  5
32A
330
1D
100
AcDbEntity
  8
_0-3_
 62
     7
100
AcDbText
 10
-1459.749357054915
 20
-157.2512975909321
 30
0.0
 40
10.0
  1
材質
100
AcDbText
  0
TEXT
  5
32B
330
1D
100
AcDbEntity
  8
_0-3_
 62
     7
100
AcDbText
 10
-1459.749357054915
 20
-126.0444636542722
 30
0.0
 40
10.0
  1
仕上げ
100
AcDbText
  0
TEXT
  5
32C
330
1D
100
AcDbEntity
  8
_0-3_
 62
     7
100
AcDbText
 10
-1459.749357054915
 20
-96.3979714144455
 30
0.0
 40
10.0
  1
品名
100
AcDbText
  0
LINE
  5
32D
330
1D
100
AcDbEntity
  8
_0-3_
  6
Continuous
 62
     7
100
AcDbLine
 10
-999.5595599406424
 20
-172.0013536793498
 30
0.0
 11
-999.5595599406424
 21
-82.00135367934965
 31
0.0
  0
LINE
  5
32E
330
1D
100
AcDbEntity
  8
_0-3_
  6
Continuous
 62
     7
100
AcDbLine
 10
-532.8928932406423
 20
-82.00135367934965
 30
0.0
 11
-1467.128956028851
 21
-82.00135367934965
 31
0.0
  0
LINE
  5
32F
330
1D
100
AcDbEntity
  8
_0-3_
  6
Continuous
 62
     7
100
AcDbLine
 10
-532.8928932406423
 20
-112.0013536793496
 30
0.0
 11
-1467.128956028851
 21
-112.0013536793496
 31
0.0
  0
LINE
  5
330
330
1D
100
AcDbEntity
  8
_0-3_
  6
Continuous
 62
     7
100
AcDbLine
 10
-532.8928932406423
 20
-142.0013536793496
 30
0.0
 11
-1467.128956028851
 21
-142.0013536793496
 31
0.0
  0
LINE
  5
331
330
1D
100
AcDbEntity
  8
_0-3_
  6
Continuous
 62
     7
100
AcDbLine
 10
-1467.128956028851
 20
-172.0013536793496
 30
0.0
 11
-1467.128956028851
 21
-82.00135367934965
 31
0.0
  0
TEXT
  5
332
330
1D
100
AcDbEntity
  8
_0-3_
 62
     7
100
AcDbText
 10
-993.1267765080914
 20
-97.65079861352123
 30
0.0
 40
10.0
  1
品番
100
AcDbText
  0
TEXT
  5
333
330
1D
100
AcDbEntity
  8
_0-3_
 62
     7
100
AcDbText
 10
-993.1267765080914
 20
-126.8476054102514
 30
0.0
 40
10.0
  1
縮尺
100
AcDbText
  0
TEXT
  5
334
330
1D
100
AcDbEntity
  8
_0-3_
 62
     7
100
AcDbText
 10
-957.2516644290114
 20
-135.0009158097224
 30
0.0
 40
12.0
  1
1/5
  7
ＭＳ ゴシック
100
AcDbText
  0
TEXT
  5
335
330
1D
100
AcDbEntity
  8
_0-3_
 62
     7
100
AcDbText
 10
-1930.253454549049
 20
-187.5277733201676
 30
0.0
 40
10.0
  1
140415SH
  7
ＭＳ ゴシック
100
AcDbText
  0
LINE
  5
336
330
1D
100
AcDbEntity
  8
_0-3_
  6
Continuous
 62
     7
100
AcDbLine
 10
-1932.892893240642
 20
802.9986463206506
 30
0.0
 11
-1932.892893240642
 21
-172.0013536793496
 31
0.0
  0
LINE
  5
337
330
1D
100
AcDbEntity
  8
_0-3_
  6
Continuous
 62
     7
100
AcDbLine
 10
-1932.892893240642
 20
-172.0013536793496
 30
0.0
 11
-532.8928932406423
 21
-172.0013536793498
 31
0.0
  0
LINE
  5
338
330
1D
100
AcDbEntity
  8
_0-3_
  6
Continuous
 62
     7
100
AcDbLine
 10
-532.8928932406423
 20
-172.0013536793498
 30
0.0
 11
-532.8928932406423
 21
802.9986463206504
 31
0.0
  0
LINE
  5
339
330
1D
100
AcDbEntity
  8
_0-3_
  6
Continuous
 62
     7
100
AcDbLine
 10
-532.8928932406423
 20
802.9986463206504
 30
0.0
 11
-1932.892893240642
 21
802.9986463206506
 31
0.0
  0
TEXT
  5
33A
330
1D
100
AcDbEntity
  8
_0-3_
 62
     7
100
AcDbText
 10
-1424.975616377885
 20
-104.7043740392845
 30
0.0
 40
12.0
  1
タオルバー
  7
ＭＳ ゴシック
100
AcDbText
  0
TEXT
  5
33B
330
1D
100
AcDbEntity
  8
_0-3_
 62
     7
100
AcDbText
 10
-958.2838236125699
 20
-167.492149736046
 30
0.0
 40
12.0
  1
大洋金物株式会社  ティーエフプラス事業部
  7
ＭＳ ゴシック
100
AcDbText
  0
TEXT
  5
33C
330
1D
100
AcDbEntity
  8
_0-3_
 62
     7
100
AcDbText
 10
-1424.975616377885
 20
-135.4723833810866
 30
0.0
 40
12.0
  1
ポリッシュ
  7
ＭＳ ゴシック
100
AcDbText
  0
CIRCLE
  5
33D
102
{ACAD_REACTORS
330
3FD
102
}
330
1D
100
AcDbEntity
  8
_0-1_1_5
  6
Continuous
 62
     7
100
AcDbCircle
 10
-1055.568064504713
 20
427.9033513899622
 30
0.0
 40
10.0
  0
LINE
  5
33E
330
1D
100
AcDbEntity
  8
_0-1_1_5
  6
Continuous
 62
     7
100
AcDbLine
 10
-1045.568064504714
 20
147.9199941520376
 30
0.0
 11
-1045.568064504714
 21
207.9199941520374
 31
0.0
  0
LINE
  5
33F
330
1D
100
AcDbEntity
  8
_0-1_1_5
  6
Continuous
 62
     7
100
AcDbLine
 10
-1065.568064504714
 20
147.9199941520376
 30
0.0
 11
-1065.568064504714
 21
207.9199941520374
 31
0.0
  0
LINE
  5
340
102
{ACAD_REACTORS
330
404
102
}
330
1D
100
AcDbEntity
  8
_0-1_1_5
  6
Continuous
 62
     7
100
AcDbLine
 10
-1065.568064504714
 20
147.9199941520376
 30
0.0
 11
-1045.568064504714
 21
147.9199941520376
 31
0.0
  0
LINE
  5
341
330
1D
100
AcDbEntity
  8
_0-1_1_5
  6
Continuous
 62
     7
100
AcDbLine
 10
-1045.568064504714
 20
207.9199941520374
 30
0.0
 11
-1065.568064504714
 21
207.9199941520374
 31
0.0
  0
LINE
  5
342
330
1D
100
AcDbEntity
  8
_0-1_1_5
  6
CENTER2
 62
     7
100
AcDbLine
 10
-1055.568064504714
 20
432.9033513899622
 30
0.0
 11
-1055.568064504714
 21
422.8532368355153
 31
0.0
  0
LINE
  5
343
330
1D
100
AcDbEntity
  8
_0-1_1_5
  6
CENTER2
 62
     7
100
AcDbLine
 10
-1060.568064504714
 20
427.9033513899622
 30
0.0
 11
-1050.568064504714
 21
427.9033513899622
 31
0.0
  0
LINE
  5
344
330
1D
100
AcDbEntity
  8
_0-1_1_5
  6
CENTER2
 62
     7
100
AcDbLine
 10
-1060.568064504714
 20
427.9033513899622
 30
0.0
 11
-1050.568064504714
 21
427.9033513899622
 31
0.0
  0
LINE
  5
345
330
1D
100
AcDbEntity
  8
_0-1_1_5
  6
Continuous
 62
     7
100
AcDbLine
 10
-1500.592879826295
 20
152.9199941520376
 30
0.0
 11
-1454.458101588534
 21
152.9199941520376
 31
0.0
  0
LINE
  5
346
330
1D
100
AcDbEntity
  8
_0-1_1_5
  6
Continuous
 62
     7
100
AcDbLine
 10
-1500.592879826295
 20
162.9199941520376
 30
0.0
 11
-1454.458101588534
 21
162.9199941520376
 31
0.0
  0
LINE
  5
347
330
1D
100
AcDbEntity
  8
_0-1_1_5
  6
DASHED2
 62
     7
100
AcDbLine
 10
-1050.445609153272
 20
192.9115754578062
 30
0.0
 11
-1060.445609153272
 21
192.9115754578062
 31
0.0
  0
LINE
  5
348
330
1D
100
AcDbEntity
  8
_0-1_1_5
  6
STYLE_01
 62
     7
100
AcDbLine
 10
-1052.068064504714
 20
193.4394191972692
 30
0.0
 11
-1053.818162510418
 21
195.189517202973
 31
0.0
  0
LINE
  5
349
330
1D
100
AcDbEntity
  8
_0-1_1_5
  6
DASHED2
 62
     7
100
AcDbLine
 10
-1053.934972763462
 20
205.6388817899883
 30
0.0
 11
-1057.434776752054
 21
207.0451144797178
 31
0.0
  0
LINE
  5
34A
330
1D
100
AcDbEntity
  8
_0-1_1_5
  6
DASHED2
 62
     7
100
AcDbLine
 10
-1053.934972763462
 20
204.2388817899881
 30
0.0
 11
-1057.434776752054
 21
205.6451144797179
 31
0.0
  0
LINE
  5
34B
330
1D
100
AcDbEntity
  8
_0-1_1_5
  6
DASHED2
 62
     7
100
AcDbLine
 10
-1053.934972763462
 20
202.8388817899883
 30
0.0
 11
-1057.434776752054
 21
204.2451144797181
 31
0.0
  0
LINE
  5
34C
330
1D
100
AcDbEntity
  8
_0-1_1_5
  6
DASHED2
 62
     7
100
AcDbLine
 10
-1053.934972763462
 20
201.4388817899883
 30
0.0
 11
-1057.434776752054
 21
202.8451144797178
 31
0.0
  0
LINE
  5
34D
330
1D
100
AcDbEntity
  8
_0-1_1_5
  6
DASHED2
 62
     7
100
AcDbLine
 10
-1053.934972763462
 20
200.0388817899884
 30
0.0
 11
-1057.434776752054
 21
201.445114479718
 31
0.0
  0
LINE
  5
34E
330
1D
100
AcDbEntity
  8
_0-1_1_5
  6
DASHED2
 62
     7
100
AcDbLine
 10
-1053.934972763462
 20
198.6388817899885
 30
0.0
 11
-1057.434776752054
 21
200.045114479718
 31
0.0
  0
LINE
  5
34F
330
1D
100
AcDbEntity
  8
_0-1_1_5
  6
DASHED2
 62
     7
100
AcDbLine
 10
-1053.934972763462
 20
197.2388817899884
 30
0.0
 11
-1057.434776752054
 21
198.6451144797181
 31
0.0
  0
LINE
  5
350
330
1D
100
AcDbEntity
  8
_0-1_1_5
  6
DASHED2
 62
     7
100
AcDbLine
 10
-1053.934972763462
 20
195.8388817899884
 30
0.0
 11
-1057.434776752054
 21
197.2451144797183
 31
0.0
  0
LINE
  5
351
330
1D
100
AcDbEntity
  8
_0-1_1_5
  6
DASHED2
 62
     7
100
AcDbLine
 10
-1055.803139270705
 20
195.1895172029734
 30
0.0
 11
-1057.434776752054
 21
195.845114479718
 31
0.0
  0
LINE
  5
352
330
1D
100
AcDbEntity
  8
_0-1_1_5
  6
DASHED2
 62
     7
100
AcDbLine
 10
-1057.31796649901
 20
195.1895172029734
 30
0.0
 11
-1053.818162510418
 21
195.1895172029734
 31
0.0
  0
LINE
  5
353
330
1D
100
AcDbEntity
  8
_0-1_1_5
  6
DASHED2
 62
     7
100
AcDbLine
 10
-1059.068064504714
 20
193.4394191972692
 30
0.0
 11
-1057.31796649901
 21
195.1895172029734
 31
0.0
  0
LINE
  5
354
330
1D
100
AcDbEntity
  8
_0-1_1_5
  6
DASHED2
 62
     7
100
AcDbLine
 10
-1057.31796649901
 20
195.1895172029734
 30
0.0
 11
-1057.31796649901
 21
210.9115754578063
 31
0.0
  0
LINE
  5
355
330
1D
100
AcDbEntity
  8
_0-1_1_5
  6
DASHED2
 62
     7
100
AcDbLine
 10
-1053.818162510418
 20
195.1895172029734
 30
0.0
 11
-1053.818162510418
 21
210.9115754578063
 31
0.0
  0
LINE
  5
356
330
1D
100
AcDbEntity
  8
_0-1_1_5
  6
DASHED2
 62
     7
100
AcDbLine
 10
-1049.445609153272
 20
207.9115754578062
 30
0.0
 11
-1049.445609153272
 21
203.1615754578065
 31
0.0
  0
LINE
  5
357
330
1D
100
AcDbEntity
  8
_0-1_1_5
  6
DASHED2
 62
     7
100
AcDbLine
 10
-1049.445609153272
 20
203.1615754578065
 30
0.0
 11
-1050.445609153272
 21
203.1615754578065
 31
0.0
  0
LINE
  5
358
330
1D
100
AcDbEntity
  8
_0-1_1_5
  6
DASHED2
 62
     7
100
AcDbLine
 10
-1050.445609153272
 20
203.1615754578065
 30
0.0
 11
-1050.445609153272
 21
198.6615754578064
 31
0.0
  0
LINE
  5
359
330
1D
100
AcDbEntity
  8
_0-1_1_5
  6
DASHED2
 62
     7
100
AcDbLine
 10
-1050.445609153272
 20
198.6615754578064
 30
0.0
 11
-1049.445609153272
 21
198.6615754578064
 31
0.0
  0
LINE
  5
35A
330
1D
100
AcDbEntity
  8
_0-1_1_5
  6
DASHED2
 62
     7
100
AcDbLine
 10
-1049.445609153272
 20
198.6615754578064
 30
0.0
 11
-1049.445609153272
 21
192.9115754578062
 31
0.0
  0
LINE
  5
35B
330
1D
100
AcDbEntity
  8
_0-1_1_5
  6
DASHED2
 62
     7
100
AcDbLine
 10
-1049.445609153272
 20
192.9115754578062
 30
0.0
 11
-1050.445609153272
 21
192.9115754578062
 31
0.0
  0
LINE
  5
35C
330
1D
100
AcDbEntity
  8
_0-1_1_5
  6
DASHED2
 62
     7
100
AcDbLine
 10
-1050.445609153272
 20
192.9115754578062
 30
0.0
 11
-1052.945609153272
 21
195.4115754578062
 31
0.0
  0
LINE
  5
35D
330
1D
100
AcDbEntity
  8
_0-1_1_5
  6
DASHED2
 62
     7
100
AcDbLine
 10
-1052.945609153272
 20
195.4115754578062
 30
0.0
 11
-1052.945609153272
 21
207.9115754578065
 31
0.0
  0
LINE
  5
35E
330
1D
100
AcDbEntity
  8
_0-1_1_5
  6
Continuous
 62
     7
100
AcDbLine
 10
-1055.568064504714
 20
235.3884663435022
 30
0.0
 11
-1057.31796649901
 21
229.763535584583
 31
0.0
  0
LINE
  5
35F
330
1D
100
AcDbEntity
  8
_0-1_1_5
  6
Continuous
 62
     7
100
AcDbLine
 10
-1055.568064504714
 20
235.3884663435022
 30
0.0
 11
-1053.818162510418
 21
229.763535584583
 31
0.0
  0
LINE
  5
360
330
1D
100
AcDbEntity
  8
_0-1_1_5
  6
Continuous
 62
     7
100
AcDbLine
 10
-1053.934972763462
 20
207.2638125489072
 30
0.0
 11
-1057.434776752054
 21
208.6700452386367
 31
0.0
  0
LINE
  5
361
330
1D
100
AcDbEntity
  8
_0-1_1_5
  6
Continuous
 62
     7
100
AcDbLine
 10
-1053.934972763462
 20
208.6700452386367
 30
0.0
 11
-1057.434776752054
 21
210.0762779283668
 31
0.0
  0
LINE
  5
362
330
1D
100
AcDbEntity
  8
_0-1_1_5
  6
Continuous
 62
     7
100
AcDbLine
 10
-1053.934972763462
 20
214.2949759975562
 30
0.0
 11
-1057.434776752054
 21
215.7012086872858
 31
0.0
  0
LINE
  5
363
330
1D
100
AcDbEntity
  8
_0-1_1_5
  6
Continuous
 62
     7
100
AcDbLine
 10
-1053.934972763462
 20
212.8887433078262
 30
0.0
 11
-1057.434776752054
 21
214.2949759975562
 31
0.0
  0
LINE
  5
364
330
1D
100
AcDbEntity
  8
_0-1_1_5
  6
Continuous
 62
     7
100
AcDbLine
 10
-1053.934972763462
 20
215.7012086872858
 30
0.0
 11
-1057.434776752054
 21
217.1074413770154
 31
0.0
  0
LINE
  5
365
330
1D
100
AcDbEntity
  8
_0-1_1_5
  6
Continuous
 62
     7
100
AcDbLine
 10
-1053.934972763462
 20
217.1074413770154
 30
0.0
 11
-1057.434776752054
 21
218.5136740667451
 31
0.0
  0
LINE
  5
366
330
1D
100
AcDbEntity
  8
_0-1_1_5
  6
Continuous
 62
     7
100
AcDbLine
 10
-1053.934972763462
 20
218.5136740667451
 30
0.0
 11
-1057.434776752054
 21
219.9199067564748
 31
0.0
  0
LINE
  5
367
330
1D
100
AcDbEntity
  8
_0-1_1_5
  6
Continuous
 62
     7
100
AcDbLine
 10
-1053.934972763462
 20
219.9199067564748
 30
0.0
 11
-1057.434776752054
 21
221.3261394462047
 31
0.0
  0
LINE
  5
368
330
1D
100
AcDbEntity
  8
_0-1_1_5
  6
Continuous
 62
     7
100
AcDbLine
 10
-1053.934972763462
 20
221.3261394462047
 30
0.0
 11
-1057.434776752054
 21
222.7323721359343
 31
0.0
  0
LINE
  5
369
330
1D
100
AcDbEntity
  8
_0-1_1_5
  6
Continuous
 62
     7
100
AcDbLine
 10
-1053.934972763462
 20
222.7323721359343
 30
0.0
 11
-1057.434776752054
 21
224.138604825664
 31
0.0
  0
LINE
  5
36A
330
1D
100
AcDbEntity
  8
_0-1_1_5
  6
Continuous
 62
     7
100
AcDbLine
 10
-1053.934972763462
 20
210.0762779283668
 30
0.0
 11
-1057.434776752054
 21
211.4825106180963
 31
0.0
  0
LINE
  5
36B
330
1D
100
AcDbEntity
  8
_0-1_1_5
  6
Continuous
 62
     7
100
AcDbLine
 10
-1053.934972763462
 20
224.138604825664
 30
0.0
 11
-1057.434776752054
 21
225.5448375153941
 31
0.0
  0
LINE
  5
36C
330
1D
100
AcDbEntity
  8
_0-1_1_5
  6
Continuous
 62
     7
100
AcDbLine
 10
-1053.934972763462
 20
226.9510702051236
 30
0.0
 11
-1057.434776752054
 21
228.3573028948535
 31
0.0
  0
LINE
  5
36D
330
1D
100
AcDbEntity
  8
_0-1_1_5
  6
Continuous
 62
     7
100
AcDbLine
 10
-1053.934972763462
 20
228.3573028948535
 30
0.0
 11
-1057.434776752054
 21
229.763535584583
 31
0.0
  0
LINE
  5
36E
330
1D
100
AcDbEntity
  8
_0-1_1_5
  6
Continuous
 62
     7
100
AcDbLine
 10
-1053.934972763462
 20
225.5448375153941
 30
0.0
 11
-1057.434776752054
 21
226.9510702051236
 31
0.0
  0
LINE
  5
36F
330
1D
100
AcDbEntity
  8
_0-1_1_5
  6
Continuous
 62
     7
100
AcDbLine
 10
-1053.934972763462
 20
211.4825106180963
 30
0.0
 11
-1057.434776752054
 21
212.8887433078262
 31
0.0
  0
LINE
  5
370
330
1D
100
AcDbEntity
  8
_0-1_1_5
  6
Continuous
 62
     7
100
AcDbLine
 10
-1057.31796649901
 20
206.9115754578063
 30
0.0
 11
-1057.31796649901
 21
229.7629816559352
 31
0.0
  0
LINE
  5
371
330
1D
100
AcDbEntity
  8
_0-1_1_5
  6
Continuous
 62
     7
100
AcDbLine
 10
-1053.818162510418
 20
206.9115754578063
 30
0.0
 11
-1053.818162510418
 21
229.763535584583
 31
0.0
  0
LINE
  5
372
330
1D
100
AcDbEntity
  8
_0-1_1_5
  6
DASHED2
 62
     7
100
AcDbLine
 10
-1057.945609153272
 20
207.9115754578063
 30
0.0
 11
-1052.945609153272
 21
207.9115754578063
 31
0.0
  0
LINE
  5
374
330
1D
100
AcDbEntity
  8
_0-1_1_5
  6
DASHED2
 62
     7
100
AcDbLine
 10
-1061.445609153272
 20
207.9115754578062
 30
0.0
 11
-1061.445609153272
 21
203.1615754578065
 31
0.0
  0
LINE
  5
375
330
1D
100
AcDbEntity
  8
_0-1_1_5
  6
DASHED2
 62
     7
100
AcDbLine
 10
-1061.445609153272
 20
203.1615754578065
 30
0.0
 11
-1060.445609153272
 21
203.1615754578065
 31
0.0
  0
LINE
  5
376
330
1D
100
AcDbEntity
  8
_0-1_1_5
  6
DASHED2
 62
     7
100
AcDbLine
 10
-1060.445609153272
 20
203.1615754578065
 30
0.0
 11
-1060.445609153272
 21
198.6615754578064
 31
0.0
  0
LINE
  5
377
330
1D
100
AcDbEntity
  8
_0-1_1_5
  6
DASHED2
 62
     7
100
AcDbLine
 10
-1060.445609153272
 20
198.6615754578064
 30
0.0
 11
-1061.445609153272
 21
198.6615754578064
 31
0.0
  0
LINE
  5
378
330
1D
100
AcDbEntity
  8
_0-1_1_5
  6
DASHED2
 62
     7
100
AcDbLine
 10
-1061.445609153272
 20
198.6615754578064
 30
0.0
 11
-1061.445609153272
 21
192.9115754578062
 31
0.0
  0
LINE
  5
379
330
1D
100
AcDbEntity
  8
_0-1_1_5
  6
DASHED2
 62
     7
100
AcDbLine
 10
-1061.445609153272
 20
192.9115754578062
 30
0.0
 11
-1060.445609153272
 21
192.9115754578062
 31
0.0
  0
LINE
  5
37A
330
1D
100
AcDbEntity
  8
_0-1_1_5
  6
DASHED2
 62
     7
100
AcDbLine
 10
-1060.445609153272
 20
192.9115754578062
 30
0.0
 11
-1057.945609153272
 21
195.4115754578062
 31
0.0
  0
LINE
  5
37B
330
1D
100
AcDbEntity
  8
_0-1_1_5
  6
DASHED2
 62
     7
100
AcDbLine
 10
-1057.945609153272
 20
195.4115754578062
 30
0.0
 11
-1057.945609153272
 21
207.9115754578065
 31
0.0
  0
CIRCLE
  5
37C
102
{ACAD_REACTORS
330
3FD
102
}
330
1D
100
AcDbEntity
  8
_0-1_1_5
  6
Continuous
 62
     7
100
AcDbCircle
 10
-1635.568064504714
 20
427.9033513899622
 30
0.0
 40
10.0
  0
LINE
  5
37D
330
1D
100
AcDbEntity
  8
_0-1_1_5
  6
Continuous
 62
     7
100
AcDbLine
 10
-1645.568064504714
 20
147.9199941520376
 30
0.0
 11
-1625.568064504714
 21
147.9199941520376
 31
0.0
  0
LINE
  5
37E
330
1D
100
AcDbEntity
  8
_0-1_1_5
  6
Continuous
 62
     7
100
AcDbLine
 10
-1645.568064504714
 20
147.9199941520376
 30
0.0
 11
-1645.568064504714
 21
207.9199941520374
 31
0.0
  0
LINE
  5
37F
330
1D
100
AcDbEntity
  8
_0-1_1_5
  6
Continuous
 62
     7
100
AcDbLine
 10
-1625.568064504714
 20
147.9199941520376
 30
0.0
 11
-1625.568064504714
 21
207.9199941520374
 31
0.0
  0
LINE
  5
380
330
1D
100
AcDbEntity
  8
_0-1_1_5
  6
Continuous
 62
     7
100
AcDbLine
 10
-1645.568064504714
 20
207.9199941520374
 30
0.0
 11
-1625.568064504714
 21
207.9199941520374
 31
0.0
  0
LINE
  5
381
330
1D
100
AcDbEntity
  8
_0-1_1_5
  6
CENTER2
 62
     7
100
AcDbLine
 10
-1635.568064504714
 20
432.9033513899622
 30
0.0
 11
-1635.568064504714
 21
422.8532368355153
 31
0.0
  0
LINE
  5
382
330
1D
100
AcDbEntity
  8
_0-1_1_5
  6
CENTER2
 62
     7
100
AcDbLine
 10
-1640.568064504714
 20
427.9033513899622
 30
0.0
 11
-1630.568064504714
 21
427.9033513899622
 31
0.0
  0
LINE
  5
383
330
1D
100
AcDbEntity
  8
_0-1_1_5
  6
CENTER2
 62
     7
100
AcDbLine
 10
-1640.568064504714
 20
427.9033513899622
 30
0.0
 11
-1630.568064504714
 21
427.9033513899622
 31
0.0
  0
LINE
  5
384
330
1D
100
AcDbEntity
  8
_0-1_1_5
  6
DASHED2
 62
     7
100
AcDbLine
 10
-1630.445609153273
 20
192.9115754578062
 30
0.0
 11
-1640.445609153273
 21
192.9115754578062
 31
0.0
  0
LINE
  5
385
330
1D
100
AcDbEntity
  8
_0-1_1_5
  6
STYLE_01
 62
     7
100
AcDbLine
 10
-1632.068064504714
 20
193.4394191972692
 30
0.0
 11
-1633.818162510418
 21
195.189517202973
 31
0.0
  0
LINE
  5
386
330
1D
100
AcDbEntity
  8
_0-1_1_5
  6
DASHED2
 62
     7
100
AcDbLine
 10
-1633.934972763462
 20
205.6388817899883
 30
0.0
 11
-1637.434776752054
 21
207.0451144797178
 31
0.0
  0
LINE
  5
387
330
1D
100
AcDbEntity
  8
_0-1_1_5
  6
DASHED2
 62
     7
100
AcDbLine
 10
-1633.934972763462
 20
204.2388817899881
 30
0.0
 11
-1637.434776752054
 21
205.6451144797179
 31
0.0
  0
LINE
  5
388
330
1D
100
AcDbEntity
  8
_0-1_1_5
  6
DASHED2
 62
     7
100
AcDbLine
 10
-1633.934972763462
 20
202.8388817899883
 30
0.0
 11
-1637.434776752054
 21
204.2451144797181
 31
0.0
  0
LINE
  5
389
330
1D
100
AcDbEntity
  8
_0-1_1_5
  6
DASHED2
 62
     7
100
AcDbLine
 10
-1633.934972763462
 20
201.4388817899883
 30
0.0
 11
-1637.434776752054
 21
202.8451144797178
 31
0.0
  0
LINE
  5
38A
330
1D
100
AcDbEntity
  8
_0-1_1_5
  6
DASHED2
 62
     7
100
AcDbLine
 10
-1633.934972763462
 20
200.0388817899884
 30
0.0
 11
-1637.434776752054
 21
201.445114479718
 31
0.0
  0
LINE
  5
38B
330
1D
100
AcDbEntity
  8
_0-1_1_5
  6
DASHED2
 62
     7
100
AcDbLine
 10
-1633.934972763462
 20
198.6388817899885
 30
0.0
 11
-1637.434776752054
 21
200.045114479718
 31
0.0
  0
LINE
  5
38C
330
1D
100
AcDbEntity
  8
_0-1_1_5
  6
DASHED2
 62
     7
100
AcDbLine
 10
-1633.934972763462
 20
197.2388817899884
 30
0.0
 11
-1637.434776752054
 21
198.6451144797181
 31
0.0
  0
LINE
  5
38D
330
1D
100
AcDbEntity
  8
_0-1_1_5
  6
DASHED2
 62
     7
100
AcDbLine
 10
-1633.934972763462
 20
195.8388817899884
 30
0.0
 11
-1637.434776752054
 21
197.2451144797183
 31
0.0
  0
LINE
  5
38E
330
1D
100
AcDbEntity
  8
_0-1_1_5
  6
DASHED2
 62
     7
100
AcDbLine
 10
-1635.803139270705
 20
195.1895172029734
 30
0.0
 11
-1637.434776752054
 21
195.845114479718
 31
0.0
  0
LINE
  5
38F
330
1D
100
AcDbEntity
  8
_0-1_1_5
  6
DASHED2
 62
     7
100
AcDbLine
 10
-1637.31796649901
 20
195.1895172029734
 30
0.0
 11
-1633.818162510418
 21
195.1895172029734
 31
0.0
  0
LINE
  5
390
330
1D
100
AcDbEntity
  8
_0-1_1_5
  6
DASHED2
 62
     7
100
AcDbLine
 10
-1639.068064504714
 20
193.4394191972692
 30
0.0
 11
-1637.31796649901
 21
195.1895172029734
 31
0.0
  0
LINE
  5
391
330
1D
100
AcDbEntity
  8
_0-1_1_5
  6
DASHED2
 62
     7
100
AcDbLine
 10
-1637.31796649901
 20
195.1895172029734
 30
0.0
 11
-1637.31796649901
 21
210.9115754578063
 31
0.0
  0
LINE
  5
392
330
1D
100
AcDbEntity
  8
_0-1_1_5
  6
DASHED2
 62
     7
100
AcDbLine
 10
-1633.818162510419
 20
195.1895172029734
 30
0.0
 11
-1633.818162510418
 21
210.9115754578063
 31
0.0
  0
LINE
  5
393
330
1D
100
AcDbEntity
  8
_0-1_1_5
  6
DASHED2
 62
     7
100
AcDbLine
 10
-1629.445609153273
 20
207.9115754578062
 30
0.0
 11
-1629.445609153273
 21
203.1615754578065
 31
0.0
  0
LINE
  5
394
330
1D
100
AcDbEntity
  8
_0-1_1_5
  6
DASHED2
 62
     7
100
AcDbLine
 10
-1629.445609153273
 20
203.1615754578065
 30
0.0
 11
-1630.445609153273
 21
203.1615754578065
 31
0.0
  0
LINE
  5
395
330
1D
100
AcDbEntity
  8
_0-1_1_5
  6
DASHED2
 62
     7
100
AcDbLine
 10
-1630.445609153273
 20
203.1615754578065
 30
0.0
 11
-1630.445609153273
 21
198.6615754578064
 31
0.0
  0
LINE
  5
396
330
1D
100
AcDbEntity
  8
_0-1_1_5
  6
DASHED2
 62
     7
100
AcDbLine
 10
-1630.445609153273
 20
198.6615754578064
 30
0.0
 11
-1629.445609153273
 21
198.6615754578064
 31
0.0
  0
LINE
  5
397
330
1D
100
AcDbEntity
  8
_0-1_1_5
  6
DASHED2
 62
     7
100
AcDbLine
 10
-1629.445609153273
 20
198.6615754578064
 30
0.0
 11
-1629.445609153273
 21
192.9115754578062
 31
0.0
  0
LINE
  5
398
330
1D
100
AcDbEntity
  8
_0-1_1_5
  6
DASHED2
 62
     7
100
AcDbLine
 10
-1629.445609153273
 20
192.9115754578062
 30
0.0
 11
-1630.445609153273
 21
192.9115754578062
 31
0.0
  0
LINE
  5
399
330
1D
100
AcDbEntity
  8
_0-1_1_5
  6
DASHED2
 62
     7
100
AcDbLine
 10
-1630.445609153273
 20
192.9115754578062
 30
0.0
 11
-1632.945609153273
 21
195.4115754578062
 31
0.0
  0
LINE
  5
39A
330
1D
100
AcDbEntity
  8
_0-1_1_5
  6
DASHED2
 62
     7
100
AcDbLine
 10
-1632.945609153273
 20
195.4115754578062
 30
0.0
 11
-1632.945609153273
 21
207.9115754578065
 31
0.0
  0
LINE
  5
39B
330
1D
100
AcDbEntity
  8
_0-1_1_5
  6
Continuous
 62
     7
100
AcDbLine
 10
-1635.568064504714
 20
235.3884663435022
 30
0.0
 11
-1637.31796649901
 21
229.763535584583
 31
0.0
  0
LINE
  5
39C
330
1D
100
AcDbEntity
  8
_0-1_1_5
  6
Continuous
 62
     7
100
AcDbLine
 10
-1635.568064504714
 20
235.3884663435022
 30
0.0
 11
-1633.818162510418
 21
229.763535584583
 31
0.0
  0
LINE
  5
39D
330
1D
100
AcDbEntity
  8
_0-1_1_5
  6
Continuous
 62
     7
100
AcDbLine
 10
-1633.934972763462
 20
207.2638125489072
 30
0.0
 11
-1637.434776752054
 21
208.6700452386367
 31
0.0
  0
LINE
  5
39E
330
1D
100
AcDbEntity
  8
_0-1_1_5
  6
Continuous
 62
     7
100
AcDbLine
 10
-1633.934972763462
 20
208.6700452386367
 30
0.0
 11
-1637.434776752054
 21
210.0762779283668
 31
0.0
  0
LINE
  5
39F
330
1D
100
AcDbEntity
  8
_0-1_1_5
  6
Continuous
 62
     7
100
AcDbLine
 10
-1633.934972763462
 20
214.2949759975562
 30
0.0
 11
-1637.434776752054
 21
215.7012086872858
 31
0.0
  0
LINE
  5
3A0
330
1D
100
AcDbEntity
  8
_0-1_1_5
  6
Continuous
 62
     7
100
AcDbLine
 10
-1633.934972763462
 20
212.8887433078262
 30
0.0
 11
-1637.434776752054
 21
214.2949759975562
 31
0.0
  0
LINE
  5
3A1
330
1D
100
AcDbEntity
  8
_0-1_1_5
  6
Continuous
 62
     7
100
AcDbLine
 10
-1633.934972763462
 20
215.7012086872858
 30
0.0
 11
-1637.434776752054
 21
217.1074413770154
 31
0.0
  0
LINE
  5
3A2
330
1D
100
AcDbEntity
  8
_0-1_1_5
  6
Continuous
 62
     7
100
AcDbLine
 10
-1633.934972763462
 20
217.1074413770154
 30
0.0
 11
-1637.434776752054
 21
218.5136740667451
 31
0.0
  0
LINE
  5
3A3
330
1D
100
AcDbEntity
  8
_0-1_1_5
  6
Continuous
 62
     7
100
AcDbLine
 10
-1633.934972763462
 20
218.5136740667451
 30
0.0
 11
-1637.434776752054
 21
219.9199067564748
 31
0.0
  0
LINE
  5
3A4
330
1D
100
AcDbEntity
  8
_0-1_1_5
  6
Continuous
 62
     7
100
AcDbLine
 10
-1633.934972763462
 20
219.9199067564748
 30
0.0
 11
-1637.434776752054
 21
221.3261394462047
 31
0.0
  0
LINE
  5
3A5
330
1D
100
AcDbEntity
  8
_0-1_1_5
  6
Continuous
 62
     7
100
AcDbLine
 10
-1633.934972763462
 20
221.3261394462047
 30
0.0
 11
-1637.434776752054
 21
222.7323721359343
 31
0.0
  0
LINE
  5
3A6
330
1D
100
AcDbEntity
  8
_0-1_1_5
  6
Continuous
 62
     7
100
AcDbLine
 10
-1633.934972763462
 20
222.7323721359343
 30
0.0
 11
-1637.434776752054
 21
224.138604825664
 31
0.0
  0
LINE
  5
3A7
330
1D
100
AcDbEntity
  8
_0-1_1_5
  6
Continuous
 62
     7
100
AcDbLine
 10
-1633.934972763462
 20
210.0762779283668
 30
0.0
 11
-1637.434776752054
 21
211.4825106180963
 31
0.0
  0
LINE
  5
3A8
330
1D
100
AcDbEntity
  8
_0-1_1_5
  6
Continuous
 62
     7
100
AcDbLine
 10
-1633.934972763462
 20
224.138604825664
 30
0.0
 11
-1637.434776752054
 21
225.5448375153941
 31
0.0
  0
LINE
  5
3A9
330
1D
100
AcDbEntity
  8
_0-1_1_5
  6
Continuous
 62
     7
100
AcDbLine
 10
-1633.934972763462
 20
226.9510702051236
 30
0.0
 11
-1637.434776752054
 21
228.3573028948535
 31
0.0
  0
LINE
  5
3AA
330
1D
100
AcDbEntity
  8
_0-1_1_5
  6
Continuous
 62
     7
100
AcDbLine
 10
-1633.934972763462
 20
228.3573028948535
 30
0.0
 11
-1637.434776752054
 21
229.763535584583
 31
0.0
  0
LINE
  5
3AB
330
1D
100
AcDbEntity
  8
_0-1_1_5
  6
Continuous
 62
     7
100
AcDbLine
 10
-1633.934972763462
 20
225.5448375153941
 30
0.0
 11
-1637.434776752054
 21
226.9510702051236
 31
0.0
  0
LINE
  5
3AC
330
1D
100
AcDbEntity
  8
_0-1_1_5
  6
Continuous
 62
     7
100
AcDbLine
 10
-1633.934972763462
 20
211.4825106180963
 30
0.0
 11
-1637.434776752054
 21
212.8887433078262
 31
0.0
  0
LINE
  5
3AD
330
1D
100
AcDbEntity
  8
_0-1_1_5
  6
Continuous
 62
     7
100
AcDbLine
 10
-1637.31796649901
 20
206.9115754578063
 30
0.0
 11
-1637.31796649901
 21
229.7629816559352
 31
0.0
  0
LINE
  5
3AE
330
1D
100
AcDbEntity
  8
_0-1_1_5
  6
Continuous
 62
     7
100
AcDbLine
 10
-1633.818162510418
 20
206.9115754578063
 30
0.0
 11
-1633.818162510418
 21
229.763535584583
 31
0.0
  0
LINE
  5
3AF
330
1D
100
AcDbEntity
  8
_0-1_1_5
  6
DASHED2
 62
     7
100
AcDbLine
 10
-1637.945609153273
 20
207.9115754578063
 30
0.0
 11
-1632.945609153273
 21
207.9115754578063
 31
0.0
  0
LINE
  5
3B0
330
1D
100
AcDbEntity
  8
_0-1_1_5
  6
DASHED2
 62
     7
100
AcDbLine
 10
-1645.453349846707
 20
207.9115754578062
 30
0.0
 11
-1641.445609153273
 21
207.9115754578062
 31
0.0
  0
LINE
  5
3B1
330
1D
100
AcDbEntity
  8
_0-1_1_5
  6
DASHED2
 62
     7
100
AcDbLine
 10
-1641.445609153273
 20
207.9115754578062
 30
0.0
 11
-1641.445609153273
 21
203.1615754578065
 31
0.0
  0
LINE
  5
3B2
330
1D
100
AcDbEntity
  8
_0-1_1_5
  6
DASHED2
 62
     7
100
AcDbLine
 10
-1641.445609153273
 20
203.1615754578065
 30
0.0
 11
-1640.445609153273
 21
203.1615754578065
 31
0.0
  0
LINE
  5
3B3
330
1D
100
AcDbEntity
  8
_0-1_1_5
  6
DASHED2
 62
     7
100
AcDbLine
 10
-1640.445609153273
 20
203.1615754578065
 30
0.0
 11
-1640.445609153273
 21
198.6615754578064
 31
0.0
  0
LINE
  5
3B4
330
1D
100
AcDbEntity
  8
_0-1_1_5
  6
DASHED2
 62
     7
100
AcDbLine
 10
-1640.445609153273
 20
198.6615754578064
 30
0.0
 11
-1641.445609153273
 21
198.6615754578064
 31
0.0
  0
LINE
  5
3B5
330
1D
100
AcDbEntity
  8
_0-1_1_5
  6
DASHED2
 62
     7
100
AcDbLine
 10
-1641.445609153273
 20
198.6615754578064
 30
0.0
 11
-1641.445609153273
 21
192.9115754578062
 31
0.0
  0
LINE
  5
3B6
330
1D
100
AcDbEntity
  8
_0-1_1_5
  6
DASHED2
 62
     7
100
AcDbLine
 10
-1641.445609153273
 20
192.9115754578062
 30
0.0
 11
-1640.445609153273
 21
192.9115754578062
 31
0.0
  0
LINE
  5
3B7
330
1D
100
AcDbEntity
  8
_0-1_1_5
  6
DASHED2
 62
     7
100
AcDbLine
 10
-1640.445609153273
 20
192.9115754578062
 30
0.0
 11
-1637.945609153273
 21
195.4115754578062
 31
0.0
  0
LINE
  5
3B8
330
1D
100
AcDbEntity
  8
_0-1_1_5
  6
DASHED2
 62
     7
100
AcDbLine
 10
-1637.945609153273
 20
195.4115754578062
 30
0.0
 11
-1637.945609153273
 21
207.9115754578065
 31
0.0
  0
CIRCLE
  5
3B9
330
1D
100
AcDbEntity
  8
_0-1_1_5
  6
DASHED1
 62
     7
100
AcDbCircle
 10
-873.6140541136172
 20
427.9033513899624
 30
0.0
 40
5.0
  0
LINE
  5
3BA
330
1D
100
AcDbEntity
  8
_0-2_ADD_LINE
  6
Continuous
 62
     7
100
AcDbLine
 10
-811.767673614579
 20
427.0722700098007
 30
0.0
 11
-811.767673614579
 21
360.5462694597029
 31
0.0
  0
LINE
  5
3BB
330
1D
100
AcDbEntity
  8
_0-1_1_5
  6
Continuous
 62
     7
100
AcDbLine
 10
-823.6140541136172
 20
437.9033513899624
 30
0.0
 11
-823.6140541136172
 21
417.9033513899624
 31
0.0
  0
LINE
  5
3BC
102
{ACAD_REACTORS
330
401
102
}
330
1D
100
AcDbEntity
  8
_0-1_1_5
  6
Continuous
 62
     7
100
AcDbLine
 10
-823.6140541136172
 20
417.9033513899624
 30
0.0
 11
-883.6140541136172
 21
417.9033513899624
 31
0.0
  0
LINE
  5
3BD
102
{ACAD_REACTORS
330
401
102
}
330
1D
100
AcDbEntity
  8
_0-1_1_5
  6
Continuous
 62
     7
100
AcDbLine
 10
-883.6140541136172
 20
417.9033513899624
 30
0.0
 11
-883.6140541136172
 21
437.9033513899624
 31
0.0
  0
LINE
  5
3BE
330
1D
100
AcDbEntity
  8
_0-1_1_5
  6
Continuous
 62
     7
100
AcDbLine
 10
-883.6140541136172
 20
437.9033513899624
 30
0.0
 11
-823.6140541136172
 21
437.9033513899624
 31
0.0
  0
LINE
  5
3BF
330
1D
100
AcDbEntity
  8
_0-1_1_5
  6
DASHED2
 62
     7
100
AcDbLine
 10
-838.6140541136176
 20
422.9033513899623
 30
0.0
 11
-838.6140541136176
 21
432.9033513899623
 31
0.0
  0
LINE
  5
3C0
330
1D
100
AcDbEntity
  8
_0-1_1_5
  6
STYLE_01
 62
     7
100
AcDbLine
 10
-838.0862103741545
 20
424.5258067414039
 30
0.0
 11
-836.3361123684506
 21
426.275904747108
 31
0.0
  0
LINE
  5
3C1
330
1D
100
AcDbEntity
  8
_0-1_1_5
  6
DASHED2
 62
     7
100
AcDbLine
 10
-825.8867477814354
 20
426.392715000152
 30
0.0
 11
-824.4805150917059
 21
429.8925189887436
 31
0.0
  0
LINE
  5
3C2
330
1D
100
AcDbEntity
  8
_0-1_1_5
  6
DASHED2
 62
     7
100
AcDbLine
 10
-827.2867477814355
 20
426.392715000152
 30
0.0
 11
-825.8805150917058
 21
429.8925189887436
 31
0.0
  0
LINE
  5
3C3
330
1D
100
AcDbEntity
  8
_0-1_1_5
  6
DASHED2
 62
     7
100
AcDbLine
 10
-828.6867477814353
 20
426.392715000152
 30
0.0
 11
-827.2805150917056
 21
429.8925189887436
 31
0.0
  0
LINE
  5
3C4
330
1D
100
AcDbEntity
  8
_0-1_1_5
  6
DASHED2
 62
     7
100
AcDbLine
 10
-830.0867477814354
 20
426.392715000152
 30
0.0
 11
-828.6805150917057
 21
429.8925189887436
 31
0.0
  0
LINE
  5
3C5
330
1D
100
AcDbEntity
  8
_0-1_1_5
  6
DASHED2
 62
     7
100
AcDbLine
 10
-831.4867477814353
 20
426.392715000152
 30
0.0
 11
-830.0805150917056
 21
429.8925189887436
 31
0.0
  0
LINE
  5
3C6
330
1D
100
AcDbEntity
  8
_0-1_1_5
  6
DASHED2
 62
     7
100
AcDbLine
 10
-832.8867477814351
 20
426.392715000152
 30
0.0
 11
-831.4805150917057
 21
429.8925189887436
 31
0.0
  0
LINE
  5
3C7
330
1D
100
AcDbEntity
  8
_0-1_1_5
  6
DASHED2
 62
     7
100
AcDbLine
 10
-834.2867477814352
 20
426.392715000152
 30
0.0
 11
-832.8805150917055
 21
429.8925189887436
 31
0.0
  0
LINE
  5
3C8
330
1D
100
AcDbEntity
  8
_0-1_1_5
  6
DASHED2
 62
     7
100
AcDbLine
 10
-835.6867477814353
 20
426.392715000152
 30
0.0
 11
-834.2805150917054
 21
429.8925189887436
 31
0.0
  0
LINE
  5
3C9
330
1D
100
AcDbEntity
  8
_0-1_1_5
  6
DASHED2
 62
     7
100
AcDbLine
 10
-836.3361123684504
 20
428.2608815073945
 30
0.0
 11
-835.6805150917057
 21
429.8925189887436
 31
0.0
  0
LINE
  5
3CA
330
1D
100
AcDbEntity
  8
_0-1_1_5
  6
DASHED2
 62
     7
100
AcDbLine
 10
-836.3361123684504
 20
429.7757087356998
 30
0.0
 11
-836.3361123684504
 21
426.275904747108
 31
0.0
  0
LINE
  5
3CB
330
1D
100
AcDbEntity
  8
_0-1_1_5
  6
DASHED2
 62
     7
100
AcDbLine
 10
-838.0862103741545
 20
431.5258067414039
 30
0.0
 11
-836.3361123684504
 21
429.7757087356998
 31
0.0
  0
LINE
  5
3CC
330
1D
100
AcDbEntity
  8
_0-1_1_5
  6
DASHED2
 62
     7
100
AcDbLine
 10
-836.3361123684504
 20
429.7757087356998
 30
0.0
 11
-820.6140541136174
 21
429.7757087356998
 31
0.0
  0
LINE
  5
3CD
330
1D
100
AcDbEntity
  8
_0-1_1_5
  6
DASHED2
 62
     7
100
AcDbLine
 10
-836.3361123684504
 20
426.2759047471084
 30
0.0
 11
-820.6140541136174
 21
426.275904747108
 31
0.0
  0
LINE
  5
3CE
330
1D
100
AcDbEntity
  8
_0-1_1_5
  6
DASHED2
 62
     7
100
AcDbLine
 10
-823.6140541136176
 20
421.9033513899624
 30
0.0
 11
-828.3640541136172
 21
421.9033513899624
 31
0.0
  0
LINE
  5
3CF
330
1D
100
AcDbEntity
  8
_0-1_1_5
  6
DASHED2
 62
     7
100
AcDbLine
 10
-828.3640541136172
 20
421.9033513899624
 30
0.0
 11
-828.3640541136172
 21
422.9033513899623
 31
0.0
  0
LINE
  5
3D0
330
1D
100
AcDbEntity
  8
_0-1_1_5
  6
DASHED2
 62
     7
100
AcDbLine
 10
-828.3640541136172
 20
422.9033513899623
 30
0.0
 11
-832.8640541136174
 21
422.9033513899623
 31
0.0
  0
LINE
  5
3D1
330
1D
100
AcDbEntity
  8
_0-1_1_5
  6
DASHED2
 62
     7
100
AcDbLine
 10
-832.8640541136174
 20
422.9033513899623
 30
0.0
 11
-832.8640541136174
 21
421.9033513899624
 31
0.0
  0
LINE
  5
3D2
330
1D
100
AcDbEntity
  8
_0-1_1_5
  6
DASHED2
 62
     7
100
AcDbLine
 10
-832.8640541136174
 20
421.9033513899624
 30
0.0
 11
-838.6140541136176
 21
421.9033513899624
 31
0.0
  0
LINE
  5
3D3
330
1D
100
AcDbEntity
  8
_0-1_1_5
  6
DASHED2
 62
     7
100
AcDbLine
 10
-838.6140541136176
 20
421.9033513899624
 30
0.0
 11
-838.6140541136176
 21
422.9033513899623
 31
0.0
  0
LINE
  5
3D4
330
1D
100
AcDbEntity
  8
_0-1_1_5
  6
DASHED2
 62
     7
100
AcDbLine
 10
-838.6140541136176
 20
422.9033513899623
 30
0.0
 11
-836.1140541136176
 21
425.4033513899623
 31
0.0
  0
LINE
  5
3D5
330
1D
100
AcDbEntity
  8
_0-1_1_5
  6
DASHED2
 62
     7
100
AcDbLine
 10
-836.1140541136176
 20
425.4033513899623
 30
0.0
 11
-823.6140541136172
 21
425.4033513899623
 31
0.0
  0
LINE
  5
3D6
330
1D
100
AcDbEntity
  8
_0-1_1_5
  6
Continuous
 62
     7
100
AcDbLine
 10
-796.1371632279215
 20
428.0258067414039
 30
0.0
 11
-801.7620939868407
 21
429.7757087356998
 31
0.0
  0
LINE
  5
3D7
330
1D
100
AcDbEntity
  8
_0-1_1_5
  6
Continuous
 62
     7
100
AcDbLine
 10
-796.1371632279215
 20
428.0258067414039
 30
0.0
 11
-801.7620939868407
 21
426.275904747108
 31
0.0
  0
LINE
  5
3D8
330
1D
100
AcDbEntity
  8
_0-1_1_5
  6
Continuous
 62
     7
100
AcDbLine
 10
-824.2618170225164
 20
426.392715000152
 30
0.0
 11
-822.855584332787
 21
429.8925189887436
 31
0.0
  0
LINE
  5
3D9
330
1D
100
AcDbEntity
  8
_0-1_1_5
  6
Continuous
 62
     7
100
AcDbLine
 10
-822.855584332787
 20
426.392715000152
 30
0.0
 11
-821.4493516430568
 21
429.8925189887436
 31
0.0
  0
LINE
  5
3DA
330
1D
100
AcDbEntity
  8
_0-1_1_5
  6
Continuous
 62
     7
100
AcDbLine
 10
-817.2306535738676
 20
426.392715000152
 30
0.0
 11
-815.8244208841379
 21
429.8925189887436
 31
0.0
  0
LINE
  5
3DB
330
1D
100
AcDbEntity
  8
_0-1_1_5
  6
Continuous
 62
     7
100
AcDbLine
 10
-818.6368862635975
 20
426.392715000152
 30
0.0
 11
-817.2306535738676
 21
429.8925189887436
 31
0.0
  0
LINE
  5
3DC
330
1D
100
AcDbEntity
  8
_0-1_1_5
  6
Continuous
 62
     7
100
AcDbLine
 10
-815.8244208841379
 20
426.392715000152
 30
0.0
 11
-814.4181881944085
 21
429.8925189887436
 31
0.0
  0
LINE
  5
3DD
330
1D
100
AcDbEntity
  8
_0-1_1_5
  6
Continuous
 62
     7
100
AcDbLine
 10
-814.4181881944085
 20
426.392715000152
 30
0.0
 11
-813.0119555046786
 21
429.8925189887436
 31
0.0
  0
LINE
  5
3DE
330
1D
100
AcDbEntity
  8
_0-1_1_5
  6
Continuous
 62
     7
100
AcDbLine
 10
-813.0119555046786
 20
426.392715000152
 30
0.0
 11
-811.6057228149489
 21
429.8925189887436
 31
0.0
  0
LINE
  5
3DF
330
1D
100
AcDbEntity
  8
_0-1_1_5
  6
Continuous
 62
     7
100
AcDbLine
 10
-811.6057228149489
 20
426.392715000152
 30
0.0
 11
-810.199490125219
 21
429.8925189887436
 31
0.0
  0
LINE
  5
3E0
330
1D
100
AcDbEntity
  8
_0-1_1_5
  6
Continuous
 62
     7
100
AcDbLine
 10
-810.199490125219
 20
426.392715000152
 30
0.0
 11
-808.7932574354895
 21
429.8925189887436
 31
0.0
  0
LINE
  5
3E1
330
1D
100
AcDbEntity
  8
_0-1_1_5
  6
Continuous
 62
     7
100
AcDbLine
 10
-808.7932574354895
 20
426.392715000152
 30
0.0
 11
-807.3870247457596
 21
429.8925189887436
 31
0.0
  0
LINE
  5
3E2
330
1D
100
AcDbEntity
  8
_0-1_1_5
  6
Continuous
 62
     7
100
AcDbLine
 10
-821.4493516430568
 20
426.392715000152
 30
0.0
 11
-820.0431189533274
 21
429.8925189887436
 31
0.0
  0
LINE
  5
3E3
330
1D
100
AcDbEntity
  8
_0-1_1_5
  6
Continuous
 62
     7
100
AcDbLine
 10
-807.3870247457596
 20
426.392715000152
 30
0.0
 11
-805.9807920560297
 21
429.8925189887436
 31
0.0
  0
LINE
  5
3E4
330
1D
100
AcDbEntity
  8
_0-1_1_5
  6
Continuous
 62
     7
100
AcDbLine
 10
-804.5745593663
 20
426.392715000152
 30
0.0
 11
-803.1683266765701
 21
429.8925189887436
 31
0.0
  0
LINE
  5
3E5
330
1D
100
AcDbEntity
  8
_0-1_1_5
  6
Continuous
 62
     7
100
AcDbLine
 10
-803.1683266765701
 20
426.392715000152
 30
0.0
 11
-801.7620939868407
 21
429.8925189887436
 31
0.0
  0
LINE
  5
3E6
330
1D
100
AcDbEntity
  8
_0-1_1_5
  6
Continuous
 62
     7
100
AcDbLine
 10
-805.9807920560297
 20
426.392715000152
 30
0.0
 11
-804.5745593663
 21
429.8925189887436
 31
0.0
  0
LINE
  5
3E7
330
1D
100
AcDbEntity
  8
_0-1_1_5
  6
Continuous
 62
     7
100
AcDbLine
 10
-820.0431189533274
 20
426.392715000152
 30
0.0
 11
-818.6368862635975
 21
429.8925189887436
 31
0.0
  0
LINE
  5
3E8
330
1D
100
AcDbEntity
  8
_0-1_1_5
  6
Continuous
 62
     7
100
AcDbLine
 10
-824.6140541136174
 20
429.7757087356998
 30
0.0
 11
-801.7626479154885
 21
429.7757087356998
 31
0.0
  0
LINE
  5
3E9
330
1D
100
AcDbEntity
  8
_0-1_1_5
  6
Continuous
 62
     7
100
AcDbLine
 10
-824.6140541136174
 20
426.275904747108
 30
0.0
 11
-801.7620939868407
 21
426.275904747108
 31
0.0
  0
LINE
  5
3EA
330
1D
100
AcDbEntity
  8
_0-1_1_5
  6
DASHED2
 62
     7
100
AcDbLine
 10
-823.6140541136174
 20
430.4033513899623
 30
0.0
 11
-823.6140541136174
 21
425.4033513899623
 31
0.0
  0
LINE
  5
3EB
330
1D
100
AcDbEntity
  8
_0-1_1_5
  6
DASHED2
 62
     7
100
AcDbLine
 10
-823.6140541136176
 20
437.9110920833965
 30
0.0
 11
-823.6140541136176
 21
433.9033513899624
 31
0.0
  0
LINE
  5
3EC
330
1D
100
AcDbEntity
  8
_0-1_1_5
  6
DASHED2
 62
     7
100
AcDbLine
 10
-823.6140541136176
 20
433.9033513899624
 30
0.0
 11
-828.3640541136172
 21
433.9033513899624
 31
0.0
  0
LINE
  5
3ED
330
1D
100
AcDbEntity
  8
_0-1_1_5
  6
DASHED2
 62
     7
100
AcDbLine
 10
-828.3640541136172
 20
433.9033513899624
 30
0.0
 11
-828.3640541136172
 21
432.9033513899623
 31
0.0
  0
LINE
  5
3EE
330
1D
100
AcDbEntity
  8
_0-1_1_5
  6
DASHED2
 62
     7
100
AcDbLine
 10
-828.3640541136172
 20
432.9033513899623
 30
0.0
 11
-832.8640541136174
 21
432.9033513899623
 31
0.0
  0
LINE
  5
3EF
330
1D
100
AcDbEntity
  8
_0-1_1_5
  6
DASHED2
 62
     7
100
AcDbLine
 10
-832.8640541136174
 20
432.9033513899623
 30
0.0
 11
-832.8640541136174
 21
433.9033513899624
 31
0.0
  0
LINE
  5
3F0
330
1D
100
AcDbEntity
  8
_0-1_1_5
  6
DASHED2
 62
     7
100
AcDbLine
 10
-832.8640541136174
 20
433.9033513899624
 30
0.0
 11
-838.6140541136176
 21
433.9033513899624
 31
0.0
  0
LINE
  5
3F1
330
1D
100
AcDbEntity
  8
_0-1_1_5
  6
DASHED2
 62
     7
100
AcDbLine
 10
-838.6140541136176
 20
433.9033513899624
 30
0.0
 11
-838.6140541136176
 21
432.9033513899623
 31
0.0
  0
LINE
  5
3F2
330
1D
100
AcDbEntity
  8
_0-1_1_5
  6
DASHED2
 62
     7
100
AcDbLine
 10
-838.6140541136176
 20
432.9033513899623
 30
0.0
 11
-836.1140541136176
 21
430.4033513899623
 31
0.0
  0
LINE
  5
3F3
330
1D
100
AcDbEntity
  8
_0-1_1_5
  6
DASHED2
 62
     7
100
AcDbLine
 10
-836.1140541136176
 20
430.4033513899623
 30
0.0
 11
-823.6140541136172
 21
430.4033513899623
 31
0.0
  0
TEXT
  5
3F4
330
1D
100
AcDbEntity
  8
_0-2_ADD_LINE
 62
     0
100
AcDbText
 10
-849.3493492733608
 20
311.825315837665
 30
0.0
 40
12.0
  1
3.5x40
  7
ＭＳ ゴシック
100
AcDbText
  0
LINE
  5
3F5
330
1D
100
AcDbEntity
  8
_0-1_1_5
  6
Continuous
 62
     7
100
AcDbLine
 10
-1625.568064504714
 20
162.9199941520376
 30
0.0
 11
-1065.568064504714
 21
162.9199941520376
 31
0.0
  0
LINE
  5
3F6
330
1D
100
AcDbEntity
  8
_0-1_1_5
  6
Continuous
 62
     7
100
AcDbLine
 10
-1625.568064504714
 20
152.9199941520376
 30
0.0
 11
-1065.568064504714
 21
152.9199941520376
 31
0.0
  0
LINE
  5
3F7
330
1D
100
AcDbEntity
  8
_0-1_1_5
  6
Continuous
 62
     7
100
AcDbLine
 10
-1626.90781046687
 20
432.9033513899622
 30
0.0
 11
-1064.228318542558
 21
432.9033513899622
 31
0.0
  0
LINE
  5
3F8
330
1D
100
AcDbEntity
  8
_0-1_1_5
  6
Continuous
 62
     7
100
AcDbLine
 10
-1626.90781046687
 20
422.9033513899622
 30
0.0
 11
-1064.228318542558
 21
422.9033513899622
 31
0.0
  0
TEXT
  5
3F9
330
1D
100
AcDbEntity
  8
_0-3_
 62
     7
100
AcDbText
 10
-958.0624758604621
 20
-104.5140979481603
 30
0.0
 40
12.0
  1
TFP40-A260-003
  7
ＭＳ ゴシック
100
AcDbText
  0
DIMENSION
  5
3FA
330
1D
100
AcDbEntity
  8
0
  6
ByBlock
100
AcDbDimension
  2
*D8
 10
-1041.568064504713
 20
516.1848627138588
 30
0.0
 11
-1345.568064504714
 21
527.1848627138588
 31
0.0
 70
    32
 71
     5
 42
608.0000000000009
 73
     0
 74
     0
 75
     0
  3
T-form線あり
100
AcDbAlignedDimension
 13
-1649.568064504714
 23
427.9033513899622
 33
0.0
 14
-1041.568064504713
 24
427.9033513899622
 34
0.0
100
AcDbRotatedDimension
1001
ACAD
1000
DSTYLE
1002
{
1070
    41
1040
4.0
1070
   147
1040
5.0
1070
   140
1040
12.0
1070
    42
1040
15.0
1070
   279
1070
     2
1002
}
  0
DIMENSION
  5
3FB
102
{ACAD_REACTORS
330
3FD
102
}
102
{ACAD_XDICTIONARY
360
3FC
102
}
330
1D
100
AcDbEntity
  8
0
  6
ByBlock
100
AcDbDimension
  2
*D9
 10
-1055.568064504713
 20
488.5483153269306
 30
0.0
 11
-1345.568064504714
 21
499.5483153269306
 31
0.0
 70
    32
 71
     5
 42
580.0000000000009
 73
     0
 74
     0
 75
     0
  3
T-form線あり
100
AcDbAlignedDimension
 13
-1635.568064504714
 23
437.9033513899622
 33
0.0
 14
-1055.568064504713
 24
437.9033513899622
 34
0.0
100
AcDbRotatedDimension
1001
ACAD
1000
DSTYLE
1002
{
1070
    41
1040
4.0
1070
   147
1040
5.0
1070
   140
1040
12.0
1070
    42
1040
10.0
1070
   279
1070
     2
1002
}
  0
DIMENSION
  5
3FE
330
1D
100
AcDbEntity
  8
0
  6
ByBlock
100
AcDbDimension
  2
*D10
 10
-819.6140541136178
 20
488.6219506320421
 30
0.0
 11
-846.6140541136175
 21
499.6219506320421
 31
0.0
 70
    32
 71
     5
 42
53.99999999999932
 73
     0
 74
     0
 75
     0
  3
T-form線あり
100
AcDbAlignedDimension
 13
-873.6140541136172
 23
437.9110920833965
 33
0.0
 14
-819.6140541136178
 24
441.9033513899625
 34
0.0
100
AcDbRotatedDimension
1001
ACAD
1000
DSTYLE
1002
{
1070
    41
1040
4.0
1070
   147
1040
5.0
1070
   140
1040
12.0
1070
    42
1040
10.0
1070
   279
1070
     2
1002
}
  0
DIMENSION
  5
3FF
102
{ACAD_REACTORS
330
401
102
}
102
{ACAD_XDICTIONARY
360
400
102
}
330
1D
100
AcDbEntity
  8
0
  6
ByBlock
100
AcDbDimension
  2
*D11
 10
-919.5042395596781
 20
417.9033513899624
 30
0.0
 11
-931.4762395596781
 21
427.9033513899624
 31
0.0
 70
    32
 71
     5
 42
20.0
 73
     0
 74
     1
 75
     1
  3
T-form線あり
100
AcDbAlignedDimension
 13
-883.6140541136172
 23
437.9033513899624
 33
0.0
 14
-883.6140541136172
 24
417.9033513899624
 34
0.0
 50
90.0
100
AcDbRotatedDimension
1001
ACAD
1000
DSTYLE
1002
{
1070
    41
1040
4.0
1070
     3
1000
φ<>
1070
   147
1040
5.0
1070
   140
1040
12.0
1070
    42
1040
10.0
1070
   279
1070
     2
1002
}
  0
DIMENSION
  5
402
102
{ACAD_REACTORS
330
404
102
}
102
{ACAD_XDICTIONARY
360
403
102
}
330
1D
100
AcDbEntity
  8
0
  6
ByBlock
100
AcDbDimension
  2
*D12
 10
-977.4542558483964
 20
147.9199941520376
 30
0.0
 11
-988.4542558483964
 21
179.9199941520375
 31
0.0
 70
    32
 71
     5
 42
63.99999999999977
 73
     0
 74
     0
 75
     0
  3
T-form線あり
100
AcDbAlignedDimension
 13
-1041.568064504714
 23
211.9199941520374
 33
0.0
 14
-1045.568064504714
 24
147.9199941520376
 34
0.0
 50
90.0
100
AcDbRotatedDimension
1001
ACAD
1000
DSTYLE
1002
{
1070
    41
1040
4.0
1070
   147
1040
5.0
1070
   140
1040
12.0
1070
    42
1040
10.0
1070
   279
1070
     2
1002
}
  0
DIMENSION
  5
405
102
{ACAD_XDICTIONARY
360
406
102
}
330
1D
100
AcDbEntity
  8
0
  6
ByBlock
100
AcDbDimension
  2
*D13
 10
-1410.568064504714
 20
152.9199941520376
 30
0.0
 11
-1421.568064504714
 21
188.6186411093556
 31
0.0
 70
   160
 71
     5
 42
10.0
 73
     0
 74
     0
 75
     0
  3
T-form線あり
100
AcDbAlignedDimension
 13
-1410.568064504714
 23
162.9199941520376
 33
0.0
 14
-1410.568064504714
 24
152.9199941520376
 34
0.0
 50
90.0
100
AcDbRotatedDimension
1001
ACAD
1000
DSTYLE
1002
{
1070
    41
1040
4.0
1070
     3
1000
φ<>
1070
   147
1040
5.0
1070
   140
1040
12.0
1070
    42
1040
15.0
1070
   279
1070
     2
1002
}
  0
TEXT
  5
408
330
1D
100
AcDbEntity
  8
_0-3_
 62
     7
100
AcDbText
 10
-851.7808539354053
 20
336.2430454209131
 30
0.0
 40
12.0
  1
タッピングビス
  7
ＭＳ ゴシック
100
AcDbText
  0
ARC
  5
453
330
1D
100
AcDbEntity
  8
0
  6
ByBlock
100
AcDbCircle
 10
-1055.568064504713
 20
427.9033513899622
 30
0.0
 40
14.0
100
AcDbArc
 50
200.9248324276383
 51
159.0751675723617
  0
ARC
  5
454
330
1D
100
AcDbEntity
  8
0
  6
ByBlock
100
AcDbCircle
 10
-1635.568064504714
 20
427.9033513899622
 30
0.0
 40
14.0
100
AcDbArc
 50
20.92483242763829
 51
339.0751675723617
  0
LWPOLYLINE
  5
455
330
1D
100
AcDbEntity
  8
0
  6
ByBlock
100
AcDbPolyline
 90
        4
 70
     1
 43
0.0
 10
-1069.568064504714
 20
207.9199941520374
 10
-1069.568064504714
 20
211.9199941520374
 10
-1041.568064504714
 20
211.9199941520374
 10
-1041.568064504714
 20
207.9199941520374
  0
LWPOLYLINE
  5
456
330
1D
100
AcDbEntity
  8
0
  6
ByBlock
100
AcDbPolyline
 90
        4
 70
     1
 43
0.0
 10
-1621.568064504714
 20
207.9199941520374
 10
-1621.568064504714
 20
211.9199941520374
 10
-1649.568064504714
 20
211.9199941520374
 10
-1649.568064504714
 20
207.9199941520374
  0
LWPOLYLINE
  5
457
330
1D
100
AcDbEntity
  8
0
  6
ByBlock
100
AcDbPolyline
 90
        4
 70
     1
 43
0.0
 10
-819.6140541136172
 20
413.9033513899625
 10
-823.6140541136172
 20
413.9033513899624
 10
-823.6140541136178
 20
441.9033513899624
 10
-819.6140541136178
 20
441.9033513899625
  0
DIMENSION
  5
493
330
1D
100
AcDbEntity
  8
0
  6
ByBlock
100
AcDbDimension
  2
*D16
 10
-819.6140541136172
 20
390.8571159907784
 30
0.0
 11
-829.3466514269815
 21
400.7385500778636
 31
0.0
 70
   160
 71
     5
 42
4.0
 73
     0
 74
     0
 75
     0
  3
T-form線あり
100
AcDbAlignedDimension
 13
-823.6140541136172
 23
413.9033513899623
 33
0.0
 14
-819.6140541136172
 24
413.9033513899625
 34
0.0
100
AcDbRotatedDimension
1001
ACAD
1000
DSTYLE
1002
{
1070
    41
1040
4.0
1070
   147
1040
5.0
1070
   140
1040
12.0
1070
    42
1040
10.0
1070
   279
1070
     2
1002
}
  0
DIMENSION
  5
4DF
102
{ACAD_XDICTIONARY
360
4E0
102
}
330
1D
100
AcDbEntity
  8
0
  6
ByBlock
100
AcDbDimension
  2
*D19
 10
-1069.568064504714
 20
247.8101795980984
 30
0.0
 11
-1055.568064504714
 21
259.7821795980984
 31
0.0
 70
    32
 71
     5
 42
28.0
 73
     0
 74
     1
 75
     1
  3
T-form線あり
100
AcDbAlignedDimension
 13
-1041.568064504714
 23
211.9199941520374
 33
0.0
 14
-1069.568064504714
 24
211.9199941520374
 34
0.0
 50
-0.000000000000014
100
AcDbRotatedDimension
1001
ACAD
1000
DSTYLE
1002
{
1070
    41
1040
4.0
1070
     3
1000
φ<>
1070
   147
1040
5.0
1070
   140
1040
12.0
1070
    42
1040
10.0
1070
   279
1070
     2
1002
}
  0
ENDSEC
  0
SECTION
  2
OBJECTS
  0
DICTIONARY
  5
C
330
0
100
AcDbDictionary
281
     1
  3
ACAD_DETAILVIEWSTYLE
350
4F6
  3
ACAD_GROUP
350
D
  3
ACAD_IMAGE_VARS
350
1BE
  3
ACAD_LAYOUT
350
1A
  3
ACAD_MATERIAL
350
1B6
  3
ACAD_MLEADERSTYLE
350
1DA
  3
ACAD_MLINESTYLE
350
17
  3
ACAD_PLOTSETTINGS
350
19
  3
ACAD_PLOTSTYLENAME
350
E
  3
ACAD_SCALELIST
350
177
  3
ACAD_SECTIONVIEWSTYLE
350
4F7
  3
ACAD_TABLESTYLE
350
1BA
  3
ACAD_VISUALSTYLE
350
19D
  3
ACDB_RECOMPOSE_DATA
350
4FD
  3
AcDbVariableDictionary
350
4EE
  3
APPDATA
350
1BC
  0
SUN
  5
1BD
330
176
100
AcDbSun
 90
        1
290
     0
 63
     7
421
 16777215
 40
1.0
291
     1
 91
  2455826
 92
 54000000
292
     0
 70
     2
 71
   256
280
     1
  0
DICTIONARY
  5
3FC
330
3FB
100
AcDbDictionary
280
     1
281
     1
  3
ACAD_DIMASSOC
360
3FD
  0
DICTIONARY
  5
400
330
3FF
100
AcDbDictionary
280
     1
281
     1
  3
ACAD_DIMASSOC
360
401
  0
DICTIONARY
  5
403
330
402
100
AcDbDictionary
280
     1
281
     1
  3
ACAD_DIMASSOC
360
404
  0
DICTIONARY
  5
406
330
405
100
AcDbDictionary
280
     1
281
     1
  0
DICTIONARY
  5
4E0
330
4DF
100
AcDbDictionary
280
     1
281
     1
  0
DICTIONARY
  5
4F6
102
{ACAD_REACTORS
330
C
102
}
330
C
100
AcDbDictionary
281
     1
  0
DICTIONARY
  5
D
102
{ACAD_REACTORS
330
C
102
}
330
C
100
AcDbDictionary
281
     1
  0
RASTERVARIABLES
  5
1BE
102
{ACAD_REACTORS
330
C
102
}
330
C
100
AcDbRasterVariables
 90
        0
 70
     1
 71
     1
 72
     0
  0
DICTIONARY
  5
1A
102
{ACAD_REACTORS
330
C
102
}
330
C
100
AcDbDictionary
281
     1
  3
Model
350
1E
  3
シート 1
350
1C
  0
DICTIONARY
  5
1B6
102
{ACAD_REACTORS
330
C
102
}
330
C
100
AcDbDictionary
281
     1
  3
ByBlock
350
1B8
  3
ByLayer
350
1B7
  3
Global
350
1B9
  0
DICTIONARY
  5
1DA
102
{ACAD_REACTORS
330
C
102
}
330
C
100
AcDbDictionary
281
     1
  0
DICTIONARY
  5
17
102
{ACAD_REACTORS
330
C
102
}
330
C
100
AcDbDictionary
281
     1
  3
Standard
350
18
  0
DICTIONARY
  5
19
102
{ACAD_REACTORS
330
C
102
}
330
C
100
AcDbDictionary
281
     1
  0
ACDBDICTIONARYWDFLT
  5
E
102
{ACAD_REACTORS
330
C
102
}
330
C
100
AcDbDictionary
281
     1
  3
Normal
350
F
100
AcDbDictionaryWithDefault
340
F
  0
DICTIONARY
  5
177
102
{ACAD_REACTORS
330
C
102
}
330
C
100
AcDbDictionary
281
     1
  3
A0
350
178
  3
A1
350
179
  3
A2
350
17A
  3
A3
350
17B
  3
A4
350
17C
  3
A5
350
17D
  3
A6
350
17E
  3
A7
350
17F
  3
A8
350
180
  3
A9
350
181
  3
B0
350
182
  3
B1
350
183
  3
B2
350
184
  3
B3
350
185
  3
B4
350
186
  3
B5
350
187
  3
B6
350
188
  3
B7
350
189
  3
B8
350
18A
  3
B9
350
18B
  3
C0
350
18C
  3
C1
350
18D
  3
C2
350
18E
  3
C3
350
18F
  3
C4
350
190
  3
C5
350
191
  3
C6
350
192
  3
C7
350
193
  3
C8
350
194
  3
C9
350
195
  3
D0
350
196
  3
D1
350
197
  3
D2
350
198
  0
DICTIONARY
  5
4F7
102
{ACAD_REACTORS
330
C
102
}
330
C
100
AcDbDictionary
281
     1
  0
DICTIONARY
  5
1BA
102
{ACAD_REACTORS
330
C
102
}
330
C
100
AcDbDictionary
281
     1
  3
Standard
350
1BB
  0
DICTIONARY
  5
19D
102
{ACAD_REACTORS
330
C
102
}
330
C
100
AcDbDictionary
281
     1
  3
2dWireframe
350
1A2
  3
Basic
350
1A5
  3
Brighten
350
1A9
  3
ColorChange
350
1AD
  3
Conceptual
350
1A7
  3
Dim
350
1A8
  3
EdgeColorOff
350
1B0
  3
Facepattern
350
1AC
  3
Flat
350
19E
  3
FlatWithEdges
350
19F
  3
Gouraud
350
1A0
  3
GouraudWithEdges
350
1A1
  3
Hidden
350
1A4
  3
JitterOff
350
1AE
  3
Linepattern
350
1AB
  3
OverhangOff
350
1AF
  3
Realistic
350
1A6
  3
Shaded
350
1B5
  3
Shaded with edges
350
1B4
  3
Shades of Gray
350
1B1
  3
Sketchy
350
1B2
  3
Thicken
350
1AA
  3
Wireframe
350
1A3
  3
X-Ray
350
1B3
  0
XRECORD
  5
4FD
102
{ACAD_REACTORS
330
C
102
}
330
C
100
AcDbXrecord
280
     1
 90
        1
330
1BB
  0
DICTIONARY
  5
4EE
102
{ACAD_REACTORS
330
C
102
}
330
C
100
AcDbDictionary
281
     1
  3
CANNOSCALE
350
4EF
  3
CTABLESTYLE
350
4F4
  3
LIGHTINGUNITS
350
4F0
  3
MSLTSCALE
350
4F5
  0
DICTIONARY
  5
1BC
102
{ACAD_REACTORS
330
C
102
}
330
C
100
AcDbDictionary
281
     1
  0
DIMASSOC
  5
3FD
102
{ACAD_REACTORS
330
3FC
102
}
330
3FC
100
AcDbDimAssoc
330
3FB
 90
        3
 70
     0
 71
     1
  1
AcDbOsnapPointRef
 72
     5
331
37C
 73
     0
 91
        0
 40
1.570796326794897
 10
0.0
 20
0.0
 30
0.0
 75
     0
  1
AcDbOsnapPointRef
 72
     5
331
33D
 73
     0
 91
        0
 40
1.570796326794897
 10
0.0
 20
0.0
 30
0.0
 75
     0
  0
DIMASSOC
  5
401
102
{ACAD_REACTORS
330
400
102
}
330
400
100
AcDbDimAssoc
330
3FF
 90
        3
 70
     0
 71
     1
  1
AcDbOsnapPointRef
 72
     1
331
3BD
 73
     0
 91
        0
 40
0.0
 10
0.0
 20
0.0
 30
0.0
 75
     0
  1
AcDbOsnapPointRef
 72
     1
331
3BC
 73
     0
 91
        0
 40
0.0
 10
0.0
 20
0.0
 30
0.0
 75
     0
  0
DIMASSOC
  5
404
102
{ACAD_REACTORS
330
403
102
}
330
403
100
AcDbDimAssoc
330
402
 90
        2
 70
     0
 71
     1
  1
AcDbOsnapPointRef
 72
     1
331
340
 73
     0
 91
        0
 40
0.0
 10
0.0
 20
0.0
 30
0.0
 75
     0
  0
LAYOUT
  5
1E
102
{ACAD_REACTORS
330
1A
102
}
330
1A
100
AcDbPlotSettings
  1

  2
none_device
  4
Letter_(8.50_x_11.00_Inches)
  6

 40
6.35
 41
6.35
 42
6.35
 43
6.35
 44
215.9
 45
279.4
 46
0.0
 47
0.0
 48
0.0
 49
0.0
140
0.0
141
0.0
142
1.0
143
1.0
 70
  1712
 72
     0
 73
     0
 74
     0
  7

 75
     0
 76
     0
 77
     2
 78
   300
147
1.0
148
0.0
149
0.0
100
AcDbLayout
  1
Model
 70
     1
 71
     0
 10
-1980.44266008778
 20
-210.6015747910527
 11
-495.4426600877803
 21
839.3984252089471
 12
0.0
 22
0.0
 32
0.0
 14
0.0
 24
0.0
 34
0.0
 15
1485.0
 25
1050.0
 35
0.0
146
0.0
 13
0.0
 23
0.0
 33
0.0
 16
1.0
 26
0.0
 36
0.0
 17
0.0
 27
1.0
 37
0.0
 76
     0
330
1D
331
176
  0
LAYOUT
  5
1C
102
{ACAD_REACTORS
330
1A
102
}
330
1A
100
AcDbPlotSettings
  1

  2
none_device
  4

  6

 40
0.0
 41
0.0
 42
0.0
 43
0.0
 44
0.0
 45
0.0
 46
0.0
 47
0.0
 48
0.0
 49
0.0
140
0.0
141
0.0
142
1.0
143
1.0
 70
   688
 72
     0
 73
     0
 74
     5
  7

 75
    16
 76
     0
 77
     2
 78
   300
147
1.0
148
0.0
149
0.0
100
AcDbLayout
  1
シート 1
 70
     1
 71
     1
 10
0.0
 20
0.0
 11
0.0
 21
0.0
 12
0.0
 22
0.0
 32
0.0
 14
1.000000000000000E+20
 24
1.000000000000000E+20
 34
1.000000000000000E+20
 15
-1.000000000000000E+20
 25
-1.000000000000000E+20
 35
-1.000000000000000E+20
146
0.0
 13
0.0
 23
0.0
 33
0.0
 16
1.0
 26
0.0
 36
0.0
 17
0.0
 27
1.0
 37
0.0
 76
     0
330
1B
  0
MATERIAL
  5
1B8
102
{ACAD_REACTORS
330
1B6
102
}
330
1B6
100
AcDbMaterial
  1
ByBlock
 72
     1
 94
      127
  0
MATERIAL
  5
1B7
102
{ACAD_REACTORS
330
1B6
102
}
330
1B6
100
AcDbMaterial
  1
ByLayer
 72
     1
 94
      127
  0
MATERIAL
  5
1B9
102
{ACAD_REACTORS
330
1B6
102
}
330
1B6
100
AcDbMaterial
  1
Global
 72
     1
 94
      127
  0
MLINESTYLE
  5
18
102
{ACAD_REACTORS
330
17
102
}
330
17
100
AcDbMlineStyle
  2
Standard
 70
     0
  3

 62
   256
 51
90.0
 52
90.0
 71
     2
 49
0.5
 62
   256
  6
BYLAYER
 49
-0.5
 62
   256
  6
BYLAYER
  0
ACDBPLACEHOLDER
  5
F
102
{ACAD_REACTORS
330
E
102
}
330
E
  0
SCALE
  5
178
102
{ACAD_REACTORS
330
177
102
}
330
177
100
AcDbScale
 70
     0
300
1:1
140
1.0
141
1.0
290
     1
  0
SCALE
  5
179
102
{ACAD_REACTORS
330
177
102
}
330
177
100
AcDbScale
 70
     0
300
1:2
140
1.0
141
2.0
290
     0
  0
SCALE
  5
17A
102
{ACAD_REACTORS
330
177
102
}
330
177
100
AcDbScale
 70
     0
300
1:4
140
1.0
141
4.0
290
     0
  0
SCALE
  5
17B
102
{ACAD_REACTORS
330
177
102
}
330
177
100
AcDbScale
 70
     0
300
1:5
140
1.0
141
5.0
290
     0
  0
SCALE
  5
17C
102
{ACAD_REACTORS
330
177
102
}
330
177
100
AcDbScale
 70
     0
300
1:8
140
1.0
141
8.0
290
     0
  0
SCALE
  5
17D
102
{ACAD_REACTORS
330
177
102
}
330
177
100
AcDbScale
 70
     0
300
1:10
140
1.0
141
10.0
290
     0
  0
SCALE
  5
17E
102
{ACAD_REACTORS
330
177
102
}
330
177
100
AcDbScale
 70
     0
300
1:16
140
1.0
141
16.0
290
     0
  0
SCALE
  5
17F
102
{ACAD_REACTORS
330
177
102
}
330
177
100
AcDbScale
 70
     0
300
1:20
140
1.0
141
20.0
290
     0
  0
SCALE
  5
180
102
{ACAD_REACTORS
330
177
102
}
330
177
100
AcDbScale
 70
     0
300
1:30
140
1.0
141
30.0
290
     0
  0
SCALE
  5
181
102
{ACAD_REACTORS
330
177
102
}
330
177
100
AcDbScale
 70
     0
300
1:40
140
1.0
141
40.0
290
     0
  0
SCALE
  5
182
102
{ACAD_REACTORS
330
177
102
}
330
177
100
AcDbScale
 70
     0
300
1:50
140
1.0
141
50.0
290
     0
  0
SCALE
  5
183
102
{ACAD_REACTORS
330
177
102
}
330
177
100
AcDbScale
 70
     0
300
1:100
140
1.0
141
100.0
290
     0
  0
SCALE
  5
184
102
{ACAD_REACTORS
330
177
102
}
330
177
100
AcDbScale
 70
     0
300
2:1
140
2.0
141
1.0
290
     0
  0
SCALE
  5
185
102
{ACAD_REACTORS
330
177
102
}
330
177
100
AcDbScale
 70
     0
300
4:1
140
4.0
141
1.0
290
     0
  0
SCALE
  5
186
102
{ACAD_REACTORS
330
177
102
}
330
177
100
AcDbScale
 70
     0
300
8:1
140
8.0
141
1.0
290
     0
  0
SCALE
  5
187
102
{ACAD_REACTORS
330
177
102
}
330
177
100
AcDbScale
 70
     0
300
10:1
140
10.0
141
1.0
290
     0
  0
SCALE
  5
188
102
{ACAD_REACTORS
330
177
102
}
330
177
100
AcDbScale
 70
     0
300
100:1
140
100.0
141
1.0
290
     0
  0
SCALE
  5
189
102
{ACAD_REACTORS
330
177
102
}
330
177
100
AcDbScale
 70
     0
300
1/128" = 1'-0"
140
0.0078125
141
12.0
290
     0
  0
SCALE
  5
18A
102
{ACAD_REACTORS
330
177
102
}
330
177
100
AcDbScale
 70
     0
300
1/64" = 1'-0"
140
0.015625
141
12.0
290
     0
  0
SCALE
  5
18B
102
{ACAD_REACTORS
330
177
102
}
330
177
100
AcDbScale
 70
     0
300
1/32" = 1'-0"
140
0.03125
141
12.0
290
     0
  0
SCALE
  5
18C
102
{ACAD_REACTORS
330
177
102
}
330
177
100
AcDbScale
 70
     0
300
1/16" = 1'-0"
140
0.0625
141
12.0
290
     0
  0
SCALE
  5
18D
102
{ACAD_REACTORS
330
177
102
}
330
177
100
AcDbScale
 70
     0
300
3/32" = 1'-0"
140
0.09375
141
12.0
290
     0
  0
SCALE
  5
18E
102
{ACAD_REACTORS
330
177
102
}
330
177
100
AcDbScale
 70
     0
300
1/8" = 1'-0"
140
0.125
141
12.0
290
     0
  0
SCALE
  5
18F
102
{ACAD_REACTORS
330
177
102
}
330
177
100
AcDbScale
 70
     0
300
3/16" = 1'-0"
140
0.1875
141
12.0
290
     0
  0
SCALE
  5
190
102
{ACAD_REACTORS
330
177
102
}
330
177
100
AcDbScale
 70
     0
300
1/4" = 1'-0"
140
0.25
141
12.0
290
     0
  0
SCALE
  5
191
102
{ACAD_REACTORS
330
177
102
}
330
177
100
AcDbScale
 70
     0
300
3/8" = 1'-0"
140
0.375
141
12.0
290
     0
  0
SCALE
  5
192
102
{ACAD_REACTORS
330
177
102
}
330
177
100
AcDbScale
 70
     0
300
1/2" = 1'-0"
140
0.5
141
12.0
290
     0
  0
SCALE
  5
193
102
{ACAD_REACTORS
330
177
102
}
330
177
100
AcDbScale
 70
     0
300
3/4" = 1'-0"
140
0.75
141
12.0
290
     0
  0
SCALE
  5
194
102
{ACAD_REACTORS
330
177
102
}
330
177
100
AcDbScale
 70
     0
300
1" = 1'-0"
140
1.0
141
12.0
290
     0
  0
SCALE
  5
195
102
{ACAD_REACTORS
330
177
102
}
330
177
100
AcDbScale
 70
     0
300
1-1/2" = 1'-0"
140
1.5
141
12.0
290
     0
  0
SCALE
  5
196
102
{ACAD_REACTORS
330
177
102
}
330
177
100
AcDbScale
 70
     0
300
3" = 1'-0"
140
3.0
141
12.0
290
     0
  0
SCALE
  5
197
102
{ACAD_REACTORS
330
177
102
}
330
177
100
AcDbScale
 70
     0
300
6" = 1'-0"
140
6.0
141
12.0
290
     0
  0
SCALE
  5
198
102
{ACAD_REACTORS
330
177
102
}
330
177
100
AcDbScale
 70
     0
300
1'-0" = 1'-0"
140
12.0
141
12.0
290
     0
  0
TABLESTYLE
  5
1BB
102
{ACAD_REACTORS
330
1BA
102
}
102
{ACAD_XDICTIONARY
360
4FB
102
}
330
1BA
100
AcDbTableStyle
  3
Standard
 70
     0
 71
     0
 40
0.06
 41
0.06
280
     0
281
     0
  7
STANDARD
140
0.18
170
     2
 62
     0
 63
   257
283
     0
 90
        4
 91
        0
  1

274
    -2
284
     1
 64
     0
275
    -2
285
     1
 65
     0
276
    -2
286
     1
 66
     0
277
    -2
287
     1
 67
     0
278
    -2
288
     1
 68
     0
279
    -2
289
     1
 69
     0
  7
STANDARD
140
0.25
170
     5
 62
     0
 63
   257
283
     0
 90
        4
 91
        0
  1

274
    -2
284
     1
 64
     0
275
    -2
285
     1
 65
     0
276
    -2
286
     1
 66
     0
277
    -2
287
     1
 67
     0
278
    -2
288
     1
 68
     0
279
    -2
289
     1
 69
     0
  7
STANDARD
140
0.18
170
     5
 62
     0
 63
   257
283
     0
 90
        4
 91
        0
  1

274
    -2
284
     1
 64
     0
275
    -2
285
     1
 65
     0
276
    -2
286
     1
 66
     0
277
    -2
287
     1
 67
     0
278
    -2
288
     1
 68
     0
279
    -2
289
     1
 69
     0
  0
VISUALSTYLE
  5
1A2
102
{ACAD_REACTORS
330
19D
102
}
330
19D
100
AcDbVisualStyle
  2
2dWireframe
 70
     4
 71
     0
 72
     2
 73
     0
 90
        0
 40
0.6
 41
30.0
 62
     5
 63
     7
421
 16777215
 74
     1
 91
        4
 64
     7
 65
   257
 75
     1
175
     1
 42
1.0
 92
        0
 66
   257
 43
1.0
 76
     1
 77
     6
 78
     2
 67
     7
 79
     5
170
     0
171
     0
290
     0
174
     0
 93
        1
 44
0.0
173
     0
291
     0
 45
0.0
  0
VISUALSTYLE
  5
1A5
102
{ACAD_REACTORS
330
19D
102
}
330
19D
100
AcDbVisualStyle
  2
Basic
 70
     7
 71
     1
 72
     0
 73
     1
 90
        0
 40
0.6
 41
30.0
 62
     5
 63
     7
421
 16777215
 74
     0
 91
        4
 64
     7
 65
   257
 75
     1
175
     1
 42
1.0
 92
        8
 66
     7
 43
1.0
 76
     1
 77
     6
 78
     2
 67
     7
 79
     5
170
     0
171
     0
290
     0
174
     0
 93
        1
 44
0.0
173
     0
291
     1
 45
0.0
  0
VISUALSTYLE
  5
1A9
102
{ACAD_REACTORS
330
19D
102
}
330
19D
100
AcDbVisualStyle
  2
Brighten
 70
    12
 71
     2
 72
     2
 73
     0
 90
        0
 40
0.6
 41
30.0
 62
     5
 63
     7
421
 16777215
 74
     1
 91
        4
 64
     7
 65
   257
 75
     1
175
     1
 42
1.0
 92
        8
 66
     7
 43
1.0
 76
     1
 77
     6
 78
     2
 67
     7
 79
     5
170
     0
171
     0
290
     0
174
     0
 93
        1
 44
50.0
173
     0
291
     1
 45
0.0
  0
VISUALSTYLE
  5
1AD
102
{ACAD_REACTORS
330
19D
102
}
330
19D
100
AcDbVisualStyle
  2
ColorChange
 70
    16
 71
     2
 72
     2
 73
     3
 90
        0
 40
0.6
 41
30.0
 62
     5
 63
     8
421
  8421504
 74
     1
 91
        4
 64
     7
 65
   257
 75
     1
175
     1
 42
1.0
 92
        8
 66
     8
424
  8421504
 43
1.0
 76
     1
 77
     6
 78
     2
 67
     7
 79
     5
170
     0
171
     0
290
     0
174
     0
 93
        1
 44
0.0
173
     0
291
     1
 45
0.0
  0
VISUALSTYLE
  5
1A7
102
{ACAD_REACTORS
330
19D
102
}
330
19D
100
AcDbVisualStyle
  2
Conceptual
 70
     9
 71
     3
 72
     2
 73
     0
 90
        0
 40
0.6
 41
30.0
 62
     5
 63
     7
421
 16777215
 74
     2
 91
        2
 64
     7
 65
   257
 75
     1
175
     1
 42
179.0
 92
        8
 66
     7
 43
1.0
 76
     1
 77
     6
 78
     2
 67
     7
 79
     3
170
     0
171
     0
290
     0
174
     0
 93
        1
 44
0.0
173
     0
291
     0
 45
0.0
  0
VISUALSTYLE
  5
1A8
102
{ACAD_REACTORS
330
19D
102
}
330
19D
100
AcDbVisualStyle
  2
Dim
 70
    11
 71
     2
 72
     2
 73
     0
 90
        0
 40
0.6
 41
30.0
 62
     5
 63
     7
421
 16777215
 74
     1
 91
        4
 64
     7
 65
   257
 75
     1
175
     1
 42
1.0
 92
        8
 66
     7
 43
1.0
 76
     1
 77
     6
 78
     2
 67
     7
 79
     5
170
     0
171
     0
290
     0
174
     0
 93
        1
 44
-50.0
173
     0
291
     1
 45
0.0
  0
VISUALSTYLE
  5
1B0
102
{ACAD_REACTORS
330
19D
102
}
330
19D
100
AcDbVisualStyle
  2
EdgeColorOff
 70
    22
 71
     2
 72
     2
 73
     0
 90
        0
 40
0.6
 41
30.0
 62
     5
 63
     7
421
 16777215
 74
     1
 91
        4
 64
     7
 65
   257
 75
     1
175
     1
 42
1.0
 92
        8
 66
     7
 43
1.0
 76
     1
 77
     6
 78
     2
 67
     7
 79
     5
170
     0
171
     0
290
     0
174
     0
 93
        1
 44
0.0
173
     0
291
     1
 45
0.0
  0
VISUALSTYLE
  5
1AC
102
{ACAD_REACTORS
330
19D
102
}
330
19D
100
AcDbVisualStyle
  2
Facepattern
 70
    15
 71
     2
 72
     2
 73
     0
 90
        0
 40
0.6
 41
30.0
 62
     5
 63
     7
421
 16777215
 74
     1
 91
        4
 64
     7
 65
   257
 75
     1
175
     1
 42
1.0
 92
        8
 66
     7
 43
1.0
 76
     1
 77
     6
 78
     2
 67
     7
 79
     5
170
     0
171
     0
290
     0
174
     0
 93
        1
 44
0.0
173
     0
291
     1
 45
0.0
  0
VISUALSTYLE
  5
19E
102
{ACAD_REACTORS
330
19D
102
}
330
19D
100
AcDbVisualStyle
  2
Flat
 70
     0
 71
     2
 72
     1
 73
     1
 90
        2
 40
0.6
 41
30.0
 62
     5
 63
     7
421
 16777215
 74
     0
 91
        0
 64
     7
 65
   257
 75
     1
175
     1
 42
1.0
 92
        8
 66
     7
 43
1.0
 76
     1
 77
     6
 78
     2
 67
     7
 79
     5
170
     0
171
     0
290
     0
174
     0
 93
       13
 44
0.0
173
     0
291
     1
 45
0.0
  0
VISUALSTYLE
  5
19F
102
{ACAD_REACTORS
330
19D
102
}
330
19D
100
AcDbVisualStyle
  2
FlatWithEdges
 70
     1
 71
     2
 72
     1
 73
     1
 90
        2
 40
0.6
 41
30.0
 62
     5
 63
     7
421
 16777215
 74
     1
 91
        0
 64
     7
 65
   257
 75
     1
175
     1
 42
1.0
 92
        0
 66
   257
 43
1.0
 76
     1
 77
     6
 78
     2
 67
     7
 79
     5
170
     0
171
     0
290
     0
174
     0
 93
       13
 44
0.0
173
     0
291
     1
 45
0.0
  0
VISUALSTYLE
  5
1A0
102
{ACAD_REACTORS
330
19D
102
}
330
19D
100
AcDbVisualStyle
  2
Gouraud
 70
     2
 71
     2
 72
     2
 73
     1
 90
        2
 40
0.6
 41
30.0
 62
     5
 63
     7
421
 16777215
 74
     0
 91
        0
 64
     7
 65
   257
 75
     1
175
     1
 42
1.0
 92
        0
 66
     7
 43
1.0
 76
     1
 77
     6
 78
     2
 67
     7
 79
     5
170
     0
171
     0
290
     0
174
     0
 93
       13
 44
0.0
173
     0
291
     1
 45
0.0
  0
VISUALSTYLE
  5
1A1
102
{ACAD_REACTORS
330
19D
102
}
330
19D
100
AcDbVisualStyle
  2
GouraudWithEdges
 70
     3
 71
     2
 72
     2
 73
     1
 90
        2
 40
0.6
 41
30.0
 62
     5
 63
     7
421
 16777215
 74
     1
 91
        0
 64
     7
 65
   257
 75
     1
175
     1
 42
1.0
 92
        0
 66
   257
 43
1.0
 76
     1
 77
     6
 78
     2
 67
     7
 79
     5
170
     0
171
     0
290
     0
174
     0
 93
       13
 44
0.0
173
     0
291
     1
 45
0.0
  0
VISUALSTYLE
  5
1A4
102
{ACAD_REACTORS
330
19D
102
}
330
19D
100
AcDbVisualStyle
  2
Hidden
 70
     6
 71
     1
 72
     2
 73
     2
 90
        0
 40
0.6
 41
30.0
 62
     5
 63
     7
421
 16777215
 74
     2
 91
        2
 64
     7
 65
   257
 75
     2
175
     1
 42
40.0
 92
        0
 66
   257
 43
1.0
 76
     1
 77
     6
 78
     2
 67
     7
 79
     3
170
     0
171
     0
290
     0
174
     0
 93
        1
 44
0.0
173
     0
291
     0
 45
0.0
  0
VISUALSTYLE
  5
1AE
102
{ACAD_REACTORS
330
19D
102
}
330
19D
100
AcDbVisualStyle
  2
JitterOff
 70
    20
 71
     2
 72
     2
 73
     0
 90
        0
 40
0.6
 41
30.0
 62
     5
 63
     7
421
 16777215
 74
     1
 91
        4
 64
     7
 65
   257
 75
     1
175
     1
 42
1.0
 92
       10
 66
     7
 43
1.0
 76
     1
 77
     6
 78
     2
 67
     7
 79
     5
170
     0
171
     0
290
     0
174
     0
 93
        1
 44
0.0
173
     0
291
     1
 45
0.0
  0
VISUALSTYLE
  5
1AB
102
{ACAD_REACTORS
330
19D
102
}
330
19D
100
AcDbVisualStyle
  2
Linepattern
 70
    14
 71
     2
 72
     2
 73
     0
 90
        0
 40
0.6
 41
30.0
 62
     5
 63
     7
421
 16777215
 74
     1
 91
        4
 64
     7
 65
   257
 75
     7
175
     7
 42
1.0
 92
        8
 66
     7
 43
1.0
 76
     1
 77
     6
 78
     2
 67
     7
 79
     5
170
     0
171
     0
290
     0
174
     0
 93
        1
 44
0.0
173
     0
291
     1
 45
0.0
  0
VISUALSTYLE
  5
1AF
102
{ACAD_REACTORS
330
19D
102
}
330
19D
100
AcDbVisualStyle
  2
OverhangOff
 70
    21
 71
     2
 72
     2
 73
     0
 90
        0
 40
0.6
 41
30.0
 62
     5
 63
     7
421
 16777215
 74
     1
 91
        4
 64
     7
 65
   257
 75
     1
175
     1
 42
1.0
 92
        9
 66
     7
 43
1.0
 76
     1
 77
     6
 78
     2
 67
     7
 79
     5
170
     0
171
     0
290
     0
174
     0
 93
        1
 44
0.0
173
     0
291
     1
 45
0.0
  0
VISUALSTYLE
  5
1A6
102
{ACAD_REACTORS
330
19D
102
}
330
19D
100
AcDbVisualStyle
  2
Realistic
 70
     8
 71
     2
 72
     3
 73
     0
 90
        2
 40
0.6
 41
30.0
 62
     5
 63
     7
421
 16777215
 74
     0
 91
        0
 64
     7
 65
   257
 75
     1
175
     1
 42
1.0
 92
        8
 66
   257
 43
1.0
 76
     1
 77
     6
 78
     2
 67
     7
 79
     3
170
     0
171
     0
290
     0
174
     0
 93
       13
 44
0.0
173
     0
291
     0
 45
0.0
  0
VISUALSTYLE
  5
1B5
102
{ACAD_REACTORS
330
19D
102
}
330
19D
100
AcDbVisualStyle
  2
Shaded
 70
    27
 71
     2
 72
     2
 73
     1
 90
        2
 40
0.6
 41
30.0
 62
     5
 63
     7
421
 16777215
 74
     0
 91
        4
 64
     7
 65
   257
 75
     1
175
     1
 42
1.0
 92
        8
 66
   257
 43
1.0
 76
     1
 77
     6
 78
     2
 67
     8
425
  7895160
 79
     3
170
     0
171
     0
290
     0
174
     0
 93
        5
 44
0.0
173
     0
291
     0
 45
0.0
  0
VISUALSTYLE
  5
1B4
102
{ACAD_REACTORS
330
19D
102
}
330
19D
100
AcDbVisualStyle
  2
Shaded with edges
 70
    26
 71
     2
 72
     2
 73
     1
 90
        2
 40
0.6
 41
30.0
 62
     5
 63
     7
421
 16777215
 74
     1
 91
       10
 64
     7
 65
   257
 75
     2
175
     1
 42
1.0
 92
        8
 66
   257
 43
1.0
 76
     1
 77
     6
 78
     2
 67
     7
 79
     3
170
     0
171
     0
290
     0
174
     0
 93
        5
 44
0.0
173
     0
291
     0
 45
0.0
  0
VISUALSTYLE
  5
1B1
102
{ACAD_REACTORS
330
19D
102
}
330
19D
100
AcDbVisualStyle
  2
Shades of Gray
 70
    23
 71
     2
 72
     2
 73
     3
 90
        0
 40
0.6
 41
30.0
 62
     5
 63
     7
421
 16777215
 74
     2
 91
        2
 64
     7
 65
     7
 75
     1
175
     1
 42
40.0
 92
        8
 66
     7
 43
1.0
 76
     1
 77
     6
 78
     2
 67
     7
 79
     3
170
     0
171
     0
290
     0
174
     0
 93
        1
 44
0.0
173
     0
291
     0
 45
0.0
  0
VISUALSTYLE
  5
1B2
102
{ACAD_REACTORS
330
19D
102
}
330
19D
100
AcDbVisualStyle
  2
Sketchy
 70
    24
 71
     1
 72
     2
 73
     2
 90
        0
 40
0.6
 41
30.0
 62
     5
 63
     7
421
 16777215
 74
     2
 91
        2
 64
     7
 65
     7
 75
     1
175
     1
 42
40.0
 92
       11
 66
     7
 43
1.0
 76
     1
 77
     6
 78
     2
 67
     7
 79
     6
170
     0
171
     0
290
     0
174
     0
 93
        1
 44
0.0
173
     0
291
     0
 45
0.0
  0
VISUALSTYLE
  5
1AA
102
{ACAD_REACTORS
330
19D
102
}
330
19D
100
AcDbVisualStyle
  2
Thicken
 70
    13
 71
     2
 72
     2
 73
     0
 90
        0
 40
0.6
 41
30.0
 62
     5
 63
     7
421
 16777215
 74
     1
 91
        4
 64
     7
 65
   257
 75
     1
175
     1
 42
1.0
 92
       12
 66
     7
 43
1.0
 76
     1
 77
     6
 78
     2
 67
     7
 79
     5
170
     0
171
     0
290
     0
174
     0
 93
        1
 44
0.0
173
     0
291
     1
 45
0.0
  0
VISUALSTYLE
  5
1A3
102
{ACAD_REACTORS
330
19D
102
}
330
19D
100
AcDbVisualStyle
  2
Wireframe
 70
     5
 71
     0
 72
     2
 73
     0
 90
        0
 40
0.6
 41
30.0
 62
     5
 63
     7
421
 16777215
 74
     1
 91
        4
 64
     7
 65
   257
 75
     1
175
     1
 42
1.0
 92
        0
 66
   257
 43
1.0
 76
     1
 77
     6
 78
     2
 67
     7
 79
     3
170
     0
171
     0
290
     0
174
     0
 93
        1
 44
0.0
173
     0
291
     0
 45
0.0
  0
VISUALSTYLE
  5
1B3
102
{ACAD_REACTORS
330
19D
102
}
330
19D
100
AcDbVisualStyle
  2
X-Ray
 70
    25
 71
     2
 72
     2
 73
     1
 90
        1
 40
0.5
 41
30.0
 62
     5
 63
     7
421
 16777215
 74
     1
 91
        0
 64
     7
 65
   257
 75
     1
175
     1
 42
1.0
 92
        8
 66
     7
 43
1.0
 76
     1
 77
     6
 78
     2
 67
     7
 79
     3
170
     0
171
     0
290
     0
174
     0
 93
       13
 44
0.0
173
     0
291
     0
 45
0.0
  0
DICTIONARYVAR
  5
4EF
102
{ACAD_REACTORS
330
4EE
102
}
330
4EE
100
DictionaryVariables
280
     0
  1
1:1
  0
DICTIONARYVAR
  5
4F4
102
{ACAD_REACTORS
330
4EE
102
}
330
4EE
100
DictionaryVariables
280
     0
  1
Standard
  0
DICTIONARYVAR
  5
4F0
102
{ACAD_REACTORS
330
4EE
102
}
330
4EE
100
DictionaryVariables
280
     0
  1
0
  0
DICTIONARYVAR
  5
4F5
102
{ACAD_REACTORS
330
4EE
102
}
330
4EE
100
DictionaryVariables
280
     0
  1
0
  0
DICTIONARY
  5
4FB
330
1BB
100
AcDbDictionary
280
     1
281
     1
  3
ACAD_ROUNDTRIP_2008_TABLESTYLE_CELLSTYLEMAP
360
4FC
  0
CELLSTYLEMAP
  5
4FC
102
{ACAD_REACTORS
330
4FB
102
}
330
4FB
100
AcDbCellStyleMap
 90
        3
300
CELLSTYLE
  1
TABLEFORMAT_BEGIN
 90
        5
170
     1
 91
        0
 92
        0
 62
   257
 93
        1
300
CONTENTFORMAT
  1
CONTENTFORMAT_BEGIN
 90
        0
 91
        0
 92
        4
 93
        0
300

 40
0.0
140
1.0
 94
        5
 62
     0
340
11
144
0.25
309
CONTENTFORMAT_END
171
     1
301
MARGIN
  1
CELLMARGIN_BEGIN
 40
0.06
 40
0.06
 40
0.06
 40
0.06
 40
0.06
 40
0.06
309
CELLMARGIN_END
 94
        6
 95
        1
302
GRIDFORMAT
  1
GRIDFORMAT_BEGIN
 90
        0
 91
        1
 62
     0
 92
       -2
340
14
 93
        0
 40
0.045
309
GRIDFORMAT_END
 95
        2
302
GRIDFORMAT
  1
GRIDFORMAT_BEGIN
 90
        0
 91
        1
 62
     0
 92
       -2
340
14
 93
        0
 40
0.045
309
GRIDFORMAT_END
 95
        4
302
GRIDFORMAT
  1
GRIDFORMAT_BEGIN
 90
        0
 91
        1
 62
     0
 92
       -2
340
14
 93
        0
 40
0.045
309
GRIDFORMAT_END
 95
        8
302
GRIDFORMAT
  1
GRIDFORMAT_BEGIN
 90
        0
 91
        1
 62
     0
 92
       -2
340
14
 93
        0
 40
0.045
309
GRIDFORMAT_END
 95
       16
302
GRIDFORMAT
  1
GRIDFORMAT_BEGIN
 90
        0
 91
        1
 62
     0
 92
       -2
340
14
 93
        0
 40
0.045
309
GRIDFORMAT_END
 95
       32
302
GRIDFORMAT
  1
GRIDFORMAT_BEGIN
 90
        0
 91
        1
 62
     0
 92
       -2
340
14
 93
        0
 40
0.045
309
GRIDFORMAT_END
309
TABLEFORMAT_END
  1
CELLSTYLE_BEGIN
 90
        1
 91
        1
300
_TITLE
309
CELLSTYLE_END
300
CELLSTYLE
  1
TABLEFORMAT_BEGIN
 90
        5
170
     1
 91
        0
 92
        0
 62
   257
 93
        1
300
CONTENTFORMAT
  1
CONTENTFORMAT_BEGIN
 90
        0
 91
        0
 92
        4
 93
        0
300

 40
0.0
140
1.0
 94
        5
 62
     0
340
11
144
0.18
309
CONTENTFORMAT_END
171
     1
301
MARGIN
  1
CELLMARGIN_BEGIN
 40
0.06
 40
0.06
 40
0.06
 40
0.06
 40
0.06
 40
0.06
309
CELLMARGIN_END
 94
        6
 95
        1
302
GRIDFORMAT
  1
GRIDFORMAT_BEGIN
 90
        0
 91
        1
 62
     0
 92
       -2
340
14
 93
        0
 40
0.045
309
GRIDFORMAT_END
 95
        2
302
GRIDFORMAT
  1
GRIDFORMAT_BEGIN
 90
        0
 91
        1
 62
     0
 92
       -2
340
14
 93
        0
 40
0.045
309
GRIDFORMAT_END
 95
        4
302
GRIDFORMAT
  1
GRIDFORMAT_BEGIN
 90
        0
 91
        1
 62
     0
 92
       -2
340
14
 93
        0
 40
0.045
309
GRIDFORMAT_END
 95
        8
302
GRIDFORMAT
  1
GRIDFORMAT_BEGIN
 90
        0
 91
        1
 62
     0
 92
       -2
340
14
 93
        0
 40
0.045
309
GRIDFORMAT_END
 95
       16
302
GRIDFORMAT
  1
GRIDFORMAT_BEGIN
 90
        0
 91
        1
 62
     0
 92
       -2
340
14
 93
        0
 40
0.045
309
GRIDFORMAT_END
 95
       32
302
GRIDFORMAT
  1
GRIDFORMAT_BEGIN
 90
        0
 91
        1
 62
     0
 92
       -2
340
14
 93
        0
 40
0.045
309
GRIDFORMAT_END
309
TABLEFORMAT_END
  1
CELLSTYLE_BEGIN
 90
        2
 91
        1
300
_HEADER
309
CELLSTYLE_END
300
CELLSTYLE
  1
TABLEFORMAT_BEGIN
 90
        5
170
     1
 91
        0
 92
        0
 62
   257
 93
        1
300
CONTENTFORMAT
  1
CONTENTFORMAT_BEGIN
 90
        0
 91
        0
 92
        4
 93
        0
300

 40
0.0
140
1.0
 94
        2
 62
     0
340
11
144
0.18
309
CONTENTFORMAT_END
171
     1
301
MARGIN
  1
CELLMARGIN_BEGIN
 40
0.06
 40
0.06
 40
0.06
 40
0.06
 40
0.06
 40
0.06
309
CELLMARGIN_END
 94
        6
 95
        1
302
GRIDFORMAT
  1
GRIDFORMAT_BEGIN
 90
        0
 91
        1
 62
     0
 92
       -2
340
14
 93
        0
 40
0.045
309
GRIDFORMAT_END
 95
        2
302
GRIDFORMAT
  1
GRIDFORMAT_BEGIN
 90
        0
 91
        1
 62
     0
 92
       -2
340
14
 93
        0
 40
0.045
309
GRIDFORMAT_END
 95
        4
302
GRIDFORMAT
  1
GRIDFORMAT_BEGIN
 90
        0
 91
        1
 62
     0
 92
       -2
340
14
 93
        0
 40
0.045
309
GRIDFORMAT_END
 95
        8
302
GRIDFORMAT
  1
GRIDFORMAT_BEGIN
 90
        0
 91
        1
 62
     0
 92
       -2
340
14
 93
        0
 40
0.045
309
GRIDFORMAT_END
 95
       16
302
GRIDFORMAT
  1
GRIDFORMAT_BEGIN
 90
        0
 91
        1
 62
     0
 92
       -2
340
14
 93
        0
 40
0.045
309
GRIDFORMAT_END
 95
       32
302
GRIDFORMAT
  1
GRIDFORMAT_BEGIN
 90
        0
 91
        1
 62
     0
 92
       -2
340
14
 93
        0
 40
0.045
309
GRIDFORMAT_END
309
TABLEFORMAT_END
  1
CELLSTYLE_BEGIN
 90
        3
 91
        2
300
_DATA
309
CELLSTYLE_END
  0
ENDSEC
  0
EOF
